<?xml version="1.0" encoding="UTF-8"?>
<svg xmlns="http://www.w3.org/2000/svg" xmlns:xlink="http://www.w3.org/1999/xlink" version="1.2" >
<font id="Janecia- Thin">
<font-face  font-family="Janecia-" units-per-em="1024" ascent="975" descent="-300" font-style="normal" font-weight="100" font-stretch="normal" cap-height="750" x-height="500" underline-position="-125" underline-thickness="50" />
<missing-glyph  horiz-adv-x="650" d="" />
<glyph glyph-name="NULL" d="" />
<glyph glyph-name="CR" unicode="&#xd;" horiz-adv-x="256" d="" />
<glyph glyph-name="space" unicode="&#x20;" horiz-adv-x="250" d="" />
<glyph glyph-name="exclam" unicode="&#x21;" horiz-adv-x="164" d="M82 -5 C88 -5 102 9 102 15 C102 21 88 35 82 35 C76 35 62 21 62 15 C62 9 76 -5 82 -5 L82 -5 Z M82 755 C77 755 70 707 70 688 L80 210 L84 210 L94 688 C95 707 87 755 82 755 L82 755 Z " />
<glyph glyph-name="quotedbl" unicode="&#x22;" horiz-adv-x="253" d="M166 755 C159 755 145 726 147 715 L165 555 L168 555 L187 715 C188 726 174 755 167 755 L166 755 L166 755 Z M75 755 C68 755 54 726 56 715 L74 555 L77 555 L96 715 C97 726 83 755 76 755 L75 755 L75 755 Z " />
<glyph glyph-name="numbersign" unicode="&#x23;" horiz-adv-x="521" d="M390 692 L359 468 L202 468 L233 692 L232 692 L201 468 L61 468 L59 452 L199 452 L165 208 L23 208 L21 192 L163 192 L136 0 L138 0 L164 192 L321 192 L295 0 L296 0 L322 192 L457 192 L459 208 L325 208 L358 452 L500 452 L502 468 L360 468 L391 692 L390 692 L390 692 Z M200 452 L357 452 L324 208 L167 208 L200 452 L200 452 Z " />
<glyph glyph-name="dollar" unicode="&#x24;" horiz-adv-x="540" d="M307 825 L307 739 C280 751 256 759 241 760 L241 825 L227 825 L227 758 C177 742 80 633 80 588 C80 564 157 477 227 417 L227 23 C217 29 207 35 197 41 C168 62 82 191 76 215 C75 221 71 236 71 236 L64 236 L56 236 L56 148 L56 120 L56 3 L64 3 L71 3 C71 3 75 29 76 39 C78 53 134 71 157 61 C180 46 205 31 228 19 L228 -77 L242 -77 L242 12 C269 -1 293 -10 308 -11 L308 -76 L322 -76 L322 -10 C382 4 502 121 502 170 C502 206 382 352 322 384 L322 712 C371 666 432 592 436 573 C438 567 441 552 441 552 L449 552 L456 552 L456 640 L456 653 L456 755 L449 755 L441 755 C441 755 438 734 436 726 C434 715 390 694 376 703 L374 704 C357 714 339 723 322 731 L322 824 L307 825 L307 825 Z M322 728 L322 728 C325 727 328 726 331 725 L322 728 L322 728 Z M309 735 L279 749 C287 745 297 737 309 727 L309 393 C290 403 267 420 243 440 L243 760 C251 759 262 756 275 751 L274 751 C275 751 276 751 277 751 C287 747 298 742 310 736 L309 735 L309 735 Z M280 749 L276 751 L276 751 C277 751 278 751 279 750 L280 749 L280 749 Z M243 407 C266 388 288 373 305 365 C306 364 307 363 308 362 L308 -8 C293 -7 269 3 242 17 L243 407 L243 407 Z M322 354 C383 313 484 196 484 166 C484 120 376 9 322 -6 L322 354 L322 354 Z M228 452 C164 507 98 578 98 598 C98 640 183 741 228 757 L228 452 L228 452 Z " />
<glyph glyph-name="ampersand" unicode="&#x26;" horiz-adv-x="836" d="M311 471 L314 468 C352 480 449 584 449 614 C449 656 353 760 315 760 C271 760 160 651 160 607 C160 594 262 459 302 412 L489 194 C393 92 296 9 258 9 C207 9 79 152 79 210 C79 260 203 424 253 439 L249 440 C195 424 58 254 58 203 C58 143 192 -10 246 -10 C287 -10 392 81 493 190 L564 107 C593 73 690 -10 701 -10 C731 -10 822 104 828 149 L824 150 C819 109 737 6 709 6 C700 6 609 86 582 117 L507 205 C604 311 695 431 720 500 L715 500 C690 432 599 313 503 209 L321 422 C280 470 178 605 178 618 C178 657 277 755 316 755 C350 755 434 655 434 615 C434 585 347 481 312 471 L311 471 L311 471 Z " />
<glyph glyph-name="quotesingle" unicode="&#x27;" horiz-adv-x="162" d="M75 755 C68 755 54 726 56 715 L74 555 L77 555 L96 715 C97 726 83 755 76 755 L75 755 L75 755 Z " />
<glyph glyph-name="parenleft" unicode="&#x28;" horiz-adv-x="314" d="M333 760 C264 705 90 357 90 273 C90 189 264 -159 333 -214 L335 -212 C269 -160 104 187 104 273 C104 359 269 705 335 758 L333 760 L333 760 Z " />
<glyph glyph-name="parenright" unicode="&#x29;" horiz-adv-x="301" d="M-22 758 C41 705 197 359 197 273 C197 186 41 -162 -22 -214 L-20 -216 C46 -162 212 188 212 273 C212 356 46 705 -20 760 L-22 758 L-22 758 Z " />
<glyph glyph-name="asterisk" unicode="&#x2a;" horiz-adv-x="245" d="M150 630 L156 750 C156 752 152 758 150 758 C148 758 144 752 144 750 L150 630 L150 630 Z M150 630 L251 565 C253 563 260 564 261 566 C262 568 259 574 257 575 L150 630 L150 630 Z M150 630 L49 695 C47 697 40 696 39 694 C38 692 41 686 43 685 L150 630 L150 630 Z M150 630 L257 685 C259 686 262 692 261 694 C260 696 253 697 251 695 L150 630 L150 630 Z M150 630 L43 575 C41 574 38 568 39 566 C40 564 47 563 49 565 L150 630 L150 630 Z M150 630 L144 510 C144 508 148 502 150 502 C152 502 156 508 156 510 L150 630 L150 630 Z " />
<glyph glyph-name="plus" unicode="&#x2b;" horiz-adv-x="620" d="M302 460 L302 257 L100 257 L100 243 L302 243 L302 40 L318 40 L318 243 L520 243 L520 257 L318 257 L318 460 L302 460 L302 460 Z " />
<glyph glyph-name="comma" unicode="&#x2c;" horiz-adv-x="210" d="M125 -5 C128 -5 134 -1 138 4 C132 -19 112 -59 103 -62 L104 -66 C117 -62 149 -4 149 15 C149 20 131 34 124 34 C118 34 104 20 104 14 C104 8 118 -6 124 -6 L125 -5 L125 -5 Z " />
<glyph glyph-name="hyphen" unicode="&#x2d;" horiz-adv-x="430" d="M80 277 L350 277 L350 293 L80 293 L80 277 L80 277 Z " />
<glyph glyph-name="period" unicode="&#x2e;" horiz-adv-x="210" d="M125 -5 C131 -5 145 9 145 15 C145 21 131 35 125 35 C119 35 105 21 105 15 C105 9 119 -5 125 -5 L125 -5 Z " />
<glyph glyph-name="slash" unicode="&#x2f;" horiz-adv-x="369" d="M328 770 L46 -80 L58 -80 L340 770 L328 770 L328 770 Z " />
<glyph glyph-name="zero" unicode="0" horiz-adv-x="602" d="M305 -2 C243 -2 62 178 62 250 C62 315 236 502 305 502 C367 502 548 322 548 250 C548 185 374 -2 305 -2 L305 -2 Z M53 250 C53 176 240 -10 305 -10 C377 -10 557 183 557 250 C557 324 370 510 305 510 C233 510 53 317 53 250 L53 250 Z " />
<glyph glyph-name="one" unicode="1" horiz-adv-x="300" d="M160 35 L160 465 C160 471 210 480 230 480 L260 480 L260 490 L260 500 L150 500 L40 500 L40 490 L40 480 L70 480 C90 480 140 471 140 465 L140 35 C140 29 90 20 70 20 L40 20 L40 10 L40 0 L150 0 L260 0 L260 10 L260 20 L230 20 C210 20 160 29 160 35 L160 35 Z " />
<glyph glyph-name="two" unicode="2" horiz-adv-x="515" d="M51 292 C62 350 198 495 241 495 C285 495 395 382 395 337 C395 282 124 51 30 4 L30 0 L329 0 L409 0 L420 0 L431 17 C436 26 442 35 444 38 C447 44 464 71 468 76 L460 80 C458 81 452 83 452 83 L433 53 C427 43 345 18 301 18 L61 18 C178 92 414 292 414 341 C414 389 297 510 250 510 C204 510 58 355 46 293 L51 292 L51 292 Z " />
<glyph glyph-name="three" unicode="3" horiz-adv-x="400" d="M19 -228 L20 -232 C117 -222 361 -63 361 -11 C361 29 177 154 103 166 C189 210 366 348 366 382 C366 419 256 510 212 510 C169 510 34 396 24 350 L28 349 C38 391 163 496 203 496 C244 496 345 410 345 375 C345 340 161 194 88 163 L88 159 C160 149 340 24 340 -16 C340 -67 111 -218 19 -228 L19 -228 Z " />
<glyph glyph-name="four" unicode="4" horiz-adv-x="620" d="M595 0 C596 6 597 11 597 13 C598 22 605 71 606 80 L596 80 L586 80 L582 50 C581 40 511 15 467 15 L415 15 L415 495 L415 530 L412 530 L15 4 L15 0 L22 0 L395 0 L395 -220 L415 -220 L415 0 L515 0 C539 0 572 -18 571 -25 L567 -55 L577 -55 L587 -55 C589 -47 593 -18 596 0 L596 0 L595 0 L595 0 Z M33 14 L397 496 L396 495 L396 15 L34 15 L33 14 L33 14 Z " />
<glyph glyph-name="five" unicode="5" horiz-adv-x="421" d="M60 -231 C154 -219 391 -22 391 45 C391 106 178 260 93 260 L89 260 L137 482 L338 483 C339 487 343 507 343 511 C344 515 348 536 348 540 L338 540 L328 540 L326 527 C325 519 261 500 221 500 L133 500 L78 242 L81 239 L90 239 C171 239 374 95 374 38 C374 -27 149 -216 60 -227 L60 -231 L60 -231 Z " />
<glyph glyph-name="six" unicode="6" horiz-adv-x="549" d="M534 750 C396 721 50 386 50 283 C50 199 216 -10 282 -10 C344 -10 499 169 499 240 C499 303 325 460 256 460 C215 460 127 385 87 326 C156 464 421 722 536 746 L534 750 L534 750 Z M71 271 C71 324 204 458 256 458 C320 458 480 302 480 240 C480 169 339 -10 283 -10 C222 -10 71 191 71 271 L71 271 Z " />
<glyph glyph-name="seven" unicode="7" horiz-adv-x="436" d="M83 500 L80 500 L73 484 L76 484 C75 482 74 480 73 479 C69 471 50 427 46 419 L56 419 L66 419 L75 439 C80 452 125 484 145 484 L423 484 L430 485 L120 -220 L135 -220 L431 485 L431 500 L430 500 L144 500 C127 500 110 518 113 525 L120 540 L110 540 L100 540 C98 534 90 515 83 499 L83 500 L83 500 Z " />
<glyph glyph-name="eight" unicode="8" horiz-adv-x="543" d="M254 395 C258 392 262 390 266 388 C330 363 488 224 488 174 C488 122 338 -10 278 -10 C219 -10 71 121 71 173 C71 216 200 370 254 393 L254 395 L254 395 Z M254 393 C195 369 54 213 54 172 C54 120 214 -12 278 -12 C342 -12 503 127 503 182 C503 231 358 362 287 400 C344 422 476 558 476 593 C476 640 334 757 277 757 C221 757 79 633 79 583 C79 548 196 427 255 393 L254 393 L254 393 Z M288 400 C284 402 280 404 276 406 C225 426 96 556 96 592 C96 639 226 757 278 757 C330 757 460 639 460 593 C460 557 340 422 288 400 L288 400 Z " />
<glyph glyph-name="nine" unicode="9" horiz-adv-x="549" d="M16 -250 C154 -221 500 114 500 217 C500 301 334 510 268 510 C206 510 51 331 51 260 C51 197 225 40 294 40 C336 40 427 119 465 178 C400 41 130 -223 14 -248 L16 -250 L16 -250 Z M479 227 C479 174 346 40 293 40 C230 40 70 196 70 258 C70 329 211 508 267 508 C327 508 479 307 479 227 L479 227 Z " />
<glyph glyph-name="colon" unicode="&#x3a;" horiz-adv-x="210" d="M125 465 C131 465 145 479 145 485 C145 491 131 505 125 505 C119 505 105 491 105 485 C105 479 119 465 125 465 L125 465 Z M125 -5 C131 -5 145 9 145 15 C145 21 131 35 125 35 C119 35 105 21 105 15 C105 9 119 -5 125 -5 L125 -5 Z " />
<glyph glyph-name="semicolon" unicode="&#x3b;" horiz-adv-x="230" d="M125 385 C131 385 145 399 145 405 C145 411 131 425 125 425 C119 425 105 411 105 405 C105 399 119 385 125 385 L125 385 Z M140 -5 C143 -5 149 -1 153 4 C147 -19 127 -59 118 -62 L119 -66 C132 -62 164 -4 164 15 C164 20 146 34 139 34 C133 34 119 20 119 14 C119 8 133 -6 139 -6 L140 -5 L140 -5 Z " />
<glyph glyph-name="equal" unicode="&#x3d;" horiz-adv-x="523" d="M73 204 L73 196 L453 196 L453 204 L73 204 L73 204 Z M73 304 L73 296 L453 296 L453 304 L73 304 L73 304 Z " />
<glyph glyph-name="question" unicode="&#x3f;" horiz-adv-x="309" d="M125 -5 C131 -5 145 9 145 15 C145 21 131 35 125 35 C119 35 105 21 105 15 C105 9 119 -5 125 -5 L125 -5 Z M119 145 L125 360 C162 360 259 431 278 460 C285 471 305 537 305 551 C305 611 191 760 145 760 C140 760 126 749 126 745 C126 742 134 735 137 735 C139 735 150 739 152 739 C194 739 299 603 299 549 C299 537 281 480 273 469 C256 444 159 380 118 380 L115 145 L119 145 L119 145 Z " />
<glyph glyph-name="at" unicode="&#x40;" horiz-adv-x="1121" d="M1046 0 C1014 -69 668 -241 562 -241 C422 -241 71 117 71 259 C71 401 421 759 561 759 C701 759 1051 462 1051 343 C1051 246 907 2 849 2 C783 2 651 144 665 200 L735 480 L716 480 L687 366 C675 409 598 491 566 491 C492 491 305 285 305 202 C305 150 425 18 473 18 C508 18 618 125 646 182 C658 116 781 -5 846 -5 C909 -5 1067 244 1067 343 C1067 463 705 764 561 764 C417 764 55 403 55 259 C55 115 417 -246 562 -246 C669 -246 1020 -70 1053 0 L1046 0 L1046 0 Z M685 356 L646 200 C634 151 517 28 483 28 C439 28 327 155 327 205 C327 285 497 484 565 484 C600 484 684 394 685 356 L685 356 Z " />
<glyph glyph-name="A" unicode="A" horiz-adv-x="712" d="M577 140 L576 140 L401 743 L393 770 L391 770 C385 762 376 743 379 743 L382 733 L243 298 L242 298 L242 297 L242 297 L201 170 L200 170 C181 110 77 20 47 20 L17 20 L17 10 L17 0 L146 0 L147 0 L164 0 L312 0 L312 10 L312 20 L288 20 C251 20 186 105 199 165 L241 297 L506 297 L551 140 L551 140 C565 92 511 20 481 20 L457 20 L457 10 L457 0 L581 0 L592 0 L615 0 L705 0 L705 10 L705 20 L675 20 C656 20 588 92 575 140 L577 140 L577 140 Z M241 298 L380 733 L506 298 L241 298 L241 298 Z " />
<glyph glyph-name="B" unicode="B" horiz-adv-x="585" d="M330 385 C384 385 521 247 521 193 C521 119 367 1 306 1 L256 1 C236 1 187 57 187 80 L187 85 L187 385 L187 665 L187 749 L270 749 C365 749 517 618 517 566 C517 514 352 385 287 385 C359 385 539 516 539 568 C539 620 375 750 272 750 L187 750 L123 750 L59 750 L59 740 L59 730 L89 730 C111 730 164 691 164 665 L164 85 C164 59 111 20 89 20 L59 20 L59 10 L59 0 L123 0 L187 0 L307 0 C375 0 545 119 545 193 C545 247 393 385 332 385 L330 385 L330 385 Z " />
<glyph glyph-name="C" unicode="C" horiz-adv-x="675" d="M506 707 L502 709 C448 737 390 760 358 760 C277 760 71 485 71 375 C71 265 269 -10 348 -10 C380 -10 445 16 505 46 L505 46 C530 58 604 46 607 35 C609 26 615 5 615 5 L621 5 L627 5 L627 109 L627 124 L627 213 L619 213 L612 213 C612 213 608 198 607 192 C601 170 507 51 477 36 L477 36 C426 11 375 -9 349 -9 C277 -9 96 266 96 375 C96 484 285 759 360 759 C381 759 415 747 452 730 C494 704 602 580 608 557 C609 551 613 536 613 536 L620 536 L628 536 L628 625 L628 638 L628 740 L620 740 L613 740 C613 740 609 720 608 711 C606 700 533 692 507 706 L506 707 L506 707 Z " />
<glyph glyph-name="D" unicode="D" horiz-adv-x="753" d="M145 665 L145 85 C145 59 92 20 70 20 L40 20 L40 10 L40 0 L104 0 L145 0 L168 0 L248 0 C376 0 699 257 699 375 C699 482 417 750 288 750 L168 750 L145 750 L104 750 L40 750 L40 740 L40 730 L70 730 C92 730 145 691 145 665 L145 665 Z M168 749 L285 749 C407 749 674 482 674 375 C674 258 368 1 247 1 C213 1 168 57 168 80 L168 85 L168 665 L168 749 L168 749 Z " />
<glyph glyph-name="E" unicode="E" horiz-adv-x="671" d="M479 0 L599 0 C601 9 607 54 608 63 C609 72 616 117 617 126 L607 126 L597 126 L593 96 C589 69 519 1 480 1 L267 1 C233 1 187 57 187 80 L187 85 L187 385 L391 385 C431 385 491 306 491 275 L491 245 L501 245 L511 245 L511 385 L511 386 L511 526 L501 526 L491 526 L491 496 C491 465 431 386 391 386 L187 386 L187 665 L187 749 L457 749 C505 749 563 673 565 642 L566 624 L576 624 L586 624 C585 633 582 678 582 687 C581 696 578 741 577 750 L457 750 L187 750 L164 750 L123 750 L59 750 L59 740 L59 730 L89 730 C111 730 164 691 164 665 L164 85 C164 59 111 20 89 20 L59 20 L59 10 L59 0 L123 0 L164 0 L187 0 L479 0 L479 0 Z " />
<glyph glyph-name="F" unicode="F" horiz-adv-x="649" d="M399 384 C438 375 493 312 495 286 L499 240 L505 240 L511 240 L511 384 L511 385 L511 529 L505 529 L499 529 L495 484 C493 456 430 385 391 385 L187 385 L187 665 L187 749 L377 749 C449 749 563 681 566 654 L568 624 C568 624 575 625 578 626 C581 626 588 627 588 627 C587 636 583 680 583 688 C582 697 578 741 577 750 L457 750 L187 750 L164 750 L123 750 L59 750 L59 740 L59 730 L89 730 C111 730 164 691 164 665 L164 85 C164 59 111 20 89 20 L59 20 L59 10 L59 0 L164 0 L176 0 L187 0 L292 0 L292 10 L292 20 L262 20 C240 20 187 59 187 85 L187 384 L399 384 L399 384 Z " />
<glyph glyph-name="G" unicode="G" horiz-adv-x="749" d="M506 707 L502 709 C448 737 390 760 358 760 C277 760 71 485 71 375 C71 265 270 -10 349 -10 C416 -10 641 42 685 63 C673 57 644 48 608 39 L609 244 C609 268 648 304 664 304 L694 304 L694 314 L694 324 L590 324 L486 324 L486 314 L486 304 L516 304 C536 304 586 268 586 244 L587 57 C584 47 537 30 484 16 L586 33 L594 35 C511 15 397 -7 351 -7 C278 -7 95 265 95 373 C95 482 284 757 359 757 C380 757 414 745 451 728 C493 702 601 578 607 555 C608 549 612 534 612 534 L619 534 L627 534 L627 623 L627 636 L627 738 L619 738 L612 738 C612 738 608 718 607 709 C605 698 532 690 506 704 L506 707 L506 707 Z M484 15 C436 2 383 -8 352 -8 L484 15 L484 15 Z " />
<glyph glyph-name="H" unicode="H" horiz-adv-x="805" d="M661 80 L661 670 C661 694 715 730 736 730 L766 730 L766 740 L766 750 L650 750 L534 750 L534 740 L534 730 L564 730 C585 730 639 694 639 670 L639 383 L639 80 C639 56 585 20 564 20 L534 20 L534 10 L534 0 L650 0 L766 0 L766 10 L766 20 L736 20 C715 20 661 56 661 80 L661 80 Z M168 383 L168 670 C168 694 221 730 243 730 L273 730 L273 740 L273 750 L156 750 L40 750 L40 740 L40 730 L70 730 C92 730 145 694 145 670 L145 80 C145 56 92 20 70 20 L40 20 L40 10 L40 0 L156 0 L273 0 L273 10 L273 20 L243 20 C221 20 168 56 168 80 L168 383 L168 383 Z " />
<glyph glyph-name="I" unicode="I" horiz-adv-x="346" d="M201 80 L201 670 C201 694 255 730 276 730 L306 730 L306 740 L306 750 L190 750 L74 750 L74 740 L74 730 L104 730 C125 730 179 694 179 670 L179 80 C179 56 125 20 104 20 L74 20 L74 10 L74 0 L190 0 L306 0 L306 10 L306 20 L276 20 C255 20 201 56 201 80 L201 80 Z " />
<glyph glyph-name="J" unicode="J" horiz-adv-x="346" d="M179 670 L179 1 C179 -87 79 -219 55 -219 C49 -219 42 -200 37 -200 C34 -200 26 -208 26 -211 C26 -213 46 -220 54 -220 C83 -220 201 -62 201 43 L201 670 C201 694 255 730 276 730 L306 730 L306 740 L306 750 L190 750 L74 750 L74 740 L74 730 L104 730 C125 730 179 694 179 670 L179 670 Z " />
<glyph glyph-name="K" unicode="K" horiz-adv-x="666" d="M499 85 L499 85 L205 389 L421 638 L422 639 C453 675 546 729 565 729 L595 729 L595 739 L595 749 L517 749 L508 749 L482 749 L368 749 L368 739 L368 729 L391 729 C419 729 429 657 388 609 L389 610 L187 374 L187 689 C187 705 240 729 262 729 L292 729 L292 739 L292 749 L187 749 L176 749 L164 749 L59 749 L59 739 L59 729 L89 729 C111 729 164 705 164 689 L164 59 C164 43 111 19 89 19 L59 19 L59 9 L59 -1 L164 -1 L176 -1 L187 -1 L292 -1 L292 9 L292 19 L262 19 C240 19 187 43 187 59 L187 374 L469 84 L469 84 C473 80 477 76 481 72 L552 0 L581 0 L600 0 L647 0 L647 10 L647 20 L609 20 C596 20 514 69 499 85 L499 85 Z " />
<glyph glyph-name="L" unicode="L" horiz-adv-x="688" d="M614 1 C617 12 632 70 635 81 C639 93 654 151 657 162 C657 162 650 163 648 164 C645 165 638 166 638 166 L630 136 C620 97 495 1 429 1 L281 1 C247 1 201 57 201 80 L201 85 L201 665 C201 691 255 730 276 730 L306 730 L306 740 L306 750 L201 750 L190 750 L179 750 L74 750 L74 740 L74 730 L104 730 C125 730 179 691 179 665 L179 85 C179 59 125 20 104 20 L74 20 L74 10 L74 0 L138 0 L179 0 L201 0 L614 0 L614 1 L614 1 Z " />
<glyph glyph-name="M" unicode="M" horiz-adv-x="830" d="M729 85 L729 85 L715 582 L715 580 C713 640 764 730 786 730 L815 730 L815 740 L815 750 L752 750 L710 750 L697 750 L689 750 L437 28 L437 29 L165 750 L164 750 L159 750 L138 750 L103 750 L41 750 L41 740 L41 730 L71 730 C87 730 133 706 157 683 L142 149 L142 149 C141 97 71 19 44 19 L14 19 L14 9 L14 -1 L138 -1 L142 -1 L146 -1 L271 -1 L271 9 L271 19 L241 19 C215 19 153 85 149 133 L162 677 C165 674 168 671 170 668 L416 29 L427 0 L433 0 L690 729 L707 85 L706 85 C707 59 653 20 631 20 L601 20 L601 10 L601 0 L709 0 L717 0 L731 0 L834 0 L834 10 L834 20 L804 20 C783 20 729 59 729 85 L729 85 Z " />
<glyph glyph-name="N" unicode="N" horiz-adv-x="750" d="M150 140 L150 140 L149 707 C154 703 158 699 160 695 L160 696 L578 32 L598 0 L602 0 L604 630 L604 630 C604 670 672 730 699 730 L729 730 L729 740 L729 750 L604 750 L601 750 L597 750 L472 750 L472 740 L472 730 L502 730 C529 730 597 670 597 630 L597 630 L598 42 L597 44 L153 750 L148 750 L143 750 L126 750 L113 750 L73 750 L73 740 L73 730 L110 730 C115 730 130 722 143 712 L142 150 L142 150 C142 98 74 20 47 20 L17 20 L17 10 L17 0 L142 0 L146 0 L149 0 L274 0 L274 10 L274 20 L244 20 C217 20 149 92 149 140 L150 140 L150 140 Z " />
<glyph glyph-name="O" unicode="O" horiz-adv-x="838" d="M404 -9 C311 -9 79 266 79 375 C79 484 318 759 413 759 C512 759 758 484 758 375 C758 266 505 -9 404 -9 L404 -9 Z M54 375 C54 265 304 -10 403 -10 C512 -10 783 265 783 375 C783 485 519 760 413 760 C311 760 54 485 54 375 L54 375 Z " />
<glyph glyph-name="P" unicode="P" horiz-adv-x="622" d="M181 0 L192 0 L297 0 L297 10 L297 20 L267 20 C246 20 192 59 192 85 L192 360 L342 360 C416 360 602 482 602 542 C602 601 420 750 347 750 L192 750 L170 750 L129 750 L65 750 L65 740 L65 730 L95 730 C116 730 170 691 170 665 L170 85 C170 59 116 20 95 20 L65 20 L65 10 L65 0 L170 0 L181 0 L181 0 Z M192 365 L192 665 L192 746 L342 746 C410 746 581 603 581 546 C581 487 410 365 342 365 L192 365 L192 365 Z " />
<glyph glyph-name="Q" unicode="Q" horiz-adv-x="850" d="M1150 -55 L1150 -54 C1136 -66 927 -95 857 -95 C774 -95 469 -36 417 -10 C418 -10 419 -10 420 -10 C529 -10 800 265 800 375 C800 485 536 760 430 760 C328 760 71 485 71 375 C71 272 332 26 407 -7 L405 -7 C454 -36 776 -110 854 -110 C920 -110 1132 -71 1150 -56 L1150 -55 L1150 -55 Z M420 -10 C374 -10 96 265 96 374 C96 483 335 758 430 758 C528 758 774 483 774 374 C774 265 521 -10 420 -10 L420 -10 Z " />
<glyph glyph-name="R" unicode="R" horiz-adv-x="717" d="M708 0 L708 4 C653 4 562 45 540 80 C492 158 377 344 357 376 C441 392 598 491 598 541 C598 600 415 749 343 749 L187 749 L123 749 L59 749 L59 739 L59 729 L89 729 C111 729 164 690 164 664 L164 84 C164 58 111 19 89 19 L59 19 L59 9 L59 -1 L176 -1 L292 -1 L292 9 L292 19 L262 19 C240 19 187 58 187 84 L187 373 L336 373 C351 347 467 157 515 79 C537 43 643 -1 709 -1 L708 0 L708 0 Z M188 745 L337 745 C404 745 574 602 574 545 C574 491 404 379 337 379 L188 379 L188 664 L188 745 L188 745 Z " />
<glyph glyph-name="S" unicode="S" horiz-adv-x="540" d="M375 704 L373 705 C323 734 264 760 239 760 C194 760 81 637 81 588 C81 554 234 396 304 363 C361 337 484 197 484 164 C484 115 360 -9 311 -9 C290 -9 244 13 197 41 C168 62 82 191 76 215 C75 221 71 236 71 236 L64 236 L56 236 L56 148 L56 120 L56 3 L64 3 L71 3 C71 3 75 29 76 39 C78 53 134 71 157 61 C216 23 283 -11 311 -11 C366 -11 502 118 502 170 C502 207 376 359 318 386 C249 418 98 565 98 596 C98 642 199 758 239 758 C247 758 259 755 273 750 L272 750 C273 750 274 750 275 750 C291 744 310 735 329 725 L277 749 C319 727 429 601 435 575 C437 569 440 554 440 554 L448 554 L455 554 L455 642 L455 655 L455 757 L448 757 L440 757 C440 757 437 736 435 728 C433 717 389 696 375 705 L375 704 L375 704 Z M277 750 L273 752 L273 752 C274 752 275 752 276 751 L277 750 L277 750 Z " />
<glyph glyph-name="T" unicode="T" horiz-adv-x="775" d="M720 745 L720 750 L718 750 C712 767 706 784 704 789 C704 789 696 789 694 790 L683 790 L688 777 C691 769 638 750 598 750 L399 750 L376 750 L177 750 C137 750 84 769 87 777 L92 790 L81 790 C79 789 71 789 71 789 C69 784 63 767 57 750 L55 750 L55 745 C50 732 46 720 44 715 C41 705 21 652 18 642 C18 642 24 641 27 640 C30 640 37 639 37 639 L48 669 C55 691 135 744 175 744 L376 744 L376 80 C376 56 323 20 301 20 L271 20 L271 10 L271 0 L388 0 L504 0 L504 10 L504 20 L474 20 C452 20 399 56 399 80 L399 744 L600 744 C640 744 720 691 727 669 L738 639 C738 639 745 640 748 640 C751 641 757 642 757 642 C754 652 734 705 731 715 C729 720 725 732 720 745 L720 745 Z " />
<glyph glyph-name="U" unicode="U" horiz-adv-x="752" d="M637 665 L637 750 L573 750 L510 750 L510 740 L510 730 L540 730 C561 730 615 691 615 665 L615 164 C593 118 341 4 262 4 C225 4 133 158 133 220 L133 665 L133 750 L69 750 L5 750 L5 740 L5 730 L35 730 C57 730 110 691 110 665 L110 220 C110 154 212 -10 253 -10 C334 -10 593 107 615 153 L615 110 L615 0 L618 0 L741 55 L741 65 C700 63 637 89 637 110 L637 665 L637 665 Z " />
<glyph glyph-name="V" unicode="V" horiz-adv-x="747" d="M113 688 L319 30 L332 -10 L337 -10 L564 620 C586 667 651 730 669 730 L699 730 L699 740 L699 750 L611 750 L602 750 L568 750 L437 750 L437 740 L437 730 L460 730 C499 730 569 658 552 610 L552 610 L332 -10 L346 30 L162 612 C151 660 222 730 260 730 L283 730 L283 740 L283 750 L159 750 L118 750 L93 750 L34 750 L34 740 L34 730 L71 730 C79 730 106 706 111 690 L113 688 L113 688 Z " />
<glyph glyph-name="W" unicode="W" horiz-adv-x="1086" d="M531 689 L580 500 L580 500 L356 28 L356 28 L191 610 L191 610 C178 658 240 730 272 730 L296 730 L296 740 L296 750 L182 750 L151 750 L127 750 L67 750 L67 740 L67 730 L105 730 C112 730 149 665 165 617 L328 28 L339 -10 L345 -10 L584 490 L702 32 L713 -10 L719 -10 L908 610 L909 610 C923 658 992 730 1010 730 L1040 730 L1040 740 L1040 750 L951 750 L942 750 L909 750 L777 750 L777 740 L777 730 L801 730 C839 730 910 661 900 613 L725 32 L569 641 L570 639 C560 675 629 729 662 729 L686 729 L686 739 L686 749 L556 749 L541 749 L516 749 L426 749 L426 739 L426 729 L456 729 C474 729 527 705 531 689 L531 689 Z " />
<glyph glyph-name="X" unicode="X" horiz-adv-x="792" d="M262 150 L262 150 L405 369 L544 140 L544 140 C573 92 553 20 527 20 L504 20 L504 10 L504 0 L616 0 L629 0 L655 0 L728 0 L728 10 L728 20 L697 20 C683 20 607 85 575 133 L420 390 L552 592 C594 651 681 730 697 730 L727 730 L727 740 L727 750 L655 750 L645 750 L619 750 L510 750 L510 740 L510 730 L534 730 C561 730 583 655 553 603 L420 391 L287 610 L287 610 C258 658 278 730 303 730 L327 730 L327 740 L327 750 L220 750 L202 750 L176 750 L113 750 L113 740 L113 730 L146 730 C158 730 232 658 260 610 L261 610 L405 373 L233 114 C202 74 117 20 97 20 L67 20 L67 10 L67 0 L158 0 L167 0 L209 0 L352 0 L352 10 L352 20 L330 20 C287 20 231 98 265 150 L262 150 L262 150 Z " />
<glyph glyph-name="Y" unicode="Y" horiz-adv-x="722" d="M206 616 C183 664 192 731 211 731 L236 731 L236 741 L236 751 L143 751 L131 751 L104 751 L51 751 L51 741 L51 731 L88 731 C96 731 156 659 183 611 L183 611 L338 337 L338 81 C338 57 284 21 263 21 L233 21 L233 11 L233 1 L349 1 L465 1 L465 11 L465 21 L435 21 C414 21 360 57 360 81 L360 340 L509 613 L508 611 C534 659 612 731 627 731 L658 731 L658 741 L658 751 L584 751 L582 751 L568 751 L477 751 L477 741 L477 731 L502 731 C521 731 534 674 517 631 L360 342 L206 616 L206 616 Z " />
<glyph glyph-name="Z" unicode="Z" horiz-adv-x="700" d="M97 0 L494 0 L654 0 C657 11 671 68 674 79 C677 91 691 147 693 158 C693 158 687 159 684 160 C681 160 674 161 674 161 L657 117 C646 87 553 13 504 6 L102 5 L659 745 L659 750 L637 750 L289 750 L119 750 C117 738 109 676 107 664 C105 652 96 590 95 577 C95 577 104 576 108 576 C111 575 120 574 120 574 L127 604 C135 643 228 737 282 744 L633 745 L74 5 L74 0 L97 0 L97 0 Z " />
<glyph glyph-name="bracketleft" unicode="&#x5b;" horiz-adv-x="277" d="M117 744 L327 744 L327 750 L117 750 L110 750 L110 -195 L117 -195 L327 -195 L327 -189 L117 -189 L117 744 L117 744 Z " />
<glyph glyph-name="backslash" unicode="&#x5c;" horiz-adv-x="327" d="M46 770 L306 -80 L318 -80 L58 770 L46 770 L46 770 Z " />
<glyph glyph-name="bracketright" unicode="&#x5d;" horiz-adv-x="280" d="M163 744 L163 -189 L-47 -189 L-47 -195 L163 -195 L170 -195 L170 750 L163 750 L-47 750 L-47 744 L163 744 L163 744 Z " />
<glyph glyph-name="underscore" unicode="&#x5f;" horiz-adv-x="455" d="M5 -50 L5 -61 L450 -61 L450 -50 L5 -50 L5 -50 Z " />
<glyph glyph-name="a" unicode="a" horiz-adv-x="495" d="M506 56 L498 60 C496 45 456 9 443 9 C426 9 384 48 384 64 L384 361 C384 410 288 510 250 510 C197 510 65 386 65 360 C65 356 72 346 75 346 C82 346 100 354 100 356 C100 362 80 369 80 373 C80 396 201 509 249 509 C282 509 364 415 364 368 L364 266 C240 228 45 114 45 73 C45 49 128 -11 161 -11 C185 -11 320 55 364 92 L364 64 C364 44 415 -5 435 -5 C452 -5 503 39 506 56 L506 56 Z M364 266 L364 92 C324 59 196 0 172 0 C141 0 65 54 65 75 C65 117 248 229 364 266 L364 266 Z " />
<glyph glyph-name="b" unicode="b" horiz-adv-x="650" d="M171 0 L172 0 L178 70 L178 65 C196 44 345 -10 386 -10 C449 -10 606 176 606 251 C606 323 427 505 355 505 C329 505 216 436 191 405 L191 649 L191 749 L187 749 L86 720 L86 710 L86 700 L116 709 C132 713 171 676 171 644 L171 194 L171 0 L171 0 Z M191 402 C215 432 324 499 349 499 C416 499 583 320 583 248 C583 175 443 -7 387 -7 C349 -7 210 48 191 70 L191 195 L191 402 L191 402 Z " />
<glyph glyph-name="c" unicode="c" horiz-adv-x="510" d="M481 128 L478 129 C460 90 318 -8 278 -8 C217 -8 64 179 64 254 C64 326 237 509 306 509 C340 509 451 435 462 405 C463 402 470 395 472 395 C476 395 483 402 482 405 C471 435 345 510 306 510 C232 510 45 318 45 242 C45 170 211 -10 277 -10 C318 -10 463 89 481 128 L481 128 Z " />
<glyph glyph-name="d" unicode="d" horiz-adv-x="593" d="M494 84 C474 60 352 3 319 3 C251 3 83 188 83 261 C83 330 260 504 341 504 C367 504 475 419 493 386 L493 109 L494 84 L494 84 Z M493 76 L493 -11 L496 -11 L598 14 L598 24 L598 34 L568 27 C552 23 513 73 513 113 L513 664 L513 749 L509 749 L408 720 L408 710 L408 700 L438 709 C454 713 493 685 493 659 L493 406 C459 443 365 509 338 509 C251 509 62 327 62 255 C62 180 239 -6 309 -6 C344 -6 473 52 493 76 L493 76 Z " />
<glyph glyph-name="e" unicode="e" horiz-adv-x="520" d="M91 340 C63 301 44 263 44 238 C44 167 209 -10 275 -10 C318 -10 465 93 480 134 L478 135 C463 94 318 -8 276 -8 C216 -8 65 174 65 246 C65 269 81 303 105 339 L468 339 L485 339 L490 339 C474 397 336 509 293 509 C245 509 149 421 91 340 L65 340 L65 339 L91 340 L91 340 Z M468 340 L106 340 C159 420 250 508 295 508 C331 508 453 398 470 340 L468 340 L468 340 Z " />
<glyph glyph-name="f" unicode="f" horiz-adv-x="302" d="M140 489 L293 489 L293 500 L140 500 C140 571 228 749 268 749 C307 749 332 635 365 635 C378 635 410 667 410 680 C410 701 313 755 275 755 C226 755 120 573 120 500 L5 492 L5 489 L120 489 L120 35 C120 29 81 20 65 20 L35 20 L35 10 L35 0 L130 0 L225 0 L225 10 L225 20 L195 20 C179 20 140 29 140 35 L140 489 L140 489 Z " />
<glyph glyph-name="g" unicode="g" horiz-adv-x="520" d="M95 350 C95 394 204 505 247 505 C290 505 399 394 399 350 C399 305 290 193 247 193 C204 193 95 305 95 350 L95 350 Z M183 32 C185 32 187 32 188 32 L300 32 C357 32 468 -57 468 -93 C468 -130 329 -225 273 -225 C217 -225 75 -126 75 -86 C75 -60 148 18 183 32 L183 32 Z M179 33 C141 20 59 -64 59 -91 C59 -131 211 -230 272 -230 C333 -230 485 -128 485 -88 C485 -48 365 52 302 52 L189 52 C154 52 67 97 67 115 C67 136 196 188 247 188 C296 188 419 304 419 350 C419 355 418 360 416 366 C423 405 486 488 512 488 C523 488 552 453 552 439 C552 437 559 432 562 432 C564 432 570 438 570 441 C570 457 534 496 520 496 C492 496 420 409 415 370 C392 422 291 511 248 511 C199 511 76 397 76 351 C76 309 177 210 232 192 C171 184 56 132 56 111 C56 90 138 41 180 34 L179 33 L179 33 Z " />
<glyph glyph-name="h" unicode="h" horiz-adv-x="667" d="M527 35 C527 29 488 20 472 20 L442 20 L442 10 L442 0 L537 0 L632 0 L632 10 L632 20 L602 20 C586 20 547 29 547 35 L547 335 C547 385 425 510 369 510 C337 510 184 411 152 370 L152 650 L152 750 L148 750 L47 721 L47 711 L47 701 L77 710 C93 714 132 677 132 645 L132 35 C132 29 93 20 77 20 L47 20 L47 10 L47 0 L142 0 L237 0 L237 10 L237 20 L207 20 C191 20 152 29 152 35 L152 367 C183 406 332 501 364 501 C415 501 527 382 527 335 L527 35 L527 35 Z " />
<glyph glyph-name="i" unicode="i" horiz-adv-x="271" d="M151 615 C157 615 171 629 171 635 C171 641 157 655 151 655 C145 655 131 641 131 635 C131 629 145 615 151 615 L151 615 Z M161 35 L161 400 L161 500 L157 500 L56 471 L56 461 L56 451 L86 460 C102 464 141 427 141 395 L141 35 C141 29 109 20 96 20 L66 20 L66 10 L66 0 L151 0 L236 0 L236 10 L236 20 L206 20 C193 20 161 29 161 35 L161 35 Z " />
<glyph glyph-name="j" unicode="j" horiz-adv-x="241" d="M141 615 C147 615 161 629 161 635 C161 641 147 655 141 655 C135 655 121 641 121 635 C121 629 135 615 141 615 L141 615 Z M131 395 L131 12 C131 -22 103 -121 92 -127 C75 -127 -7 -100 -24 -100 C-37 -100 -69 -129 -69 -140 C-69 -154 -26 -186 -9 -185 C-6 -185 69 -145 96 -130 C112 -121 151 -20 151 12 L151 400 L151 500 L147 500 L46 471 L46 461 L46 451 L76 460 C92 464 131 427 131 395 L131 395 Z " />
<glyph glyph-name="k" unicode="k" horiz-adv-x="464" d="M374 33 L179 290 L358 466 C367 472 393 480 400 480 L438 480 L438 490 L438 500 L393 500 L384 500 L318 500 L199 500 L199 490 L199 480 L221 480 C260 480 273 396 219 336 L162 280 L162 650 L162 750 L158 750 L57 721 L57 711 L57 701 L87 710 C103 714 142 677 142 645 L142 35 C142 29 110 20 97 20 L67 20 L67 10 L67 0 L152 0 L237 0 L237 10 L237 20 L207 20 C194 20 162 29 162 35 L162 280 L348 34 C348 28 325 20 313 20 L288 20 L288 10 L288 0 L363 0 L373 0 L399 0 L439 0 L439 10 L439 20 L395 20 C392 20 380 27 374 33 L374 33 Z " />
<glyph glyph-name="l" unicode="l" horiz-adv-x="261" d="M151 35 L151 650 L151 750 L147 750 L46 721 L46 711 L46 701 L76 710 C92 714 131 677 131 645 L131 35 C131 29 95 20 81 20 L51 20 L51 10 L51 0 L141 0 L231 0 L231 10 L231 20 L201 20 C187 20 151 29 151 35 L151 35 Z " />
<glyph glyph-name="m" unicode="m" horiz-adv-x="1005" d="M519 369 L519 366 C546 404 690 501 720 501 C769 501 875 382 875 335 L875 55 C875 41 843 20 830 20 L800 20 L800 10 L800 0 L890 0 L980 0 L980 10 L980 20 L950 20 C934 20 895 41 895 55 L895 335 C895 385 779 510 726 510 C695 510 547 409 519 369 L519 369 Z M500 55 C500 41 468 20 455 20 L425 20 L425 10 L425 0 L505 0 L585 0 L585 10 L585 20 L555 20 C545 20 520 41 520 55 L520 335 C520 385 404 510 351 510 C321 510 176 411 145 370 L145 400 L145 500 L141 500 L40 463 L40 453 L40 443 L70 454 C86 460 125 426 125 394 L125 55 C125 41 86 20 70 20 L40 20 L40 10 L40 0 L128 0 L215 0 L215 10 L215 20 L185 20 C174 20 145 41 145 55 L145 367 C174 406 315 501 346 501 C394 501 500 382 500 335 L500 55 L500 55 Z " />
<glyph glyph-name="n" unicode="n" horiz-adv-x="650" d="M520 35 C520 29 484 20 470 20 L440 20 L440 10 L440 0 L530 0 L620 0 L620 10 L620 20 L590 20 C576 20 540 29 540 35 L540 335 C540 385 418 510 362 510 C330 510 177 411 145 370 L145 400 L145 500 L141 500 L40 463 L40 453 L40 443 L70 454 C86 460 125 426 125 394 L125 35 C125 29 89 20 75 20 L45 20 L45 10 L45 0 L135 0 L225 0 L225 10 L225 20 L195 20 C181 20 145 29 145 35 L145 367 C176 406 325 501 357 501 C408 501 520 382 520 335 L520 35 L520 35 Z " />
<glyph glyph-name="o" unicode="o" horiz-adv-x="571" d="M285 -9 C223 -9 66 176 66 250 C66 324 223 509 285 509 C348 509 504 324 504 250 C504 176 348 -9 285 -9 L285 -9 Z M44 250 C44 176 216 -10 285 -10 C354 -10 526 176 526 250 C526 324 354 510 285 510 C216 510 44 324 44 250 L44 250 Z " />
<glyph glyph-name="p" unicode="p" horiz-adv-x="598" d="M134 421 C158 447 284 502 322 502 C382 502 531 318 531 245 C531 181 360 -4 291 -4 C263 -4 158 77 134 115 L134 400 L134 421 L134 421 Z M134 429 L134 500 L130 500 L29 463 L29 453 L29 443 L59 454 C75 460 114 426 114 394 L114 -150 C114 -170 75 -200 59 -200 L29 -200 L29 -210 L29 -220 L124 -220 L219 -220 L219 -210 L219 -200 L189 -200 C173 -200 134 -170 134 -150 L134 114 C158 76 263 -5 291 -5 C366 -5 553 186 553 252 C553 325 395 510 331 510 C290 510 159 455 134 429 L134 429 Z " />
<glyph glyph-name="q" unicode="q" horiz-adv-x="610" d="M480 -185 L480 428 L480 440 L480 500 L479 500 L472 440 C453 460 331 510 301 510 C221 510 45 328 45 256 C45 181 218 -5 287 -5 C320 -5 438 48 460 72 L460 -186 C460 -192 421 -201 405 -201 L375 -201 L375 -211 L375 -221 L470 -221 L565 -221 L565 -211 L565 -201 L535 -201 C519 -201 480 -192 480 -186 L480 -185 L480 -185 Z M460 427 L460 79 C438 56 326 3 295 3 C230 3 65 188 65 261 C65 331 226 505 300 505 C324 505 439 450 460 428 L460 427 L460 427 Z " />
<glyph glyph-name="r" unicode="r" horiz-adv-x="343" d="M151 378 L151 400 L151 500 L147 500 L46 463 L46 453 L46 443 L76 454 C92 460 131 426 131 394 L131 35 C131 29 99 20 86 20 L56 20 L56 10 L56 0 L146 0 L236 0 L236 10 L236 20 L206 20 C190 20 151 29 151 35 L151 377 C165 415 259 501 287 501 C293 501 310 476 310 466 C310 462 318 454 322 454 C325 454 334 462 334 466 C334 478 307 510 296 510 C266 510 166 419 151 378 L151 378 Z " />
<glyph glyph-name="s" unicode="s" horiz-adv-x="431" d="M220 501 L197 509 C207 509 225 502 245 492 L220 501 L220 501 Z M220 500 C265 475 332 396 332 371 L332 355 L342 355 L352 355 L352 423 L352 432 L352 509 L342 509 L332 509 L332 480 C332 474 287 476 264 484 C237 498 211 508 198 508 C165 508 82 427 82 394 C82 367 194 259 245 240 C283 226 367 132 367 106 C367 73 283 -11 249 -11 C242 -11 230 -7 216 -1 L227 -5 C188 11 96 123 96 145 L96 161 L86 161 L76 161 L76 94 L76 85 L76 9 L86 9 L96 9 L96 30 C96 35 156 23 187 10 C212 -3 235 -12 247 -12 C285 -12 381 76 381 112 C381 139 292 241 252 256 C203 274 95 376 95 401 C95 431 167 507 196 507 C202 507 210 504 219 499 L220 500 L220 500 Z M225 -6 L226 -7 L226 -7 L225 -6 L225 -6 Z " />
<glyph glyph-name="t" unicode="t" horiz-adv-x="306" d="M269 500 L115 500 L115 620 L114 620 L30 500 L30 490 L95 490 L95 103 C95 64 167 -10 196 -10 C210 -10 282 29 296 45 L294 46 C282 33 216 -1 202 -1 C177 -1 114 64 114 98 L115 489 L269 489 L269 500 L269 500 Z " />
<glyph glyph-name="u" unicode="u" horiz-adv-x="571" d="M447 90 L447 -10 L450 -10 L552 15 L552 25 L552 35 L522 28 C506 24 467 62 467 94 L467 465 L467 500 L424 500 L381 500 L381 490 L381 480 L411 480 C421 480 447 471 447 465 L447 134 C405 92 273 4 248 4 C209 4 112 116 112 160 L112 465 L112 500 L69 500 L26 500 L26 490 L26 480 L56 480 C66 480 92 471 92 465 L92 160 C92 112 197 -10 239 -10 C263 -10 402 87 446 133 L447 90 L447 90 Z " />
<glyph glyph-name="v" unicode="v" horiz-adv-x="479" d="M97 453 L213 -10 L219 -10 L367 434 C373 452 421 480 437 480 L468 480 L468 490 L468 500 L389 500 L380 500 L376 500 L285 500 L285 490 L285 480 L312 480 C329 480 364 464 364 452 L222 17 L117 453 L118 453 C115 464 139 480 150 480 L181 480 L181 490 L181 500 L106 500 L100 500 L85 500 L20 500 L20 490 L20 480 L55 480 C65 480 94 464 96 453 L97 453 L97 453 Z " />
<glyph glyph-name="w" unicode="w" horiz-adv-x="724" d="M350 460 L374 350 L261 -10 L266 -10 L377 335 L453 -10 L459 -10 L613 437 C622 455 667 480 681 480 L712 480 L712 490 L712 500 L634 500 L624 500 L621 500 L529 500 L529 490 L529 480 L556 480 C573 480 607 466 610 455 L453 -11 L462 16 L371 461 C372 469 388 479 395 479 L430 479 L430 489 L430 499 L364 499 L355 499 L342 499 L280 499 L280 489 L280 479 L317 479 C325 479 349 467 350 459 L350 460 L350 460 Z M158 460 L262 -11 L270 16 L180 460 C180 468 196 479 204 479 L238 479 L238 489 L238 499 L173 499 L164 499 L150 499 L89 499 L89 489 L89 479 L125 479 C134 479 155 468 159 460 L158 460 L158 460 Z " />
<glyph glyph-name="x" unicode="x" horiz-adv-x="511" d="M388 62 L388 62 L267 252 L375 440 C388 458 428 481 439 481 L473 481 L473 491 L473 501 L409 501 L400 501 L391 501 L310 501 L310 491 L310 481 L336 481 C350 481 372 459 368 442 L265 257 L151 437 L151 437 C140 455 152 481 163 481 L190 481 L190 491 L190 501 L117 501 L110 501 L86 501 L44 501 L44 491 L44 481 L88 481 C91 481 109 463 119 449 L252 239 L137 65 L137 65 C125 47 78 21 67 21 L33 21 L33 11 L33 1 L95 1 L104 1 L119 1 L204 1 L204 11 L204 21 L179 21 C161 21 135 46 145 64 L255 235 L366 60 C373 42 361 20 351 20 L324 20 L324 10 L324 0 L403 0 L404 0 L429 0 L481 0 L481 10 L481 20 L444 20 C436 20 400 45 390 62 L388 62 L388 62 Z " />
<glyph glyph-name="y" unicode="y" horiz-adv-x="499" d="M98 453 L227 -10 L183 -140 C180 -147 159 -165 153 -165 C150 -165 143 -158 141 -158 C138 -158 130 -165 130 -168 C130 -171 138 -180 142 -180 C151 -180 183 -155 186 -145 L233 -10 L387 436 C396 454 441 480 455 480 L486 480 L486 490 L486 500 L408 500 L399 500 L395 500 L304 500 L304 490 L304 480 L331 480 C349 480 386 462 382 450 L382 450 L226 -10 L235 17 L118 453 L118 453 C115 464 138 480 149 480 L180 480 L180 490 L180 500 L105 500 L100 500 L84 500 L19 500 L19 490 L19 480 L54 480 C64 480 94 464 97 453 L98 453 L98 453 Z " />
<glyph glyph-name="z" unicode="z" horiz-adv-x="475" d="M61 0 L415 0 L430 0 C431 8 436 46 437 53 C439 61 444 99 445 106 L440 106 L435 106 L421 76 C411 57 321 10 271 7 L64 6 L434 496 L434 501 L414 501 L134 501 C129 501 113 517 115 524 L120 541 L110 541 L100 541 C97 530 83 478 80 468 C77 457 63 405 61 395 L67 395 L73 395 L89 425 C99 444 183 491 227 495 L410 496 L39 6 L39 1 L61 0 L61 0 Z " />
<glyph glyph-name="bar" unicode="&#x7c;" horiz-adv-x="135" d="M60 800 L60 -250 L76 -250 L76 800 L60 800 L60 800 Z " />
<glyph glyph-name="exclamdown" unicode="&#xa1;" horiz-adv-x="164" d="M82 505 C77 505 62 491 62 485 C62 479 77 465 82 465 C88 465 102 479 102 485 C102 491 88 505 82 505 L82 505 Z M82 -255 C87 -255 95 -207 94 -188 L84 290 L80 290 L70 -188 C70 -207 77 -255 82 -255 L82 -255 Z " />
<glyph glyph-name="cent" unicode="&#xa2;" horiz-adv-x="510" d="M284 575 L284 506 C200 477 45 311 45 242 C45 170 211 -10 277 -10 C279 -10 281 -10 284 -10 L284 -76 L298 -76 L298 -6 C354 14 465 93 481 127 L478 128 C462 94 352 15 298 -5 L298 507 C301 507 304 507 307 507 C341 507 452 433 463 403 C464 400 471 393 473 393 C477 393 484 400 483 403 C472 433 346 508 307 508 C304 508 301 508 298 508 L298 574 L284 575 L284 575 Z M284 -8 C282 -8 280 -8 278 -8 C217 -8 64 179 64 254 C64 319 206 475 284 504 L284 -8 L284 -8 Z " />
<glyph glyph-name="questiondown" unicode="&#xbf;" horiz-adv-x="309" d="M184 505 C178 505 164 491 164 485 C164 479 178 465 184 465 C190 465 204 479 204 485 C204 491 190 505 184 505 L184 505 Z M190 355 L184 140 C147 140 50 69 31 40 C24 29 4 -37 4 -51 C4 -111 118 -260 164 -260 C169 -260 183 -249 183 -245 C183 -242 175 -235 172 -235 C170 -235 159 -239 157 -239 C115 -239 10 -103 10 -49 C10 -37 28 20 36 31 C53 56 150 120 191 120 L194 355 L190 355 L190 355 Z " />
<glyph glyph-name="Agrave" unicode="&#xc0;" horiz-adv-x="712" d="M577 140 L576 140 L401 743 L393 770 L391 770 C385 762 376 743 379 743 L382 733 L243 298 L242 298 L242 297 L242 297 L201 170 L200 170 C181 110 77 20 47 20 L17 20 L17 10 L17 0 L146 0 L147 0 L164 0 L312 0 L312 10 L312 20 L288 20 C251 20 186 105 199 165 L241 297 L506 297 L551 140 L551 140 C565 92 511 20 481 20 L457 20 L457 10 L457 0 L581 0 L592 0 L615 0 L705 0 L705 10 L705 20 L675 20 C656 20 588 92 575 140 L577 140 L577 140 Z M265 949 C245 970 191 1022 190 1022 C187 1022 180 1015 180 1012 C180 1011 234 959 256 940 L392 814 L395 817 L265 949 L265 949 Z M241 298 L380 733 L506 298 L241 298 L241 298 Z " />
<glyph glyph-name="Aacute" unicode="&#xc1;" horiz-adv-x="712" d="M395 814 L532 940 C554 960 608 1012 608 1012 C608 1015 600 1022 598 1022 C597 1022 544 970 523 949 L393 817 L395 814 L395 814 Z M577 140 L576 140 L401 743 L393 770 L391 770 C385 762 376 743 379 743 L382 733 L243 298 L242 298 L242 297 L242 297 L201 170 L200 170 C181 110 77 20 47 20 L17 20 L17 10 L17 0 L146 0 L147 0 L164 0 L312 0 L312 10 L312 20 L288 20 C251 20 186 105 199 165 L241 297 L506 297 L551 140 L551 140 C565 92 511 20 481 20 L457 20 L457 10 L457 0 L581 0 L592 0 L615 0 L705 0 L705 10 L705 20 L675 20 C656 20 588 92 575 140 L577 140 L577 140 Z M241 298 L380 733 L506 298 L241 298 L241 298 Z " />
<glyph glyph-name="Acircumflex" unicode="&#xc2;" horiz-adv-x="712" d="M577 140 L576 140 L401 743 L393 770 L391 770 C385 762 376 743 379 743 L382 733 L243 298 L242 298 L242 297 L242 297 L201 170 L200 170 C181 110 77 20 47 20 L17 20 L17 10 L17 0 L146 0 L147 0 L164 0 L312 0 L312 10 L312 20 L288 20 C251 20 186 105 199 165 L241 297 L506 297 L551 140 L551 140 C565 92 511 20 481 20 L457 20 L457 10 L457 0 L581 0 L592 0 L615 0 L705 0 L705 10 L705 20 L675 20 C656 20 588 92 575 140 L577 140 L577 140 Z M388 1007 L532 809 L534 811 L395 1024 C394 1025 389 1031 388 1031 C387 1031 381 1025 381 1024 L241 811 L244 809 L388 1007 L388 1007 Z M241 298 L380 733 L506 298 L241 298 L241 298 Z " />
<glyph glyph-name="Atilde" unicode="&#xc3;" horiz-adv-x="712" d="M246 870 C246 890 281 941 295 941 C324 941 450 876 479 876 C495 876 534 929 534 951 C534 934 498 891 484 891 C454 891 329 956 299 956 C284 956 245 895 245 870 L246 870 L246 870 Z M577 140 L576 140 L401 743 L393 770 L391 770 C385 762 376 743 379 743 L382 733 L243 298 L242 298 L242 297 L242 297 L201 170 L200 170 C181 110 77 20 47 20 L17 20 L17 10 L17 0 L146 0 L147 0 L164 0 L312 0 L312 10 L312 20 L288 20 C251 20 186 105 199 165 L241 297 L506 297 L551 140 L551 140 C565 92 511 20 481 20 L457 20 L457 10 L457 0 L581 0 L592 0 L615 0 L705 0 L705 10 L705 20 L675 20 C656 20 588 92 575 140 L577 140 L577 140 Z M241 298 L380 733 L506 298 L241 298 L241 298 Z " />
<glyph glyph-name="Adieresis" unicode="&#xc4;" horiz-adv-x="712" d="M453 865 C459 865 473 879 473 885 C473 891 459 905 453 905 C448 905 433 891 433 885 C433 879 448 865 453 865 L453 865 Z M326 865 C332 865 346 879 346 885 C346 891 332 905 326 905 C320 905 306 891 306 885 C306 879 320 865 326 865 L326 865 Z M577 140 L576 140 L401 743 L393 770 L391 770 C385 762 376 743 379 743 L382 733 L243 298 L242 298 L242 297 L242 297 L201 170 L200 170 C181 110 77 20 47 20 L17 20 L17 10 L17 0 L146 0 L147 0 L164 0 L312 0 L312 10 L312 20 L288 20 C251 20 186 105 199 165 L241 297 L506 297 L551 140 L551 140 C565 92 511 20 481 20 L457 20 L457 10 L457 0 L581 0 L592 0 L615 0 L705 0 L705 10 L705 20 L675 20 C656 20 588 92 575 140 L577 140 L577 140 Z M241 298 L380 733 L506 298 L241 298 L241 298 Z " />
<glyph glyph-name="Aring" unicode="&#xc5;" horiz-adv-x="712" d="M390 815 C367 815 300 882 300 905 C300 931 364 995 390 995 C415 995 479 931 479 905 C479 882 413 815 390 815 L390 815 Z M294 905 C294 881 365 810 390 810 C414 810 485 881 485 905 C485 932 417 1000 390 1000 C362 1000 294 932 294 905 L294 905 Z M577 140 L576 140 L401 743 L393 770 L391 770 C385 762 376 743 379 743 L382 733 L243 298 L242 298 L242 297 L242 297 L201 170 L200 170 C181 110 77 20 47 20 L17 20 L17 10 L17 0 L146 0 L147 0 L164 0 L312 0 L312 10 L312 20 L288 20 C251 20 186 105 199 165 L241 297 L506 297 L551 140 L551 140 C565 92 511 20 481 20 L457 20 L457 10 L457 0 L581 0 L592 0 L615 0 L705 0 L705 10 L705 20 L675 20 C656 20 588 92 575 140 L577 140 L577 140 Z M241 298 L380 733 L506 298 L241 298 L241 298 Z " />
<glyph glyph-name="Ccedilla" unicode="&#xc7;" horiz-adv-x="675" d="M506 707 L502 709 C448 737 390 760 358 760 C277 760 71 485 71 375 C71 265 269 -10 348 -10 L302 -99 L302 -99 L300 -103 C310 -99 360 -88 371 -88 C391 -88 441 -126 441 -141 C441 -163 390 -219 370 -219 C354 -219 288 -202 278 -195 C288 -202 354 -220 371 -220 C394 -220 453 -162 453 -139 C453 -125 395 -87 371 -87 C359 -87 311 -95 303 -99 L350 -10 L349 -10 C381 -10 446 16 506 46 L506 46 C531 58 605 46 608 35 C610 26 616 5 616 5 L622 5 L628 5 L628 109 L628 124 L628 213 L620 213 L613 213 C613 213 609 198 608 192 C602 170 508 51 478 36 L478 36 C427 11 376 -9 350 -9 C278 -9 97 266 97 375 C97 484 286 759 361 759 C382 759 416 747 453 730 C495 704 603 580 609 557 C610 551 614 536 614 536 L621 536 L629 536 L629 625 L629 638 L629 740 L621 740 L614 740 C614 740 610 720 609 711 C607 700 534 692 508 706 L506 707 L506 707 Z " />
<glyph glyph-name="Egrave" unicode="&#xc8;" horiz-adv-x="671" d="M248 949 C228 970 174 1022 173 1022 C170 1022 163 1015 163 1012 C163 1011 217 959 239 940 L375 814 L378 817 L248 949 L248 949 Z M479 0 L599 0 C601 9 607 54 608 63 C609 72 616 117 617 126 L607 126 L597 126 L593 96 C589 69 519 1 480 1 L267 1 C233 1 187 57 187 80 L187 85 L187 385 L391 385 C431 385 491 306 491 275 L491 245 L501 245 L511 245 L511 385 L511 386 L511 526 L501 526 L491 526 L491 496 C491 465 431 386 391 386 L187 386 L187 665 L187 749 L457 749 C505 749 563 673 565 642 L566 624 L576 624 L586 624 C585 633 582 678 582 687 C581 696 578 741 577 750 L457 750 L187 750 L164 750 L123 750 L59 750 L59 740 L59 730 L89 730 C111 730 164 691 164 665 L164 85 C164 59 111 20 89 20 L59 20 L59 10 L59 0 L123 0 L164 0 L187 0 L479 0 L479 0 Z " />
<glyph glyph-name="Eacute" unicode="&#xc9;" horiz-adv-x="671" d="M377 814 L513 940 C535 960 589 1012 589 1012 C589 1015 582 1022 579 1022 C579 1022 525 970 504 949 L374 817 L377 814 L377 814 Z M479 0 L599 0 C601 9 607 54 608 63 C609 72 616 117 617 126 L607 126 L597 126 L593 96 C589 69 519 1 480 1 L267 1 C233 1 187 57 187 80 L187 85 L187 385 L391 385 C431 385 491 306 491 275 L491 245 L501 245 L511 245 L511 385 L511 386 L511 526 L501 526 L491 526 L491 496 C491 465 431 386 391 386 L187 386 L187 665 L187 749 L457 749 C505 749 563 673 565 642 L566 624 L576 624 L586 624 C585 633 582 678 582 687 C581 696 578 741 577 750 L457 750 L187 750 L164 750 L123 750 L59 750 L59 740 L59 730 L89 730 C111 730 164 691 164 665 L164 85 C164 59 111 20 89 20 L59 20 L59 10 L59 0 L123 0 L164 0 L187 0 L479 0 L479 0 Z " />
<glyph glyph-name="Ecircumflex" unicode="&#xca;" horiz-adv-x="671" d="M371 1007 L515 809 L518 811 L378 1024 C377 1025 372 1031 371 1031 C370 1031 365 1025 364 1024 L224 811 L227 809 L371 1007 L371 1007 Z M479 0 L599 0 C601 9 607 54 608 63 C609 72 616 117 617 126 L607 126 L597 126 L593 96 C589 69 519 1 480 1 L267 1 C233 1 187 57 187 80 L187 85 L187 385 L391 385 C431 385 491 306 491 275 L491 245 L501 245 L511 245 L511 385 L511 386 L511 526 L501 526 L491 526 L491 496 C491 465 431 386 391 386 L187 386 L187 665 L187 749 L457 749 C505 749 563 673 565 642 L566 624 L576 624 L586 624 C585 633 582 678 582 687 C581 696 578 741 577 750 L457 750 L187 750 L164 750 L123 750 L59 750 L59 740 L59 730 L89 730 C111 730 164 691 164 665 L164 85 C164 59 111 20 89 20 L59 20 L59 10 L59 0 L123 0 L164 0 L187 0 L479 0 L479 0 Z " />
<glyph glyph-name="Edieresis" unicode="&#xcb;" horiz-adv-x="671" d="M434 865 C440 865 454 879 454 885 C454 891 440 905 434 905 C429 905 414 891 414 885 C414 879 429 865 434 865 L434 865 Z M307 865 C313 865 327 879 327 885 C327 891 313 905 307 905 C302 905 287 891 287 885 C287 879 302 865 307 865 L307 865 Z M479 0 L599 0 C601 9 607 54 608 63 C609 72 616 117 617 126 L607 126 L597 126 L593 96 C589 69 519 1 480 1 L267 1 C233 1 187 57 187 80 L187 85 L187 385 L391 385 C431 385 491 306 491 275 L491 245 L501 245 L511 245 L511 385 L511 386 L511 526 L501 526 L491 526 L491 496 C491 465 431 386 391 386 L187 386 L187 665 L187 749 L457 749 C505 749 563 673 565 642 L566 624 L576 624 L586 624 C585 633 582 678 582 687 C581 696 578 741 577 750 L457 750 L187 750 L164 750 L123 750 L59 750 L59 740 L59 730 L89 730 C111 730 164 691 164 665 L164 85 C164 59 111 20 89 20 L59 20 L59 10 L59 0 L123 0 L164 0 L187 0 L479 0 L479 0 Z " />
<glyph glyph-name="Igrave" unicode="&#xcc;" horiz-adv-x="346" d="M67 949 C47 970 -7 1022 -8 1022 C-11 1022 -18 1015 -18 1012 C-18 1011 36 959 58 940 L194 814 L197 817 L67 949 L67 949 Z M201 80 L201 670 C201 694 255 730 276 730 L306 730 L306 740 L306 750 L190 750 L74 750 L74 740 L74 730 L104 730 C125 730 179 694 179 670 L179 80 C179 56 125 20 104 20 L74 20 L74 10 L74 0 L190 0 L306 0 L306 10 L306 20 L276 20 C255 20 201 56 201 80 L201 80 Z " />
<glyph glyph-name="Iacute" unicode="&#xcd;" horiz-adv-x="346" d="M196 814 L332 940 C354 960 408 1012 408 1012 C408 1015 401 1022 398 1022 C398 1022 344 970 323 949 L193 817 L196 814 L196 814 Z M201 80 L201 670 C201 694 255 730 276 730 L306 730 L306 740 L306 750 L190 750 L74 750 L74 740 L74 730 L104 730 C125 730 179 694 179 670 L179 80 C179 56 125 20 104 20 L74 20 L74 10 L74 0 L190 0 L306 0 L306 10 L306 20 L276 20 C255 20 201 56 201 80 L201 80 Z " />
<glyph glyph-name="Icircumflex" unicode="&#xce;" horiz-adv-x="346" d="M190 1007 L334 809 L337 811 L197 1024 C196 1025 191 1031 190 1031 C189 1031 184 1025 183 1024 L43 811 L46 809 L190 1007 L190 1007 Z M201 80 L201 670 C201 694 255 730 276 730 L306 730 L306 740 L306 750 L190 750 L74 750 L74 740 L74 730 L104 730 C125 730 179 694 179 670 L179 80 C179 56 125 20 104 20 L74 20 L74 10 L74 0 L190 0 L306 0 L306 10 L306 20 L276 20 C255 20 201 56 201 80 L201 80 Z " />
<glyph glyph-name="Idieresis" unicode="&#xcf;" horiz-adv-x="346" d="M254 865 C259 865 274 879 274 885 C274 891 259 905 254 905 C248 905 234 891 234 885 C234 879 248 865 254 865 L254 865 Z M126 865 C132 865 146 879 146 885 C146 891 132 905 126 905 C121 905 106 891 106 885 C106 879 121 865 126 865 L126 865 Z M201 80 L201 670 C201 694 255 730 276 730 L306 730 L306 740 L306 750 L190 750 L74 750 L74 740 L74 730 L104 730 C125 730 179 694 179 670 L179 80 C179 56 125 20 104 20 L74 20 L74 10 L74 0 L190 0 L306 0 L306 10 L306 20 L276 20 C255 20 201 56 201 80 L201 80 Z " />
<glyph glyph-name="Ntilde" unicode="&#xd1;" horiz-adv-x="750" d="M230 870 C230 890 265 941 279 941 C309 941 434 876 464 876 C479 876 519 929 519 951 L518 951 C518 934 482 891 468 891 C438 891 313 956 284 956 C268 956 230 895 230 870 L230 870 Z M150 140 L150 140 L149 707 C154 703 158 699 160 695 L160 696 L578 32 L598 0 L602 0 L604 630 L604 630 C604 670 672 730 699 730 L729 730 L729 740 L729 750 L604 750 L601 750 L597 750 L472 750 L472 740 L472 730 L502 730 C529 730 597 670 597 630 L597 630 L598 42 L597 44 L153 750 L148 750 L143 750 L126 750 L113 750 L73 750 L73 740 L73 730 L110 730 C115 730 130 722 143 712 L142 150 L142 150 C142 98 74 20 47 20 L17 20 L17 10 L17 0 L142 0 L146 0 L149 0 L274 0 L274 10 L274 20 L244 20 C217 20 149 92 149 140 L150 140 L150 140 Z " />
<glyph glyph-name="Ograve" unicode="&#xd2;" horiz-adv-x="838" d="M404 -9 C311 -9 79 266 79 375 C79 484 318 759 413 759 C512 759 758 484 758 375 C758 266 505 -9 404 -9 L404 -9 Z M54 375 C54 265 304 -10 403 -10 C512 -10 783 265 783 375 C783 485 519 760 413 760 C311 760 54 485 54 375 L54 375 Z M290 949 C270 970 217 1022 215 1022 C213 1022 205 1015 205 1012 C205 1011 259 959 281 940 L418 814 L420 817 L290 949 L290 949 Z " />
<glyph glyph-name="Oacute" unicode="&#xd3;" horiz-adv-x="838" d="M419 814 L556 940 C577 960 632 1012 632 1012 C632 1015 624 1022 622 1022 C621 1022 568 970 547 949 L417 817 L419 814 L419 814 Z M404 -9 C311 -9 79 266 79 375 C79 484 318 759 413 759 C512 759 758 484 758 375 C758 266 505 -9 404 -9 L404 -9 Z M54 375 C54 265 304 -10 403 -10 C512 -10 783 265 783 375 C783 485 519 760 413 760 C311 760 54 485 54 375 L54 375 Z " />
<glyph glyph-name="Ocircumflex" unicode="&#xd4;" horiz-adv-x="838" d="M404 -9 C311 -9 79 266 79 375 C79 484 318 759 413 759 C512 759 758 484 758 375 C758 266 505 -9 404 -9 L404 -9 Z M54 375 C54 265 304 -10 403 -10 C512 -10 783 265 783 375 C783 485 519 760 413 760 C311 760 54 485 54 375 L54 375 Z M414 1007 L558 809 L561 811 L422 1024 C421 1025 416 1031 414 1031 C413 1031 408 1025 407 1024 L268 811 L271 809 L414 1007 L414 1007 Z " />
<glyph glyph-name="Otilde" unicode="&#xd5;" horiz-adv-x="838" d="M270 870 C270 890 305 941 318 941 C348 941 473 876 503 876 C519 876 558 929 558 951 L557 951 C557 934 522 891 507 891 C478 891 353 956 323 956 C308 956 269 895 269 870 L270 870 L270 870 Z M404 -9 C311 -9 79 266 79 375 C79 484 318 759 413 759 C512 759 758 484 758 375 C758 266 505 -9 404 -9 L404 -9 Z M54 375 C54 265 304 -10 403 -10 C512 -10 783 265 783 375 C783 485 519 760 413 760 C311 760 54 485 54 375 L54 375 Z " />
<glyph glyph-name="Odieresis" unicode="&#xd6;" horiz-adv-x="838" d="M477 865 C483 865 497 879 497 885 C497 891 483 905 477 905 C471 905 457 891 457 885 C457 879 471 865 477 865 L477 865 Z M350 865 C356 865 370 879 370 885 C370 891 356 905 350 905 C344 905 330 891 330 885 C330 879 344 865 350 865 L350 865 Z M404 -9 C311 -9 79 266 79 375 C79 484 318 759 413 759 C512 759 758 484 758 375 C758 266 505 -9 404 -9 L404 -9 Z M54 375 C54 265 304 -10 403 -10 C512 -10 783 265 783 375 C783 485 519 760 413 760 C311 760 54 485 54 375 L54 375 Z " />
<glyph glyph-name="Oslash" unicode="&#xd8;" horiz-adv-x="838" d="M54 -11 L195 138 C269 57 354 -10 403 -10 C512 -10 783 265 783 375 C783 430 718 525 640 607 L784 759 L783 761 L638 608 C559 691 466 760 413 760 C311 760 54 485 54 375 C54 320 118 223 194 140 L54 -8 L54 -11 L54 -11 Z M405 -8 C358 -8 275 63 205 147 L633 599 C703 519 760 428 760 376 C760 267 507 -8 406 -8 L405 -8 L405 -8 Z M204 149 C137 230 82 323 82 376 C82 485 321 760 416 760 C467 760 557 687 632 601 L204 149 L204 149 Z " />
<glyph glyph-name="Ugrave" unicode="&#xd9;" horiz-adv-x="752" d="M251 949 C230 970 177 1022 176 1022 C173 1022 166 1015 166 1012 C166 1011 220 959 241 940 L378 814 L381 817 L251 949 L251 949 Z M637 665 L637 750 L573 750 L510 750 L510 740 L510 730 L540 730 C561 730 615 691 615 665 L615 164 C593 118 341 4 262 4 C225 4 133 158 133 220 L133 665 L133 750 L69 750 L5 750 L5 740 L5 730 L35 730 C57 730 110 691 110 665 L110 220 C110 154 212 -10 253 -10 C334 -10 593 107 615 153 L615 110 L615 0 L618 0 L741 55 L741 65 C700 63 637 89 637 110 L637 665 L637 665 Z " />
<glyph glyph-name="Uacute" unicode="&#xda;" horiz-adv-x="752" d="M379 814 L516 940 C538 960 592 1012 592 1012 C592 1015 584 1022 582 1022 C581 1022 528 970 507 949 L377 817 L379 814 L379 814 Z M637 665 L637 750 L573 750 L510 750 L510 740 L510 730 L540 730 C561 730 615 691 615 665 L615 164 C593 118 341 4 262 4 C225 4 133 158 133 220 L133 665 L133 750 L69 750 L5 750 L5 740 L5 730 L35 730 C57 730 110 691 110 665 L110 220 C110 154 212 -10 253 -10 C334 -10 593 107 615 153 L615 110 L615 0 L618 0 L741 55 L741 65 C700 63 637 89 637 110 L637 665 L637 665 Z " />
<glyph glyph-name="Ucircumflex" unicode="&#xdb;" horiz-adv-x="752" d="M374 1007 L518 809 L520 811 L381 1024 C380 1025 375 1031 374 1031 C373 1031 367 1025 367 1024 L227 811 L230 809 L374 1007 L374 1007 Z M637 665 L637 750 L573 750 L510 750 L510 740 L510 730 L540 730 C561 730 615 691 615 665 L615 164 C593 118 341 4 262 4 C225 4 133 158 133 220 L133 665 L133 750 L69 750 L5 750 L5 740 L5 730 L35 730 C57 730 110 691 110 665 L110 220 C110 154 212 -10 253 -10 C334 -10 593 107 615 153 L615 110 L615 0 L618 0 L741 55 L741 65 C700 63 637 89 637 110 L637 665 L637 665 Z " />
<glyph glyph-name="Udieresis" unicode="&#xdc;" horiz-adv-x="752" d="M437 865 C443 865 457 879 457 885 C457 891 443 905 437 905 C431 905 417 891 417 885 C417 879 431 865 437 865 L437 865 Z M310 865 C316 865 330 879 330 885 C330 891 316 905 310 905 C304 905 290 891 290 885 C290 879 304 865 310 865 L310 865 Z M637 665 L637 750 L573 750 L510 750 L510 740 L510 730 L540 730 C561 730 615 691 615 665 L615 164 C593 118 341 4 262 4 C225 4 133 158 133 220 L133 665 L133 750 L69 750 L5 750 L5 740 L5 730 L35 730 C57 730 110 691 110 665 L110 220 C110 154 212 -10 253 -10 C334 -10 593 107 615 153 L615 110 L615 0 L618 0 L741 55 L741 65 C700 63 637 89 637 110 L637 665 L637 665 Z " />
<glyph glyph-name="Yacute" unicode="&#xdd;" horiz-adv-x="658" d="M338 814 L475 940 C497 960 551 1012 551 1012 C551 1015 543 1022 541 1022 C540 1022 487 970 466 949 L336 817 L338 814 L338 814 Z M190 616 C167 664 176 731 195 731 L220 731 L220 741 L220 751 L127 751 L115 751 L88 751 L35 751 L35 741 L35 731 L72 731 C80 731 140 659 167 611 L167 611 L322 337 L322 81 C322 57 268 21 247 21 L217 21 L217 11 L217 1 L333 1 L449 1 L449 11 L449 21 L419 21 C398 21 344 57 344 81 L344 340 L493 613 L492 611 C518 659 596 731 611 731 L642 731 L642 741 L642 751 L568 751 L566 751 L552 751 L461 751 L461 741 L461 731 L486 731 C505 731 518 674 501 631 L344 342 L190 616 L190 616 Z " />
<glyph glyph-name="agrave" unicode="&#xe0;" horiz-adv-x="495" d="M506 56 L498 60 C496 45 456 9 443 9 C426 9 384 48 384 64 L384 361 C384 410 288 510 250 510 C197 510 65 386 65 360 C65 356 72 346 75 346 C82 346 100 354 100 356 C100 362 80 369 80 373 C80 396 201 509 249 509 C282 509 364 415 364 368 L364 266 C240 228 45 114 45 73 C45 49 128 -11 161 -11 C185 -11 320 55 364 92 L364 64 C364 44 415 -5 435 -5 C452 -5 503 39 506 56 L506 56 Z M127 699 C107 720 53 772 52 772 C49 772 42 765 42 762 C42 761 96 709 118 690 L254 564 L257 567 L127 699 L127 699 Z M364 266 L364 92 C324 59 196 0 172 0 C141 0 65 54 65 75 C65 117 248 229 364 266 L364 266 Z " />
<glyph glyph-name="aacute" unicode="&#xe1;" horiz-adv-x="495" d="M256 564 L392 690 C414 710 468 762 468 762 C468 765 461 772 458 772 C458 772 404 720 383 699 L253 567 L256 564 L256 564 Z M506 56 L498 60 C496 45 456 9 443 9 C426 9 384 48 384 64 L384 361 C384 410 288 510 250 510 C197 510 65 386 65 360 C65 356 72 346 75 346 C82 346 100 354 100 356 C100 362 80 369 80 373 C80 396 201 509 249 509 C282 509 364 415 364 368 L364 266 C240 228 45 114 45 73 C45 49 128 -11 161 -11 C185 -11 320 55 364 92 L364 64 C364 44 415 -5 435 -5 C452 -5 503 39 506 56 L506 56 Z M364 266 L364 92 C324 59 196 0 172 0 C141 0 65 54 65 75 C65 117 248 229 364 266 L364 266 Z " />
<glyph glyph-name="acircumflex" unicode="&#xe2;" horiz-adv-x="495" d="M506 56 L498 60 C496 45 456 9 443 9 C426 9 384 48 384 64 L384 361 C384 410 288 510 250 510 C197 510 65 386 65 360 C65 356 72 346 75 346 C82 346 100 354 100 356 C100 362 80 369 80 373 C80 396 201 509 249 509 C282 509 364 415 364 368 L364 266 C240 228 45 114 45 73 C45 49 128 -11 161 -11 C185 -11 320 55 364 92 L364 64 C364 44 415 -5 435 -5 C452 -5 503 39 506 56 L506 56 Z M250 757 L394 559 L397 561 L257 774 C256 775 251 781 250 781 C249 781 244 775 243 774 L103 561 L106 559 L250 757 L250 757 Z M364 266 L364 92 C324 59 196 0 172 0 C141 0 65 54 65 75 C65 117 248 229 364 266 L364 266 Z " />
<glyph glyph-name="atilde" unicode="&#xe3;" horiz-adv-x="495" d="M106 620 C106 640 141 691 155 691 C184 691 310 626 339 626 C355 626 394 679 394 701 C394 684 358 641 344 641 C314 641 189 706 159 706 C144 706 106 645 106 620 L106 620 Z M506 56 L498 60 C496 45 456 9 443 9 C426 9 384 48 384 64 L384 361 C384 410 288 510 250 510 C197 510 65 386 65 360 C65 356 72 346 75 346 C82 346 100 354 100 356 C100 362 80 369 80 373 C80 396 201 509 249 509 C282 509 364 415 364 368 L364 266 C240 228 45 114 45 73 C45 49 128 -11 161 -11 C185 -11 320 55 364 92 L364 64 C364 44 415 -5 435 -5 C452 -5 503 39 506 56 L506 56 Z M364 266 L364 92 C324 59 196 0 172 0 C141 0 65 54 65 75 C65 117 248 229 364 266 L364 266 Z " />
<glyph glyph-name="adieresis" unicode="&#xe4;" horiz-adv-x="495" d="M313 615 C319 615 333 629 333 635 C333 641 319 655 313 655 C308 655 293 641 293 635 C293 629 308 615 313 615 L313 615 Z M186 615 C192 615 206 629 206 635 C206 641 192 655 186 655 C181 655 166 641 166 635 C166 629 181 615 186 615 L186 615 Z M506 56 L498 60 C496 45 456 9 443 9 C426 9 384 48 384 64 L384 361 C384 410 288 510 250 510 C197 510 65 386 65 360 C65 356 72 346 75 346 C82 346 100 354 100 356 C100 362 80 369 80 373 C80 396 201 509 249 509 C282 509 364 415 364 368 L364 266 C240 228 45 114 45 73 C45 49 128 -11 161 -11 C185 -11 320 55 364 92 L364 64 C364 44 415 -5 435 -5 C452 -5 503 39 506 56 L506 56 Z M364 266 L364 92 C324 59 196 0 172 0 C141 0 65 54 65 75 C65 117 248 229 364 266 L364 266 Z " />
<glyph glyph-name="aring" unicode="&#xe5;" horiz-adv-x="495" d="M250 565 C227 565 160 632 160 655 C160 681 224 745 250 745 C276 745 340 681 340 655 C340 632 273 565 250 565 L250 565 Z M154 655 C154 631 225 560 250 560 C275 560 346 631 346 655 C346 682 277 750 250 750 C223 750 154 682 154 655 L154 655 Z M506 56 L498 60 C496 45 456 9 443 9 C426 9 384 48 384 64 L384 361 C384 410 288 510 250 510 C197 510 65 386 65 360 C65 356 72 346 75 346 C82 346 100 354 100 356 C100 362 80 369 80 373 C80 396 201 509 249 509 C282 509 364 415 364 368 L364 266 C240 228 45 114 45 73 C45 49 128 -11 161 -11 C185 -11 320 55 364 92 L364 64 C364 44 415 -5 435 -5 C452 -5 503 39 506 56 L506 56 Z M364 266 L364 92 C324 59 196 0 172 0 C141 0 65 54 65 75 C65 117 248 229 364 266 L364 266 Z " />
<glyph glyph-name="ccedilla" unicode="&#xe7;" horiz-adv-x="510" d="M231 -99 L231 -99 L229 -103 C239 -99 289 -88 300 -88 C320 -88 370 -126 370 -141 C370 -163 320 -219 299 -219 C283 -219 217 -202 207 -195 C217 -202 283 -220 300 -220 C323 -220 382 -162 382 -139 C382 -125 324 -87 300 -87 C288 -87 240 -95 232 -99 L279 -10 L278 -10 C319 -10 464 89 482 128 L479 129 C461 90 319 -8 279 -8 C218 -8 65 179 65 254 C65 326 238 509 307 509 C341 509 452 435 463 405 C464 402 471 395 473 395 C477 395 484 402 483 405 C472 435 346 510 307 510 C233 510 46 318 46 242 C46 170 212 -10 278 -10 L231 -99 L231 -99 Z " />
<glyph glyph-name="egrave" unicode="&#xe8;" horiz-adv-x="520" d="M170 699 C150 720 96 772 95 772 C92 772 85 765 85 762 C85 761 139 709 161 690 L297 564 L300 567 L170 699 L170 699 Z M91 340 C63 301 44 263 44 238 C44 167 209 -10 275 -10 C318 -10 465 93 480 134 L478 135 C463 94 318 -8 276 -8 C216 -8 65 174 65 246 C65 269 81 303 105 339 L468 339 L485 339 L490 339 C474 397 336 509 293 509 C245 509 149 421 91 340 L65 340 L65 339 L91 340 L91 340 Z M468 340 L106 340 C159 420 250 508 295 508 C331 508 453 398 470 340 L468 340 L468 340 Z " />
<glyph glyph-name="eacute" unicode="&#xe9;" horiz-adv-x="520" d="M299 564 L435 690 C457 710 511 762 511 762 C511 765 504 772 501 772 C501 772 447 720 426 699 L296 567 L299 564 L299 564 Z M91 340 C63 301 44 263 44 238 C44 167 209 -10 275 -10 C318 -10 465 93 480 134 L478 135 C463 94 318 -8 276 -8 C216 -8 65 174 65 246 C65 269 81 303 105 339 L468 339 L485 339 L490 339 C474 397 336 509 293 509 C245 509 149 421 91 340 L65 340 L65 339 L91 340 L91 340 Z M468 340 L106 340 C159 420 250 508 295 508 C331 508 453 398 470 340 L468 340 L468 340 Z " />
<glyph glyph-name="ecircumflex" unicode="&#xea;" horiz-adv-x="520" d="M293 757 L437 559 L440 561 L300 774 C299 775 294 781 293 781 C292 781 287 775 286 774 L146 561 L149 559 L293 757 L293 757 Z M91 340 C63 301 44 263 44 238 C44 167 209 -10 275 -10 C318 -10 465 93 480 134 L478 135 C463 94 318 -8 276 -8 C216 -8 65 174 65 246 C65 269 81 303 105 339 L468 339 L485 339 L490 339 C474 397 336 509 293 509 C245 509 149 421 91 340 L65 340 L65 339 L91 340 L91 340 Z M468 340 L106 340 C159 420 250 508 295 508 C331 508 453 398 470 340 L468 340 L468 340 Z " />
<glyph glyph-name="edieresis" unicode="&#xeb;" horiz-adv-x="520" d="M357 615 C362 615 377 629 377 635 C377 641 362 655 357 655 C351 655 337 641 337 635 C337 629 351 615 357 615 L357 615 Z M230 615 C235 615 250 629 250 635 C250 641 235 655 230 655 C224 655 210 641 210 635 C210 629 224 615 230 615 L230 615 Z M91 340 C63 301 44 263 44 238 C44 167 209 -10 275 -10 C318 -10 465 93 480 134 L478 135 C463 94 318 -8 276 -8 C216 -8 65 174 65 246 C65 269 81 303 105 339 L468 339 L485 339 L490 339 C474 397 336 509 293 509 C245 509 149 421 91 340 L65 340 L65 339 L91 340 L91 340 Z M468 340 L106 340 C159 420 250 508 295 508 C331 508 453 398 470 340 L468 340 L468 340 Z " />
<glyph glyph-name="igrave" unicode="&#xec;" horiz-adv-x="261" d="M18 699 C-2 720 -56 772 -57 772 C-60 772 -67 765 -67 762 C-67 761 -13 709 9 690 L145 564 L148 567 L18 699 L18 699 Z M151 35 L151 390 L151 500 L147 500 L50 445 L50 435 C82 437 131 410 131 390 L131 35 C131 29 95 20 81 20 L51 20 L51 10 L51 0 L143 0 L234 0 L234 10 L234 20 L204 20 C189 20 151 29 151 35 L151 35 Z " />
<glyph glyph-name="iacute" unicode="&#xed;" horiz-adv-x="261" d="M18 699 C-2 720 -56 772 -57 772 C-60 772 -67 765 -67 762 C-67 761 -13 709 9 690 L145 564 L148 567 L18 699 L18 699 Z M151 35 L151 390 L151 500 L147 500 L50 445 L50 435 C82 437 131 410 131 390 L131 35 C131 29 95 20 81 20 L51 20 L51 10 L51 0 L143 0 L234 0 L234 10 L234 20 L204 20 C189 20 151 29 151 35 L151 35 Z " />
<glyph glyph-name="icircumflex" unicode="&#xee;" horiz-adv-x="261" d="M141 757 L285 559 L288 561 L148 774 C147 775 142 781 141 781 C140 781 135 775 134 774 L-6 561 L-3 559 L141 757 L141 757 Z M151 35 L151 390 L151 500 L147 500 L50 445 L50 435 C82 437 131 410 131 390 L131 35 C131 29 95 20 81 20 L51 20 L51 10 L51 0 L143 0 L234 0 L234 10 L234 20 L204 20 C189 20 151 29 151 35 L151 35 Z " />
<glyph glyph-name="idieresis" unicode="&#xef;" horiz-adv-x="261" d="M205 615 C210 615 225 629 225 635 C225 641 210 655 205 655 C199 655 185 641 185 635 C185 629 199 615 205 615 L205 615 Z M77 615 C83 615 97 629 97 635 C97 641 83 655 77 655 C72 655 57 641 57 635 C57 629 72 615 77 615 L77 615 Z M151 35 L151 390 L151 500 L147 500 L50 445 L50 435 C82 437 131 410 131 390 L131 35 C131 29 95 20 81 20 L51 20 L51 10 L51 0 L143 0 L234 0 L234 10 L234 20 L204 20 C189 20 151 29 151 35 L151 35 Z " />
<glyph glyph-name="ntilde" unicode="&#xf1;" horiz-adv-x="650" d="M189 620 C189 640 224 691 237 691 C267 691 392 626 422 626 C438 626 477 679 477 701 L476 701 C476 684 441 641 427 641 C397 641 272 706 242 706 C227 706 188 645 188 620 L189 620 L189 620 Z M520 35 C520 29 484 20 470 20 L440 20 L440 10 L440 0 L530 0 L620 0 L620 10 L620 20 L590 20 C576 20 540 29 540 35 L540 335 C540 385 418 510 362 510 C330 510 177 411 145 370 L145 400 L145 500 L141 500 L40 463 L40 453 L40 443 L70 454 C86 460 125 426 125 394 L125 35 C125 29 89 20 75 20 L45 20 L45 10 L45 0 L135 0 L225 0 L225 10 L225 20 L195 20 C181 20 145 29 145 35 L145 367 C176 406 325 501 357 501 C408 501 520 382 520 335 L520 35 L520 35 Z " />
<glyph glyph-name="ograve" unicode="&#xf2;" horiz-adv-x="571" d="M285 -9 C223 -9 66 176 66 250 C66 324 223 509 285 509 C348 509 504 324 504 250 C504 176 348 -9 285 -9 L285 -9 Z M44 250 C44 176 216 -10 285 -10 C354 -10 526 176 526 250 C526 324 354 510 285 510 C216 510 44 324 44 250 L44 250 Z M162 699 C142 720 88 772 87 772 C85 772 77 765 77 762 C77 761 131 709 153 690 L290 564 L292 567 L162 699 L162 699 Z " />
<glyph glyph-name="oacute" unicode="&#xf3;" horiz-adv-x="571" d="M291 564 L427 690 C449 710 503 762 503 762 C503 765 496 772 493 772 C493 772 439 720 418 699 L288 567 L291 564 L291 564 Z M285 -9 C223 -9 66 176 66 250 C66 324 223 509 285 509 C348 509 504 324 504 250 C504 176 348 -9 285 -9 L285 -9 Z M44 250 C44 176 216 -10 285 -10 C354 -10 526 176 526 250 C526 324 354 510 285 510 C216 510 44 324 44 250 L44 250 Z " />
<glyph glyph-name="ocircumflex" unicode="&#xf4;" horiz-adv-x="571" d="M285 -9 C223 -9 66 176 66 250 C66 324 223 509 285 509 C348 509 504 324 504 250 C504 176 348 -9 285 -9 L285 -9 Z M44 250 C44 176 216 -10 285 -10 C354 -10 526 176 526 250 C526 324 354 510 285 510 C216 510 44 324 44 250 L44 250 Z M285 757 L429 559 L432 561 L292 774 C292 775 286 781 285 781 C284 781 279 775 278 774 L139 561 L141 559 L285 757 L285 757 Z " />
<glyph glyph-name="otilde" unicode="&#xf5;" horiz-adv-x="571" d="M141 620 C141 640 176 691 190 691 C220 691 345 626 375 626 C390 626 430 679 430 701 L429 701 C429 684 393 641 379 641 C350 641 224 706 195 706 C179 706 141 645 141 620 L141 620 Z M285 -9 C223 -9 66 176 66 250 C66 324 223 509 285 509 C348 509 504 324 504 250 C504 176 348 -9 285 -9 L285 -9 Z M44 250 C44 176 216 -10 285 -10 C354 -10 526 176 526 250 C526 324 354 510 285 510 C216 510 44 324 44 250 L44 250 Z " />
<glyph glyph-name="odieresis" unicode="&#xf6;" horiz-adv-x="571" d="M349 615 C355 615 369 629 369 635 C369 641 355 655 349 655 C343 655 329 641 329 635 C329 629 343 615 349 615 L349 615 Z M222 615 C227 615 242 629 242 635 C242 641 227 655 222 655 C216 655 202 641 202 635 C202 629 216 615 222 615 L222 615 Z M285 -9 C223 -9 66 176 66 250 C66 324 223 509 285 509 C348 509 504 324 504 250 C504 176 348 -9 285 -9 L285 -9 Z M44 250 C44 176 216 -10 285 -10 C354 -10 526 176 526 250 C526 324 354 510 285 510 C216 510 44 324 44 250 L44 250 Z " />
<glyph glyph-name="oslash" unicode="&#xf8;" horiz-adv-x="571" d="M285 -9 C253 -9 195 41 147 100 L425 400 C469 346 505 285 505 250 C505 176 349 -9 286 -9 L285 -9 L285 -9 Z M45 250 C45 213 88 148 140 92 L45 -10 L140 92 C192 36 252 -10 286 -10 C355 -10 527 176 527 250 C527 287 484 352 433 408 L528 511 L527 511 L432 409 C380 465 320 511 286 511 C217 511 45 325 45 251 L45 250 L45 250 Z M147 101 C103 155 67 216 67 251 C67 325 224 510 286 510 C319 510 377 460 425 401 L147 101 L147 101 Z " />
<glyph glyph-name="ugrave" unicode="&#xf9;" horiz-adv-x="571" d="M157 699 C137 720 83 772 82 772 C79 772 72 765 72 762 C72 761 126 709 148 690 L284 564 L287 567 L157 699 L157 699 Z M447 90 L447 -10 L450 -10 L552 15 L552 25 L552 35 L522 28 C506 24 467 62 467 94 L467 465 L467 500 L424 500 L381 500 L381 490 L381 480 L411 480 C421 480 447 471 447 465 L447 134 C405 92 273 4 248 4 C209 4 112 116 112 160 L112 465 L112 500 L69 500 L26 500 L26 490 L26 480 L56 480 C66 480 92 471 92 465 L92 160 C92 112 197 -10 239 -10 C263 -10 402 87 446 133 L447 90 L447 90 Z " />
<glyph glyph-name="uacute" unicode="&#xfa;" horiz-adv-x="571" d="M286 564 L422 690 C444 710 498 762 498 762 C498 765 491 772 488 772 C488 772 434 720 413 699 L283 567 L286 564 L286 564 Z M447 90 L447 -10 L450 -10 L552 15 L552 25 L552 35 L522 28 C506 24 467 62 467 94 L467 465 L467 500 L424 500 L381 500 L381 490 L381 480 L411 480 C421 480 447 471 447 465 L447 134 C405 92 273 4 248 4 C209 4 112 116 112 160 L112 465 L112 500 L69 500 L26 500 L26 490 L26 480 L56 480 C66 480 92 471 92 465 L92 160 C92 112 197 -10 239 -10 C263 -10 402 87 446 133 L447 90 L447 90 Z " />
<glyph glyph-name="ucircumflex" unicode="&#xfb;" horiz-adv-x="571" d="M280 757 L424 559 L427 561 L287 774 C286 775 281 781 280 781 C279 781 274 775 273 774 L133 561 L136 559 L280 757 L280 757 Z M447 90 L447 -10 L450 -10 L552 15 L552 25 L552 35 L522 28 C506 24 467 62 467 94 L467 465 L467 500 L424 500 L381 500 L381 490 L381 480 L411 480 C421 480 447 471 447 465 L447 134 C405 92 273 4 248 4 C209 4 112 116 112 160 L112 465 L112 500 L69 500 L26 500 L26 490 L26 480 L56 480 C66 480 92 471 92 465 L92 160 C92 112 197 -10 239 -10 C263 -10 402 87 446 133 L447 90 L447 90 Z " />
<glyph glyph-name="udieresis" unicode="&#xfc;" horiz-adv-x="571" d="M343 615 C349 615 363 629 363 635 C363 641 349 655 343 655 C338 655 323 641 323 635 C323 629 338 615 343 615 L343 615 Z M216 615 C222 615 236 629 236 635 C236 641 222 655 216 655 C211 655 196 641 196 635 C196 629 211 615 216 615 L216 615 Z M447 90 L447 -10 L450 -10 L552 15 L552 25 L552 35 L522 28 C506 24 467 62 467 94 L467 465 L467 500 L424 500 L381 500 L381 490 L381 480 L411 480 C421 480 447 471 447 465 L447 134 C405 92 273 4 248 4 C209 4 112 116 112 160 L112 465 L112 500 L69 500 L26 500 L26 490 L26 480 L56 480 C66 480 92 471 92 465 L92 160 C92 112 197 -10 239 -10 C263 -10 402 87 446 133 L447 90 L447 90 Z " />
<glyph glyph-name="ydieresis" unicode="&#xff;" horiz-adv-x="499" d="M317 615 C323 615 337 629 337 635 C337 641 323 655 317 655 C311 655 297 641 297 635 C297 629 311 615 317 615 L317 615 Z M190 615 C196 615 210 629 210 635 C210 641 196 655 190 655 C184 655 170 641 170 635 C170 629 184 615 190 615 L190 615 Z M98 453 L227 -10 L183 -140 C180 -147 159 -165 153 -165 C150 -165 143 -158 141 -158 C138 -158 130 -165 130 -168 C130 -171 138 -180 142 -180 C151 -180 183 -155 186 -145 L233 -10 L387 436 C396 454 441 480 455 480 L486 480 L486 490 L486 500 L408 500 L399 500 L395 500 L304 500 L304 490 L304 480 L331 480 C349 480 386 462 382 450 L382 450 L226 -10 L235 17 L118 453 L118 453 C115 464 138 480 149 480 L180 480 L180 490 L180 500 L105 500 L100 500 L84 500 L19 500 L19 490 L19 480 L54 480 C64 480 94 464 97 453 L98 453 L98 453 Z " />
<glyph glyph-name="Amacron" unicode="&#x100;" horiz-adv-x="712" d="M240 907 L540 907 L540 920 L240 920 L240 907 L240 907 Z M577 140 L576 140 L401 743 L393 770 L391 770 C385 762 376 743 379 743 L382 733 L243 298 L242 298 L242 297 L242 297 L201 170 L200 170 C181 110 77 20 47 20 L17 20 L17 10 L17 0 L146 0 L147 0 L164 0 L312 0 L312 10 L312 20 L288 20 C251 20 186 105 199 165 L241 297 L506 297 L551 140 L551 140 C565 92 511 20 481 20 L457 20 L457 10 L457 0 L581 0 L592 0 L615 0 L705 0 L705 10 L705 20 L675 20 C656 20 588 92 575 140 L577 140 L577 140 Z M241 298 L380 733 L506 298 L241 298 L241 298 Z " />
<glyph glyph-name="amacron" unicode="&#x101;" horiz-adv-x="495" d="M100 657 L400 657 L400 670 L100 670 L100 657 L100 657 Z M506 56 L498 60 C496 45 456 9 443 9 C426 9 384 48 384 64 L384 361 C384 410 288 510 250 510 C197 510 65 386 65 360 C65 356 72 346 75 346 C82 346 100 354 100 356 C100 362 80 369 80 373 C80 396 201 509 249 509 C282 509 364 415 364 368 L364 266 C240 228 45 114 45 73 C45 49 128 -11 161 -11 C185 -11 320 55 364 92 L364 64 C364 44 415 -5 435 -5 C452 -5 503 39 506 56 L506 56 Z M364 266 L364 92 C324 59 196 0 172 0 C141 0 65 54 65 75 C65 117 248 229 364 266 L364 266 Z " />
<glyph glyph-name="Abreve" unicode="&#x102;" horiz-adv-x="712" d="M274 995 C275 969 357 904 390 904 C422 904 505 969 506 994 L501 995 C501 973 421 919 390 919 C359 919 279 974 278 995 L274 995 L274 995 Z M577 140 L576 140 L401 743 L393 770 L391 770 C385 762 376 743 379 743 L382 733 L243 298 L242 298 L242 297 L242 297 L201 170 L200 170 C181 110 77 20 47 20 L17 20 L17 10 L17 0 L146 0 L147 0 L164 0 L312 0 L312 10 L312 20 L288 20 C251 20 186 105 199 165 L241 297 L506 297 L551 140 L551 140 C565 92 511 20 481 20 L457 20 L457 10 L457 0 L581 0 L592 0 L615 0 L705 0 L705 10 L705 20 L675 20 C656 20 588 92 575 140 L577 140 L577 140 Z M241 298 L380 733 L506 298 L241 298 L241 298 Z " />
<glyph glyph-name="abreve" unicode="&#x103;" horiz-adv-x="495" d="M134 745 C135 719 217 654 250 654 C282 654 365 719 366 744 L361 745 C361 723 281 669 250 669 C219 669 139 724 138 745 L134 745 L134 745 Z M506 56 L498 60 C496 45 456 9 443 9 C426 9 384 48 384 64 L384 361 C384 410 288 510 250 510 C197 510 65 386 65 360 C65 356 72 346 75 346 C82 346 100 354 100 356 C100 362 80 369 80 373 C80 396 201 509 249 509 C282 509 364 415 364 368 L364 266 C240 228 45 114 45 73 C45 49 128 -11 161 -11 C185 -11 320 55 364 92 L364 64 C364 44 415 -5 435 -5 C452 -5 503 39 506 56 L506 56 Z M364 266 L364 92 C324 59 196 0 172 0 C141 0 65 54 65 75 C65 117 248 229 364 266 L364 266 Z " />
<glyph glyph-name="Cacute" unicode="&#x106;" horiz-adv-x="675" d="M364 814 L501 940 C522 960 576 1012 576 1012 C576 1015 569 1022 566 1022 C566 1022 512 970 492 949 L362 817 L364 814 L364 814 Z M506 707 L502 709 C448 737 390 760 358 760 C277 760 71 485 71 375 C71 265 269 -10 348 -10 C380 -10 445 16 505 46 L505 46 C530 58 604 46 607 35 C609 26 615 5 615 5 L621 5 L627 5 L627 109 L627 124 L627 213 L619 213 L612 213 C612 213 608 198 607 192 C601 170 507 51 477 36 L477 36 C426 11 375 -9 349 -9 C277 -9 96 266 96 375 C96 484 285 759 360 759 C381 759 415 747 452 730 C494 704 602 580 608 557 C609 551 613 536 613 536 L620 536 L628 536 L628 625 L628 638 L628 740 L620 740 L613 740 C613 740 609 720 608 711 C606 700 533 692 507 706 L506 707 L506 707 Z " />
<glyph glyph-name="Ccircumflex" unicode="&#x108;" horiz-adv-x="675" d="M506 707 L502 709 C448 737 390 760 358 760 C277 760 71 485 71 375 C71 265 269 -10 348 -10 C380 -10 445 16 505 46 L505 46 C530 58 604 46 607 35 C609 26 615 5 615 5 L621 5 L627 5 L627 109 L627 124 L627 213 L619 213 L612 213 C612 213 608 198 607 192 C601 170 507 51 477 36 L477 36 C426 11 375 -9 349 -9 C277 -9 96 266 96 375 C96 484 285 759 360 759 C381 759 415 747 452 730 C494 704 602 580 608 557 C609 551 613 536 613 536 L620 536 L628 536 L628 625 L628 638 L628 740 L620 740 L613 740 C613 740 609 720 608 711 C606 700 533 692 507 706 L506 707 L506 707 Z M359 1006 L503 808 L506 810 L367 1023 C366 1024 361 1030 359 1030 C358 1030 353 1024 352 1023 L213 810 L215 808 L359 1006 L359 1006 Z " />
<glyph glyph-name="Cdot" unicode="&#x10a;" horiz-adv-x="675" d="M358 865 C364 865 378 879 378 885 C378 891 364 905 358 905 C353 905 338 891 338 885 C338 879 353 865 358 865 L358 865 Z M506 707 L502 709 C448 737 390 760 358 760 C277 760 71 485 71 375 C71 265 269 -10 348 -10 C380 -10 445 16 505 46 L505 46 C530 58 604 46 607 35 C609 26 615 5 615 5 L621 5 L627 5 L627 109 L627 124 L627 213 L619 213 L612 213 C612 213 608 198 607 192 C601 170 507 51 477 36 L477 36 C426 11 375 -9 349 -9 C277 -9 96 266 96 375 C96 484 285 759 360 759 C381 759 415 747 452 730 C494 704 602 580 608 557 C609 551 613 536 613 536 L620 536 L628 536 L628 625 L628 638 L628 740 L620 740 L613 740 C613 740 609 720 608 711 C606 700 533 692 507 706 L506 707 L506 707 Z " />
<glyph glyph-name="cdot" unicode="&#x10b;" horiz-adv-x="510" d="M306 615 C312 615 326 629 326 635 C326 641 312 655 306 655 C300 655 286 641 286 635 C286 629 300 615 306 615 L306 615 Z M481 128 L478 129 C460 90 318 -8 278 -8 C217 -8 64 179 64 254 C64 326 237 509 306 509 C340 509 451 435 462 405 C463 402 470 395 472 395 C476 395 483 402 482 405 C471 435 345 510 306 510 C232 510 45 318 45 242 C45 170 211 -10 277 -10 C318 -10 463 89 481 128 L481 128 Z " />
<glyph glyph-name="Ccaron" unicode="&#x10c;" horiz-adv-x="675" d="M506 707 L502 709 C448 737 390 760 358 760 C277 760 71 485 71 375 C71 265 269 -10 348 -10 C380 -10 445 16 505 46 L505 46 C530 58 604 46 607 35 C609 26 615 5 615 5 L621 5 L627 5 L627 109 L627 124 L627 213 L619 213 L612 213 C612 213 608 198 607 192 C601 170 507 51 477 36 L477 36 C426 11 375 -9 349 -9 C277 -9 96 266 96 375 C96 484 285 759 360 759 C381 759 415 747 452 730 C494 704 602 580 608 557 C609 551 613 536 613 536 L620 536 L628 536 L628 625 L628 638 L628 740 L620 740 L613 740 C613 740 609 720 608 711 C606 700 533 692 507 706 L506 707 L506 707 Z M359 842 L503 1040 L506 1038 L367 825 C366 824 361 818 359 818 C358 818 353 824 352 825 L213 1038 L215 1040 L359 842 L359 842 Z " />
<glyph glyph-name="ccaron" unicode="&#x10d;" horiz-adv-x="510" d="M481 128 L478 129 C460 90 318 -8 278 -8 C217 -8 64 179 64 254 C64 326 237 509 306 509 C340 509 451 435 462 405 C463 402 470 395 472 395 C476 395 483 402 482 405 C471 435 345 510 306 510 C232 510 45 318 45 242 C45 170 211 -10 277 -10 C318 -10 463 89 481 128 L481 128 Z M306 593 L450 791 L453 789 L313 576 C312 575 307 569 306 569 C305 569 300 575 299 576 L159 789 L162 791 L306 593 L306 593 Z " />
<glyph glyph-name="Dcaron" unicode="&#x10e;" horiz-adv-x="753" d="M410 843 L554 1041 L556 1039 L417 826 C416 825 411 819 410 819 C409 819 403 825 403 826 L263 1039 L266 1041 L410 843 L410 843 Z M145 665 L145 85 C145 59 92 20 70 20 L40 20 L40 10 L40 0 L104 0 L145 0 L168 0 L248 0 C376 0 699 257 699 375 C699 482 417 750 288 750 L168 750 L145 750 L104 750 L40 750 L40 740 L40 730 L70 730 C92 730 145 691 145 665 L145 665 Z M168 749 L285 749 C407 749 674 482 674 375 C674 258 368 1 247 1 C213 1 168 57 168 80 L168 85 L168 665 L168 749 L168 749 Z " />
<glyph glyph-name="dcaron" unicode="&#x10f;" horiz-adv-x="593" d="M589 652 C594 676 607 751 607 757 C607 758 601 759 598 759 C596 759 581 675 578 654 L563 543 L566 543 L589 652 L589 652 Z M494 84 C474 60 352 3 319 3 C251 3 83 188 83 261 C83 330 260 504 341 504 C367 504 475 419 493 386 L493 109 L494 84 L494 84 Z M493 76 L493 -11 L496 -11 L598 14 L598 24 L598 34 L568 27 C552 23 513 73 513 113 L513 664 L513 749 L509 749 L408 720 L408 710 L408 700 L438 709 C454 713 493 685 493 659 L493 406 C459 443 365 509 338 509 C251 509 62 327 62 255 C62 180 239 -6 309 -6 C344 -6 473 52 493 76 L493 76 Z " />
<glyph glyph-name="Emacron" unicode="&#x112;" horiz-adv-x="671" d="M221 907 L521 907 L521 920 L221 920 L221 907 L221 907 Z M479 0 L599 0 C601 9 607 54 608 63 C609 72 616 117 617 126 L607 126 L597 126 L593 96 C589 69 519 1 480 1 L267 1 C233 1 187 57 187 80 L187 85 L187 385 L391 385 C431 385 491 306 491 275 L491 245 L501 245 L511 245 L511 385 L511 386 L511 526 L501 526 L491 526 L491 496 C491 465 431 386 391 386 L187 386 L187 665 L187 749 L457 749 C505 749 563 673 565 642 L566 624 L576 624 L586 624 C585 633 582 678 582 687 C581 696 578 741 577 750 L457 750 L187 750 L164 750 L123 750 L59 750 L59 740 L59 730 L89 730 C111 730 164 691 164 665 L164 85 C164 59 111 20 89 20 L59 20 L59 10 L59 0 L123 0 L164 0 L187 0 L479 0 L479 0 Z " />
<glyph glyph-name="emacron" unicode="&#x113;" horiz-adv-x="520" d="M143 657 L443 657 L443 670 L143 670 L143 657 L143 657 Z M91 340 C63 301 44 263 44 238 C44 167 209 -10 275 -10 C318 -10 465 93 480 134 L478 135 C463 94 318 -8 276 -8 C216 -8 65 174 65 246 C65 269 81 303 105 339 L468 339 L485 339 L490 339 C474 397 336 509 293 509 C245 509 149 421 91 340 L65 340 L65 339 L91 340 L91 340 Z M468 340 L106 340 C159 420 250 508 295 508 C331 508 453 398 470 340 L468 340 L468 340 Z " />
<glyph glyph-name="Ebreve" unicode="&#x114;" horiz-adv-x="671" d="M255 995 C256 969 338 904 371 904 C403 904 486 969 487 994 L482 995 C482 973 402 919 371 919 C340 919 260 974 259 995 L255 995 L255 995 Z M479 0 L599 0 C601 9 607 54 608 63 C609 72 616 117 617 126 L607 126 L597 126 L593 96 C589 69 519 1 480 1 L267 1 C233 1 187 57 187 80 L187 85 L187 385 L391 385 C431 385 491 306 491 275 L491 245 L501 245 L511 245 L511 385 L511 386 L511 526 L501 526 L491 526 L491 496 C491 465 431 386 391 386 L187 386 L187 665 L187 749 L457 749 C505 749 563 673 565 642 L566 624 L576 624 L586 624 C585 633 582 678 582 687 C581 696 578 741 577 750 L457 750 L187 750 L164 750 L123 750 L59 750 L59 740 L59 730 L89 730 C111 730 164 691 164 665 L164 85 C164 59 111 20 89 20 L59 20 L59 10 L59 0 L123 0 L164 0 L187 0 L479 0 L479 0 Z " />
<glyph glyph-name="ebreve" unicode="&#x115;" horiz-adv-x="520" d="M177 745 C178 719 261 654 293 654 C326 654 408 719 409 744 L405 745 C404 723 324 669 293 669 C262 669 182 724 182 745 L177 745 L177 745 Z M91 340 C63 301 44 263 44 238 C44 167 209 -10 275 -10 C318 -10 465 93 480 134 L478 135 C463 94 318 -8 276 -8 C216 -8 65 174 65 246 C65 269 81 303 105 339 L468 339 L485 339 L490 339 C474 397 336 509 293 509 C245 509 149 421 91 340 L65 340 L65 339 L91 340 L91 340 Z M468 340 L106 340 C159 420 250 508 295 508 C331 508 453 398 470 340 L468 340 L468 340 Z " />
<glyph glyph-name="Edot" unicode="&#x116;" horiz-adv-x="671" d="M371 865 C377 865 391 879 391 885 C391 891 377 905 371 905 C365 905 351 891 351 885 C351 879 365 865 371 865 L371 865 Z M479 0 L599 0 C601 9 607 54 608 63 C609 72 616 117 617 126 L607 126 L597 126 L593 96 C589 69 519 1 480 1 L267 1 C233 1 187 57 187 80 L187 85 L187 385 L391 385 C431 385 491 306 491 275 L491 245 L501 245 L511 245 L511 385 L511 386 L511 526 L501 526 L491 526 L491 496 C491 465 431 386 391 386 L187 386 L187 665 L187 749 L457 749 C505 749 563 673 565 642 L566 624 L576 624 L586 624 C585 633 582 678 582 687 C581 696 578 741 577 750 L457 750 L187 750 L164 750 L123 750 L59 750 L59 740 L59 730 L89 730 C111 730 164 691 164 665 L164 85 C164 59 111 20 89 20 L59 20 L59 10 L59 0 L123 0 L164 0 L187 0 L479 0 L479 0 Z " />
<glyph glyph-name="edot" unicode="&#x117;" horiz-adv-x="520" d="M293 615 C299 615 313 629 313 635 C313 641 299 655 293 655 C287 655 273 641 273 635 C273 629 287 615 293 615 L293 615 Z M91 340 C63 301 44 263 44 238 C44 167 209 -10 275 -10 C318 -10 465 93 480 134 L478 135 C463 94 318 -8 276 -8 C216 -8 65 174 65 246 C65 269 81 303 105 339 L468 339 L485 339 L490 339 C474 397 336 509 293 509 C245 509 149 421 91 340 L65 340 L65 339 L91 340 L91 340 Z M468 340 L106 340 C159 420 250 508 295 508 C331 508 453 398 470 340 L468 340 L468 340 Z " />
<glyph glyph-name="Ecaron" unicode="&#x11a;" horiz-adv-x="671" d="M371 843 L515 1041 L518 1039 L378 826 C377 825 372 819 371 819 C370 819 365 825 364 826 L224 1039 L227 1041 L371 843 L371 843 Z M479 0 L599 0 C601 9 607 54 608 63 C609 72 616 117 617 126 L607 126 L597 126 L593 96 C589 69 519 1 480 1 L267 1 C233 1 187 57 187 80 L187 85 L187 385 L391 385 C431 385 491 306 491 275 L491 245 L501 245 L511 245 L511 385 L511 386 L511 526 L501 526 L491 526 L491 496 C491 465 431 386 391 386 L187 386 L187 665 L187 749 L457 749 C505 749 563 673 565 642 L566 624 L576 624 L586 624 C585 633 582 678 582 687 C581 696 578 741 577 750 L457 750 L187 750 L164 750 L123 750 L59 750 L59 740 L59 730 L89 730 C111 730 164 691 164 665 L164 85 C164 59 111 20 89 20 L59 20 L59 10 L59 0 L123 0 L164 0 L187 0 L479 0 L479 0 Z " />
<glyph glyph-name="ecaron" unicode="&#x11b;" horiz-adv-x="520" d="M293 593 L437 791 L440 789 L300 576 C299 575 294 569 293 569 C292 569 287 575 286 576 L146 789 L149 791 L293 593 L293 593 Z M91 340 C63 301 44 263 44 238 C44 167 209 -10 275 -10 C318 -10 465 93 480 134 L478 135 C463 94 318 -8 276 -8 C216 -8 65 174 65 246 C65 269 81 303 105 339 L468 339 L485 339 L490 339 C474 397 336 509 293 509 C245 509 149 421 91 340 L65 340 L65 339 L91 340 L91 340 Z M468 340 L106 340 C159 420 250 508 295 508 C331 508 453 398 470 340 L468 340 L468 340 Z " />
<glyph glyph-name="Gcircumflex" unicode="&#x11c;" horiz-adv-x="749" d="M506 707 L502 709 C448 737 390 760 358 760 C277 760 71 485 71 375 C71 265 270 -10 349 -10 C416 -10 641 42 685 63 C673 57 644 48 608 39 L609 244 C609 268 648 304 664 304 L694 304 L694 314 L694 324 L590 324 L486 324 L486 314 L486 304 L516 304 C536 304 586 268 586 244 L587 57 C584 47 534 29 478 15 L578 32 C497 13 395 -6 352 -6 C279 -6 96 266 96 374 C96 483 285 758 360 758 C381 758 415 746 452 729 C494 703 602 579 608 556 C609 550 613 535 613 535 L620 535 L628 535 L628 624 L628 637 L628 739 L620 739 L613 739 C613 739 609 719 608 710 C606 699 533 691 507 705 L506 707 L506 707 Z M359 1005 L503 807 L506 809 L367 1022 C366 1023 361 1029 359 1029 C358 1029 353 1023 352 1022 L213 809 L215 807 L359 1005 L359 1005 Z M478 14 C432 2 382 -7 352 -7 L478 14 L478 14 Z " />
<glyph glyph-name="Gbreve" unicode="&#x11e;" horiz-adv-x="749" d="M243 995 C243 969 326 904 358 904 C391 904 474 969 474 994 L470 995 C469 973 390 919 358 919 C327 919 247 974 247 995 L243 995 L243 995 Z M506 707 L502 709 C448 737 390 760 358 760 C277 760 71 485 71 375 C71 265 270 -10 349 -10 C416 -10 641 42 685 63 C673 57 644 48 608 39 L609 244 C609 268 648 304 664 304 L694 304 L694 314 L694 324 L590 324 L486 324 L486 314 L486 304 L516 304 C536 304 586 268 586 244 L587 57 C584 47 534 29 478 15 L578 32 C497 13 395 -6 352 -6 C279 -6 96 266 96 374 C96 483 285 758 360 758 C381 758 415 746 452 729 C494 703 602 579 608 556 C609 550 613 535 613 535 L620 535 L628 535 L628 624 L628 637 L628 739 L620 739 L613 739 C613 739 609 719 608 710 C606 699 533 691 507 705 L506 707 L506 707 Z M478 14 C432 2 382 -7 352 -7 L478 14 L478 14 Z " />
<glyph glyph-name="gbreve" unicode="&#x11f;" horiz-adv-x="520" d="M131 745 C132 719 214 654 247 654 C279 654 362 719 363 744 L359 745 C358 723 278 669 247 669 C216 669 136 724 135 745 L131 745 L131 745 Z M95 350 C95 394 204 505 247 505 C290 505 399 394 399 350 C399 305 290 193 247 193 C204 193 95 305 95 350 L95 350 Z M183 32 C185 32 187 32 188 32 L300 32 C357 32 468 -57 468 -93 C468 -130 329 -225 273 -225 C217 -225 75 -126 75 -86 C75 -60 148 18 183 32 L183 32 Z M179 33 C141 20 59 -64 59 -91 C59 -131 211 -230 272 -230 C333 -230 485 -128 485 -88 C485 -48 365 52 302 52 L189 52 C154 52 67 97 67 115 C67 136 196 188 247 188 C296 188 419 304 419 350 C419 355 418 360 416 366 C423 405 486 488 512 488 C523 488 552 453 552 439 C552 437 559 432 562 432 C564 432 570 438 570 441 C570 457 534 496 520 496 C492 496 420 409 415 370 C392 422 291 511 248 511 C199 511 76 397 76 351 C76 309 177 210 232 192 C171 184 56 132 56 111 C56 90 138 41 180 34 L179 33 L179 33 Z " />
<glyph glyph-name="Gdot" unicode="&#x120;" horiz-adv-x="749" d="M358 865 C364 865 378 879 378 885 C378 891 364 905 358 905 C353 905 338 891 338 885 C338 879 353 865 358 865 L358 865 Z M506 707 L502 709 C448 737 390 760 358 760 C277 760 71 485 71 375 C71 265 270 -10 349 -10 C416 -10 641 42 685 63 C673 57 644 48 608 39 L609 244 C609 268 648 304 664 304 L694 304 L694 314 L694 324 L590 324 L486 324 L486 314 L486 304 L516 304 C536 304 586 268 586 244 L587 57 C584 47 534 29 478 15 L578 32 C497 13 395 -6 352 -6 C279 -6 96 266 96 374 C96 483 285 758 360 758 C381 758 415 746 452 729 C494 703 602 579 608 556 C609 550 613 535 613 535 L620 535 L628 535 L628 624 L628 637 L628 739 L620 739 L613 739 C613 739 609 719 608 710 C606 699 533 691 507 705 L506 707 L506 707 Z M478 14 C432 2 382 -7 352 -7 L478 14 L478 14 Z " />
<glyph glyph-name="gdot" unicode="&#x121;" horiz-adv-x="520" d="M247 615 C253 615 267 629 267 635 C267 641 253 655 247 655 C241 655 227 641 227 635 C227 629 241 615 247 615 L247 615 Z M95 350 C95 394 204 505 247 505 C290 505 399 394 399 350 C399 305 290 193 247 193 C204 193 95 305 95 350 L95 350 Z M183 32 C185 32 187 32 188 32 L300 32 C357 32 468 -57 468 -93 C468 -130 329 -225 273 -225 C217 -225 75 -126 75 -86 C75 -60 148 18 183 32 L183 32 Z M179 33 C141 20 59 -64 59 -91 C59 -131 211 -230 272 -230 C333 -230 485 -128 485 -88 C485 -48 365 52 302 52 L189 52 C154 52 67 97 67 115 C67 136 196 188 247 188 C296 188 419 304 419 350 C419 355 418 360 416 366 C423 405 486 488 512 488 C523 488 552 453 552 439 C552 437 559 432 562 432 C564 432 570 438 570 441 C570 457 534 496 520 496 C492 496 420 409 415 370 C392 422 291 511 248 511 C199 511 76 397 76 351 C76 309 177 210 232 192 C171 184 56 132 56 111 C56 90 138 41 180 34 L179 33 L179 33 Z " />
<glyph glyph-name="Hcircumflex" unicode="&#x124;" horiz-adv-x="805" d="M403 1007 L547 809 L550 811 L410 1024 C409 1025 404 1031 403 1031 C402 1031 397 1025 396 1024 L256 811 L259 809 L403 1007 L403 1007 Z M661 80 L661 670 C661 694 715 730 736 730 L766 730 L766 740 L766 750 L650 750 L534 750 L534 740 L534 730 L564 730 C585 730 639 694 639 670 L639 383 L639 80 C639 56 585 20 564 20 L534 20 L534 10 L534 0 L650 0 L766 0 L766 10 L766 20 L736 20 C715 20 661 56 661 80 L661 80 Z M168 383 L168 670 C168 694 221 730 243 730 L273 730 L273 740 L273 750 L156 750 L40 750 L40 740 L40 730 L70 730 C92 730 145 694 145 670 L145 80 C145 56 92 20 70 20 L40 20 L40 10 L40 0 L156 0 L273 0 L273 10 L273 20 L243 20 C221 20 168 56 168 80 L168 383 L168 383 Z " />
<glyph glyph-name="Itilde" unicode="&#x128;" horiz-adv-x="346" d="M46 870 C46 890 81 941 95 941 C125 941 250 876 279 876 C295 876 334 929 334 951 C334 934 298 891 284 891 C254 891 129 956 99 956 C84 956 46 895 46 870 L46 870 Z M201 80 L201 670 C201 694 255 730 276 730 L306 730 L306 740 L306 750 L190 750 L74 750 L74 740 L74 730 L104 730 C125 730 179 694 179 670 L179 80 C179 56 125 20 104 20 L74 20 L74 10 L74 0 L190 0 L306 0 L306 10 L306 20 L276 20 C255 20 201 56 201 80 L201 80 Z " />
<glyph glyph-name="itilde" unicode="&#x129;" horiz-adv-x="261" d="M-3 620 C-3 640 32 691 46 691 C76 691 201 626 230 626 C246 626 285 679 285 701 C285 684 249 641 235 641 C205 641 80 706 50 706 C35 706 -3 645 -3 620 L-3 620 Z M151 35 L151 390 L151 500 L147 500 L50 445 L50 435 C82 437 131 410 131 390 L131 35 C131 29 95 20 81 20 L51 20 L51 10 L51 0 L143 0 L234 0 L234 10 L234 20 L204 20 C189 20 151 29 151 35 L151 35 Z " />
<glyph glyph-name="Imacron" unicode="&#x12a;" horiz-adv-x="346" d="M40 907 L340 907 L340 920 L40 920 L40 907 L40 907 Z M201 80 L201 670 C201 694 255 730 276 730 L306 730 L306 740 L306 750 L190 750 L74 750 L74 740 L74 730 L104 730 C125 730 179 694 179 670 L179 80 C179 56 125 20 104 20 L74 20 L74 10 L74 0 L190 0 L306 0 L306 10 L306 20 L276 20 C255 20 201 56 201 80 L201 80 Z " />
<glyph glyph-name="imacron" unicode="&#x12b;" horiz-adv-x="261" d="M-9 657 L291 657 L291 670 L-9 670 L-9 657 L-9 657 Z M151 35 L151 390 L151 500 L147 500 L50 445 L50 435 C82 437 131 410 131 390 L131 35 C131 29 95 20 81 20 L51 20 L51 10 L51 0 L143 0 L234 0 L234 10 L234 20 L204 20 C189 20 151 29 151 35 L151 35 Z " />
<glyph glyph-name="Ibreve" unicode="&#x12c;" horiz-adv-x="346" d="M74 995 C75 969 158 904 190 904 C222 904 305 969 306 994 L302 995 C301 973 221 919 190 919 C159 919 79 974 78 995 L74 995 L74 995 Z M201 80 L201 670 C201 694 255 730 276 730 L306 730 L306 740 L306 750 L190 750 L74 750 L74 740 L74 730 L104 730 C125 730 179 694 179 670 L179 80 C179 56 125 20 104 20 L74 20 L74 10 L74 0 L190 0 L306 0 L306 10 L306 20 L276 20 C255 20 201 56 201 80 L201 80 Z " />
<glyph glyph-name="ibreve" unicode="&#x12d;" horiz-adv-x="261" d="M25 745 C26 719 109 654 141 654 C173 654 256 719 257 744 L253 745 C252 723 172 669 141 669 C110 669 30 724 29 745 L25 745 L25 745 Z M151 35 L151 390 L151 500 L147 500 L50 445 L50 435 C82 437 131 410 131 390 L131 35 C131 29 95 20 81 20 L51 20 L51 10 L51 0 L143 0 L234 0 L234 10 L234 20 L204 20 C189 20 151 29 151 35 L151 35 Z " />
<glyph glyph-name="Idot" unicode="&#x130;" horiz-adv-x="346" d="M190 865 C196 865 210 879 210 885 C210 891 196 905 190 905 C184 905 170 891 170 885 C170 879 184 865 190 865 L190 865 Z M201 80 L201 670 C201 694 255 730 276 730 L306 730 L306 740 L306 750 L190 750 L74 750 L74 740 L74 730 L104 730 C125 730 179 694 179 670 L179 80 C179 56 125 20 104 20 L74 20 L74 10 L74 0 L190 0 L306 0 L306 10 L306 20 L276 20 C255 20 201 56 201 80 L201 80 Z " />
<glyph glyph-name="dotlessi" unicode="&#x131;" horiz-adv-x="261" d="M151 35 L151 390 L151 500 L147 500 L50 445 L50 435 C82 437 131 410 131 390 L131 35 C131 29 95 20 81 20 L51 20 L51 10 L51 0 L143 0 L234 0 L234 10 L234 20 L204 20 C189 20 151 29 151 35 L151 35 Z " />
<glyph glyph-name="Jcircumflex" unicode="&#x134;" horiz-adv-x="346" d="M190 1007 L334 809 L337 811 L197 1024 C196 1025 191 1031 190 1031 C189 1031 184 1025 183 1024 L43 811 L46 809 L190 1007 L190 1007 Z M179 670 L179 1 C179 -87 79 -219 55 -219 C49 -219 42 -200 37 -200 C34 -200 26 -208 26 -211 C26 -213 46 -220 54 -220 C83 -220 201 -62 201 43 L201 670 C201 694 255 730 276 730 L306 730 L306 740 L306 750 L190 750 L74 750 L74 740 L74 730 L104 730 C125 730 179 694 179 670 L179 670 Z " />
<glyph glyph-name="Lacute" unicode="&#x139;" horiz-adv-x="688" d="M196 814 L332 940 C354 960 408 1012 408 1012 C408 1015 401 1022 398 1022 C398 1022 344 970 323 949 L193 817 L196 814 L196 814 Z M614 1 C617 12 632 70 635 81 C639 93 654 151 657 162 C657 162 650 163 648 164 C645 165 638 166 638 166 L630 136 C620 97 495 1 429 1 L281 1 C247 1 201 57 201 80 L201 85 L201 665 C201 691 255 730 276 730 L306 730 L306 740 L306 750 L201 750 L190 750 L179 750 L74 750 L74 740 L74 730 L104 730 C125 730 179 691 179 665 L179 85 C179 59 125 20 104 20 L74 20 L74 10 L74 0 L138 0 L179 0 L201 0 L614 0 L614 1 L614 1 Z " />
<glyph glyph-name="Lcaron" unicode="&#x13d;" horiz-adv-x="688" d="M376 702 C381 726 394 801 394 807 C394 808 388 809 385 809 C383 809 368 725 366 704 L350 593 L354 593 L376 702 L376 702 Z M614 1 C617 12 632 70 635 81 C639 93 654 151 657 162 C657 162 650 163 648 164 C645 165 638 166 638 166 L630 136 C620 97 495 1 429 1 L281 1 C247 1 201 57 201 80 L201 85 L201 665 C201 691 255 730 276 730 L306 730 L306 740 L306 750 L201 750 L190 750 L179 750 L74 750 L74 740 L74 730 L104 730 C125 730 179 691 179 665 L179 85 C179 59 125 20 104 20 L74 20 L74 10 L74 0 L138 0 L179 0 L201 0 L614 0 L614 1 L614 1 Z " />
<glyph glyph-name="lcaron" unicode="&#x13e;" horiz-adv-x="261" d="M226 652 C231 676 244 751 244 757 C244 758 238 759 235 759 C233 759 218 675 215 654 L200 543 L204 543 L226 652 L226 652 Z M151 35 L151 650 L151 750 L147 750 L46 721 L46 711 L46 701 L76 710 C92 714 131 677 131 645 L131 35 C131 29 95 20 81 20 L51 20 L51 10 L51 0 L141 0 L231 0 L231 10 L231 20 L201 20 C187 20 151 29 151 35 L151 35 Z " />
<glyph glyph-name="Nacute" unicode="&#x143;" horiz-adv-x="750" d="M280 814 L416 940 C438 960 492 1012 492 1012 C492 1015 485 1022 482 1022 C482 1022 428 970 407 949 L277 817 L280 814 L280 814 Z M150 140 L150 140 L149 707 C154 703 158 699 160 695 L160 696 L578 32 L598 0 L602 0 L604 630 L604 630 C604 670 672 730 699 730 L729 730 L729 740 L729 750 L604 750 L601 750 L597 750 L472 750 L472 740 L472 730 L502 730 C529 730 597 670 597 630 L597 630 L598 42 L597 44 L153 750 L148 750 L143 750 L126 750 L113 750 L73 750 L73 740 L73 730 L110 730 C115 730 130 722 143 712 L142 150 L142 150 C142 98 74 20 47 20 L17 20 L17 10 L17 0 L142 0 L146 0 L149 0 L274 0 L274 10 L274 20 L244 20 C217 20 149 92 149 140 L150 140 L150 140 Z " />
<glyph glyph-name="Ncaron" unicode="&#x147;" horiz-adv-x="750" d="M150 140 L150 140 L149 707 C154 703 158 699 160 695 L160 696 L578 32 L598 0 L602 0 L604 630 L604 630 C604 670 672 730 699 730 L729 730 L729 740 L729 750 L604 750 L601 750 L597 750 L472 750 L472 740 L472 730 L502 730 C529 730 597 670 597 630 L597 630 L598 42 L597 44 L153 750 L148 750 L143 750 L126 750 L113 750 L73 750 L73 740 L73 730 L110 730 C115 730 130 722 143 712 L142 150 L142 150 C142 98 74 20 47 20 L17 20 L17 10 L17 0 L142 0 L146 0 L149 0 L274 0 L274 10 L274 20 L244 20 C217 20 149 92 149 140 L150 140 L150 140 Z M373 843 L517 1041 L520 1039 L380 826 C380 825 374 819 373 819 C372 819 367 825 366 826 L227 1039 L229 1041 L373 843 L373 843 Z " />
<glyph glyph-name="ncaron" unicode="&#x148;" horiz-adv-x="650" d="M333 593 L477 791 L480 789 L341 576 C340 575 335 569 334 569 C332 569 327 575 326 576 L187 789 L190 791 L333 593 L333 593 Z M521 35 C521 29 485 20 471 20 L441 20 L441 10 L441 0 L531 0 L621 0 L621 10 L621 20 L591 20 C577 20 541 29 541 35 L541 335 C541 385 419 510 363 510 C331 510 178 411 146 370 L146 400 L146 500 L142 500 L41 463 L41 453 L41 443 L71 454 C87 460 126 426 126 394 L126 35 C126 29 90 20 76 20 L46 20 L46 10 L46 0 L136 0 L226 0 L226 10 L226 20 L196 20 C182 20 146 29 146 35 L146 367 C177 406 326 501 358 501 C409 501 521 382 521 335 L521 35 L521 35 Z " />
<glyph glyph-name="Omacron" unicode="&#x14c;" horiz-adv-x="838" d="M263 907 L563 907 L563 920 L263 920 L263 907 L263 907 Z M404 -9 C311 -9 79 266 79 375 C79 484 318 759 413 759 C512 759 758 484 758 375 C758 266 505 -9 404 -9 L404 -9 Z M54 375 C54 265 304 -10 403 -10 C512 -10 783 265 783 375 C783 485 519 760 413 760 C311 760 54 485 54 375 L54 375 Z " />
<glyph glyph-name="omacron" unicode="&#x14d;" horiz-adv-x="571" d="M135 657 L435 657 L435 670 L135 670 L135 657 L135 657 Z M285 -9 C223 -9 66 176 66 250 C66 324 223 509 285 509 C348 509 504 324 504 250 C504 176 348 -9 285 -9 L285 -9 Z M44 250 C44 176 216 -10 285 -10 C354 -10 526 176 526 250 C526 324 354 510 285 510 C216 510 44 324 44 250 L44 250 Z " />
<glyph glyph-name="Obreve" unicode="&#x14e;" horiz-adv-x="838" d="M298 995 C298 969 381 904 413 904 C446 904 529 969 529 994 L525 995 C524 973 445 919 413 919 C382 919 302 974 302 995 L298 995 L298 995 Z M404 -9 C311 -9 79 266 79 375 C79 484 318 759 413 759 C512 759 758 484 758 375 C758 266 505 -9 404 -9 L404 -9 Z M54 375 C54 265 304 -10 403 -10 C512 -10 783 265 783 375 C783 485 519 760 413 760 C311 760 54 485 54 375 L54 375 Z " />
<glyph glyph-name="obreve" unicode="&#x14f;" horiz-adv-x="571" d="M169 745 C170 719 253 654 285 654 C318 654 400 719 401 744 L397 745 C396 723 316 669 285 669 C254 669 174 724 174 745 L169 745 L169 745 Z M285 -9 C223 -9 66 176 66 250 C66 324 223 509 285 509 C348 509 504 324 504 250 C504 176 348 -9 285 -9 L285 -9 Z M44 250 C44 176 216 -10 285 -10 C354 -10 526 176 526 250 C526 324 354 510 285 510 C216 510 44 324 44 250 L44 250 Z " />
<glyph glyph-name="Racute" unicode="&#x154;" horiz-adv-x="717" d="M374 814 L511 940 C533 960 587 1012 587 1012 C587 1015 579 1022 577 1022 C576 1022 523 970 502 949 L372 817 L374 814 L374 814 Z M708 0 L708 4 C653 4 562 45 540 80 C492 158 377 344 357 376 C441 392 598 491 598 541 C598 600 415 749 343 749 L187 749 L123 749 L59 749 L59 739 L59 729 L89 729 C111 729 164 690 164 664 L164 84 C164 58 111 19 89 19 L59 19 L59 9 L59 -1 L176 -1 L292 -1 L292 9 L292 19 L262 19 C240 19 187 58 187 84 L187 373 L336 373 C351 347 467 157 515 79 C537 43 643 -1 709 -1 L708 0 L708 0 Z M188 745 L337 745 C404 745 574 602 574 545 C574 491 404 379 337 379 L188 379 L188 664 L188 745 L188 745 Z " />
<glyph glyph-name="Rcaron" unicode="&#x158;" horiz-adv-x="717" d="M708 0 L708 4 C653 4 562 45 540 80 C492 158 377 344 357 376 C441 392 598 491 598 541 C598 600 415 749 343 749 L187 749 L123 749 L59 749 L59 739 L59 729 L89 729 C111 729 164 690 164 664 L164 84 C164 58 111 19 89 19 L59 19 L59 9 L59 -1 L176 -1 L292 -1 L292 9 L292 19 L262 19 C240 19 187 58 187 84 L187 373 L336 373 C351 347 467 157 515 79 C537 43 643 -1 709 -1 L708 0 L708 0 Z M370 842 L514 1040 L516 1038 L377 825 C376 824 371 818 370 818 C369 818 363 824 363 825 L223 1038 L226 1040 L370 842 L370 842 Z M188 745 L337 745 C404 745 574 602 574 545 C574 491 404 379 337 379 L188 379 L188 664 L188 745 L188 745 Z " />
<glyph glyph-name="rcaron" unicode="&#x159;" horiz-adv-x="343" d="M231 593 L375 791 L378 789 L239 576 C238 575 233 569 232 569 C230 569 225 575 225 576 L85 789 L88 791 L231 593 L231 593 Z M152 378 L152 400 L152 500 L148 500 L47 463 L47 453 L47 443 L77 454 C93 460 132 426 132 394 L132 35 C132 29 100 20 87 20 L57 20 L57 10 L57 0 L147 0 L237 0 L237 10 L237 20 L207 20 C191 20 152 29 152 35 L152 377 C166 415 260 501 288 501 C294 501 311 476 311 466 C311 462 319 454 323 454 C326 454 335 462 335 466 C335 478 308 510 297 510 C267 510 167 419 152 378 L152 378 Z " />
<glyph glyph-name="Sacute" unicode="&#x15a;" horiz-adv-x="540" d="M280 814 L416 940 C438 960 492 1012 492 1012 C492 1015 485 1022 482 1022 C482 1022 428 970 407 949 L277 817 L280 814 L280 814 Z M375 704 L373 705 C323 734 264 760 239 760 C194 760 81 637 81 588 C81 554 234 396 304 363 C361 337 484 197 484 164 C484 115 360 -9 311 -9 C290 -9 244 13 197 41 C168 62 82 191 76 215 C75 221 71 236 71 236 L64 236 L56 236 L56 148 L56 120 L56 3 L64 3 L71 3 C71 3 75 29 76 39 C78 53 134 71 157 61 C216 23 283 -11 311 -11 C366 -11 502 118 502 170 C502 207 376 359 318 386 C249 418 98 565 98 596 C98 642 199 758 239 758 C247 758 259 755 273 750 L272 750 C273 750 274 750 275 750 C291 744 310 735 329 725 L277 749 C319 727 429 601 435 575 C437 569 440 554 440 554 L448 554 L455 554 L455 642 L455 655 L455 757 L448 757 L440 757 C440 757 437 736 435 728 C433 717 389 696 375 705 L375 704 L375 704 Z M277 750 L273 752 L273 752 C274 752 275 752 276 751 L277 750 L277 750 Z " />
<glyph glyph-name="Scircumflex" unicode="&#x15c;" horiz-adv-x="540" d="M375 704 L373 705 C323 734 264 760 239 760 C194 760 81 637 81 588 C81 554 234 396 304 363 C361 337 484 197 484 164 C484 115 360 -9 311 -9 C290 -9 244 13 197 41 C168 62 82 191 76 215 C75 221 71 236 71 236 L64 236 L56 236 L56 148 L56 120 L56 3 L64 3 L71 3 C71 3 75 29 76 39 C78 53 134 71 157 61 C216 23 283 -11 311 -11 C366 -11 502 118 502 170 C502 207 376 359 318 386 C249 418 98 565 98 596 C98 642 199 758 239 758 C247 758 259 755 273 750 L272 750 C273 750 274 750 275 750 C291 744 310 735 329 725 L277 749 C319 727 429 601 435 575 C437 569 440 554 440 554 L448 554 L455 554 L455 642 L455 655 L455 757 L448 757 L440 757 C440 757 437 736 435 728 C433 717 389 696 375 705 L375 704 L375 704 Z M274 1008 L418 810 L421 812 L281 1025 C280 1026 275 1032 274 1032 C273 1032 268 1026 267 1025 L127 812 L130 810 L274 1008 L274 1008 Z M277 750 L273 752 L273 752 C274 752 275 752 276 751 L277 750 L277 750 Z " />
<glyph glyph-name="Scaron" unicode="&#x160;" horiz-adv-x="540" d="M375 704 L373 705 C323 734 264 760 239 760 C194 760 81 637 81 588 C81 554 234 396 304 363 C361 337 484 197 484 164 C484 115 360 -9 311 -9 C290 -9 244 13 197 41 C168 62 82 191 76 215 C75 221 71 236 71 236 L64 236 L56 236 L56 148 L56 120 L56 3 L64 3 L71 3 C71 3 75 29 76 39 C78 53 134 71 157 61 C216 23 283 -11 311 -11 C366 -11 502 118 502 170 C502 207 376 359 318 386 C249 418 98 565 98 596 C98 642 199 758 239 758 C247 758 259 755 273 750 L272 750 C273 750 274 750 275 750 C291 744 310 735 329 725 L277 749 C319 727 429 601 435 575 C437 569 440 554 440 554 L448 554 L455 554 L455 642 L455 655 L455 757 L448 757 L440 757 C440 757 437 736 435 728 C433 717 389 696 375 705 L375 704 L375 704 Z M274 844 L418 1042 L421 1040 L281 827 C280 826 275 820 274 820 C273 820 268 826 267 827 L127 1040 L130 1042 L274 844 L274 844 Z M277 750 L273 752 L273 752 C274 752 275 752 276 751 L277 750 L277 750 Z " />
<glyph glyph-name="scaron" unicode="&#x161;" horiz-adv-x="431" d="M248 593 L392 791 L395 789 L255 576 C255 575 249 569 248 569 C247 569 242 575 241 576 L102 789 L104 791 L248 593 L248 593 Z M220 501 L197 509 C207 509 225 502 245 492 L220 501 L220 501 Z M220 500 C265 475 332 396 332 371 L332 355 L342 355 L352 355 L352 423 L352 432 L352 509 L342 509 L332 509 L332 480 C332 474 287 476 264 484 C237 498 211 508 198 508 C165 508 82 427 82 394 C82 367 194 259 245 240 C283 226 367 132 367 106 C367 73 283 -11 249 -11 C242 -11 230 -7 216 -1 L227 -5 C188 11 96 123 96 145 L96 161 L86 161 L76 161 L76 94 L76 85 L76 9 L86 9 L96 9 L96 30 C96 35 156 23 187 10 C212 -3 235 -12 247 -12 C285 -12 381 76 381 112 C381 139 292 241 252 256 C203 274 95 376 95 401 C95 431 167 507 196 507 C202 507 210 504 219 499 L220 500 L220 500 Z M225 -6 L226 -7 L226 -7 L225 -6 L225 -6 Z " />
<glyph glyph-name="Tcaron" unicode="&#x164;" horiz-adv-x="775" d="M388 843 L532 1041 L535 1039 L396 826 C395 825 390 819 389 819 C387 819 382 825 381 826 L242 1039 L245 1041 L388 843 L388 843 Z M721 745 L721 750 L719 750 C713 767 707 784 705 789 C705 789 697 789 695 790 L684 790 L689 777 C692 769 639 750 599 750 L400 750 L377 750 L178 750 C138 750 85 769 88 777 L93 790 L82 790 C80 789 72 789 72 789 C70 784 64 767 58 750 L56 750 L56 745 C51 732 47 720 45 715 C42 705 22 652 19 642 C19 642 25 641 28 640 C31 640 38 639 38 639 L49 669 C56 691 136 744 176 744 L377 744 L377 80 C377 56 324 20 302 20 L272 20 L272 10 L272 0 L389 0 L505 0 L505 10 L505 20 L475 20 C453 20 400 56 400 80 L400 744 L601 744 C641 744 721 691 728 669 L739 639 C739 639 746 640 749 640 C752 641 758 642 758 642 C755 652 735 705 732 715 C730 720 726 732 721 745 L721 745 Z " />
<glyph glyph-name="tcaron" unicode="&#x165;" horiz-adv-x="306" d="M269 500 L115 500 L115 620 L114 620 L30 500 L30 490 L95 490 L95 103 C95 64 167 -10 196 -10 C210 -10 282 29 296 45 L294 46 C282 33 216 -1 202 -1 C177 -1 114 64 114 98 L115 489 L269 489 L269 500 L269 500 Z M341 652 C346 676 359 751 359 757 C359 758 353 759 350 759 C348 759 333 675 331 654 L316 543 L319 543 L341 652 L341 652 Z " />
<glyph glyph-name="Utilde" unicode="&#x168;" horiz-adv-x="752" d="M230 870 C230 890 265 941 279 941 C308 941 433 876 463 876 C479 876 518 929 518 951 C518 934 482 891 468 891 C438 891 313 956 283 956 C268 956 229 895 229 870 L230 870 L230 870 Z M637 665 L637 750 L573 750 L510 750 L510 740 L510 730 L540 730 C561 730 615 691 615 665 L615 164 C593 118 341 4 262 4 C225 4 133 158 133 220 L133 665 L133 750 L69 750 L5 750 L5 740 L5 730 L35 730 C57 730 110 691 110 665 L110 220 C110 154 212 -10 253 -10 C334 -10 593 107 615 153 L615 110 L615 0 L618 0 L741 55 L741 65 C700 63 637 89 637 110 L637 665 L637 665 Z " />
<glyph glyph-name="utilde" unicode="&#x169;" horiz-adv-x="571" d="M136 620 C136 640 171 691 185 691 C214 691 340 626 369 626 C385 626 424 679 424 701 C424 684 388 641 374 641 C344 641 219 706 189 706 C174 706 136 645 136 620 L136 620 Z M447 90 L447 -10 L450 -10 L552 15 L552 25 L552 35 L522 28 C506 24 467 62 467 94 L467 465 L467 500 L424 500 L381 500 L381 490 L381 480 L411 480 C421 480 447 471 447 465 L447 134 C405 92 273 4 248 4 C209 4 112 116 112 160 L112 465 L112 500 L69 500 L26 500 L26 490 L26 480 L56 480 C66 480 92 471 92 465 L92 160 C92 112 197 -10 239 -10 C263 -10 402 87 446 133 L447 90 L447 90 Z " />
<glyph glyph-name="Umacron" unicode="&#x16a;" horiz-adv-x="752" d="M224 907 L524 907 L524 920 L224 920 L224 907 L224 907 Z M637 665 L637 750 L573 750 L510 750 L510 740 L510 730 L540 730 C561 730 615 691 615 665 L615 164 C593 118 341 4 262 4 C225 4 133 158 133 220 L133 665 L133 750 L69 750 L5 750 L5 740 L5 730 L35 730 C57 730 110 691 110 665 L110 220 C110 154 212 -10 253 -10 C334 -10 593 107 615 153 L615 110 L615 0 L618 0 L741 55 L741 65 C700 63 637 89 637 110 L637 665 L637 665 Z " />
<glyph glyph-name="umacron" unicode="&#x16b;" horiz-adv-x="571" d="M130 657 L430 657 L430 670 L130 670 L130 657 L130 657 Z M447 90 L447 -10 L450 -10 L552 15 L552 25 L552 35 L522 28 C506 24 467 62 467 94 L467 465 L467 500 L424 500 L381 500 L381 490 L381 480 L411 480 C421 480 447 471 447 465 L447 134 C405 92 273 4 248 4 C209 4 112 116 112 160 L112 465 L112 500 L69 500 L26 500 L26 490 L26 480 L56 480 C66 480 92 471 92 465 L92 160 C92 112 197 -10 239 -10 C263 -10 402 87 446 133 L447 90 L447 90 Z " />
<glyph glyph-name="Ubreve" unicode="&#x16c;" horiz-adv-x="752" d="M258 995 C259 969 341 904 374 904 C406 904 489 969 489 994 L485 995 C485 973 405 919 374 919 C342 919 263 974 262 995 L258 995 L258 995 Z M637 665 L637 750 L573 750 L510 750 L510 740 L510 730 L540 730 C561 730 615 691 615 665 L615 164 C593 118 341 4 262 4 C225 4 133 158 133 220 L133 665 L133 750 L69 750 L5 750 L5 740 L5 730 L35 730 C57 730 110 691 110 665 L110 220 C110 154 212 -10 253 -10 C334 -10 593 107 615 153 L615 110 L615 0 L618 0 L741 55 L741 65 C700 63 637 89 637 110 L637 665 L637 665 Z " />
<glyph glyph-name="ubreve" unicode="&#x16d;" horiz-adv-x="571" d="M164 745 C165 719 247 654 280 654 C312 654 395 719 396 744 L392 745 C391 723 311 669 280 669 C249 669 169 724 168 745 L164 745 L164 745 Z M447 90 L447 -10 L450 -10 L552 15 L552 25 L552 35 L522 28 C506 24 467 62 467 94 L467 465 L467 500 L424 500 L381 500 L381 490 L381 480 L411 480 C421 480 447 471 447 465 L447 134 C405 92 273 4 248 4 C209 4 112 116 112 160 L112 465 L112 500 L69 500 L26 500 L26 490 L26 480 L56 480 C66 480 92 471 92 465 L92 160 C92 112 197 -10 239 -10 C263 -10 402 87 446 133 L447 90 L447 90 Z " />
<glyph glyph-name="Uring" unicode="&#x16e;" horiz-adv-x="752" d="M374 815 C351 815 284 882 284 905 C284 931 348 995 374 995 C399 995 463 931 463 905 C463 882 397 815 374 815 L374 815 Z M278 905 C278 881 349 810 374 810 C398 810 469 881 469 905 C469 932 401 1000 374 1000 C346 1000 278 932 278 905 L278 905 Z M637 665 L637 750 L573 750 L510 750 L510 740 L510 730 L540 730 C561 730 615 691 615 665 L615 164 C593 118 341 4 262 4 C225 4 133 158 133 220 L133 665 L133 750 L69 750 L5 750 L5 740 L5 730 L35 730 C57 730 110 691 110 665 L110 220 C110 154 212 -10 253 -10 C334 -10 593 107 615 153 L615 110 L615 0 L618 0 L741 55 L741 65 C700 63 637 89 637 110 L637 665 L637 665 Z " />
<glyph glyph-name="uring" unicode="&#x16f;" horiz-adv-x="571" d="M280 565 C257 565 190 632 190 655 C190 681 254 745 280 745 C306 745 370 681 370 655 C370 632 303 565 280 565 L280 565 Z M184 655 C184 631 255 560 280 560 C305 560 376 631 376 655 C376 682 307 750 280 750 C253 750 184 682 184 655 L184 655 Z M447 90 L447 -10 L450 -10 L552 15 L552 25 L552 35 L522 28 C506 24 467 62 467 94 L467 465 L467 500 L424 500 L381 500 L381 490 L381 480 L411 480 C421 480 447 471 447 465 L447 134 C405 92 273 4 248 4 C209 4 112 116 112 160 L112 465 L112 500 L69 500 L26 500 L26 490 L26 480 L56 480 C66 480 92 471 92 465 L92 160 C92 112 197 -10 239 -10 C263 -10 402 87 446 133 L447 90 L447 90 Z " />
<glyph glyph-name="Wcircumflex" unicode="&#x174;" horiz-adv-x="1022" d="M506 1007 L650 809 L652 811 L513 1024 C512 1025 507 1031 506 1031 C504 1031 499 1025 499 1024 L359 811 L362 809 L506 1007 L506 1007 Z M499 689 L548 500 L548 500 L324 28 L324 28 L159 610 L159 610 C146 658 208 730 240 730 L264 730 L264 740 L264 750 L150 750 L119 750 L95 750 L35 750 L35 740 L35 730 L73 730 C80 730 117 665 133 617 L296 28 L307 -10 L313 -10 L552 490 L670 32 L681 -10 L687 -10 L876 610 L877 610 C891 658 960 730 978 730 L1008 730 L1008 740 L1008 750 L919 750 L910 750 L877 750 L745 750 L745 740 L745 730 L769 730 C807 730 878 661 868 613 L693 32 L537 641 L538 639 C528 675 597 729 630 729 L654 729 L654 739 L654 749 L524 749 L509 749 L484 749 L394 749 L394 739 L394 729 L424 729 C442 729 495 705 499 689 L499 689 Z " />
<glyph glyph-name="Ycircumflex" unicode="&#x176;" horiz-adv-x="658" d="M333 1007 L477 809 L479 811 L340 1024 C339 1025 334 1031 333 1031 C332 1031 326 1025 326 1024 L186 811 L189 809 L333 1007 L333 1007 Z M190 616 C167 664 176 731 195 731 L220 731 L220 741 L220 751 L127 751 L115 751 L88 751 L35 751 L35 741 L35 731 L72 731 C80 731 140 659 167 611 L167 611 L322 337 L322 81 C322 57 268 21 247 21 L217 21 L217 11 L217 1 L333 1 L449 1 L449 11 L449 21 L419 21 C398 21 344 57 344 81 L344 340 L493 613 L492 611 C518 659 596 731 611 731 L642 731 L642 741 L642 751 L568 751 L566 751 L552 751 L461 751 L461 741 L461 731 L486 731 C505 731 518 674 501 631 L344 342 L190 616 L190 616 Z " />
<glyph glyph-name="Ydieresis" unicode="&#x178;" horiz-adv-x="658" d="M396 865 C402 865 416 879 416 885 C416 891 402 905 396 905 C390 905 376 891 376 885 C376 879 390 865 396 865 L396 865 Z M269 865 C275 865 289 879 289 885 C289 891 275 905 269 905 C263 905 249 891 249 885 C249 879 263 865 269 865 L269 865 Z M190 616 C167 664 176 731 195 731 L220 731 L220 741 L220 751 L127 751 L115 751 L88 751 L35 751 L35 741 L35 731 L72 731 C80 731 140 659 167 611 L167 611 L322 337 L322 81 C322 57 268 21 247 21 L217 21 L217 11 L217 1 L333 1 L449 1 L449 11 L449 21 L419 21 C398 21 344 57 344 81 L344 340 L493 613 L492 611 C518 659 596 731 611 731 L642 731 L642 741 L642 751 L568 751 L566 751 L552 751 L461 751 L461 741 L461 731 L486 731 C505 731 518 674 501 631 L344 342 L190 616 L190 616 Z " />
<glyph glyph-name="Zacute" unicode="&#x179;" horiz-adv-x="652" d="M346 814 L482 940 C504 960 558 1012 558 1012 C558 1015 551 1022 548 1022 C548 1022 494 970 473 949 L343 817 L346 814 L346 814 Z M49 0 L446 0 L606 0 C609 11 623 68 626 79 C629 91 643 147 645 158 C645 158 639 159 636 160 C633 160 626 161 626 161 L609 117 C598 87 505 13 456 6 L54 5 L611 745 L611 750 L589 750 L241 750 L71 750 C69 738 61 676 59 664 C57 652 48 590 47 577 C47 577 56 576 60 576 C63 575 72 574 72 574 L79 604 C87 643 180 737 234 744 L585 745 L26 5 L26 0 L49 0 L49 0 Z " />
<glyph glyph-name="Zdot" unicode="&#x17b;" horiz-adv-x="652" d="M340 865 C346 865 360 879 360 885 C360 891 346 905 340 905 C334 905 320 891 320 885 C320 879 334 865 340 865 L340 865 Z M49 0 L446 0 L606 0 C609 11 623 68 626 79 C629 91 643 147 645 158 C645 158 639 159 636 160 C633 160 626 161 626 161 L609 117 C598 87 505 13 456 6 L54 5 L611 745 L611 750 L589 750 L241 750 L71 750 C69 738 61 676 59 664 C57 652 48 590 47 577 C47 577 56 576 60 576 C63 575 72 574 72 574 L79 604 C87 643 180 737 234 744 L585 745 L26 5 L26 0 L49 0 L49 0 Z " />
<glyph glyph-name="zdot" unicode="&#x17c;" horiz-adv-x="475" d="M265 615 C271 615 285 629 285 635 C285 641 271 655 265 655 C259 655 245 641 245 635 C245 629 259 615 265 615 L265 615 Z M61 0 L415 0 L430 0 C431 8 436 46 437 53 C439 61 444 99 445 106 L440 106 L435 106 L421 76 C411 57 321 10 271 7 L64 6 L434 496 L434 501 L414 501 L134 501 C129 501 113 517 115 524 L120 541 L110 541 L100 541 C97 530 83 478 80 468 C77 457 63 405 61 395 L67 395 L73 395 L89 425 C99 444 183 491 227 495 L410 496 L39 6 L39 1 L61 0 L61 0 Z " />
<glyph glyph-name="Zcaron" unicode="&#x17d;" horiz-adv-x="652" d="M340 843 L484 1041 L487 1039 L347 826 C346 825 341 819 340 819 C339 819 334 825 333 826 L193 1039 L196 1041 L340 843 L340 843 Z M49 0 L446 0 L606 0 C609 11 623 68 626 79 C629 91 643 147 645 158 C645 158 639 159 636 160 C633 160 626 161 626 161 L609 117 C598 87 505 13 456 6 L54 5 L611 745 L611 750 L589 750 L241 750 L71 750 C69 738 61 676 59 664 C57 652 48 590 47 577 C47 577 56 576 60 576 C63 575 72 574 72 574 L79 604 C87 643 180 737 234 744 L585 745 L26 5 L26 0 L49 0 L49 0 Z " />
<glyph glyph-name="zcaron" unicode="&#x17e;" horiz-adv-x="475" d="M265 593 L409 791 L412 789 L272 576 C271 575 266 569 265 569 C264 569 259 575 258 576 L118 789 L121 791 L265 593 L265 593 Z M61 0 L415 0 L430 0 C431 8 436 46 437 53 C439 61 444 99 445 106 L440 106 L435 106 L421 76 C411 57 321 10 271 7 L64 6 L434 496 L434 501 L414 501 L134 501 C129 501 113 517 115 524 L120 541 L110 541 L100 541 C97 530 83 478 80 468 C77 457 63 405 61 395 L67 395 L73 395 L89 425 C99 444 183 491 227 495 L410 496 L39 6 L39 1 L61 0 L61 0 Z " />
<glyph glyph-name="oogonek" unicode="&#x1eb;" horiz-adv-x="790" d="M1015 -55 L1015 -54 C1001 -66 822 -95 764 -95 C701 -95 440 -36 387 -10 C388 -10 389 -10 390 -10 C489 -10 739 206 739 292 C739 378 496 593 400 593 L400 593 C491 592 716 378 716 292 C716 206 483 -9 390 -9 C347 -9 93 206 93 292 C93 374 293 574 387 592 C286 574 71 374 71 292 C71 213 305 23 377 -6 C430 -35 704 -106 763 -106 C817 -106 998 -69 1016 -54 L1015 -55 L1015 -55 Z M401 594 C397 594 393 594 388 593 C392 594 396 594 400 594 L400 594 L401 594 L401 594 Z " />
<glyph glyph-name="Adotabove" unicode="&#x226;" horiz-adv-x="712" d="M390 865 C396 865 410 879 410 885 C410 891 396 905 390 905 C384 905 370 891 370 885 C370 879 384 865 390 865 L390 865 Z M577 140 L576 140 L401 743 L393 770 L391 770 C385 762 376 743 379 743 L382 733 L243 298 L242 298 L242 297 L242 297 L201 170 L200 170 C181 110 77 20 47 20 L17 20 L17 10 L17 0 L146 0 L147 0 L164 0 L312 0 L312 10 L312 20 L288 20 C251 20 186 105 199 165 L241 297 L506 297 L551 140 L551 140 C565 92 511 20 481 20 L457 20 L457 10 L457 0 L581 0 L592 0 L615 0 L705 0 L705 10 L705 20 L675 20 C656 20 588 92 575 140 L577 140 L577 140 Z M241 298 L380 733 L506 298 L241 298 L241 298 Z " />
<glyph glyph-name="G_sc" unicode="&#x262;" horiz-adv-x="672" d="M422 563 L418 564 C386 578 355 589 332 592 C342 591 354 588 367 584 C408 567 524 446 530 421 C531 415 535 400 535 400 L542 400 L550 400 L550 489 L550 493 L550 585 L542 585 L535 585 C535 585 531 565 530 557 C529 549 451 552 422 565 L422 563 L422 563 Z M366 585 L364 586 C365 586 366 586 367 586 L366 585 L366 585 Z M511 176 L512 55 C509 46 471 31 428 19 L486 30 C439 18 389 7 353 2 C340 0 328 -1 319 -1 L429 19 C404 12 377 6 354 2 C340 0 328 -1 320 -1 C256 -1 97 211 97 296 C97 382 257 596 322 597 L322 597 C252 597 74 382 74 296 C74 210 248 -6 318 -6 C350 -6 440 14 514 34 L515 34 L534 38 L534 39 C569 49 598 59 612 66 L611 66 C598 60 569 51 534 41 L534 176 C534 200 574 236 589 236 L619 236 L619 246 L619 256 L517 256 L414 256 L414 246 L414 236 L444 236 C464 236 514 200 514 176 L511 176 L511 176 Z M324 596 L324 596 C327 596 331 596 335 595 C331 596 327 596 323 596 L324 596 L324 596 Z M383 581 L372 585 C376 584 380 583 384 582 L383 581 L383 581 Z " />
<glyph glyph-name="I_sc" unicode="&#x26a;" horiz-adv-x="345" d="M200 80 L200 503 C200 527 254 563 275 563 L305 563 L305 573 L305 583 L190 583 L75 583 L75 573 L75 563 L105 563 C126 563 180 527 180 503 L180 80 C180 56 126 20 105 20 L75 20 L75 10 L75 0 L190 0 L305 0 L305 10 L305 20 L275 20 C254 20 200 56 200 80 L200 80 Z " />
<glyph glyph-name="N_sc" unicode="&#x274;" horiz-adv-x="674" d="M153 583 L149 583 L144 583 L129 583 L115 583 L77 583 L77 573 L77 563 L114 563 C119 563 132 556 144 547 L143 141 C135 89 73 19 47 19 L17 19 L17 9 L17 -1 L142 -1 L146 -1 L149 -1 L274 -1 L274 9 L274 19 L244 19 C218 19 157 82 149 129 L148 542 C155 537 161 531 164 526 L164 526 L506 20 L522 -2 L526 -2 L527 461 L527 461 C527 501 595 561 622 561 L652 561 L652 571 L652 581 L527 581 L524 581 L521 581 L396 581 L396 571 L396 561 L426 561 C453 561 521 501 521 461 L521 461 L522 26 L519 29 L153 583 L153 583 Z " />
<glyph glyph-name="R_sc" unicode="&#x280;" horiz-adv-x="663" d="M654 0 L654 4 C598 4 507 36 486 62 C438 123 326 266 305 293 C388 305 547 383 547 422 C547 468 364 584 292 584 L186 584 L124 584 L61 584 L61 574 L61 564 L91 564 C112 564 166 525 166 499 L166 86 C166 60 112 21 91 21 L61 21 L61 11 L61 1 L176 1 L291 1 L291 11 L291 21 L261 21 C240 21 186 60 186 86 L186 292 L285 292 C299 273 415 124 463 63 C485 35 590 1 655 1 L654 0 L654 0 Z M186 580 L286 580 C354 580 524 470 524 426 C524 384 354 297 286 297 L186 297 L186 499 L186 580 L186 580 Z " />
<glyph glyph-name="Y_sc" unicode="&#x28f;" horiz-adv-x="580" d="M197 443 L197 443 C168 491 173 563 193 563 L218 563 L218 573 L218 583 L127 583 L113 583 L89 583 L36 583 L36 573 L36 563 L73 563 C81 563 138 500 169 453 L285 262 L285 81 C285 57 231 21 210 21 L180 21 L180 11 L180 1 L295 1 L410 1 L410 11 L410 21 L380 21 C359 21 305 57 305 81 L305 265 L410 445 L410 444 C438 492 519 564 534 564 L565 564 L565 574 L565 584 L492 584 L490 584 L475 584 L385 584 L385 574 L385 564 L410 564 C429 564 439 504 418 460 L305 265 L197 443 L197 443 Z " />
<glyph glyph-name="B_sc" unicode="&#x299;" horiz-adv-x="497" d="M285 300 L185 300 L185 498 L185 583 L123 583 L60 583 L60 573 L60 563 L90 563 C111 563 165 524 165 498 L165 85 C165 59 111 20 90 20 L60 20 L60 10 L60 0 L123 0 L185 0 L305 0 C348 0 457 92 457 150 C457 193 366 300 330 300 L294 300 C346 311 452 404 452 443 C452 483 324 584 245 584 L243 584 C316 584 432 482 432 441 C432 401 327 301 285 301 L285 300 L285 300 Z M285 300 L328 300 C359 300 435 193 435 151 C435 94 342 2 304 2 L254 2 C235 2 185 58 185 81 L185 86 L185 300 L285 300 L285 300 Z " />
<glyph glyph-name="H_sc" unicode="&#x29c;" horiz-adv-x="745" d="M600 80 L600 503 C600 527 654 563 675 563 L705 563 L705 573 L705 583 L590 583 L475 583 L475 573 L475 563 L505 563 C527 563 580 527 580 503 L580 298 L165 298 L165 503 C165 527 219 563 240 563 L270 563 L270 573 L270 583 L155 583 L40 583 L40 573 L40 563 L70 563 C92 563 145 527 145 503 L145 80 C145 56 92 20 70 20 L40 20 L40 10 L40 0 L155 0 L270 0 L270 10 L270 20 L240 20 C219 20 165 56 165 80 L165 297 L580 297 L580 80 C580 56 527 20 505 20 L475 20 L475 10 L475 0 L590 0 L705 0 L705 10 L705 20 L675 20 C654 20 600 56 600 80 L600 80 Z " />
<glyph glyph-name="L_sc" unicode="&#x29f;" horiz-adv-x="629" d="M555 1 C558 12 574 70 577 81 C580 93 595 151 598 162 C598 162 591 163 589 164 C586 164 579 166 579 166 L571 136 C561 97 436 1 370 1 L280 1 C246 1 200 57 200 80 L200 85 L200 498 C200 524 254 563 275 563 L305 563 L305 573 L305 583 L200 583 L190 583 L180 583 L75 583 L75 573 L75 563 L105 563 C126 563 180 524 180 498 L180 85 C180 59 126 20 105 20 L75 20 L75 10 L75 0 L138 0 L180 0 L200 0 L555 0 L555 1 L555 1 Z " />
<glyph glyph-name="A_sc" unicode="&#x1d00;" horiz-adv-x="640" d="M502 140 L502 140 L363 578 L355 603 L353 603 C347 596 340 578 343 578 L452 232 L229 232 L346 568 L228 232 L228 232 L228 231 L207 170 L206 170 C185 110 79 20 49 20 L19 20 L19 10 L19 0 L147 0 L148 0 L166 0 L313 0 L313 10 L313 20 L289 20 C252 20 190 105 205 165 L228 232 L452 232 L482 138 C494 90 443 21 414 21 L390 21 L390 11 L390 1 L512 1 L525 1 L546 1 L635 1 L635 11 L635 21 L605 21 C586 21 516 93 502 141 L502 140 L502 140 Z " />
<glyph glyph-name="C_sc" unicode="&#x1d04;" horiz-adv-x="598" d="M422 563 L418 564 C386 578 355 589 332 592 C342 591 354 588 367 584 C408 567 524 446 530 421 C531 415 535 400 535 400 L542 400 L550 400 L550 489 L550 493 L550 585 L542 585 L535 585 C535 585 531 565 530 557 C529 549 451 552 422 565 L422 563 L422 563 Z M393 16 L393 16 C360 2 329 -7 311 -7 C249 -7 94 208 94 294 C94 380 254 594 319 595 L319 595 C249 595 71 380 71 294 C71 208 242 -8 310 -8 C335 -8 380 7 424 26 C453 35 527 21 530 9 C532 0 538 -21 538 -21 L544 -21 L550 -21 L550 83 L550 98 L550 187 L542 187 L535 187 C535 187 531 172 530 166 C524 144 425 29 393 16 L393 16 Z M366 585 L364 586 C365 586 366 586 367 586 L366 585 L366 585 Z M321 596 L321 596 C324 596 328 596 332 595 C328 596 324 596 320 596 L321 596 L321 596 Z M380 581 L369 585 C373 584 377 583 381 582 L380 581 L380 581 Z " />
<glyph glyph-name="D_sc" unicode="&#x1d05;" horiz-adv-x="675" d="M247 583 C357 583 599 375 599 292 C599 201 328 1 220 1 C197 1 165 57 165 80 L165 85 L165 498 L165 583 L145 583 L103 583 L40 583 L40 573 L40 563 L70 563 C92 563 145 524 145 498 L145 85 C145 59 92 20 70 20 L40 20 L40 10 L40 0 L103 0 L145 0 L165 0 L221 0 C335 0 621 200 621 292 C621 375 366 583 249 583 L247 583 L247 583 Z " />
<glyph glyph-name="E_sc" unicode="&#x1d07;" horiz-adv-x="612" d="M420 0 L540 0 C541 9 548 54 549 63 C550 72 556 117 558 126 L548 126 L538 126 L533 96 C530 69 460 1 420 1 L265 1 C231 1 185 57 185 80 L185 85 L185 299 L332 299 C372 299 432 221 432 189 L432 159 L442 159 L452 159 L452 299 L452 300 L452 440 L442 440 L432 440 L432 410 C432 379 372 300 332 300 L185 300 L185 498 L185 583 L165 583 L123 583 L60 583 L60 573 L60 563 L90 563 C111 563 165 524 165 498 L165 85 C165 59 111 20 90 20 L60 20 L60 10 L60 0 L123 0 L165 0 L185 0 L420 0 L420 0 Z M518 583 L398 583 C446 583 503 506 505 476 L507 458 L517 458 L527 458 C526 467 523 512 522 521 C522 529 519 574 518 583 L518 583 Z " />
<glyph glyph-name="J_sc" unicode="&#x1d0a;" horiz-adv-x="345" d="M180 503 L180 3 C180 -86 91 -219 69 -219 C64 -219 58 -202 53 -202 C51 -202 44 -209 44 -212 C44 -214 61 -220 68 -220 C95 -220 200 -63 200 41 L200 503 C200 527 254 563 275 563 L305 563 L305 573 L305 583 L190 583 L75 583 L75 573 L75 563 L105 563 C126 563 180 527 180 503 L180 503 Z " />
<glyph glyph-name="K_sc" unicode="&#x1d0b;" horiz-adv-x="587" d="M418 85 L418 85 L201 304 L352 479 C388 515 471 563 489 563 L519 563 L519 573 L519 583 L441 583 L433 583 L406 583 L293 583 L293 573 L293 563 L316 563 C342 563 353 499 321 451 L186 291 L186 522 C186 538 240 562 261 562 L291 562 L291 572 L291 582 L186 582 L176 582 L166 582 L61 582 L61 572 L61 562 L91 562 C112 562 166 538 166 522 L166 59 C166 43 112 19 91 19 L61 19 L61 9 L61 -1 L166 -1 L176 -1 L186 -1 L291 -1 L291 9 L291 19 L261 19 C240 19 186 43 186 59 L186 291 L479 -1 L503 -1 L524 -1 L568 -1 L568 9 L568 19 L530 19 C517 19 435 68 419 84 L418 85 L418 85 Z " />
<glyph glyph-name="M_sc" unicode="&#x1d0d;" horiz-adv-x="753" d="M651 85 L651 85 L639 418 C640 478 688 563 709 563 L738 563 L738 573 L738 583 L676 583 L633 583 L621 583 L614 583 L400 25 L400 27 L164 579 L164 583 L162 583 L159 583 L138 583 L102 583 L42 583 L42 573 L42 563 L72 563 C88 563 131 541 157 519 L143 141 C134 89 69 19 43 19 L13 19 L13 9 L13 -1 L137 -1 L141 -1 L144 -1 L269 -1 L269 9 L269 19 L240 19 C213 19 147 91 149 139 L149 140 L161 514 C166 509 170 504 173 500 L378 25 L390 -2 L395 -2 L615 564 L632 83 L632 83 C633 57 579 18 557 18 L527 18 L527 8 L527 -2 L635 -2 L642 -2 L655 -2 L757 -2 L757 8 L757 18 L727 18 C706 18 653 57 652 83 L651 85 L651 85 Z " />
<glyph glyph-name="O_sc" unicode="&#x1d0f;" horiz-adv-x="777" d="M373 -9 C289 -9 77 206 77 292 C77 378 296 593 383 593 C289 593 54 378 54 292 C54 206 282 -10 373 -10 C473 -10 723 206 723 292 C723 378 480 593 383 593 C473 593 700 378 700 292 C700 206 467 -9 373 -9 L373 -9 Z " />
<glyph glyph-name="P_sc" unicode="&#x1d18;" horiz-adv-x="569" d="M180 0 L190 0 L295 0 L295 10 L295 20 L265 20 C244 20 190 59 190 85 L190 280 L290 280 C364 280 550 375 550 422 C550 468 368 583 295 583 L190 583 L170 583 L128 583 L65 583 L65 573 L65 563 L95 563 C116 563 170 524 170 498 L170 85 C170 59 116 20 95 20 L65 20 L65 10 L65 0 L170 0 L180 0 L180 0 Z M190 284 L190 498 L190 580 L290 580 C358 580 531 469 531 425 C531 379 358 284 290 284 L190 284 L190 284 Z " />
<glyph glyph-name="T_sc" unicode="&#x1d1b;" horiz-adv-x="715" d="M660 579 L660 583 L659 583 C653 600 647 617 645 623 L635 623 L625 623 L629 610 C632 603 579 583 539 583 L369 583 L348 583 L178 583 C138 583 85 603 88 610 L92 623 L82 623 L72 623 C70 617 64 600 58 583 L57 583 L57 579 C52 566 48 554 46 549 C42 538 23 486 20 475 C20 475 26 475 29 474 C32 474 39 473 39 473 L50 503 C57 525 137 578 177 578 L349 578 L349 80 C349 56 296 20 274 20 L244 20 L244 10 L244 0 L360 0 L475 0 L475 10 L475 20 L445 20 C423 20 370 56 370 80 L370 578 L542 578 C582 578 662 525 669 503 L680 473 C680 473 687 474 690 474 C693 475 699 475 699 475 C696 486 677 538 673 549 C671 554 667 566 662 579 L660 579 L660 579 Z " />
<glyph glyph-name="U_sc" unicode="&#x1d1c;" horiz-adv-x="690" d="M575 498 L575 583 L513 583 L450 583 L450 573 L450 563 L480 563 C502 563 555 524 555 498 L555 145 C536 104 292 3 213 3 C189 3 130 145 130 202 L130 498 L130 583 L68 583 L5 583 L5 573 L5 563 L35 563 C57 563 110 524 110 498 L110 202 C110 141 178 -10 205 -10 C285 -10 536 94 555 136 L555 110 L555 0 L558 0 L679 55 L679 65 C638 63 575 89 575 110 L575 498 L575 498 Z " />
<glyph glyph-name="V_sc" unicode="&#x1d20;" horiz-adv-x="638" d="M113 527 L283 30 L297 -10 L301 -10 L478 443 L479 443 C497 491 572 563 591 563 L621 563 L621 573 L621 583 L533 583 L525 583 L490 583 L360 583 L360 573 L360 563 L384 563 C422 563 490 491 471 443 L471 443 L313 31 L166 444 L167 443 C151 491 221 563 259 563 L282 563 L282 573 L282 583 L159 583 L117 583 L94 583 L36 583 L36 573 L36 563 L73 563 C80 563 104 543 113 527 L113 527 Z " />
<glyph glyph-name="W_sc" unicode="&#x1d21;" horiz-adv-x="899" d="M439 526 L477 388 L291 25 L159 450 C152 498 207 563 237 563 L262 563 L262 573 L262 583 L149 583 L117 583 L94 583 L35 583 L35 573 L35 563 L73 563 C79 563 114 504 132 457 L263 25 L273 -10 L279 -10 L479 380 L576 29 L587 -10 L593 -10 L750 451 C770 499 835 564 853 564 L883 564 L883 574 L883 584 L795 584 L787 584 L752 584 L622 584 L622 574 L622 564 L645 564 C682 564 752 496 741 448 L600 29 L600 30 L476 478 C472 514 535 564 567 564 L592 564 L592 574 L592 584 L463 584 L447 584 L423 584 L334 584 L334 574 L334 564 L364 564 C381 564 430 543 439 527 L439 526 L439 526 Z " />
<glyph glyph-name="Z_sc" unicode="&#x1d22;" horiz-adv-x="592" d="M387 6 L387 5 L51 4 L550 579 L550 583 L530 583 L240 583 L70 583 C68 571 60 510 58 497 C56 485 48 424 46 411 C46 411 55 410 59 410 C62 409 71 408 71 408 L78 438 C86 477 180 572 234 578 L527 579 L26 4 L26 0 L48 0 L387 0 L547 0 C550 11 564 67 567 79 C569 90 583 146 586 158 C586 158 579 159 577 159 C574 160 567 161 567 161 L550 117 C538 85 436 6 388 6 L387 6 L387 6 Z " />
<glyph glyph-name="Wgrave" unicode="&#x1e80;" horiz-adv-x="1022" d="M382 949 C362 970 309 1022 308 1022 C305 1022 298 1015 298 1012 C298 1011 352 959 373 940 L510 814 L512 817 L382 949 L382 949 Z M499 689 L548 500 L548 500 L324 28 L324 28 L159 610 L159 610 C146 658 208 730 240 730 L264 730 L264 740 L264 750 L150 750 L119 750 L95 750 L35 750 L35 740 L35 730 L73 730 C80 730 117 665 133 617 L296 28 L307 -10 L313 -10 L552 490 L670 32 L681 -10 L687 -10 L876 610 L877 610 C891 658 960 730 978 730 L1008 730 L1008 740 L1008 750 L919 750 L910 750 L877 750 L745 750 L745 740 L745 730 L769 730 C807 730 878 661 868 613 L693 32 L537 641 L538 639 C528 675 597 729 630 729 L654 729 L654 739 L654 749 L524 749 L509 749 L484 749 L394 749 L394 739 L394 729 L424 729 C442 729 495 705 499 689 L499 689 Z " />
<glyph glyph-name="Wacute" unicode="&#x1e82;" horiz-adv-x="1022" d="M511 814 L648 940 C670 960 724 1012 724 1012 C724 1015 716 1022 714 1022 C713 1022 660 970 639 949 L509 817 L511 814 L511 814 Z M499 689 L548 500 L548 500 L324 28 L324 28 L159 610 L159 610 C146 658 208 730 240 730 L264 730 L264 740 L264 750 L150 750 L119 750 L95 750 L35 750 L35 740 L35 730 L73 730 C80 730 117 665 133 617 L296 28 L307 -10 L313 -10 L552 490 L670 32 L681 -10 L687 -10 L876 610 L877 610 C891 658 960 730 978 730 L1008 730 L1008 740 L1008 750 L919 750 L910 750 L877 750 L745 750 L745 740 L745 730 L769 730 C807 730 878 661 868 613 L693 32 L537 641 L538 639 C528 675 597 729 630 729 L654 729 L654 739 L654 749 L524 749 L509 749 L484 749 L394 749 L394 739 L394 729 L424 729 C442 729 495 705 499 689 L499 689 Z " />
<glyph glyph-name="Wdieresis" unicode="&#x1e84;" horiz-adv-x="1022" d="M569 865 C575 865 589 879 589 885 C589 891 575 905 569 905 C563 905 549 891 549 885 C549 879 563 865 569 865 L569 865 Z M442 865 C448 865 462 879 462 885 C462 891 448 905 442 905 C436 905 422 891 422 885 C422 879 436 865 442 865 L442 865 Z M499 689 L548 500 L548 500 L324 28 L324 28 L159 610 L159 610 C146 658 208 730 240 730 L264 730 L264 740 L264 750 L150 750 L119 750 L95 750 L35 750 L35 740 L35 730 L73 730 C80 730 117 665 133 617 L296 28 L307 -10 L313 -10 L552 490 L670 32 L681 -10 L687 -10 L876 610 L877 610 C891 658 960 730 978 730 L1008 730 L1008 740 L1008 750 L919 750 L910 750 L877 750 L745 750 L745 740 L745 730 L769 730 C807 730 878 661 868 613 L693 32 L537 641 L538 639 C528 675 597 729 630 729 L654 729 L654 739 L654 749 L524 749 L509 749 L484 749 L394 749 L394 739 L394 729 L424 729 C442 729 495 705 499 689 L499 689 Z " />
<glyph glyph-name="Etilde" unicode="&#x1ebc;" horiz-adv-x="671" d="M227 870 C227 890 262 941 276 941 C305 941 431 876 460 876 C476 876 515 929 515 951 C515 934 479 891 465 891 C435 891 310 956 280 956 C265 956 227 895 227 870 L227 870 Z M479 0 L599 0 C601 9 607 54 608 63 C609 72 616 117 617 126 L607 126 L597 126 L593 96 C589 69 519 1 480 1 L267 1 C233 1 187 57 187 80 L187 85 L187 385 L391 385 C431 385 491 306 491 275 L491 245 L501 245 L511 245 L511 385 L511 386 L511 526 L501 526 L491 526 L491 496 C491 465 431 386 391 386 L187 386 L187 665 L187 749 L457 749 C505 749 563 673 565 642 L566 624 L576 624 L586 624 C585 633 582 678 582 687 C581 696 578 741 577 750 L457 750 L187 750 L164 750 L123 750 L59 750 L59 740 L59 730 L89 730 C111 730 164 691 164 665 L164 85 C164 59 111 20 89 20 L59 20 L59 10 L59 0 L123 0 L164 0 L187 0 L479 0 L479 0 Z " />
<glyph glyph-name="Ygrave" unicode="&#x1ef2;" horiz-adv-x="658" d="M210 949 C189 970 136 1022 135 1022 C132 1022 125 1015 125 1012 C125 1011 179 959 200 940 L337 814 L340 817 L210 949 L210 949 Z M190 616 C167 664 176 731 195 731 L220 731 L220 741 L220 751 L127 751 L115 751 L88 751 L35 751 L35 741 L35 731 L72 731 C80 731 140 659 167 611 L167 611 L322 337 L322 81 C322 57 268 21 247 21 L217 21 L217 11 L217 1 L333 1 L449 1 L449 11 L449 21 L419 21 C398 21 344 57 344 81 L344 340 L493 613 L492 611 C518 659 596 731 611 731 L642 731 L642 741 L642 751 L568 751 L566 751 L552 751 L461 751 L461 741 L461 731 L486 731 C505 731 518 674 501 631 L344 342 L190 616 L190 616 Z " />
<glyph glyph-name="quoteleft" unicode="&#x2018;" horiz-adv-x="210" d="M85 740 C82 740 76 736 72 731 C78 754 98 794 107 797 L106 801 C93 797 61 739 61 720 C61 715 79 701 86 701 C92 701 106 715 106 721 C106 727 92 741 86 741 L85 740 L85 740 Z " />
<glyph glyph-name="quoteright" unicode="&#x2019;" horiz-adv-x="210" d="M125 720 C128 720 134 724 138 729 C132 706 112 666 103 663 L104 659 C117 663 149 721 149 740 C149 745 131 759 124 759 C118 759 104 745 104 739 C104 733 118 719 124 719 L125 720 L125 720 Z " />
<glyph glyph-name="quotedblleft" unicode="&#x201c;" horiz-adv-x="304" d="M85 740 C82 740 76 736 72 731 C78 754 98 794 107 797 L106 801 C93 797 61 739 61 720 C61 715 79 701 86 701 C92 701 106 715 106 721 C106 727 92 741 86 741 L85 740 L85 740 Z M180 741 C177 741 171 737 167 732 C173 755 193 795 202 798 L201 802 C188 798 156 740 156 721 C156 716 174 702 181 702 C187 702 201 716 201 722 C201 728 187 742 181 742 L180 741 L180 741 Z " />
<glyph glyph-name="quotedblright" unicode="&#x201d;" horiz-adv-x="304" d="M219 720 C222 720 228 724 232 729 C226 706 206 666 197 663 L198 659 C211 663 243 721 243 740 C243 745 225 759 218 759 C212 759 198 745 198 739 C198 733 212 719 218 719 L219 720 L219 720 Z M124 719 C127 719 133 723 137 728 C131 705 111 665 102 662 L103 658 C116 662 148 720 148 739 C148 744 130 758 123 758 C117 758 103 744 103 738 C103 732 117 718 123 718 L124 719 L124 719 Z " />
<glyph glyph-name="Euro" unicode="&#x20ac;" horiz-adv-x="725" d="M556 707 L552 709 C498 737 440 760 408 760 C335 760 162 539 127 414 L57 414 L55 400 L124 400 C122 391 121 383 121 375 C121 367 122 359 124 350 L55 350 L53 336 L127 336 C161 211 327 -10 398 -10 C430 -10 495 16 555 46 L555 46 C580 58 654 46 657 35 C659 26 665 5 665 5 L671 5 L677 5 L677 109 L677 124 L677 213 L669 213 L662 213 C662 213 658 198 657 192 C651 170 557 51 527 36 L527 36 C476 11 425 -9 399 -9 C335 -9 183 212 152 336 L461 336 L463 350 L149 350 C147 359 146 367 146 375 C146 383 147 391 149 400 L463 400 L465 414 L152 414 C184 538 343 759 410 759 C431 759 465 747 502 730 C544 704 652 580 658 557 C659 551 663 536 663 536 L670 536 L678 536 L678 625 L678 638 L678 740 L670 740 L663 740 C663 740 659 720 658 711 C656 700 583 692 557 706 L556 707 L556 707 Z " />
<glyph glyph-name="F_sc" unicode="&#xa730;" horiz-adv-x="590" d="M452 299 L452 444 L446 444 L440 444 L436 398 C433 370 370 299 332 299 C370 299 433 228 436 200 L440 154 L446 154 L452 154 L452 299 L452 299 Z M518 583 L398 583 L318 583 C390 583 504 515 506 488 L509 458 C509 458 516 459 519 459 C522 459 529 460 529 460 C528 469 524 513 523 522 C523 531 519 575 518 583 L518 583 Z M175 0 L185 0 L290 0 L290 10 L290 20 L260 20 C239 20 185 59 185 85 L185 299 L185 498 L185 583 L165 583 L123 583 L60 583 L60 573 L60 563 L90 563 C111 563 165 524 165 498 L165 85 C165 59 111 20 90 20 L60 20 L60 10 L60 0 L165 0 L175 0 L175 0 Z " />
<glyph glyph-name="S_sc" unicode="&#xa731;" horiz-adv-x="480" d="M307 560 L301 562 C268 578 235 591 217 593 L217 593 C232 591 257 581 284 568 L231 587 C277 562 369 461 376 432 C377 426 381 411 381 411 L389 411 L396 411 L396 498 L396 502 L396 593 L389 593 L381 593 C381 593 377 573 376 565 C375 557 325 551 308 560 L307 560 L307 560 Z M232 587 L217 593 C218 593 219 593 220 593 C224 592 229 590 234 587 L232 587 L232 587 Z M220 592 L220 592 L220 592 C221 592 222 592 223 592 L220 592 L220 592 Z M222 592 C221 592 220 592 219 592 C220 592 221 592 222 592 L222 592 Z M204 18 L214 14 C184 28 88 157 83 181 C81 188 78 203 78 203 L70 203 L63 203 L63 115 L63 86 L63 -30 L70 -30 L78 -30 C78 -30 81 -4 83 6 C85 21 147 43 173 33 C217 9 262 -10 283 -10 C331 -10 449 90 449 130 C449 158 339 279 289 302 C231 329 104 445 104 467 C104 503 188 593 221 593 C183 593 88 498 88 459 C88 434 218 309 277 281 C326 259 432 148 432 124 C432 86 326 -9 283 -9 C267 -9 237 3 205 20 L204 18 L204 18 Z " />
<glyph glyph-name="X_sc" unicode="&#xf078;" horiz-adv-x="634" d="M239 150 L239 150 L336 286 L431 140 L431 140 C462 92 446 20 421 20 L397 20 L397 10 L397 0 L508 0 L522 0 L546 0 L618 0 L618 10 L618 20 L587 20 C573 20 494 86 460 134 L349 305 L427 416 L426 413 C466 473 569 563 585 563 L616 563 L616 573 L616 583 L545 583 L536 583 L509 583 L401 583 L401 573 L401 563 L424 563 C452 563 469 492 440 440 L349 305 L260 443 L260 443 C229 491 245 563 270 563 L294 563 L294 573 L294 583 L188 583 L169 583 L145 583 L83 583 L83 573 L83 563 L116 563 C127 563 197 498 231 450 L336 289 L210 115 C177 75 87 20 66 20 L36 20 L36 10 L36 0 L127 0 L135 0 L178 0 L320 0 L320 10 L320 20 L298 20 C255 20 204 98 242 150 L239 150 L239 150 Z " />
</font>
</svg>
