<?xml version="1.0" encoding="UTF-8"?>
<svg xmlns="http://www.w3.org/2000/svg" xmlns:xlink="http://www.w3.org/1999/xlink" version="1.2" >
<font id="Jerin Black">
<font-face  font-family="Jerin" units-per-em="1024" ascent="975" descent="-300" font-style="normal" font-weight="900" font-stretch="normal" cap-height="1054" x-height="488" underline-position="-125" underline-thickness="50" />
<missing-glyph  horiz-adv-x="100" d="" />
<glyph glyph-name="NULL" d="" />
<glyph glyph-name="CR" unicode="&#xd;" horiz-adv-x="256" d="" />
<glyph glyph-name="space" unicode="&#x20;" horiz-adv-x="250" d="" />
<glyph glyph-name="exclam" unicode="&#x21;" horiz-adv-x="324" d="M162 -5 C210 -5 242 27 242 75 C242 123 210 155 162 155 C114 155 82 123 82 75 C82 27 114 -5 162 -5 L162 -5 Z M162 755 C90 755 53 698 70 612 L148 210 L176 210 L254 612 C271 698 234 755 162 755 L162 755 Z " />
<glyph glyph-name="quotedbl" unicode="&#x22;" horiz-adv-x="325" d="M204 750 C184 750 169 744 162 734 C155 744 140 750 120 750 L84 750 C50 750 30 732 40 705 L93 560 L111 560 L162 700 L213 560 L231 560 L284 705 C294 732 274 750 240 750 L204 750 L204 750 Z " />
<glyph glyph-name="numbersign" unicode="&#x23;" horiz-adv-x="560" d="M405 642 L385 518 L243 518 L263 642 L245 642 L225 518 L75 518 L59 402 L207 402 L184 258 L30 258 L14 142 L166 142 L143 0 L161 0 L184 142 L326 142 L303 0 L321 0 L344 142 L473 142 L489 258 L362 258 L385 402 L523 402 L540 518 L403 518 L423 642 L405 642 L405 642 Z M225 402 L367 402 L344 258 L202 258 L225 402 L225 402 Z " />
<glyph glyph-name="dollar" unicode="&#x24;" horiz-adv-x="560" d="M44 258 L44 -13 L58 -13 L62 14 C68 53 159 25 204 0 L205 1 C208 0 211 -1 214 -2 L214 -76 L257 -76 L257 -10 C269 -11 282 -11 294 -10 L294 -76 L337 -76 L337 -5 C450 17 522 101 522 219 C522 322 459 414 337 462 L337 727 C384 699 430 634 458 554 L467 530 L487 530 L487 765 L473 765 L469 745 C465 725 428 723 375 740 C361 745 349 754 336 760 L336 823 L293 823 L293 757 C281 758 268 758 256 757 L256 823 L213 823 L213 751 C114 728 51 647 51 535 C51 423 106 327 213 284 L213 24 C209 26 205 28 201 31 C153 66 103 143 72 232 L63 256 L44 258 L44 258 Z M460 632 L460 632 L460 632 L460 632 Z M254 267 C267 261 279 255 290 249 L290 6 C278 3 265 3 253 5 L254 267 L254 267 Z M333 223 C362 203 377 183 377 165 C377 105 361 57 333 30 L333 223 L333 223 Z M253 498 L253 740 C264 743 277 743 290 741 L290 477 C276 483 264 490 253 497 L253 498 L253 498 Z M210 535 C193 556 185 578 185 600 C185 643 194 679 210 704 L210 535 L210 535 Z " />
<glyph glyph-name="ampersand" unicode="&#x26;" horiz-adv-x="354" d="M366 471 C465 508 529 561 529 609 C529 700 443 760 315 760 C205 760 131 692 131 590 C131 532 159 485 204 428 C95 382 24 292 24 194 C24 72 113 -10 246 -10 C326 -10 409 28 486 96 C493 88 500 80 507 72 C548 23 626 -10 701 -10 C776 -10 834 51 845 143 L818 152 C815 129 793 113 763 113 C708 113 659 129 639 152 C622 172 606 191 590 209 C649 289 701 387 742 499 L707 499 C670 396 618 309 559 245 C428 399 386 444 366 468 L366 471 L366 471 Z M347 491 C296 555 263 605 263 667 C263 701 284 723 315 723 C370 723 406 680 406 615 C406 563 384 518 347 491 L347 491 Z M437 152 C402 135 367 126 332 126 C241 126 180 170 180 236 C180 305 197 363 225 398 C258 358 289 326 437 151 L437 152 L437 152 Z " />
<glyph glyph-name="quotesingle" unicode="&#x27;" horiz-adv-x="204" d="M84 750 C50 750 30 732 40 705 L93 560 L111 560 L164 705 C174 732 154 750 120 750 L84 750 L84 750 Z " />
<glyph glyph-name="parenleft" unicode="&#x28;" horiz-adv-x="535" d="M320 760 C188 671 100 476 100 273 C100 77 185 -118 313 -214 L322 -197 C252 -145 206 43 206 273 C206 505 255 693 329 743 L320 760 L320 760 Z " />
<glyph glyph-name="parenright" unicode="&#x29;" horiz-adv-x="535" d="M21 743 C158 654 250 466 250 273 C250 78 161 -110 28 -197 L37 -214 C228 -90 356 105 356 273 C356 438 226 633 30 760 L21 743 L21 743 Z " />
<glyph glyph-name="asterisk" unicode="&#x2a;" horiz-adv-x="300" d="M279 648 L279 648 L279 648 Z M231 529 C245 512 267 521 285 551 C303 581 300 604 278 608 C278 608 246 553 232 529 L231 529 L231 529 Z M279 648 C300 652 303 675 286 705 C269 735 247 744 233 727 C233 727 265 672 279 648 L279 648 Z M70 529 C56 553 24 608 24 608 C2 604 -1 581 17 551 C34 520 56 511 70 528 L70 529 L70 529 Z M70 529 L146 622 L104 510 C96 489 115 475 150 475 C185 475 204 489 196 510 L153 624 L230 530 L276 610 L160 629 L278 649 L232 729 L153 632 L197 750 C205 771 186 785 151 785 C116 785 97 771 105 750 L148 634 L70 730 L70 729 C56 745 34 736 17 706 C-1 675 2 652 24 648 L24 649 L148 628 L26 608 L70 529 L70 529 Z " />
<glyph glyph-name="plus" unicode="&#x2b;" horiz-adv-x="620" d="M252 460 L252 303 L100 303 L100 197 L252 197 L252 40 L368 40 L368 197 L520 197 L520 303 L368 303 L368 460 L252 460 L252 460 Z " />
<glyph glyph-name="comma" unicode="&#x2c;" horiz-adv-x="263" d="M163 13 C177 -55 133 -102 66 -102 L66 -113 C143 -113 194 -62 194 14 C194 75 167 115 126 115 C90 115 66 91 66 55 C66 19 90 -5 126 -5 C142 -5 155 2 164 14 L163 13 L163 13 Z " />
<glyph glyph-name="hyphen" unicode="&#x2d;" horiz-adv-x="430" d="M80 223 L350 223 L350 347 L80 347 L80 223 L80 223 Z " />
<glyph glyph-name="period" unicode="&#x2e;" horiz-adv-x="195" d="M125 -5 C173 -5 205 27 205 75 C205 123 173 155 125 155 C77 155 45 123 45 75 C45 27 77 -5 125 -5 L125 -5 Z " />
<glyph glyph-name="slash" unicode="&#x2f;" horiz-adv-x="408" d="M290 770 L8 -80 L96 -80 L378 770 L290 770 L290 770 Z " />
<glyph glyph-name="zero" unicode="0" horiz-adv-x="618" d="M108 250 C108 357 187 448 305 448 C411 448 502 369 502 250 C502 143 423 52 305 52 C199 52 108 131 108 250 L108 250 Z M37 250 C37 94 160 -10 305 -10 C466 -10 573 110 573 250 C573 406 450 510 305 510 C144 510 37 390 37 250 L37 250 Z " />
<glyph glyph-name="one" unicode="1" horiz-adv-x="460" d="M400 15 L386 15 C337 15 305 55 305 115 L305 385 C305 445 337 485 386 485 L400 485 L400 500 L60 500 L60 485 L74 485 C123 485 155 445 155 385 L155 115 C155 55 123 15 74 15 L60 15 L60 0 L400 0 L400 15 L400 15 Z " />
<glyph glyph-name="two" unicode="2" horiz-adv-x="567" d="M71 288 C85 362 146 411 222 411 C280 411 318 372 318 314 C318 204 176 101 9 16 L27 3 C21 1 15 0 9 0 L440 0 L521 129 C539 154 557 180 572 202 C572 204 565 208 566 208 L557 197 C527 159 462 133 393 133 L266 133 C386 211 467 287 467 350 C467 447 396 511 289 511 C165 511 65 425 40 296 L71 288 L71 288 Z " />
<glyph glyph-name="three" unicode="3" horiz-adv-x="483" d="M15 -202 L20 -232 C274 -205 443 -103 443 24 C443 131 381 210 281 236 C352 284 394 335 394 388 C394 461 326 509 224 509 C122 509 39 446 17 351 L49 342 C58 379 103 404 163 404 C206 404 234 377 234 336 C234 300 223 270 204 245 C190 245 178 229 162 205 C146 194 128 184 108 175 L108 145 C112 147 116 149 120 151 C116 148 112 146 108 146 C213 131 283 66 283 -18 C283 -111 175 -185 14 -202 L15 -202 L15 -202 Z " />
<glyph glyph-name="four" unicode="4" horiz-adv-x="620" d="M607 195 L603 183 C593 142 548 115 491 115 L415 115 L415 530 L396 530 L15 26 L15 0 L265 0 L265 -220 L415 -220 L415 0 L475 0 C532 0 570 -22 569 -55 L570 -65 C570 -65 582 -69 586 -69 C587 -60 602 57 604 57 C609 97 617 151 623 191 C619 192 607 195 607 195 L607 195 Z M152 115 L265 266 L265 115 L152 115 L152 115 Z " />
<glyph glyph-name="five" unicode="5" horiz-adv-x="450" d="M61 -237 C276 -211 420 -93 420 56 C420 199 290 294 96 294 L83 294 L94 365 L347 370 L370 500 C375 523 380 546 384 566 L368 566 L364 556 C353 523 308 501 251 501 L66 501 L11 161 L39 137 L81 137 C206 137 289 85 289 6 C289 -105 197 -191 58 -208 L61 -237 L61 -237 Z " />
<glyph glyph-name="six" unicode="6" horiz-adv-x="571" d="M550 750 C240 684 34 504 34 300 C34 114 133 -10 282 -10 C422 -10 515 89 515 238 C515 373 435 463 315 463 C277 463 244 450 218 427 C275 581 396 693 555 727 L550 750 L550 750 Z M182 219 C182 357 233 449 309 449 C343 449 365 367 365 245 C365 100 331 3 279 3 C221 3 182 89 182 219 L182 219 Z " />
<glyph glyph-name="seven" unicode="7" horiz-adv-x="446" d="M111 566 C93 528 69 477 51 439 L53 439 L31 389 C19 364 7 338 -3 317 C0 315 9 309 9 309 L16 320 C37 355 89 379 146 379 L377 379 L96 -220 L210 -220 L440 485 L440 500 L199 500 C142 500 110 519 120 548 L122 557 C122 557 113 565 110 566 L111 566 L111 566 Z " />
<glyph glyph-name="eight" unicode="8" horiz-adv-x="540" d="M193 344 C204 338 215 333 227 328 C321 290 383 259 383 228 C383 92 335 1 263 1 C199 1 156 70 156 174 C156 244 170 304 193 344 L193 344 Z M161 364 C77 314 25 244 25 174 C25 64 120 -10 263 -10 C405 -10 500 61 500 167 C500 312 443 385 353 436 C430 482 477 543 477 600 C477 697 391 761 261 761 C136 761 52 687 52 575 C52 486 93 413 160 365 L161 364 L161 364 Z M319 453 C307 458 295 463 283 468 C216 495 172 553 172 630 C172 704 211 753 269 753 C317 753 349 686 349 586 C349 532 338 485 319 452 L319 453 L319 453 Z " />
<glyph glyph-name="nine" unicode="9" horiz-adv-x="571" d="M21 -250 C331 -184 537 -4 537 200 C537 386 438 510 289 510 C149 510 56 411 56 262 C56 127 136 37 256 37 C294 37 327 50 353 73 C296 -81 175 -193 16 -227 L21 -250 L21 -250 Z M389 281 C389 143 338 51 262 51 C228 51 206 133 206 255 C206 400 240 497 292 497 C350 497 389 411 389 281 L389 281 Z " />
<glyph glyph-name="colon" unicode="&#x3a;" horiz-adv-x="135" d="M125 385 C173 385 205 417 205 465 C205 513 173 545 125 545 C77 545 45 513 45 465 C45 417 77 385 125 385 L125 385 Z M125 -5 C173 -5 205 27 205 75 C205 123 173 155 125 155 C77 155 45 123 45 75 C45 27 77 -5 125 -5 L125 -5 Z " />
<glyph glyph-name="semicolon" unicode="&#x3b;" horiz-adv-x="263" d="M125 385 C173 385 205 417 205 465 C205 513 173 545 125 545 C77 545 45 513 45 465 C45 417 77 385 125 385 L125 385 Z M163 13 C177 -55 133 -102 66 -102 L66 -113 C143 -113 194 -62 194 14 C194 75 167 115 126 115 C90 115 66 91 66 55 C66 19 90 -5 126 -5 C142 -5 155 2 164 14 L163 13 L163 13 Z " />
<glyph glyph-name="equal" unicode="&#x3d;" horiz-adv-x="543" d="M93 233 L93 167 L473 167 L473 233 L93 233 L93 233 Z M93 333 L93 267 L473 267 L473 333 L93 333 L93 333 Z " />
<glyph glyph-name="question" unicode="&#x3f;" horiz-adv-x="290" d="M125 -5 C173 -5 205 27 205 75 C205 123 173 155 125 155 C77 155 45 123 45 75 C45 27 77 -5 125 -5 L125 -5 Z M130 275 C130 275 128 359 125 360 C233 360 264 388 292 429 C311 457 324 509 324 559 C324 680 252 760 145 760 C60 760 4 716 4 649 C4 605 36 575 85 575 C120 575 166 601 200 601 C248 601 280 577 280 541 C280 535 272 518 259 500 C234 464 206 440 97 440 C101 441 104 275 104 275 L130 275 L130 275 Z " />
<glyph glyph-name="at" unicode="&#x40;" horiz-adv-x="1199" d="M1037 0 C971 -142 805 -236 622 -236 C353 -236 173 -38 173 259 C173 554 344 750 600 750 C856 750 1027 587 1027 343 C1027 145 961 13 862 13 C812 13 798 88 826 200 L896 480 L754 480 L740 424 C717 465 669 490 606 490 C407 490 274 367 274 183 C274 73 348 -1 460 -1 C553 -1 632 32 678 87 C691 9 748 -39 837 -39 C1022 -39 1146 114 1146 343 C1146 612 928 791 602 791 C276 791 58 578 58 259 C58 -53 298 -261 657 -261 C843 -261 1016 -157 1089 0 L1037 0 L1037 0 Z M725 356 L686 200 C668 129 609 82 538 82 C479 82 439 134 439 211 C439 353 505 448 603 448 C676 448 725 411 726 356 L725 356 L725 356 Z " />
<glyph glyph-name="A" unicode="A" horiz-adv-x="873" d="M322 19 L301 19 C233 19 202 72 219 153 L255 286 L487 286 L527 168 C557 78 531 18 460 18 L439 18 L439 -1 L867 -1 L867 18 L852 18 C800 18 745 74 713 159 L526 696 C526 696 509 769 501 769 L486 769 C492 738 437 708 349 696 L352 686 L352 686 L206 157 C179 73 115 18 44 18 L22 18 L22 -1 L323 -1 L322 19 L322 19 Z M259 301 L358 668 L482 301 L259 301 L259 301 Z " />
<glyph glyph-name="B" unicode="B" horiz-adv-x="792" d="M415 5 L365 5 C333 5 312 79 312 191 L312 385 L421 385 C503 385 557 310 557 198 C557 42 500 5 415 5 L415 5 Z M41 731 L55 731 C104 731 136 691 136 631 L136 119 C136 59 104 19 55 19 L41 19 L41 0 L432 0 C624 0 752 38 752 198 C752 305 655 380 505 393 C627 415 703 481 703 572 C703 679 645 750 397 750 L41 750 L41 731 L41 731 Z M407 395 L312 395 L312 739 L375 739 C498 739 527 665 527 554 C527 459 479 395 407 395 L407 395 Z " />
<glyph glyph-name="C" unicode="C" horiz-adv-x="803" d="M764 507 L764 760 L750 760 L746 737 C742 711 705 707 652 727 C635 735 616 742 595 747 C594 747 593 747 592 747 L592 747 C558 755 518 759 470 759 C204 759 27 605 27 374 C27 143 200 -11 460 -11 C509 -11 551 -6 588 3 C588 2 589 3 590 3 C606 7 621 12 635 18 C695 42 739 40 744 9 L748 -15 L762 -15 L762 241 L742 241 L733 216 C707 138 643 63 574 28 C540 11 504 1 464 1 C318 1 221 150 221 373 C221 596 323 744 475 744 C525 744 566 729 604 703 C659 664 708 598 731 529 L740 504 L764 507 L764 507 Z M738 132 L738 132 L738 132 L738 132 Z " />
<glyph glyph-name="D" unicode="D" horiz-adv-x="941" d="M376 11 C318 11 312 80 312 183 L312 739 L388 739 C588 739 691 593 691 375 C691 135 565 11 376 11 L376 11 Z M41 735 L55 735 C104 735 136 695 136 635 L136 115 C136 55 104 15 55 15 L41 15 L41 0 L392 0 C688 0 886 128 886 375 C886 600 732 750 432 750 L41 750 L41 735 L41 735 Z " />
<glyph glyph-name="E" unicode="E" horiz-adv-x="724" d="M21 735 L38 735 C97 735 136 687 136 615 L136 135 C136 63 97 15 38 15 L21 15 L21 0 L647 0 L648 6 L649 6 C656 48 666 105 673 147 L658 147 L650 127 C627 62 557 18 472 13 C329 19 313 85 313 183 L313 385 L394 385 C472 385 532 336 545 262 L549 240 L564 240 L564 543 L549 543 L545 521 C532 447 472 398 394 398 L313 398 L313 738 L454 738 C532 738 598 689 620 615 L627 593 L642 593 C637 640 631 704 623 750 L22 750 L21 735 L21 735 Z " />
<glyph glyph-name="F" unicode="F" horiz-adv-x="699" d="M21 735 L38 735 C97 735 136 687 136 615 L136 135 C136 63 97 15 38 15 L21 15 L21 0 L427 0 L427 15 L410 15 C351 15 312 63 312 135 L312 385 L382 385 C460 385 520 336 533 262 L537 240 L552 240 L552 543 L537 543 L533 521 C520 447 460 398 382 398 L312 398 L312 741 L453 741 C531 741 597 692 619 618 L626 596 L641 596 C635 641 628 701 622 746 L623 746 L622 750 L21 750 L21 735 L21 735 Z " />
<glyph glyph-name="G" unicode="G" horiz-adv-x="900" d="M764 507 L764 760 L750 760 L746 737 C742 711 705 707 652 727 C635 735 616 742 595 747 C594 747 593 747 592 747 L592 747 C558 755 518 759 470 759 C204 759 27 605 27 374 C27 143 206 -11 474 -11 C488 -11 574 -8 574 -6 L574 -6 L582 -4 C641 3 692 15 738 31 L747 33 C747 33 747 33 747 34 C770 42 792 51 814 61 L810 69 C793 61 773 54 748 48 L748 172 C748 253 784 307 837 307 L853 307 L853 326 L466 326 L466 307 L482 307 C535 307 571 253 571 172 L572 172 C573 89 544 27 504 27 C335 27 223 167 223 376 C223 599 325 747 477 747 C527 747 568 732 606 706 C661 667 710 601 733 532 L742 507 L764 507 L764 507 Z " />
<glyph glyph-name="H" unicode="H" horiz-adv-x="957" d="M897 15 L883 15 C834 15 802 55 802 115 L802 635 C802 695 834 735 883 735 L897 735 L897 750 L531 750 L531 735 L545 735 C594 735 626 695 626 635 L626 397 L348 397 L348 635 C348 695 380 735 429 735 L443 735 L443 750 L77 750 L77 735 L91 735 C140 735 172 695 172 635 L172 115 C172 55 140 15 91 15 L77 15 L77 0 L443 0 L443 15 L429 15 C380 15 348 55 348 115 L348 383 L626 383 L626 115 C626 55 594 15 545 15 L531 15 L531 0 L897 0 L897 15 L897 15 Z " />
<glyph glyph-name="I" unicode="I" horiz-adv-x="443" d="M383 15 L369 15 C320 15 288 55 288 115 L288 635 C288 695 320 735 369 735 L383 735 L383 750 L17 750 L17 735 L31 735 C80 735 112 695 112 635 L112 115 C112 55 80 15 31 15 L17 15 L17 0 L383 0 L383 15 L383 15 Z " />
<glyph glyph-name="J" unicode="J" horiz-adv-x="443" d="M383 750 L17 750 L17 735 L31 735 C78 735 109 698 112 642 C112 451 111 54 111 -146 C111 -193 47 -202 1 -202 C-86 -202 -44 -61 -131 -61 C-179 -61 -211 -93 -211 -140 C-211 -189 -132 -221 -13 -221 C114 -221 289 -156 289 188 C289 301 289 515 289 644 C292 699 323 735 369 735 L383 735 L383 750 L383 750 Z " />
<glyph glyph-name="K" unicode="K" horiz-adv-x="902" d="M775 750 L438 750 L438 735 L461 735 C538 735 545 677 479 590 L312 375 L312 635 C312 695 344 735 393 735 L407 735 L407 750 L41 750 L41 735 L55 735 C104 735 136 695 136 635 L136 115 C136 55 104 15 55 15 L41 15 L41 0 L407 0 L407 15 L393 15 C344 15 312 55 312 115 L312 375 L577 0 L891 0 L891 15 L877 15 C828 15 766 55 722 115 L722 115 L448 484 L569 627 C626 692 701 735 758 735 L775 735 L775 750 L775 750 Z " />
<glyph glyph-name="L" unicode="L" horiz-adv-x="708" d="M383 750 L17 750 L17 735 L31 735 C80 735 112 695 112 635 L112 115 C112 55 80 15 31 15 L17 15 L17 0 L623 0 L624 15 L623 15 L623 21 C631 65 641 122 649 165 L634 165 L626 145 C602 80 532 35 446 30 C304 36 288 95 288 182 L288 634 C288 694 320 734 369 734 L383 734 L383 750 L383 750 Z " />
<glyph glyph-name="M" unicode="M" horiz-adv-x="989" d="M46 735 L61 735 C95 735 130 715 156 682 L138 106 C133 52 100 16 55 16 L40 16 L40 1 L291 1 L291 16 L277 16 C230 16 199 53 198 110 L203 594 C287 396 371 198 455 0 L499 0 L697 580 C701 425 705 269 708 114 C709 54 678 14 630 14 L616 14 L616 -1 L981 -1 L981 14 L967 14 C920 14 886 53 883 112 L865 634 C863 694 894 734 942 734 L956 734 L956 749 L693 749 L528 229 L349 749 L48 749 L46 735 L46 735 Z " />
<glyph glyph-name="N" unicode="N" horiz-adv-x="840" d="M-72 735 L-57 735 C-12 735 49 699 98 645 L143 591 L142 115 L142 115 C142 55 109 15 61 15 L47 15 L47 0 L290 0 L290 15 L276 15 C227 15 195 55 194 115 L190 535 C338 357 487 179 636 1 L671 1 C675 213 679 425 683 636 C684 696 717 736 765 736 L780 736 L780 751 L537 751 L537 736 L551 736 C600 736 632 696 632 636 L633 636 L635 281 C500 438 365 595 230 752 L-72 752 L-72 735 L-72 735 Z " />
<glyph glyph-name="O" unicode="O" horiz-adv-x="934" d="M221 375 C221 598 311 746 447 746 C591 746 687 598 687 375 C687 152 589 4 442 4 C309 4 221 152 221 375 L221 375 Z M29 375 C29 144 193 -10 439 -10 C703 -10 879 144 879 375 C879 606 707 760 449 760 C197 760 29 606 29 375 L29 375 Z " />
<glyph glyph-name="P" unicode="P" horiz-adv-x="732" d="M451 15 L437 15 C388 15 356 55 356 115 L356 328 L406 328 C590 328 712 392 712 536 C712 664 610 750 456 750 L85 750 L85 735 L99 735 C148 735 180 695 180 635 L180 115 C180 55 148 15 99 15 L85 15 L85 0 L451 0 L451 15 L451 15 Z M356 365 L356 720 L411 720 C493 720 547 658 547 565 C547 427 491 365 406 365 L356 365 L356 365 Z " />
<glyph glyph-name="Q" unicode="Q" horiz-adv-x="929" d="M1229 -61 L1225 -56 C1193 -83 1053 -101 875 -101 C689 -101 511 -65 397 -8 C411 -9 425 -10 439 -10 C703 -10 879 144 879 375 C879 606 707 760 449 760 C197 760 29 606 29 375 C29 248 78 144 163 76 C374 -101 648 -219 854 -219 C967 -219 1117 -156 1229 -62 L1229 -61 L1229 -61 Z M359 12 C346 20 334 28 324 37 C260 97 221 218 221 374 C221 597 311 745 447 745 C591 745 687 597 687 374 C687 147 583 -5 426 -5 C402 -5 379 1 358 12 L359 12 L359 12 Z " />
<glyph glyph-name="R" unicode="R" horiz-adv-x="894" d="M41 735 L55 735 C104 735 136 695 136 635 L136 115 C136 55 104 15 55 15 L41 15 L41 0 L407 0 L407 15 L393 15 C344 15 312 55 312 115 L312 336 L349 336 C379 294 456 198 558 75 C618 3 631 0 884 0 L884 26 C809 26 804 28 765 75 C656 205 572 305 530 355 C635 383 698 441 698 534 C698 664 560 750 353 750 L40 750 L41 735 L41 735 Z M311 380 L311 714 C427 711 503 654 503 570 C503 440 443 381 353 381 L311 380 L311 380 Z " />
<glyph glyph-name="S" unicode="S" horiz-adv-x="560" d="M461 634 L461 634 L461 634 L461 634 Z M44 258 L44 -13 L58 -13 L62 14 C68 53 159 25 204 0 L205 1 C228 -6 251 -10 275 -10 C423 -10 522 82 522 220 C522 326 456 420 328 467 C236 500 189 553 189 605 C189 690 224 746 276 746 C279 746 310 743 309 741 C365 726 425 652 459 556 L468 532 L488 532 L488 767 L474 767 L470 747 C466 724 417 729 369 746 C352 757 334 765 317 770 L314 759 C159 779 53 683 53 539 C53 424 111 326 223 285 C328 247 382 205 382 171 C382 37 300 -30 204 36 C156 71 106 148 75 237 L66 261 L44 258 L44 258 Z " />
<glyph glyph-name="T" unicode="T" horiz-adv-x="775" d="M688 805 L684 797 C672 769 613 750 535 750 L241 750 C163 750 104 769 92 797 L88 805 L77 805 C68 782 55 751 46 728 L55 728 L55 718 C37 672 14 614 -4 570 L11 570 L23 590 C64 659 145 705 226 705 L299 705 L299 114 C299 54 267 14 218 14 L204 14 L204 -1 L571 -1 L571 14 L557 14 C508 14 476 54 476 114 L476 705 L551 705 C632 705 713 659 754 590 L766 570 L781 570 C763 615 739 675 720 721 L720 726 L730 726 C721 749 708 780 699 803 L688 805 L688 805 Z " />
<glyph glyph-name="U" unicode="U" horiz-adv-x="894" d="M864 65 L850 61 C801 48 769 79 769 139 L769 750 L498 750 L498 735 L512 735 C561 735 593 695 593 635 L593 216 C562 149 495 104 427 104 C337 104 277 150 277 220 L277 750 L6 750 L6 735 L20 735 C69 735 101 695 101 635 L101 220 C101 82 203 -10 356 -10 C457 -10 552 48 593 136 L593 0 L681 0 L769 24 C802 33 835 42 864 50 L864 65 L864 65 Z " />
<glyph glyph-name="V" unicode="V" horiz-adv-x="928" d="M892 750 L569 750 L569 731 L592 731 C670 731 699 671 664 581 L532 238 L346 591 C304 676 320 732 387 732 L407 732 L407 751 L-17 751 L-17 732 L-4 732 C39 732 98 672 143 582 L143 582 C241 385 339 188 437 -9 L472 -9 L730 588 C769 675 827 732 877 732 L892 732 L892 750 L892 750 Z " />
<glyph glyph-name="W" unicode="W" horiz-adv-x="1267" d="M553 601 L553 601 C570 567 588 533 604 500 L522 212 L342 616 C316 685 333 730 386 730 L412 730 C458 730 515 678 554 600 L553 601 L553 601 Z M12 730 L25 730 C66 730 118 683 156 611 C257 404 358 197 460 -10 L504 -10 L642 429 C716 283 790 137 864 -9 L908 -9 C967 195 1026 399 1085 602 C1108 680 1158 732 1212 732 L1228 732 L1228 751 L904 751 L904 732 L927 732 C1000 732 1038 684 1023 611 L929 245 L746 607 C710 682 729 732 793 732 L813 732 L813 751 L12 751 L12 730 L12 730 Z " />
<glyph glyph-name="X" unicode="X" horiz-adv-x="925" d="M461 0 L856 0 L856 15 L844 15 C804 15 750 54 707 114 L485 436 C547 501 608 566 670 631 C730 694 806 736 859 736 L875 736 L875 751 L569 751 L569 736 L588 736 C650 736 660 694 611 631 L611 631 L473 453 C432 512 391 571 350 630 C306 693 313 735 366 735 L382 735 L382 750 L-11 750 L-11 735 L1 735 C39 735 90 699 131 644 L346 332 C290 261 235 190 179 119 C130 56 61 14 8 14 L-8 14 L-8 -1 L291 -1 L291 14 L272 14 C209 14 197 56 242 119 L242 119 L369 297 C410 238 452 178 492 119 C535 56 529 14 476 14 L460 14 L461 0 L461 0 Z " />
<glyph glyph-name="Y" unicode="Y" horiz-adv-x="847" d="M239 0 L645 0 L645 15 L628 15 C569 15 530 63 530 135 L530 332 C582 431 633 531 685 630 C718 693 775 735 828 735 L844 735 L844 750 L584 750 L584 735 L607 735 C667 735 690 697 665 639 L524 349 L349 630 C310 693 319 735 373 735 L389 735 L389 750 L-4 750 L-4 735 L8 735 C49 735 103 693 144 630 L144 630 L354 308 L354 135 C354 63 315 15 256 15 L239 15 L239 0 L239 0 Z " />
<glyph glyph-name="Z" unicode="Z" horiz-adv-x="657" d="M69 566 L75 587 C94 654 165 701 255 705 L423 709 L25 34 L25 -1 L606 -1 L612 25 C612 25 627 90 649 187 L634 187 L625 166 C597 100 522 53 433 46 L230 40 L610 714 L610 749 L70 749 L68 725 C68 725 62 661 54 565 L69 566 L69 566 Z " />
<glyph glyph-name="bracketleft" unicode="&#x5b;" horiz-adv-x="312" d="M152 706 L362 706 L362 750 L99 750 L99 -195 L362 -195 L362 -151 L152 -151 L152 706 L152 706 Z " />
<glyph glyph-name="backslash" unicode="&#x5c;" horiz-adv-x="366" d="M8 770 L268 -80 L356 -80 L96 770 L8 770 L8 770 Z " />
<glyph glyph-name="bracketright" unicode="&#x5d;" horiz-adv-x="315" d="M152 706 L152 -151 L-58 -151 L-58 -195 L205 -195 L205 750 L-58 750 L-58 706 L152 706 L152 706 Z " />
<glyph glyph-name="asciicircum" unicode="&#x5e;" horiz-adv-x="340" d="M223 735 C213 751 187 789 170 789 C152 789 127 752 117 736 L13 570 L33 553 L170 647 L307 553 L327 570 L223 735 L223 735 Z " />
<glyph glyph-name="underscore" unicode="&#x5f;" horiz-adv-x="455" d="M5 -50 L5 -133 L450 -133 L450 -50 L5 -50 L5 -50 Z " />
<glyph glyph-name="grave" unicode="&#x60;" horiz-adv-x="340" d="M-31 730 C-31 720 -9 700 23 675 L170 560 L189 579 L91 743 C70 780 52 804 44 804 C4 804 -31 770 -31 730 L-31 730 Z " />
<glyph glyph-name="a" unicode="a" horiz-adv-x="535" d="M545 125 L532 130 C526 99 506 78 482 78 C458 78 442 96 442 122 C442 122 442 351 441 349 C441 460 377 510 281 510 C147 510 58 414 58 360 C58 312 92 280 142 280 C179 280 204 313 204 337 C204 358 184 377 184 406 C184 434 212 485 255 485 C277 485 292 460 292 404 L292 276 C79 210 28 184 28 101 C28 34 78 -10 153 -10 C190 -10 239 14 299 77 C315 26 359 -6 419 -6 C481 -6 531 46 545 124 L545 125 L545 125 Z M292 261 L292 121 C292 109 293 98 295 88 C271 66 249 57 230 57 C199 57 178 81 178 116 C178 210 200 232 291 261 L292 261 L292 261 Z " />
<glyph glyph-name="b" unicode="b" horiz-adv-x="666" d="M10 700 L21 700 C59 701 85 665 85 608 L85 0 L94 0 L138 53 C184 14 254 -10 335 -10 C507 -10 621 96 621 254 C621 405 524 505 379 505 C325 505 270 482 234 447 L234 750 L159 750 L9 710 L10 700 L10 700 Z M234 110 L234 420 C259 442 294 456 329 456 C403 456 452 368 452 237 C452 102 407 12 340 12 C297 12 256 51 234 111 L234 110 L234 110 Z " />
<glyph glyph-name="c" unicode="c" horiz-adv-x="578" d="M548 128 L541 131 C516 75 451 38 377 38 C276 38 208 134 208 279 C208 400 263 481 345 481 C360 481 381 451 398 405 C414 360 444 330 473 330 C534 330 564 360 548 405 C525 468 453 510 367 510 C174 510 45 400 45 234 C45 88 159 -10 331 -10 C424 -10 511 45 548 128 L548 128 Z " />
<glyph glyph-name="d" unicode="d" horiz-adv-x="653" d="M638 60 L624 56 C575 43 543 74 543 134 L543 750 L468 750 L393 730 L393 729 L318 709 L318 699 L329 699 C367 700 393 664 393 607 L393 455 C360 488 314 510 264 510 C119 510 44 405 44 247 C44 96 124 -5 243 -5 C299 -5 357 22 392 64 L392 0 L467 0 C518 13 586 31 637 45 L638 60 L638 60 Z M392 375 L392 82 C374 66 341 56 305 56 C240 56 197 148 197 287 C197 393 230 463 295 463 C337 463 377 422 392 374 L392 375 L392 375 Z " />
<glyph glyph-name="e" unicode="e" horiz-adv-x="574" d="M204 324 L544 324 C520 458 435 510 320 510 C155 510 45 430 45 225 C45 84 145 -10 295 -10 C399 -10 490 48 521 134 L515 135 C494 79 422 41 334 41 C245 41 195 168 204 324 L204 324 Z M376 336 L205 335 C213 446 251 490 306 490 C331 490 355 447 376 336 L376 336 Z " />
<glyph glyph-name="f" unicode="f" horiz-adv-x="427" d="M339 15 L328 15 C290 15 264 41 264 80 L264 421 L417 421 L417 500 L264 500 C264 625 292 709 346 709 C397 709 446 635 489 635 C516 635 534 653 534 680 C534 725 480 755 399 755 C211 755 114 653 114 500 L36 439 L36 421 L114 421 L114 80 C114 41 88 15 50 15 L39 15 L39 0 L339 0 L339 15 L339 15 Z " />
<glyph glyph-name="g" unicode="g" horiz-adv-x="550" d="M578 440 C578 494 539 530 481 530 C451 530 419 510 396 477 C362 498 317 510 264 510 C141 510 59 446 59 350 C59 271 113 213 200 194 C105 183 45 144 45 91 C45 33 79 -10 133 -26 C78 -46 43 -79 43 -113 C43 -183 126 -230 279 -230 C432 -230 515 -157 515 -48 C515 51 464 117 332 117 L191 117 C158 117 136 128 136 144 C136 170 187 188 264 188 C386 188 468 253 468 350 C468 368 465 385 459 401 C478 387 497 374 513 374 C551 374 577 400 577 439 L578 440 L578 440 Z M263 200 C228 200 205 260 205 349 C205 437 228 496 263 496 C298 496 321 437 321 349 C321 260 298 200 263 200 L263 200 Z M152 -32 C162 -34 172 -35 182 -35 L315 -35 C389 -35 418 -60 418 -97 C418 -167 368 -214 277 -214 C177 -214 123 -166 123 -94 C123 -69 134 -47 152 -33 L152 -32 L152 -32 Z " />
<glyph glyph-name="h" unicode="h" horiz-adv-x="673" d="M3 700 L14 700 C52 701 78 665 78 608 L78 80 C78 41 52 15 14 15 L3 15 L3 0 L303 0 L303 15 L292 15 C254 15 228 41 228 80 L228 382 C247 416 294 438 344 438 C393 438 418 389 418 293 L418 80 C418 41 392 15 354 15 L343 15 L343 0 L643 0 L643 15 L632 15 C594 15 568 41 568 80 L568 307 C568 441 520 510 427 510 C345 510 266 466 228 401 L228 750 L153 750 L3 710 L3 700 L3 700 Z " />
<glyph glyph-name="i" unicode="i" horiz-adv-x="343" d="M163 615 C211 615 243 647 243 695 C243 743 211 775 163 775 C115 775 83 743 83 695 C83 647 115 615 163 615 L163 615 Z M13 450 L24 450 C62 451 88 415 88 358 L88 80 C88 41 62 15 24 15 L13 15 L13 0 L313 0 L313 15 L302 15 C264 15 238 41 238 80 L238 500 L163 500 L13 460 L13 450 L13 450 Z " />
<glyph glyph-name="j" unicode="j" horiz-adv-x="345" d="M180 615 C228 615 260 647 260 695 C260 743 228 775 180 775 C132 775 100 743 100 695 C100 647 132 615 180 615 L180 615 Z M30 450 L41 450 C79 451 105 415 105 358 L105 88 C105 -16 83 -98 51 -117 C21 -117 -20 -100 -50 -100 C-77 -100 -95 -116 -95 -140 C-95 -169 -71 -187 -35 -185 C-28 -185 14 -163 70 -130 C181 -66 255 21 255 88 L255 500 L180 500 L30 460 L30 450 L30 450 Z " />
<glyph glyph-name="k" unicode="k" horiz-adv-x="685" d="M624 500 L332 500 L332 485 L357 485 C441 485 418 425 300 335 L228 280 L228 750 L153 750 L3 710 L3 700 L14 700 C52 701 78 665 78 608 L78 80 C78 41 52 15 14 15 L3 15 L3 0 L303 0 L303 15 L292 15 C254 15 228 41 228 80 L228 280 L360 98 C395 48 398 15 366 15 L356 15 L356 0 L674 0 L674 15 L665 15 C635 15 585 55 540 115 L540 115 L361 356 L391 379 C478 443 564 485 611 485 L625 485 L624 500 L624 500 Z " />
<glyph glyph-name="l" unicode="l" horiz-adv-x="333" d="M3 700 L14 700 C52 701 78 665 78 608 L78 80 C78 41 52 15 14 15 L3 15 L3 0 L303 0 L303 15 L292 15 C254 15 228 41 228 80 L228 750 L153 750 L3 710 L3 700 L3 700 Z " />
<glyph glyph-name="m" unicode="m" horiz-adv-x="977" d="M3 450 L14 450 C52 451 78 415 78 358 L78 80 C78 41 52 15 14 15 L3 15 L3 0 L303 0 L303 15 L292 15 C254 15 228 41 228 80 L228 387 C244 414 285 432 331 432 C381 432 400 378 400 297 L400 80 C400 41 374 15 336 15 L325 15 L325 0 L625 0 L625 15 L614 15 C576 15 550 41 550 80 L550 297 C550 332 547 364 541 392 C559 417 603 433 653 433 C703 433 722 379 722 298 L722 81 C722 42 696 16 658 16 L647 16 L647 1 L947 1 L947 16 L936 16 C898 16 872 42 872 81 L872 298 C872 426 831 511 727 511 C650 511 574 469 538 407 L538 402 C519 470 477 511 405 511 C335 511 264 469 228 407 L228 501 L153 501 L3 461 L3 450 L3 450 Z " />
<glyph glyph-name="n" unicode="n" horiz-adv-x="655" d="M3 450 L14 450 C52 451 78 415 78 358 L78 80 C78 41 52 15 14 15 L3 15 L3 0 L303 0 L303 15 L292 15 C254 15 228 41 228 80 L228 375 C251 414 294 440 337 440 C379 440 400 388 400 311 L400 80 C400 41 374 15 336 15 L325 15 L325 0 L625 0 L625 15 L614 15 C576 15 550 41 550 80 L550 311 C550 430 501 510 405 510 C337 510 266 466 228 401 L228 500 L153 500 L3 460 L3 450 L3 450 Z " />
<glyph glyph-name="o" unicode="o" horiz-adv-x="631" d="M211 250 C211 398 253 496 316 496 C379 496 421 398 421 250 C421 102 379 4 316 4 C253 4 211 102 211 250 L211 250 Z M45 250 C45 94 153 -10 316 -10 C478 -10 586 94 586 250 C586 406 478 510 316 510 C153 510 45 406 45 250 L45 250 Z " />
<glyph glyph-name="p" unicode="p" horiz-adv-x="648" d="M-12 450 L-1 450 C37 451 63 415 63 358 L63 -140 C63 -179 37 -205 -1 -205 L-12 -205 L-12 -220 L288 -220 L288 -205 L277 -205 C239 -205 213 -179 213 -140 L213 14 C252 2 296 -5 344 -5 C499 -5 603 118 603 262 C603 411 509 510 369 510 C300 510 243 490 213 456 L213 500 L138 500 L-12 460 L-12 450 L-12 450 Z M213 130 L213 402 C236 441 269 464 303 464 C385 464 439 364 439 215 C439 116 395 31 330 31 C278 31 231 71 213 130 L213 130 Z " />
<glyph glyph-name="q" unicode="q" horiz-adv-x="598" d="M593 -205 L582 -205 C544 -205 518 -179 518 -140 L518 500 L509 500 L468 450 C426 487 364 509 293 509 C113 509 21 404 21 246 C21 95 106 -6 233 -6 C282 -6 333 17 368 53 L368 -141 C368 -180 342 -206 304 -206 L293 -206 L293 -221 L593 -221 L593 -205 L593 -205 Z M368 389 L368 104 C342 74 315 56 295 56 C224 56 176 148 176 287 C176 400 213 475 284 475 C316 475 348 441 368 388 L368 389 L368 389 Z " />
<glyph glyph-name="r" unicode="r" horiz-adv-x="513" d="M4 450 L15 450 C53 451 79 415 79 358 L79 80 C79 41 53 15 15 15 L4 15 L4 0 L304 0 L304 15 L293 15 C255 15 229 41 229 80 L229 381 C247 420 278 444 311 444 C336 444 352 428 352 405 C352 361 382 332 428 332 C474 332 504 361 504 405 C504 468 452 510 375 510 C313 510 257 469 230 406 L230 500 L155 500 L5 460 L4 450 L4 450 Z " />
<glyph glyph-name="s" unicode="s" horiz-adv-x="502" d="M420 325 L420 522 L409 522 L406 506 C405 499 365 499 304 506 C287 513 269 517 251 517 L251 511 C134 511 56 448 56 354 C56 282 109 219 211 192 C291 171 332 137 332 104 C332 51 296 15 241 15 C240 15 230 15 230 16 C179 22 120 87 81 180 L73 201 L61 201 L61 -15 L72 -15 L75 3 C77 13 117 12 177 0 C193 -4 211 -9 228 -11 L228 -9 C361 -17 453 53 453 153 C453 226 396 289 285 319 C216 338 180 373 180 411 C180 470 228 506 284 483 L284 482 C285 482 286 482 287 482 C329 463 371 413 400 346 L409 325 L420 325 L420 325 Z " />
<glyph glyph-name="t" unicode="t" horiz-adv-x="450" d="M396 500 L245 500 L245 620 L234 620 L30 431 L30 421 L95 421 L95 217 C95 54 164 -10 268 -10 C371 -10 440 56 440 154 L421 154 C421 98 378 61 314 61 C270 61 241 95 241 184 L245 421 L396 421 L396 500 L396 500 Z " />
<glyph glyph-name="u" unicode="u" horiz-adv-x="646" d="M631 57 L618 54 C575 43 546 75 546 135 L546 500 L321 500 L321 485 L332 485 C370 485 396 459 396 420 L396 138 C379 111 341 94 297 94 C253 94 223 120 223 160 L223 500 L-2 500 L-2 485 L9 485 C47 485 73 459 73 420 L73 160 C73 58 134 -10 226 -10 C295 -10 361 42 395 122 L395 0 L470 0 C518 12 582 29 630 42 L631 57 L631 57 Z " />
<glyph glyph-name="v" unicode="v" horiz-adv-x="655" d="M626 500 L413 500 L413 485 L423 485 C457 485 468 448 451 391 L384 195 C356 257 327 319 300 380 C271 443 275 485 310 485 L320 485 L320 500 L13 500 L13 485 L24 485 C60 485 103 447 132 389 L314 -9 L358 -9 L511 381 C536 444 578 486 616 486 L627 486 L626 500 L626 500 Z " />
<glyph glyph-name="w" unicode="w" horiz-adv-x="1037" d="M999 500 L784 500 L784 485 L794 485 C829 485 838 443 815 380 L815 380 L674 -10 L718 -10 L883 388 C909 447 950 485 987 485 L998 485 L999 500 L999 500 Z M678 500 L367 500 L367 485 L378 485 C416 485 462 442 491 380 L420 186 L322 385 C294 445 297 485 331 485 L341 485 L341 500 L30 500 L30 485 L42 485 C80 485 126 443 157 380 L349 -10 L393 -10 L523 313 L674 -10 L747 192 C718 255 688 318 660 380 C631 443 634 485 669 485 L679 485 L678 500 L678 500 Z " />
<glyph glyph-name="x" unicode="x" horiz-adv-x="684" d="M648 500 L441 500 L441 485 L451 485 C484 485 477 443 433 380 L387 313 L337 392 C304 448 303 485 334 485 L344 485 L344 500 L20 500 L20 485 L31 485 C69 485 121 443 161 380 L161 380 L257 229 L158 105 C111 51 58 16 22 16 L11 16 L11 1 L218 1 L218 16 L208 16 C175 16 182 58 225 121 L225 121 L277 198 L334 109 C367 53 368 16 337 16 L327 16 L327 1 L651 1 L651 16 L640 16 C602 16 550 58 510 121 L510 121 L410 278 L500 393 C548 449 601 486 637 486 L648 486 L648 500 L648 500 Z " />
<glyph glyph-name="y" unicode="y" horiz-adv-x="699" d="M670 500 L457 500 L457 485 L467 485 C501 485 511 448 493 391 L418 182 L316 381 C316 381 261 486 319 486 L329 486 L329 501 L23 501 L23 486 L34 486 C70 486 115 448 147 390 L345 6 L338 -9 L278 -144 C265 -172 249 -191 242 -191 C220 -191 215 -147 192 -147 C160 -147 139 -168 139 -200 C139 -235 166 -259 206 -259 C241 -259 290 -221 315 -164 C352 -81 389 2 425 87 C467 185 509 283 551 381 C578 444 621 486 659 486 L671 486 L670 500 L670 500 Z " />
<glyph glyph-name="z" unicode="z" horiz-adv-x="510" d="M470 160 L464 144 C446 93 388 55 317 46 L223 42 L470 464 L470 499 L173 499 C120 499 90 513 99 541 L81 541 C60 452 65 480 28 338 L45 338 L53 354 C80 406 145 443 219 452 L290 455 L39 33 L39 -2 L464 -2 L464 24 L472 24 C472 24 478 78 486 158 L470 160 L470 160 Z " />
<glyph glyph-name="bar" unicode="&#x7c;" horiz-adv-x="237" d="M60 800 L60 -250 L177 -250 L177 800 L60 800 L60 800 Z " />
<glyph glyph-name="asciitilde" unicode="&#x7e;" horiz-adv-x="340" d="M28 310 C28 339 44 359 67 359 C116 359 180 294 229 294 C284 294 320 360 320 459 L312 459 C312 423 293 399 264 399 C215 399 151 464 102 464 C53 464 20 402 20 310 L28 310 L28 310 Z " />
<glyph glyph-name="exclamdown" unicode="&#xa1;" horiz-adv-x="324" d="M162 505 C114 505 82 473 82 425 C82 377 114 345 162 345 C210 345 242 377 242 425 C242 473 210 505 162 505 L162 505 Z M162 -255 C234 -255 271 -198 254 -112 C254 -112 176 169 176 290 L148 290 C148 169 70 -112 70 -112 C53 -198 90 -255 162 -255 L162 -255 Z " />
<glyph glyph-name="cent" unicode="&#xa2;" horiz-adv-x="578" d="M331 575 L331 509 C158 496 45 390 45 235 C45 89 159 -9 331 -9 L331 -74 L373 -74 L373 -5 C449 9 516 59 547 129 L540 132 C515 76 448 38 372 40 L372 459 C381 446 390 428 398 407 C414 362 444 332 473 332 C534 332 564 362 548 407 C526 469 457 510 374 512 L374 577 L331 575 L331 575 Z M332 47 C257 72 209 159 209 281 C209 395 258 473 332 482 L332 47 L332 47 Z " />
<glyph glyph-name="acute" unicode="&#xb4;" horiz-adv-x="340" d="M180 560 L327 675 C359 701 381 721 381 730 C381 770 347 804 306 804 C299 804 281 780 259 743 L161 579 L180 560 L180 560 Z " />
<glyph glyph-name="questiondown" unicode="&#xbf;" horiz-adv-x="290" d="M165 505 C117 505 85 473 85 425 C85 377 117 345 165 345 C213 345 245 377 245 425 C245 473 213 505 165 505 L165 505 Z M160 225 C160 225 162 141 165 140 C57 140 26 112 -2 71 C-21 43 -34 -9 -34 -59 C-34 -180 38 -260 145 -260 C230 -260 286 -216 286 -149 C286 -105 254 -75 205 -75 C170 -75 124 -101 90 -101 C42 -101 10 -77 10 -41 C10 -35 18 -18 31 0 C56 36 84 60 193 60 C189 59 186 225 186 225 L160 225 L160 225 Z " />
<glyph glyph-name="Agrave" unicode="&#xc0;" horiz-adv-x="873" d="M235 980 C235 970 257 950 289 925 L437 810 L456 829 L358 993 C337 1030 319 1054 310 1054 C270 1054 235 1020 235 980 L235 980 Z M322 19 L301 19 C233 19 202 72 219 153 L255 286 L487 286 L527 168 C557 78 531 18 460 18 L439 18 L439 -1 L867 -1 L867 18 L852 18 C800 18 745 74 713 159 L526 696 C526 696 509 769 501 769 L486 769 C492 738 437 708 349 696 L352 686 L352 686 L206 157 C179 73 115 18 44 18 L22 18 L22 -1 L323 -1 L322 19 L322 19 Z M259 301 L358 668 L482 301 L259 301 L259 301 Z " />
<glyph glyph-name="Aacute" unicode="&#xc1;" horiz-adv-x="873" d="M446 810 L594 925 C626 951 648 971 648 980 C648 1020 614 1054 573 1054 C565 1054 547 1030 525 993 L427 829 L446 810 L446 810 Z M322 19 L301 19 C233 19 202 72 219 153 L255 286 L487 286 L527 168 C557 78 531 18 460 18 L439 18 L439 -1 L867 -1 L867 18 L852 18 C800 18 745 74 713 159 L526 696 C526 696 509 769 501 769 L486 769 C492 738 437 708 349 696 L352 686 L352 686 L206 157 C179 73 115 18 44 18 L22 18 L22 -1 L323 -1 L322 19 L322 19 Z M259 301 L358 668 L482 301 L259 301 L259 301 Z " />
<glyph glyph-name="Acircumflex" unicode="&#xc2;" horiz-adv-x="873" d="M490 985 C480 1001 454 1039 437 1039 C419 1039 394 1002 384 986 L279 820 L300 803 L436 897 L573 803 L594 820 L490 985 L490 985 Z M322 19 L301 19 C233 19 202 72 219 153 L255 286 L487 286 L527 168 C557 78 531 18 460 18 L439 18 L439 -1 L867 -1 L867 18 L852 18 C800 18 745 74 713 159 L526 696 C526 696 509 769 501 769 L486 769 C492 738 437 708 349 696 L352 686 L352 686 L206 157 C179 73 115 18 44 18 L22 18 L22 -1 L323 -1 L322 19 L322 19 Z M259 301 L358 668 L482 301 L259 301 L259 301 Z " />
<glyph glyph-name="Atilde" unicode="&#xc3;" horiz-adv-x="873" d="M295 870 C295 899 311 919 334 919 C383 919 447 854 496 854 C551 854 587 920 587 1019 L578 1019 C578 983 559 959 531 959 C482 959 417 1024 368 1024 C319 1024 286 962 286 870 L295 870 L295 870 Z M322 19 L301 19 C233 19 202 72 219 153 L255 286 L487 286 L527 168 C557 78 531 18 460 18 L439 18 L439 -1 L867 -1 L867 18 L852 18 C800 18 745 74 713 159 L526 696 C526 696 509 769 501 769 L486 769 C492 738 437 708 349 696 L352 686 L352 686 L206 157 C179 73 115 18 44 18 L22 18 L22 -1 L323 -1 L322 19 L322 19 Z M259 301 L358 668 L482 301 L259 301 L259 301 Z " />
<glyph glyph-name="Adieresis" unicode="&#xc4;" horiz-adv-x="873" d="M523 865 C571 865 603 897 603 945 C603 993 571 1025 523 1025 C475 1025 443 993 443 945 C443 897 475 865 523 865 L523 865 Z M350 865 C398 865 430 897 430 945 C430 993 398 1025 350 1025 C302 1025 270 993 270 945 C270 897 302 865 350 865 L350 865 Z M322 19 L301 19 C233 19 202 72 219 153 L255 286 L487 286 L527 168 C557 78 531 18 460 18 L439 18 L439 -1 L867 -1 L867 18 L852 18 C800 18 745 74 713 159 L526 696 C526 696 509 769 501 769 L486 769 C492 738 437 708 349 696 L352 686 L352 686 L206 157 C179 73 115 18 44 18 L22 18 L22 -1 L323 -1 L322 19 L322 19 Z M259 301 L358 668 L482 301 L259 301 L259 301 Z " />
<glyph glyph-name="Aring" unicode="&#xc5;" horiz-adv-x="873" d="M381 905 C381 941 403 965 437 965 C470 965 492 941 492 905 C492 873 467 845 437 845 C407 845 381 873 381 905 L381 905 Z M337 905 C337 854 383 810 437 810 C490 810 536 854 536 905 C536 962 496 1000 437 1000 C377 1000 337 962 337 905 L337 905 Z M322 19 L301 19 C233 19 202 72 219 153 L255 286 L487 286 L527 168 C557 78 531 18 460 18 L439 18 L439 -1 L867 -1 L867 18 L852 18 C800 18 745 74 713 159 L526 696 C526 696 509 769 501 769 L486 769 C492 738 437 708 349 696 L352 686 L352 686 L206 157 C179 73 115 18 44 18 L22 18 L22 -1 L323 -1 L322 19 L322 19 Z M259 301 L358 668 L482 301 L259 301 L259 301 Z " />
<glyph glyph-name="Egrave" unicode="&#xc8;" horiz-adv-x="724" d="M178 980 C178 970 200 950 232 925 L379 810 L398 829 L300 993 C279 1030 261 1054 253 1054 C213 1054 178 1020 178 980 L178 980 Z M21 735 L38 735 C97 735 136 687 136 615 L136 135 C136 63 97 15 38 15 L21 15 L21 0 L647 0 L648 6 L649 6 C656 48 666 105 673 147 L658 147 L650 127 C627 62 557 18 472 13 C329 19 313 85 313 183 L313 385 L394 385 C472 385 532 336 545 262 L549 240 L564 240 L564 543 L549 543 L545 521 C532 447 472 398 394 398 L313 398 L313 738 L454 738 C532 738 598 689 620 615 L627 593 L642 593 C637 640 631 704 623 750 L22 750 L21 735 L21 735 Z " />
<glyph glyph-name="Eacute" unicode="&#xc9;" horiz-adv-x="724" d="M389 810 L536 925 C568 951 590 971 590 980 C590 1020 556 1054 515 1054 C508 1054 490 1030 468 993 L370 829 L389 810 L389 810 Z M21 735 L38 735 C97 735 136 687 136 615 L136 135 C136 63 97 15 38 15 L21 15 L21 0 L647 0 L648 6 L649 6 C656 48 666 105 673 147 L658 147 L650 127 C627 62 557 18 472 13 C329 19 313 85 313 183 L313 385 L394 385 C472 385 532 336 545 262 L549 240 L564 240 L564 543 L549 543 L545 521 C532 447 472 398 394 398 L313 398 L313 738 L454 738 C532 738 598 689 620 615 L627 593 L642 593 C637 640 631 704 623 750 L22 750 L21 735 L21 735 Z " />
<glyph glyph-name="Ecircumflex" unicode="&#xca;" horiz-adv-x="724" d="M432 985 C422 1001 396 1039 379 1039 C361 1039 336 1002 326 986 L222 820 L242 803 L379 897 L516 803 L536 820 L432 985 L432 985 Z M21 735 L38 735 C97 735 136 687 136 615 L136 135 C136 63 97 15 38 15 L21 15 L21 0 L647 0 L648 6 L649 6 C656 48 666 105 673 147 L658 147 L650 127 C627 62 557 18 472 13 C329 19 313 85 313 183 L313 385 L394 385 C472 385 532 336 545 262 L549 240 L564 240 L564 543 L549 543 L545 521 C532 447 472 398 394 398 L313 398 L313 738 L454 738 C532 738 598 689 620 615 L627 593 L642 593 C637 640 631 704 623 750 L22 750 L21 735 L21 735 Z " />
<glyph glyph-name="Edieresis" unicode="&#xcb;" horiz-adv-x="724" d="M465 865 C513 865 545 897 545 945 C545 993 513 1025 465 1025 C417 1025 385 993 385 945 C385 897 417 865 465 865 L465 865 Z M293 865 C341 865 373 897 373 945 C373 993 341 1025 293 1025 C245 1025 213 993 213 945 C213 897 245 865 293 865 L293 865 Z M21 735 L38 735 C97 735 136 687 136 615 L136 135 C136 63 97 15 38 15 L21 15 L21 0 L647 0 L648 6 L649 6 C656 48 666 105 673 147 L658 147 L650 127 C627 62 557 18 472 13 C329 19 313 85 313 183 L313 385 L394 385 C472 385 532 336 545 262 L549 240 L564 240 L564 543 L549 543 L545 521 C532 447 472 398 394 398 L313 398 L313 738 L454 738 C532 738 598 689 620 615 L627 593 L642 593 C637 640 631 704 623 750 L22 750 L21 735 L21 735 Z " />
<glyph glyph-name="Igrave" unicode="&#xcc;" horiz-adv-x="443" d="M-1 980 C-1 970 21 950 53 925 L200 810 L219 829 L121 993 C100 1030 82 1054 74 1054 C34 1054 -1 1020 -1 980 L-1 980 Z M383 15 L369 15 C320 15 288 55 288 115 L288 635 C288 695 320 735 369 735 L383 735 L383 750 L17 750 L17 735 L31 735 C80 735 112 695 112 635 L112 115 C112 55 80 15 31 15 L17 15 L17 0 L383 0 L383 15 L383 15 Z " />
<glyph glyph-name="Iacute" unicode="&#xcd;" horiz-adv-x="443" d="M210 810 L357 925 C389 951 411 971 411 980 C411 1020 377 1054 336 1054 C329 1054 311 1030 289 993 L191 829 L210 810 L210 810 Z M383 15 L369 15 C320 15 288 55 288 115 L288 635 C288 695 320 735 369 735 L383 735 L383 750 L17 750 L17 735 L31 735 C80 735 112 695 112 635 L112 115 C112 55 80 15 31 15 L17 15 L17 0 L383 0 L383 15 L383 15 Z " />
<glyph glyph-name="Icircumflex" unicode="&#xce;" horiz-adv-x="443" d="M253 985 C243 1001 217 1039 200 1039 C182 1039 157 1002 147 986 L43 820 L63 803 L200 897 L337 803 L357 820 L253 985 L253 985 Z M383 15 L369 15 C320 15 288 55 288 115 L288 635 C288 695 320 735 369 735 L383 735 L383 750 L17 750 L17 735 L31 735 C80 735 112 695 112 635 L112 115 C112 55 80 15 31 15 L17 15 L17 0 L383 0 L383 15 L383 15 Z " />
<glyph glyph-name="Idieresis" unicode="&#xcf;" horiz-adv-x="443" d="M286 865 C334 865 366 897 366 945 C366 993 334 1025 286 1025 C238 1025 206 993 206 945 C206 897 238 865 286 865 L286 865 Z M114 865 C162 865 194 897 194 945 C194 993 162 1025 114 1025 C66 1025 34 993 34 945 C34 897 66 865 114 865 L114 865 Z M383 15 L369 15 C320 15 288 55 288 115 L288 635 C288 695 320 735 369 735 L383 735 L383 750 L17 750 L17 735 L31 735 C80 735 112 695 112 635 L112 115 C112 55 80 15 31 15 L17 15 L17 0 L383 0 L383 15 L383 15 Z " />
<glyph glyph-name="Ntilde" unicode="&#xd1;" horiz-adv-x="840" d="M272 870 C272 899 288 919 311 919 C360 919 424 854 473 854 C528 854 564 920 564 1019 L555 1019 C555 983 536 959 508 959 C459 959 394 1024 345 1024 C296 1024 263 962 263 870 L272 870 L272 870 Z M-72 735 L-57 735 C-12 735 49 699 98 645 L143 591 L142 115 L142 115 C142 55 109 15 61 15 L47 15 L47 0 L290 0 L290 15 L276 15 C227 15 195 55 194 115 L190 535 C338 357 487 179 636 1 L671 1 C675 213 679 425 683 636 C684 696 717 736 765 736 L780 736 L780 751 L537 751 L537 736 L551 736 C600 736 632 696 632 636 L633 636 L635 281 C500 438 365 595 230 752 L-72 752 L-72 735 L-72 735 Z " />
<glyph glyph-name="Ograve" unicode="&#xd2;" horiz-adv-x="934" d="M221 375 C221 598 311 746 447 746 C591 746 687 598 687 375 C687 152 589 4 442 4 C309 4 221 152 221 375 L221 375 Z M29 375 C29 144 193 -10 439 -10 C703 -10 879 144 879 375 C879 606 707 760 449 760 C197 760 29 606 29 375 L29 375 Z M248 980 C248 970 270 950 302 925 L449 810 L468 829 L370 993 C349 1030 331 1054 323 1054 C283 1054 248 1020 248 980 L248 980 Z " />
<glyph glyph-name="Oacute" unicode="&#xd3;" horiz-adv-x="934" d="M459 810 L606 925 C638 951 660 971 660 980 C660 1020 626 1054 585 1054 C578 1054 560 1030 538 993 L440 829 L459 810 L459 810 Z M221 375 C221 598 311 746 447 746 C591 746 687 598 687 375 C687 152 589 4 442 4 C309 4 221 152 221 375 L221 375 Z M29 375 C29 144 193 -10 439 -10 C703 -10 879 144 879 375 C879 606 707 760 449 760 C197 760 29 606 29 375 L29 375 Z " />
<glyph glyph-name="Ocircumflex" unicode="&#xd4;" horiz-adv-x="934" d="M221 375 C221 598 311 746 447 746 C591 746 687 598 687 375 C687 152 589 4 442 4 C309 4 221 152 221 375 L221 375 Z M29 375 C29 144 193 -10 439 -10 C703 -10 879 144 879 375 C879 606 707 760 449 760 C197 760 29 606 29 375 L29 375 Z M502 985 C492 1001 466 1039 449 1039 C431 1039 406 1002 396 986 L292 820 L312 803 L449 897 L586 803 L606 820 L502 985 L502 985 Z " />
<glyph glyph-name="Otilde" unicode="&#xd5;" horiz-adv-x="934" d="M307 870 C307 899 323 919 346 919 C395 919 459 854 508 854 C563 854 599 920 599 1019 L591 1019 C591 983 572 959 543 959 C494 959 430 1024 381 1024 C332 1024 299 962 299 870 L307 870 L307 870 Z M221 375 C221 598 311 746 447 746 C591 746 687 598 687 375 C687 152 589 4 442 4 C309 4 221 152 221 375 L221 375 Z M29 375 C29 144 193 -10 439 -10 C703 -10 879 144 879 375 C879 606 707 760 449 760 C197 760 29 606 29 375 L29 375 Z " />
<glyph glyph-name="Odieresis" unicode="&#xd6;" horiz-adv-x="934" d="M535 865 C583 865 615 897 615 945 C615 993 583 1025 535 1025 C487 1025 455 993 455 945 C455 897 487 865 535 865 L535 865 Z M363 865 C411 865 443 897 443 945 C443 993 411 1025 363 1025 C315 1025 283 993 283 945 C283 897 315 865 363 865 L363 865 Z M221 375 C221 598 311 746 447 746 C591 746 687 598 687 375 C687 152 589 4 442 4 C309 4 221 152 221 375 L221 375 Z M29 375 C29 144 193 -10 439 -10 C703 -10 879 144 879 375 C879 606 707 760 449 760 C197 760 29 606 29 375 L29 375 Z " />
<glyph glyph-name="Oslash" unicode="&#xd8;" horiz-adv-x="934" d="M37 -19 L153 86 C224 25 322 -10 439 -10 C703 -10 879 144 879 375 C879 486 840 579 771 646 L888 752 L872 770 L753 662 C678 725 574 761 450 761 C198 761 30 607 30 376 C30 264 68 170 136 103 L22 0 L37 -19 L37 -19 Z M657 575 L244 201 C230 252 222 311 222 376 C222 599 312 747 448 747 C543 747 617 683 656 575 L657 575 L657 575 Z M664 550 C679 500 687 441 687 376 C687 153 589 5 442 5 C355 5 287 69 251 176 L664 550 L664 550 Z " />
<glyph glyph-name="Ugrave" unicode="&#xd9;" horiz-adv-x="894" d="M234 980 C234 970 256 950 288 925 L435 810 L454 829 L356 993 C335 1030 317 1054 309 1054 C269 1054 234 1020 234 980 L234 980 Z M864 65 L850 61 C801 48 769 79 769 139 L769 750 L498 750 L498 735 L512 735 C561 735 593 695 593 635 L593 216 C562 149 495 104 427 104 C337 104 277 150 277 220 L277 750 L6 750 L6 735 L20 735 C69 735 101 695 101 635 L101 220 C101 82 203 -10 356 -10 C457 -10 552 48 593 136 L593 0 L681 0 L769 24 C802 33 835 42 864 50 L864 65 L864 65 Z " />
<glyph glyph-name="Uacute" unicode="&#xda;" horiz-adv-x="894" d="M445 810 L592 925 C624 951 646 971 646 980 C646 1020 612 1054 571 1054 C564 1054 546 1030 524 993 L426 829 L445 810 L445 810 Z M864 65 L850 61 C801 48 769 79 769 139 L769 750 L498 750 L498 735 L512 735 C561 735 593 695 593 635 L593 216 C562 149 495 104 427 104 C337 104 277 150 277 220 L277 750 L6 750 L6 735 L20 735 C69 735 101 695 101 635 L101 220 C101 82 203 -10 356 -10 C457 -10 552 48 593 136 L593 0 L681 0 L769 24 C802 33 835 42 864 50 L864 65 L864 65 Z " />
<glyph glyph-name="Ucircumflex" unicode="&#xdb;" horiz-adv-x="894" d="M488 985 C478 1001 452 1039 435 1039 C417 1039 392 1002 382 986 L278 820 L298 803 L435 897 L572 803 L592 820 L488 985 L488 985 Z M864 65 L850 61 C801 48 769 79 769 139 L769 750 L498 750 L498 735 L512 735 C561 735 593 695 593 635 L593 216 C562 149 495 104 427 104 C337 104 277 150 277 220 L277 750 L6 750 L6 735 L20 735 C69 735 101 695 101 635 L101 220 C101 82 203 -10 356 -10 C457 -10 552 48 593 136 L593 0 L681 0 L769 24 C802 33 835 42 864 50 L864 65 L864 65 Z " />
<glyph glyph-name="Udieresis" unicode="&#xdc;" horiz-adv-x="894" d="M521 865 C569 865 601 897 601 945 C601 993 569 1025 521 1025 C473 1025 441 993 441 945 C441 897 473 865 521 865 L521 865 Z M349 865 C397 865 429 897 429 945 C429 993 397 1025 349 1025 C301 1025 269 993 269 945 C269 897 301 865 349 865 L349 865 Z M864 65 L850 61 C801 48 769 79 769 139 L769 750 L498 750 L498 735 L512 735 C561 735 593 695 593 635 L593 216 C562 149 495 104 427 104 C337 104 277 150 277 220 L277 750 L6 750 L6 735 L20 735 C69 735 101 695 101 635 L101 220 C101 82 203 -10 356 -10 C457 -10 552 48 593 136 L593 0 L681 0 L769 24 C802 33 835 42 864 50 L864 65 L864 65 Z " />
<glyph glyph-name="Yacute" unicode="&#xdd;" horiz-adv-x="834" d="M439 810 L586 925 C618 951 640 971 640 980 C640 1020 606 1054 565 1054 C558 1054 540 1030 518 993 L420 829 L439 810 L439 810 Z M226 0 L632 0 L632 15 L615 15 C556 15 517 63 517 135 L517 332 C569 431 620 531 672 630 C705 693 762 735 815 735 L831 735 L831 750 L571 750 L571 735 L594 735 C654 735 677 697 652 639 L511 349 L336 630 C297 693 306 735 360 735 L376 735 L376 750 L-17 750 L-17 735 L-5 735 C36 735 90 693 131 630 L131 630 L341 308 L341 135 C341 63 302 15 243 15 L226 15 L226 0 L226 0 Z " />
<glyph glyph-name="agrave" unicode="&#xe0;" horiz-adv-x="535" d="M545 125 L532 130 C526 99 506 78 482 78 C458 78 442 96 442 122 C442 122 442 351 441 349 C441 460 377 510 281 510 C147 510 58 414 58 360 C58 312 92 280 142 280 C179 280 204 313 204 337 C204 358 184 377 184 406 C184 434 212 485 255 485 C277 485 292 460 292 404 L292 276 C79 210 28 184 28 101 C28 34 78 -10 153 -10 C190 -10 239 14 299 77 C315 26 359 -6 419 -6 C481 -6 531 46 545 124 L545 125 L545 125 Z M80 729 C80 719 102 699 134 674 L281 559 L300 578 L202 742 C181 779 163 803 155 803 C115 803 80 769 80 729 L80 729 Z M292 261 L292 121 C292 109 293 98 295 88 C271 66 249 57 230 57 C199 57 178 81 178 116 C178 210 200 232 291 261 L292 261 L292 261 Z " />
<glyph glyph-name="aacute" unicode="&#xe1;" horiz-adv-x="535" d="M291 560 L438 675 C470 701 492 721 492 730 C492 770 458 804 417 804 C410 804 392 780 370 743 L272 579 L291 560 L291 560 Z M545 125 L532 130 C526 99 506 78 482 78 C458 78 442 96 442 122 C442 122 442 351 441 349 C441 460 377 510 281 510 C147 510 58 414 58 360 C58 312 92 280 142 280 C179 280 204 313 204 337 C204 358 184 377 184 406 C184 434 212 485 255 485 C277 485 292 460 292 404 L292 276 C79 210 28 184 28 101 C28 34 78 -10 153 -10 C190 -10 239 14 299 77 C315 26 359 -6 419 -6 C481 -6 531 46 545 124 L545 125 L545 125 Z M292 261 L292 121 C292 109 293 98 295 88 C271 66 249 57 230 57 C199 57 178 81 178 116 C178 210 200 232 291 261 L292 261 L292 261 Z " />
<glyph glyph-name="acircumflex" unicode="&#xe2;" horiz-adv-x="535" d="M545 125 L532 130 C526 99 506 78 482 78 C458 78 442 96 442 122 C442 122 442 351 441 349 C441 460 377 510 281 510 C147 510 58 414 58 360 C58 312 92 280 142 280 C179 280 204 313 204 337 C204 358 184 377 184 406 C184 434 212 485 255 485 C277 485 292 460 292 404 L292 276 C79 210 28 184 28 101 C28 34 78 -10 153 -10 C190 -10 239 14 299 77 C315 26 359 -6 419 -6 C481 -6 531 46 545 124 L545 125 L545 125 Z M334 734 C324 750 298 788 281 788 C263 788 238 751 228 735 L124 569 L144 552 L281 646 L418 552 L438 569 L334 734 L334 734 Z M292 261 L292 121 C292 109 293 98 295 88 C271 66 249 57 230 57 C199 57 178 81 178 116 C178 210 200 232 291 261 L292 261 L292 261 Z " />
<glyph glyph-name="atilde" unicode="&#xe3;" horiz-adv-x="535" d="M139 620 C139 649 155 669 178 669 C227 669 291 604 340 604 C395 604 431 670 431 769 L423 769 C423 733 404 709 375 709 C326 709 262 774 213 774 C164 774 131 712 131 620 L139 620 L139 620 Z M545 125 L532 130 C526 99 506 78 482 78 C458 78 442 96 442 122 C442 122 442 351 441 349 C441 460 377 510 281 510 C147 510 58 414 58 360 C58 312 92 280 142 280 C179 280 204 313 204 337 C204 358 184 377 184 406 C184 434 212 485 255 485 C277 485 292 460 292 404 L292 276 C79 210 28 184 28 101 C28 34 78 -10 153 -10 C190 -10 239 14 299 77 C315 26 359 -6 419 -6 C481 -6 531 46 545 124 L545 125 L545 125 Z M292 261 L292 121 C292 109 293 98 295 88 C271 66 249 57 230 57 C199 57 178 81 178 116 C178 210 200 232 291 261 L292 261 L292 261 Z " />
<glyph glyph-name="adieresis" unicode="&#xe4;" horiz-adv-x="535" d="M367 615 C415 615 447 647 447 695 C447 743 415 775 367 775 C319 775 287 743 287 695 C287 647 319 615 367 615 L367 615 Z M195 615 C243 615 275 647 275 695 C275 743 243 775 195 775 C147 775 115 743 115 695 C115 647 147 615 195 615 L195 615 Z M545 125 L532 130 C526 99 506 78 482 78 C458 78 442 96 442 122 C442 122 442 351 441 349 C441 460 377 510 281 510 C147 510 58 414 58 360 C58 312 92 280 142 280 C179 280 204 313 204 337 C204 358 184 377 184 406 C184 434 212 485 255 485 C277 485 292 460 292 404 L292 276 C79 210 28 184 28 101 C28 34 78 -10 153 -10 C190 -10 239 14 299 77 C315 26 359 -6 419 -6 C481 -6 531 46 545 124 L545 125 L545 125 Z M292 261 L292 121 C292 109 293 98 295 88 C271 66 249 57 230 57 C199 57 178 81 178 116 C178 210 200 232 291 261 L292 261 L292 261 Z " />
<glyph glyph-name="aring" unicode="&#xe5;" horiz-adv-x="535" d="M225 655 C225 691 247 715 281 715 C315 715 337 691 337 655 C337 623 311 595 281 595 C251 595 225 623 225 655 L225 655 Z M181 655 C181 604 227 560 281 560 C335 560 381 604 381 655 C381 712 341 750 281 750 C221 750 181 712 181 655 L181 655 Z M545 125 L532 130 C526 99 506 78 482 78 C458 78 442 96 442 122 C442 122 442 351 441 349 C441 460 377 510 281 510 C147 510 58 414 58 360 C58 312 92 280 142 280 C179 280 204 313 204 337 C204 358 184 377 184 406 C184 434 212 485 255 485 C277 485 292 460 292 404 L292 276 C79 210 28 184 28 101 C28 34 78 -10 153 -10 C190 -10 239 14 299 77 C315 26 359 -6 419 -6 C481 -6 531 46 545 124 L545 125 L545 125 Z M292 261 L292 121 C292 109 293 98 295 88 C271 66 249 57 230 57 C199 57 178 81 178 116 C178 210 200 232 291 261 L292 261 L292 261 Z " />
<glyph glyph-name="egrave" unicode="&#xe8;" horiz-adv-x="574" d="M119 730 C119 720 141 700 173 675 L320 560 L339 579 L241 743 C220 780 202 804 194 804 C154 804 119 770 119 730 L119 730 Z M204 324 L544 324 C520 458 435 510 320 510 C155 510 45 430 45 225 C45 84 145 -10 295 -10 C399 -10 490 48 521 134 L515 135 C494 79 422 41 334 41 C245 41 195 168 204 324 L204 324 Z M376 336 L205 335 C213 446 251 490 306 490 C331 490 355 447 376 336 L376 336 Z " />
<glyph glyph-name="eacute" unicode="&#xe9;" horiz-adv-x="574" d="M330 560 L477 675 C509 701 531 721 531 730 C531 770 497 804 456 804 C449 804 431 780 409 743 L311 579 L330 560 L330 560 Z M204 324 L544 324 C520 458 435 510 320 510 C155 510 45 430 45 225 C45 84 145 -10 295 -10 C399 -10 490 48 521 134 L515 135 C494 79 422 41 334 41 C245 41 195 168 204 324 L204 324 Z M376 336 L205 335 C213 446 251 490 306 490 C331 490 355 447 376 336 L376 336 Z " />
<glyph glyph-name="ecircumflex" unicode="&#xea;" horiz-adv-x="574" d="M373 735 C363 751 337 789 320 789 C302 789 277 752 267 736 L163 570 L183 553 L320 647 L457 553 L477 570 L373 735 L373 735 Z M204 324 L544 324 C520 458 435 510 320 510 C155 510 45 430 45 225 C45 84 145 -10 295 -10 C399 -10 490 48 521 134 L515 135 C494 79 422 41 334 41 C245 41 195 168 204 324 L204 324 Z M376 336 L205 335 C213 446 251 490 306 490 C331 490 355 447 376 336 L376 336 Z " />
<glyph glyph-name="edieresis" unicode="&#xeb;" horiz-adv-x="574" d="M406 615 C454 615 486 647 486 695 C486 743 454 775 406 775 C358 775 326 743 326 695 C326 647 358 615 406 615 L406 615 Z M234 615 C282 615 314 647 314 695 C314 743 282 775 234 775 C186 775 154 743 154 695 C154 647 186 615 234 615 L234 615 Z M204 324 L544 324 C520 458 435 510 320 510 C155 510 45 430 45 225 C45 84 145 -10 295 -10 C399 -10 490 48 521 134 L515 135 C494 79 422 41 334 41 C245 41 195 168 204 324 L204 324 Z M376 336 L205 335 C213 446 251 490 306 490 C331 490 355 447 376 336 L376 336 Z " />
<glyph glyph-name="igrave" unicode="&#xec;" horiz-adv-x="389" d="M-7 730 C-7 720 15 700 47 675 L194 560 L213 579 L115 743 C94 780 76 804 68 804 C28 804 -7 770 -7 730 L-7 730 Z M44 445 L55 448 C93 458 119 439 119 400 L119 80 C119 41 93 15 55 15 L44 15 L44 0 L344 0 L344 15 L333 15 C295 15 269 41 269 80 L269 500 L194 500 L44 460 L44 445 L44 445 Z " />
<glyph glyph-name="iacute" unicode="&#xed;" horiz-adv-x="389" d="M-7 730 C-7 720 15 700 47 675 L194 560 L213 579 L115 743 C94 780 76 804 68 804 C28 804 -7 770 -7 730 L-7 730 Z M44 445 L55 448 C93 458 119 439 119 400 L119 80 C119 41 93 15 55 15 L44 15 L44 0 L344 0 L344 15 L333 15 C295 15 269 41 269 80 L269 500 L194 500 L44 460 L44 445 L44 445 Z " />
<glyph glyph-name="icircumflex" unicode="&#xee;" horiz-adv-x="389" d="M247 735 C237 751 211 789 194 789 C176 789 151 752 141 736 L37 570 L57 553 L194 647 L331 553 L351 570 L247 735 L247 735 Z M44 445 L55 448 C93 458 119 439 119 400 L119 80 C119 41 93 15 55 15 L44 15 L44 0 L344 0 L344 15 L333 15 C295 15 269 41 269 80 L269 500 L194 500 L44 460 L44 445 L44 445 Z " />
<glyph glyph-name="idieresis" unicode="&#xef;" horiz-adv-x="389" d="M280 615 C328 615 360 647 360 695 C360 743 328 775 280 775 C232 775 200 743 200 695 C200 647 232 615 280 615 L280 615 Z M108 615 C156 615 188 647 188 695 C188 743 156 775 108 775 C60 775 28 743 28 695 C28 647 60 615 108 615 L108 615 Z M44 445 L55 448 C93 458 119 439 119 400 L119 80 C119 41 93 15 55 15 L44 15 L44 0 L344 0 L344 15 L333 15 C295 15 269 41 269 80 L269 500 L194 500 L44 460 L44 445 L44 445 Z " />
<glyph glyph-name="ntilde" unicode="&#xf1;" horiz-adv-x="655" d="M172 620 C172 649 188 669 211 669 C260 669 324 604 373 604 C428 604 464 670 464 769 L456 769 C456 733 437 709 408 709 C359 709 295 774 246 774 C197 774 164 712 164 620 L172 620 L172 620 Z M3 450 L14 450 C52 451 78 415 78 358 L78 80 C78 41 52 15 14 15 L3 15 L3 0 L303 0 L303 15 L292 15 C254 15 228 41 228 80 L228 375 C251 414 294 440 337 440 C379 440 400 388 400 311 L400 80 C400 41 374 15 336 15 L325 15 L325 0 L625 0 L625 15 L614 15 C576 15 550 41 550 80 L550 311 C550 430 501 510 405 510 C337 510 266 466 228 401 L228 500 L153 500 L3 460 L3 450 L3 450 Z " />
<glyph glyph-name="ograve" unicode="&#xf2;" horiz-adv-x="631" d="M211 250 C211 398 253 496 316 496 C379 496 421 398 421 250 C421 102 379 4 316 4 C253 4 211 102 211 250 L211 250 Z M45 250 C45 94 153 -10 316 -10 C478 -10 586 94 586 250 C586 406 478 510 316 510 C153 510 45 406 45 250 L45 250 Z M115 730 C115 720 137 700 169 675 L316 560 L335 579 L237 743 C216 780 198 804 190 804 C150 804 115 770 115 730 L115 730 Z " />
<glyph glyph-name="oacute" unicode="&#xf3;" horiz-adv-x="631" d="M326 560 L473 675 C505 701 527 721 527 730 C527 770 493 804 452 804 C445 804 427 780 405 743 L307 579 L326 560 L326 560 Z M211 250 C211 398 253 496 316 496 C379 496 421 398 421 250 C421 102 379 4 316 4 C253 4 211 102 211 250 L211 250 Z M45 250 C45 94 153 -10 316 -10 C478 -10 586 94 586 250 C586 406 478 510 316 510 C153 510 45 406 45 250 L45 250 Z " />
<glyph glyph-name="ocircumflex" unicode="&#xf4;" horiz-adv-x="631" d="M211 250 C211 398 253 496 316 496 C379 496 421 398 421 250 C421 102 379 4 316 4 C253 4 211 102 211 250 L211 250 Z M45 250 C45 94 153 -10 316 -10 C478 -10 586 94 586 250 C586 406 478 510 316 510 C153 510 45 406 45 250 L45 250 Z M369 735 C359 751 333 789 316 789 C298 789 273 752 263 736 L159 570 L179 553 L316 647 L453 553 L473 570 L369 735 L369 735 Z " />
<glyph glyph-name="otilde" unicode="&#xf5;" horiz-adv-x="631" d="M174 620 C174 649 190 669 213 669 C262 669 326 604 375 604 C430 604 466 670 466 769 L458 769 C458 733 439 709 410 709 C361 709 297 774 248 774 C199 774 166 712 166 620 L174 620 L174 620 Z M211 250 C211 398 253 496 316 496 C379 496 421 398 421 250 C421 102 379 4 316 4 C253 4 211 102 211 250 L211 250 Z M45 250 C45 94 153 -10 316 -10 C478 -10 586 94 586 250 C586 406 478 510 316 510 C153 510 45 406 45 250 L45 250 Z " />
<glyph glyph-name="odieresis" unicode="&#xf6;" horiz-adv-x="631" d="M402 615 C450 615 482 647 482 695 C482 743 450 775 402 775 C354 775 322 743 322 695 C322 647 354 615 402 615 L402 615 Z M230 615 C278 615 310 647 310 695 C310 743 278 775 230 775 C182 775 150 743 150 695 C150 647 182 615 230 615 L230 615 Z M211 250 C211 398 253 496 316 496 C379 496 421 398 421 250 C421 102 379 4 316 4 C253 4 211 102 211 250 L211 250 Z M45 250 C45 94 153 -10 316 -10 C478 -10 586 94 586 250 C586 406 478 510 316 510 C153 510 45 406 45 250 L45 250 Z " />
<glyph glyph-name="oslash" unicode="&#xf8;" horiz-adv-x="631" d="M51 -16 C51 -16 77 9 125 55 C172 13 237 -11 315 -11 C477 -11 585 93 585 249 C585 324 560 387 516 432 C540 455 565 479 590 503 L578 515 C552 490 527 466 503 443 C456 485 391 509 314 509 C151 509 43 405 43 249 C43 174 68 111 112 66 C64 20 38 -5 38 -5 L51 -16 L51 -16 Z M412 354 C336 281 270 217 215 164 C212 190 210 218 210 248 C210 396 252 494 315 494 C361 494 396 441 411 354 L412 354 L412 354 Z M414 333 C417 307 419 279 419 248 C419 100 377 2 314 2 C267 2 232 56 217 144 C271 196 337 260 413 333 L414 333 L414 333 Z " />
<glyph glyph-name="ugrave" unicode="&#xf9;" horiz-adv-x="646" d="M109 730 C109 720 131 700 163 675 L310 560 L329 579 L231 743 C210 780 192 804 184 804 C144 804 109 770 109 730 L109 730 Z M631 57 L618 54 C575 43 546 75 546 135 L546 500 L321 500 L321 485 L332 485 C370 485 396 459 396 420 L396 138 C379 111 341 94 297 94 C253 94 223 120 223 160 L223 500 L-2 500 L-2 485 L9 485 C47 485 73 459 73 420 L73 160 C73 58 134 -10 226 -10 C295 -10 361 42 395 122 L395 0 L470 0 C518 12 582 29 630 42 L631 57 L631 57 Z " />
<glyph glyph-name="uacute" unicode="&#xfa;" horiz-adv-x="646" d="M320 560 L467 675 C499 701 521 721 521 730 C521 770 487 804 446 804 C439 804 421 780 399 743 L301 579 L320 560 L320 560 Z M631 57 L618 54 C575 43 546 75 546 135 L546 500 L321 500 L321 485 L332 485 C370 485 396 459 396 420 L396 138 C379 111 341 94 297 94 C253 94 223 120 223 160 L223 500 L-2 500 L-2 485 L9 485 C47 485 73 459 73 420 L73 160 C73 58 134 -10 226 -10 C295 -10 361 42 395 122 L395 0 L470 0 C518 12 582 29 630 42 L631 57 L631 57 Z " />
<glyph glyph-name="ucircumflex" unicode="&#xfb;" horiz-adv-x="646" d="M363 735 C353 751 327 789 310 789 C292 789 267 752 257 736 L153 570 L173 553 L310 647 L447 553 L467 570 L363 735 L363 735 Z M631 57 L618 54 C575 43 546 75 546 135 L546 500 L321 500 L321 485 L332 485 C370 485 396 459 396 420 L396 138 C379 111 341 94 297 94 C253 94 223 120 223 160 L223 500 L-2 500 L-2 485 L9 485 C47 485 73 459 73 420 L73 160 C73 58 134 -10 226 -10 C295 -10 361 42 395 122 L395 0 L470 0 C518 12 582 29 630 42 L631 57 L631 57 Z " />
<glyph glyph-name="udieresis" unicode="&#xfc;" horiz-adv-x="646" d="M396 615 C444 615 476 647 476 695 C476 743 444 775 396 775 C348 775 316 743 316 695 C316 647 348 615 396 615 L396 615 Z M224 615 C272 615 304 647 304 695 C304 743 272 775 224 775 C176 775 144 743 144 695 C144 647 176 615 224 615 L224 615 Z M631 57 L618 54 C575 43 546 75 546 135 L546 500 L321 500 L321 485 L332 485 C370 485 396 459 396 420 L396 138 C379 111 341 94 297 94 C253 94 223 120 223 160 L223 500 L-2 500 L-2 485 L9 485 C47 485 73 459 73 420 L73 160 C73 58 134 -10 226 -10 C295 -10 361 42 395 122 L395 0 L470 0 C518 12 582 29 630 42 L631 57 L631 57 Z " />
<glyph glyph-name="ydieresis" unicode="&#xff;" horiz-adv-x="672" d="M470 615 C518 615 550 647 550 695 C550 743 518 775 470 775 C422 775 390 743 390 695 C390 647 422 615 470 615 L470 615 Z M297 615 C345 615 377 647 377 695 C377 743 345 775 297 775 C249 775 217 743 217 695 C217 647 249 615 297 615 L297 615 Z M661 500 L448 500 L448 485 L458 485 C492 485 502 448 484 391 L409 182 L307 381 C307 381 252 486 310 486 L320 486 L320 501 L14 501 L14 486 L25 486 C61 486 106 448 138 390 L336 6 L329 -9 L269 -144 C256 -172 240 -191 233 -191 C211 -191 206 -147 183 -147 C151 -147 130 -168 130 -200 C130 -235 157 -259 197 -259 C232 -259 281 -221 306 -164 C343 -81 380 2 416 87 C458 185 500 283 542 381 C569 444 612 486 650 486 L662 486 L661 500 L661 500 Z " />
<glyph glyph-name="Amacron" unicode="&#x100;" horiz-adv-x="873" d="M287 884 L587 884 L587 988 L287 988 L287 884 L287 884 Z M322 19 L301 19 C233 19 202 72 219 153 L255 286 L487 286 L527 168 C557 78 531 18 460 18 L439 18 L439 -1 L867 -1 L867 18 L852 18 C800 18 745 74 713 159 L526 696 C526 696 509 769 501 769 L486 769 C492 738 437 708 349 696 L352 686 L352 686 L206 157 C179 73 115 18 44 18 L22 18 L22 -1 L323 -1 L322 19 L322 19 Z M259 301 L358 668 L482 301 L259 301 L259 301 Z " />
<glyph glyph-name="amacron" unicode="&#x101;" horiz-adv-x="535" d="M131 634 L431 634 L431 738 L131 738 L131 634 L131 634 Z M545 125 L532 130 C526 99 506 78 482 78 C458 78 442 96 442 122 C442 122 442 351 441 349 C441 460 377 510 281 510 C147 510 58 414 58 360 C58 312 92 280 142 280 C179 280 204 313 204 337 C204 358 184 377 184 406 C184 434 212 485 255 485 C277 485 292 460 292 404 L292 276 C79 210 28 184 28 101 C28 34 78 -10 153 -10 C190 -10 239 14 299 77 C315 26 359 -6 419 -6 C481 -6 531 46 545 124 L545 125 L545 125 Z M292 261 L292 121 C292 109 293 98 295 88 C271 66 249 57 230 57 C199 57 178 81 178 116 C178 210 200 232 291 261 L292 261 L292 261 Z " />
<glyph glyph-name="Abreve" unicode="&#x102;" horiz-adv-x="873" d="M283 994 C298 899 359 836 437 836 C514 836 575 898 589 991 L558 995 C553 963 505 941 437 941 C369 941 320 964 315 998 L283 994 L283 994 Z M322 19 L301 19 C233 19 202 72 219 153 L255 286 L487 286 L527 168 C557 78 531 18 460 18 L439 18 L439 -1 L867 -1 L867 18 L852 18 C800 18 745 74 713 159 L526 696 C526 696 509 769 501 769 L486 769 C492 738 437 708 349 696 L352 686 L352 686 L206 157 C179 73 115 18 44 18 L22 18 L22 -1 L323 -1 L322 19 L322 19 Z M259 301 L358 668 L482 301 L259 301 L259 301 Z " />
<glyph glyph-name="abreve" unicode="&#x103;" horiz-adv-x="535" d="M128 744 C143 649 204 586 281 586 C358 586 420 648 434 741 L403 745 C398 713 349 691 281 691 C213 691 164 714 159 748 L128 744 L128 744 Z M545 125 L532 130 C526 99 506 78 482 78 C458 78 442 96 442 122 C442 122 442 351 441 349 C441 460 377 510 281 510 C147 510 58 414 58 360 C58 312 92 280 142 280 C179 280 204 313 204 337 C204 358 184 377 184 406 C184 434 212 485 255 485 C277 485 292 460 292 404 L292 276 C79 210 28 184 28 101 C28 34 78 -10 153 -10 C190 -10 239 14 299 77 C315 26 359 -6 419 -6 C481 -6 531 46 545 124 L545 125 L545 125 Z M292 261 L292 121 C292 109 293 98 295 88 C271 66 249 57 230 57 C199 57 178 81 178 116 C178 210 200 232 291 261 L292 261 L292 261 Z " />
<glyph glyph-name="Cacute" unicode="&#x106;" horiz-adv-x="803" d="M481 810 L628 925 C660 951 682 971 682 980 C682 1020 648 1054 607 1054 C600 1054 582 1030 560 993 L462 829 L481 810 L481 810 Z M764 507 L764 760 L750 760 L746 737 C742 711 705 707 652 727 C635 735 616 742 595 747 C594 747 593 747 592 747 L592 747 C558 755 518 759 470 759 C204 759 27 605 27 374 C27 143 200 -11 460 -11 C509 -11 551 -6 588 3 C588 2 589 3 590 3 C606 7 621 12 635 18 C695 42 739 40 744 9 L748 -15 L762 -15 L762 241 L742 241 L733 216 C707 138 643 63 574 28 C540 11 504 1 464 1 C318 1 221 150 221 373 C221 596 323 744 475 744 C525 744 566 729 604 703 C659 664 708 598 731 529 L740 504 L764 507 L764 507 Z M738 132 L738 132 L738 132 L738 132 Z " />
<glyph glyph-name="Ccircumflex" unicode="&#x108;" horiz-adv-x="803" d="M764 507 L764 760 L750 760 L746 737 C742 711 705 707 652 727 C635 735 616 742 595 747 C594 747 593 747 592 747 L592 747 C558 755 518 759 470 759 C204 759 27 605 27 374 C27 143 200 -11 460 -11 C509 -11 551 -6 588 3 C588 2 589 3 590 3 C606 7 621 12 635 18 C695 42 739 40 744 9 L748 -15 L762 -15 L762 241 L742 241 L733 216 C707 138 643 63 574 28 C540 11 504 1 464 1 C318 1 221 150 221 373 C221 596 323 744 475 744 C525 744 566 729 604 703 C659 664 708 598 731 529 L740 504 L764 507 L764 507 Z M520 982 C510 998 484 1036 467 1036 C449 1036 424 999 414 983 L310 817 L330 800 L467 894 L604 800 L624 817 L520 982 L520 982 Z M738 132 L738 132 L738 132 L738 132 Z " />
<glyph glyph-name="Cdot" unicode="&#x10a;" horiz-adv-x="803" d="M471 865 C519 865 551 897 551 945 C551 993 519 1025 471 1025 C423 1025 391 993 391 945 C391 897 423 865 471 865 L471 865 Z M764 507 L764 760 L750 760 L746 737 C742 711 705 707 652 727 C635 735 616 742 595 747 C594 747 593 747 592 747 L592 747 C558 755 518 759 470 759 C204 759 27 605 27 374 C27 143 200 -11 460 -11 C509 -11 551 -6 588 3 C588 2 589 3 590 3 C606 7 621 12 635 18 C695 42 739 40 744 9 L748 -15 L762 -15 L762 241 L742 241 L733 216 C707 138 643 63 574 28 C540 11 504 1 464 1 C318 1 221 150 221 373 C221 596 323 744 475 744 C525 744 566 729 604 703 C659 664 708 598 731 529 L740 504 L764 507 L764 507 Z M738 132 L738 132 L738 132 L738 132 Z " />
<glyph glyph-name="cdot" unicode="&#x10b;" horiz-adv-x="578" d="M367 615 C415 615 447 647 447 695 C447 743 415 775 367 775 C319 775 287 743 287 695 C287 647 319 615 367 615 L367 615 Z M548 128 L541 131 C516 75 451 38 377 38 C276 38 208 134 208 279 C208 400 263 481 345 481 C360 481 381 451 398 405 C414 360 444 330 473 330 C534 330 564 360 548 405 C525 468 453 510 367 510 C174 510 45 400 45 234 C45 88 159 -10 331 -10 C424 -10 511 45 548 128 L548 128 Z " />
<glyph glyph-name="Ccaron" unicode="&#x10c;" horiz-adv-x="803" d="M608 1047 L471 953 L334 1047 L314 1030 L418 864 C428 848 453 811 471 811 C488 811 514 849 524 865 L628 1030 L608 1047 L608 1047 Z M764 507 L764 760 L750 760 L746 737 C742 711 705 707 652 727 C635 735 616 742 595 747 C594 747 593 747 592 747 L592 747 C558 755 518 759 470 759 C204 759 27 605 27 374 C27 143 200 -11 460 -11 C509 -11 551 -6 588 3 C588 2 589 3 590 3 C606 7 621 12 635 18 C695 42 739 40 744 9 L748 -15 L762 -15 L762 241 L742 241 L733 216 C707 138 643 63 574 28 C540 11 504 1 464 1 C318 1 221 150 221 373 C221 596 323 744 475 744 C525 744 566 729 604 703 C659 664 708 598 731 529 L740 504 L764 507 L764 507 Z M738 132 L738 132 L738 132 L738 132 Z " />
<glyph glyph-name="ccaron" unicode="&#x10d;" horiz-adv-x="578" d="M504 797 L367 703 L230 797 L210 780 L314 614 C324 598 349 561 367 561 C384 561 410 599 420 615 L524 780 L504 797 L504 797 Z M548 128 L541 131 C516 75 451 38 377 38 C276 38 208 134 208 279 C208 400 263 481 345 481 C360 481 381 451 398 405 C414 360 444 330 473 330 C534 330 564 360 548 405 C525 468 453 510 367 510 C174 510 45 400 45 234 C45 88 159 -10 331 -10 C424 -10 511 45 548 128 L548 128 Z " />
<glyph glyph-name="Dcaron" unicode="&#x10e;" horiz-adv-x="941" d="M550 1047 L413 953 L277 1047 L256 1030 L361 864 C371 848 396 811 414 811 C431 811 457 849 467 865 L571 1030 L550 1047 L550 1047 Z M376 11 C318 11 312 80 312 183 L312 739 L388 739 C588 739 691 593 691 375 C691 135 565 11 376 11 L376 11 Z M41 735 L55 735 C104 735 136 695 136 635 L136 115 C136 55 104 15 55 15 L41 15 L41 0 L392 0 C688 0 886 128 886 375 C886 600 732 750 432 750 L41 750 L41 735 L41 735 Z " />
<glyph glyph-name="dcaron" unicode="&#x10f;" horiz-adv-x="653" d="M633 755 C602 755 592 691 591 645 L587 532 L612 527 L668 629 C687 663 700 705 700 733 C700 749 673 755 633 755 L633 755 Z M638 60 L624 56 C575 43 543 74 543 134 L543 750 L468 750 L393 730 L393 729 L318 709 L318 699 L329 699 C367 700 393 664 393 607 L393 455 C360 488 314 510 264 510 C119 510 44 405 44 247 C44 96 124 -5 243 -5 C299 -5 357 22 392 64 L392 0 L467 0 C518 13 586 31 637 45 L638 60 L638 60 Z M392 375 L392 82 C374 66 341 56 305 56 C240 56 197 148 197 287 C197 393 230 463 295 463 C337 463 377 422 392 374 L392 375 L392 375 Z " />
<glyph glyph-name="Emacron" unicode="&#x112;" horiz-adv-x="724" d="M229 884 L529 884 L529 988 L229 988 L229 884 L229 884 Z M21 735 L38 735 C97 735 136 687 136 615 L136 135 C136 63 97 15 38 15 L21 15 L21 0 L647 0 L648 6 L649 6 C656 48 666 105 673 147 L658 147 L650 127 C627 62 557 18 472 13 C329 19 313 85 313 183 L313 385 L394 385 C472 385 532 336 545 262 L549 240 L564 240 L564 543 L549 543 L545 521 C532 447 472 398 394 398 L313 398 L313 738 L454 738 C532 738 598 689 620 615 L627 593 L642 593 C637 640 631 704 623 750 L22 750 L21 735 L21 735 Z " />
<glyph glyph-name="emacron" unicode="&#x113;" horiz-adv-x="574" d="M170 634 L470 634 L470 738 L170 738 L170 634 L170 634 Z M204 324 L544 324 C520 458 435 510 320 510 C155 510 45 430 45 225 C45 84 145 -10 295 -10 C399 -10 490 48 521 134 L515 135 C494 79 422 41 334 41 C245 41 195 168 204 324 L204 324 Z M376 336 L205 335 C213 446 251 490 306 490 C331 490 355 447 376 336 L376 336 Z " />
<glyph glyph-name="Ebreve" unicode="&#x114;" horiz-adv-x="724" d="M226 994 C241 899 302 836 379 836 C456 836 518 898 532 991 L501 995 C496 963 447 941 379 941 C311 941 262 964 257 998 L226 994 L226 994 Z M21 735 L38 735 C97 735 136 687 136 615 L136 135 C136 63 97 15 38 15 L21 15 L21 0 L647 0 L648 6 L649 6 C656 48 666 105 673 147 L658 147 L650 127 C627 62 557 18 472 13 C329 19 313 85 313 183 L313 385 L394 385 C472 385 532 336 545 262 L549 240 L564 240 L564 543 L549 543 L545 521 C532 447 472 398 394 398 L313 398 L313 738 L454 738 C532 738 598 689 620 615 L627 593 L642 593 C637 640 631 704 623 750 L22 750 L21 735 L21 735 Z " />
<glyph glyph-name="ebreve" unicode="&#x115;" horiz-adv-x="574" d="M167 744 C182 649 243 586 320 586 C397 586 459 648 473 741 L442 745 C437 713 388 691 320 691 C252 691 203 714 198 748 L167 744 L167 744 Z M204 324 L544 324 C520 458 435 510 320 510 C155 510 45 430 45 225 C45 84 145 -10 295 -10 C399 -10 490 48 521 134 L515 135 C494 79 422 41 334 41 C245 41 195 168 204 324 L204 324 Z M376 336 L205 335 C213 446 251 490 306 490 C331 490 355 447 376 336 L376 336 Z " />
<glyph glyph-name="Edot" unicode="&#x116;" horiz-adv-x="724" d="M379 865 C427 865 459 897 459 945 C459 993 427 1025 379 1025 C331 1025 299 993 299 945 C299 897 331 865 379 865 L379 865 Z M21 735 L38 735 C97 735 136 687 136 615 L136 135 C136 63 97 15 38 15 L21 15 L21 0 L647 0 L648 6 L649 6 C656 48 666 105 673 147 L658 147 L650 127 C627 62 557 18 472 13 C329 19 313 85 313 183 L313 385 L394 385 C472 385 532 336 545 262 L549 240 L564 240 L564 543 L549 543 L545 521 C532 447 472 398 394 398 L313 398 L313 738 L454 738 C532 738 598 689 620 615 L627 593 L642 593 C637 640 631 704 623 750 L22 750 L21 735 L21 735 Z " />
<glyph glyph-name="edot" unicode="&#x117;" horiz-adv-x="574" d="M320 615 C368 615 400 647 400 695 C400 743 368 775 320 775 C272 775 240 743 240 695 C240 647 272 615 320 615 L320 615 Z M204 324 L544 324 C520 458 435 510 320 510 C155 510 45 430 45 225 C45 84 145 -10 295 -10 C399 -10 490 48 521 134 L515 135 C494 79 422 41 334 41 C245 41 195 168 204 324 L204 324 Z M376 336 L205 335 C213 446 251 490 306 490 C331 490 355 447 376 336 L376 336 Z " />
<glyph glyph-name="Ecaron" unicode="&#x11a;" horiz-adv-x="724" d="M516 1047 L379 953 L242 1047 L222 1030 L326 864 C336 848 361 811 379 811 C396 811 422 849 432 865 L536 1030 L516 1047 L516 1047 Z M21 735 L38 735 C97 735 136 687 136 615 L136 135 C136 63 97 15 38 15 L21 15 L21 0 L647 0 L648 6 L649 6 C656 48 666 105 673 147 L658 147 L650 127 C627 62 557 18 472 13 C329 19 313 85 313 183 L313 385 L394 385 C472 385 532 336 545 262 L549 240 L564 240 L564 543 L549 543 L545 521 C532 447 472 398 394 398 L313 398 L313 738 L454 738 C532 738 598 689 620 615 L627 593 L642 593 C637 640 631 704 623 750 L22 750 L21 735 L21 735 Z " />
<glyph glyph-name="ecaron" unicode="&#x11b;" horiz-adv-x="574" d="M457 797 L320 703 L183 797 L163 780 L267 614 C277 598 302 561 320 561 C337 561 363 599 373 615 L477 780 L457 797 L457 797 Z M204 324 L544 324 C520 458 435 510 320 510 C155 510 45 430 45 225 C45 84 145 -10 295 -10 C399 -10 490 48 521 134 L515 135 C494 79 422 41 334 41 C245 41 195 168 204 324 L204 324 Z M376 336 L205 335 C213 446 251 490 306 490 C331 490 355 447 376 336 L376 336 Z " />
<glyph glyph-name="Gcircumflex" unicode="&#x11c;" horiz-adv-x="900" d="M764 507 L764 760 L750 760 L746 737 C742 711 705 707 652 727 C635 735 616 742 595 747 C594 747 593 747 592 747 L592 747 C558 755 518 759 470 759 C204 759 27 605 27 374 C27 143 206 -11 474 -11 C488 -11 574 -8 574 -6 L574 -6 L582 -4 C641 3 692 15 738 31 L747 33 C747 33 747 33 747 34 C770 42 792 51 814 61 L810 69 C793 61 773 54 748 48 L748 172 C748 253 784 307 837 307 L853 307 L853 326 L466 326 L466 307 L482 307 C535 307 571 253 571 172 L572 172 C573 89 544 27 504 27 C335 27 223 167 223 376 C223 599 325 747 477 747 C527 747 568 732 606 706 C661 667 710 601 733 532 L742 507 L764 507 L764 507 Z M522 985 C512 1001 486 1039 469 1039 C451 1039 426 1002 416 986 L312 820 L332 803 L469 897 L606 803 L626 820 L522 985 L522 985 Z " />
<glyph glyph-name="Gbreve" unicode="&#x11e;" horiz-adv-x="900" d="M318 994 C333 899 394 836 471 836 C548 836 610 898 624 991 L593 995 C588 963 539 941 471 941 C403 941 354 964 349 998 L318 994 L318 994 Z M764 507 L764 760 L750 760 L746 737 C742 711 705 707 652 727 C635 735 616 742 595 747 C594 747 593 747 592 747 L592 747 C558 755 518 759 470 759 C204 759 27 605 27 374 C27 143 206 -11 474 -11 C488 -11 574 -8 574 -6 L574 -6 L582 -4 C641 3 692 15 738 31 L747 33 C747 33 747 33 747 34 C770 42 792 51 814 61 L810 69 C793 61 773 54 748 48 L748 172 C748 253 784 307 837 307 L853 307 L853 326 L466 326 L466 307 L482 307 C535 307 571 253 571 172 L572 172 C573 89 544 27 504 27 C335 27 223 167 223 376 C223 599 325 747 477 747 C527 747 568 732 606 706 C661 667 710 601 733 532 L742 507 L764 507 L764 507 Z " />
<glyph glyph-name="gbreve" unicode="&#x11f;" horiz-adv-x="550" d="M111 744 C126 649 187 586 264 586 C341 586 403 648 417 741 L386 745 C381 713 332 691 264 691 C196 691 147 714 142 748 L111 744 L111 744 Z M578 440 C578 494 539 530 481 530 C451 530 419 510 396 477 C362 498 317 510 264 510 C141 510 59 446 59 350 C59 271 113 213 200 194 C105 183 45 144 45 91 C45 33 79 -10 133 -26 C78 -46 43 -79 43 -113 C43 -183 126 -230 279 -230 C432 -230 515 -157 515 -48 C515 51 464 117 332 117 L191 117 C158 117 136 128 136 144 C136 170 187 188 264 188 C386 188 468 253 468 350 C468 368 465 385 459 401 C478 387 497 374 513 374 C551 374 577 400 577 439 L578 440 L578 440 Z M263 200 C228 200 205 260 205 349 C205 437 228 496 263 496 C298 496 321 437 321 349 C321 260 298 200 263 200 L263 200 Z M152 -32 C162 -34 172 -35 182 -35 L315 -35 C389 -35 418 -60 418 -97 C418 -167 368 -214 277 -214 C177 -214 123 -166 123 -94 C123 -69 134 -47 152 -33 L152 -32 L152 -32 Z " />
<glyph glyph-name="Gdot" unicode="&#x120;" horiz-adv-x="900" d="M471 865 C519 865 551 897 551 945 C551 993 519 1025 471 1025 C423 1025 391 993 391 945 C391 897 423 865 471 865 L471 865 Z M764 507 L764 760 L750 760 L746 737 C742 711 705 707 652 727 C635 735 616 742 595 747 C594 747 593 747 592 747 L592 747 C558 755 518 759 470 759 C204 759 27 605 27 374 C27 143 206 -11 474 -11 C488 -11 574 -8 574 -6 L574 -6 L582 -4 C641 3 692 15 738 31 L747 33 C747 33 747 33 747 34 C770 42 792 51 814 61 L810 69 C793 61 773 54 748 48 L748 172 C748 253 784 307 837 307 L853 307 L853 326 L466 326 L466 307 L482 307 C535 307 571 253 571 172 L572 172 C573 89 544 27 504 27 C335 27 223 167 223 376 C223 599 325 747 477 747 C527 747 568 732 606 706 C661 667 710 601 733 532 L742 507 L764 507 L764 507 Z " />
<glyph glyph-name="gdot" unicode="&#x121;" horiz-adv-x="550" d="M264 615 C312 615 344 647 344 695 C344 743 312 775 264 775 C216 775 184 743 184 695 C184 647 216 615 264 615 L264 615 Z M578 440 C578 494 539 530 481 530 C451 530 419 510 396 477 C362 498 317 510 264 510 C141 510 59 446 59 350 C59 271 113 213 200 194 C105 183 45 144 45 91 C45 33 79 -10 133 -26 C78 -46 43 -79 43 -113 C43 -183 126 -230 279 -230 C432 -230 515 -157 515 -48 C515 51 464 117 332 117 L191 117 C158 117 136 128 136 144 C136 170 187 188 264 188 C386 188 468 253 468 350 C468 368 465 385 459 401 C478 387 497 374 513 374 C551 374 577 400 577 439 L578 440 L578 440 Z M263 200 C228 200 205 260 205 349 C205 437 228 496 263 496 C298 496 321 437 321 349 C321 260 298 200 263 200 L263 200 Z M152 -32 C162 -34 172 -35 182 -35 L315 -35 C389 -35 418 -60 418 -97 C418 -167 368 -214 277 -214 C177 -214 123 -166 123 -94 C123 -69 134 -47 152 -33 L152 -32 L152 -32 Z " />
<glyph glyph-name="Hcircumflex" unicode="&#x124;" horiz-adv-x="957" d="M540 985 C530 1001 504 1039 487 1039 C469 1039 444 1002 434 986 L330 820 L350 803 L487 897 L624 803 L644 820 L540 985 L540 985 Z M897 15 L883 15 C834 15 802 55 802 115 L802 635 C802 695 834 735 883 735 L897 735 L897 750 L531 750 L531 735 L545 735 C594 735 626 695 626 635 L626 397 L348 397 L348 635 C348 695 380 735 429 735 L443 735 L443 750 L77 750 L77 735 L91 735 C140 735 172 695 172 635 L172 115 C172 55 140 15 91 15 L77 15 L77 0 L443 0 L443 15 L429 15 C380 15 348 55 348 115 L348 383 L626 383 L626 115 C626 55 594 15 545 15 L531 15 L531 0 L897 0 L897 15 L897 15 Z " />
<glyph glyph-name="Itilde" unicode="&#x128;" horiz-adv-x="443" d="M58 870 C58 899 74 919 97 919 C146 919 210 854 259 854 C314 854 350 920 350 1019 L342 1019 C342 983 323 959 294 959 C245 959 181 1024 132 1024 C83 1024 50 962 50 870 L58 870 L58 870 Z M383 15 L369 15 C320 15 288 55 288 115 L288 635 C288 695 320 735 369 735 L383 735 L383 750 L17 750 L17 735 L31 735 C80 735 112 695 112 635 L112 115 C112 55 80 15 31 15 L17 15 L17 0 L383 0 L383 15 L383 15 Z " />
<glyph glyph-name="itilde" unicode="&#x129;" horiz-adv-x="389" d="M52 620 C52 649 68 669 91 669 C140 669 204 604 253 604 C308 604 344 670 344 769 L336 769 C336 733 317 709 288 709 C239 709 175 774 126 774 C77 774 44 712 44 620 L52 620 L52 620 Z M44 445 L55 448 C93 458 119 439 119 400 L119 80 C119 41 93 15 55 15 L44 15 L44 0 L344 0 L344 15 L333 15 C295 15 269 41 269 80 L269 500 L194 500 L44 460 L44 445 L44 445 Z " />
<glyph glyph-name="Imacron" unicode="&#x12a;" horiz-adv-x="443" d="M50 884 L350 884 L350 988 L50 988 L50 884 L50 884 Z M383 15 L369 15 C320 15 288 55 288 115 L288 635 C288 695 320 735 369 735 L383 735 L383 750 L17 750 L17 735 L31 735 C80 735 112 695 112 635 L112 115 C112 55 80 15 31 15 L17 15 L17 0 L383 0 L383 15 L383 15 Z " />
<glyph glyph-name="imacron" unicode="&#x12b;" horiz-adv-x="389" d="M44 634 L344 634 L344 738 L44 738 L44 634 L44 634 Z M44 445 L55 448 C93 458 119 439 119 400 L119 80 C119 41 93 15 55 15 L44 15 L44 0 L344 0 L344 15 L333 15 C295 15 269 41 269 80 L269 500 L194 500 L44 460 L44 445 L44 445 Z " />
<glyph glyph-name="Ibreve" unicode="&#x12c;" horiz-adv-x="443" d="M47 994 C62 899 123 836 200 836 C277 836 339 898 353 991 L322 995 C317 963 268 941 200 941 C132 941 83 964 78 998 L47 994 L47 994 Z M383 15 L369 15 C320 15 288 55 288 115 L288 635 C288 695 320 735 369 735 L383 735 L383 750 L17 750 L17 735 L31 735 C80 735 112 695 112 635 L112 115 C112 55 80 15 31 15 L17 15 L17 0 L383 0 L383 15 L383 15 Z " />
<glyph glyph-name="ibreve" unicode="&#x12d;" horiz-adv-x="389" d="M41 744 C56 649 117 586 194 586 C271 586 333 648 347 741 L316 745 C311 713 262 691 194 691 C126 691 77 714 72 748 L41 744 L41 744 Z M44 445 L55 448 C93 458 119 439 119 400 L119 80 C119 41 93 15 55 15 L44 15 L44 0 L344 0 L344 15 L333 15 C295 15 269 41 269 80 L269 500 L194 500 L44 460 L44 445 L44 445 Z " />
<glyph glyph-name="Idot" unicode="&#x130;" horiz-adv-x="443" d="M200 865 C248 865 280 897 280 945 C280 993 248 1025 200 1025 C152 1025 120 993 120 945 C120 897 152 865 200 865 L200 865 Z M383 15 L369 15 C320 15 288 55 288 115 L288 635 C288 695 320 735 369 735 L383 735 L383 750 L17 750 L17 735 L31 735 C80 735 112 695 112 635 L112 115 C112 55 80 15 31 15 L17 15 L17 0 L383 0 L383 15 L383 15 Z " />
<glyph glyph-name="dotlessi" unicode="&#x131;" horiz-adv-x="389" d="M44 445 L55 448 C93 458 119 439 119 400 L119 80 C119 41 93 15 55 15 L44 15 L44 0 L344 0 L344 15 L333 15 C295 15 269 41 269 80 L269 500 L194 500 L44 460 L44 445 L44 445 Z " />
<glyph glyph-name="Jcircumflex" unicode="&#x134;" horiz-adv-x="443" d="M253 985 C243 1001 217 1039 200 1039 C182 1039 157 1002 147 986 L43 820 L63 803 L200 897 L337 803 L357 820 L253 985 L253 985 Z M383 750 L17 750 L17 735 L31 735 C78 735 109 698 112 642 C112 451 111 54 111 -146 C111 -193 47 -202 1 -202 C-86 -202 -44 -61 -131 -61 C-179 -61 -211 -93 -211 -140 C-211 -189 -132 -221 -13 -221 C114 -221 289 -156 289 188 C289 301 289 515 289 644 C292 699 323 735 369 735 L383 735 L383 750 L383 750 Z " />
<glyph glyph-name="Lacute" unicode="&#x139;" horiz-adv-x="708" d="M210 810 L357 925 C389 951 411 971 411 980 C411 1020 377 1054 336 1054 C329 1054 311 1030 289 993 L191 829 L210 810 L210 810 Z M383 750 L17 750 L17 735 L31 735 C80 735 112 695 112 635 L112 115 C112 55 80 15 31 15 L17 15 L17 0 L623 0 L624 15 L623 15 L623 21 C631 65 641 122 649 165 L634 165 L626 145 C602 80 532 35 446 30 C304 36 288 95 288 182 L288 634 C288 694 320 734 369 734 L383 734 L383 750 L383 750 Z " />
<glyph glyph-name="Lcaron" unicode="&#x13d;" horiz-adv-x="708" d="M488 806 C457 806 447 742 446 696 L442 583 L467 578 L523 680 C542 714 555 756 555 784 C555 800 528 806 488 806 L488 806 Z M383 750 L17 750 L17 735 L31 735 C80 735 112 695 112 635 L112 115 C112 55 80 15 31 15 L17 15 L17 0 L623 0 L624 15 L623 15 L623 21 C631 65 641 122 649 165 L634 165 L626 145 C602 80 532 35 446 30 C304 36 288 95 288 182 L288 634 C288 694 320 734 369 734 L383 734 L383 750 L383 750 Z " />
<glyph glyph-name="lcaron" unicode="&#x13e;" horiz-adv-x="333" d="M318 756 C287 756 277 692 276 646 L272 533 L297 528 L353 630 C372 664 385 706 385 734 C385 750 358 756 318 756 L318 756 Z M3 700 L14 700 C52 701 78 665 78 608 L78 80 C78 41 52 15 14 15 L3 15 L3 0 L303 0 L303 15 L292 15 C254 15 228 41 228 80 L228 750 L153 750 L3 710 L3 700 L3 700 Z " />
<glyph glyph-name="Nacute" unicode="&#x143;" horiz-adv-x="840" d="M323 810 L471 925 C503 951 525 971 525 980 C525 1020 491 1054 450 1054 C442 1054 424 1030 402 993 L304 829 L323 810 L323 810 Z M-72 735 L-57 735 C-12 735 49 699 98 645 L143 591 L142 115 L142 115 C142 55 109 15 61 15 L47 15 L47 0 L290 0 L290 15 L276 15 C227 15 195 55 194 115 L190 535 C338 357 487 179 636 1 L671 1 C675 213 679 425 683 636 C684 696 717 736 765 736 L780 736 L780 751 L537 751 L537 736 L551 736 C600 736 632 696 632 636 L633 636 L635 281 C500 438 365 595 230 752 L-72 752 L-72 735 L-72 735 Z " />
<glyph glyph-name="Ncaron" unicode="&#x147;" horiz-adv-x="840" d="M550 1047 L413 953 L277 1047 L256 1030 L361 864 C371 848 396 811 414 811 C431 811 457 849 467 865 L571 1030 L550 1047 L550 1047 Z M-72 735 L-57 735 C-12 735 49 699 98 645 L143 591 L142 115 L142 115 C142 55 109 15 61 15 L47 15 L47 0 L290 0 L290 15 L276 15 C227 15 195 55 194 115 L190 535 C338 357 487 179 636 1 L671 1 C675 213 679 425 683 636 C684 696 717 736 765 736 L780 736 L780 751 L537 751 L537 736 L551 736 C600 736 632 696 632 636 L633 636 L635 281 C500 438 365 595 230 752 L-72 752 L-72 735 L-72 735 Z " />
<glyph glyph-name="ncaron" unicode="&#x148;" horiz-adv-x="655" d="M451 797 L314 703 L177 797 L157 780 L261 614 C271 598 296 561 314 561 C331 561 357 599 367 615 L471 780 L451 797 L451 797 Z M3 450 L14 450 C52 451 78 415 78 358 L78 80 C78 41 52 15 14 15 L3 15 L3 0 L303 0 L303 15 L292 15 C254 15 228 41 228 80 L228 375 C251 414 294 440 337 440 C379 440 400 388 400 311 L400 80 C400 41 374 15 336 15 L325 15 L325 0 L625 0 L625 15 L614 15 C576 15 550 41 550 80 L550 311 C550 430 501 510 405 510 C337 510 266 466 228 401 L228 500 L153 500 L3 460 L3 450 L3 450 Z " />
<glyph glyph-name="Omacron" unicode="&#x14c;" horiz-adv-x="934" d="M299 884 L599 884 L599 988 L299 988 L299 884 L299 884 Z M221 375 C221 598 311 746 447 746 C591 746 687 598 687 375 C687 152 589 4 442 4 C309 4 221 152 221 375 L221 375 Z M29 375 C29 144 193 -10 439 -10 C703 -10 879 144 879 375 C879 606 707 760 449 760 C197 760 29 606 29 375 L29 375 Z " />
<glyph glyph-name="omacron" unicode="&#x14d;" horiz-adv-x="631" d="M166 634 L466 634 L466 738 L166 738 L166 634 L166 634 Z M211 250 C211 398 253 496 316 496 C379 496 421 398 421 250 C421 102 379 4 316 4 C253 4 211 102 211 250 L211 250 Z M45 250 C45 94 153 -10 316 -10 C478 -10 586 94 586 250 C586 406 478 510 316 510 C153 510 45 406 45 250 L45 250 Z " />
<glyph glyph-name="Obreve" unicode="&#x14e;" horiz-adv-x="934" d="M296 994 C311 899 372 836 449 836 C526 836 588 898 602 991 L571 995 C566 963 517 941 449 941 C381 941 332 964 327 998 L296 994 L296 994 Z M221 375 C221 598 311 746 447 746 C591 746 687 598 687 375 C687 152 589 4 442 4 C309 4 221 152 221 375 L221 375 Z M29 375 C29 144 193 -10 439 -10 C703 -10 879 144 879 375 C879 606 707 760 449 760 C197 760 29 606 29 375 L29 375 Z " />
<glyph glyph-name="obreve" unicode="&#x14f;" horiz-adv-x="631" d="M163 744 C178 649 239 586 316 586 C393 586 455 648 469 741 L438 745 C433 713 384 691 316 691 C248 691 199 714 194 748 L163 744 L163 744 Z M211 250 C211 398 253 496 316 496 C379 496 421 398 421 250 C421 102 379 4 316 4 C253 4 211 102 211 250 L211 250 Z M45 250 C45 94 153 -10 316 -10 C478 -10 586 94 586 250 C586 406 478 510 316 510 C153 510 45 406 45 250 L45 250 Z " />
<glyph glyph-name="Racute" unicode="&#x154;" horiz-adv-x="894" d="M330 810 L477 925 C509 951 531 971 531 980 C531 1020 497 1054 456 1054 C449 1054 431 1030 409 993 L311 829 L330 810 L330 810 Z M41 735 L55 735 C104 735 136 695 136 635 L136 115 C136 55 104 15 55 15 L41 15 L41 0 L407 0 L407 15 L393 15 C344 15 312 55 312 115 L312 336 L349 336 C379 294 456 198 558 75 C618 3 631 0 884 0 L884 26 C809 26 804 28 765 75 C656 205 572 305 530 355 C635 383 698 441 698 534 C698 664 560 750 353 750 L40 750 L41 735 L41 735 Z M311 380 L311 714 C427 711 503 654 503 570 C503 440 443 381 353 381 L311 380 L311 380 Z " />
<glyph glyph-name="Rcaron" unicode="&#x158;" horiz-adv-x="894" d="M457 1047 L320 953 L183 1047 L163 1030 L267 864 C277 848 302 811 320 811 C337 811 363 849 373 865 L477 1030 L457 1047 L457 1047 Z M41 735 L55 735 C104 735 136 695 136 635 L136 115 C136 55 104 15 55 15 L41 15 L41 0 L407 0 L407 15 L393 15 C344 15 312 55 312 115 L312 336 L349 336 C379 294 456 198 558 75 C618 3 631 0 884 0 L884 26 C809 26 804 28 765 75 C656 205 572 305 530 355 C635 383 698 441 698 534 C698 664 560 750 353 750 L40 750 L41 735 L41 735 Z M311 380 L311 714 C427 711 503 654 503 570 C503 440 443 381 353 381 L311 380 L311 380 Z " />
<glyph glyph-name="rcaron" unicode="&#x159;" horiz-adv-x="513" d="M427 797 L290 703 L153 797 L133 780 L237 614 C247 598 272 561 290 561 C307 561 333 599 343 615 L447 780 L427 797 L427 797 Z M4 450 L15 450 C53 451 79 415 79 358 L79 80 C79 41 53 15 15 15 L4 15 L4 0 L304 0 L304 15 L293 15 C255 15 229 41 229 80 L229 381 C247 420 278 444 311 444 C336 444 352 428 352 405 C352 361 382 332 428 332 C474 332 504 361 504 405 C504 468 452 510 375 510 C313 510 257 469 230 406 L230 500 L155 500 L5 460 L4 450 L4 450 Z " />
<glyph glyph-name="Sacute" unicode="&#x15a;" horiz-adv-x="560" d="M283 810 L431 925 C463 951 485 971 485 980 C485 1020 451 1054 410 1054 C402 1054 384 1030 362 993 L264 829 L283 810 L283 810 Z M461 634 L461 634 L461 634 L461 634 Z M44 258 L44 -13 L58 -13 L62 14 C68 53 159 25 204 0 L205 1 C228 -6 251 -10 275 -10 C423 -10 522 82 522 220 C522 326 456 420 328 467 C236 500 189 553 189 605 C189 690 224 746 276 746 C279 746 310 743 309 741 C365 726 425 652 459 556 L468 532 L488 532 L488 767 L474 767 L470 747 C466 724 417 729 369 746 C352 757 334 765 317 770 L314 759 C159 779 53 683 53 539 C53 424 111 326 223 285 C328 247 382 205 382 171 C382 37 300 -30 204 36 C156 71 106 148 75 237 L66 261 L44 258 L44 258 Z " />
<glyph glyph-name="Scircumflex" unicode="&#x15c;" horiz-adv-x="560" d="M327 985 C317 1001 291 1039 274 1039 C256 1039 231 1002 221 986 L116 820 L137 803 L273 897 L410 803 L431 820 L327 985 L327 985 Z M461 634 L461 634 L461 634 L461 634 Z M44 258 L44 -13 L58 -13 L62 14 C68 53 159 25 204 0 L205 1 C228 -6 251 -10 275 -10 C423 -10 522 82 522 220 C522 326 456 420 328 467 C236 500 189 553 189 605 C189 690 224 746 276 746 C279 746 310 743 309 741 C365 726 425 652 459 556 L468 532 L488 532 L488 767 L474 767 L470 747 C466 724 417 729 369 746 C352 757 334 765 317 770 L314 759 C159 779 53 683 53 539 C53 424 111 326 223 285 C328 247 382 205 382 171 C382 37 300 -30 204 36 C156 71 106 148 75 237 L66 261 L44 258 L44 258 Z " />
<glyph glyph-name="Scaron" unicode="&#x160;" horiz-adv-x="560" d="M410 1047 L273 953 L137 1047 L116 1030 L221 864 C231 848 256 811 274 811 C291 811 317 849 327 865 L431 1030 L410 1047 L410 1047 Z M461 634 L461 634 L461 634 L461 634 Z M44 258 L44 -13 L58 -13 L62 14 C68 53 159 25 204 0 L205 1 C228 -6 251 -10 275 -10 C423 -10 522 82 522 220 C522 326 456 420 328 467 C236 500 189 553 189 605 C189 690 224 746 276 746 C279 746 310 743 309 741 C365 726 425 652 459 556 L468 532 L488 532 L488 767 L474 767 L470 747 C466 724 417 729 369 746 C352 757 334 765 317 770 L314 759 C159 779 53 683 53 539 C53 424 111 326 223 285 C328 247 382 205 382 171 C382 37 300 -30 204 36 C156 71 106 148 75 237 L66 261 L44 258 L44 258 Z " />
<glyph glyph-name="scaron" unicode="&#x161;" horiz-adv-x="502" d="M384 797 L247 703 L110 797 L90 780 L194 614 C204 598 229 561 247 561 C264 561 290 599 300 615 L404 780 L384 797 L384 797 Z M420 325 L420 522 L409 522 L406 506 C405 499 365 499 304 506 C287 513 269 517 251 517 L251 511 C134 511 56 448 56 354 C56 282 109 219 211 192 C291 171 332 137 332 104 C332 51 296 15 241 15 C240 15 230 15 230 16 C179 22 120 87 81 180 L73 201 L61 201 L61 -15 L72 -15 L75 3 C77 13 117 12 177 0 C193 -4 211 -9 228 -11 L228 -9 C361 -17 453 53 453 153 C453 226 396 289 285 319 C216 338 180 373 180 411 C180 470 228 506 284 483 L284 482 C285 482 286 482 287 482 C329 463 371 413 400 346 L409 325 L420 325 L420 325 Z " />
<glyph glyph-name="Tcaron" unicode="&#x164;" horiz-adv-x="775" d="M527 1047 L390 953 L253 1047 L233 1030 L337 864 C347 848 372 811 390 811 C407 811 433 849 443 865 L547 1030 L527 1047 L527 1047 Z M688 805 L684 797 C672 769 613 750 535 750 L241 750 C163 750 104 769 92 797 L88 805 L77 805 C68 782 55 751 46 728 L55 728 L55 718 C37 672 14 614 -4 570 L11 570 L23 590 C64 659 145 705 226 705 L299 705 L299 114 C299 54 267 14 218 14 L204 14 L204 -1 L571 -1 L571 14 L557 14 C508 14 476 54 476 114 L476 705 L551 705 C632 705 713 659 754 590 L766 570 L781 570 C763 615 739 675 720 721 L720 726 L730 726 C721 749 708 780 699 803 L688 805 L688 805 Z " />
<glyph glyph-name="tcaron" unicode="&#x165;" horiz-adv-x="450" d="M396 500 L245 500 L245 620 L234 620 L30 431 L30 421 L95 421 L95 217 C95 54 164 -10 268 -10 C371 -10 440 56 440 154 L421 154 C421 98 378 61 314 61 C270 61 241 95 241 184 L245 421 L396 421 L396 500 L396 500 Z M500 756 C469 756 459 692 458 646 L454 533 L479 528 L535 630 C554 664 567 706 567 734 C567 750 540 756 500 756 L500 756 Z " />
<glyph glyph-name="Utilde" unicode="&#x168;" horiz-adv-x="894" d="M293 870 C293 899 309 919 332 919 C381 919 445 854 494 854 C549 854 585 920 585 1019 L577 1019 C577 983 558 959 529 959 C480 959 416 1024 367 1024 C318 1024 285 962 285 870 L293 870 L293 870 Z M864 65 L850 61 C801 48 769 79 769 139 L769 750 L498 750 L498 735 L512 735 C561 735 593 695 593 635 L593 216 C562 149 495 104 427 104 C337 104 277 150 277 220 L277 750 L6 750 L6 735 L20 735 C69 735 101 695 101 635 L101 220 C101 82 203 -10 356 -10 C457 -10 552 48 593 136 L593 0 L681 0 L769 24 C802 33 835 42 864 50 L864 65 L864 65 Z " />
<glyph glyph-name="utilde" unicode="&#x169;" horiz-adv-x="646" d="M168 620 C168 649 184 669 207 669 C256 669 320 604 369 604 C424 604 460 670 460 769 L452 769 C452 733 433 709 404 709 C355 709 291 774 242 774 C193 774 160 712 160 620 L168 620 L168 620 Z M631 57 L618 54 C575 43 546 75 546 135 L546 500 L321 500 L321 485 L332 485 C370 485 396 459 396 420 L396 138 C379 111 341 94 297 94 C253 94 223 120 223 160 L223 500 L-2 500 L-2 485 L9 485 C47 485 73 459 73 420 L73 160 C73 58 134 -10 226 -10 C295 -10 361 42 395 122 L395 0 L470 0 C518 12 582 29 630 42 L631 57 L631 57 Z " />
<glyph glyph-name="Umacron" unicode="&#x16a;" horiz-adv-x="894" d="M285 884 L585 884 L585 988 L285 988 L285 884 L285 884 Z M864 65 L850 61 C801 48 769 79 769 139 L769 750 L498 750 L498 735 L512 735 C561 735 593 695 593 635 L593 216 C562 149 495 104 427 104 C337 104 277 150 277 220 L277 750 L6 750 L6 735 L20 735 C69 735 101 695 101 635 L101 220 C101 82 203 -10 356 -10 C457 -10 552 48 593 136 L593 0 L681 0 L769 24 C802 33 835 42 864 50 L864 65 L864 65 Z " />
<glyph glyph-name="umacron" unicode="&#x16b;" horiz-adv-x="646" d="M160 634 L460 634 L460 738 L160 738 L160 634 L160 634 Z M631 57 L618 54 C575 43 546 75 546 135 L546 500 L321 500 L321 485 L332 485 C370 485 396 459 396 420 L396 138 C379 111 341 94 297 94 C253 94 223 120 223 160 L223 500 L-2 500 L-2 485 L9 485 C47 485 73 459 73 420 L73 160 C73 58 134 -10 226 -10 C295 -10 361 42 395 122 L395 0 L470 0 C518 12 582 29 630 42 L631 57 L631 57 Z " />
<glyph glyph-name="Ubreve" unicode="&#x16c;" horiz-adv-x="894" d="M282 994 C297 899 358 836 435 836 C512 836 574 898 588 991 L557 995 C552 963 503 941 435 941 C367 941 318 964 313 998 L282 994 L282 994 Z M864 65 L850 61 C801 48 769 79 769 139 L769 750 L498 750 L498 735 L512 735 C561 735 593 695 593 635 L593 216 C562 149 495 104 427 104 C337 104 277 150 277 220 L277 750 L6 750 L6 735 L20 735 C69 735 101 695 101 635 L101 220 C101 82 203 -10 356 -10 C457 -10 552 48 593 136 L593 0 L681 0 L769 24 C802 33 835 42 864 50 L864 65 L864 65 Z " />
<glyph glyph-name="ubreve" unicode="&#x16d;" horiz-adv-x="646" d="M157 744 C172 649 233 586 310 586 C387 586 449 648 463 741 L432 745 C427 713 378 691 310 691 C242 691 193 714 188 748 L157 744 L157 744 Z M631 57 L618 54 C575 43 546 75 546 135 L546 500 L321 500 L321 485 L332 485 C370 485 396 459 396 420 L396 138 C379 111 341 94 297 94 C253 94 223 120 223 160 L223 500 L-2 500 L-2 485 L9 485 C47 485 73 459 73 420 L73 160 C73 58 134 -10 226 -10 C295 -10 361 42 395 122 L395 0 L470 0 C518 12 582 29 630 42 L631 57 L631 57 Z " />
<glyph glyph-name="Uring" unicode="&#x16e;" horiz-adv-x="894" d="M379 905 C379 941 401 965 435 965 C469 965 491 941 491 905 C491 873 465 845 435 845 C405 845 379 873 379 905 L379 905 Z M335 905 C335 854 381 810 435 810 C489 810 535 854 535 905 C535 962 495 1000 435 1000 C375 1000 335 962 335 905 L335 905 Z M864 65 L850 61 C801 48 769 79 769 139 L769 750 L498 750 L498 735 L512 735 C561 735 593 695 593 635 L593 216 C562 149 495 104 427 104 C337 104 277 150 277 220 L277 750 L6 750 L6 735 L20 735 C69 735 101 695 101 635 L101 220 C101 82 203 -10 356 -10 C457 -10 552 48 593 136 L593 0 L681 0 L769 24 C802 33 835 42 864 50 L864 65 L864 65 Z " />
<glyph glyph-name="uring" unicode="&#x16f;" horiz-adv-x="646" d="M254 655 C254 691 276 715 310 715 C344 715 366 691 366 655 C366 623 340 595 310 595 C280 595 254 623 254 655 L254 655 Z M210 655 C210 604 256 560 310 560 C364 560 410 604 410 655 C410 712 370 750 310 750 C250 750 210 712 210 655 L210 655 Z M631 57 L618 54 C575 43 546 75 546 135 L546 500 L321 500 L321 485 L332 485 C370 485 396 459 396 420 L396 138 C379 111 341 94 297 94 C253 94 223 120 223 160 L223 500 L-2 500 L-2 485 L9 485 C47 485 73 459 73 420 L73 160 C73 58 134 -10 226 -10 C295 -10 361 42 395 122 L395 0 L470 0 C518 12 582 29 630 42 L631 57 L631 57 Z " />
<glyph glyph-name="Wcircumflex" unicode="&#x174;" horiz-adv-x="1215" d="M527 601 L527 601 C544 567 562 533 578 500 L496 212 L316 616 C290 685 307 730 360 730 L386 730 C432 730 489 678 528 600 L527 601 L527 601 Z M635 984 C625 1000 599 1038 582 1038 C564 1038 539 1001 529 985 L424 819 L445 802 L581 896 L718 802 L739 819 L635 984 L635 984 Z M-14 730 L-1 730 C40 730 92 683 130 611 C231 404 332 197 434 -10 L478 -10 L616 429 C690 283 764 137 838 -9 L882 -9 C941 195 1000 399 1059 602 C1082 680 1132 732 1186 732 L1202 732 L1202 751 L878 751 L878 732 L901 732 C974 732 1012 684 997 611 L903 245 L720 607 C684 682 703 732 767 732 L787 732 L787 751 L-14 751 L-14 730 L-14 730 Z " />
<glyph glyph-name="Ycircumflex" unicode="&#x176;" horiz-adv-x="834" d="M226 0 L632 0 L632 15 L615 15 C556 15 517 63 517 135 L517 332 C569 431 620 531 672 630 C705 693 762 735 815 735 L831 735 L831 750 L571 750 L571 735 L594 735 C654 735 677 697 652 639 L511 349 L336 630 C297 693 306 735 360 735 L376 735 L376 750 L-17 750 L-17 735 L-5 735 C36 735 90 693 131 630 L131 630 L341 308 L341 135 C341 63 302 15 243 15 L226 15 L226 0 L226 0 Z M482 985 C472 1001 446 1039 429 1039 C411 1039 386 1002 376 986 L272 820 L292 803 L429 897 L566 803 L586 820 L482 985 L482 985 Z " />
<glyph glyph-name="Ydieresis" unicode="&#x178;" horiz-adv-x="834" d="M515 865 C563 865 595 897 595 945 C595 993 563 1025 515 1025 C467 1025 435 993 435 945 C435 897 467 865 515 865 L515 865 Z M343 865 C391 865 423 897 423 945 C423 993 391 1025 343 1025 C295 1025 263 993 263 945 C263 897 295 865 343 865 L343 865 Z M226 0 L632 0 L632 15 L615 15 C556 15 517 63 517 135 L517 332 C569 431 620 531 672 630 C705 693 762 735 815 735 L831 735 L831 750 L571 750 L571 735 L594 735 C654 735 677 697 652 639 L511 349 L336 630 C297 693 306 735 360 735 L376 735 L376 750 L-17 750 L-17 735 L-5 735 C36 735 90 693 131 630 L131 630 L341 308 L341 135 C341 63 302 15 243 15 L226 15 L226 0 L226 0 Z " />
<glyph glyph-name="Zacute" unicode="&#x179;" horiz-adv-x="657" d="M349 810 L496 925 C528 951 550 971 550 980 C550 1020 516 1054 475 1054 C468 1054 450 1030 428 993 L330 829 L349 810 L349 810 Z M69 566 L75 587 C94 654 165 701 255 705 L423 709 L25 34 L25 -1 L606 -1 L612 25 C612 25 627 90 649 187 L634 187 L625 166 C597 100 522 53 433 46 L230 40 L610 714 L610 749 L70 749 L68 725 C68 725 62 661 54 565 L69 566 L69 566 Z " />
<glyph glyph-name="Zdot" unicode="&#x17b;" horiz-adv-x="657" d="M339 865 C387 865 419 897 419 945 C419 993 387 1025 339 1025 C291 1025 259 993 259 945 C259 897 291 865 339 865 L339 865 Z M69 566 L75 587 C94 654 165 701 255 705 L423 709 L25 34 L25 -1 L606 -1 L612 25 C612 25 627 90 649 187 L634 187 L625 166 C597 100 522 53 433 46 L230 40 L610 714 L610 749 L70 749 L68 725 C68 725 62 661 54 565 L69 566 L69 566 Z " />
<glyph glyph-name="zdot" unicode="&#x17c;" horiz-adv-x="510" d="M276 615 C324 615 356 647 356 695 C356 743 324 775 276 775 C228 775 196 743 196 695 C196 647 228 615 276 615 L276 615 Z M470 160 L464 144 C446 93 388 55 317 46 L223 42 L470 464 L470 499 L173 499 C120 499 90 513 99 541 L81 541 C60 452 65 480 28 338 L45 338 L53 354 C80 406 145 443 219 452 L290 455 L39 33 L39 -2 L464 -2 L464 24 L472 24 C472 24 478 78 486 158 L470 160 L470 160 Z " />
<glyph glyph-name="Zcaron" unicode="&#x17d;" horiz-adv-x="657" d="M476 1047 L339 953 L202 1047 L182 1030 L286 864 C296 848 321 811 339 811 C356 811 382 849 392 865 L496 1030 L476 1047 L476 1047 Z M69 566 L75 587 C94 654 165 701 255 705 L423 709 L25 34 L25 -1 L606 -1 L612 25 C612 25 627 90 649 187 L634 187 L625 166 C597 100 522 53 433 46 L230 40 L610 714 L610 749 L70 749 L68 725 C68 725 62 661 54 565 L69 566 L69 566 Z " />
<glyph glyph-name="zcaron" unicode="&#x17e;" horiz-adv-x="510" d="M413 797 L276 703 L139 797 L119 780 L223 614 C233 598 258 561 276 561 C293 561 319 599 329 615 L433 780 L413 797 L413 797 Z M470 160 L464 144 C446 93 388 55 317 46 L223 42 L470 464 L470 499 L173 499 C120 499 90 513 99 541 L81 541 C60 452 65 480 28 338 L45 338 L53 354 C80 406 145 443 219 452 L290 455 L39 33 L39 -2 L464 -2 L464 24 L472 24 C472 24 478 78 486 158 L470 160 L470 160 Z " />
<glyph glyph-name="oogonek" unicode="&#x1eb;" horiz-adv-x="835" d="M1060 -54 L1056 -50 C1025 -76 905 -94 757 -94 C606 -94 457 -61 356 -8 C608 -26 785 103 785 293 C785 474 633 594 405 594 C182 594 34 474 34 293 C34 199 73 121 140 68 C329 -93 566 -200 738 -200 C827 -200 956 -142 1060 -54 L1060 -54 Z M321 11 C308 19 297 27 287 36 C237 85 207 176 207 292 C207 465 285 581 402 581 C528 581 612 465 612 292 C612 114 520 -4 383 -4 C361 -4 340 1 321 11 L321 11 Z " />
<glyph glyph-name="Adotabove" unicode="&#x226;" horiz-adv-x="873" d="M437 865 C485 865 517 897 517 945 C517 993 485 1025 437 1025 C389 1025 357 993 357 945 C357 897 389 865 437 865 L437 865 Z M322 19 L301 19 C233 19 202 72 219 153 L255 286 L487 286 L527 168 C557 78 531 18 460 18 L439 18 L439 -1 L867 -1 L867 18 L852 18 C800 18 745 74 713 159 L526 696 C526 696 509 769 501 769 L486 769 C492 738 437 708 349 696 L352 686 L352 686 L206 157 C179 73 115 18 44 18 L22 18 L22 -1 L323 -1 L322 19 L322 19 Z M259 301 L358 668 L482 301 L259 301 L259 301 Z " />
<glyph glyph-name="G_sc" unicode="&#x262;" horiz-adv-x="808" d="M673 371 L673 621 L659 621 L655 597 C651 571 611 564 553 578 C545 580 537 582 528 584 C515 591 503 596 492 599 L489 590 C469 592 446 593 421 593 C188 593 33 473 33 292 C33 111 191 -10 428 -10 C452 -10 475 -9 497 -7 C499 -9 500 -10 500 -10 C500 -10 500 -9 500 -8 C500 -9 500 -9 500 -9 L543 1 C568 6 592 12 615 19 L655 29 C655 29 655 30 655 33 C678 42 701 52 724 63 L720 70 C701 61 680 53 656 46 L656 101 C656 182 692 236 745 236 L761 236 L761 255 L392 255 L392 236 L408 236 C457 236 491 190 496 119 C491 61 475 24 454 24 C306 24 208 132 208 294 C208 467 295 583 426 583 C434 583 486 578 485 575 C553 556 617 486 644 400 L653 373 L673 371 L673 371 Z " />
<glyph glyph-name="I_sc" unicode="&#x26a;" horiz-adv-x="434" d="M374 15 L360 15 C311 15 279 55 279 115 L279 468 C279 528 311 568 360 568 L374 568 L374 583 L26 583 L26 568 L40 568 C89 568 121 528 121 468 L121 115 C121 55 89 15 40 15 L26 15 L26 0 L374 0 L374 15 L374 15 Z " />
<glyph glyph-name="N_sc" unicode="&#x274;" horiz-adv-x="757" d="M48 0 L286 0 L286 15 L272 15 C223 15 191 55 190 115 L190 115 L187 406 C311 271 435 136 558 0 L590 0 C593 156 595 313 599 468 C600 528 633 568 681 568 L696 568 L696 583 L458 583 L458 568 L472 568 C521 568 553 528 553 468 L554 468 L556 178 C444 313 333 448 221 583 L-57 583 L-57 568 L-43 568 C5 568 74 528 129 468 L129 468 L143 452 L142 115 L142 115 C142 55 109 15 61 15 L47 15 L48 0 L48 0 Z " />
<glyph glyph-name="R_sc" unicode="&#x280;" horiz-adv-x="750" d="M45 568 L59 568 C108 568 140 528 140 468 L140 115 C140 55 108 15 59 15 L45 15 L45 0 L394 0 L394 15 L380 15 C331 15 299 55 299 115 L299 250 C327 214 386 144 463 58 C513 2 524 0 739 0 L739 24 C682 24 678 25 649 58 C561 155 493 231 457 272 C550 294 606 340 606 414 C606 515 482 582 296 582 L44 582 L45 568 L45 568 Z M298 295 L298 547 C379 536 431 498 431 445 C431 343 378 296 298 295 L298 295 Z " />
<glyph glyph-name="Y_sc" unicode="&#x28f;" horiz-adv-x="742" d="M187 0 L576 0 L576 15 L559 15 C500 15 461 63 461 135 L461 257 L581 474 C617 531 672 568 723 568 L739 568 L739 583 L482 583 L482 568 L504 568 C565 568 587 528 558 468 L456 271 C413 335 370 399 327 463 C285 526 292 568 345 568 L361 568 L361 583 L-11 583 L-11 568 L1 568 C41 568 98 526 142 463 L142 463 L302 235 L302 135 C302 63 263 15 204 15 L187 15 L187 0 L187 0 Z " />
<glyph glyph-name="B_sc" unicode="&#x299;" horiz-adv-x="684" d="M404 5 L354 5 C321 5 299 79 299 191 L299 299 L412 299 C446 299 469 241 469 154 C469 33 443 5 404 5 L404 5 Z M45 564 L59 564 C108 564 140 524 140 464 L140 119 C140 59 108 19 59 19 L45 19 L45 0 L419 0 C554 0 644 29 644 154 C644 239 576 298 471 307 C551 326 600 377 600 446 C600 528 554 583 359 583 L45 583 L45 564 L45 564 Z M394 308 L299 308 L299 573 L339 573 C423 573 443 515 443 429 C443 356 423 308 394 308 L394 308 Z " />
<glyph glyph-name="H_sc" unicode="&#x29c;" horiz-adv-x="869" d="M809 15 L795 15 C746 15 714 55 714 115 L714 468 C714 528 746 568 795 568 L809 568 L809 583 L460 583 L460 568 L474 568 C523 568 555 528 555 468 L555 311 L335 311 L335 468 C335 528 367 568 416 568 L430 568 L430 583 L81 583 L81 568 L95 568 C144 568 176 528 176 468 L176 115 C176 55 144 15 95 15 L81 15 L81 0 L430 0 L430 15 L416 15 C367 15 335 55 335 115 L335 298 L555 298 L555 115 C555 55 523 15 474 15 L460 15 L460 0 L809 0 L809 15 L809 15 Z " />
<glyph glyph-name="L_sc" unicode="&#x29f;" horiz-adv-x="624" d="M374 583 L26 583 L26 568 L40 568 C89 568 121 528 121 468 L121 115 C121 55 89 15 40 15 L26 15 L26 0 L539 0 L540 14 L539 14 C547 59 557 117 565 162 L550 162 L542 142 C522 86 466 45 395 32 C292 48 279 105 279 184 L279 469 C279 529 311 569 360 569 L374 569 L374 583 L374 583 Z " />
<glyph glyph-name="circumflex" unicode="&#x2c6;" horiz-adv-x="340" d="M223 735 C213 751 187 789 170 789 C152 789 127 752 117 736 L13 570 L33 553 L170 647 L307 553 L327 570 L223 735 L223 735 Z " />
<glyph glyph-name="caron" unicode="&#x2c7;" horiz-adv-x="340" d="M307 797 L170 703 L33 797 L13 780 L117 614 C127 598 152 561 170 561 C187 561 213 599 223 615 L327 780 L307 797 L307 797 Z " />
<glyph glyph-name="firsttonechinese" unicode="&#x2c9;" horiz-adv-x="340" d="M20 634 L320 634 L320 738 L20 738 L20 634 L20 634 Z " />
<glyph glyph-name="breve" unicode="&#x2d8;" horiz-adv-x="340" d="M17 744 C32 649 93 586 170 586 C247 586 309 648 323 741 L292 745 C287 713 238 691 170 691 C102 691 53 714 48 748 L17 744 L17 744 Z " />
<glyph glyph-name="dotaccent" unicode="&#x2d9;" horiz-adv-x="340" d="M170 615 C218 615 250 647 250 695 C250 743 218 775 170 775 C122 775 90 743 90 695 C90 647 122 615 170 615 L170 615 Z " />
<glyph glyph-name="ring" unicode="&#x2da;" horiz-adv-x="340" d="M114 655 C114 691 136 715 170 715 C204 715 226 691 226 655 C226 623 200 595 170 595 C140 595 114 623 114 655 L114 655 Z M70 655 C70 604 116 560 170 560 C224 560 270 604 270 655 C270 712 230 750 170 750 C110 750 70 712 70 655 L70 655 Z " />
<glyph glyph-name="A_sc" unicode="&#x1d00;" horiz-adv-x="788" d="M372 0 L781 0 L781 19 L765 19 C712 19 653 79 619 169 L476 546 C476 546 461 603 454 603 L439 603 C443 580 394 557 317 546 L321 535 C284 413 248 290 211 169 C184 79 117 19 43 19 L22 19 L22 0 L321 0 L321 19 L300 19 C229 19 199 79 225 169 L225 169 L240 222 L435 222 L454 169 C487 79 462 19 392 19 L371 19 L372 0 L372 0 Z M243 235 L325 520 L429 235 L243 235 L243 235 Z " />
<glyph glyph-name="C_sc" unicode="&#x1d04;" horiz-adv-x="713" d="M553 577 C545 579 537 581 528 583 C515 590 503 595 492 598 L489 589 C469 591 446 592 421 592 C188 592 33 472 33 291 C33 110 185 -11 412 -11 C439 -11 464 -9 486 -6 L489 -14 C501 -10 514 -5 527 2 C534 4 541 6 548 8 C608 24 651 15 655 -14 L659 -39 L673 -39 L673 90 L553 577 L553 577 Z M484 13 C463 7 441 4 417 4 C292 4 208 120 208 294 C208 467 295 583 426 583 C448 583 468 580 486 575 L484 13 L484 13 Z " />
<glyph glyph-name="D_sc" unicode="&#x1d05;" horiz-adv-x="848" d="M340 10 C303 10 299 79 299 183 L299 573 L343 573 C525 573 618 461 618 292 C618 106 507 10 340 10 L340 10 Z M45 568 L59 568 C108 568 140 528 140 468 L140 115 C140 55 108 15 59 15 L45 15 L45 0 L355 0 C618 0 793 99 793 292 C793 467 654 583 383 583 L45 583 L45 568 L45 568 Z " />
<glyph glyph-name="E_sc" unicode="&#x1d07;" horiz-adv-x="651" d="M25 568 L42 568 C101 568 140 520 140 448 L140 135 C140 63 101 15 42 15 L25 15 L25 0 L574 0 L575 5 L576 5 C583 47 593 104 600 146 L585 146 L577 126 C556 68 498 26 425 14 C313 29 299 93 299 183 L299 299 L320 299 C398 299 458 250 471 176 L475 154 L490 154 L490 456 L475 456 L471 434 C458 360 398 311 320 311 L299 311 L299 573 L380 573 C458 573 524 524 546 450 L553 428 L568 428 C563 473 556 533 550 578 L549 583 L25 583 L25 568 L25 568 Z " />
<glyph glyph-name="J_sc" unicode="&#x1d0a;" horiz-adv-x="434" d="M374 583 L26 583 L26 568 L40 568 C87 568 118 532 121 477 C121 319 120 24 120 -127 C120 -190 63 -202 22 -202 C-57 -202 -18 -75 -97 -75 C-140 -75 -169 -103 -169 -146 C-169 -190 -97 -219 10 -219 C123 -219 280 -156 280 173 C280 248 280 384 280 479 C284 533 315 568 361 568 L375 568 L374 583 L374 583 Z " />
<glyph glyph-name="K_sc" unicode="&#x1d0b;" horiz-adv-x="795" d="M395 418 L395 418 L299 292 L299 468 C299 528 331 568 380 568 C457 568 464 508 395 418 L395 418 Z M681 583 L45 583 L45 568 L59 568 C108 568 140 528 140 468 L140 115 C140 55 108 15 59 15 L45 15 L45 0 L394 0 L394 15 L380 15 C331 15 299 55 299 115 L299 292 L508 0 L784 0 L784 15 L770 15 C722 15 661 55 618 115 L618 115 L419 393 C436 413 453 434 471 454 C529 523 607 569 665 569 L682 569 L681 583 L681 583 Z " />
<glyph glyph-name="M_sc" unicode="&#x1d0d;" horiz-adv-x="898" d="M863 583 L617 583 L489 216 L327 583 L48 583 L48 568 L62 568 C95 568 129 549 157 518 L140 104 C135 50 102 15 56 15 L42 15 L42 0 L287 0 L287 15 L273 15 C225 15 193 55 194 115 L194 115 L199 453 L415 0 L455 0 L456 5 L622 446 C625 336 629 225 631 116 C633 56 602 16 554 16 L540 16 L540 1 L888 1 L888 16 L874 16 C826 16 792 56 789 116 L789 116 L773 476 C773 532 803 569 849 569 L863 569 L863 583 L863 583 Z " />
<glyph glyph-name="O_sc" unicode="&#x1d0f;" horiz-adv-x="840" d="M207 292 C207 465 285 581 402 581 C528 581 612 465 612 292 C612 119 526 3 397 3 C283 3 207 119 207 292 L207 292 Z M34 292 C34 111 178 -10 395 -10 C629 -10 785 111 785 292 C785 473 633 593 405 593 C182 593 34 473 34 292 L34 292 Z " />
<glyph glyph-name="P_sc" unicode="&#x1d18;" horiz-adv-x="617" d="M434 15 L420 15 C371 15 339 55 339 115 L339 250 L374 250 C508 250 597 301 597 416 C597 516 522 583 409 583 L85 583 L85 568 L99 568 C148 568 180 528 180 468 L180 115 C180 55 148 15 99 15 L85 15 L85 0 L434 0 L434 15 L434 15 Z M339 284 L339 556 L369 556 C416 556 448 510 448 442 C448 333 418 284 374 284 L339 284 L339 284 Z " />
<glyph glyph-name="T_sc" unicode="&#x1d1b;" horiz-adv-x="715" d="M627 638 L623 630 C611 602 552 583 474 583 L241 583 C163 583 104 602 92 630 L88 638 L77 638 C68 614 57 587 47 562 L55 562 L55 553 C37 508 14 451 -4 407 L11 407 L23 427 C64 496 145 542 226 542 L278 542 L278 113 C278 53 246 13 197 13 L183 13 L183 -2 L532 -2 L532 13 L518 13 C469 13 437 53 437 113 L437 542 L489 542 C570 542 651 496 692 427 L704 407 L719 407 C701 451 678 508 660 553 L660 562 L668 562 C666 567 660 576 660 582 L660 582 C653 600 645 620 639 637 L627 638 L627 638 Z " />
<glyph glyph-name="U_sc" unicode="&#x1d1c;" horiz-adv-x="793" d="M10 567 L24 567 C73 567 105 527 105 467 L105 202 C105 75 186 -10 307 -10 C392 -10 473 42 509 120 L509 0 L589 0 L609 5 C658 17 717 33 763 45 L763 60 L749 56 C700 43 668 74 668 134 L668 582 L509 582 L509 581 L414 581 L414 566 L428 566 C477 566 509 526 509 466 L509 190 C481 131 426 91 371 91 C307 91 264 135 264 201 L264 582 L105 582 L105 581 L10 581 L10 567 L10 567 Z " />
<glyph glyph-name="V_sc" unicode="&#x1d20;" horiz-adv-x="820" d="M392 583 L-11 583 L-11 564 L2 564 C44 564 103 508 152 423 C232 279 312 134 392 -11 L423 -11 L624 413 C667 503 729 563 780 563 L795 563 L795 582 L480 582 L480 563 L503 563 C580 563 607 503 569 413 L569 413 L497 240 L367 417 C304 505 305 563 371 563 L391 563 L392 583 L392 583 Z " />
<glyph glyph-name="W_sc" unicode="&#x1d21;" horiz-adv-x="1074" d="M1058 583 L743 583 L743 564 L765 564 C838 564 874 517 859 446 L794 219 L655 445 C615 517 629 564 692 564 L711 564 L711 583 L-9 583 L-9 564 L4 564 C47 564 105 512 147 434 L147 434 C228 286 309 138 389 -10 L429 -10 L538 330 C602 217 666 104 730 -9 L770 -9 L916 446 C942 518 992 565 1043 565 L1059 565 L1058 583 L1058 583 Z M337 565 C379 561 431 517 472 451 L506 390 L448 192 L314 447 C282 515 291 561 338 565 L337 565 L337 565 Z " />
<glyph glyph-name="Z_sc" unicode="&#x1d22;" horiz-adv-x="597" d="M70 404 L76 425 C95 494 169 541 262 544 L377 547 L25 32 L25 0 L546 0 L557 48 C557 48 579 142 588 183 L573 183 L564 162 C536 96 461 49 372 42 L213 37 L549 551 L549 582 L406 582 L401 583 L400 582 L69 582 L65 538 L66 538 C64 512 60 464 55 403 L70 404 L70 404 Z " />
<glyph glyph-name="Wgrave" unicode="&#x1e80;" horiz-adv-x="1215" d="M527 601 L527 601 C544 567 562 533 578 500 L496 212 L316 616 C290 685 307 730 360 730 L386 730 C432 730 489 678 528 600 L527 601 L527 601 Z M380 979 C380 969 402 949 434 924 L582 809 L601 828 L503 992 C482 1029 464 1053 455 1053 C415 1053 380 1019 380 979 L380 979 Z M-14 730 L-1 730 C40 730 92 683 130 611 C231 404 332 197 434 -10 L478 -10 L616 429 C690 283 764 137 838 -9 L882 -9 C941 195 1000 399 1059 602 C1082 680 1132 732 1186 732 L1202 732 L1202 751 L878 751 L878 732 L901 732 C974 732 1012 684 997 611 L903 245 L720 607 C684 682 703 732 767 732 L787 732 L787 751 L-14 751 L-14 730 L-14 730 Z " />
<glyph glyph-name="Wacute" unicode="&#x1e82;" horiz-adv-x="1215" d="M590 810 L738 925 C770 951 792 971 792 980 C792 1020 758 1054 717 1054 C709 1054 691 1030 669 993 L571 829 L590 810 L590 810 Z M527 601 L527 601 C544 567 562 533 578 500 L496 212 L316 616 C290 685 307 730 360 730 L386 730 C432 730 489 678 528 600 L527 601 L527 601 Z M-14 730 L-1 730 C40 730 92 683 130 611 C231 404 332 197 434 -10 L478 -10 L616 429 C690 283 764 137 838 -9 L882 -9 C941 195 1000 399 1059 602 C1082 680 1132 732 1186 732 L1202 732 L1202 751 L878 751 L878 732 L901 732 C974 732 1012 684 997 611 L903 245 L720 607 C684 682 703 732 767 732 L787 732 L787 751 L-14 751 L-14 730 L-14 730 Z " />
<glyph glyph-name="Wdieresis" unicode="&#x1e84;" horiz-adv-x="1215" d="M667 865 C715 865 747 897 747 945 C747 993 715 1025 667 1025 C619 1025 587 993 587 945 C587 897 619 865 667 865 L667 865 Z M494 865 C542 865 574 897 574 945 C574 993 542 1025 494 1025 C446 1025 414 993 414 945 C414 897 446 865 494 865 L494 865 Z M527 601 L527 601 C544 567 562 533 578 500 L496 212 L316 616 C290 685 307 730 360 730 L386 730 C432 730 489 678 528 600 L527 601 L527 601 Z M-14 730 L-1 730 C40 730 92 683 130 611 C231 404 332 197 434 -10 L478 -10 L616 429 C690 283 764 137 838 -9 L882 -9 C941 195 1000 399 1059 602 C1082 680 1132 732 1186 732 L1202 732 L1202 751 L878 751 L878 732 L901 732 C974 732 1012 684 997 611 L903 245 L720 607 C684 682 703 732 767 732 L787 732 L787 751 L-14 751 L-14 730 L-14 730 Z " />
<glyph glyph-name="Etilde" unicode="&#x1ebc;" horiz-adv-x="724" d="M237 870 C237 899 253 919 276 919 C325 919 389 854 438 854 C493 854 529 920 529 1019 L521 1019 C521 983 502 959 473 959 C424 959 360 1024 311 1024 C262 1024 229 962 229 870 L237 870 L237 870 Z M21 735 L38 735 C97 735 136 687 136 615 L136 135 C136 63 97 15 38 15 L21 15 L21 0 L647 0 L648 6 L649 6 C656 48 666 105 673 147 L658 147 L650 127 C627 62 557 18 472 13 C329 19 313 85 313 183 L313 385 L394 385 C472 385 532 336 545 262 L549 240 L564 240 L564 543 L549 543 L545 521 C532 447 472 398 394 398 L313 398 L313 738 L454 738 C532 738 598 689 620 615 L627 593 L642 593 C637 640 631 704 623 750 L22 750 L21 735 L21 735 Z " />
<glyph glyph-name="Ygrave" unicode="&#x1ef2;" horiz-adv-x="834" d="M226 0 L632 0 L632 15 L615 15 C556 15 517 63 517 135 L517 332 C569 431 620 531 672 630 C705 693 762 735 815 735 L831 735 L831 750 L571 750 L571 735 L594 735 C654 735 677 697 652 639 L511 349 L336 630 C297 693 306 735 360 735 L376 735 L376 750 L-17 750 L-17 735 L-5 735 C36 735 90 693 131 630 L131 630 L341 308 L341 135 C341 63 302 15 243 15 L226 15 L226 0 L226 0 Z M228 980 C228 970 250 950 282 925 L429 810 L448 829 L350 993 C329 1030 311 1054 303 1054 C263 1054 228 1020 228 980 L228 980 Z " />
<glyph glyph-name="quoteleft" unicode="&#x2018;" horiz-adv-x="708" d="M90 640 C72 640 57 632 47 618 C47 725 80 778 130 749 L120 760 C50 801 3 733 3 590 C3 535 38 499 90 499 C133 499 161 527 161 569 C161 612 133 640 90 640 L90 640 Z " />
<glyph glyph-name="quoteright" unicode="&#x2019;" horiz-adv-x="248" d="M120 640 C118 532 74 481 10 510 L21 499 C107 459 165 528 165 673 C165 725 130 760 77 760 C34 760 6 732 6 689 C6 647 34 619 77 619 C95 619 109 627 119 640 L120 640 L120 640 Z " />
<glyph glyph-name="quotedblleft" unicode="&#x201c;" horiz-adv-x="708" d="M339 640 C321 640 306 632 296 618 C296 725 329 778 379 749 L369 760 C299 801 252 733 252 590 C252 535 287 499 339 499 C382 499 410 527 410 569 C410 612 382 640 339 640 L339 640 Z M78 640 C60 640 45 632 35 618 C35 725 68 778 118 749 L108 760 C38 801 -9 733 -9 590 C-9 535 26 499 78 499 C121 499 149 527 149 569 C149 612 121 640 78 640 L78 640 Z " />
<glyph glyph-name="quotedblright" unicode="&#x201d;" horiz-adv-x="708" d="M382 640 C381 532 337 480 273 510 L284 499 C370 459 428 528 428 673 C428 725 392 760 339 760 C297 760 269 732 269 689 C269 647 297 619 339 619 C357 619 372 627 382 641 L382 640 L382 640 Z M120 640 C118 532 74 481 10 510 L21 499 C107 459 165 528 165 673 C165 725 130 760 77 760 C34 760 6 732 6 689 C6 647 34 619 77 619 C95 619 109 627 119 640 L120 640 L120 640 Z " />
<glyph glyph-name="Euro" unicode="&#x20ac;" horiz-adv-x="853" d="M814 507 L814 760 L802 760 L798 736 C794 707 758 703 705 725 C660 747 602 760 520 760 C309 760 154 663 99 507 L69 507 L54 400 L78 400 C77 384 77 367 78 351 L54 351 L39 244 L98 244 C152 88 304 -9 511 -9 C592 -9 654 5 704 29 C758 50 795 44 799 14 L803 -11 L815 -11 L815 118 L793 136 L793 136 L815 117 L815 244 L796 244 L788 220 C763 145 701 70 631 33 C596 14 558 4 517 4 C402 4 317 96 286 244 L565 244 L580 351 L273 351 C272 367 272 384 273 400 L580 400 L595 507 L286 507 C318 655 407 746 527 746 C568 746 603 736 635 719 C701 683 763 608 788 531 L796 507 L814 507 L814 507 Z " />
<glyph glyph-name="F_sc" unicode="&#xa730;" horiz-adv-x="626" d="M25 568 L42 568 C101 568 140 520 140 448 L140 135 C140 63 101 15 42 15 L25 15 L25 0 L414 0 L414 15 L397 15 C338 15 299 63 299 135 L299 299 C384 302 445 253 459 176 L463 154 L478 154 L478 299 L479 299 L479 311 L478 311 L478 456 L463 456 L459 434 C445 357 384 308 299 311 L299 575 L379 575 C458 575 524 526 546 452 L553 430 L568 430 C562 475 555 534 549 579 L550 579 L549 583 L25 583 L25 568 L25 568 Z " />
<glyph glyph-name="S_sc" unicode="&#xa731;" horiz-adv-x="498" d="M423 392 L423 624 L409 624 L405 603 C402 585 369 578 321 584 C297 599 271 607 245 607 L245 593 C130 593 53 521 53 414 C53 322 101 243 194 209 C284 176 331 147 331 128 C331 55 295 6 242 6 C240 6 224 7 224 8 C213 10 202 14 191 20 L191 21 C190 21 189 21 188 21 C143 50 100 114 74 195 L65 221 L45 221 L45 -48 L59 -48 L63 -20 C66 6 111 13 175 -2 C190 -11 205 -17 220 -20 L222 -11 C229 -12 236 -12 243 -12 C373 -12 459 62 459 172 C459 255 402 332 291 372 C216 399 178 437 178 472 C178 559 227 603 292 566 L291 561 C295 560 299 559 303 558 C340 531 373 481 394 416 L403 390 L423 392 L423 392 Z " />
<glyph glyph-name="X_sc" unicode="&#xf078;" horiz-adv-x="793" d="M389 0 L762 0 L762 15 L750 15 C712 15 659 51 614 106 L438 342 L573 470 C637 529 713 568 765 568 L780 568 L780 583 L485 583 L485 568 L503 568 C565 568 571 526 518 463 L518 463 L427 356 L347 463 C347 463 270 568 357 568 L373 568 L373 583 L1 583 L1 568 L13 568 C54 568 112 526 159 463 L159 463 L313 257 C274 212 235 166 195 121 C141 58 69 16 16 16 L0 16 L0 1 L291 1 L291 16 L273 16 C210 16 201 58 250 121 L250 121 L334 229 L423 110 C462 53 456 16 406 16 L390 16 L389 0 L389 0 Z " />
</font>
</svg>
