<?xml version="1.0" encoding="UTF-8"?>
<svg xmlns="http://www.w3.org/2000/svg" xmlns:xlink="http://www.w3.org/1999/xlink" version="1.2" >
<font id="Jerin Bold">
<font-face  font-family="Jerin" units-per-em="1024" ascent="975" descent="-300" font-style="normal" font-weight="700" font-stretch="normal" cap-height="1046" x-height="488" underline-position="-125" underline-thickness="50" />
<missing-glyph  horiz-adv-x="100" d="" />
<glyph glyph-name="NULL" d="" />
<glyph glyph-name="CR" unicode="&#xd;" horiz-adv-x="256" d="" />
<glyph glyph-name="space" unicode="&#x20;" horiz-adv-x="250" d="" />
<glyph glyph-name="exclam" unicode="&#x21;" horiz-adv-x="281" d="M140 -5 C188 -5 220 27 220 75 C220 123 188 155 140 155 C92 155 60 123 60 75 C60 27 92 -5 140 -5 L140 -5 Z M140 755 C85 755 60 706 70 632 L130 210 L151 210 L211 632 C221 706 195 755 140 755 L140 755 Z " />
<glyph glyph-name="quotedbl" unicode="&#x22;" horiz-adv-x="325" d="M208 750 C182 750 168 732 175 705 L215 560 L229 560 L269 705 C276 732 262 750 236 750 L208 750 L208 750 Z M88 750 C62 750 48 732 55 705 L95 560 L109 560 L149 705 C156 732 142 750 116 750 L88 750 L88 750 Z " />
<glyph glyph-name="numbersign" unicode="&#x23;" horiz-adv-x="539" d="M390 656 L367 504 L221 504 L244 656 L230 656 L207 504 L71 504 L59 416 L193 416 L167 244 L28 244 L16 156 L154 156 L130 0 L144 0 L168 156 L314 156 L290 0 L304 0 L328 156 L458 156 L470 244 L341 244 L367 416 L506 416 L519 504 L381 504 L404 656 L390 656 L390 656 Z M207 416 L353 416 L327 244 L181 244 L207 416 L207 416 Z " />
<glyph glyph-name="dollar" unicode="&#x24;" horiz-adv-x="555" d="M47 254 L47 -12 L61 -12 L65 15 C69 42 110 43 170 18 C184 11 199 5 213 -1 L213 -74 L254 -74 L254 -7 C267 -9 280 -9 294 -9 L294 -74 L335 -74 L335 -5 C445 14 516 95 516 208 C516 306 455 395 335 442 L335 731 C385 702 428 641 449 565 L458 536 L478 536 L478 766 L464 766 L460 746 C456 727 417 726 361 744 C352 749 343 754 334 758 L334 826 L293 826 L293 770 C292 770 291 770 290 770 L288 760 C277 761 265 761 253 761 L253 826 L212 826 L212 756 C117 736 57 659 57 552 C57 454 110 366 212 318 L212 23 C152 54 100 135 75 225 L66 255 L47 254 L47 254 Z M292 747 L292 458 C278 464 265 471 253 478 L253 750 C264 751 275 750 286 748 C286 748 291 747 292 747 L292 747 Z M253 301 C267 296 280 290 292 284 L292 5 C278 4 266 5 253 8 L253 301 L253 301 Z M333 262 C381 232 406 199 406 168 C406 95 378 40 333 17 L333 262 L333 262 Z M212 507 C179 537 162 570 162 603 C162 663 181 709 212 732 L212 507 L212 507 Z " />
<glyph glyph-name="ampersand" unicode="&#x26;" horiz-adv-x="349" d="M344 467 C444 502 508 558 508 610 C508 700 431 760 315 760 C209 760 139 694 139 595 C139 547 171 498 222 435 C107 392 32 299 32 196 C32 72 117 -10 245 -10 C330 -10 417 34 498 111 C506 102 514 92 522 82 C568 27 640 -10 700 -10 C772 -10 828 52 839 145 L819 152 C814 111 786 84 748 84 C702 84 651 107 622 142 C606 162 590 181 575 199 C637 281 692 384 735 502 L708 502 C668 391 613 297 551 228 C408 398 374 434 345 469 L344 467 L344 467 Z M333 484 C277 553 242 605 242 657 C242 704 272 735 317 735 C376 735 415 689 415 619 C415 561 383 509 334 484 L333 484 L333 484 Z M467 152 C417 118 365 99 314 99 C219 99 155 153 155 233 C155 318 186 389 235 422 C280 367 303 345 467 151 L467 152 L467 152 Z " />
<glyph glyph-name="quotesingle" unicode="&#x27;" horiz-adv-x="204" d="M88 750 C62 750 48 732 55 705 L95 560 L109 560 L149 705 C156 732 142 750 116 750 L88 750 L88 750 Z " />
<glyph glyph-name="parenleft" unicode="&#x28;" horiz-adv-x="500" d="M320 760 C188 671 100 476 100 273 C100 77 185 -118 313 -214 L320 -201 C237 -138 181 51 181 273 C181 498 239 688 327 747 L320 760 L320 760 Z " />
<glyph glyph-name="parenright" unicode="&#x29;" horiz-adv-x="500" d="M23 747 C159 659 250 469 250 273 C250 74 162 -115 30 -201 L37 -214 C213 -99 331 95 331 273 C331 448 211 643 30 760 L23 747 L23 747 Z " />
<glyph glyph-name="asterisk" unicode="&#x2a;" horiz-adv-x="300" d="M235 540 C251 524 270 529 284 552 C298 575 293 594 272 599 C272 599 248 557 238 539 L235 540 L235 540 Z M275 658 L273 659 L274 659 L274 659 C275 659 275 658 275 658 L275 658 Z M274 660 C294 666 298 685 285 707 C272 730 253 735 238 720 L237 721 L151 633 L150 633 L183 751 C189 772 175 786 148 786 C121 786 107 772 113 751 L145 637 L62 722 L62 721 C46 737 27 732 14 709 C0 685 5 666 26 661 L27 661 C30 667 35 676 40 685 L27 662 L145 632 L29 602 L64 541 L145 623 L113 512 C107 491 121 477 148 477 C175 477 189 491 183 512 C172 551 161 590 150 629 L235 542 L270 603 L158 632 L271 661 L271 662 L264 674 C267 670 269 666 271 663 L274 660 L274 660 Z M63 542 C52 560 28 602 28 602 C6 597 1 578 15 555 C28 531 47 526 62 542 L63 542 L63 542 Z " />
<glyph glyph-name="plus" unicode="&#x2b;" horiz-adv-x="620" d="M265 460 L265 291 L100 291 L100 209 L265 209 L265 40 L355 40 L355 209 L520 209 L520 291 L355 291 L355 460 L265 460 L265 460 Z " />
<glyph glyph-name="comma" unicode="&#x2c;" horiz-adv-x="261" d="M167 21 C182 -53 136 -104 64 -104 L64 -112 C140 -112 190 -62 190 13 C190 74 164 115 124 115 C88 115 64 91 64 55 C64 19 88 -5 124 -5 C143 -5 158 5 166 21 L167 21 L167 21 Z " />
<glyph glyph-name="hyphen" unicode="&#x2d;" horiz-adv-x="430" d="M80 238 L350 238 L350 332 L80 332 L80 238 L80 238 Z " />
<glyph glyph-name="period" unicode="&#x2e;" horiz-adv-x="195" d="M125 -5 C173 -5 205 27 205 75 C205 123 173 155 125 155 C77 155 45 123 45 75 C45 27 77 -5 125 -5 L125 -5 Z " />
<glyph glyph-name="slash" unicode="&#x2f;" horiz-adv-x="398" d="M300 770 L18 -80 L86 -80 L368 770 L300 770 L300 770 Z " />
<glyph glyph-name="zero" unicode="0" horiz-adv-x="614" d="M96 250 C96 365 180 463 305 463 C418 463 514 378 514 250 C514 135 430 37 305 37 C192 37 96 122 96 250 L96 250 Z M41 250 C41 94 162 -10 305 -10 C463 -10 569 110 569 250 C569 406 448 510 305 510 C147 510 41 390 41 250 L41 250 Z " />
<glyph glyph-name="one" unicode="1" horiz-adv-x="425" d="M365 15 L351 15 C302 15 270 55 270 115 L270 385 C270 445 302 485 351 485 L365 485 L365 500 L60 500 L60 485 L74 485 C123 485 155 445 155 385 L155 115 C155 55 123 15 74 15 L60 15 L60 0 L365 0 L365 15 L365 15 Z " />
<glyph glyph-name="two" unicode="2" horiz-adv-x="554" d="M66 289 C82 369 143 423 220 423 C291 423 339 382 339 320 C339 239 260 160 149 88 C107 62 62 36 14 12 L27 2 C22 1 18 0 14 0 L435 0 L499 102 C499 102 545 168 547 171 C547 173 540 177 541 177 L532 166 C502 128 437 102 368 102 L214 102 C354 188 454 274 454 347 C454 445 384 510 279 510 C162 510 67 424 42 294 L66 289 L66 289 Z " />
<glyph glyph-name="three" unicode="3" horiz-adv-x="457" d="M16 -209 L20 -232 C258 -207 417 -108 417 15 C417 118 343 191 226 210 C326 266 387 326 387 388 C387 462 321 511 221 511 C122 511 41 448 19 353 L44 346 C56 396 108 430 174 430 C228 430 264 398 264 349 C264 295 232 251 180 215 C155 216 155 213 140 191 C129 185 117 179 104 174 L104 151 C107 152 110 153 113 154 C110 152 107 151 105 151 C220 135 297 68 297 -16 C297 -114 185 -190 17 -208 L16 -209 L16 -209 Z " />
<glyph glyph-name="four" unicode="4" horiz-adv-x="620" d="M619 164 C615 165 603 168 603 168 L599 156 C589 115 544 88 487 88 L415 88 L415 530 L400 530 L15 20 L15 0 L300 0 L300 -220 L415 -220 L415 0 L475 0 C532 0 570 -22 569 -55 L570 -65 C570 -65 582 -69 586 -69 C597 8 608 86 619 163 L619 164 L619 164 Z M301 328 L300 327 L300 87 L120 87 L301 328 L301 328 Z " />
<glyph glyph-name="five" unicode="5" horiz-adv-x="442" d="M61 -235 C272 -209 412 -94 412 53 C412 192 285 285 95 285 L78 285 L97 397 L344 400 L361 496 C366 520 371 545 375 566 L359 566 L355 556 C344 523 299 501 242 501 L75 501 L20 183 L40 165 L82 165 C219 165 311 105 311 15 C311 -103 210 -194 58 -213 L61 -235 L61 -235 Z " />
<glyph glyph-name="six" unicode="6" horiz-adv-x="569" d="M550 750 C245 685 42 503 42 295 C42 112 140 -10 286 -10 C423 -10 515 89 515 238 C515 373 430 463 303 463 C256 463 216 446 187 415 C244 576 377 695 554 733 L550 750 L550 750 Z M157 234 C157 365 214 452 299 452 C360 452 400 369 400 245 C400 98 354 0 284 0 C208 0 157 94 157 234 L157 234 Z " />
<glyph glyph-name="seven" unicode="7" horiz-adv-x="444" d="M24 337 L31 348 C52 383 104 407 161 407 L392 407 L103 -220 L191 -220 L439 485 L439 500 L201 500 C144 500 112 519 122 548 L124 557 C124 557 115 565 112 566 C103 546 92 523 81 500 L80 500 L68 473 C65 466 62 459 59 453 L60 453 L40 407 C40 407 13 348 12 345 C15 343 24 337 24 337 L24 337 Z " />
<glyph glyph-name="eight" unicode="8" horiz-adv-x="541" d="M199 363 C211 357 224 351 237 346 C342 304 412 266 412 219 C412 87 354 -1 267 -1 C187 -1 133 69 133 175 C133 254 158 323 199 363 L199 363 Z M183 372 C91 322 33 247 33 173 C33 63 127 -11 267 -11 C407 -11 501 61 501 169 C501 306 438 375 338 425 C423 471 477 535 477 597 C477 694 392 758 265 758 C141 758 59 685 59 575 C59 488 107 417 183 370 L183 372 L183 372 Z M321 433 C308 439 295 445 281 450 C203 482 151 542 151 618 C151 699 199 753 271 753 C335 753 378 686 378 586 C378 523 356 468 320 433 L321 433 L321 433 Z " />
<glyph glyph-name="nine" unicode="9" horiz-adv-x="569" d="M19 -250 C324 -185 527 -3 527 205 C527 388 429 510 283 510 C146 510 54 411 54 262 C54 127 139 37 266 37 C313 37 353 54 382 85 C325 -76 192 -195 15 -233 L19 -250 L19 -250 Z M412 266 C412 135 355 48 270 48 C209 48 169 131 169 255 C169 402 215 500 285 500 C361 500 412 406 412 266 L412 266 Z " />
<glyph glyph-name="colon" unicode="&#x3a;" horiz-adv-x="135" d="M125 385 C173 385 205 417 205 465 C205 513 173 545 125 545 C77 545 45 513 45 465 C45 417 77 385 125 385 L125 385 Z M125 -5 C173 -5 205 27 205 75 C205 123 173 155 125 155 C77 155 45 123 45 75 C45 27 77 -5 125 -5 L125 -5 Z " />
<glyph glyph-name="semicolon" unicode="&#x3b;" horiz-adv-x="261" d="M125 385 C173 385 205 417 205 465 C205 513 173 545 125 545 C77 545 45 513 45 465 C45 417 77 385 125 385 L125 385 Z M167 21 C182 -53 136 -104 64 -104 L64 -112 C140 -112 190 -62 190 13 C190 74 164 115 124 115 C88 115 64 91 64 55 C64 19 88 -5 124 -5 C143 -5 158 5 166 21 L167 21 L167 21 Z " />
<glyph glyph-name="equal" unicode="&#x3d;" horiz-adv-x="538" d="M88 226 L88 174 L468 174 L468 226 L88 226 L88 226 Z M88 326 L88 274 L468 274 L468 326 L88 326 L88 326 Z " />
<glyph glyph-name="question" unicode="&#x3f;" horiz-adv-x="295" d="M125 -5 C173 -5 205 27 205 75 C205 123 173 155 125 155 C77 155 45 123 45 75 C45 27 77 -5 125 -5 L125 -5 Z M127 240 C127 240 126 360 125 360 C225 360 257 391 288 437 C307 465 319 513 319 557 C319 679 249 760 145 760 C80 760 37 726 37 675 C37 641 62 618 99 618 C125 618 161 638 187 638 C246 638 285 600 285 543 C285 532 276 512 263 492 C242 461 215 440 97 440 C103 442 107 240 107 240 L127 240 L127 240 Z " />
<glyph glyph-name="at" unicode="&#x40;" horiz-adv-x="1178" d="M1039 0 C973 -142 799 -237 605 -237 C329 -237 145 -39 145 259 C145 555 323 752 589 752 C856 752 1034 588 1034 343 C1034 143 964 10 859 10 C785 10 755 86 783 200 L853 480 L744 480 L727 413 C707 461 659 490 594 490 C407 490 282 369 282 188 C282 78 354 4 463 4 C550 4 624 41 667 101 C679 19 740 -31 838 -31 C1009 -31 1123 118 1123 342 C1123 607 909 783 589 783 C269 783 56 573 56 258 C56 -51 286 -257 631 -257 C828 -257 1006 -155 1078 -1 L1039 0 L1039 0 Z M713 355 L674 199 C654 120 593 67 522 67 C454 67 408 124 408 209 C408 358 482 457 592 457 C665 457 713 416 714 355 L713 355 L713 355 Z " />
<glyph glyph-name="A" unicode="A" horiz-adv-x="839" d="M22 0 L320 0 L320 19 L299 19 C230 19 199 75 221 160 L258 290 L498 290 C511 250 525 209 537 169 C566 79 538 19 468 19 L447 19 L447 0 L834 0 L834 19 L818 19 C765 19 709 79 679 169 L679 169 L498 709 C498 709 484 770 478 770 L464 770 C469 743 428 718 363 709 L366 699 L366 699 L212 169 C186 79 119 19 45 19 L23 19 L22 0 L22 0 Z M262 301 L371 685 L495 301 L262 301 L262 301 Z " />
<glyph glyph-name="B" unicode="B" horiz-adv-x="739" d="M388 4 L338 4 C304 4 281 79 281 191 L281 385 L399 385 C490 385 550 309 550 196 C550 40 485 4 388 4 L388 4 Z M51 731 L65 731 C114 731 146 691 146 631 L146 119 C146 59 114 19 65 19 L51 19 L51 0 L401 0 C580 0 699 37 699 196 C699 306 605 381 460 391 C584 411 662 478 662 572 C662 679 606 751 366 751 L51 751 L51 731 L51 731 Z M377 393 L281 393 L281 743 C281 743 349 743 349 742 C493 742 527 668 527 558 C527 459 467 393 377 393 L377 393 Z " />
<glyph glyph-name="C" unicode="C" horiz-adv-x="769" d="M552 751 L551 749 C520 756 484 760 441 760 C200 760 40 606 40 375 C40 144 196 -10 431 -10 C475 -10 513 -6 547 2 L548 -1 C553 1 558 3 563 6 C576 10 589 14 601 19 C663 44 708 42 712 12 L716 -12 L730 -12 L730 236 L710 236 L701 208 C679 134 625 66 563 30 C525 10 484 -1 438 -1 C290 -1 192 149 192 374 C192 598 294 748 448 748 C486 748 519 741 549 728 C616 698 678 623 703 540 L712 512 L732 512 L732 757 L718 757 L714 734 C710 707 668 705 609 731 C609 730 561 748 556 750 L552 751 L552 751 Z M715 132 L715 132 L715 132 L715 132 Z " />
<glyph glyph-name="D" unicode="D" horiz-adv-x="898" d="M348 9 C288 9 281 79 281 183 L281 742 L367 742 C583 742 694 595 694 375 C694 133 556 9 348 9 L348 9 Z M51 735 L65 735 C114 735 146 695 146 635 L146 115 C146 55 114 15 65 15 L51 15 L51 0 L361 0 C650 0 843 128 843 375 C843 600 693 750 401 750 L51 750 L51 735 L51 735 Z " />
<glyph glyph-name="E" unicode="E" horiz-adv-x="693" d="M31 735 L48 735 C107 735 146 687 146 615 L146 135 C146 63 107 15 48 15 L31 15 L31 0 L616 0 L617 4 L617 4 C624 46 634 102 641 144 L626 144 L618 124 C595 59 525 15 440 10 C298 17 282 85 282 184 L282 386 L362 386 C440 386 500 337 513 263 L517 241 L532 241 L532 541 L517 541 L513 519 C500 445 440 396 362 396 L282 396 L282 742 L423 742 C501 742 567 693 589 619 L596 597 L611 597 C605 642 598 702 592 747 L593 747 L592 751 L32 751 L31 735 L31 735 Z " />
<glyph glyph-name="F" unicode="F" horiz-adv-x="668" d="M31 735 L48 735 C107 735 146 687 146 615 L146 135 C146 63 107 15 48 15 L31 15 L31 0 L396 0 L396 15 L379 15 C320 15 281 63 281 135 L281 385 L350 385 C428 385 488 336 501 262 L505 240 L520 240 L520 385 L521 385 L521 395 L520 395 L520 540 L505 540 L501 518 C488 444 428 395 350 395 L281 395 L281 743 L421 743 C500 743 566 694 588 620 L595 598 L610 598 C604 643 597 702 591 747 L591 750 L31 750 L31 735 L31 735 Z " />
<glyph glyph-name="G" unicode="G" horiz-adv-x="863" d="M728 513 L728 758 L714 758 L710 735 C706 708 664 706 605 732 C605 731 557 749 552 751 L551 749 C520 756 484 760 441 760 C200 760 40 606 40 375 C40 144 201 -10 442 -10 C586 -10 686 17 780 61 L777 68 C757 59 735 51 710 44 C711 95 711 172 711 172 C711 253 747 307 800 307 L816 307 L816 326 L470 326 L470 307 L486 307 C539 307 575 253 575 172 L576 172 C576 157 576 142 576 127 C569 62 526 19 464 19 C299 19 189 162 189 377 C189 601 291 751 445 751 C483 751 516 744 546 731 C613 701 675 626 700 543 L709 515 L728 513 L728 513 Z " />
<glyph glyph-name="H" unicode="H" horiz-adv-x="916" d="M856 15 L842 15 C793 15 761 55 761 115 L761 635 C761 695 793 735 842 735 L856 735 L856 750 L531 750 L531 735 L545 735 C594 735 626 695 626 635 L626 394 L317 394 L317 635 C317 695 349 735 398 735 L412 735 L412 750 L87 750 L87 735 L101 735 C150 735 182 695 182 635 L182 115 C182 55 150 15 101 15 L87 15 L87 0 L412 0 L412 15 L398 15 C349 15 317 55 317 115 L317 383 L626 383 L626 115 C626 55 594 15 545 15 L531 15 L531 0 L856 0 L856 15 L856 15 Z " />
<glyph glyph-name="I" unicode="I" horiz-adv-x="423" d="M363 15 L349 15 C300 15 268 55 268 115 L268 635 C268 695 300 735 349 735 L363 735 L363 750 L37 750 L37 735 L51 735 C100 735 132 695 132 635 L132 115 C132 55 100 15 51 15 L37 15 L37 0 L363 0 L363 15 L363 15 Z " />
<glyph glyph-name="J" unicode="J" horiz-adv-x="423" d="M363 750 L37 750 L37 735 L51 735 C100 735 132 695 132 635 L132 -106 C132 -189 65 -205 17 -205 C-50 -205 -17 -97 -84 -97 C-121 -97 -145 -121 -145 -158 C-145 -195 -84 -220 7 -220 C117 -220 268 -161 268 150 L268 635 C268 695 300 735 349 735 L363 735 L363 750 L363 750 Z " />
<glyph glyph-name="K" unicode="K" horiz-adv-x="844" d="M376 750 L51 750 L51 735 L65 735 C114 735 146 695 146 635 L146 115 C146 55 114 15 65 15 L51 15 L51 0 L376 0 L376 15 L362 15 C313 15 281 55 281 115 L281 375 L573 0 L832 0 L832 15 L818 15 C771 15 710 52 663 109 L387 458 L534 631 C592 694 665 735 721 735 L738 735 L738 750 L417 750 L417 735 L440 735 C518 735 522 675 450 585 L450 585 L283 375 L283 635 C283 695 315 735 364 735 L378 735 L376 750 L376 750 Z " />
<glyph glyph-name="L" unicode="L" horiz-adv-x="688" d="M363 750 L37 750 L37 735 L51 735 C100 735 132 695 132 635 L132 115 C132 55 100 15 51 15 L37 15 L37 0 L603 0 L604 12 L603 12 C611 56 621 114 629 158 L614 158 L606 138 C583 73 513 28 427 23 C284 29 268 91 268 182 L268 634 C268 694 300 734 349 734 L363 734 L363 750 L363 750 Z " />
<glyph glyph-name="M" unicode="M" horiz-adv-x="951" d="M49 735 L63 735 C98 735 133 714 159 680 L141 105 C136 51 103 15 58 15 L43 15 L43 0 L281 0 L281 15 L267 15 C221 15 190 50 187 103 L193 616 C278 411 363 206 448 1 L482 1 L483 6 L695 624 C699 455 704 285 707 116 C708 56 677 16 629 16 L615 16 L615 1 L940 1 L940 16 L925 16 C879 16 846 53 842 109 C836 285 830 461 825 636 C823 696 854 736 902 736 L916 736 L916 751 L693 751 L506 177 L300 751 L49 751 L49 735 L49 735 Z " />
<glyph glyph-name="N" unicode="N" horiz-adv-x="820" d="M-39 735 L-25 735 C21 735 80 699 126 645 L147 618 L146 115 L146 115 C146 55 113 15 65 15 L51 15 L51 0 L281 0 L281 15 L267 15 C221 15 189 51 186 106 L183 575 C332 384 481 193 630 1 L657 1 L666 648 C671 701 703 736 749 736 L763 736 L763 751 L533 751 L533 736 L547 736 C596 736 628 696 628 636 L628 636 L630 223 C491 399 353 575 215 751 L-36 751 L-39 735 L-39 735 Z " />
<glyph glyph-name="O" unicode="O" horiz-adv-x="889" d="M187 375 C187 599 284 749 430 749 C584 749 687 599 687 375 C687 151 582 1 424 1 C282 1 187 151 187 375 L187 375 Z M40 375 C40 144 193 -10 422 -10 C669 -10 834 144 834 375 C834 606 673 760 432 760 C197 760 40 606 40 375 L40 375 Z " />
<glyph glyph-name="P" unicode="P" horiz-adv-x="682" d="M410 15 L396 15 C347 15 315 55 315 115 L315 336 L365 336 C543 336 662 398 662 537 C662 665 563 750 415 750 L85 750 L85 735 L99 735 C148 735 180 695 180 635 L180 115 C180 55 148 15 99 15 L85 15 L85 0 L410 0 L410 15 L410 15 Z M315 365 L315 727 L381 727 C473 727 535 660 535 560 C535 425 467 365 365 365 L315 365 L315 365 Z " />
<glyph glyph-name="Q" unicode="Q" horiz-adv-x="884" d="M1184 -48 L1181 -45 C1150 -71 1016 -88 846 -88 C657 -88 477 -57 372 -8 C388 -10 405 -11 422 -11 C669 -11 834 143 834 374 C834 605 673 759 432 759 C197 759 40 605 40 374 C40 229 100 115 201 50 C398 -88 650 -179 831 -179 C949 -179 1090 -127 1184 -48 L1184 -48 Z M187 375 C187 599 284 749 430 749 C584 749 687 599 687 375 C687 147 577 -5 412 -5 C277 -5 187 147 187 375 L187 375 Z " />
<glyph glyph-name="R" unicode="R" horiz-adv-x="851" d="M51 735 L65 735 C114 735 146 695 146 635 L146 115 C146 55 114 15 65 15 L51 15 L51 0 L376 0 L376 15 L362 15 C313 15 281 55 281 115 L281 346 L352 346 C377 306 451 205 552 74 C607 2 619 -1 841 -1 L841 19 C757 19 752 21 711 74 C607 209 528 312 492 359 C594 383 656 440 656 535 C656 663 536 749 357 749 L51 749 L51 735 L51 735 Z M281 379 L281 722 L317 722 C431 722 507 658 507 562 C507 436 447 379 357 379 L281 379 L281 379 Z " />
<glyph glyph-name="S" unicode="S" horiz-adv-x="555" d="M47 254 L47 -12 L61 -12 L65 15 C69 42 110 43 170 18 C179 13 189 9 199 5 C206 1 213 -2 220 -5 L221 -2 C241 -7 262 -10 283 -10 C422 -10 515 77 515 207 C515 308 450 399 323 445 C217 483 163 543 163 603 C163 691 203 749 264 749 C266 749 287 748 287 747 C356 737 421 664 449 565 L458 536 L478 536 L478 766 L464 766 L460 746 C456 727 417 726 361 744 C339 757 315 766 291 770 L289 760 C150 772 58 685 58 552 C58 445 121 350 242 306 C351 266 407 215 407 169 C407 36 314 -33 208 26 C153 59 102 135 77 224 L68 254 L47 254 L47 254 Z " />
<glyph glyph-name="T" unicode="T" horiz-adv-x="775" d="M688 805 L684 797 C672 769 613 750 535 750 L241 750 C163 750 104 769 92 797 L88 805 L77 805 C68 783 57 755 48 733 L55 733 L55 725 C37 680 15 624 -3 581 L12 581 L24 601 C65 670 146 716 227 716 L320 716 L320 115 C320 55 288 15 239 15 L225 15 L225 0 L550 0 L550 15 L536 15 C487 15 455 55 455 115 L455 716 L550 716 C631 716 712 670 753 601 L765 581 L780 581 C762 626 739 685 720 731 L720 733 L728 733 C719 755 708 783 699 805 L688 805 L688 805 Z " />
<glyph glyph-name="U" unicode="U" horiz-adv-x="832" d="M16 734 L30 734 C79 734 111 694 111 634 L111 220 C111 82 198 -10 328 -10 C432 -10 530 50 572 141 L572 0 L640 0 L697 15 C733 24 771 34 802 42 L802 57 L788 53 C739 40 707 71 707 131 L707 749 L572 749 L572 748 L477 748 L477 733 L491 733 C540 733 572 693 572 633 L572 201 C537 126 461 76 382 76 C300 76 246 133 246 219 L246 749 L111 749 L111 748 L16 748 L16 734 L16 734 Z " />
<glyph glyph-name="V" unicode="V" horiz-adv-x="881" d="M845 750 L538 750 L538 731 L561 731 C639 731 668 671 634 581 L634 581 L412 -10 L439 -10 L688 593 C725 676 781 731 830 731 L845 731 L845 750 L845 750 Z M372 750 L-6 750 L-6 731 L7 731 C51 731 106 672 146 584 C235 386 324 189 412 -10 L484 183 C424 316 363 449 304 581 C263 671 282 731 352 731 L372 731 L372 750 L372 750 Z " />
<glyph glyph-name="W" unicode="W" horiz-adv-x="1221" d="M778 750 L407 750 L407 731 L421 731 C464 731 514 686 548 617 C565 578 582 539 599 500 L486 162 L303 614 C278 685 297 731 351 731 L368 731 L368 750 L22 750 L22 731 L35 731 C78 731 129 679 163 601 L163 601 C251 397 339 193 428 -10 L462 -10 L463 -5 L624 444 C691 293 758 142 825 -9 L859 -9 L859 -4 L1040 613 C1064 685 1113 732 1164 732 L1179 732 L1179 751 L872 751 L872 732 L894 732 C971 732 1008 680 987 602 L987 602 L877 189 L697 612 C670 685 694 733 758 733 L778 733 L778 750 L778 750 Z " />
<glyph glyph-name="X" unicode="X" horiz-adv-x="884" d="M835 750 L547 750 L547 735 L566 735 C627 735 639 696 599 637 L453 438 L320 637 C283 696 292 735 343 735 L359 735 L359 750 L14 750 L14 735 L26 735 C67 735 122 693 164 630 L356 342 C300 268 245 194 189 120 C142 57 74 15 21 15 L5 15 L5 0 L289 0 L289 15 L269 15 C206 15 194 57 238 120 L238 120 L374 315 L504 120 C546 57 538 15 485 15 L469 15 L469 0 L815 0 L815 15 L803 15 C762 15 707 57 665 120 L665 120 L461 426 C521 494 580 563 640 631 C695 694 767 736 820 736 L836 736 L835 750 L835 750 Z " />
<glyph glyph-name="Y" unicode="Y" horiz-adv-x="806" d="M236 0 L602 0 L602 15 L585 15 C526 15 487 63 487 135 L487 334 C539 433 591 532 643 630 C676 693 734 735 787 735 L803 735 L803 750 L550 750 L550 735 L572 735 C632 735 655 697 630 639 L483 347 C426 441 368 535 311 629 C273 692 283 734 337 734 L353 734 L353 749 L7 749 L7 734 L19 734 C60 734 113 692 153 629 L153 629 L351 315 L351 134 C351 62 312 14 253 14 L236 14 L236 0 L236 0 Z " />
<glyph glyph-name="Z" unicode="Z" horiz-adv-x="657" d="M71 577 L77 598 C96 666 167 712 257 716 L465 720 L25 27 L25 0 L606 0 L610 20 C611 20 624 81 646 176 L631 176 L622 155 C595 90 522 44 437 37 L182 31 L609 723 L609 750 L69 750 L66 712 C66 712 59 620 55 577 L71 577 L71 577 Z " />
<glyph glyph-name="bracketleft" unicode="&#x5b;" horiz-adv-x="302" d="M142 716 L352 716 L352 750 L102 750 L102 -195 L352 -195 L352 -161 L142 -161 L142 716 L142 716 Z " />
<glyph glyph-name="backslash" unicode="&#x5c;" horiz-adv-x="356" d="M18 770 L278 -80 L346 -80 L86 770 L18 770 L18 770 Z " />
<glyph glyph-name="bracketright" unicode="&#x5d;" horiz-adv-x="305" d="M155 716 L155 -161 L-55 -161 L-55 -195 L195 -195 L195 750 L-55 750 L-55 716 L155 716 L155 716 Z " />
<glyph glyph-name="asciicircum" unicode="&#x5e;" horiz-adv-x="340" d="M211 746 C203 758 183 787 170 787 C158 787 138 758 130 746 L16 568 L31 555 L170 672 L309 555 L324 568 L211 746 L211 746 Z " />
<glyph glyph-name="underscore" unicode="&#x5f;" horiz-adv-x="455" d="M5 -50 L5 -114 L450 -114 L450 -50 L5 -50 L5 -50 Z " />
<glyph glyph-name="grave" unicode="&#x60;" horiz-adv-x="340" d="M-33 738 C-33 730 -9 708 27 679 L171 561 L186 576 L79 731 C53 770 32 796 25 796 C-6 796 -33 769 -33 738 L-33 738 Z " />
<glyph glyph-name="a" unicode="a" horiz-adv-x="512" d="M522 124 L513 128 C508 97 483 77 451 77 C420 77 400 94 400 120 L400 353 C400 461 342 510 256 510 C137 510 57 414 57 360 C57 312 86 280 129 280 C163 280 185 313 185 337 C185 356 165 377 165 399 C165 434 198 495 247 495 C270 495 285 464 285 394 L285 264 C84 202 37 176 37 93 C37 31 82 -11 149 -11 C185 -11 231 14 290 80 C304 27 347 -6 405 -6 C462 -6 509 46 523 123 L522 124 L522 124 Z M286 255 L286 119 C286 108 287 97 289 87 C262 60 235 49 211 49 C177 49 154 71 154 104 C154 199 179 221 286 254 L286 255 L286 255 Z " />
<glyph glyph-name="b" unicode="b" horiz-adv-x="621" d="M10 705 L21 705 C59 706 85 670 85 613 L85 0 L92 0 L128 58 C171 16 239 -10 317 -10 C472 -10 576 95 576 253 C576 404 482 505 342 505 C291 505 237 479 200 438 L200 750 L143 750 C103 740 50 726 10 715 L10 705 L10 705 Z M200 111 L200 418 C228 448 268 467 304 467 C389 467 446 376 446 240 C446 100 396 7 320 7 C270 7 223 48 199 111 L200 111 L200 111 Z " />
<glyph glyph-name="c" unicode="c" horiz-adv-x="537" d="M507 128 L502 130 C473 65 407 22 336 22 C235 22 167 124 167 277 C167 412 233 502 332 502 C347 502 371 463 392 405 C404 371 428 348 450 348 C497 348 519 371 507 405 C484 468 415 510 335 510 C161 510 45 400 45 234 C45 88 154 -10 318 -10 C395 -10 470 45 507 128 L507 128 Z " />
<glyph glyph-name="d" unicode="d" horiz-adv-x="618" d="M318 704 L329 704 C367 705 393 669 393 612 L393 444 C361 483 314 510 264 510 C119 510 44 406 44 249 C44 97 124 -5 243 -5 C298 -5 357 24 392 68 L392 0 L449 0 L449 -1 C495 12 556 28 602 40 L602 55 L588 51 C539 38 507 69 507 129 L507 750 L450 750 L392 735 L392 734 C366 727 339 720 317 714 L318 704 L318 704 Z M392 375 L392 82 C370 59 331 44 290 44 C213 44 162 139 162 282 C162 400 201 478 278 478 C328 478 375 431 392 376 L392 375 L392 375 Z " />
<glyph glyph-name="e" unicode="e" horiz-adv-x="548" d="M169 340 L518 340 C496 462 415 510 305 510 C149 510 45 431 45 228 C45 85 140 -10 282 -10 C380 -10 467 48 498 134 L493 135 C469 68 389 24 294 24 C217 24 166 124 166 275 C166 299 167 321 169 341 L169 340 L169 340 Z M389 351 L170 349 C185 458 235 503 303 503 C338 503 368 461 389 351 L389 351 Z " />
<glyph glyph-name="f" unicode="f" horiz-adv-x="400" d="M312 15 L301 15 C263 15 237 41 237 80 L237 439 L390 439 L390 500 L237 500 C237 631 269 719 331 719 C378 719 423 635 462 635 C489 635 507 653 507 680 C507 725 453 755 372 755 C207 755 122 653 122 500 L36 453 L36 439 L122 439 L122 80 C122 41 96 15 58 15 L47 15 L47 0 L312 0 L312 15 L312 15 Z " />
<glyph glyph-name="g" unicode="g" horiz-adv-x="520" d="M543 461 C543 502 513 530 468 530 C437 530 403 507 379 471 C347 496 303 510 251 510 C141 510 67 446 67 350 C67 269 119 210 201 193 C109 184 50 150 50 102 C50 46 82 5 132 -9 C75 -28 39 -61 39 -97 C39 -177 128 -230 262 -230 C396 -230 485 -162 485 -59 C485 36 433 99 298 99 L178 99 C142 99 118 114 118 137 C118 168 171 188 251 188 C361 188 435 253 435 350 C435 393 420 430 393 457 C428 464 462 411 493 411 C522 411 542 431 542 461 L543 461 L543 461 Z M250 196 C209 196 181 258 181 350 C181 441 209 502 250 502 C291 502 319 441 319 350 C319 258 291 196 250 196 L250 196 Z M151 -14 C157 -15 164 -15 171 -15 L285 -15 C360 -15 389 -43 389 -86 C389 -168 339 -222 263 -222 C185 -222 133 -161 133 -70 C133 -46 140 -26 151 -13 L151 -14 L151 -14 Z " />
<glyph glyph-name="h" unicode="h" horiz-adv-x="643" d="M11 705 L22 705 C60 706 86 670 86 613 L86 80 C86 41 60 15 22 15 L11 15 L11 0 L276 0 L276 15 L265 15 C227 15 201 41 201 80 L201 382 C217 410 272 429 338 429 C394 429 423 377 423 300 L423 80 C423 41 397 15 359 15 L348 15 L348 0 L613 0 L613 15 L602 15 C564 15 538 41 538 80 L538 300 C538 426 492 510 403 510 C322 510 242 463 201 393 L201 750 L144 750 C104 740 51 726 11 715 L11 705 L11 705 Z " />
<glyph glyph-name="i" unicode="i" horiz-adv-x="316" d="M154 615 C198 615 228 645 228 689 C228 734 198 764 154 764 C109 764 79 734 79 689 C79 645 109 615 154 615 L154 615 Z M21 455 L32 455 C70 456 96 420 96 363 L96 80 C96 41 70 15 32 15 L21 15 L21 0 L286 0 L286 15 L275 15 C237 15 211 41 211 80 L211 500 L154 500 C114 490 61 476 21 465 L21 455 L21 455 Z " />
<glyph glyph-name="j" unicode="j" horiz-adv-x="310" d="M163 615 C207 615 237 645 237 689 C237 734 207 764 163 764 C118 764 88 734 88 689 C88 645 118 615 163 615 L163 615 Z M30 455 L41 455 C79 456 105 420 105 363 L105 68 C105 -27 85 -103 55 -120 C24 -120 -18 -100 -50 -100 C-77 -100 -95 -116 -95 -140 C-95 -169 -71 -187 -35 -185 C-28 -185 14 -163 70 -130 C160 -78 220 1 220 68 L220 500 L163 500 C123 490 70 476 30 465 L30 455 L30 455 Z " />
<glyph glyph-name="k" unicode="k" horiz-adv-x="655" d="M621 500 L339 500 L339 485 L363 485 C444 485 417 429 297 345 L201 280 L201 750 L144 750 C104 740 51 726 11 715 L11 705 L22 705 C60 706 86 670 86 613 L86 80 C86 41 60 15 22 15 L11 15 L11 0 L276 0 L276 15 L265 15 C227 15 201 41 201 80 L201 280 L362 96 C403 47 411 15 381 15 L372 15 L372 0 L642 0 L642 15 L633 15 C603 15 548 55 496 115 L496 115 L306 335 C323 347 340 359 358 371 C459 440 559 486 607 486 L621 486 L621 500 L621 500 Z " />
<glyph glyph-name="l" unicode="l" horiz-adv-x="306" d="M11 705 L22 705 C60 706 86 670 86 613 L86 80 C86 41 60 15 22 15 L11 15 L11 0 L276 0 L276 15 L265 15 C227 15 201 41 201 80 L201 750 L144 750 C104 740 51 726 11 715 L11 705 L11 705 Z " />
<glyph glyph-name="m" unicode="m" horiz-adv-x="932" d="M637 0 L902 0 L902 15 L891 15 C853 15 827 41 827 80 L827 300 C827 426 788 510 686 510 C617 510 546 465 507 398 L507 387 C520 410 573 425 639 425 C692 425 712 375 712 300 L712 80 C712 41 686 15 648 15 L637 15 L637 0 L637 0 Z M11 455 L22 455 C60 456 86 420 86 363 L86 80 C86 41 60 15 22 15 L11 15 L11 0 L276 0 L276 15 L265 15 C227 15 201 41 201 80 L201 387 C214 410 264 425 326 425 C379 425 399 375 399 300 L399 80 C399 41 373 15 335 15 L324 15 L324 0 L589 0 L589 15 L578 15 C540 15 514 41 514 80 L514 300 C514 426 475 510 373 510 C309 510 240 465 201 398 L201 500 L144 500 C104 490 51 476 11 465 L11 455 L11 455 Z " />
<glyph glyph-name="n" unicode="n" horiz-adv-x="619" d="M11 455 L22 455 C60 456 86 420 86 363 L86 80 C86 41 60 15 22 15 L11 15 L11 0 L276 0 L276 15 L265 15 C227 15 201 41 201 80 L201 373 C228 419 281 450 335 450 C377 450 399 398 399 321 L399 80 C399 41 373 15 335 15 L324 15 L324 0 L589 0 L589 15 L578 15 C540 15 514 41 514 80 L514 321 C514 434 466 510 373 510 C310 510 242 463 201 393 L201 500 L144 500 C104 490 51 476 11 465 L11 455 L11 455 Z " />
<glyph glyph-name="o" unicode="o" horiz-adv-x="622" d="M172 250 C172 399 228 499 311 499 C394 499 450 399 450 250 C450 101 394 1 311 1 C228 1 172 101 172 250 L172 250 Z M45 250 C45 94 151 -10 311 -10 C471 -10 577 94 577 250 C577 406 471 510 311 510 C151 510 45 406 45 250 L45 250 Z " />
<glyph glyph-name="p" unicode="p" horiz-adv-x="612" d="M-4 455 L7 455 C45 456 71 420 71 363 L71 -140 C71 -179 45 -205 7 -205 L-4 -205 L-4 -220 L261 -220 L261 -205 L250 -205 C212 -205 186 -179 186 -140 L186 20 C223 4 266 -5 313 -5 C465 -5 567 116 567 259 C567 410 475 510 338 510 C278 510 220 485 187 445 L187 500 L130 500 C90 490 37 476 -3 465 L-4 455 L-4 455 Z M187 130 L187 399 C215 437 253 462 286 462 C379 462 441 366 441 223 C441 116 393 24 321 24 C260 24 206 66 187 130 L187 130 Z " />
<glyph glyph-name="q" unicode="q" horiz-adv-x="556" d="M551 -205 L540 -205 C502 -205 476 -179 476 -140 L476 500 L469 500 L434 445 C395 485 337 509 272 509 C109 509 25 405 25 248 C25 96 106 -6 227 -6 C275 -6 325 18 360 56 L360 -142 C360 -181 334 -207 296 -207 L285 -207 L285 -222 L550 -222 L551 -205 L551 -205 Z M360 388 L360 96 C332 62 300 41 275 41 C196 41 144 136 144 279 C144 401 185 482 266 482 C302 482 339 445 360 388 L360 388 Z " />
<glyph glyph-name="r" unicode="r" horiz-adv-x="478" d="M12 455 L23 455 C61 456 87 420 87 363 L87 80 C87 41 61 15 23 15 L12 15 L12 0 L277 0 L277 15 L266 15 C228 15 202 41 202 80 L202 381 C221 427 256 456 293 456 C317 456 333 442 333 421 C333 380 360 353 401 353 C441 353 468 380 468 421 C468 474 420 510 347 510 C284 510 228 467 202 401 L202 500 L145 500 C105 490 52 476 12 465 L12 455 L12 455 Z " />
<glyph glyph-name="s" unicode="s" horiz-adv-x="434" d="M361 329 L361 521 L350 521 L347 506 C347 504 314 505 262 508 C247 515 231 519 215 519 L215 510 C119 510 55 455 55 372 C55 293 100 229 186 206 C258 187 295 148 295 105 C295 41 261 -2 211 -2 C204 -2 197 -1 190 1 L191 8 C180 10 169 13 158 18 C118 47 90 101 74 169 L70 190 L58 190 L58 -12 L69 -12 L72 5 C72 8 106 5 159 -3 C174 -12 189 -17 203 -18 L204 -9 C311 -12 382 50 382 139 C382 209 332 269 234 295 C169 313 135 358 135 413 C135 469 169 509 222 503 L222 495 C237 494 251 491 264 487 C299 463 328 415 342 352 L347 331 L361 329 L361 329 Z " />
<glyph glyph-name="t" unicode="t" horiz-adv-x="412" d="M362 500 L210 500 L210 620 L202 620 L30 449 L30 439 L95 439 L95 186 C95 45 157 -10 249 -10 C328 -10 389 43 402 122 L387 125 C379 76 338 44 284 44 C238 44 207 77 207 161 L210 439 L362 439 L362 500 L362 500 Z " />
<glyph glyph-name="u" unicode="u" horiz-adv-x="610" d="M595 53 L582 50 C539 39 510 71 510 131 L510 500 L453 500 L453 501 L320 501 L320 486 L331 486 C369 486 395 460 395 421 L395 134 C374 95 330 70 280 70 C230 70 196 106 196 160 L196 500 L6 500 L6 485 L17 485 C55 485 81 459 81 420 L81 160 C81 58 139 -10 226 -10 C294 -10 360 42 394 122 L394 0 L451 0 L451 -1 C494 11 551 26 594 38 L595 53 L595 53 Z " />
<glyph glyph-name="v" unicode="v" horiz-adv-x="620" d="M591 500 L394 500 L394 485 L404 485 C438 485 449 448 432 391 L351 156 L251 393 C231 449 238 485 271 485 L281 485 L281 500 L11 500 L11 485 L23 485 C61 485 104 443 130 380 L130 380 L294 -10 L328 -10 L481 392 C506 448 545 485 580 485 L591 485 L591 500 L591 500 Z " />
<glyph glyph-name="w" unicode="w" horiz-adv-x="961" d="M923 500 L725 500 L725 485 L735 485 C771 485 779 443 756 380 L673 153 C641 229 609 305 577 380 C550 443 556 485 591 485 L601 485 L601 500 L328 500 L328 485 L340 485 C376 485 417 447 444 388 L460 349 L382 146 C348 224 313 302 279 380 C251 443 256 485 291 485 L301 485 L301 500 L29 500 L29 485 L40 485 C78 485 122 443 150 380 L150 380 L323 -10 L357 -10 L482 297 L612 -10 L646 -10 L808 390 C834 447 874 484 911 484 L922 484 L923 500 L923 500 Z " />
<glyph glyph-name="x" unicode="x" horiz-adv-x="636" d="M593 500 L402 500 L402 485 L412 485 C445 485 438 443 394 380 L394 380 L345 309 L296 387 C261 446 258 485 290 485 L300 485 L300 500 L18 500 L18 485 L30 485 C68 485 120 443 159 380 L159 380 L252 232 L166 120 C119 58 61 15 23 15 L12 15 L12 0 L203 0 L203 15 L193 15 C160 15 167 57 210 120 L210 120 L269 207 L327 114 C362 55 365 16 333 16 L323 16 L323 1 L605 1 L605 16 L593 16 C555 16 503 58 464 121 L464 121 L363 282 C388 315 413 348 439 380 C487 443 545 485 583 485 L594 485 L593 500 L593 500 Z " />
<glyph glyph-name="y" unicode="y" horiz-adv-x="649" d="M620 500 L423 500 L423 485 L434 485 C467 485 478 450 463 396 L382 151 L272 381 C272 381 223 486 279 486 L289 486 L289 501 L20 501 L20 486 L31 486 C69 486 115 444 145 381 L145 381 L325 4 L319 -9 L264 -150 C254 -176 239 -193 237 -193 C215 -193 210 -155 187 -155 C158 -155 138 -175 138 -204 C138 -237 160 -259 192 -259 C222 -259 270 -221 292 -165 L354 -9 C405 124 456 258 507 391 C531 449 571 487 607 487 L618 487 L620 500 L620 500 Z " />
<glyph glyph-name="z" unicode="z" horiz-adv-x="475" d="M256 35 L180 32 L435 473 L435 500 L169 500 C117 500 88 515 97 542 L79 542 C73 523 66 498 61 479 L62 479 C60 472 47 423 28 352 L45 352 L53 368 C80 419 144 456 218 464 L300 467 L41 26 L41 -1 L431 -1 L431 19 L436 19 C436 19 441 70 449 147 L432 147 L426 131 C406 76 337 37 256 34 L256 35 L256 35 Z " />
<glyph glyph-name="bar" unicode="&#x7c;" horiz-adv-x="209" d="M60 800 L60 -250 L149 -250 L149 800 L60 800 L60 800 Z " />
<glyph glyph-name="asciitilde" unicode="&#x7e;" horiz-adv-x="340" d="M28 310 C28 343 44 365 69 365 C119 365 187 300 237 300 C286 300 319 356 319 441 L312 441 C312 405 293 381 264 381 C214 381 146 446 96 446 C51 446 21 392 21 310 L28 310 L28 310 Z " />
<glyph glyph-name="exclamdown" unicode="&#xa1;" horiz-adv-x="281" d="M141 505 C93 505 61 473 61 425 C61 377 93 345 141 345 C189 345 221 377 221 425 C221 473 189 505 141 505 L141 505 Z M141 -255 C196 -255 221 -206 211 -132 C211 -132 151 163 151 290 L130 290 C130 163 70 -132 70 -132 C60 -206 86 -255 141 -255 L141 -255 Z " />
<glyph glyph-name="cent" unicode="&#xa2;" horiz-adv-x="537" d="M300 575 L300 508 C146 494 45 388 45 233 C45 92 146 -4 300 -11 L300 -76 L340 -76 L340 -10 C409 -1 474 51 507 126 L502 128 C474 64 410 21 341 19 L341 496 C356 486 376 451 394 402 C406 368 430 345 452 345 C499 345 521 368 509 402 C486 464 419 506 341 508 L341 573 L300 575 L300 575 Z M301 25 C220 46 168 141 168 275 C168 395 220 479 301 496 L301 25 L301 25 Z " />
<glyph glyph-name="acute" unicode="&#xb4;" horiz-adv-x="340" d="M179 561 L323 679 C359 709 383 732 383 738 C383 769 356 796 325 796 C319 796 299 770 271 731 L164 576 L179 561 L179 561 Z " />
<glyph glyph-name="questiondown" unicode="&#xbf;" horiz-adv-x="295" d="M170 505 C122 505 90 473 90 425 C90 377 122 345 170 345 C218 345 250 377 250 425 C250 473 218 505 170 505 L170 505 Z M168 260 C168 260 169 140 170 140 C70 140 38 109 7 63 C-12 35 -24 -13 -24 -57 C-24 -179 46 -260 150 -260 C215 -260 258 -226 258 -175 C258 -141 233 -118 196 -118 C170 -118 134 -138 108 -138 C49 -138 10 -100 10 -43 C10 -32 19 -12 32 8 C53 39 80 60 198 60 C192 58 188 260 188 260 L168 260 L168 260 Z " />
<glyph glyph-name="Agrave" unicode="&#xc0;" horiz-adv-x="839" d="M22 0 L320 0 L320 19 L299 19 C230 19 199 75 221 160 L258 290 L498 290 C511 250 525 209 537 169 C566 79 538 19 468 19 L447 19 L447 0 L834 0 L834 19 L818 19 C765 19 709 79 679 169 L679 169 L498 709 C498 709 484 770 478 770 L464 770 C469 743 428 718 363 709 L366 699 L366 699 L212 169 C186 79 119 19 45 19 L23 19 L22 0 L22 0 Z M228 988 C228 979 252 957 287 929 L432 811 L446 826 L340 981 C314 1020 293 1046 285 1046 C254 1046 228 1019 228 988 L228 988 Z M262 301 L371 685 L495 301 L262 301 L262 301 Z " />
<glyph glyph-name="Aacute" unicode="&#xc1;" horiz-adv-x="839" d="M438 811 L583 929 C618 958 642 981 642 988 C642 1019 616 1046 585 1046 C578 1046 557 1020 530 981 L424 826 L438 811 L438 811 Z M22 0 L320 0 L320 19 L299 19 C230 19 199 75 221 160 L258 290 L498 290 C511 250 525 209 537 169 C566 79 538 19 468 19 L447 19 L447 0 L834 0 L834 19 L818 19 C765 19 709 79 679 169 L679 169 L498 709 C498 709 484 770 478 770 L464 770 C469 743 428 718 363 709 L366 699 L366 699 L212 169 C186 79 119 19 45 19 L23 19 L22 0 L22 0 Z M262 301 L371 685 L495 301 L262 301 L262 301 Z " />
<glyph glyph-name="Acircumflex" unicode="&#xc2;" horiz-adv-x="839" d="M22 0 L320 0 L320 19 L299 19 C230 19 199 75 221 160 L258 290 L498 290 C511 250 525 209 537 169 C566 79 538 19 468 19 L447 19 L447 0 L834 0 L834 19 L818 19 C765 19 709 79 679 169 L679 169 L498 709 C498 709 484 770 478 770 L464 770 C469 743 428 718 363 709 L366 699 L366 699 L212 169 C186 79 119 19 45 19 L23 19 L22 0 L22 0 Z M471 996 C463 1008 443 1037 431 1037 C418 1037 398 1008 390 996 L276 818 L292 805 L431 921 L569 805 L585 818 L471 996 L471 996 Z M262 301 L371 685 L495 301 L262 301 L262 301 Z " />
<glyph glyph-name="Atilde" unicode="&#xc3;" horiz-adv-x="839" d="M287 870 C287 903 304 925 329 925 C379 925 447 860 497 860 C546 860 578 916 578 1001 L572 1001 C572 965 553 941 524 941 C473 941 406 1006 355 1006 C311 1006 281 952 281 870 L287 870 L287 870 Z M22 0 L320 0 L320 19 L299 19 C230 19 199 75 221 160 L258 290 L498 290 C511 250 525 209 537 169 C566 79 538 19 468 19 L447 19 L447 0 L834 0 L834 19 L818 19 C765 19 709 79 679 169 L679 169 L498 709 C498 709 484 770 478 770 L464 770 C469 743 428 718 363 709 L366 699 L366 699 L212 169 C186 79 119 19 45 19 L23 19 L22 0 L22 0 Z M262 301 L371 685 L495 301 L262 301 L262 301 Z " />
<glyph glyph-name="Adieresis" unicode="&#xc4;" horiz-adv-x="839" d="M510 865 C554 865 584 895 584 939 C584 984 554 1014 510 1014 C465 1014 435 984 435 939 C435 895 465 865 510 865 L510 865 Z M349 865 C394 865 424 895 424 939 C424 984 394 1014 349 1014 C305 1014 275 984 275 939 C275 895 305 865 349 865 L349 865 Z M22 0 L320 0 L320 19 L299 19 C230 19 199 75 221 160 L258 290 L498 290 C511 250 525 209 537 169 C566 79 538 19 468 19 L447 19 L447 0 L834 0 L834 19 L818 19 C765 19 709 79 679 169 L679 169 L498 709 C498 709 484 770 478 770 L464 770 C469 743 428 718 363 709 L366 699 L366 699 L212 169 C186 79 119 19 45 19 L23 19 L22 0 L22 0 Z M262 301 L371 685 L495 301 L262 301 L262 301 Z " />
<glyph glyph-name="Aring" unicode="&#xc5;" horiz-adv-x="839" d="M365 905 C365 946 391 973 430 973 C468 973 494 946 494 905 C494 868 465 837 430 837 C395 837 365 868 365 905 L365 905 Z M331 905 C331 854 377 810 430 810 C483 810 528 854 528 905 C528 962 489 1000 430 1000 C371 1000 331 962 331 905 L331 905 Z M22 0 L320 0 L320 19 L299 19 C230 19 199 75 221 160 L258 290 L498 290 C511 250 525 209 537 169 C566 79 538 19 468 19 L447 19 L447 0 L834 0 L834 19 L818 19 C765 19 709 79 679 169 L679 169 L498 709 C498 709 484 770 478 770 L464 770 C469 743 428 718 363 709 L366 699 L366 699 L212 169 C186 79 119 19 45 19 L23 19 L22 0 L22 0 Z M262 301 L371 685 L495 301 L262 301 L262 301 Z " />
<glyph glyph-name="Egrave" unicode="&#xc8;" horiz-adv-x="693" d="M165 988 C165 979 189 957 224 929 L369 811 L383 826 L277 981 C251 1020 230 1046 222 1046 C191 1046 165 1019 165 988 L165 988 Z M31 735 L48 735 C107 735 146 687 146 615 L146 135 C146 63 107 15 48 15 L31 15 L31 0 L616 0 L617 4 L617 4 C624 46 634 102 641 144 L626 144 L618 124 C595 59 525 15 440 10 C298 17 282 85 282 184 L282 386 L362 386 C440 386 500 337 513 263 L517 241 L532 241 L532 541 L517 541 L513 519 C500 445 440 396 362 396 L282 396 L282 742 L423 742 C501 742 567 693 589 619 L596 597 L611 597 C605 642 598 702 592 747 L593 747 L592 751 L32 751 L31 735 L31 735 Z " />
<glyph glyph-name="Eacute" unicode="&#xc9;" horiz-adv-x="693" d="M376 811 L521 929 C556 958 580 981 580 988 C580 1019 554 1046 523 1046 C516 1046 495 1020 468 981 L362 826 L376 811 L376 811 Z M31 735 L48 735 C107 735 146 687 146 615 L146 135 C146 63 107 15 48 15 L31 15 L31 0 L616 0 L617 4 L617 4 C624 46 634 102 641 144 L626 144 L618 124 C595 59 525 15 440 10 C298 17 282 85 282 184 L282 386 L362 386 C440 386 500 337 513 263 L517 241 L532 241 L532 541 L517 541 L513 519 C500 445 440 396 362 396 L282 396 L282 742 L423 742 C501 742 567 693 589 619 L596 597 L611 597 C605 642 598 702 592 747 L593 747 L592 751 L32 751 L31 735 L31 735 Z " />
<glyph glyph-name="Ecircumflex" unicode="&#xca;" horiz-adv-x="693" d="M408 996 C400 1008 380 1037 368 1037 C355 1037 335 1008 327 996 L213 818 L229 805 L368 921 L506 805 L522 818 L408 996 L408 996 Z M31 735 L48 735 C107 735 146 687 146 615 L146 135 C146 63 107 15 48 15 L31 15 L31 0 L616 0 L617 4 L617 4 C624 46 634 102 641 144 L626 144 L618 124 C595 59 525 15 440 10 C298 17 282 85 282 184 L282 386 L362 386 C440 386 500 337 513 263 L517 241 L532 241 L532 541 L517 541 L513 519 C500 445 440 396 362 396 L282 396 L282 742 L423 742 C501 742 567 693 589 619 L596 597 L611 597 C605 642 598 702 592 747 L593 747 L592 751 L32 751 L31 735 L31 735 Z " />
<glyph glyph-name="Edieresis" unicode="&#xcb;" horiz-adv-x="693" d="M448 865 C492 865 522 895 522 939 C522 984 492 1014 448 1014 C403 1014 373 984 373 939 C373 895 403 865 448 865 L448 865 Z M287 865 C332 865 362 895 362 939 C362 984 332 1014 287 1014 C243 1014 213 984 213 939 C213 895 243 865 287 865 L287 865 Z M31 735 L48 735 C107 735 146 687 146 615 L146 135 C146 63 107 15 48 15 L31 15 L31 0 L616 0 L617 4 L617 4 C624 46 634 102 641 144 L626 144 L618 124 C595 59 525 15 440 10 C298 17 282 85 282 184 L282 386 L362 386 C440 386 500 337 513 263 L517 241 L532 241 L532 541 L517 541 L513 519 C500 445 440 396 362 396 L282 396 L282 742 L423 742 C501 742 567 693 589 619 L596 597 L611 597 C605 642 598 702 592 747 L593 747 L592 751 L32 751 L31 735 L31 735 Z " />
<glyph glyph-name="Igrave" unicode="&#xcc;" horiz-adv-x="423" d="M-3 988 C-3 980 21 958 57 929 L201 811 L216 826 L109 981 C83 1020 62 1046 55 1046 C24 1046 -3 1019 -3 988 L-3 988 Z M363 15 L349 15 C300 15 268 55 268 115 L268 635 C268 695 300 735 349 735 L363 735 L363 750 L37 750 L37 735 L51 735 C100 735 132 695 132 635 L132 115 C132 55 100 15 51 15 L37 15 L37 0 L363 0 L363 15 L363 15 Z " />
<glyph glyph-name="Iacute" unicode="&#xcd;" horiz-adv-x="423" d="M209 811 L353 929 C389 959 413 982 413 988 C413 1019 386 1046 355 1046 C349 1046 329 1020 301 981 L194 826 L209 811 L209 811 Z M363 15 L349 15 C300 15 268 55 268 115 L268 635 C268 695 300 735 349 735 L363 735 L363 750 L37 750 L37 735 L51 735 C100 735 132 695 132 635 L132 115 C132 55 100 15 51 15 L37 15 L37 0 L363 0 L363 15 L363 15 Z " />
<glyph glyph-name="Icircumflex" unicode="&#xce;" horiz-adv-x="423" d="M241 996 C233 1008 213 1037 200 1037 C188 1037 168 1008 160 996 L46 818 L61 805 L200 922 L339 805 L354 818 L241 996 L241 996 Z M363 15 L349 15 C300 15 268 55 268 115 L268 635 C268 695 300 735 349 735 L363 735 L363 750 L37 750 L37 735 L51 735 C100 735 132 695 132 635 L132 115 C132 55 100 15 51 15 L37 15 L37 0 L363 0 L363 15 L363 15 Z " />
<glyph glyph-name="Idieresis" unicode="&#xcf;" horiz-adv-x="423" d="M280 865 C325 865 355 895 355 939 C355 984 325 1014 280 1014 C236 1014 206 984 206 939 C206 895 236 865 280 865 L280 865 Z M120 865 C164 865 194 895 194 939 C194 984 164 1014 120 1014 C75 1014 45 984 45 939 C45 895 75 865 120 865 L120 865 Z M363 15 L349 15 C300 15 268 55 268 115 L268 635 C268 695 300 735 349 735 L363 735 L363 750 L37 750 L37 735 L51 735 C100 735 132 695 132 635 L132 115 C132 55 100 15 51 15 L37 15 L37 0 L363 0 L363 15 L363 15 Z " />
<glyph glyph-name="Ntilde" unicode="&#xd1;" horiz-adv-x="820" d="M263 870 C263 903 279 925 304 925 C354 925 422 860 472 860 C521 860 554 916 554 1001 L547 1001 C547 965 528 941 499 941 C449 941 381 1006 331 1006 C286 1006 256 952 256 870 L263 870 L263 870 Z M-39 735 L-25 735 C21 735 80 699 126 645 L147 618 L146 115 L146 115 C146 55 113 15 65 15 L51 15 L51 0 L281 0 L281 15 L267 15 C221 15 189 51 186 106 L183 575 C332 384 481 193 630 1 L657 1 L666 648 C671 701 703 736 749 736 L763 736 L763 751 L533 751 L533 736 L547 736 C596 736 628 696 628 636 L628 636 L630 223 C491 399 353 575 215 751 L-36 751 L-39 735 L-39 735 Z " />
<glyph glyph-name="Ograve" unicode="&#xd2;" horiz-adv-x="889" d="M187 375 C187 599 284 749 430 749 C584 749 687 599 687 375 C687 151 582 1 424 1 C282 1 187 151 187 375 L187 375 Z M40 375 C40 144 193 -10 422 -10 C669 -10 834 144 834 375 C834 606 673 760 432 760 C197 760 40 606 40 375 L40 375 Z M229 988 C229 980 253 958 289 929 L433 811 L448 826 L341 981 C315 1020 294 1046 287 1046 C256 1046 229 1019 229 988 L229 988 Z " />
<glyph glyph-name="Oacute" unicode="&#xd3;" horiz-adv-x="889" d="M441 811 L585 929 C621 959 645 982 645 988 C645 1019 618 1046 587 1046 C581 1046 561 1020 533 981 L426 826 L441 811 L441 811 Z M187 375 C187 599 284 749 430 749 C584 749 687 599 687 375 C687 151 582 1 424 1 C282 1 187 151 187 375 L187 375 Z M40 375 C40 144 193 -10 422 -10 C669 -10 834 144 834 375 C834 606 673 760 432 760 C197 760 40 606 40 375 L40 375 Z " />
<glyph glyph-name="Ocircumflex" unicode="&#xd4;" horiz-adv-x="889" d="M187 375 C187 599 284 749 430 749 C584 749 687 599 687 375 C687 151 582 1 424 1 C282 1 187 151 187 375 L187 375 Z M40 375 C40 144 193 -10 422 -10 C669 -10 834 144 834 375 C834 606 673 760 432 760 C197 760 40 606 40 375 L40 375 Z M473 996 C465 1008 445 1037 432 1037 C420 1037 400 1008 392 996 L278 818 L293 805 L432 922 L571 805 L586 818 L473 996 L473 996 Z " />
<glyph glyph-name="Otilde" unicode="&#xd5;" horiz-adv-x="889" d="M290 870 C290 903 306 925 331 925 C381 925 449 860 499 860 C548 860 581 916 581 1001 L574 1001 C574 965 555 941 526 941 C476 941 408 1006 358 1006 C313 1006 283 952 283 870 L290 870 L290 870 Z M187 375 C187 599 284 749 430 749 C584 749 687 599 687 375 C687 151 582 1 424 1 C282 1 187 151 187 375 L187 375 Z M40 375 C40 144 193 -10 422 -10 C669 -10 834 144 834 375 C834 606 673 760 432 760 C197 760 40 606 40 375 L40 375 Z " />
<glyph glyph-name="Odieresis" unicode="&#xd6;" horiz-adv-x="889" d="M512 865 C557 865 587 895 587 939 C587 984 557 1014 512 1014 C468 1014 438 984 438 939 C438 895 468 865 512 865 L512 865 Z M352 865 C396 865 426 895 426 939 C426 984 396 1014 352 1014 C307 1014 277 984 277 939 C277 895 307 865 352 865 L352 865 Z M187 375 C187 599 284 749 430 749 C584 749 687 599 687 375 C687 151 582 1 424 1 C282 1 187 151 187 375 L187 375 Z M40 375 C40 144 193 -10 422 -10 C669 -10 834 144 834 375 C834 606 673 760 432 760 C197 760 40 606 40 375 L40 375 Z " />
<glyph glyph-name="Oslash" unicode="&#xd8;" horiz-adv-x="889" d="M47 -17 C47 -17 85 20 154 87 C220 25 312 -10 421 -10 C668 -10 833 144 833 375 C833 486 796 579 730 646 C766 681 803 717 841 754 L827 768 C789 731 752 695 716 660 C646 724 548 760 431 760 C196 760 39 606 39 375 C39 262 75 168 139 101 C70 34 32 -3 32 -3 L47 -17 L47 -17 Z M645 592 C468 421 321 279 215 177 C195 233 184 300 184 376 C184 600 281 750 427 750 C523 750 599 691 643 592 L645 592 L645 592 Z M651 572 C672 517 684 450 684 375 C684 151 579 1 421 1 C333 1 263 59 223 156 C328 258 475 400 652 572 L651 572 L651 572 Z " />
<glyph glyph-name="Ugrave" unicode="&#xd9;" horiz-adv-x="832" d="M16 734 L30 734 C79 734 111 694 111 634 L111 220 C111 82 198 -10 328 -10 C432 -10 530 50 572 141 L572 0 L640 0 L697 15 C733 24 771 34 802 42 L802 57 L788 53 C739 40 707 71 707 131 L707 749 L572 749 L572 748 L477 748 L477 733 L491 733 C540 733 572 693 572 633 L572 201 C537 126 461 76 382 76 C300 76 246 133 246 219 L246 749 L111 749 L111 748 L16 748 L16 734 L16 734 Z M206 986 C206 978 230 956 266 927 L410 809 L425 824 L318 979 C292 1018 271 1044 264 1044 C233 1044 206 1017 206 986 L206 986 Z " />
<glyph glyph-name="Uacute" unicode="&#xda;" horiz-adv-x="832" d="M418 810 L562 928 C598 958 622 981 622 987 C622 1018 595 1045 564 1045 C558 1045 538 1019 510 980 L403 825 L418 810 L418 810 Z M16 734 L30 734 C79 734 111 694 111 634 L111 220 C111 82 198 -10 328 -10 C432 -10 530 50 572 141 L572 0 L640 0 L697 15 C733 24 771 34 802 42 L802 57 L788 53 C739 40 707 71 707 131 L707 749 L572 749 L572 748 L477 748 L477 733 L491 733 C540 733 572 693 572 633 L572 201 C537 126 461 76 382 76 C300 76 246 133 246 219 L246 749 L111 749 L111 748 L16 748 L16 734 L16 734 Z " />
<glyph glyph-name="Ucircumflex" unicode="&#xdb;" horiz-adv-x="832" d="M16 734 L30 734 C79 734 111 694 111 634 L111 220 C111 82 198 -10 328 -10 C432 -10 530 50 572 141 L572 0 L640 0 L697 15 C733 24 771 34 802 42 L802 57 L788 53 C739 40 707 71 707 131 L707 749 L572 749 L572 748 L477 748 L477 733 L491 733 C540 733 572 693 572 633 L572 201 C537 126 461 76 382 76 C300 76 246 133 246 219 L246 749 L111 749 L111 748 L16 748 L16 734 L16 734 Z M450 994 C442 1006 422 1035 409 1035 C397 1035 377 1006 369 994 L255 816 L270 803 L409 920 L548 803 L563 816 L450 994 L450 994 Z " />
<glyph glyph-name="Udieresis" unicode="&#xdc;" horiz-adv-x="832" d="M489 864 C534 864 564 894 564 938 C564 983 534 1013 489 1013 C445 1013 415 983 415 938 C415 894 445 864 489 864 L489 864 Z M329 864 C373 864 403 894 403 938 C403 983 373 1013 329 1013 C284 1013 254 983 254 938 C254 894 284 864 329 864 L329 864 Z M16 734 L30 734 C79 734 111 694 111 634 L111 220 C111 82 198 -10 328 -10 C432 -10 530 50 572 141 L572 0 L640 0 L697 15 C733 24 771 34 802 42 L802 57 L788 53 C739 40 707 71 707 131 L707 749 L572 749 L572 748 L477 748 L477 733 L491 733 C540 733 572 693 572 633 L572 201 C537 126 461 76 382 76 C300 76 246 133 246 219 L246 749 L111 749 L111 748 L16 748 L16 734 L16 734 Z " />
<glyph glyph-name="Yacute" unicode="&#xdd;" horiz-adv-x="793" d="M415 811 L559 929 C595 959 619 982 619 988 C619 1019 592 1046 561 1046 C555 1046 535 1020 507 981 L400 826 L415 811 L415 811 Z M223 0 L589 0 L589 15 L572 15 C513 15 474 63 474 135 L474 334 C526 433 578 532 630 630 C663 693 721 735 774 735 L790 735 L790 750 L537 750 L537 735 L559 735 C619 735 642 697 617 639 L470 347 C413 441 355 535 298 629 C260 692 270 734 324 734 L340 734 L340 749 L-6 749 L-6 734 L6 734 C47 734 100 692 140 629 L140 629 L338 315 L338 134 C338 62 299 14 240 14 L223 14 L223 0 L223 0 Z " />
<glyph glyph-name="agrave" unicode="&#xe0;" horiz-adv-x="512" d="M522 124 L513 128 C508 97 483 77 451 77 C420 77 400 94 400 120 L400 353 C400 461 342 510 256 510 C137 510 57 414 57 360 C57 312 86 280 129 280 C163 280 185 313 185 337 C185 356 165 377 165 399 C165 434 198 495 247 495 C270 495 285 464 285 394 L285 264 C84 202 37 176 37 93 C37 31 82 -11 149 -11 C185 -11 231 14 290 80 C304 27 347 -6 405 -6 C462 -6 509 46 523 123 L522 124 L522 124 Z M54 737 C54 729 78 707 114 678 L258 560 L273 575 L166 730 C140 769 119 795 112 795 C81 795 54 768 54 737 L54 737 Z M286 255 L286 119 C286 108 287 97 289 87 C262 60 235 49 211 49 C177 49 154 71 154 104 C154 199 179 221 286 254 L286 255 L286 255 Z " />
<glyph glyph-name="aacute" unicode="&#xe1;" horiz-adv-x="512" d="M265 561 L409 679 C445 709 469 732 469 738 C469 769 442 796 411 796 C405 796 385 770 357 731 L250 576 L265 561 L265 561 Z M522 124 L513 128 C508 97 483 77 451 77 C420 77 400 94 400 120 L400 353 C400 461 342 510 256 510 C137 510 57 414 57 360 C57 312 86 280 129 280 C163 280 185 313 185 337 C185 356 165 377 165 399 C165 434 198 495 247 495 C270 495 285 464 285 394 L285 264 C84 202 37 176 37 93 C37 31 82 -11 149 -11 C185 -11 231 14 290 80 C304 27 347 -6 405 -6 C462 -6 509 46 523 123 L522 124 L522 124 Z M286 255 L286 119 C286 108 287 97 289 87 C262 60 235 49 211 49 C177 49 154 71 154 104 C154 199 179 221 286 254 L286 255 L286 255 Z " />
<glyph glyph-name="acircumflex" unicode="&#xe2;" horiz-adv-x="512" d="M522 124 L513 128 C508 97 483 77 451 77 C420 77 400 94 400 120 L400 353 C400 461 342 510 256 510 C137 510 57 414 57 360 C57 312 86 280 129 280 C163 280 185 313 185 337 C185 356 165 377 165 399 C165 434 198 495 247 495 C270 495 285 464 285 394 L285 264 C84 202 37 176 37 93 C37 31 82 -11 149 -11 C185 -11 231 14 290 80 C304 27 347 -6 405 -6 C462 -6 509 46 523 123 L522 124 L522 124 Z M298 745 C290 757 270 786 257 786 C245 786 225 757 217 745 L103 567 L118 554 L257 671 L396 554 L411 567 L298 745 L298 745 Z M286 255 L286 119 C286 108 287 97 289 87 C262 60 235 49 211 49 C177 49 154 71 154 104 C154 199 179 221 286 254 L286 255 L286 255 Z " />
<glyph glyph-name="atilde" unicode="&#xe3;" horiz-adv-x="512" d="M114 620 C114 653 130 675 155 675 C205 675 273 610 323 610 C372 610 405 666 405 751 L398 751 C398 715 379 691 350 691 C300 691 232 756 182 756 C137 756 107 702 107 620 L114 620 L114 620 Z M522 124 L513 128 C508 97 483 77 451 77 C420 77 400 94 400 120 L400 353 C400 461 342 510 256 510 C137 510 57 414 57 360 C57 312 86 280 129 280 C163 280 185 313 185 337 C185 356 165 377 165 399 C165 434 198 495 247 495 C270 495 285 464 285 394 L285 264 C84 202 37 176 37 93 C37 31 82 -11 149 -11 C185 -11 231 14 290 80 C304 27 347 -6 405 -6 C462 -6 509 46 523 123 L522 124 L522 124 Z M286 255 L286 119 C286 108 287 97 289 87 C262 60 235 49 211 49 C177 49 154 71 154 104 C154 199 179 221 286 254 L286 255 L286 255 Z " />
<glyph glyph-name="adieresis" unicode="&#xe4;" horiz-adv-x="512" d="M336 615 C381 615 411 645 411 689 C411 734 381 764 336 764 C292 764 262 734 262 689 C262 645 292 615 336 615 L336 615 Z M176 615 C220 615 250 645 250 689 C250 734 220 764 176 764 C131 764 101 734 101 689 C101 645 131 615 176 615 L176 615 Z M522 124 L513 128 C508 97 483 77 451 77 C420 77 400 94 400 120 L400 353 C400 461 342 510 256 510 C137 510 57 414 57 360 C57 312 86 280 129 280 C163 280 185 313 185 337 C185 356 165 377 165 399 C165 434 198 495 247 495 C270 495 285 464 285 394 L285 264 C84 202 37 176 37 93 C37 31 82 -11 149 -11 C185 -11 231 14 290 80 C304 27 347 -6 405 -6 C462 -6 509 46 523 123 L522 124 L522 124 Z M286 255 L286 119 C286 108 287 97 289 87 C262 60 235 49 211 49 C177 49 154 71 154 104 C154 199 179 221 286 254 L286 255 L286 255 Z " />
<glyph glyph-name="aring" unicode="&#xe5;" horiz-adv-x="512" d="M191 655 C191 696 217 723 256 723 C295 723 321 696 321 655 C321 618 291 587 256 587 C221 587 191 618 191 655 L191 655 Z M158 655 C158 604 203 560 256 560 C309 560 354 604 354 655 C354 712 315 750 256 750 C197 750 158 712 158 655 L158 655 Z M522 124 L513 128 C508 97 483 77 451 77 C420 77 400 94 400 120 L400 353 C400 461 342 510 256 510 C137 510 57 414 57 360 C57 312 86 280 129 280 C163 280 185 313 185 337 C185 356 165 377 165 399 C165 434 198 495 247 495 C270 495 285 464 285 394 L285 264 C84 202 37 176 37 93 C37 31 82 -11 149 -11 C185 -11 231 14 290 80 C304 27 347 -6 405 -6 C462 -6 509 46 523 123 L522 124 L522 124 Z M286 255 L286 119 C286 108 287 97 289 87 C262 60 235 49 211 49 C177 49 154 71 154 104 C154 199 179 221 286 254 L286 255 L286 255 Z " />
<glyph glyph-name="egrave" unicode="&#xe8;" horiz-adv-x="548" d="M102 738 C102 730 126 708 162 679 L306 561 L321 576 L214 731 C188 770 167 796 160 796 C129 796 102 769 102 738 L102 738 Z M169 340 L518 340 C496 462 415 510 305 510 C149 510 45 431 45 228 C45 85 140 -10 282 -10 C380 -10 467 48 498 134 L493 135 C469 68 389 24 294 24 C217 24 166 124 166 275 C166 299 167 321 169 341 L169 340 L169 340 Z M389 351 L170 349 C185 458 235 503 303 503 C338 503 368 461 389 351 L389 351 Z " />
<glyph glyph-name="eacute" unicode="&#xe9;" horiz-adv-x="548" d="M314 561 L458 679 C494 709 518 732 518 738 C518 769 491 796 460 796 C454 796 434 770 406 731 L299 576 L314 561 L314 561 Z M169 340 L518 340 C496 462 415 510 305 510 C149 510 45 431 45 228 C45 85 140 -10 282 -10 C380 -10 467 48 498 134 L493 135 C469 68 389 24 294 24 C217 24 166 124 166 275 C166 299 167 321 169 341 L169 340 L169 340 Z M389 351 L170 349 C185 458 235 503 303 503 C338 503 368 461 389 351 L389 351 Z " />
<glyph glyph-name="ecircumflex" unicode="&#xea;" horiz-adv-x="548" d="M346 746 C338 758 318 787 305 787 C293 787 273 758 265 746 L151 568 L166 555 L305 672 L444 555 L459 568 L346 746 L346 746 Z M169 340 L518 340 C496 462 415 510 305 510 C149 510 45 431 45 228 C45 85 140 -10 282 -10 C380 -10 467 48 498 134 L493 135 C469 68 389 24 294 24 C217 24 166 124 166 275 C166 299 167 321 169 341 L169 340 L169 340 Z M389 351 L170 349 C185 458 235 503 303 503 C338 503 368 461 389 351 L389 351 Z " />
<glyph glyph-name="edieresis" unicode="&#xeb;" horiz-adv-x="548" d="M385 615 C430 615 460 645 460 689 C460 734 430 764 385 764 C341 764 311 734 311 689 C311 645 341 615 385 615 L385 615 Z M225 615 C269 615 299 645 299 689 C299 734 269 764 225 764 C180 764 150 734 150 689 C150 645 180 615 225 615 L225 615 Z M169 340 L518 340 C496 462 415 510 305 510 C149 510 45 431 45 228 C45 85 140 -10 282 -10 C380 -10 467 48 498 134 L493 135 C469 68 389 24 294 24 C217 24 166 124 166 275 C166 299 167 321 169 341 L169 340 L169 340 Z M389 351 L170 349 C185 458 235 503 303 503 C338 503 368 461 389 351 L389 351 Z " />
<glyph glyph-name="igrave" unicode="&#xec;" horiz-adv-x="362" d="M-18 738 C-18 729 6 707 41 679 L186 561 L200 576 L94 731 C68 770 47 796 39 796 C8 796 -18 769 -18 738 L-18 738 Z M52 450 L63 453 C101 463 127 444 127 405 L127 80 C127 41 101 15 63 15 L52 15 L52 0 L317 0 L317 15 L306 15 C268 15 242 41 242 80 L242 500 L185 500 C145 490 92 476 52 465 L52 450 L52 450 Z " />
<glyph glyph-name="iacute" unicode="&#xed;" horiz-adv-x="362" d="M-18 738 C-18 729 6 707 41 679 L186 561 L200 576 L94 731 C68 770 47 796 39 796 C8 796 -18 769 -18 738 L-18 738 Z M52 450 L63 453 C101 463 127 444 127 405 L127 80 C127 41 101 15 63 15 L52 15 L52 0 L317 0 L317 15 L306 15 C268 15 242 41 242 80 L242 500 L185 500 C145 490 92 476 52 465 L52 450 L52 450 Z " />
<glyph glyph-name="icircumflex" unicode="&#xee;" horiz-adv-x="362" d="M225 746 C217 758 197 787 185 787 C172 787 152 758 144 746 L30 568 L46 555 L185 671 L323 555 L339 568 L225 746 L225 746 Z M52 450 L63 453 C101 463 127 444 127 405 L127 80 C127 41 101 15 63 15 L52 15 L52 0 L317 0 L317 15 L306 15 C268 15 242 41 242 80 L242 500 L185 500 C145 490 92 476 52 465 L52 450 L52 450 Z " />
<glyph glyph-name="idieresis" unicode="&#xef;" horiz-adv-x="362" d="M265 615 C309 615 339 645 339 689 C339 734 309 764 265 764 C220 764 190 734 190 689 C190 645 220 615 265 615 L265 615 Z M104 615 C149 615 179 645 179 689 C179 734 149 764 104 764 C60 764 30 734 30 689 C30 645 60 615 104 615 L104 615 Z M52 450 L63 453 C101 463 127 444 127 405 L127 80 C127 41 101 15 63 15 L52 15 L52 0 L317 0 L317 15 L306 15 C268 15 242 41 242 80 L242 500 L185 500 C145 490 92 476 52 465 L52 450 L52 450 Z " />
<glyph glyph-name="ntilde" unicode="&#xf1;" horiz-adv-x="619" d="M158 620 C158 653 174 675 199 675 C249 675 317 610 367 610 C416 610 449 666 449 751 L442 751 C442 715 423 691 394 691 C344 691 276 756 226 756 C181 756 151 702 151 620 L158 620 L158 620 Z M11 455 L22 455 C60 456 86 420 86 363 L86 80 C86 41 60 15 22 15 L11 15 L11 0 L276 0 L276 15 L265 15 C227 15 201 41 201 80 L201 373 C228 419 281 450 335 450 C377 450 399 398 399 321 L399 80 C399 41 373 15 335 15 L324 15 L324 0 L589 0 L589 15 L578 15 C540 15 514 41 514 80 L514 321 C514 434 466 510 373 510 C310 510 242 463 201 393 L201 500 L144 500 C104 490 51 476 11 465 L11 455 L11 455 Z " />
<glyph glyph-name="ograve" unicode="&#xf2;" horiz-adv-x="622" d="M172 250 C172 399 228 499 311 499 C394 499 450 399 450 250 C450 101 394 1 311 1 C228 1 172 101 172 250 L172 250 Z M45 250 C45 94 151 -10 311 -10 C471 -10 577 94 577 250 C577 406 471 510 311 510 C151 510 45 406 45 250 L45 250 Z M108 738 C108 730 132 708 168 679 L312 561 L327 576 L220 731 C194 770 173 796 166 796 C135 796 108 769 108 738 L108 738 Z " />
<glyph glyph-name="oacute" unicode="&#xf3;" horiz-adv-x="622" d="M320 561 L464 679 C500 709 524 732 524 738 C524 769 497 796 466 796 C460 796 440 770 412 731 L305 576 L320 561 L320 561 Z M172 250 C172 399 228 499 311 499 C394 499 450 399 450 250 C450 101 394 1 311 1 C228 1 172 101 172 250 L172 250 Z M45 250 C45 94 151 -10 311 -10 C471 -10 577 94 577 250 C577 406 471 510 311 510 C151 510 45 406 45 250 L45 250 Z " />
<glyph glyph-name="ocircumflex" unicode="&#xf4;" horiz-adv-x="622" d="M172 250 C172 399 228 499 311 499 C394 499 450 399 450 250 C450 101 394 1 311 1 C228 1 172 101 172 250 L172 250 Z M45 250 C45 94 151 -10 311 -10 C471 -10 577 94 577 250 C577 406 471 510 311 510 C151 510 45 406 45 250 L45 250 Z M352 746 C344 758 324 787 311 787 C299 787 279 758 271 746 L157 568 L172 555 L311 672 L450 555 L465 568 L352 746 L352 746 Z " />
<glyph glyph-name="otilde" unicode="&#xf5;" horiz-adv-x="622" d="M169 620 C169 653 185 675 210 675 C260 675 328 610 378 610 C427 610 460 666 460 751 L453 751 C453 715 434 691 405 691 C355 691 287 756 237 756 C192 756 162 702 162 620 L169 620 L169 620 Z M172 250 C172 399 228 499 311 499 C394 499 450 399 450 250 C450 101 394 1 311 1 C228 1 172 101 172 250 L172 250 Z M45 250 C45 94 151 -10 311 -10 C471 -10 577 94 577 250 C577 406 471 510 311 510 C151 510 45 406 45 250 L45 250 Z " />
<glyph glyph-name="odieresis" unicode="&#xf6;" horiz-adv-x="622" d="M391 615 C436 615 466 645 466 689 C466 734 436 764 391 764 C347 764 317 734 317 689 C317 645 347 615 391 615 L391 615 Z M231 615 C275 615 305 645 305 689 C305 734 275 764 231 764 C186 764 156 734 156 689 C156 645 186 615 231 615 L231 615 Z M172 250 C172 399 228 499 311 499 C394 499 450 399 450 250 C450 101 394 1 311 1 C228 1 172 101 172 250 L172 250 Z M45 250 C45 94 151 -10 311 -10 C471 -10 577 94 577 250 C577 406 471 510 311 510 C151 510 45 406 45 250 L45 250 Z " />
<glyph glyph-name="oslash" unicode="&#xf8;" horiz-adv-x="622" d="M49 -15 C49 -15 75 10 123 57 C169 14 234 -10 311 -10 C471 -10 577 94 577 250 C577 325 552 388 508 433 C532 456 556 480 581 504 L573 514 C548 489 523 465 499 442 C453 485 388 509 311 509 C151 509 45 405 45 249 C45 173 70 110 114 65 C67 19 41 -6 41 -6 L49 -15 L49 -15 Z M433 377 C334 280 250 198 185 135 C177 168 172 207 172 249 C172 398 228 498 311 498 C367 498 411 453 434 378 L433 377 L433 377 Z M438 364 C446 331 451 293 451 251 C451 102 395 2 312 2 C256 2 212 47 189 122 C253 185 337 267 437 364 L438 364 L438 364 Z " />
<glyph glyph-name="ugrave" unicode="&#xf9;" horiz-adv-x="610" d="M93 739 C93 731 117 709 153 680 L297 562 L312 577 L205 732 C179 771 158 797 151 797 C120 797 93 770 93 739 L93 739 Z M595 53 L582 50 C539 39 510 71 510 131 L510 500 L453 500 L453 501 L320 501 L320 486 L331 486 C369 486 395 460 395 421 L395 134 C374 95 330 70 280 70 C230 70 196 106 196 160 L196 500 L6 500 L6 485 L17 485 C55 485 81 459 81 420 L81 160 C81 58 139 -10 226 -10 C294 -10 360 42 394 122 L394 0 L451 0 L451 -1 C494 11 551 26 594 38 L595 53 L595 53 Z " />
<glyph glyph-name="uacute" unicode="&#xfa;" horiz-adv-x="610" d="M305 562 L449 680 C485 710 509 733 509 739 C509 770 482 797 451 797 C445 797 425 771 397 732 L290 577 L305 562 L305 562 Z M595 53 L582 50 C539 39 510 71 510 131 L510 500 L453 500 L453 501 L320 501 L320 486 L331 486 C369 486 395 460 395 421 L395 134 C374 95 330 70 280 70 C230 70 196 106 196 160 L196 500 L6 500 L6 485 L17 485 C55 485 81 459 81 420 L81 160 C81 58 139 -10 226 -10 C294 -10 360 42 394 122 L394 0 L451 0 L451 -1 C494 11 551 26 594 38 L595 53 L595 53 Z " />
<glyph glyph-name="ucircumflex" unicode="&#xfb;" horiz-adv-x="610" d="M337 747 C329 759 309 788 296 788 C284 788 264 759 256 747 L142 569 L157 556 L296 673 L435 556 L450 569 L337 747 L337 747 Z M595 53 L582 50 C539 39 510 71 510 131 L510 500 L453 500 L453 501 L320 501 L320 486 L331 486 C369 486 395 460 395 421 L395 134 C374 95 330 70 280 70 C230 70 196 106 196 160 L196 500 L6 500 L6 485 L17 485 C55 485 81 459 81 420 L81 160 C81 58 139 -10 226 -10 C294 -10 360 42 394 122 L394 0 L451 0 L451 -1 C494 11 551 26 594 38 L595 53 L595 53 Z " />
<glyph glyph-name="udieresis" unicode="&#xfc;" horiz-adv-x="610" d="M376 616 C421 616 451 646 451 690 C451 735 421 765 376 765 C332 765 302 735 302 690 C302 646 332 616 376 616 L376 616 Z M216 616 C260 616 290 646 290 690 C290 735 260 765 216 765 C171 765 141 735 141 690 C141 646 171 616 216 616 L216 616 Z M595 53 L582 50 C539 39 510 71 510 131 L510 500 L453 500 L453 501 L320 501 L320 486 L331 486 C369 486 395 460 395 421 L395 134 C374 95 330 70 280 70 C230 70 196 106 196 160 L196 500 L6 500 L6 485 L17 485 C55 485 81 459 81 420 L81 160 C81 58 139 -10 226 -10 C294 -10 360 42 394 122 L394 0 L451 0 L451 -1 C494 11 551 26 594 38 L595 53 L595 53 Z " />
<glyph glyph-name="ydieresis" unicode="&#xff;" horiz-adv-x="622" d="M428 615 C472 615 502 645 502 689 C502 734 472 764 428 764 C383 764 353 734 353 689 C353 645 383 615 428 615 L428 615 Z M267 615 C312 615 342 645 342 689 C342 734 312 764 267 764 C223 764 193 734 193 689 C193 645 223 615 267 615 L267 615 Z M611 500 L414 500 L414 485 L425 485 C458 485 469 450 454 396 L373 151 L263 381 C263 381 214 486 270 486 L280 486 L280 501 L11 501 L11 486 L22 486 C60 486 106 444 136 381 L136 381 L316 4 L310 -9 L255 -150 C245 -176 230 -193 228 -193 C206 -193 201 -155 178 -155 C149 -155 129 -175 129 -204 C129 -237 151 -259 183 -259 C213 -259 261 -221 283 -165 L345 -9 C396 124 447 258 498 391 C522 449 562 487 598 487 L609 487 L611 500 L611 500 Z " />
<glyph glyph-name="Amacron" unicode="&#x100;" horiz-adv-x="839" d="M280 890 L580 890 L580 970 L280 970 L280 890 L280 890 Z M22 0 L320 0 L320 19 L299 19 C230 19 199 75 221 160 L258 290 L498 290 C511 250 525 209 537 169 C566 79 538 19 468 19 L447 19 L447 0 L834 0 L834 19 L818 19 C765 19 709 79 679 169 L679 169 L498 709 C498 709 484 770 478 770 L464 770 C469 743 428 718 363 709 L366 699 L366 699 L212 169 C186 79 119 19 45 19 L23 19 L22 0 L22 0 Z M262 301 L371 685 L495 301 L262 301 L262 301 Z " />
<glyph glyph-name="amacron" unicode="&#x101;" horiz-adv-x="512" d="M106 640 L406 640 L406 720 L106 720 L106 640 L106 640 Z M522 124 L513 128 C508 97 483 77 451 77 C420 77 400 94 400 120 L400 353 C400 461 342 510 256 510 C137 510 57 414 57 360 C57 312 86 280 129 280 C163 280 185 313 185 337 C185 356 165 377 165 399 C165 434 198 495 247 495 C270 495 285 464 285 394 L285 264 C84 202 37 176 37 93 C37 31 82 -11 149 -11 C185 -11 231 14 290 80 C304 27 347 -6 405 -6 C462 -6 509 46 523 123 L522 124 L522 124 Z M286 255 L286 119 C286 108 287 97 289 87 C262 60 235 49 211 49 C177 49 154 71 154 104 C154 199 179 221 286 254 L286 255 L286 255 Z " />
<glyph glyph-name="Abreve" unicode="&#x102;" horiz-adv-x="839" d="M286 994 C296 910 354 854 430 854 C505 854 562 909 572 992 L548 995 C544 959 497 935 430 935 C363 935 315 960 311 998 L286 994 L286 994 Z M22 0 L320 0 L320 19 L299 19 C230 19 199 75 221 160 L258 290 L498 290 C511 250 525 209 537 169 C566 79 538 19 468 19 L447 19 L447 0 L834 0 L834 19 L818 19 C765 19 709 79 679 169 L679 169 L498 709 C498 709 484 770 478 770 L464 770 C469 743 428 718 363 709 L366 699 L366 699 L212 169 C186 79 119 19 45 19 L23 19 L22 0 L22 0 Z M262 301 L371 685 L495 301 L262 301 L262 301 Z " />
<glyph glyph-name="abreve" unicode="&#x103;" horiz-adv-x="512" d="M113 744 C123 660 180 604 256 604 C332 604 389 659 399 742 L375 745 C371 709 323 685 256 685 C189 685 141 710 137 748 L113 744 L113 744 Z M522 124 L513 128 C508 97 483 77 451 77 C420 77 400 94 400 120 L400 353 C400 461 342 510 256 510 C137 510 57 414 57 360 C57 312 86 280 129 280 C163 280 185 313 185 337 C185 356 165 377 165 399 C165 434 198 495 247 495 C270 495 285 464 285 394 L285 264 C84 202 37 176 37 93 C37 31 82 -11 149 -11 C185 -11 231 14 290 80 C304 27 347 -6 405 -6 C462 -6 509 46 523 123 L522 124 L522 124 Z M286 255 L286 119 C286 108 287 97 289 87 C262 60 235 49 211 49 C177 49 154 71 154 104 C154 199 179 221 286 254 L286 255 L286 255 Z " />
<glyph glyph-name="Cacute" unicode="&#x106;" horiz-adv-x="769" d="M450 811 L594 929 C630 959 654 982 654 988 C654 1019 627 1046 596 1046 C590 1046 570 1020 542 981 L435 826 L450 811 L450 811 Z M552 751 L551 749 C520 756 484 760 441 760 C200 760 40 606 40 375 C40 144 196 -10 431 -10 C475 -10 513 -6 547 2 L548 -1 C553 1 558 3 563 6 C576 10 589 14 601 19 C663 44 708 42 712 12 L716 -12 L730 -12 L730 236 L710 236 L701 208 C679 134 625 66 563 30 C525 10 484 -1 438 -1 C290 -1 192 149 192 374 C192 598 294 748 448 748 C486 748 519 741 549 728 C616 698 678 623 703 540 L712 512 L732 512 L732 757 L718 757 L714 734 C710 707 668 705 609 731 C609 730 561 748 556 750 L552 751 L552 751 Z M715 132 L715 132 L715 132 L715 132 Z " />
<glyph glyph-name="Ccircumflex" unicode="&#x108;" horiz-adv-x="769" d="M552 751 L551 749 C520 756 484 760 441 760 C200 760 40 606 40 375 C40 144 196 -10 431 -10 C475 -10 513 -6 547 2 L548 -1 C553 1 558 3 563 6 C576 10 589 14 601 19 C663 44 708 42 712 12 L716 -12 L730 -12 L730 236 L710 236 L701 208 C679 134 625 66 563 30 C525 10 484 -1 438 -1 C290 -1 192 149 192 374 C192 598 294 748 448 748 C486 748 519 741 549 728 C616 698 678 623 703 540 L712 512 L732 512 L732 757 L718 757 L714 734 C710 707 668 705 609 731 C609 730 561 748 556 750 L552 751 L552 751 Z M486 995 C478 1007 458 1036 445 1036 C433 1036 413 1007 405 995 L291 817 L306 804 L445 921 L584 804 L599 817 L486 995 L486 995 Z M715 132 L715 132 L715 132 L715 132 Z " />
<glyph glyph-name="Cdot" unicode="&#x10a;" horiz-adv-x="769" d="M441 865 C485 865 515 895 515 939 C515 984 485 1014 441 1014 C397 1014 367 984 367 939 C367 895 397 865 441 865 L441 865 Z M552 751 L551 749 C520 756 484 760 441 760 C200 760 40 606 40 375 C40 144 196 -10 431 -10 C475 -10 513 -6 547 2 L548 -1 C553 1 558 3 563 6 C576 10 589 14 601 19 C663 44 708 42 712 12 L716 -12 L730 -12 L730 236 L710 236 L701 208 C679 134 625 66 563 30 C525 10 484 -1 438 -1 C290 -1 192 149 192 374 C192 598 294 748 448 748 C486 748 519 741 549 728 C616 698 678 623 703 540 L712 512 L732 512 L732 757 L718 757 L714 734 C710 707 668 705 609 731 C609 730 561 748 556 750 L552 751 L552 751 Z M715 132 L715 132 L715 132 L715 132 Z " />
<glyph glyph-name="cdot" unicode="&#x10b;" horiz-adv-x="537" d="M335 615 C379 615 409 645 409 689 C409 734 379 764 335 764 C291 764 261 734 261 689 C261 645 291 615 335 615 L335 615 Z M507 128 L502 130 C473 65 407 22 336 22 C235 22 167 124 167 277 C167 412 233 502 332 502 C347 502 371 463 392 405 C404 371 428 348 450 348 C497 348 519 371 507 405 C484 468 415 510 335 510 C161 510 45 400 45 234 C45 88 154 -10 318 -10 C395 -10 470 45 507 128 L507 128 Z " />
<glyph glyph-name="Ccaron" unicode="&#x10c;" horiz-adv-x="769" d="M580 1045 L441 928 L302 1045 L287 1032 L401 854 C409 842 429 813 441 813 C454 813 474 842 482 854 L595 1032 L580 1045 L580 1045 Z M552 751 L551 749 C520 756 484 760 441 760 C200 760 40 606 40 375 C40 144 196 -10 431 -10 C475 -10 513 -6 547 2 L548 -1 C553 1 558 3 563 6 C576 10 589 14 601 19 C663 44 708 42 712 12 L716 -12 L730 -12 L730 236 L710 236 L701 208 C679 134 625 66 563 30 C525 10 484 -1 438 -1 C290 -1 192 149 192 374 C192 598 294 748 448 748 C486 748 519 741 549 728 C616 698 678 623 703 540 L712 512 L732 512 L732 757 L718 757 L714 734 C710 707 668 705 609 731 C609 730 561 748 556 750 L552 751 L552 751 Z M715 132 L715 132 L715 132 L715 132 Z " />
<glyph glyph-name="ccaron" unicode="&#x10d;" horiz-adv-x="537" d="M474 795 L335 678 L196 795 L181 782 L295 604 C303 592 323 563 335 563 C348 563 368 592 376 604 L489 782 L474 795 L474 795 Z M507 128 L502 130 C473 65 407 22 336 22 C235 22 167 124 167 277 C167 412 233 502 332 502 C347 502 371 463 392 405 C404 371 428 348 450 348 C497 348 519 371 507 405 C484 468 415 510 335 510 C161 510 45 400 45 234 C45 88 154 -10 318 -10 C395 -10 470 45 507 128 L507 128 Z " />
<glyph glyph-name="Dcaron" unicode="&#x10e;" horiz-adv-x="898" d="M559 1045 L420 928 L281 1045 L266 1032 L380 854 C388 842 408 813 420 813 C433 813 453 842 461 854 L574 1032 L559 1045 L559 1045 Z M348 9 C288 9 281 79 281 183 L281 742 L367 742 C583 742 694 595 694 375 C694 133 556 9 348 9 L348 9 Z M51 735 L65 735 C114 735 146 695 146 635 L146 115 C146 55 114 15 65 15 L51 15 L51 0 L361 0 C650 0 843 128 843 375 C843 600 693 750 401 750 L51 750 L51 735 L51 735 Z " />
<glyph glyph-name="dcaron" unicode="&#x10f;" horiz-adv-x="618" d="M596 756 C572 756 562 693 560 647 L553 535 L573 531 L620 635 C637 671 648 713 648 739 C648 751 627 756 596 756 L596 756 Z M318 704 L329 704 C367 705 393 669 393 612 L393 444 C361 483 314 510 264 510 C119 510 44 406 44 249 C44 97 124 -5 243 -5 C298 -5 357 24 392 68 L392 0 L449 0 L449 -1 C495 12 556 28 602 40 L602 55 L588 51 C539 38 507 69 507 129 L507 750 L450 750 L392 735 L392 734 C366 727 339 720 317 714 L318 704 L318 704 Z M392 375 L392 82 C370 59 331 44 290 44 C213 44 162 139 162 282 C162 400 201 478 278 478 C328 478 375 431 392 376 L392 375 L392 375 Z " />
<glyph glyph-name="Emacron" unicode="&#x112;" horiz-adv-x="693" d="M218 890 L518 890 L518 970 L218 970 L218 890 L218 890 Z M31 735 L48 735 C107 735 146 687 146 615 L146 135 C146 63 107 15 48 15 L31 15 L31 0 L616 0 L617 4 L617 4 C624 46 634 102 641 144 L626 144 L618 124 C595 59 525 15 440 10 C298 17 282 85 282 184 L282 386 L362 386 C440 386 500 337 513 263 L517 241 L532 241 L532 541 L517 541 L513 519 C500 445 440 396 362 396 L282 396 L282 742 L423 742 C501 742 567 693 589 619 L596 597 L611 597 C605 642 598 702 592 747 L593 747 L592 751 L32 751 L31 735 L31 735 Z " />
<glyph glyph-name="emacron" unicode="&#x113;" horiz-adv-x="548" d="M155 640 L455 640 L455 720 L155 720 L155 640 L155 640 Z M169 340 L518 340 C496 462 415 510 305 510 C149 510 45 431 45 228 C45 85 140 -10 282 -10 C380 -10 467 48 498 134 L493 135 C469 68 389 24 294 24 C217 24 166 124 166 275 C166 299 167 321 169 341 L169 340 L169 340 Z M389 351 L170 349 C185 458 235 503 303 503 C338 503 368 461 389 351 L389 351 Z " />
<glyph glyph-name="Ebreve" unicode="&#x114;" horiz-adv-x="693" d="M224 994 C234 910 292 854 368 854 C443 854 500 909 510 992 L486 995 C482 959 435 935 368 935 C301 935 253 960 249 998 L224 994 L224 994 Z M31 735 L48 735 C107 735 146 687 146 615 L146 135 C146 63 107 15 48 15 L31 15 L31 0 L616 0 L617 4 L617 4 C624 46 634 102 641 144 L626 144 L618 124 C595 59 525 15 440 10 C298 17 282 85 282 184 L282 386 L362 386 C440 386 500 337 513 263 L517 241 L532 241 L532 541 L517 541 L513 519 C500 445 440 396 362 396 L282 396 L282 742 L423 742 C501 742 567 693 589 619 L596 597 L611 597 C605 642 598 702 592 747 L593 747 L592 751 L32 751 L31 735 L31 735 Z " />
<glyph glyph-name="ebreve" unicode="&#x115;" horiz-adv-x="548" d="M162 744 C172 660 229 604 305 604 C381 604 438 659 448 742 L424 745 C420 709 372 685 305 685 C238 685 190 710 186 748 L162 744 L162 744 Z M169 340 L518 340 C496 462 415 510 305 510 C149 510 45 431 45 228 C45 85 140 -10 282 -10 C380 -10 467 48 498 134 L493 135 C469 68 389 24 294 24 C217 24 166 124 166 275 C166 299 167 321 169 341 L169 340 L169 340 Z M389 351 L170 349 C185 458 235 503 303 503 C338 503 368 461 389 351 L389 351 Z " />
<glyph glyph-name="Edot" unicode="&#x116;" horiz-adv-x="693" d="M368 865 C412 865 442 895 442 939 C442 984 412 1014 368 1014 C323 1014 293 984 293 939 C293 895 323 865 368 865 L368 865 Z M31 735 L48 735 C107 735 146 687 146 615 L146 135 C146 63 107 15 48 15 L31 15 L31 0 L616 0 L617 4 L617 4 C624 46 634 102 641 144 L626 144 L618 124 C595 59 525 15 440 10 C298 17 282 85 282 184 L282 386 L362 386 C440 386 500 337 513 263 L517 241 L532 241 L532 541 L517 541 L513 519 C500 445 440 396 362 396 L282 396 L282 742 L423 742 C501 742 567 693 589 619 L596 597 L611 597 C605 642 598 702 592 747 L593 747 L592 751 L32 751 L31 735 L31 735 Z " />
<glyph glyph-name="edot" unicode="&#x117;" horiz-adv-x="548" d="M305 615 C349 615 379 645 379 689 C379 734 349 764 305 764 C261 764 231 734 231 689 C231 645 261 615 305 615 L305 615 Z M169 340 L518 340 C496 462 415 510 305 510 C149 510 45 431 45 228 C45 85 140 -10 282 -10 C380 -10 467 48 498 134 L493 135 C469 68 389 24 294 24 C217 24 166 124 166 275 C166 299 167 321 169 341 L169 340 L169 340 Z M389 351 L170 349 C185 458 235 503 303 503 C338 503 368 461 389 351 L389 351 Z " />
<glyph glyph-name="Ecaron" unicode="&#x11a;" horiz-adv-x="693" d="M506 1045 L368 929 L229 1045 L213 1032 L327 854 C335 842 355 813 368 813 C380 813 400 842 408 854 L522 1032 L506 1045 L506 1045 Z M31 735 L48 735 C107 735 146 687 146 615 L146 135 C146 63 107 15 48 15 L31 15 L31 0 L616 0 L617 4 L617 4 C624 46 634 102 641 144 L626 144 L618 124 C595 59 525 15 440 10 C298 17 282 85 282 184 L282 386 L362 386 C440 386 500 337 513 263 L517 241 L532 241 L532 541 L517 541 L513 519 C500 445 440 396 362 396 L282 396 L282 742 L423 742 C501 742 567 693 589 619 L596 597 L611 597 C605 642 598 702 592 747 L593 747 L592 751 L32 751 L31 735 L31 735 Z " />
<glyph glyph-name="ecaron" unicode="&#x11b;" horiz-adv-x="548" d="M444 795 L305 678 L166 795 L151 782 L265 604 C273 592 293 563 305 563 C318 563 338 592 346 604 L459 782 L444 795 L444 795 Z M169 340 L518 340 C496 462 415 510 305 510 C149 510 45 431 45 228 C45 85 140 -10 282 -10 C380 -10 467 48 498 134 L493 135 C469 68 389 24 294 24 C217 24 166 124 166 275 C166 299 167 321 169 341 L169 340 L169 340 Z M389 351 L170 349 C185 458 235 503 303 503 C338 503 368 461 389 351 L389 351 Z " />
<glyph glyph-name="Gcircumflex" unicode="&#x11c;" horiz-adv-x="863" d="M728 513 L728 758 L714 758 L710 735 C706 708 664 706 605 732 C605 731 557 749 552 751 L551 749 C520 756 484 760 441 760 C200 760 40 606 40 375 C40 144 201 -10 442 -10 C586 -10 686 17 780 61 L777 68 C757 59 735 51 710 44 C711 95 711 172 711 172 C711 253 747 307 800 307 L816 307 L816 326 L470 326 L470 307 L486 307 C539 307 575 253 575 172 L576 172 C576 157 576 142 576 127 C569 62 526 19 464 19 C299 19 189 162 189 377 C189 601 291 751 445 751 C483 751 516 744 546 731 C613 701 675 626 700 543 L709 515 L728 513 L728 513 Z M483 998 C475 1010 455 1039 442 1039 C430 1039 410 1010 402 998 L288 820 L303 807 L442 924 L581 807 L596 820 L483 998 L483 998 Z " />
<glyph glyph-name="Gbreve" unicode="&#x11e;" horiz-adv-x="863" d="M298 994 C308 910 365 854 441 854 C517 854 574 909 584 992 L560 995 C556 959 508 935 441 935 C374 935 326 960 322 998 L298 994 L298 994 Z M728 513 L728 758 L714 758 L710 735 C706 708 664 706 605 732 C605 731 557 749 552 751 L551 749 C520 756 484 760 441 760 C200 760 40 606 40 375 C40 144 201 -10 442 -10 C586 -10 686 17 780 61 L777 68 C757 59 735 51 710 44 C711 95 711 172 711 172 C711 253 747 307 800 307 L816 307 L816 326 L470 326 L470 307 L486 307 C539 307 575 253 575 172 L576 172 C576 157 576 142 576 127 C569 62 526 19 464 19 C299 19 189 162 189 377 C189 601 291 751 445 751 C483 751 516 744 546 731 C613 701 675 626 700 543 L709 515 L728 513 L728 513 Z " />
<glyph glyph-name="gbreve" unicode="&#x11f;" horiz-adv-x="520" d="M108 744 C118 660 175 604 251 604 C327 604 384 659 394 742 L370 745 C366 709 318 685 251 685 C184 685 136 710 132 748 L108 744 L108 744 Z M543 461 C543 502 513 530 468 530 C437 530 403 507 379 471 C347 496 303 510 251 510 C141 510 67 446 67 350 C67 269 119 210 201 193 C109 184 50 150 50 102 C50 46 82 5 132 -9 C75 -28 39 -61 39 -97 C39 -177 128 -230 262 -230 C396 -230 485 -162 485 -59 C485 36 433 99 298 99 L178 99 C142 99 118 114 118 137 C118 168 171 188 251 188 C361 188 435 253 435 350 C435 393 420 430 393 457 C428 464 462 411 493 411 C522 411 542 431 542 461 L543 461 L543 461 Z M250 196 C209 196 181 258 181 350 C181 441 209 502 250 502 C291 502 319 441 319 350 C319 258 291 196 250 196 L250 196 Z M151 -14 C157 -15 164 -15 171 -15 L285 -15 C360 -15 389 -43 389 -86 C389 -168 339 -222 263 -222 C185 -222 133 -161 133 -70 C133 -46 140 -26 151 -13 L151 -14 L151 -14 Z " />
<glyph glyph-name="Gdot" unicode="&#x120;" horiz-adv-x="863" d="M441 865 C485 865 515 895 515 939 C515 984 485 1014 441 1014 C397 1014 367 984 367 939 C367 895 397 865 441 865 L441 865 Z M728 513 L728 758 L714 758 L710 735 C706 708 664 706 605 732 C605 731 557 749 552 751 L551 749 C520 756 484 760 441 760 C200 760 40 606 40 375 C40 144 201 -10 442 -10 C586 -10 686 17 780 61 L777 68 C757 59 735 51 710 44 C711 95 711 172 711 172 C711 253 747 307 800 307 L816 307 L816 326 L470 326 L470 307 L486 307 C539 307 575 253 575 172 L576 172 C576 157 576 142 576 127 C569 62 526 19 464 19 C299 19 189 162 189 377 C189 601 291 751 445 751 C483 751 516 744 546 731 C613 701 675 626 700 543 L709 515 L728 513 L728 513 Z " />
<glyph glyph-name="gdot" unicode="&#x121;" horiz-adv-x="520" d="M251 615 C295 615 325 645 325 689 C325 734 295 764 251 764 C207 764 177 734 177 689 C177 645 207 615 251 615 L251 615 Z M543 461 C543 502 513 530 468 530 C437 530 403 507 379 471 C347 496 303 510 251 510 C141 510 67 446 67 350 C67 269 119 210 201 193 C109 184 50 150 50 102 C50 46 82 5 132 -9 C75 -28 39 -61 39 -97 C39 -177 128 -230 262 -230 C396 -230 485 -162 485 -59 C485 36 433 99 298 99 L178 99 C142 99 118 114 118 137 C118 168 171 188 251 188 C361 188 435 253 435 350 C435 393 420 430 393 457 C428 464 462 411 493 411 C522 411 542 431 542 461 L543 461 L543 461 Z M250 196 C209 196 181 258 181 350 C181 441 209 502 250 502 C291 502 319 441 319 350 C319 258 291 196 250 196 L250 196 Z M151 -14 C157 -15 164 -15 171 -15 L285 -15 C360 -15 389 -43 389 -86 C389 -168 339 -222 263 -222 C185 -222 133 -161 133 -70 C133 -46 140 -26 151 -13 L151 -14 L151 -14 Z " />
<glyph glyph-name="Hcircumflex" unicode="&#x124;" horiz-adv-x="916" d="M512 996 C504 1008 484 1037 472 1037 C459 1037 439 1008 431 996 L317 818 L333 805 L472 921 L610 805 L626 818 L512 996 L512 996 Z M856 15 L842 15 C793 15 761 55 761 115 L761 635 C761 695 793 735 842 735 L856 735 L856 750 L531 750 L531 735 L545 735 C594 735 626 695 626 635 L626 394 L317 394 L317 635 C317 695 349 735 398 735 L412 735 L412 750 L87 750 L87 735 L101 735 C150 735 182 695 182 635 L182 115 C182 55 150 15 101 15 L87 15 L87 0 L412 0 L412 15 L398 15 C349 15 317 55 317 115 L317 383 L626 383 L626 115 C626 55 594 15 545 15 L531 15 L531 0 L856 0 L856 15 L856 15 Z " />
<glyph glyph-name="Itilde" unicode="&#x128;" horiz-adv-x="423" d="M58 870 C58 903 74 925 99 925 C149 925 217 860 267 860 C316 860 349 916 349 1001 L342 1001 C342 965 323 941 294 941 C244 941 176 1006 126 1006 C81 1006 51 952 51 870 L58 870 L58 870 Z M363 15 L349 15 C300 15 268 55 268 115 L268 635 C268 695 300 735 349 735 L363 735 L363 750 L37 750 L37 735 L51 735 C100 735 132 695 132 635 L132 115 C132 55 100 15 51 15 L37 15 L37 0 L363 0 L363 15 L363 15 Z " />
<glyph glyph-name="itilde" unicode="&#x129;" horiz-adv-x="362" d="M42 620 C42 653 59 675 84 675 C134 675 202 610 252 610 C301 610 333 666 333 751 L327 751 C327 715 308 691 279 691 C228 691 161 756 110 756 C66 756 36 702 36 620 L42 620 L42 620 Z M52 450 L63 453 C101 463 127 444 127 405 L127 80 C127 41 101 15 63 15 L52 15 L52 0 L317 0 L317 15 L306 15 C268 15 242 41 242 80 L242 500 L185 500 C145 490 92 476 52 465 L52 450 L52 450 Z " />
<glyph glyph-name="Imacron" unicode="&#x12a;" horiz-adv-x="423" d="M50 890 L350 890 L350 970 L50 970 L50 890 L50 890 Z M363 15 L349 15 C300 15 268 55 268 115 L268 635 C268 695 300 735 349 735 L363 735 L363 750 L37 750 L37 735 L51 735 C100 735 132 695 132 635 L132 115 C132 55 100 15 51 15 L37 15 L37 0 L363 0 L363 15 L363 15 Z " />
<glyph glyph-name="imacron" unicode="&#x12b;" horiz-adv-x="362" d="M35 640 L335 640 L335 720 L35 720 L35 640 L35 640 Z M52 450 L63 453 C101 463 127 444 127 405 L127 80 C127 41 101 15 63 15 L52 15 L52 0 L317 0 L317 15 L306 15 C268 15 242 41 242 80 L242 500 L185 500 C145 490 92 476 52 465 L52 450 L52 450 Z " />
<glyph glyph-name="Ibreve" unicode="&#x12c;" horiz-adv-x="423" d="M57 994 C67 910 124 854 200 854 C276 854 333 909 343 992 L319 995 C315 959 267 935 200 935 C133 935 85 960 81 998 L57 994 L57 994 Z M363 15 L349 15 C300 15 268 55 268 115 L268 635 C268 695 300 735 349 735 L363 735 L363 750 L37 750 L37 735 L51 735 C100 735 132 695 132 635 L132 115 C132 55 100 15 51 15 L37 15 L37 0 L363 0 L363 15 L363 15 Z " />
<glyph glyph-name="ibreve" unicode="&#x12d;" horiz-adv-x="362" d="M41 744 C51 660 109 604 185 604 C260 604 317 659 327 742 L303 745 C299 709 252 685 185 685 C118 685 70 710 66 748 L41 744 L41 744 Z M52 450 L63 453 C101 463 127 444 127 405 L127 80 C127 41 101 15 63 15 L52 15 L52 0 L317 0 L317 15 L306 15 C268 15 242 41 242 80 L242 500 L185 500 C145 490 92 476 52 465 L52 450 L52 450 Z " />
<glyph glyph-name="Idot" unicode="&#x130;" horiz-adv-x="423" d="M200 865 C244 865 274 895 274 939 C274 984 244 1014 200 1014 C156 1014 126 984 126 939 C126 895 156 865 200 865 L200 865 Z M363 15 L349 15 C300 15 268 55 268 115 L268 635 C268 695 300 735 349 735 L363 735 L363 750 L37 750 L37 735 L51 735 C100 735 132 695 132 635 L132 115 C132 55 100 15 51 15 L37 15 L37 0 L363 0 L363 15 L363 15 Z " />
<glyph glyph-name="dotlessi" unicode="&#x131;" horiz-adv-x="362" d="M52 450 L63 453 C101 463 127 444 127 405 L127 80 C127 41 101 15 63 15 L52 15 L52 0 L317 0 L317 15 L306 15 C268 15 242 41 242 80 L242 500 L185 500 C145 490 92 476 52 465 L52 450 L52 450 Z " />
<glyph glyph-name="Jcircumflex" unicode="&#x134;" horiz-adv-x="423" d="M241 996 C233 1008 213 1037 200 1037 C188 1037 168 1008 160 996 L46 818 L61 805 L200 922 L339 805 L354 818 L241 996 L241 996 Z M363 750 L37 750 L37 735 L51 735 C100 735 132 695 132 635 L132 -106 C132 -189 65 -205 17 -205 C-50 -205 -17 -97 -84 -97 C-121 -97 -145 -121 -145 -158 C-145 -195 -84 -220 7 -220 C117 -220 268 -161 268 150 L268 635 C268 695 300 735 349 735 L363 735 L363 750 L363 750 Z " />
<glyph glyph-name="Lacute" unicode="&#x139;" horiz-adv-x="688" d="M209 811 L353 929 C389 959 413 982 413 988 C413 1019 386 1046 355 1046 C349 1046 329 1020 301 981 L194 826 L209 811 L209 811 Z M363 750 L37 750 L37 735 L51 735 C100 735 132 695 132 635 L132 115 C132 55 100 15 51 15 L37 15 L37 0 L603 0 L604 12 L603 12 C611 56 621 114 629 158 L614 158 L606 138 C583 73 513 28 427 23 C284 29 268 91 268 182 L268 634 C268 694 300 734 349 734 L363 734 L363 750 L363 750 Z " />
<glyph glyph-name="Lcaron" unicode="&#x13d;" horiz-adv-x="688" d="M466 807 C442 807 432 744 430 698 L423 586 L443 582 L490 686 C507 722 518 764 518 790 C518 802 497 807 466 807 L466 807 Z M363 750 L37 750 L37 735 L51 735 C100 735 132 695 132 635 L132 115 C132 55 100 15 51 15 L37 15 L37 0 L603 0 L604 12 L603 12 C611 56 621 114 629 158 L614 158 L606 138 C583 73 513 28 427 23 C284 29 268 91 268 182 L268 634 C268 694 300 734 349 734 L363 734 L363 750 L363 750 Z " />
<glyph glyph-name="lcaron" unicode="&#x13e;" horiz-adv-x="306" d="M289 757 C265 757 255 694 253 648 L246 536 L266 532 L313 636 C330 672 341 714 341 740 C341 752 320 757 289 757 L289 757 Z M11 705 L22 705 C60 706 86 670 86 613 L86 80 C86 41 60 15 22 15 L11 15 L11 0 L276 0 L276 15 L265 15 C227 15 201 41 201 80 L201 750 L144 750 C104 740 51 726 11 715 L11 705 L11 705 Z " />
<glyph glyph-name="Nacute" unicode="&#x143;" horiz-adv-x="820" d="M314 811 L458 929 C494 959 518 982 518 988 C518 1019 491 1046 460 1046 C454 1046 434 1020 406 981 L299 826 L314 811 L314 811 Z M-39 735 L-25 735 C21 735 80 699 126 645 L147 618 L146 115 L146 115 C146 55 113 15 65 15 L51 15 L51 0 L281 0 L281 15 L267 15 C221 15 189 51 186 106 L183 575 C332 384 481 193 630 1 L657 1 L666 648 C671 701 703 736 749 736 L763 736 L763 751 L533 751 L533 736 L547 736 C596 736 628 696 628 636 L628 636 L630 223 C491 399 353 575 215 751 L-36 751 L-39 735 L-39 735 Z " />
<glyph glyph-name="Ncaron" unicode="&#x147;" horiz-adv-x="820" d="M544 1045 L405 928 L266 1045 L251 1032 L365 854 C373 842 393 813 405 813 C418 813 438 842 446 854 L559 1032 L544 1045 L544 1045 Z M-39 735 L-25 735 C21 735 80 699 126 645 L147 618 L146 115 L146 115 C146 55 113 15 65 15 L51 15 L51 0 L281 0 L281 15 L267 15 C221 15 189 51 186 106 L183 575 C332 384 481 193 630 1 L657 1 L666 648 C671 701 703 736 749 736 L763 736 L763 751 L533 751 L533 736 L547 736 C596 736 628 696 628 636 L628 636 L630 223 C491 399 353 575 215 751 L-36 751 L-39 735 L-39 735 Z " />
<glyph glyph-name="ncaron" unicode="&#x148;" horiz-adv-x="619" d="M439 795 L300 678 L161 795 L146 782 L260 604 C268 592 288 563 300 563 C313 563 333 592 341 604 L454 782 L439 795 L439 795 Z M11 455 L22 455 C60 456 86 420 86 363 L86 80 C86 41 60 15 22 15 L11 15 L11 0 L276 0 L276 15 L265 15 C227 15 201 41 201 80 L201 373 C228 419 281 450 335 450 C377 450 399 398 399 321 L399 80 C399 41 373 15 335 15 L324 15 L324 0 L589 0 L589 15 L578 15 C540 15 514 41 514 80 L514 321 C514 434 466 510 373 510 C310 510 242 463 201 393 L201 500 L144 500 C104 490 51 476 11 465 L11 455 L11 455 Z " />
<glyph glyph-name="Omacron" unicode="&#x14c;" horiz-adv-x="889" d="M282 890 L582 890 L582 970 L282 970 L282 890 L282 890 Z M187 375 C187 599 284 749 430 749 C584 749 687 599 687 375 C687 151 582 1 424 1 C282 1 187 151 187 375 L187 375 Z M40 375 C40 144 193 -10 422 -10 C669 -10 834 144 834 375 C834 606 673 760 432 760 C197 760 40 606 40 375 L40 375 Z " />
<glyph glyph-name="omacron" unicode="&#x14d;" horiz-adv-x="622" d="M161 640 L461 640 L461 720 L161 720 L161 640 L161 640 Z M172 250 C172 399 228 499 311 499 C394 499 450 399 450 250 C450 101 394 1 311 1 C228 1 172 101 172 250 L172 250 Z M45 250 C45 94 151 -10 311 -10 C471 -10 577 94 577 250 C577 406 471 510 311 510 C151 510 45 406 45 250 L45 250 Z " />
<glyph glyph-name="Obreve" unicode="&#x14e;" horiz-adv-x="889" d="M289 994 C299 910 356 854 432 854 C508 854 565 909 575 992 L551 995 C547 959 499 935 432 935 C365 935 317 960 313 998 L289 994 L289 994 Z M187 375 C187 599 284 749 430 749 C584 749 687 599 687 375 C687 151 582 1 424 1 C282 1 187 151 187 375 L187 375 Z M40 375 C40 144 193 -10 422 -10 C669 -10 834 144 834 375 C834 606 673 760 432 760 C197 760 40 606 40 375 L40 375 Z " />
<glyph glyph-name="obreve" unicode="&#x14f;" horiz-adv-x="622" d="M168 744 C178 660 235 604 311 604 C387 604 444 659 454 742 L430 745 C426 709 378 685 311 685 C244 685 196 710 192 748 L168 744 L168 744 Z M172 250 C172 399 228 499 311 499 C394 499 450 399 450 250 C450 101 394 1 311 1 C228 1 172 101 172 250 L172 250 Z M45 250 C45 94 151 -10 311 -10 C471 -10 577 94 577 250 C577 406 471 510 311 510 C151 510 45 406 45 250 L45 250 Z " />
<glyph glyph-name="Racute" unicode="&#x154;" horiz-adv-x="851" d="M335 811 L480 929 C515 958 539 981 539 988 C539 1019 513 1046 482 1046 C475 1046 454 1020 427 981 L321 826 L335 811 L335 811 Z M51 735 L65 735 C114 735 146 695 146 635 L146 115 C146 55 114 15 65 15 L51 15 L51 0 L376 0 L376 15 L362 15 C313 15 281 55 281 115 L281 346 L352 346 C377 306 451 205 552 74 C607 2 619 -1 841 -1 L841 19 C757 19 752 21 711 74 C607 209 528 312 492 359 C594 383 656 440 656 535 C656 663 536 749 357 749 L51 749 L51 735 L51 735 Z M281 379 L281 722 L317 722 C431 722 507 658 507 562 C507 436 447 379 357 379 L281 379 L281 379 Z " />
<glyph glyph-name="Rcaron" unicode="&#x158;" horiz-adv-x="851" d="M465 1045 L327 929 L188 1045 L172 1032 L286 854 C294 842 314 813 327 813 C339 813 359 842 367 854 L481 1032 L465 1045 L465 1045 Z M51 735 L65 735 C114 735 146 695 146 635 L146 115 C146 55 114 15 65 15 L51 15 L51 0 L376 0 L376 15 L362 15 C313 15 281 55 281 115 L281 346 L352 346 C377 306 451 205 552 74 C607 2 619 -1 841 -1 L841 19 C757 19 752 21 711 74 C607 209 528 312 492 359 C594 383 656 440 656 535 C656 663 536 749 357 749 L51 749 L51 735 L51 735 Z M281 379 L281 722 L317 722 C431 722 507 658 507 562 C507 436 447 379 357 379 L281 379 L281 379 Z " />
<glyph glyph-name="rcaron" unicode="&#x159;" horiz-adv-x="478" d="M406 795 L268 679 L129 795 L113 782 L227 604 C235 592 255 563 268 563 C280 563 300 592 308 604 L422 782 L406 795 L406 795 Z M12 455 L23 455 C61 456 87 420 87 363 L87 80 C87 41 61 15 23 15 L12 15 L12 0 L277 0 L277 15 L266 15 C228 15 202 41 202 80 L202 381 C221 427 256 456 293 456 C317 456 333 442 333 421 C333 380 360 353 401 353 C441 353 468 380 468 421 C468 474 420 510 347 510 C284 510 228 467 202 401 L202 500 L145 500 C105 490 52 476 12 465 L12 455 L12 455 Z " />
<glyph glyph-name="Sacute" unicode="&#x15a;" horiz-adv-x="555" d="M282 811 L427 929 C462 958 486 981 486 988 C486 1019 460 1046 429 1046 C422 1046 401 1020 374 981 L268 826 L282 811 L282 811 Z M47 254 L47 -12 L61 -12 L65 15 C69 42 110 43 170 18 C179 13 189 9 199 5 C206 1 213 -2 220 -5 L221 -2 C241 -7 262 -10 283 -10 C422 -10 515 77 515 207 C515 308 450 399 323 445 C217 483 163 543 163 603 C163 691 203 749 264 749 C266 749 287 748 287 747 C356 737 421 664 449 565 L458 536 L478 536 L478 766 L464 766 L460 746 C456 727 417 726 361 744 C339 757 315 766 291 770 L289 760 C150 772 58 685 58 552 C58 445 121 350 242 306 C351 266 407 215 407 169 C407 36 314 -33 208 26 C153 59 102 135 77 224 L68 254 L47 254 L47 254 Z " />
<glyph glyph-name="Scircumflex" unicode="&#x15c;" horiz-adv-x="555" d="M314 996 C306 1008 286 1037 274 1037 C261 1037 241 1008 233 996 L119 818 L135 805 L274 921 L412 805 L428 818 L314 996 L314 996 Z M47 254 L47 -12 L61 -12 L65 15 C69 42 110 43 170 18 C179 13 189 9 199 5 C206 1 213 -2 220 -5 L221 -2 C241 -7 262 -10 283 -10 C422 -10 515 77 515 207 C515 308 450 399 323 445 C217 483 163 543 163 603 C163 691 203 749 264 749 C266 749 287 748 287 747 C356 737 421 664 449 565 L458 536 L478 536 L478 766 L464 766 L460 746 C456 727 417 726 361 744 C339 757 315 766 291 770 L289 760 C150 772 58 685 58 552 C58 445 121 350 242 306 C351 266 407 215 407 169 C407 36 314 -33 208 26 C153 59 102 135 77 224 L68 254 L47 254 L47 254 Z " />
<glyph glyph-name="Scaron" unicode="&#x160;" horiz-adv-x="555" d="M412 1045 L274 929 L135 1045 L119 1032 L233 854 C241 842 261 813 274 813 C286 813 306 842 314 854 L428 1032 L412 1045 L412 1045 Z M47 254 L47 -12 L61 -12 L65 15 C69 42 110 43 170 18 C179 13 189 9 199 5 C206 1 213 -2 220 -5 L221 -2 C241 -7 262 -10 283 -10 C422 -10 515 77 515 207 C515 308 450 399 323 445 C217 483 163 543 163 603 C163 691 203 749 264 749 C266 749 287 748 287 747 C356 737 421 664 449 565 L458 536 L478 536 L478 766 L464 766 L460 746 C456 727 417 726 361 744 C339 757 315 766 291 770 L289 760 C150 772 58 685 58 552 C58 445 121 350 242 306 C351 266 407 215 407 169 C407 36 314 -33 208 26 C153 59 102 135 77 224 L68 254 L47 254 L47 254 Z " />
<glyph glyph-name="scaron" unicode="&#x161;" horiz-adv-x="434" d="M350 795 L211 678 L72 795 L57 782 L171 604 C179 592 199 563 211 563 C224 563 244 592 252 604 L365 782 L350 795 L350 795 Z M361 329 L361 521 L350 521 L347 506 C347 504 314 505 262 508 C247 515 231 519 215 519 L215 510 C119 510 55 455 55 372 C55 293 100 229 186 206 C258 187 295 148 295 105 C295 41 261 -2 211 -2 C204 -2 197 -1 190 1 L191 8 C180 10 169 13 158 18 C118 47 90 101 74 169 L70 190 L58 190 L58 -12 L69 -12 L72 5 C72 8 106 5 159 -3 C174 -12 189 -17 203 -18 L204 -9 C311 -12 382 50 382 139 C382 209 332 269 234 295 C169 313 135 358 135 413 C135 469 169 509 222 503 L222 495 C237 494 251 491 264 487 C299 463 328 415 342 352 L347 331 L361 329 L361 329 Z " />
<glyph glyph-name="Tcaron" unicode="&#x164;" horiz-adv-x="775" d="M529 1045 L390 928 L251 1045 L236 1032 L350 854 C358 842 378 813 390 813 C403 813 423 842 431 854 L544 1032 L529 1045 L529 1045 Z M688 805 L684 797 C672 769 613 750 535 750 L241 750 C163 750 104 769 92 797 L88 805 L77 805 C68 783 57 755 48 733 L55 733 L55 725 C37 680 15 624 -3 581 L12 581 L24 601 C65 670 146 716 227 716 L320 716 L320 115 C320 55 288 15 239 15 L225 15 L225 0 L550 0 L550 15 L536 15 C487 15 455 55 455 115 L455 716 L550 716 C631 716 712 670 753 601 L765 581 L780 581 C762 626 739 685 720 731 L720 733 L728 733 C719 755 708 783 699 805 L688 805 L688 805 Z " />
<glyph glyph-name="tcaron" unicode="&#x165;" horiz-adv-x="412" d="M362 500 L210 500 L210 620 L202 620 L30 449 L30 439 L95 439 L95 186 C95 45 157 -10 249 -10 C328 -10 389 43 402 122 L387 125 C379 76 338 44 284 44 C238 44 207 77 207 161 L210 439 L362 439 L362 500 L362 500 Z M460 757 C436 757 426 694 424 648 L417 536 L437 532 L484 636 C501 672 512 714 512 740 C512 752 491 757 460 757 L460 757 Z " />
<glyph glyph-name="Utilde" unicode="&#x168;" horiz-adv-x="832" d="M267 869 C267 902 283 924 308 924 C358 924 426 859 476 859 C525 859 558 915 558 1000 L551 1000 C551 964 532 940 503 940 C453 940 385 1005 335 1005 C290 1005 260 951 260 869 L267 869 L267 869 Z M16 734 L30 734 C79 734 111 694 111 634 L111 220 C111 82 198 -10 328 -10 C432 -10 530 50 572 141 L572 0 L640 0 L697 15 C733 24 771 34 802 42 L802 57 L788 53 C739 40 707 71 707 131 L707 749 L572 749 L572 748 L477 748 L477 733 L491 733 C540 733 572 693 572 633 L572 201 C537 126 461 76 382 76 C300 76 246 133 246 219 L246 749 L111 749 L111 748 L16 748 L16 734 L16 734 Z " />
<glyph glyph-name="utilde" unicode="&#x169;" horiz-adv-x="610" d="M154 621 C154 654 170 676 195 676 C245 676 313 611 363 611 C412 611 445 667 445 752 L438 752 C438 716 419 692 390 692 C340 692 272 757 222 757 C177 757 147 703 147 621 L154 621 L154 621 Z M595 53 L582 50 C539 39 510 71 510 131 L510 500 L453 500 L453 501 L320 501 L320 486 L331 486 C369 486 395 460 395 421 L395 134 C374 95 330 70 280 70 C230 70 196 106 196 160 L196 500 L6 500 L6 485 L17 485 C55 485 81 459 81 420 L81 160 C81 58 139 -10 226 -10 C294 -10 360 42 394 122 L394 0 L451 0 L451 -1 C494 11 551 26 594 38 L595 53 L595 53 Z " />
<glyph glyph-name="Umacron" unicode="&#x16a;" horiz-adv-x="832" d="M259 889 L559 889 L559 969 L259 969 L259 889 L259 889 Z M16 734 L30 734 C79 734 111 694 111 634 L111 220 C111 82 198 -10 328 -10 C432 -10 530 50 572 141 L572 0 L640 0 L697 15 C733 24 771 34 802 42 L802 57 L788 53 C739 40 707 71 707 131 L707 749 L572 749 L572 748 L477 748 L477 733 L491 733 C540 733 572 693 572 633 L572 201 C537 126 461 76 382 76 C300 76 246 133 246 219 L246 749 L111 749 L111 748 L16 748 L16 734 L16 734 Z " />
<glyph glyph-name="umacron" unicode="&#x16b;" horiz-adv-x="610" d="M146 641 L446 641 L446 721 L146 721 L146 641 L146 641 Z M595 53 L582 50 C539 39 510 71 510 131 L510 500 L453 500 L453 501 L320 501 L320 486 L331 486 C369 486 395 460 395 421 L395 134 C374 95 330 70 280 70 C230 70 196 106 196 160 L196 500 L6 500 L6 485 L17 485 C55 485 81 459 81 420 L81 160 C81 58 139 -10 226 -10 C294 -10 360 42 394 122 L394 0 L451 0 L451 -1 C494 11 551 26 594 38 L595 53 L595 53 Z " />
<glyph glyph-name="Ubreve" unicode="&#x16c;" horiz-adv-x="832" d="M266 993 C276 909 333 853 409 853 C485 853 542 908 552 991 L528 994 C524 958 476 934 409 934 C342 934 294 959 290 997 L266 993 L266 993 Z M16 734 L30 734 C79 734 111 694 111 634 L111 220 C111 82 198 -10 328 -10 C432 -10 530 50 572 141 L572 0 L640 0 L697 15 C733 24 771 34 802 42 L802 57 L788 53 C739 40 707 71 707 131 L707 749 L572 749 L572 748 L477 748 L477 733 L491 733 C540 733 572 693 572 633 L572 201 C537 126 461 76 382 76 C300 76 246 133 246 219 L246 749 L111 749 L111 748 L16 748 L16 734 L16 734 Z " />
<glyph glyph-name="ubreve" unicode="&#x16d;" horiz-adv-x="610" d="M153 745 C163 661 220 605 296 605 C372 605 429 660 439 743 L415 746 C411 710 363 686 296 686 C229 686 181 711 177 749 L153 745 L153 745 Z M595 53 L582 50 C539 39 510 71 510 131 L510 500 L453 500 L453 501 L320 501 L320 486 L331 486 C369 486 395 460 395 421 L395 134 C374 95 330 70 280 70 C230 70 196 106 196 160 L196 500 L6 500 L6 485 L17 485 C55 485 81 459 81 420 L81 160 C81 58 139 -10 226 -10 C294 -10 360 42 394 122 L394 0 L451 0 L451 -1 C494 11 551 26 594 38 L595 53 L595 53 Z " />
<glyph glyph-name="Uring" unicode="&#x16e;" horiz-adv-x="832" d="M344 904 C344 945 370 972 409 972 C448 972 474 945 474 904 C474 867 444 836 409 836 C374 836 344 867 344 904 L344 904 Z M311 904 C311 853 356 809 409 809 C462 809 507 853 507 904 C507 961 468 999 409 999 C350 999 311 961 311 904 L311 904 Z M16 734 L30 734 C79 734 111 694 111 634 L111 220 C111 82 198 -10 328 -10 C432 -10 530 50 572 141 L572 0 L640 0 L697 15 C733 24 771 34 802 42 L802 57 L788 53 C739 40 707 71 707 131 L707 749 L572 749 L572 748 L477 748 L477 733 L491 733 C540 733 572 693 572 633 L572 201 C537 126 461 76 382 76 C300 76 246 133 246 219 L246 749 L111 749 L111 748 L16 748 L16 734 L16 734 Z " />
<glyph glyph-name="uring" unicode="&#x16f;" horiz-adv-x="610" d="M231 656 C231 697 257 724 296 724 C335 724 361 697 361 656 C361 619 331 588 296 588 C261 588 231 619 231 656 L231 656 Z M198 656 C198 605 243 561 296 561 C349 561 394 605 394 656 C394 713 355 751 296 751 C237 751 198 713 198 656 L198 656 Z M595 53 L582 50 C539 39 510 71 510 131 L510 500 L453 500 L453 501 L320 501 L320 486 L331 486 C369 486 395 460 395 421 L395 134 C374 95 330 70 280 70 C230 70 196 106 196 160 L196 500 L6 500 L6 485 L17 485 C55 485 81 459 81 420 L81 160 C81 58 139 -10 226 -10 C294 -10 360 42 394 122 L394 0 L451 0 L451 -1 C494 11 551 26 594 38 L595 53 L595 53 Z " />
<glyph glyph-name="Wcircumflex" unicode="&#x174;" horiz-adv-x="1169" d="M752 750 L381 750 L381 731 L395 731 C438 731 488 686 522 617 C539 578 556 539 573 500 L460 162 L277 614 C252 685 271 731 325 731 L342 731 L342 750 L-4 750 L-4 731 L9 731 C52 731 103 679 137 601 L137 601 C225 397 313 193 402 -10 L436 -10 L437 -5 L598 444 C665 293 732 142 799 -9 L833 -9 L833 -4 L1014 613 C1038 685 1087 732 1138 732 L1153 732 L1153 751 L846 751 L846 732 L868 732 C945 732 982 680 961 602 L961 602 L851 189 L671 612 C644 685 668 733 732 733 L752 733 L752 750 L752 750 Z M604 998 C596 1010 576 1039 564 1039 C551 1039 531 1010 523 998 L409 820 L425 807 L564 923 L702 807 L718 820 L604 998 L604 998 Z " />
<glyph glyph-name="Ycircumflex" unicode="&#x176;" horiz-adv-x="793" d="M223 0 L589 0 L589 15 L572 15 C513 15 474 63 474 135 L474 334 C526 433 578 532 630 630 C663 693 721 735 774 735 L790 735 L790 750 L537 750 L537 735 L559 735 C619 735 642 697 617 639 L470 347 C413 441 355 535 298 629 C260 692 270 734 324 734 L340 734 L340 749 L-6 749 L-6 734 L6 734 C47 734 100 692 140 629 L140 629 L338 315 L338 134 C338 62 299 14 240 14 L223 14 L223 0 L223 0 Z M447 995 C439 1007 419 1036 406 1036 C394 1036 374 1007 366 995 L252 817 L267 804 L406 921 L545 804 L560 817 L447 995 L447 995 Z " />
<glyph glyph-name="Ydieresis" unicode="&#x178;" horiz-adv-x="793" d="M486 865 C531 865 561 895 561 939 C561 984 531 1014 486 1014 C442 1014 412 984 412 939 C412 895 442 865 486 865 L486 865 Z M326 865 C370 865 400 895 400 939 C400 984 370 1014 326 1014 C281 1014 251 984 251 939 C251 895 281 865 326 865 L326 865 Z M223 0 L589 0 L589 15 L572 15 C513 15 474 63 474 135 L474 334 C526 433 578 532 630 630 C663 693 721 735 774 735 L790 735 L790 750 L537 750 L537 735 L559 735 C619 735 642 697 617 639 L470 347 C413 441 355 535 298 629 C260 692 270 734 324 734 L340 734 L340 749 L-6 749 L-6 734 L6 734 C47 734 100 692 140 629 L140 629 L338 315 L338 134 C338 62 299 14 240 14 L223 14 L223 0 L223 0 Z " />
<glyph glyph-name="Zacute" unicode="&#x179;" horiz-adv-x="657" d="M350 811 L494 929 C530 959 554 982 554 988 C554 1019 527 1046 496 1046 C490 1046 470 1020 442 981 L335 826 L350 811 L350 811 Z M71 577 L77 598 C96 666 167 712 257 716 L465 720 L25 27 L25 0 L606 0 L610 20 C611 20 624 81 646 176 L631 176 L622 155 C595 90 522 44 437 37 L182 31 L609 723 L609 750 L69 750 L66 712 C66 712 59 620 55 577 L71 577 L71 577 Z " />
<glyph glyph-name="Zdot" unicode="&#x17b;" horiz-adv-x="657" d="M341 865 C385 865 415 895 415 939 C415 984 385 1014 341 1014 C297 1014 267 984 267 939 C267 895 297 865 341 865 L341 865 Z M71 577 L77 598 C96 666 167 712 257 716 L465 720 L25 27 L25 0 L606 0 L610 20 C611 20 624 81 646 176 L631 176 L622 155 C595 90 522 44 437 37 L182 31 L609 723 L609 750 L69 750 L66 712 C66 712 59 620 55 577 L71 577 L71 577 Z " />
<glyph glyph-name="zdot" unicode="&#x17c;" horiz-adv-x="475" d="M254 615 C298 615 328 645 328 689 C328 734 298 764 254 764 C210 764 180 734 180 689 C180 645 210 615 254 615 L254 615 Z M256 35 L180 32 L435 473 L435 500 L169 500 C117 500 88 515 97 542 L79 542 C73 523 66 498 61 479 L62 479 C60 472 47 423 28 352 L45 352 L53 368 C80 419 144 456 218 464 L300 467 L41 26 L41 -1 L431 -1 L431 19 L436 19 C436 19 441 70 449 147 L432 147 L426 131 C406 76 337 37 256 34 L256 35 L256 35 Z " />
<glyph glyph-name="Zcaron" unicode="&#x17d;" horiz-adv-x="657" d="M480 1045 L341 928 L202 1045 L187 1032 L301 854 C309 842 329 813 341 813 C354 813 374 842 382 854 L495 1032 L480 1045 L480 1045 Z M71 577 L77 598 C96 666 167 712 257 716 L465 720 L25 27 L25 0 L606 0 L610 20 C611 20 624 81 646 176 L631 176 L622 155 C595 90 522 44 437 37 L182 31 L609 723 L609 750 L69 750 L66 712 C66 712 59 620 55 577 L71 577 L71 577 Z " />
<glyph glyph-name="zcaron" unicode="&#x17e;" horiz-adv-x="475" d="M393 795 L254 678 L115 795 L100 782 L214 604 C222 592 242 563 254 563 C267 563 287 592 295 604 L408 782 L393 795 L393 795 Z M256 35 L180 32 L435 473 L435 500 L169 500 C117 500 88 515 97 542 L79 542 C73 523 66 498 61 479 L62 479 C60 472 47 423 28 352 L45 352 L53 368 C80 419 144 456 218 464 L300 467 L41 26 L41 -1 L431 -1 L431 19 L436 19 C436 19 441 70 449 147 L432 147 L426 131 C406 76 337 37 256 34 L256 35 L256 35 Z " />
<glyph glyph-name="oogonek" unicode="&#x1eb;" horiz-adv-x="794" d="M1019 -49 L1016 -46 C985 -72 872 -89 732 -89 C582 -89 429 -57 330 -8 C346 -10 362 -11 379 -11 C598 -11 744 110 744 291 C744 472 602 592 389 592 C182 592 44 472 44 291 C44 184 91 98 171 46 C360 -83 579 -170 717 -170 C812 -170 932 -122 1019 -49 L1019 -49 Z M176 292 C176 467 260 584 387 584 C522 584 612 467 612 292 C612 113 515 -6 370 -6 C254 -6 176 113 176 292 L176 292 Z " />
<glyph glyph-name="Adotabove" unicode="&#x226;" horiz-adv-x="839" d="M430 865 C474 865 504 895 504 939 C504 984 474 1014 430 1014 C385 1014 355 984 355 939 C355 895 385 865 430 865 L430 865 Z M22 0 L320 0 L320 19 L299 19 C230 19 199 75 221 160 L258 290 L498 290 C511 250 525 209 537 169 C566 79 538 19 468 19 L447 19 L447 0 L834 0 L834 19 L818 19 C765 19 709 79 679 169 L679 169 L498 709 C498 709 484 770 478 770 L464 770 C469 743 428 718 363 709 L366 699 L366 699 L212 169 C186 79 119 19 45 19 L23 19 L22 0 L22 0 Z M262 301 L371 685 L495 301 L262 301 L262 301 Z " />
<glyph glyph-name="G_sc" unicode="&#x262;" horiz-adv-x="774" d="M640 377 L640 619 L626 619 L622 595 C618 569 578 562 522 576 C514 579 505 581 496 583 C481 590 466 595 452 598 L450 589 C212 612 43 489 43 290 C43 109 185 -12 397 -12 C433 -12 467 -9 500 -3 C503 -4 503 -5 503 -3 L503 -4 L528 2 C541 5 554 8 567 12 L622 26 L622 30 C646 39 670 49 694 60 L691 65 C670 55 648 46 623 39 L623 97 C623 178 659 232 712 232 L728 232 L728 251 L396 251 L396 232 L412 232 C465 232 501 178 501 97 C493 45 462 13 419 13 C274 13 178 124 178 290 C178 465 266 582 398 582 C417 582 434 580 450 577 C521 563 586 493 612 404 L621 375 L640 377 L640 377 Z " />
<glyph glyph-name="I_sc" unicode="&#x26a;" horiz-adv-x="416" d="M356 15 L342 15 C293 15 261 55 261 115 L261 468 C261 528 293 568 342 568 L356 568 L356 583 L44 583 L44 568 L58 568 C107 568 139 528 139 468 L139 115 C139 55 107 15 58 15 L44 15 L44 0 L356 0 L356 15 L356 15 Z " />
<glyph glyph-name="N_sc" unicode="&#x274;" horiz-adv-x="739" d="M-27 568 L-13 568 C33 568 99 531 147 475 L146 115 L146 115 C146 55 113 15 65 15 L51 15 L51 0 L277 0 L277 15 L263 15 C217 15 185 51 182 106 L180 438 C304 292 428 146 552 0 L576 0 L583 476 C587 531 619 567 666 567 L680 567 L680 582 L454 582 L454 567 L468 567 C517 567 549 527 549 467 L550 467 L552 143 C438 290 323 436 208 582 L-25 582 L-27 568 L-27 568 Z " />
<glyph glyph-name="R_sc" unicode="&#x280;" horiz-adv-x="712" d="M55 568 L69 568 C118 568 150 528 150 468 L150 115 C150 55 118 15 69 15 L55 15 L55 0 L366 0 L366 15 L352 15 C303 15 271 55 271 115 L271 265 L297 265 C319 232 379 155 459 58 C505 2 514 0 702 0 L702 18 C638 18 634 20 602 58 C518 160 454 238 422 277 C513 297 569 342 569 417 C569 517 461 584 300 584 L55 584 L55 568 L55 568 Z M271 297 L271 560 C370 558 435 511 435 442 C435 343 381 298 300 298 L271 297 L271 297 Z " />
<glyph glyph-name="Y_sc" unicode="&#x28f;" horiz-adv-x="704" d="M328 583 L-1 583 L-1 568 L11 568 C52 568 107 526 150 463 L150 463 L300 242 L300 135 C300 63 261 15 202 15 L185 15 L185 0 L537 0 L537 15 L520 15 C461 15 422 63 422 135 L422 258 C460 326 498 395 537 463 C572 526 632 568 685 568 L701 568 L701 583 L450 583 L450 568 L472 568 C535 568 555 526 521 463 L418 270 C376 334 333 399 292 463 C251 526 259 568 312 568 L328 568 L328 583 L328 583 Z " />
<glyph glyph-name="B_sc" unicode="&#x299;" horiz-adv-x="636" d="M379 4 L329 4 C294 4 271 79 271 191 L271 299 L391 299 C434 299 463 241 463 153 C463 32 429 4 379 4 L379 4 Z M55 564 L69 564 C118 564 150 524 150 464 L150 119 C150 59 118 19 69 19 L55 19 L55 0 L391 0 C514 0 596 29 596 153 C596 240 532 299 434 305 C513 322 563 373 563 444 C563 527 519 582 331 582 L55 582 L55 564 L55 564 Z M367 305 L271 305 L271 575 L315 575 C418 575 442 517 442 431 C442 355 412 305 367 305 L367 305 Z " />
<glyph glyph-name="H_sc" unicode="&#x29c;" horiz-adv-x="832" d="M772 15 L758 15 C709 15 677 55 677 115 L677 468 C677 528 709 568 758 568 L772 568 L772 583 L460 583 L460 568 L474 568 C523 568 555 528 555 468 L555 308 L307 308 L307 468 C307 528 339 568 388 568 L402 568 L402 583 L91 583 L91 568 L105 568 C154 568 186 528 186 468 L186 115 C186 55 154 15 105 15 L91 15 L91 0 L402 0 L402 15 L388 15 C339 15 307 55 307 115 L307 298 L555 298 L555 115 C555 55 523 15 474 15 L460 15 L460 0 L772 0 L772 15 L772 15 Z " />
<glyph glyph-name="L_sc" unicode="&#x29f;" horiz-adv-x="606" d="M356 583 L44 583 L44 568 L58 568 C107 568 139 528 139 468 L139 115 C139 55 107 15 58 15 L44 15 L44 0 L521 0 L522 11 L521 11 L521 16 C529 59 539 114 547 156 L532 156 L524 136 C504 80 449 39 379 26 C276 42 263 101 263 183 L263 468 C263 528 295 568 344 568 L358 568 L356 583 L356 583 Z " />
<glyph glyph-name="circumflex" unicode="&#x2c6;" horiz-adv-x="340" d="M211 746 C203 758 183 787 170 787 C158 787 138 758 130 746 L16 568 L31 555 L170 672 L309 555 L324 568 L211 746 L211 746 Z " />
<glyph glyph-name="caron" unicode="&#x2c7;" horiz-adv-x="340" d="M309 795 L170 678 L31 795 L16 782 L130 604 C138 592 158 563 170 563 C183 563 203 592 211 604 L324 782 L309 795 L309 795 Z " />
<glyph glyph-name="firsttonechinese" unicode="&#x2c9;" horiz-adv-x="340" d="M20 640 L320 640 L320 720 L20 720 L20 640 L20 640 Z " />
<glyph glyph-name="breve" unicode="&#x2d8;" horiz-adv-x="340" d="M27 744 C37 660 94 604 170 604 C246 604 303 659 313 742 L289 745 C285 709 237 685 170 685 C103 685 55 710 51 748 L27 744 L27 744 Z " />
<glyph glyph-name="dotaccent" unicode="&#x2d9;" horiz-adv-x="340" d="M170 615 C214 615 244 645 244 689 C244 734 214 764 170 764 C126 764 96 734 96 689 C96 645 126 615 170 615 L170 615 Z " />
<glyph glyph-name="ring" unicode="&#x2da;" horiz-adv-x="340" d="M105 655 C105 696 131 723 170 723 C209 723 235 696 235 655 C235 618 205 587 170 587 C135 587 105 618 105 655 L105 655 Z M72 655 C72 604 117 560 170 560 C223 560 268 604 268 655 C268 712 229 750 170 750 C111 750 72 712 72 655 L72 655 Z " />
<glyph glyph-name="A_sc" unicode="&#x1d00;" horiz-adv-x="757" d="M23 0 L319 0 L319 19 L298 19 C231 19 201 73 221 155 L242 224 L445 224 L470 154 C494 72 467 19 400 19 L379 19 L379 0 L750 0 L750 19 L734 19 C681 19 624 79 591 169 L591 169 L451 555 C451 555 438 603 433 603 L421 603 C425 582 388 563 329 555 L333 544 L215 169 C187 79 119 19 45 19 L23 19 L23 0 L23 0 Z M245 234 L336 534 L441 234 L245 234 L245 234 Z " />
<glyph glyph-name="C_sc" unicode="&#x1d04;" horiz-adv-x="682" d="M625 104 L625 104 L625 104 L625 104 Z M509 5 C573 23 618 16 622 -13 L626 -38 L640 -38 L640 207 L620 207 L611 178 C588 99 531 35 465 11 C441 3 415 -1 387 -1 C260 -1 176 116 176 292 C176 467 264 584 396 584 C415 584 432 582 448 579 C519 565 584 495 610 406 L619 377 L639 377 L639 619 L625 619 L621 595 C617 569 577 562 521 576 C513 579 504 581 495 583 C480 590 465 595 451 598 L449 589 C211 612 42 489 42 290 C42 90 210 -36 446 -8 L448 -16 C451 -15 507 4 507 4 L509 5 L509 5 Z " />
<glyph glyph-name="D_sc" unicode="&#x1d05;" horiz-adv-x="809" d="M316 8 C276 8 271 78 271 183 L271 576 C271 576 325 576 325 575 C520 575 621 462 621 292 C621 105 499 8 316 8 L316 8 Z M55 568 L69 568 C118 568 150 528 150 468 L150 115 C150 55 118 15 69 15 L55 15 L55 0 L327 0 C583 0 754 99 754 292 C754 467 618 583 355 583 L55 583 L55 568 L55 568 Z " />
<glyph glyph-name="E_sc" unicode="&#x1d07;" horiz-adv-x="623" d="M35 568 L52 568 C111 568 150 520 150 448 L150 135 C150 63 111 15 52 15 L35 15 L35 0 L546 0 L547 4 L546 4 C546 7 567 129 569 142 L554 142 L546 122 C525 64 467 22 395 10 C284 26 271 91 271 182 L271 298 L290 298 C368 298 428 249 441 175 L445 153 L460 153 L460 298 L461 298 L461 308 L460 308 L460 453 L445 453 L441 431 C428 357 368 308 290 308 L271 308 L271 574 L351 574 C430 574 496 525 518 451 L525 429 L540 429 C534 474 527 533 521 578 L521 582 L35 582 L35 568 L35 568 Z " />
<glyph glyph-name="J_sc" unicode="&#x1d0a;" horiz-adv-x="416" d="M356 583 L44 583 L44 568 L58 568 C107 568 139 528 139 468 L139 -93 C139 -189 80 -207 37 -207 C-23 -207 6 -110 -54 -110 C-87 -110 -109 -132 -109 -164 C-109 -198 -54 -220 28 -220 C126 -220 261 -163 261 137 L261 468 C261 528 293 568 342 568 L356 568 L356 583 L356 583 Z " />
<glyph glyph-name="K_sc" unicode="&#x1d0b;" horiz-adv-x="745" d="M647 583 L55 583 L55 568 L69 568 C118 568 150 528 150 468 L150 115 C150 55 118 15 69 15 L55 15 L55 0 L366 0 L366 15 L352 15 C303 15 271 55 271 115 L271 292 L502 0 L733 0 L733 15 L719 15 C671 15 608 55 561 115 L561 115 L364 369 C388 397 411 425 435 453 C494 522 572 568 630 568 L647 568 L647 583 L647 583 Z M357 568 C431 568 440 513 379 430 L271 292 L271 468 C271 531 304 568 357 568 L357 568 Z " />
<glyph glyph-name="M_sc" unicode="&#x1d0d;" horiz-adv-x="865" d="M543 0 L853 0 L853 15 L839 15 C793 15 760 50 755 104 C750 225 744 347 740 468 C738 528 768 568 816 568 L830 568 L830 583 L619 583 L469 163 L469 166 L285 583 L51 583 L51 568 L65 568 C98 568 132 549 159 518 L143 102 C137 49 105 15 60 15 L46 15 L46 0 L278 0 L278 15 L264 15 C217 15 187 52 186 108 L193 471 C193 470 193 469 193 468 L194 468 C267 312 340 156 412 0 L442 0 L624 479 C628 358 632 236 635 115 C637 55 606 15 558 15 L544 15 L543 0 L543 0 Z " />
<glyph glyph-name="O_sc" unicode="&#x1d0f;" horiz-adv-x="799" d="M176 292 C176 467 260 584 387 584 C522 584 612 467 612 292 C612 117 520 0 381 0 C258 0 176 117 176 292 L176 292 Z M44 292 C44 111 178 -10 379 -10 C598 -10 744 111 744 292 C744 473 602 593 389 593 C182 593 44 473 44 292 L44 292 Z " />
<glyph glyph-name="P_sc" unicode="&#x1d18;" horiz-adv-x="571" d="M397 15 L383 15 C334 15 302 55 302 115 L302 258 L337 258 C465 258 551 307 551 417 C551 517 479 583 372 583 L85 583 L85 568 L99 568 C148 568 180 528 180 468 L180 115 C180 55 148 15 99 15 L85 15 L85 0 L397 0 L397 15 L397 15 Z M302 284 L302 563 C302 563 329 562 341 562 C399 562 437 512 437 437 C437 331 397 284 337 284 L302 284 L302 284 Z " />
<glyph glyph-name="T_sc" unicode="&#x1d1b;" horiz-adv-x="715" d="M630 638 L626 630 C614 602 555 583 477 583 L242 583 C164 583 104 602 92 630 L88 638 L77 638 C71 622 63 601 56 583 L55 583 L55 581 C53 576 51 572 49 568 L54 568 L54 558 L-2 418 L13 418 L25 438 C66 507 147 553 228 553 L296 553 L296 115 C296 55 264 15 215 15 L201 15 L201 0 L512 0 L512 15 L498 15 C449 15 417 55 417 115 L417 553 L490 553 C571 553 652 507 693 438 L705 418 L720 418 L660 568 L667 568 C659 589 648 617 640 638 L630 638 L630 638 Z " />
<glyph glyph-name="U_sc" unicode="&#x1d1c;" horiz-adv-x="737" d="M20 567 L34 567 C83 567 115 527 115 467 L115 202 C115 75 181 -10 281 -10 C370 -10 454 44 491 124 L491 0 L551 0 L551 -1 C598 11 660 28 707 41 L707 56 L693 52 C644 39 612 70 612 130 L612 583 L491 583 L491 582 L396 582 L396 567 L410 567 C459 567 491 527 491 467 L491 179 C460 112 396 68 330 68 C274 68 236 122 236 202 L236 583 L115 583 L115 582 L20 582 L20 567 L20 567 Z " />
<glyph glyph-name="V_sc" unicode="&#x1d20;" horiz-adv-x="777" d="M754 583 L453 583 L453 564 L476 564 C551 564 579 509 549 425 L450 184 L305 430 C263 511 276 564 341 564 L361 564 L361 583 L0 583 L0 564 L13 564 C55 564 111 508 155 423 C227 278 299 134 371 -10 L395 -10 C459 131 522 273 587 414 C628 504 689 564 740 564 L755 564 L754 583 L754 583 Z " />
<glyph glyph-name="W_sc" unicode="&#x1d21;" horiz-adv-x="1033" d="M680 583 L1 583 L1 564 L14 564 C56 564 108 515 145 441 C217 290 289 139 361 -11 L392 -11 L523 341 C580 224 637 107 694 -10 L725 -10 L871 435 C897 513 949 565 1003 565 L1019 565 L1019 584 L717 584 L717 565 L739 565 C815 565 850 513 827 435 L827 435 L747 169 C704 258 659 347 616 435 C577 513 596 565 662 565 L682 565 L680 583 L680 583 Z M341 565 C385 565 437 517 475 444 L501 389 L416 147 C371 243 326 339 281 435 C244 513 258 565 314 565 L341 565 L341 565 Z " />
<glyph glyph-name="Z_sc" unicode="&#x1d22;" horiz-adv-x="597" d="M70 414 L76 435 C95 504 169 551 262 553 L417 556 L25 24 L25 0 L546 0 L550 18 C550 18 564 80 585 172 L570 172 L561 151 C533 86 459 39 372 33 L171 28 L550 559 L550 583 L70 583 L69 566 C68 566 63 506 55 414 L70 414 L70 414 Z " />
<glyph glyph-name="Wgrave" unicode="&#x1e80;" horiz-adv-x="1169" d="M752 750 L381 750 L381 731 L395 731 C438 731 488 686 522 617 C539 578 556 539 573 500 L460 162 L277 614 C252 685 271 731 325 731 L342 731 L342 750 L-4 750 L-4 731 L9 731 C52 731 103 679 137 601 L137 601 C225 397 313 193 402 -10 L436 -10 L437 -5 L598 444 C665 293 732 142 799 -9 L833 -9 L833 -4 L1014 613 C1038 685 1087 732 1138 732 L1153 732 L1153 751 L846 751 L846 732 L868 732 C945 732 982 680 961 602 L961 602 L851 189 L671 612 C644 685 668 733 732 733 L752 733 L752 750 L752 750 Z M361 990 C361 981 385 959 420 931 L565 813 L579 828 L473 983 C447 1022 426 1048 418 1048 C387 1048 361 1021 361 990 L361 990 Z " />
<glyph glyph-name="Wacute" unicode="&#x1e82;" horiz-adv-x="1169" d="M572 811 L717 929 C752 958 776 981 776 988 C776 1019 750 1046 719 1046 C712 1046 691 1020 664 981 L558 826 L572 811 L572 811 Z M752 750 L381 750 L381 731 L395 731 C438 731 488 686 522 617 C539 578 556 539 573 500 L460 162 L277 614 C252 685 271 731 325 731 L342 731 L342 750 L-4 750 L-4 731 L9 731 C52 731 103 679 137 601 L137 601 C225 397 313 193 402 -10 L436 -10 L437 -5 L598 444 C665 293 732 142 799 -9 L833 -9 L833 -4 L1014 613 C1038 685 1087 732 1138 732 L1153 732 L1153 751 L846 751 L846 732 L868 732 C945 732 982 680 961 602 L961 602 L851 189 L671 612 C644 685 668 733 732 733 L752 733 L752 750 L752 750 Z " />
<glyph glyph-name="Wdieresis" unicode="&#x1e84;" horiz-adv-x="1169" d="M644 865 C688 865 718 895 718 939 C718 984 688 1014 644 1014 C599 1014 569 984 569 939 C569 895 599 865 644 865 L644 865 Z M483 865 C528 865 558 895 558 939 C558 984 528 1014 483 1014 C439 1014 409 984 409 939 C409 895 439 865 483 865 L483 865 Z M752 750 L381 750 L381 731 L395 731 C438 731 488 686 522 617 C539 578 556 539 573 500 L460 162 L277 614 C252 685 271 731 325 731 L342 731 L342 750 L-4 750 L-4 731 L9 731 C52 731 103 679 137 601 L137 601 C225 397 313 193 402 -10 L436 -10 L437 -5 L598 444 C665 293 732 142 799 -9 L833 -9 L833 -4 L1014 613 C1038 685 1087 732 1138 732 L1153 732 L1153 751 L846 751 L846 732 L868 732 C945 732 982 680 961 602 L961 602 L851 189 L671 612 C644 685 668 733 732 733 L752 733 L752 750 L752 750 Z " />
<glyph glyph-name="Etilde" unicode="&#x1ebc;" horiz-adv-x="693" d="M225 870 C225 903 242 925 267 925 C317 925 385 860 435 860 C484 860 516 916 516 1001 L510 1001 C510 965 491 941 462 941 C411 941 344 1006 293 1006 C249 1006 219 952 219 870 L225 870 L225 870 Z M31 735 L48 735 C107 735 146 687 146 615 L146 135 C146 63 107 15 48 15 L31 15 L31 0 L616 0 L617 4 L617 4 C624 46 634 102 641 144 L626 144 L618 124 C595 59 525 15 440 10 C298 17 282 85 282 184 L282 386 L362 386 C440 386 500 337 513 263 L517 241 L532 241 L532 541 L517 541 L513 519 C500 445 440 396 362 396 L282 396 L282 742 L423 742 C501 742 567 693 589 619 L596 597 L611 597 C605 642 598 702 592 747 L593 747 L592 751 L32 751 L31 735 L31 735 Z " />
<glyph glyph-name="Ygrave" unicode="&#x1ef2;" horiz-adv-x="793" d="M223 0 L589 0 L589 15 L572 15 C513 15 474 63 474 135 L474 334 C526 433 578 532 630 630 C663 693 721 735 774 735 L790 735 L790 750 L537 750 L537 735 L559 735 C619 735 642 697 617 639 L470 347 C413 441 355 535 298 629 C260 692 270 734 324 734 L340 734 L340 749 L-6 749 L-6 734 L6 734 C47 734 100 692 140 629 L140 629 L338 315 L338 134 C338 62 299 14 240 14 L223 14 L223 0 L223 0 Z M203 987 C203 979 227 957 263 928 L407 810 L422 825 L315 980 C289 1019 268 1045 261 1045 C230 1045 203 1018 203 987 L203 987 Z " />
<glyph glyph-name="quoteleft" unicode="&#x2018;" horiz-adv-x="638" d="M90 640 C76 640 65 634 57 623 C57 695 85 746 130 750 L120 761 C62 756 23 693 23 604 C23 561 50 533 90 533 C122 533 144 555 144 587 C144 619 122 641 90 641 L90 640 L90 640 Z " />
<glyph glyph-name="quoteright" unicode="&#x2019;" horiz-adv-x="178" d="M111 669 C110 602 77 552 28 543 L39 532 C103 543 145 608 145 694 C145 734 118 760 78 760 C46 760 24 738 24 706 C24 674 46 652 78 652 C92 652 103 658 111 669 L111 669 Z " />
<glyph glyph-name="quotedblleft" unicode="&#x201c;" horiz-adv-x="638" d="M273 640 C259 640 248 634 240 623 C240 695 268 746 313 750 L303 761 C245 756 206 693 206 604 C206 561 233 533 273 533 C306 533 328 555 328 587 C328 619 306 641 273 641 L273 640 L273 640 Z M78 641 C64 641 53 635 45 624 C45 696 73 747 118 751 L108 762 C50 757 11 694 11 605 C11 562 38 534 78 534 C110 534 132 556 132 588 C132 620 110 642 78 642 L78 641 L78 641 Z " />
<glyph glyph-name="quotedblright" unicode="&#x201d;" horiz-adv-x="638" d="M307 670 C306 603 272 552 223 543 L234 532 C298 543 341 608 341 694 C341 734 314 760 273 760 C241 760 219 738 219 706 C219 674 241 652 273 652 C287 652 299 659 307 670 L307 670 Z M111 669 C110 602 77 552 28 543 L39 532 C103 543 145 608 145 694 C145 734 118 760 78 760 C46 760 24 738 24 706 C24 674 46 652 78 652 C92 652 103 658 111 669 L111 669 Z " />
<glyph glyph-name="Euro" unicode="&#x20ac;" horiz-adv-x="819" d="M778 -11 L778 118 C777 116 776 114 775 112 C776 114 777 116 778 118 L761 132 L761 132 L778 117 L778 236 L759 236 L751 209 C731 138 679 71 617 35 C577 13 534 0 485 0 C362 0 274 104 248 268 L538 268 L549 350 L240 350 C239 366 239 383 240 399 L549 399 L561 481 L249 481 C276 644 368 748 496 748 C535 748 568 741 598 728 C666 697 728 622 752 540 L760 513 L779 513 L779 758 L767 758 L763 734 C759 706 721 703 667 726 C649 735 627 740 608 749 L607 748 C575 756 537 760 492 760 C290 760 145 652 103 482 L67 482 L55 400 L91 400 C90 384 90 367 91 351 L55 351 L43 269 L102 269 C143 99 284 -9 480 -9 C526 -9 566 -4 601 5 L602 4 C619 12 639 17 656 25 C715 51 757 48 761 16 L765 -9 L778 -11 L778 -11 Z M656 25 C655 25 654 25 653 25 C654 25 655 25 656 25 L656 25 Z " />
<glyph glyph-name="F_sc" unicode="&#xa730;" horiz-adv-x="598" d="M35 568 L52 568 C111 568 150 520 150 448 L150 135 C150 63 111 15 52 15 L35 15 L35 0 L386 0 L386 15 L369 15 C310 15 271 63 271 135 L271 299 C356 302 417 253 431 176 L435 154 L450 154 L450 454 L435 454 L431 432 C417 355 356 306 271 309 L271 577 L352 577 C430 577 496 528 518 454 L525 432 L540 432 C534 476 527 536 522 580 L521 580 L521 583 L35 583 L35 568 L35 568 Z " />
<glyph glyph-name="S_sc" unicode="&#xa731;" horiz-adv-x="493" d="M415 395 L415 623 L401 623 L397 603 C394 585 361 578 313 584 C289 596 263 603 237 603 L237 593 C131 593 60 526 60 426 C60 341 112 265 214 228 C308 194 356 157 356 127 C356 52 314 2 251 2 C250 2 239 2 239 3 C170 10 105 84 77 188 L68 219 L48 219 L48 -44 L62 -44 L66 -16 C70 10 112 17 175 2 C195 -9 216 -16 237 -18 L238 -11 C366 -18 453 56 453 162 C453 241 397 314 287 354 C200 386 155 430 155 471 C155 558 213 607 284 571 L283 568 C287 567 290 566 293 565 C333 540 367 489 385 423 L394 393 L415 395 L415 395 Z " />
<glyph glyph-name="X_sc" unicode="&#xf078;" horiz-adv-x="756" d="M745 583 L465 583 L465 568 L483 568 C544 568 553 529 508 469 L408 344 L314 474 C277 531 284 568 334 568 L350 568 L350 583 L22 583 L22 568 L34 568 C75 568 132 526 177 463 L177 463 L320 264 L197 115 C145 55 77 15 24 15 L8 15 L8 0 L285 0 L285 15 L266 15 C203 15 194 57 242 120 L242 120 L335 242 L429 111 C468 53 461 15 410 15 L394 15 L394 0 L723 0 L723 15 L711 15 C671 15 613 57 568 120 L568 120 L414 333 L549 475 C607 531 677 568 727 568 L743 568 L745 583 L745 583 Z " />
</font>
</svg>
