<?xml version="1.0" encoding="UTF-8"?>
<svg xmlns="http://www.w3.org/2000/svg" xmlns:xlink="http://www.w3.org/1999/xlink" version="1.2" >
<font id="Jerin Light">
<font-face  font-family="Jerin" units-per-em="1024" ascent="975" descent="-300" font-style="normal" font-weight="300" font-stretch="normal" cap-height="1042" x-height="488" underline-position="-125" underline-thickness="50" />
<missing-glyph  horiz-adv-x="100" d="" />
<glyph glyph-name="NULL" d="" />
<glyph glyph-name="CR" unicode="&#xd;" horiz-adv-x="256" d="" />
<glyph glyph-name="space" unicode="&#x20;" horiz-adv-x="250" d="" />
<glyph glyph-name="exclam" unicode="&#x21;" horiz-adv-x="201" d="M136 30 C136 77 66 77 66 30 C66 -16 136 -16 136 30 L136 30 Z M101 755 C77 755 67 721 70 671 L96 210 L105 210 L131 671 C134 721 124 755 101 755 L101 755 Z " />
<glyph glyph-name="quotedbl" unicode="&#x22;" horiz-adv-x="325" d="M216 750 C204 750 198 732 201 705 L219 560 L225 560 L243 705 C246 732 240 750 228 750 L216 750 L216 750 Z M96 750 C84 750 78 732 81 705 L99 560 L105 560 L123 705 C126 732 120 750 108 750 L96 750 L96 750 Z " />
<glyph glyph-name="numbersign" unicode="&#x23;" horiz-adv-x="527" d="M390 681 L361 479 L208 479 L237 681 L231 681 L202 479 L64 479 L58 441 L197 441 L165 219 L25 219 L19 181 L160 181 L134 0 L140 0 L166 181 L319 181 L293 0 L299 0 L325 181 L457 181 L463 219 L330 219 L362 441 L502 441 L507 479 L367 479 L396 681 L390 681 L390 681 Z M203 441 L356 441 L324 219 L171 219 L203 441 L203 441 Z " />
<glyph glyph-name="dollar" unicode="&#x24;" horiz-adv-x="546" d="M53 246 L53 -9 L67 -9 L71 18 C75 47 120 46 185 16 L185 17 C198 11 212 5 225 0 L225 -75 L243 -75 L243 -5 C244 -5 245 -5 246 -5 L246 -3 C266 -7 285 -9 306 -9 L306 -74 L324 -74 L324 -8 C434 0 507 75 507 184 C507 264 444 347 324 405 L324 738 C376 711 417 654 434 581 L443 545 L463 545 L463 764 L449 764 L445 744 C441 724 401 724 343 745 C343 745 325 752 323 753 L323 826 L305 826 L305 758 C290 762 274 764 258 765 L258 761 C253 761 248 761 243 761 L243 826 L225 826 L225 760 C133 751 73 680 73 578 C73 510 125 437 225 377 L225 12 C158 41 102 117 81 211 L72 248 L53 246 L53 246 Z M304 747 L304 415 C281 426 260 437 241 448 L241 756 C265 757 285 753 303 746 L304 747 L304 747 Z M241 366 C260 355 282 345 302 335 L302 -3 C281 -3 261 0 241 6 L241 366 L241 366 Z M321 326 C411 276 457 218 457 167 C457 74 403 9 321 0 L321 326 L321 326 Z M223 461 C152 509 116 558 116 601 C116 686 158 746 223 756 L223 461 L223 461 Z " />
<glyph glyph-name="ampersand" unicode="&#x26;" horiz-adv-x="341" d="M311 471 L316 466 C407 494 468 553 468 613 C468 701 407 760 315 760 C218 760 153 697 153 603 C153 568 207 501 289 404 C289 404 368 315 505 153 C431 79 351 37 274 37 C170 37 101 109 101 217 C101 322 163 411 256 439 L247 442 C128 406 49 310 49 202 C49 75 127 -9 245 -9 C336 -9 431 45 517 139 C528 126 539 113 550 99 C605 34 665 -10 700 -10 C767 -10 819 53 831 148 L822 151 C813 79 773 31 721 31 C692 31 641 69 594 125 C579 143 564 161 550 178 C617 263 677 373 723 501 L711 501 C666 376 606 270 539 191 C408 346 332 431 332 431 C250 528 196 595 196 631 C196 702 243 749 314 749 C381 749 426 696 426 617 C426 551 380 493 310 472 L311 471 L311 471 Z " />
<glyph glyph-name="quotesingle" unicode="&#x27;" horiz-adv-x="204" d="M96 750 C84 750 78 732 81 705 L99 560 L105 560 L123 705 C126 732 120 750 108 750 L96 750 L96 750 Z " />
<glyph glyph-name="parenleft" unicode="&#x28;" horiz-adv-x="435" d="M320 760 C188 671 100 476 100 273 C100 77 185 -118 313 -214 L316 -209 C207 -127 135 66 135 273 C135 486 210 678 323 754 L320 760 L320 760 Z " />
<glyph glyph-name="parenright" unicode="&#x29;" horiz-adv-x="435" d="M27 754 C161 667 250 475 250 273 C250 68 164 -125 34 -209 L37 -214 C186 -117 285 77 285 273 C285 466 183 661 30 760 L27 754 L27 754 Z " />
<glyph glyph-name="asterisk" unicode="&#x2a;" horiz-adv-x="268" d="M263 675 L263 675 L263 675 Z M246 556 C267 542 283 571 261 582 C261 582 251 564 247 556 L246 556 L246 556 Z M263 675 C283 686 269 715 248 701 L248 702 L152 629 L247 557 L262 583 L153 629 L263 676 L264 676 L263 675 L263 675 Z M152 630 L41 583 C19 572 34 542 55 556 L55 557 C50 565 40 583 40 583 L55 557 L150 629 L135 511 C133 486 167 486 165 511 L150 629 L152 630 L152 630 Z M54 704 L39 678 C43 686 54 704 54 704 L54 704 Z M54 704 C33 718 18 687 39 676 L39 677 L150 630 L54 704 L54 704 Z M150 630 L165 750 C167 775 133 775 135 750 L150 630 L150 630 Z " />
<glyph glyph-name="plus" unicode="&#x2b;" horiz-adv-x="620" d="M291 460 L291 268 L100 268 L100 232 L291 232 L291 40 L329 40 L329 232 L520 232 L520 268 L329 268 L329 460 L291 460 L291 460 Z " />
<glyph glyph-name="comma" unicode="&#x2c;" horiz-adv-x="258" d="M174 43 C196 -42 148 -107 66 -107 L66 -111 C140 -111 189 -63 189 10 C189 52 178 85 160 102 C151 111 140 116 126 116 C90 116 66 92 66 56 C66 20 90 -4 126 -4 C153 -4 172 15 176 44 L174 43 L174 43 Z " />
<glyph glyph-name="hyphen" unicode="&#x2d;" horiz-adv-x="430" d="M80 264 L350 264 L350 306 L80 306 L80 264 L80 264 Z " />
<glyph glyph-name="period" unicode="&#x2e;" horiz-adv-x="195" d="M160 30 C160 77 90 77 90 30 C90 -16 160 -16 160 30 L160 30 Z " />
<glyph glyph-name="slash" unicode="&#x2f;" horiz-adv-x="379" d="M319 770 L37 -80 L67 -80 L349 770 L319 770 L319 770 Z " />
<glyph glyph-name="zero" unicode="0" horiz-adv-x="606" d="M73 250 C73 379 166 489 305 489 C430 489 537 393 537 250 C537 121 444 11 305 11 C180 11 73 107 73 250 L73 250 Z M49 250 C49 94 167 -10 305 -10 C459 -10 561 110 561 250 C561 406 443 510 305 510 C151 510 49 390 49 250 L49 250 Z " />
<glyph glyph-name="one" unicode="1" horiz-adv-x="360" d="M300 15 L286 15 C237 15 205 55 205 115 L205 385 C205 445 237 485 286 485 L300 485 L300 500 L60 500 L60 485 L74 485 C123 485 155 445 155 385 L155 115 C155 55 123 15 74 15 L60 15 L60 0 L300 0 L300 15 L300 15 Z " />
<glyph glyph-name="two" unicode="2" horiz-adv-x="527" d="M56 291 C77 400 148 472 234 472 C320 472 378 416 378 331 C378 233 254 133 95 44 C87 43 78 37 69 30 C53 22 37 14 21 6 L27 2 C25 1 23 1 21 1 L423 1 L446 38 C463 63 483 92 499 114 C499 116 492 120 493 120 L484 109 C454 71 389 45 320 45 L110 45 C286 143 424 249 424 344 C424 444 357 511 257 511 C153 511 67 425 42 295 L56 291 L56 291 Z " />
<glyph glyph-name="three" unicode="3" horiz-adv-x="409" d="M18 -222 L20 -232 C229 -210 369 -118 369 -2 C369 97 272 165 124 170 C274 237 372 310 372 384 C372 460 309 510 214 510 C121 510 44 446 22 351 L33 348 C51 424 115 475 194 475 C269 475 319 432 319 367 C319 291 229 224 93 166 L93 156 C94 156 95 156 96 156 C95 156 94 156 93 156 C227 137 316 68 316 -17 C316 -121 197 -203 18 -222 L18 -222 Z " />
<glyph glyph-name="four" unicode="4" horiz-adv-x="620" d="M595 118 L591 106 C581 65 536 38 479 38 L415 38 L415 530 L409 530 L15 9 L15 0 L365 0 L365 -220 L415 -220 L415 0 L475 0 C532 0 570 -22 569 -55 L570 -65 C570 -65 582 -69 586 -69 C590 -43 595 -7 599 19 L598 19 C602 47 607 85 611 114 C607 115 595 118 595 118 L595 118 Z M366 443 L365 442 L365 38 L61 38 L366 443 L366 443 Z " />
<glyph glyph-name="five" unicode="5" horiz-adv-x="428" d="M60 -232 C263 -207 398 -95 398 47 C398 185 271 268 83 268 L121 455 L340 457 L344 478 C349 504 356 539 361 565 L345 565 L341 555 C330 522 285 500 228 500 L111 500 L56 223 L65 215 L88 215 C248 215 354 141 354 30 C354 -100 236 -201 59 -223 L60 -232 L60 -232 Z " />
<glyph glyph-name="six" unicode="6" horiz-adv-x="567" d="M550 750 C255 687 59 502 59 287 C59 109 153 -10 294 -10 C427 -10 515 90 515 239 C515 372 421 461 281 461 C209 461 153 429 123 375 C171 555 331 696 552 743 L550 750 L550 750 Z M108 260 C108 378 177 457 280 457 C392 457 466 371 466 242 C466 94 397 -5 293 -5 C182 -5 108 101 108 260 L108 260 Z " />
<glyph glyph-name="seven" unicode="7" horiz-adv-x="439" d="M45 390 L52 401 C73 436 125 460 182 460 L414 460 L425 474 L115 -220 L153 -220 L434 485 L434 500 L200 500 C143 500 111 519 121 548 L123 557 C123 557 114 565 111 566 C102 546 91 522 81 500 L81 500 L63 460 C54 439 43 416 34 397 C37 395 46 389 46 389 L45 390 L45 390 Z " />
<glyph glyph-name="eight" unicode="8" horiz-adv-x="543" d="M233 386 C241 382 249 378 258 375 C382 325 464 277 464 197 C464 75 388 -6 275 -6 C165 -6 91 66 91 174 C91 264 147 346 233 385 L233 386 L233 386 Z M228 387 C118 340 47 256 47 173 C47 63 138 -11 275 -11 C412 -11 503 64 503 176 C503 295 425 356 306 408 C409 453 476 526 476 596 C476 694 395 759 273 759 C152 759 72 688 72 582 C72 502 133 433 228 387 L228 387 Z M301 410 C293 414 285 418 276 422 C178 462 112 527 112 602 C112 696 177 758 275 758 C370 758 433 692 433 593 C433 518 381 448 301 412 L301 410 L301 410 Z " />
<glyph glyph-name="nine" unicode="9" horiz-adv-x="567" d="M17 -250 C312 -187 508 -2 508 213 C508 391 414 510 273 510 C140 510 52 410 52 261 C52 128 146 39 286 39 C358 39 414 71 444 125 C396 -55 236 -196 15 -243 L17 -250 L17 -250 Z M459 240 C459 122 390 43 287 43 C175 43 101 129 101 258 C101 406 170 505 274 505 C385 505 459 399 459 240 L459 240 Z " />
<glyph glyph-name="colon" unicode="&#x3a;" horiz-adv-x="135" d="M160 420 C160 467 90 467 90 420 C90 374 160 374 160 420 L160 420 Z M160 30 C160 77 90 77 90 30 C90 -16 160 -16 160 30 L160 30 Z " />
<glyph glyph-name="semicolon" unicode="&#x3b;" horiz-adv-x="258" d="M160 420 C160 467 90 467 90 420 C90 374 160 374 160 420 L160 420 Z M174 43 C196 -42 148 -107 66 -107 L66 -111 C140 -111 189 -63 189 10 C189 52 178 85 160 102 C151 111 140 116 126 116 C90 116 66 92 66 56 C66 20 90 -4 126 -4 C153 -4 172 15 176 44 L174 43 L174 43 Z " />
<glyph glyph-name="equal" unicode="&#x3d;" horiz-adv-x="528" d="M78 211 L78 189 L458 189 L458 211 L78 211 L78 211 Z M78 311 L78 289 L458 289 L458 311 L78 311 L78 311 Z " />
<glyph glyph-name="question" unicode="&#x3f;" horiz-adv-x="305" d="M160 30 C160 77 90 77 90 30 C90 -16 160 -16 160 30 L160 30 Z M121 175 C121 175 123 359 125 360 C209 360 243 397 281 453 C298 478 309 518 309 553 C309 677 243 760 145 760 C117 760 98 745 98 723 C98 708 109 698 125 698 C136 698 152 707 163 707 C242 707 295 643 295 547 C295 527 285 498 270 476 C243 436 214 410 108 410 C111 411 113 175 113 175 L121 175 L121 175 Z " />
<glyph glyph-name="at" unicode="&#x40;" horiz-adv-x="1139" d="M1044 0 C977 -144 789 -240 575 -240 C286 -240 94 -40 94 259 C94 558 284 757 570 757 C855 757 1045 591 1045 343 C1045 140 968 4 852 4 C733 4 673 82 702 200 L772 480 L725 480 L702 386 C691 449 643 490 576 490 C410 490 299 373 299 197 C299 87 368 13 471 13 C546 13 613 61 649 137 C653 45 725 -13 844 -13 C989 -13 1085 129 1085 343 C1085 599 879 770 571 770 C262 770 56 566 56 259 C56 -45 268 -248 587 -248 C803 -248 993 -149 1062 0 L1044 0 L1044 0 Z M695 356 L656 200 C632 105 569 41 497 41 C411 41 353 107 353 207 C353 368 442 476 575 476 C647 476 695 428 695 356 L695 356 Z " />
<glyph glyph-name="A" unicode="A" horiz-adv-x="772" d="M25 0 L314 0 L314 19 L293 19 C226 19 196 72 216 154 L259 294 L516 294 C528 252 541 210 553 169 C580 79 551 19 480 19 L459 19 L459 0 L764 0 L764 19 L749 19 C695 19 641 79 614 169 L614 169 L443 732 C443 732 435 770 431 770 L426 770 C429 751 413 736 384 732 L387 722 C343 581 299 440 255 299 L255 298 L211 156 C181 73 116 19 46 19 L24 19 L25 0 L25 0 Z M261 299 L390 715 L515 299 L261 299 L261 299 Z " />
<glyph glyph-name="B" unicode="B" horiz-adv-x="642" d="M338 2 L288 2 C250 2 224 78 224 191 L224 385 L357 385 C465 385 537 309 537 194 C537 38 457 2 338 2 L338 2 Z M70 731 L84 731 C133 731 165 691 165 631 L165 119 C165 59 133 19 84 19 L70 19 L70 0 L344 0 C499 0 602 37 602 194 C602 308 512 385 376 388 C504 403 586 472 586 569 C586 678 533 750 309 750 L70 750 L70 731 L70 731 Z M322 388 L224 388 L224 746 L302 746 C484 746 527 673 527 563 C527 458 445 388 322 388 L322 388 Z " />
<glyph glyph-name="C" unicode="C" horiz-adv-x="706" d="M653 128 L653 128 L653 128 L653 128 Z M660 -7 L660 224 L640 224 L631 191 C609 107 548 36 477 10 C447 0 414 -6 377 -6 C226 -6 126 146 126 375 C126 603 230 755 387 755 C423 755 454 750 482 741 C550 717 610 646 632 559 L641 526 L661 526 L661 754 L647 754 L643 731 C639 705 599 705 542 729 C522 739 496 748 473 754 L472 752 C447 757 419 760 387 760 C192 760 62 606 62 375 C62 111 224 -56 469 -1 L470 -4 C492 2 517 12 537 21 C597 46 639 44 643 15 L647 -9 L660 -7 L660 -7 Z " />
<glyph glyph-name="D" unicode="D" horiz-adv-x="820" d="M299 4 C232 4 224 76 224 183 L224 746 L329 746 C574 746 700 598 700 375 C700 130 540 4 299 4 L299 4 Z M70 735 L84 735 C133 735 165 695 165 635 L165 115 C165 55 133 15 84 15 L70 15 L70 0 L304 0 C581 0 765 128 765 375 C765 600 622 750 344 750 L70 750 L70 735 L70 735 Z " />
<glyph glyph-name="E" unicode="E" horiz-adv-x="636" d="M50 735 L67 735 C126 735 165 687 165 615 L165 135 C165 63 126 15 67 15 L50 15 L50 0 L559 0 L559 2 L561 2 C569 43 579 98 586 139 L571 139 L563 119 C540 54 470 9 385 4 C241 11 225 81 225 183 L225 385 L306 385 C384 385 444 336 457 262 L461 240 L476 240 L476 534 L461 534 L457 512 C444 438 384 389 306 389 L225 389 L225 746 L365 746 C443 746 509 697 531 623 L538 601 L553 601 C548 645 541 704 536 748 L535 748 L535 750 L51 750 L50 735 L50 735 Z " />
<glyph glyph-name="F" unicode="F" horiz-adv-x="611" d="M50 735 L67 735 C126 735 165 687 165 615 L165 135 C165 63 126 15 67 15 L50 15 L50 0 L339 0 L339 15 L322 15 C263 15 224 63 224 135 L224 385 L295 385 C373 385 433 336 446 262 L450 240 L465 240 L465 534 L450 534 L446 512 C433 438 373 389 295 389 L224 389 L224 747 L364 747 C442 747 508 698 530 624 L537 602 L552 602 C547 646 540 705 535 749 L534 749 L534 750 L50 750 L50 735 L50 735 Z " />
<glyph glyph-name="G" unicode="G" horiz-adv-x="793" d="M660 526 L660 754 L646 754 L642 731 C638 705 598 705 541 729 C521 739 495 748 472 754 L471 752 C446 757 418 760 386 760 C191 760 61 606 61 375 C61 144 188 -10 379 -10 C478 -10 557 4 627 27 L641 30 L641 32 C667 41 692 51 716 62 L715 65 C692 54 668 44 642 36 L642 171 C642 252 678 306 731 306 L747 306 L747 325 L478 325 L478 306 L494 306 C547 306 583 252 583 171 C583 171 583 74 583 73 C577 37 521 11 437 4 C472 6 512 10 542 13 C498 6 448 2 390 2 C232 2 127 151 127 375 C127 603 231 755 388 755 C424 755 455 750 483 741 C551 717 611 646 633 559 L642 526 L660 526 L660 526 Z M438 4 C423 3 407 2 390 2 C403 2 420 3 438 4 L438 4 Z " />
<glyph glyph-name="H" unicode="H" horiz-adv-x="840" d="M780 15 L766 15 C717 15 685 55 685 115 L685 635 C685 695 717 735 766 735 L780 735 L780 750 L531 750 L531 735 L545 735 C594 735 626 695 626 635 L626 388 L260 388 L260 635 C260 695 292 735 341 735 L355 735 L355 750 L106 750 L106 735 L120 735 C169 735 201 695 201 635 L201 115 C201 55 169 15 120 15 L106 15 L106 0 L355 0 L355 15 L341 15 C292 15 260 55 260 115 L260 383 L626 383 L626 115 C626 55 594 15 545 15 L531 15 L531 0 L780 0 L780 15 L780 15 Z " />
<glyph glyph-name="I" unicode="I" horiz-adv-x="384" d="M324 15 L310 15 C261 15 229 55 229 115 L229 635 C229 695 261 735 310 735 L324 735 L324 750 L76 750 L76 735 L90 735 C139 735 171 695 171 635 L171 115 C171 55 139 15 90 15 L76 15 L76 0 L324 0 L324 15 L324 15 Z " />
<glyph glyph-name="J" unicode="J" horiz-adv-x="384" d="M324 750 L76 750 L76 735 L90 735 C137 735 168 698 171 642 C171 470 170 135 170 -35 C170 -186 101 -215 51 -215 C22 -215 36 -168 7 -168 C-9 -168 -20 -178 -20 -194 C-20 -210 6 -221 46 -221 C123 -221 230 -173 230 77 C230 219 230 492 230 643 C233 698 264 734 311 734 L325 734 L324 750 L324 750 Z " />
<glyph glyph-name="K" unicode="K" horiz-adv-x="737" d="M723 15 L709 15 C663 15 598 51 545 106 L269 412 L452 625 C511 692 588 736 646 736 L663 736 L663 751 L372 751 L372 736 L395 736 C471 736 474 679 405 593 L223 375 L223 635 C223 695 255 735 304 735 L318 735 L318 750 L69 750 L69 735 L83 735 C132 735 164 695 164 635 L164 115 C164 55 132 15 83 15 L69 15 L69 0 L318 0 L318 15 L304 15 C255 15 223 55 223 115 L223 375 L565 0 L722 0 L723 15 L723 15 Z " />
<glyph glyph-name="L" unicode="L" horiz-adv-x="649" d="M324 750 L76 750 L76 735 L90 735 C139 735 171 695 171 635 L171 115 C171 55 139 15 90 15 L76 15 L76 0 L564 0 L564 5 C571 47 581 103 588 145 L573 145 L565 125 C542 60 472 16 387 10 C245 17 229 84 229 182 L229 634 C229 694 261 734 310 734 L324 734 L324 750 L324 750 Z " />
<glyph glyph-name="M" unicode="M" horiz-adv-x="883" d="M848 750 L697 750 L467 76 L216 750 L56 750 L56 735 L70 735 C104 735 138 715 164 682 C159 493 154 304 148 116 C146 56 113 16 65 16 L50 16 L50 1 L260 1 L260 16 L246 16 C200 16 170 51 167 105 L179 660 C180 658 188 637 190 637 L441 2 L456 2 L457 7 L699 696 L714 117 C716 57 684 17 636 17 L622 17 L622 2 L871 2 L871 17 L856 17 C808 17 775 57 773 117 L773 117 L757 649 C759 702 789 737 835 737 L849 737 L848 750 L848 750 Z " />
<glyph glyph-name="N" unicode="N" horiz-adv-x="786" d="M22 735 L36 735 C73 735 115 713 151 677 L151 116 C151 56 119 16 70 16 L56 16 L56 1 L263 1 L263 16 L249 16 C201 16 168 56 168 116 L168 116 L167 661 C172 655 177 649 181 643 C326 429 470 214 616 1 L628 1 L631 648 C635 701 667 736 713 736 L727 736 L727 751 L520 751 L520 736 L534 736 C583 736 615 696 615 636 L615 636 L616 106 L611 113 L181 751 L23 751 L22 735 L22 735 Z " />
<glyph glyph-name="O" unicode="O" horiz-adv-x="806" d="M125 375 C125 603 235 755 400 755 C572 755 687 603 687 375 C687 147 569 -5 392 -5 C232 -5 125 147 125 375 L125 375 Z M61 375 C61 144 193 -10 391 -10 C607 -10 751 144 751 375 C751 606 611 760 401 760 C197 760 61 606 61 375 L61 375 Z " />
<glyph glyph-name="P" unicode="P" horiz-adv-x="588" d="M334 15 L320 15 C271 15 239 55 239 115 L239 353 L289 353 C456 353 568 411 568 541 C568 666 476 750 339 750 L85 750 L85 735 L99 735 C148 735 180 695 180 635 L180 115 C180 55 148 15 99 15 L85 15 L85 0 L334 0 L334 15 L334 15 Z M239 365 L239 740 L324 740 C437 740 513 664 513 550 C513 422 423 365 289 365 L239 365 L239 365 Z " />
<glyph glyph-name="Q" unicode="Q" horiz-adv-x="801" d="M1101 -52 L1100 -50 C1070 -75 950 -92 801 -92 C607 -92 428 -59 348 -8 C362 -10 376 -11 391 -11 C607 -11 751 143 751 374 C751 605 611 759 401 759 C197 759 61 605 61 374 C61 183 151 45 294 2 C411 -79 612 -133 795 -133 C923 -133 1046 -101 1102 -54 L1101 -52 L1101 -52 Z M126 373 C126 601 236 753 401 753 C573 753 688 601 688 373 C688 143 568 -10 388 -10 C231 -10 126 143 126 373 L126 373 Z " />
<glyph glyph-name="R" unicode="R" horiz-adv-x="738" d="M70 735 L84 735 C133 735 165 695 165 635 L165 115 C165 55 133 15 84 15 L70 15 L70 0 L319 0 L319 15 L305 15 C256 15 224 55 224 115 L224 365 L360 365 C375 334 438 224 525 76 C568 4 576 1 728 1 L728 10 C637 10 631 13 594 76 C507 224 443 333 421 370 C518 385 579 439 579 541 C579 667 493 751 364 751 L71 751 L70 735 L70 735 Z M225 381 L225 739 L346 739 C447 739 514 665 514 553 C514 434 454 381 364 381 L225 381 L225 381 Z " />
<glyph glyph-name="S" unicode="S" horiz-adv-x="546" d="M53 246 L53 -9 L67 -9 L71 18 C75 47 120 46 185 16 L185 17 C203 8 224 -1 244 -6 L244 -4 C391 -36 504 50 504 183 C504 264 440 348 317 406 C184 468 116 539 116 598 C116 705 176 766 273 753 C347 741 409 674 431 580 L440 544 L460 544 L460 763 L446 763 L442 743 C438 723 397 724 339 745 C313 757 284 764 254 765 L254 761 C142 765 69 691 69 577 C69 497 141 410 280 345 C396 291 455 224 455 166 C455 41 355 -31 232 8 C161 33 100 112 78 211 L69 248 L53 246 L53 246 Z " />
<glyph glyph-name="T" unicode="T" horiz-adv-x="775" d="M687 805 L683 797 C671 769 612 750 534 750 L241 750 C163 750 104 769 92 797 L88 805 L77 805 C71 789 63 768 56 750 L56 750 L56 749 C55 747 54 745 53 743 L56 743 L56 742 C38 699 16 643 -1 601 L14 601 L26 621 C67 690 148 736 229 736 L359 736 L359 116 C359 56 327 16 278 16 L264 16 L264 1 L513 1 L513 16 L499 16 C450 16 418 56 418 116 L418 736 L548 736 C629 736 710 690 751 621 L763 601 L778 601 C761 644 738 700 721 743 L724 743 C717 762 707 787 699 806 L687 805 L687 805 Z " />
<glyph glyph-name="U" unicode="U" horiz-adv-x="718" d="M35 734 L49 734 C98 734 130 694 130 634 L130 220 C130 82 188 -10 275 -10 C386 -10 490 54 534 149 L534 0 L564 0 L593 8 C624 16 659 25 687 32 L687 47 L673 43 C624 30 592 61 592 121 L592 749 L533 749 L533 748 L438 748 L438 733 L452 733 C501 733 533 693 533 633 L533 175 C492 86 398 27 298 27 C232 27 188 104 188 219 L188 749 L129 749 L129 748 L34 748 L35 734 L35 734 Z " />
<glyph glyph-name="V" unicode="V" horiz-adv-x="792" d="M757 750 L480 750 L480 731 L503 731 C578 731 610 675 583 590 L398 79 L216 597 C192 678 219 731 286 731 L307 731 L307 750 L16 750 L16 731 L28 731 C71 731 122 671 154 581 L154 581 C225 384 295 187 366 -10 L378 -10 L605 592 C639 676 693 731 742 731 L757 731 L757 750 L757 750 Z " />
<glyph glyph-name="W" unicode="W" horiz-adv-x="1135" d="M305 750 L41 750 L41 731 L54 731 C96 731 141 681 167 606 C234 401 302 197 368 -9 L383 -9 L596 476 C647 314 698 152 749 -9 L764 -9 L950 608 C975 683 1025 732 1078 732 L1093 732 L1093 751 L816 751 L816 732 L838 732 C911 732 947 685 931 613 L777 83 L620 602 C596 680 626 732 695 732 L715 732 L715 751 L426 751 L426 732 L439 732 C485 732 532 680 557 603 L589 501 L404 72 L232 607 C209 682 231 732 288 732 L305 732 L305 750 L305 750 Z " />
<glyph glyph-name="X" unicode="X" horiz-adv-x="808" d="M762 750 L507 750 L507 735 L527 735 C590 735 604 693 562 630 L562 630 L414 407 L270 637 C236 696 246 735 298 735 L314 735 L314 750 L59 750 L59 735 L71 735 C112 735 166 693 205 630 L373 362 L205 120 C161 57 97 15 43 15 L27 15 L27 0 L281 0 L281 15 L261 15 C201 15 186 54 222 113 L381 351 L527 118 C564 57 554 16 501 16 L485 16 L485 1 L741 1 L741 16 L729 16 C688 16 634 58 595 121 L595 121 L418 403 L592 643 C636 699 697 735 747 735 L763 735 L762 750 L762 750 Z " />
<glyph glyph-name="Y" unicode="Y" horiz-adv-x="729" d="M285 750 L30 750 L30 735 L42 735 C83 735 134 693 171 630 L171 630 L347 329 L347 135 C347 63 308 15 249 15 L232 15 L232 0 L521 0 L521 15 L504 15 C445 15 406 63 406 135 L406 337 L569 638 C603 696 658 734 710 734 L726 734 L726 749 L485 749 L485 734 L507 734 C570 734 589 692 556 629 L556 629 L404 342 L236 634 C203 695 216 735 269 735 L285 735 L285 750 L285 750 Z " />
<glyph glyph-name="Z" unicode="Z" horiz-adv-x="657" d="M642 153 L627 153 L618 133 C589 65 510 18 419 16 L95 13 L610 738 L610 750 L70 750 L69 734 C69 734 62 653 57 599 L72 599 L78 619 C98 688 173 733 265 735 L547 737 L26 11 L26 -1 L607 -1 C613 12 620 54 643 152 L642 153 L642 153 Z " />
<glyph glyph-name="bracketleft" unicode="&#x5b;" horiz-adv-x="285" d="M125 735 L335 735 L335 750 L108 750 L108 -195 L335 -195 L335 -180 L125 -180 L125 735 L125 735 Z " />
<glyph glyph-name="backslash" unicode="&#x5c;" horiz-adv-x="337" d="M37 770 L297 -80 L327 -80 L67 770 L37 770 L37 770 Z " />
<glyph glyph-name="bracketright" unicode="&#x5d;" horiz-adv-x="288" d="M161 735 L161 -180 L-49 -180 L-49 -195 L178 -195 L178 750 L-49 750 L-49 735 L161 735 L161 735 Z " />
<glyph glyph-name="asciicircum" unicode="&#x5e;" horiz-adv-x="340" d="M188 765 C184 770 176 783 170 783 C164 783 156 770 152 765 L21 563 L28 558 L170 726 L312 558 L319 563 L188 765 L188 765 Z " />
<glyph glyph-name="underscore" unicode="&#x5f;" horiz-adv-x="455" d="M5 -50 L5 -78 L450 -78 L450 -50 L5 -50 L5 -50 Z " />
<glyph glyph-name="grave" unicode="&#x60;" horiz-adv-x="340" d="M-36 755 C-36 749 -8 722 34 686 L173 563 L180 570 L57 709 C21 751 -6 779 -12 779 C-25 779 -36 768 -36 755 L-36 755 Z " />
<glyph glyph-name="a" unicode="a" horiz-adv-x="512" d="M522 78 L515 81 C510 51 487 31 457 31 C423 31 400 51 400 81 C400 81 400 360 399 358 C399 463 345 510 263 510 C149 510 73 414 73 360 C73 339 83 325 98 325 C118 325 131 340 131 350 C131 363 111 382 111 392 C111 433 169 505 257 505 C313 505 350 465 350 377 L350 265 C109 191 53 164 53 80 C53 26 99 -10 168 -10 C215 -10 275 17 349 87 C349 31 379 -5 435 -5 C478 -5 512 28 521 78 L522 78 L522 78 Z M349 261 L349 91 C291 37 239 16 194 16 C139 16 103 44 103 85 C103 174 150 199 349 260 L349 261 L349 261 Z " />
<glyph glyph-name="b" unicode="b" horiz-adv-x="538" d="M10 713 L21 713 C59 714 85 678 85 621 L85 125 L83 125 C84 123 85 121 86 119 L86 0 L89 0 L110 74 C147 22 211 -10 284 -10 C410 -10 494 94 494 251 C494 403 407 505 276 505 C231 505 175 471 135 418 L135 751 L110 751 C80 743 40 732 10 724 L10 713 L10 713 Z M135 111 L135 409 C171 457 220 489 258 489 C365 489 437 392 437 246 C437 97 376 -3 285 -3 C220 -3 162 42 136 111 L135 111 L135 111 Z " />
<glyph glyph-name="c" unicode="c" horiz-adv-x="465" d="M435 128 L433 129 C400 54 328 4 255 4 C159 4 95 108 95 264 C95 409 162 506 263 506 C314 506 363 466 385 405 C390 390 400 380 410 380 C430 380 440 390 435 405 C412 468 344 510 264 510 C133 510 45 402 45 239 C45 90 126 -10 247 -10 C323 -10 398 45 435 128 L435 128 Z " />
<glyph glyph-name="d" unicode="d" horiz-adv-x="602" d="M367 713 L378 713 C416 714 442 678 442 621 L442 412 C413 468 358 511 299 511 C132 511 46 409 46 255 C46 100 137 -4 274 -4 C340 -4 407 28 443 76 L443 1 L468 1 C504 11 552 24 588 34 L588 49 L574 45 C525 32 493 63 493 123 L493 751 L468 751 C438 743 398 732 368 724 L367 713 L367 713 Z M443 376 L443 81 C413 42 355 17 295 17 C176 17 97 117 97 268 C97 405 168 496 305 496 C366 496 423 441 443 376 L443 376 Z " />
<glyph glyph-name="e" unicode="e" horiz-adv-x="530" d="M105 340 L500 340 C478 462 400 510 296 510 C145 510 45 433 45 235 C45 88 136 -10 273 -10 C369 -10 454 48 486 135 L484 135 C456 57 373 5 278 5 C170 5 98 105 98 255 C98 287 100 315 105 340 L105 340 Z M444 345 L106 344 C129 459 199 506 295 506 C366 506 422 461 444 345 L444 345 Z " />
<glyph glyph-name="f" unicode="f" horiz-adv-x="352" d="M264 15 L253 15 C215 15 189 41 189 80 L189 474 L342 474 L342 500 L189 500 C189 644 229 740 306 740 C345 740 382 635 414 635 C441 635 459 653 459 680 C459 725 405 755 324 755 C202 755 139 653 139 500 L36 480 L36 474 L139 474 L139 80 C139 41 113 15 75 15 L64 15 L64 0 L264 0 L264 15 L264 15 Z " />
<glyph glyph-name="g" unicode="g" horiz-adv-x="520" d="M540 459 C540 477 527 489 508 489 C469 489 434 467 416 432 C388 481 333 511 261 511 C155 511 85 447 85 351 C85 264 141 203 229 191 C128 186 62 154 62 109 C62 61 101 27 162 20 C97 1 54 -42 54 -90 C54 -172 140 -227 270 -227 C400 -227 486 -167 486 -76 C486 12 434 70 302 70 L187 70 C129 70 90 92 90 125 C90 165 158 191 261 191 C367 191 437 256 437 353 C437 382 431 408 419 430 C432 449 454 461 479 461 C491 461 508 441 520 441 C533 441 541 450 541 463 L540 459 L540 459 Z M261 196 C185 196 135 259 135 354 C135 448 185 510 261 510 C337 510 387 448 387 354 C387 259 337 196 261 196 L261 196 Z M166 22 C172 22 178 22 184 22 L297 22 C404 22 445 -21 445 -85 C445 -167 375 -221 271 -221 C165 -221 95 -163 95 -76 C95 -31 123 7 166 23 L166 22 L166 22 Z " />
<glyph glyph-name="h" unicode="h" horiz-adv-x="557" d="M28 713 L39 713 C77 714 103 678 103 621 L103 80 C103 41 77 15 39 15 L28 15 L28 0 L228 0 L228 15 L217 15 C179 15 153 41 153 80 L153 372 C189 434 249 475 304 475 C369 475 402 431 402 365 L402 80 C402 41 376 15 338 15 L327 15 L327 0 L527 0 L527 15 L516 15 C478 15 452 41 452 80 L452 365 C452 452 411 510 332 510 C271 510 199 456 153 376 L153 750 L128 750 C98 742 58 731 28 723 L28 713 L28 713 Z " />
<glyph glyph-name="i" unicode="i" horiz-adv-x="268" d="M170 647 C170 690 106 690 106 647 C106 605 170 605 170 647 L170 647 Z M38 463 L49 463 C87 464 113 428 113 371 L113 80 C113 41 87 15 49 15 L38 15 L38 0 L238 0 L238 15 L227 15 C189 15 163 41 163 80 L163 500 L138 500 C108 492 68 481 38 473 L38 463 L38 463 Z " />
<glyph glyph-name="j" unicode="j" horiz-adv-x="245" d="M162 647 C162 690 98 690 98 647 C98 605 162 605 162 647 L162 647 Z M30 463 L41 463 C79 464 105 428 105 371 L105 29 C105 -50 89 -112 64 -126 C30 -126 -16 -100 -50 -100 C-77 -100 -95 -116 -95 -140 C-95 -169 -71 -187 -35 -185 C-28 -185 14 -163 70 -130 C121 -101 155 -37 155 29 L155 500 L130 500 C100 492 60 481 30 473 L30 463 L30 463 Z " />
<glyph glyph-name="k" unicode="k" horiz-adv-x="500" d="M498 500 L224 500 L224 485 L249 485 C335 485 322 425 217 335 L153 280 L153 750 L128 750 C98 742 58 731 28 723 L28 713 L39 713 C77 714 103 678 103 621 L103 80 C103 41 77 15 39 15 L28 15 L28 0 L228 0 L228 15 L217 15 C179 15 153 41 153 80 L153 280 C199 222 247 163 292 105 C335 51 342 15 310 15 L301 15 L301 0 L488 0 L488 15 L479 15 C449 15 397 55 349 115 L349 115 L196 308 C220 329 244 350 269 371 C349 440 435 486 483 486 L498 486 L498 500 L498 500 Z " />
<glyph glyph-name="l" unicode="l" horiz-adv-x="258" d="M28 713 L39 713 C77 714 103 678 103 621 L103 80 C103 41 77 15 39 15 L28 15 L28 0 L228 0 L228 15 L217 15 C179 15 153 41 153 80 L153 750 L128 750 C98 742 58 731 28 723 L28 713 L28 713 Z " />
<glyph glyph-name="m" unicode="m" horiz-adv-x="852" d="M28 463 L39 463 C77 464 103 428 103 371 L103 80 C103 41 77 15 39 15 L28 15 L28 0 L228 0 L228 15 L217 15 C179 15 153 41 153 80 L153 377 C186 435 243 473 296 473 C371 473 400 430 400 365 L400 80 C400 41 374 15 336 15 L325 15 L325 0 L525 0 L525 15 L514 15 C476 15 450 41 450 80 L450 365 C450 370 450 375 450 380 C484 436 540 473 593 473 C668 473 697 430 697 365 L697 80 C697 41 671 15 633 15 L622 15 L622 0 L822 0 L822 15 L811 15 C773 15 747 41 747 80 L747 365 C747 452 709 510 613 510 C559 510 494 460 449 385 C443 461 404 510 316 510 C263 510 198 458 153 381 L153 500 L128 500 C98 492 58 481 28 473 L28 463 L28 463 Z " />
<glyph glyph-name="n" unicode="n" horiz-adv-x="555" d="M28 463 L39 463 C77 464 103 428 103 371 L103 80 C103 41 77 15 39 15 L28 15 L28 0 L228 0 L228 15 L217 15 C179 15 153 41 153 80 L153 368 C193 438 252 484 300 484 C366 484 400 422 400 330 L400 80 C400 41 374 15 336 15 L325 15 L325 0 L525 0 L525 15 L514 15 C476 15 450 41 450 80 L450 330 C450 438 404 510 316 510 C265 510 199 456 153 376 L153 500 L128 500 C98 492 58 481 28 473 L28 463 L28 463 Z " />
<glyph glyph-name="o" unicode="o" horiz-adv-x="604" d="M100 250 C100 403 181 505 302 505 C423 505 504 403 504 250 C504 97 423 -5 302 -5 C181 -5 100 97 100 250 L100 250 Z M45 250 C45 94 148 -10 302 -10 C456 -10 559 94 559 250 C559 406 456 510 302 510 C148 510 45 406 45 250 L45 250 Z " />
<glyph glyph-name="p" unicode="p" horiz-adv-x="546" d="M13 463 L24 463 C62 464 88 428 88 371 L88 -140 C88 -179 62 -205 24 -205 L13 -205 L13 -220 L213 -220 L213 -205 L202 -205 C164 -205 138 -179 138 -140 L138 49 C170 15 212 -5 258 -5 C404 -5 501 114 501 254 C501 408 414 510 283 510 C226 510 169 480 138 434 L138 499 L113 499 C83 491 43 480 13 472 L13 463 L13 463 Z M138 129 L138 413 C168 458 216 488 260 488 C372 488 446 388 446 237 C446 113 372 7 261 7 C210 7 160 56 138 129 L138 129 Z " />
<glyph glyph-name="q" unicode="q" horiz-adv-x="567" d="M562 -205 L551 -205 C513 -205 487 -179 487 -140 L487 500 L484 500 L468 440 L458 431 C420 480 357 510 285 510 C121 510 36 408 36 254 C36 99 130 -5 271 -5 C336 -5 400 24 436 68 L436 -139 C436 -178 410 -204 372 -204 L361 -204 L361 -219 L561 -219 L562 -205 L562 -205 Z M436 390 L436 86 C403 44 347 17 292 17 C170 17 88 117 88 268 C88 407 154 500 282 500 C350 500 410 456 436 390 L436 390 Z " />
<glyph glyph-name="r" unicode="r" horiz-adv-x="373" d="M29 463 L40 463 C78 464 104 428 104 371 L104 80 C104 41 78 15 40 15 L29 15 L29 0 L229 0 L229 15 L218 15 C180 15 154 41 154 80 L154 379 C176 444 224 487 276 487 C293 487 304 473 304 452 C304 415 363 414 363 452 C363 487 337 510 299 510 C236 510 179 461 154 386 L154 499 L129 499 C99 491 59 480 29 472 L29 463 L29 463 Z " />
<glyph glyph-name="s" unicode="s" horiz-adv-x="422" d="M344 335 L344 519 L333 519 L330 504 C329 501 293 502 236 506 C222 510 207 512 192 512 L192 509 C114 509 62 461 62 388 C62 327 114 267 215 230 C293 202 333 155 333 106 C333 26 271 -24 190 -2 L190 0 C182 2 174 4 166 7 C117 32 83 87 75 158 L73 183 L61 183 L61 -11 L72 -11 L75 6 C76 12 113 8 170 -3 C185 -9 201 -13 217 -14 L217 -11 C311 -17 374 38 374 119 C374 178 328 235 239 267 C147 300 100 352 100 404 C100 469 145 511 211 502 L211 499 C222 498 233 496 244 493 C291 473 324 424 332 357 L335 332 L344 335 L344 335 Z " />
<glyph glyph-name="t" unicode="t" horiz-adv-x="339" d="M299 500 L145 500 L145 620 L141 620 L30 500 L30 490 L95 490 L95 129 C95 29 142 -10 212 -10 C253 -10 299 21 329 68 L324 71 C302 37 264 14 227 14 C177 14 144 43 144 118 L145 474 L299 474 L299 500 L299 500 Z " />
<glyph glyph-name="u" unicode="u" horiz-adv-x="546" d="M531 45 L518 42 C475 31 446 63 446 123 L446 500 L421 500 L421 501 L321 501 L321 486 L332 486 C370 486 396 460 396 421 L396 128 C368 65 312 24 252 24 C191 24 150 78 150 159 L150 499 L25 499 L25 484 L36 484 C74 484 100 458 100 419 L100 159 C100 57 151 -11 228 -11 C296 -11 362 42 397 123 L397 -1 L422 -1 L532 29 L531 45 L531 45 Z " />
<glyph glyph-name="v" unicode="v" horiz-adv-x="526" d="M498 500 L330 500 L330 485 L341 485 C376 485 386 443 365 380 L365 380 L236 -10 L250 -10 L389 387 C411 446 449 485 486 485 L497 485 L498 500 L498 500 Z M209 500 L9 500 L9 485 L20 485 C55 485 91 448 111 392 L234 -10 L262 76 C232 177 200 279 171 380 C152 443 163 485 198 485 L209 485 L209 500 L209 500 Z " />
<glyph glyph-name="w" unicode="w" horiz-adv-x="776" d="M229 500 L27 500 L27 485 L39 485 C75 485 111 447 130 390 L246 -10 L261 -10 L375 319 L469 -10 L484 -10 L631 394 C655 449 693 485 728 485 L740 485 L740 500 L572 500 L572 485 L582 485 C618 485 627 443 605 380 L605 380 L501 79 L412 390 C398 447 411 485 445 485 L456 485 L456 500 L254 500 L254 485 L266 485 C304 485 341 443 359 380 L359 380 L368 349 L277 79 C248 179 218 280 190 380 C172 443 183 485 219 485 L230 485 L229 500 L229 500 Z " />
<glyph glyph-name="x" unicode="x" horiz-adv-x="546" d="M312 0 L514 0 L514 15 L503 15 C467 15 420 52 383 108 L285 269 L358 388 C396 447 444 486 481 486 L492 486 L492 501 L328 501 L328 486 L338 486 C372 486 370 444 333 381 L333 381 L276 283 C256 316 235 349 216 381 C178 444 175 486 208 486 L218 486 L218 501 L16 501 L16 486 L27 486 C63 486 110 449 147 393 L241 238 L157 121 C112 58 56 16 18 16 L7 16 L7 1 L169 1 L169 16 L159 16 C126 16 133 58 176 121 L176 121 L248 227 C269 192 291 156 311 121 C349 58 352 16 319 16 L309 16 L312 0 L312 0 Z " />
<glyph glyph-name="y" unicode="y" horiz-adv-x="555" d="M527 500 L359 500 L359 485 L370 485 C403 485 414 450 399 396 C364 289 330 182 294 76 L182 394 C166 450 176 486 209 486 L219 486 L219 501 L19 501 L19 486 L31 486 C69 486 109 444 131 381 L131 381 L266 -1 C247 -54 228 -108 209 -161 C202 -180 188 -193 182 -193 C160 -193 155 -174 133 -174 C108 -174 92 -190 92 -215 C92 -241 110 -259 137 -259 C159 -259 202 -222 222 -167 L278 -9 C324 121 370 251 416 381 C438 444 478 486 516 486 L528 486 L527 500 L527 500 Z " />
<glyph glyph-name="z" unicode="z" horiz-adv-x="475" d="M426 126 L420 109 C401 57 339 20 263 16 L102 14 L435 489 L435 501 L166 501 C114 501 85 516 94 543 L76 543 C72 528 66 507 62 492 C60 492 48 446 29 375 L46 375 L55 392 C83 444 152 481 229 485 L376 487 L41 12 L41 0 L431 0 L431 9 C433 9 437 55 444 126 L426 126 L426 126 Z " />
<glyph glyph-name="bar" unicode="&#x7c;" horiz-adv-x="159" d="M60 800 L60 -250 L99 -250 L99 800 L60 800 L60 800 Z " />
<glyph glyph-name="asciitilde" unicode="&#x7e;" horiz-adv-x="340" d="M27 310 C27 350 45 376 73 376 C127 376 198 311 252 311 C290 311 316 349 316 406 L313 406 C313 370 293 346 264 346 C210 346 139 411 85 411 C48 411 24 371 24 310 L27 310 L27 310 Z " />
<glyph glyph-name="exclamdown" unicode="&#xa1;" horiz-adv-x="201" d="M65 470 C65 423 135 423 135 470 C135 516 65 516 65 470 L65 470 Z M100 -255 C124 -255 134 -221 131 -171 C131 -171 105 152 105 290 L96 290 C96 152 70 -171 70 -171 C67 -221 77 -255 100 -255 L100 -255 Z " />
<glyph glyph-name="cent" unicode="&#xa2;" horiz-adv-x="465" d="M240 575 L240 509 C122 497 45 393 45 240 C45 94 123 -5 240 -9 L240 -74 L258 -74 L258 -9 C330 -4 400 50 435 129 L433 130 C400 56 330 6 258 5 L258 507 C313 509 362 469 385 406 C390 391 400 381 410 381 C430 381 440 391 435 406 C412 470 342 513 258 511 L258 576 L240 575 L240 575 Z M240 6 C152 16 95 117 95 265 C95 399 152 492 240 506 L240 6 L240 6 Z " />
<glyph glyph-name="acute" unicode="&#xb4;" horiz-adv-x="340" d="M177 563 L316 686 C358 724 386 751 386 755 C386 768 375 779 362 779 C358 779 331 751 293 709 L170 570 L177 563 L177 563 Z " />
<glyph glyph-name="questiondown" unicode="&#xbf;" horiz-adv-x="305" d="M145 470 C145 423 215 423 215 470 C215 516 145 516 145 470 L145 470 Z M184 325 C184 325 182 141 180 140 C96 140 62 103 24 47 C7 22 -4 -18 -4 -53 C-4 -177 62 -260 160 -260 C188 -260 207 -245 207 -223 C207 -208 196 -198 180 -198 C169 -198 153 -207 142 -207 C63 -207 10 -143 10 -47 C10 -27 20 2 35 24 C62 64 91 90 197 90 C194 89 192 325 192 325 L184 325 L184 325 Z " />
<glyph glyph-name="Agrave" unicode="&#xc0;" horiz-adv-x="772" d="M25 0 L314 0 L314 19 L293 19 C226 19 196 72 216 154 L259 294 L516 294 C528 252 541 210 553 169 C580 79 551 19 480 19 L459 19 L459 0 L764 0 L764 19 L749 19 C695 19 641 79 614 169 L614 169 L443 732 C443 732 435 770 431 770 L426 770 C429 751 413 736 384 732 L387 722 C343 581 299 440 255 299 L255 298 L211 156 C181 73 116 19 46 19 L24 19 L25 0 L25 0 Z M209 1005 C209 999 237 972 279 936 L418 813 L424 820 L302 959 C266 1001 240 1029 234 1029 C221 1029 209 1018 209 1005 L209 1005 Z M261 299 L390 715 L515 299 L261 299 L261 299 Z " />
<glyph glyph-name="Aacute" unicode="&#xc1;" horiz-adv-x="772" d="M422 813 L561 936 C603 974 631 1001 631 1005 C631 1018 620 1029 606 1029 C602 1029 576 1001 538 959 L416 820 L422 813 L422 813 Z M25 0 L314 0 L314 19 L293 19 C226 19 196 72 216 154 L259 294 L516 294 C528 252 541 210 553 169 C580 79 551 19 480 19 L459 19 L459 0 L764 0 L764 19 L749 19 C695 19 641 79 614 169 L614 169 L443 732 C443 732 435 770 431 770 L426 770 C429 751 413 736 384 732 L387 722 C343 581 299 440 255 299 L255 298 L211 156 C181 73 116 19 46 19 L24 19 L25 0 L25 0 Z M261 299 L390 715 L515 299 L261 299 L261 299 Z " />
<glyph glyph-name="Acircumflex" unicode="&#xc2;" horiz-adv-x="772" d="M25 0 L314 0 L314 19 L293 19 C226 19 196 72 216 154 L259 294 L516 294 C528 252 541 210 553 169 C580 79 551 19 480 19 L459 19 L459 0 L764 0 L764 19 L749 19 C695 19 641 79 614 169 L614 169 L443 732 C443 732 435 770 431 770 L426 770 C429 751 413 736 384 732 L387 722 C343 581 299 440 255 299 L255 298 L211 156 C181 73 116 19 46 19 L24 19 L25 0 L25 0 Z M432 1015 C428 1020 420 1033 415 1033 C409 1033 401 1020 397 1015 L265 813 L272 808 L414 977 L557 808 L564 813 L432 1015 L432 1015 Z M261 299 L390 715 L515 299 L261 299 L261 299 Z " />
<glyph glyph-name="Atilde" unicode="&#xc3;" horiz-adv-x="772" d="M272 870 C272 910 291 936 319 936 C373 936 444 871 498 871 C536 871 562 909 562 966 L559 966 C559 930 539 906 510 906 C456 906 384 971 330 971 C293 971 269 931 269 870 L272 870 L272 870 Z M25 0 L314 0 L314 19 L293 19 C226 19 196 72 216 154 L259 294 L516 294 C528 252 541 210 553 169 C580 79 551 19 480 19 L459 19 L459 0 L764 0 L764 19 L749 19 C695 19 641 79 614 169 L614 169 L443 732 C443 732 435 770 431 770 L426 770 C429 751 413 736 384 732 L387 722 C343 581 299 440 255 299 L255 298 L211 156 C181 73 116 19 46 19 L24 19 L25 0 L25 0 Z M261 299 L390 715 L515 299 L261 299 L261 299 Z " />
<glyph glyph-name="Adieresis" unicode="&#xc4;" horiz-adv-x="772" d="M517 897 C517 940 452 941 452 897 C452 855 517 856 517 897 L517 897 Z M379 897 C379 941 314 940 314 897 C314 856 379 855 379 897 L379 897 Z M25 0 L314 0 L314 19 L293 19 C226 19 196 72 216 154 L259 294 L516 294 C528 252 541 210 553 169 C580 79 551 19 480 19 L459 19 L459 0 L764 0 L764 19 L749 19 C695 19 641 79 614 169 L614 169 L443 732 C443 732 435 770 431 770 L426 770 C429 751 413 736 384 732 L387 722 C343 581 299 440 255 299 L255 298 L211 156 C181 73 116 19 46 19 L24 19 L25 0 L25 0 Z M261 299 L390 715 L515 299 L261 299 L261 299 Z " />
<glyph glyph-name="Aring" unicode="&#xc5;" horiz-adv-x="772" d="M334 905 C334 955 367 988 416 988 C465 988 497 955 497 905 C497 860 460 822 416 822 C372 822 334 860 334 905 L334 905 Z M319 905 C319 854 364 810 416 810 C468 810 512 854 512 905 C512 962 474 1000 416 1000 C358 1000 319 962 319 905 L319 905 Z M25 0 L314 0 L314 19 L293 19 C226 19 196 72 216 154 L259 294 L516 294 C528 252 541 210 553 169 C580 79 551 19 480 19 L459 19 L459 0 L764 0 L764 19 L749 19 C695 19 641 79 614 169 L614 169 L443 732 C443 732 435 770 431 770 L426 770 C429 751 413 736 384 732 L387 722 C343 581 299 440 255 299 L255 298 L211 156 C181 73 116 19 46 19 L24 19 L25 0 L25 0 Z M261 299 L390 715 L515 299 L261 299 L261 299 Z " />
<glyph glyph-name="Egrave" unicode="&#xc8;" horiz-adv-x="636" d="M146 1005 C146 999 174 972 216 936 L355 813 L361 820 L239 959 C203 1001 177 1029 171 1029 C158 1029 146 1018 146 1005 L146 1005 Z M50 735 L67 735 C126 735 165 687 165 615 L165 135 C165 63 126 15 67 15 L50 15 L50 0 L559 0 L559 2 L561 2 C569 43 579 98 586 139 L571 139 L563 119 C540 54 470 9 385 4 C241 11 225 81 225 183 L225 385 L306 385 C384 385 444 336 457 262 L461 240 L476 240 L476 534 L461 534 L457 512 C444 438 384 389 306 389 L225 389 L225 746 L365 746 C443 746 509 697 531 623 L538 601 L553 601 C548 645 541 704 536 748 L535 748 L535 750 L51 750 L50 735 L50 735 Z " />
<glyph glyph-name="Eacute" unicode="&#xc9;" horiz-adv-x="636" d="M358 813 L497 936 C539 974 567 1001 567 1005 C567 1018 556 1029 542 1029 C538 1029 512 1001 474 959 L352 820 L358 813 L358 813 Z M50 735 L67 735 C126 735 165 687 165 615 L165 135 C165 63 126 15 67 15 L50 15 L50 0 L559 0 L559 2 L561 2 C569 43 579 98 586 139 L571 139 L563 119 C540 54 470 9 385 4 C241 11 225 81 225 183 L225 385 L306 385 C384 385 444 336 457 262 L461 240 L476 240 L476 534 L461 534 L457 512 C444 438 384 389 306 389 L225 389 L225 746 L365 746 C443 746 509 697 531 623 L538 601 L553 601 C548 645 541 704 536 748 L535 748 L535 750 L51 750 L50 735 L50 735 Z " />
<glyph glyph-name="Ecircumflex" unicode="&#xca;" horiz-adv-x="636" d="M369 1015 C365 1020 357 1033 352 1033 C346 1033 338 1020 334 1015 L202 813 L209 808 L351 977 L494 808 L501 813 L369 1015 L369 1015 Z M50 735 L67 735 C126 735 165 687 165 615 L165 135 C165 63 126 15 67 15 L50 15 L50 0 L559 0 L559 2 L561 2 C569 43 579 98 586 139 L571 139 L563 119 C540 54 470 9 385 4 C241 11 225 81 225 183 L225 385 L306 385 C384 385 444 336 457 262 L461 240 L476 240 L476 534 L461 534 L457 512 C444 438 384 389 306 389 L225 389 L225 746 L365 746 C443 746 509 697 531 623 L538 601 L553 601 C548 645 541 704 536 748 L535 748 L535 750 L51 750 L50 735 L50 735 Z " />
<glyph glyph-name="Edieresis" unicode="&#xcb;" horiz-adv-x="636" d="M453 897 C453 940 388 941 388 897 C388 855 453 856 453 897 L453 897 Z M315 897 C315 941 250 940 250 897 C250 856 315 855 315 897 L315 897 Z M50 735 L67 735 C126 735 165 687 165 615 L165 135 C165 63 126 15 67 15 L50 15 L50 0 L559 0 L559 2 L561 2 C569 43 579 98 586 139 L571 139 L563 119 C540 54 470 9 385 4 C241 11 225 81 225 183 L225 385 L306 385 C384 385 444 336 457 262 L461 240 L476 240 L476 534 L461 534 L457 512 C444 438 384 389 306 389 L225 389 L225 746 L365 746 C443 746 509 697 531 623 L538 601 L553 601 C548 645 541 704 536 748 L535 748 L535 750 L51 750 L50 735 L50 735 Z " />
<glyph glyph-name="Igrave" unicode="&#xcc;" horiz-adv-x="384" d="M-6 1005 C-6 999 22 972 64 936 L203 813 L210 820 L87 959 C51 1001 24 1029 18 1029 C5 1029 -6 1018 -6 1005 L-6 1005 Z M324 15 L310 15 C261 15 229 55 229 115 L229 635 C229 695 261 735 310 735 L324 735 L324 750 L76 750 L76 735 L90 735 C139 735 171 695 171 635 L171 115 C171 55 139 15 90 15 L76 15 L76 0 L324 0 L324 15 L324 15 Z " />
<glyph glyph-name="Iacute" unicode="&#xcd;" horiz-adv-x="384" d="M207 813 L346 936 C388 974 416 1001 416 1005 C416 1018 405 1029 392 1029 C388 1029 361 1001 323 959 L200 820 L207 813 L207 813 Z M324 15 L310 15 C261 15 229 55 229 115 L229 635 C229 695 261 735 310 735 L324 735 L324 750 L76 750 L76 735 L90 735 C139 735 171 695 171 635 L171 115 C171 55 139 15 90 15 L76 15 L76 0 L324 0 L324 15 L324 15 Z " />
<glyph glyph-name="Icircumflex" unicode="&#xce;" horiz-adv-x="384" d="M218 1015 C214 1020 206 1033 200 1033 C194 1033 186 1020 182 1015 L51 813 L58 808 L200 976 L342 808 L349 813 L218 1015 L218 1015 Z M324 15 L310 15 C261 15 229 55 229 115 L229 635 C229 695 261 735 310 735 L324 735 L324 750 L76 750 L76 735 L90 735 C139 735 171 695 171 635 L171 115 C171 55 139 15 90 15 L76 15 L76 0 L324 0 L324 15 L324 15 Z " />
<glyph glyph-name="Idieresis" unicode="&#xcf;" horiz-adv-x="384" d="M301 897 C301 941 236 940 236 897 C236 856 301 855 301 897 L301 897 Z M164 897 C164 940 99 941 99 897 C99 855 164 856 164 897 L164 897 Z M324 15 L310 15 C261 15 229 55 229 115 L229 635 C229 695 261 735 310 735 L324 735 L324 750 L76 750 L76 735 L90 735 C139 735 171 695 171 635 L171 115 C171 55 139 15 90 15 L76 15 L76 0 L324 0 L324 15 L324 15 Z " />
<glyph glyph-name="Ntilde" unicode="&#xd1;" horiz-adv-x="786" d="M248 870 C248 910 266 936 294 936 C348 936 419 871 473 871 C511 871 537 909 537 966 L534 966 C534 930 514 906 485 906 C431 906 360 971 306 971 C269 971 245 931 245 870 L248 870 L248 870 Z M22 735 L36 735 C73 735 115 713 151 677 L151 116 C151 56 119 16 70 16 L56 16 L56 1 L263 1 L263 16 L249 16 C201 16 168 56 168 116 L168 116 L167 661 C172 655 177 649 181 643 C326 429 470 214 616 1 L628 1 L631 648 C635 701 667 736 713 736 L727 736 L727 751 L520 751 L520 736 L534 736 C583 736 615 696 615 636 L615 636 L616 106 L611 113 L181 751 L23 751 L22 735 L22 735 Z " />
<glyph glyph-name="Ograve" unicode="&#xd2;" horiz-adv-x="806" d="M125 375 C125 603 235 755 400 755 C572 755 687 603 687 375 C687 147 569 -5 392 -5 C232 -5 125 147 125 375 L125 375 Z M61 375 C61 144 193 -10 391 -10 C607 -10 751 144 751 375 C751 606 611 760 401 760 C197 760 61 606 61 375 L61 375 Z M195 1005 C195 999 223 972 265 936 L404 813 L411 820 L288 959 C252 1001 225 1029 219 1029 C206 1029 195 1018 195 1005 L195 1005 Z " />
<glyph glyph-name="Oacute" unicode="&#xd3;" horiz-adv-x="806" d="M408 813 L547 936 C589 974 617 1001 617 1005 C617 1018 606 1029 593 1029 C589 1029 562 1001 524 959 L401 820 L408 813 L408 813 Z M125 375 C125 603 235 755 400 755 C572 755 687 603 687 375 C687 147 569 -5 392 -5 C232 -5 125 147 125 375 L125 375 Z M61 375 C61 144 193 -10 391 -10 C607 -10 751 144 751 375 C751 606 611 760 401 760 C197 760 61 606 61 375 L61 375 Z " />
<glyph glyph-name="Ocircumflex" unicode="&#xd4;" horiz-adv-x="806" d="M125 375 C125 603 235 755 400 755 C572 755 687 603 687 375 C687 147 569 -5 392 -5 C232 -5 125 147 125 375 L125 375 Z M61 375 C61 144 193 -10 391 -10 C607 -10 751 144 751 375 C751 606 611 760 401 760 C197 760 61 606 61 375 L61 375 Z M419 1015 C415 1020 407 1033 401 1033 C395 1033 387 1020 383 1015 L252 813 L259 808 L401 976 L543 808 L550 813 L419 1015 L419 1015 Z " />
<glyph glyph-name="Otilde" unicode="&#xd5;" horiz-adv-x="806" d="M258 870 C258 910 276 936 304 936 C358 936 429 871 483 871 C521 871 547 909 547 966 L544 966 C544 930 524 906 495 906 C441 906 370 971 316 971 C279 971 255 931 255 870 L258 870 L258 870 Z M125 375 C125 603 235 755 400 755 C572 755 687 603 687 375 C687 147 569 -5 392 -5 C232 -5 125 147 125 375 L125 375 Z M61 375 C61 144 193 -10 391 -10 C607 -10 751 144 751 375 C751 606 611 760 401 760 C197 760 61 606 61 375 L61 375 Z " />
<glyph glyph-name="Odieresis" unicode="&#xd6;" horiz-adv-x="806" d="M502 897 C502 941 437 940 437 897 C437 856 502 855 502 897 L502 897 Z M365 897 C365 940 300 941 300 897 C300 855 365 856 365 897 L365 897 Z M125 375 C125 603 235 755 400 755 C572 755 687 603 687 375 C687 147 569 -5 392 -5 C232 -5 125 147 125 375 L125 375 Z M61 375 C61 144 193 -10 391 -10 C607 -10 751 144 751 375 C751 606 611 760 401 760 C197 760 61 606 61 375 L61 375 Z " />
<glyph glyph-name="Oslash" unicode="&#xd8;" horiz-adv-x="806" d="M64 -13 L157 90 C214 26 295 -10 391 -10 C607 -10 751 144 751 375 C751 488 717 583 658 650 L754 757 L748 763 L653 657 C592 723 505 761 401 761 C197 761 61 607 61 376 C61 261 94 165 151 98 L58 -6 L64 -13 L64 -13 Z M625 627 L180 130 C145 194 125 278 125 376 C125 604 235 756 400 756 C496 756 574 708 624 626 L625 627 L625 627 Z M629 618 C666 554 687 471 687 374 C687 146 569 -6 392 -6 C304 -6 232 40 185 120 L629 618 L629 618 Z " />
<glyph glyph-name="Ugrave" unicode="&#xd9;" horiz-adv-x="718" d="M35 734 L49 734 C98 734 130 694 130 634 L130 220 C130 82 188 -10 275 -10 C386 -10 490 54 534 149 L534 0 L564 0 L593 8 C624 16 659 25 687 32 L687 47 L673 43 C624 30 592 61 592 121 L592 749 L533 749 L533 748 L438 748 L438 733 L452 733 C501 733 533 693 533 633 L533 175 C492 86 398 27 298 27 C232 27 188 104 188 219 L188 749 L129 749 L129 748 L34 748 L35 734 L35 734 Z M155 1003 C155 997 183 970 225 934 L364 811 L370 818 L248 957 C212 999 186 1027 180 1027 C167 1027 155 1016 155 1003 L155 1003 Z " />
<glyph glyph-name="Uacute" unicode="&#xda;" horiz-adv-x="718" d="M368 812 L507 935 C549 973 577 1000 577 1004 C577 1017 566 1028 552 1028 C548 1028 522 1000 484 958 L362 819 L368 812 L368 812 Z M35 734 L49 734 C98 734 130 694 130 634 L130 220 C130 82 188 -10 275 -10 C386 -10 490 54 534 149 L534 0 L564 0 L593 8 C624 16 659 25 687 32 L687 47 L673 43 C624 30 592 61 592 121 L592 749 L533 749 L533 748 L438 748 L438 733 L452 733 C501 733 533 693 533 633 L533 175 C492 86 398 27 298 27 C232 27 188 104 188 219 L188 749 L129 749 L129 748 L34 748 L35 734 L35 734 Z " />
<glyph glyph-name="Ucircumflex" unicode="&#xdb;" horiz-adv-x="718" d="M35 734 L49 734 C98 734 130 694 130 634 L130 220 C130 82 188 -10 275 -10 C386 -10 490 54 534 149 L534 0 L564 0 L593 8 C624 16 659 25 687 32 L687 47 L673 43 C624 30 592 61 592 121 L592 749 L533 749 L533 748 L438 748 L438 733 L452 733 C501 733 533 693 533 633 L533 175 C492 86 398 27 298 27 C232 27 188 104 188 219 L188 749 L129 749 L129 748 L34 748 L35 734 L35 734 Z M378 1013 C374 1018 366 1031 361 1031 C355 1031 347 1018 343 1013 L211 811 L218 806 L360 975 L503 806 L510 811 L378 1013 L378 1013 Z " />
<glyph glyph-name="Udieresis" unicode="&#xdc;" horiz-adv-x="718" d="M463 896 C463 939 398 940 398 896 C398 854 463 855 463 896 L463 896 Z M325 896 C325 940 260 939 260 896 C260 855 325 854 325 896 L325 896 Z M35 734 L49 734 C98 734 130 694 130 634 L130 220 C130 82 188 -10 275 -10 C386 -10 490 54 534 149 L534 0 L564 0 L593 8 C624 16 659 25 687 32 L687 47 L673 43 C624 30 592 61 592 121 L592 749 L533 749 L533 748 L438 748 L438 733 L452 733 C501 733 533 693 533 633 L533 175 C492 86 398 27 298 27 C232 27 188 104 188 219 L188 749 L129 749 L129 748 L34 748 L35 734 L35 734 Z " />
<glyph glyph-name="Yacute" unicode="&#xdd;" horiz-adv-x="716" d="M370 813 L509 936 C551 974 579 1001 579 1005 C579 1018 568 1029 554 1029 C550 1029 524 1001 486 959 L364 820 L370 813 L370 813 Z M272 750 L17 750 L17 735 L29 735 C70 735 121 693 158 630 L158 630 L334 329 L334 135 C334 63 295 15 236 15 L219 15 L219 0 L508 0 L508 15 L491 15 C432 15 393 63 393 135 L393 337 L556 638 C590 696 645 734 697 734 L713 734 L713 749 L472 749 L472 734 L494 734 C557 734 576 692 543 629 L543 629 L391 342 L223 634 C190 695 203 735 256 735 L272 735 L272 750 L272 750 Z " />
<glyph glyph-name="agrave" unicode="&#xe0;" horiz-adv-x="512" d="M522 78 L515 81 C510 51 487 31 457 31 C423 31 400 51 400 81 C400 81 400 360 399 358 C399 463 345 510 263 510 C149 510 73 414 73 360 C73 339 83 325 98 325 C118 325 131 340 131 350 C131 363 111 382 111 392 C111 433 169 505 257 505 C313 505 350 465 350 377 L350 265 C109 191 53 164 53 80 C53 26 99 -10 168 -10 C215 -10 275 17 349 87 C349 31 379 -5 435 -5 C478 -5 512 28 521 78 L522 78 L522 78 Z M56 755 C56 749 84 722 126 686 L265 563 L272 570 L149 709 C113 751 86 779 80 779 C67 779 56 768 56 755 L56 755 Z M349 261 L349 91 C291 37 239 16 194 16 C139 16 103 44 103 85 C103 174 150 199 349 260 L349 261 L349 261 Z " />
<glyph glyph-name="aacute" unicode="&#xe1;" horiz-adv-x="512" d="M270 563 L409 686 C451 724 479 751 479 755 C479 768 468 779 455 779 C451 779 424 751 386 709 L263 570 L270 563 L270 563 Z M522 78 L515 81 C510 51 487 31 457 31 C423 31 400 51 400 81 C400 81 400 360 399 358 C399 463 345 510 263 510 C149 510 73 414 73 360 C73 339 83 325 98 325 C118 325 131 340 131 350 C131 363 111 382 111 392 C111 433 169 505 257 505 C313 505 350 465 350 377 L350 265 C109 191 53 164 53 80 C53 26 99 -10 168 -10 C215 -10 275 17 349 87 C349 31 379 -5 435 -5 C478 -5 512 28 521 78 L522 78 L522 78 Z M349 261 L349 91 C291 37 239 16 194 16 C139 16 103 44 103 85 C103 174 150 199 349 260 L349 261 L349 261 Z " />
<glyph glyph-name="acircumflex" unicode="&#xe2;" horiz-adv-x="512" d="M522 78 L515 81 C510 51 487 31 457 31 C423 31 400 51 400 81 C400 81 400 360 399 358 C399 463 345 510 263 510 C149 510 73 414 73 360 C73 339 83 325 98 325 C118 325 131 340 131 350 C131 363 111 382 111 392 C111 433 169 505 257 505 C313 505 350 465 350 377 L350 265 C109 191 53 164 53 80 C53 26 99 -10 168 -10 C215 -10 275 17 349 87 C349 31 379 -5 435 -5 C478 -5 512 28 521 78 L522 78 L522 78 Z M280 765 C276 770 268 783 262 783 C256 783 248 770 244 765 L113 563 L120 558 L262 726 L404 558 L411 563 L280 765 L280 765 Z M349 261 L349 91 C291 37 239 16 194 16 C139 16 103 44 103 85 C103 174 150 199 349 260 L349 261 L349 261 Z " />
<glyph glyph-name="atilde" unicode="&#xe3;" horiz-adv-x="512" d="M120 620 C120 660 138 686 166 686 C220 686 291 621 345 621 C383 621 409 659 409 716 L406 716 C406 680 386 656 357 656 C303 656 232 721 178 721 C141 721 117 681 117 620 L120 620 L120 620 Z M522 78 L515 81 C510 51 487 31 457 31 C423 31 400 51 400 81 C400 81 400 360 399 358 C399 463 345 510 263 510 C149 510 73 414 73 360 C73 339 83 325 98 325 C118 325 131 340 131 350 C131 363 111 382 111 392 C111 433 169 505 257 505 C313 505 350 465 350 377 L350 265 C109 191 53 164 53 80 C53 26 99 -10 168 -10 C215 -10 275 17 349 87 C349 31 379 -5 435 -5 C478 -5 512 28 521 78 L522 78 L522 78 Z M349 261 L349 91 C291 37 239 16 194 16 C139 16 103 44 103 85 C103 174 150 199 349 260 L349 261 L349 261 Z " />
<glyph glyph-name="adieresis" unicode="&#xe4;" horiz-adv-x="512" d="M364 647 C364 691 299 690 299 647 C299 606 364 605 364 647 L364 647 Z M227 647 C227 690 162 691 162 647 C162 605 227 606 227 647 L227 647 Z M522 78 L515 81 C510 51 487 31 457 31 C423 31 400 51 400 81 C400 81 400 360 399 358 C399 463 345 510 263 510 C149 510 73 414 73 360 C73 339 83 325 98 325 C118 325 131 340 131 350 C131 363 111 382 111 392 C111 433 169 505 257 505 C313 505 350 465 350 377 L350 265 C109 191 53 164 53 80 C53 26 99 -10 168 -10 C215 -10 275 17 349 87 C349 31 379 -5 435 -5 C478 -5 512 28 521 78 L522 78 L522 78 Z M349 261 L349 91 C291 37 239 16 194 16 C139 16 103 44 103 85 C103 174 150 199 349 260 L349 261 L349 261 Z " />
<glyph glyph-name="aring" unicode="&#xe5;" horiz-adv-x="512" d="M181 655 C181 705 214 738 263 738 C312 738 345 705 345 655 C345 610 307 572 263 572 C219 572 181 610 181 655 L181 655 Z M167 655 C167 604 211 560 263 560 C315 560 359 604 359 655 C359 712 321 750 263 750 C205 750 167 712 167 655 L167 655 Z M522 78 L515 81 C510 51 487 31 457 31 C423 31 400 51 400 81 C400 81 400 360 399 358 C399 463 345 510 263 510 C149 510 73 414 73 360 C73 339 83 325 98 325 C118 325 131 340 131 350 C131 363 111 382 111 392 C111 433 169 505 257 505 C313 505 350 465 350 377 L350 265 C109 191 53 164 53 80 C53 26 99 -10 168 -10 C215 -10 275 17 349 87 C349 31 379 -5 435 -5 C478 -5 512 28 521 78 L522 78 L522 78 Z M349 261 L349 91 C291 37 239 16 194 16 C139 16 103 44 103 85 C103 174 150 199 349 260 L349 261 L349 261 Z " />
<glyph glyph-name="egrave" unicode="&#xe8;" horiz-adv-x="530" d="M90 755 C90 749 118 722 160 686 L299 563 L306 570 L183 709 C147 751 120 779 114 779 C101 779 90 768 90 755 L90 755 Z M105 340 L500 340 C478 462 400 510 296 510 C145 510 45 433 45 235 C45 88 136 -10 273 -10 C369 -10 454 48 486 135 L484 135 C456 57 373 5 278 5 C170 5 98 105 98 255 C98 287 100 315 105 340 L105 340 Z M444 345 L106 344 C129 459 199 506 295 506 C366 506 422 461 444 345 L444 345 Z " />
<glyph glyph-name="eacute" unicode="&#xe9;" horiz-adv-x="530" d="M303 563 L442 686 C484 724 512 751 512 755 C512 768 501 779 488 779 C484 779 457 751 419 709 L296 570 L303 563 L303 563 Z M105 340 L500 340 C478 462 400 510 296 510 C145 510 45 433 45 235 C45 88 136 -10 273 -10 C369 -10 454 48 486 135 L484 135 C456 57 373 5 278 5 C170 5 98 105 98 255 C98 287 100 315 105 340 L105 340 Z M444 345 L106 344 C129 459 199 506 295 506 C366 506 422 461 444 345 L444 345 Z " />
<glyph glyph-name="ecircumflex" unicode="&#xea;" horiz-adv-x="530" d="M314 765 C310 770 302 783 296 783 C290 783 282 770 278 765 L147 563 L154 558 L296 726 L438 558 L445 563 L314 765 L314 765 Z M105 340 L500 340 C478 462 400 510 296 510 C145 510 45 433 45 235 C45 88 136 -10 273 -10 C369 -10 454 48 486 135 L484 135 C456 57 373 5 278 5 C170 5 98 105 98 255 C98 287 100 315 105 340 L105 340 Z M444 345 L106 344 C129 459 199 506 295 506 C366 506 422 461 444 345 L444 345 Z " />
<glyph glyph-name="edieresis" unicode="&#xeb;" horiz-adv-x="530" d="M397 647 C397 691 332 690 332 647 C332 606 397 605 397 647 L397 647 Z M260 647 C260 690 195 691 195 647 C195 605 260 606 260 647 L260 647 Z M105 340 L500 340 C478 462 400 510 296 510 C145 510 45 433 45 235 C45 88 136 -10 273 -10 C369 -10 454 48 486 135 L484 135 C456 57 373 5 278 5 C170 5 98 105 98 255 C98 287 100 315 105 340 L105 340 Z M444 345 L106 344 C129 459 199 506 295 506 C366 506 422 461 444 345 L444 345 Z " />
<glyph glyph-name="igrave" unicode="&#xec;" horiz-adv-x="314" d="M-37 755 C-37 749 -9 722 33 686 L172 563 L179 570 L56 709 C20 751 -7 779 -13 779 C-26 779 -37 768 -37 755 L-37 755 Z M69 458 L80 461 C118 471 144 452 144 413 L144 80 C144 41 118 15 80 15 L69 15 L69 0 L269 0 L269 15 L258 15 C220 15 194 41 194 80 L194 500 L169 500 C139 492 99 481 69 473 L69 458 L69 458 Z " />
<glyph glyph-name="iacute" unicode="&#xed;" horiz-adv-x="314" d="M-37 755 C-37 749 -9 722 33 686 L172 563 L179 570 L56 709 C20 751 -7 779 -13 779 C-26 779 -37 768 -37 755 L-37 755 Z M69 458 L80 461 C118 471 144 452 144 413 L144 80 C144 41 118 15 80 15 L69 15 L69 0 L269 0 L269 15 L258 15 C220 15 194 41 194 80 L194 500 L169 500 C139 492 99 481 69 473 L69 458 L69 458 Z " />
<glyph glyph-name="icircumflex" unicode="&#xee;" horiz-adv-x="314" d="M187 765 C183 770 175 783 169 783 C163 783 155 770 151 765 L20 563 L27 558 L169 726 L311 558 L318 563 L187 765 L187 765 Z M69 458 L80 461 C118 471 144 452 144 413 L144 80 C144 41 118 15 80 15 L69 15 L69 0 L269 0 L269 15 L258 15 C220 15 194 41 194 80 L194 500 L169 500 C139 492 99 481 69 473 L69 458 L69 458 Z " />
<glyph glyph-name="idieresis" unicode="&#xef;" horiz-adv-x="314" d="M270 647 C270 691 205 690 205 647 C205 606 270 605 270 647 L270 647 Z M133 647 C133 690 68 691 68 647 C68 605 133 606 133 647 L133 647 Z M69 458 L80 461 C118 471 144 452 144 413 L144 80 C144 41 118 15 80 15 L69 15 L69 0 L269 0 L269 15 L258 15 C220 15 194 41 194 80 L194 500 L169 500 C139 492 99 481 69 473 L69 458 L69 458 Z " />
<glyph glyph-name="ntilde" unicode="&#xf1;" horiz-adv-x="555" d="M133 620 C133 660 152 686 180 686 C234 686 305 621 359 621 C397 621 423 659 423 716 L420 716 C420 680 400 656 371 656 C317 656 245 721 191 721 C154 721 130 681 130 620 L133 620 L133 620 Z M28 463 L39 463 C77 464 103 428 103 371 L103 80 C103 41 77 15 39 15 L28 15 L28 0 L228 0 L228 15 L217 15 C179 15 153 41 153 80 L153 368 C193 438 252 484 300 484 C366 484 400 422 400 330 L400 80 C400 41 374 15 336 15 L325 15 L325 0 L525 0 L525 15 L514 15 C476 15 450 41 450 80 L450 330 C450 438 404 510 316 510 C265 510 199 456 153 376 L153 500 L128 500 C98 492 58 481 28 473 L28 463 L28 463 Z " />
<glyph glyph-name="ograve" unicode="&#xf2;" horiz-adv-x="604" d="M100 250 C100 403 181 505 302 505 C423 505 504 403 504 250 C504 97 423 -5 302 -5 C181 -5 100 97 100 250 L100 250 Z M45 250 C45 94 148 -10 302 -10 C456 -10 559 94 559 250 C559 406 456 510 302 510 C148 510 45 406 45 250 L45 250 Z M96 755 C96 749 124 722 166 686 L305 563 L312 570 L189 709 C153 751 126 779 120 779 C107 779 96 768 96 755 L96 755 Z " />
<glyph glyph-name="oacute" unicode="&#xf3;" horiz-adv-x="604" d="M309 563 L448 686 C490 724 518 751 518 755 C518 768 507 779 494 779 C490 779 463 751 425 709 L302 570 L309 563 L309 563 Z M100 250 C100 403 181 505 302 505 C423 505 504 403 504 250 C504 97 423 -5 302 -5 C181 -5 100 97 100 250 L100 250 Z M45 250 C45 94 148 -10 302 -10 C456 -10 559 94 559 250 C559 406 456 510 302 510 C148 510 45 406 45 250 L45 250 Z " />
<glyph glyph-name="ocircumflex" unicode="&#xf4;" horiz-adv-x="604" d="M100 250 C100 403 181 505 302 505 C423 505 504 403 504 250 C504 97 423 -5 302 -5 C181 -5 100 97 100 250 L100 250 Z M45 250 C45 94 148 -10 302 -10 C456 -10 559 94 559 250 C559 406 456 510 302 510 C148 510 45 406 45 250 L45 250 Z M320 765 C316 770 308 783 302 783 C296 783 288 770 284 765 L153 563 L160 558 L302 726 L444 558 L451 563 L320 765 L320 765 Z " />
<glyph glyph-name="otilde" unicode="&#xf5;" horiz-adv-x="604" d="M159 620 C159 660 177 686 205 686 C259 686 330 621 384 621 C422 621 448 659 448 716 L445 716 C445 680 425 656 396 656 C342 656 271 721 217 721 C180 721 156 681 156 620 L159 620 L159 620 Z M100 250 C100 403 181 505 302 505 C423 505 504 403 504 250 C504 97 423 -5 302 -5 C181 -5 100 97 100 250 L100 250 Z M45 250 C45 94 148 -10 302 -10 C456 -10 559 94 559 250 C559 406 456 510 302 510 C148 510 45 406 45 250 L45 250 Z " />
<glyph glyph-name="odieresis" unicode="&#xf6;" horiz-adv-x="604" d="M403 647 C403 691 338 690 338 647 C338 606 403 605 403 647 L403 647 Z M266 647 C266 690 201 691 201 647 C201 605 266 606 266 647 L266 647 Z M100 250 C100 403 181 505 302 505 C423 505 504 403 504 250 C504 97 423 -5 302 -5 C181 -5 100 97 100 250 L100 250 Z M45 250 C45 94 148 -10 302 -10 C456 -10 559 94 559 250 C559 406 456 510 302 510 C148 510 45 406 45 250 L45 250 Z " />
<glyph glyph-name="oslash" unicode="&#xf8;" horiz-adv-x="604" d="M47 -12 C47 -12 72 13 118 59 C163 15 226 -10 302 -10 C456 -10 559 94 559 250 C559 327 534 391 490 436 C513 459 537 483 561 508 L557 512 C533 487 509 463 486 440 C441 484 377 509 301 509 C147 509 44 405 44 249 C44 172 69 108 113 63 C67 17 42 -8 42 -8 L47 -12 L47 -12 Z M461 416 C323 276 211 163 138 89 C113 131 99 186 99 250 C99 403 180 505 301 505 C370 505 426 472 461 416 L461 416 Z M464 411 C489 369 503 314 503 250 C503 97 422 -5 301 -5 C232 -5 176 28 141 84 C214 158 326 271 464 411 L464 411 Z " />
<glyph glyph-name="ugrave" unicode="&#xf9;" horiz-adv-x="546" d="M67 756 C67 750 95 723 137 687 L276 564 L282 571 L160 710 C124 752 98 780 92 780 C79 780 67 769 67 756 L67 756 Z M531 45 L518 42 C475 31 446 63 446 123 L446 500 L421 500 L421 501 L321 501 L321 486 L332 486 C370 486 396 460 396 421 L396 128 C368 65 312 24 252 24 C191 24 150 78 150 159 L150 499 L25 499 L25 484 L36 484 C74 484 100 458 100 419 L100 159 C100 57 151 -11 228 -11 C296 -11 362 42 397 123 L397 -1 L422 -1 L532 29 L531 45 L531 45 Z " />
<glyph glyph-name="uacute" unicode="&#xfa;" horiz-adv-x="546" d="M279 564 L418 687 C460 725 488 752 488 756 C488 769 477 780 463 780 C459 780 433 752 395 710 L273 571 L279 564 L279 564 Z M531 45 L518 42 C475 31 446 63 446 123 L446 500 L421 500 L421 501 L321 501 L321 486 L332 486 C370 486 396 460 396 421 L396 128 C368 65 312 24 252 24 C191 24 150 78 150 159 L150 499 L25 499 L25 484 L36 484 C74 484 100 458 100 419 L100 159 C100 57 151 -11 228 -11 C296 -11 362 42 397 123 L397 -1 L422 -1 L532 29 L531 45 L531 45 Z " />
<glyph glyph-name="ucircumflex" unicode="&#xfb;" horiz-adv-x="546" d="M290 766 C286 771 278 784 273 784 C267 784 259 771 255 766 L123 564 L130 559 L272 728 L415 559 L422 564 L290 766 L290 766 Z M531 45 L518 42 C475 31 446 63 446 123 L446 500 L421 500 L421 501 L321 501 L321 486 L332 486 C370 486 396 460 396 421 L396 128 C368 65 312 24 252 24 C191 24 150 78 150 159 L150 499 L25 499 L25 484 L36 484 C74 484 100 458 100 419 L100 159 C100 57 151 -11 228 -11 C296 -11 362 42 397 123 L397 -1 L422 -1 L532 29 L531 45 L531 45 Z " />
<glyph glyph-name="udieresis" unicode="&#xfc;" horiz-adv-x="546" d="M374 648 C374 691 309 692 309 648 C309 606 374 607 374 648 L374 648 Z M236 648 C236 692 171 691 171 648 C171 607 236 606 236 648 L236 648 Z M531 45 L518 42 C475 31 446 63 446 123 L446 500 L421 500 L421 501 L321 501 L321 486 L332 486 C370 486 396 460 396 421 L396 128 C368 65 312 24 252 24 C191 24 150 78 150 159 L150 499 L25 499 L25 484 L36 484 C74 484 100 458 100 419 L100 159 C100 57 151 -11 228 -11 C296 -11 362 42 397 123 L397 -1 L422 -1 L532 29 L531 45 L531 45 Z " />
<glyph glyph-name="ydieresis" unicode="&#xff;" horiz-adv-x="528" d="M381 647 C381 691 316 690 316 647 C316 606 381 605 381 647 L381 647 Z M244 647 C244 690 179 691 179 647 C179 605 244 606 244 647 L244 647 Z M518 500 L350 500 L350 485 L361 485 C394 485 405 450 390 396 C355 289 321 182 285 76 L173 394 C157 450 167 486 200 486 L210 486 L210 501 L10 501 L10 486 L22 486 C60 486 100 444 122 381 L122 381 L257 -1 C238 -54 219 -108 200 -161 C193 -180 179 -193 173 -193 C151 -193 146 -174 124 -174 C99 -174 83 -190 83 -215 C83 -241 101 -259 128 -259 C150 -259 193 -222 213 -167 L269 -9 C315 121 361 251 407 381 C429 444 469 486 507 486 L519 486 L518 500 L518 500 Z " />
<glyph glyph-name="Amacron" unicode="&#x100;" horiz-adv-x="772" d="M266 901 L566 901 L566 936 L266 936 L266 901 L266 901 Z M25 0 L314 0 L314 19 L293 19 C226 19 196 72 216 154 L259 294 L516 294 C528 252 541 210 553 169 C580 79 551 19 480 19 L459 19 L459 0 L764 0 L764 19 L749 19 C695 19 641 79 614 169 L614 169 L443 732 C443 732 435 770 431 770 L426 770 C429 751 413 736 384 732 L387 722 C343 581 299 440 255 299 L255 298 L211 156 C181 73 116 19 46 19 L24 19 L25 0 L25 0 Z M261 299 L390 715 L515 299 L261 299 L261 299 Z " />
<glyph glyph-name="amacron" unicode="&#x101;" horiz-adv-x="512" d="M113 651 L413 651 L413 686 L113 686 L113 651 L113 651 Z M522 78 L515 81 C510 51 487 31 457 31 C423 31 400 51 400 81 C400 81 400 360 399 358 C399 463 345 510 263 510 C149 510 73 414 73 360 C73 339 83 325 98 325 C118 325 131 340 131 350 C131 363 111 382 111 392 C111 433 169 505 257 505 C313 505 350 465 350 377 L350 265 C109 191 53 164 53 80 C53 26 99 -10 168 -10 C215 -10 275 17 349 87 C349 31 379 -5 435 -5 C478 -5 512 28 521 78 L522 78 L522 78 Z M349 261 L349 91 C291 37 239 16 194 16 C139 16 103 44 103 85 C103 174 150 199 349 260 L349 261 L349 261 Z " />
<glyph glyph-name="Abreve" unicode="&#x102;" horiz-adv-x="772" d="M291 995 C294 931 344 889 416 889 C487 889 536 931 539 994 L529 995 C527 952 482 924 416 924 C350 924 304 953 302 996 L291 995 L291 995 Z M25 0 L314 0 L314 19 L293 19 C226 19 196 72 216 154 L259 294 L516 294 C528 252 541 210 553 169 C580 79 551 19 480 19 L459 19 L459 0 L764 0 L764 19 L749 19 C695 19 641 79 614 169 L614 169 L443 732 C443 732 435 770 431 770 L426 770 C429 751 413 736 384 732 L387 722 C343 581 299 440 255 299 L255 298 L211 156 C181 73 116 19 46 19 L24 19 L25 0 L25 0 Z M261 299 L390 715 L515 299 L261 299 L261 299 Z " />
<glyph glyph-name="abreve" unicode="&#x103;" horiz-adv-x="512" d="M139 745 C142 681 192 639 263 639 C334 639 384 681 387 744 L377 745 C375 702 329 674 263 674 C197 674 151 703 149 746 L139 745 L139 745 Z M522 78 L515 81 C510 51 487 31 457 31 C423 31 400 51 400 81 C400 81 400 360 399 358 C399 463 345 510 263 510 C149 510 73 414 73 360 C73 339 83 325 98 325 C118 325 131 340 131 350 C131 363 111 382 111 392 C111 433 169 505 257 505 C313 505 350 465 350 377 L350 265 C109 191 53 164 53 80 C53 26 99 -10 168 -10 C215 -10 275 17 349 87 C349 31 379 -5 435 -5 C478 -5 512 28 521 78 L522 78 L522 78 Z M349 261 L349 91 C291 37 239 16 194 16 C139 16 103 44 103 85 C103 174 150 199 349 260 L349 261 L349 261 Z " />
<glyph glyph-name="Cacute" unicode="&#x106;" horiz-adv-x="706" d="M393 813 L532 936 C574 974 602 1001 602 1005 C602 1018 591 1029 578 1029 C574 1029 547 1001 509 959 L386 820 L393 813 L393 813 Z M653 128 L653 128 L653 128 L653 128 Z M660 -7 L660 224 L640 224 L631 191 C609 107 548 36 477 10 C447 0 414 -6 377 -6 C226 -6 126 146 126 375 C126 603 230 755 387 755 C423 755 454 750 482 741 C550 717 610 646 632 559 L641 526 L661 526 L661 754 L647 754 L643 731 C639 705 599 705 542 729 C522 739 496 748 473 754 L472 752 C447 757 419 760 387 760 C192 760 62 606 62 375 C62 111 224 -56 469 -1 L470 -4 C492 2 517 12 537 21 C597 46 639 44 643 15 L647 -9 L660 -7 L660 -7 Z " />
<glyph glyph-name="Ccircumflex" unicode="&#x108;" horiz-adv-x="706" d="M404 1015 C400 1020 392 1033 386 1033 C380 1033 372 1020 368 1015 L237 813 L244 808 L386 976 L528 808 L535 813 L404 1015 L404 1015 Z M653 128 L653 128 L653 128 L653 128 Z M660 -7 L660 224 L640 224 L631 191 C609 107 548 36 477 10 C447 0 414 -6 377 -6 C226 -6 126 146 126 375 C126 603 230 755 387 755 C423 755 454 750 482 741 C550 717 610 646 632 559 L641 526 L661 526 L661 754 L647 754 L643 731 C639 705 599 705 542 729 C522 739 496 748 473 754 L472 752 C447 757 419 760 387 760 C192 760 62 606 62 375 C62 111 224 -56 469 -1 L470 -4 C492 2 517 12 537 21 C597 46 639 44 643 15 L647 -9 L660 -7 L660 -7 Z " />
<glyph glyph-name="Cdot" unicode="&#x10a;" horiz-adv-x="706" d="M418 897 C418 940 354 940 354 897 C354 855 418 855 418 897 L418 897 Z M653 128 L653 128 L653 128 L653 128 Z M660 -7 L660 224 L640 224 L631 191 C609 107 548 36 477 10 C447 0 414 -6 377 -6 C226 -6 126 146 126 375 C126 603 230 755 387 755 C423 755 454 750 482 741 C550 717 610 646 632 559 L641 526 L661 526 L661 754 L647 754 L643 731 C639 705 599 705 542 729 C522 739 496 748 473 754 L472 752 C447 757 419 760 387 760 C192 760 62 606 62 375 C62 111 224 -56 469 -1 L470 -4 C492 2 517 12 537 21 C597 46 639 44 643 15 L647 -9 L660 -7 L660 -7 Z " />
<glyph glyph-name="cdot" unicode="&#x10b;" horiz-adv-x="465" d="M296 647 C296 690 232 690 232 647 C232 605 296 605 296 647 L296 647 Z M435 128 L433 129 C400 54 328 4 255 4 C159 4 95 108 95 264 C95 409 162 506 263 506 C314 506 363 466 385 405 C390 390 400 380 410 380 C430 380 440 390 435 405 C412 468 344 510 264 510 C133 510 45 402 45 239 C45 90 126 -10 247 -10 C323 -10 398 45 435 128 L435 128 Z " />
<glyph glyph-name="Ccaron" unicode="&#x10c;" horiz-adv-x="706" d="M528 1042 L386 874 L244 1042 L237 1037 L368 835 C372 830 380 817 386 817 C392 817 400 830 404 835 L535 1037 L528 1042 L528 1042 Z M653 128 L653 128 L653 128 L653 128 Z M660 -7 L660 224 L640 224 L631 191 C609 107 548 36 477 10 C447 0 414 -6 377 -6 C226 -6 126 146 126 375 C126 603 230 755 387 755 C423 755 454 750 482 741 C550 717 610 646 632 559 L641 526 L661 526 L661 754 L647 754 L643 731 C639 705 599 705 542 729 C522 739 496 748 473 754 L472 752 C447 757 419 760 387 760 C192 760 62 606 62 375 C62 111 224 -56 469 -1 L470 -4 C492 2 517 12 537 21 C597 46 639 44 643 15 L647 -9 L660 -7 L660 -7 Z " />
<glyph glyph-name="ccaron" unicode="&#x10d;" horiz-adv-x="465" d="M406 792 L264 624 L122 792 L115 787 L246 585 C250 580 258 567 264 567 C270 567 278 580 282 585 L413 787 L406 792 L406 792 Z M435 128 L433 129 C400 54 328 4 255 4 C159 4 95 108 95 264 C95 409 162 506 263 506 C314 506 363 466 385 405 C390 390 400 380 410 380 C430 380 440 390 435 405 C412 468 344 510 264 510 C133 510 45 402 45 239 C45 90 126 -10 247 -10 C323 -10 398 45 435 128 L435 128 Z " />
<glyph glyph-name="Dcaron" unicode="&#x10e;" horiz-adv-x="820" d="M575 1042 L432 873 L290 1042 L283 1037 L415 835 C419 830 427 817 433 817 C438 817 446 830 450 835 L582 1037 L575 1042 L575 1042 Z M299 4 C232 4 224 76 224 183 L224 746 L329 746 C574 746 700 598 700 375 C700 130 540 4 299 4 L299 4 Z M70 735 L84 735 C133 735 165 695 165 635 L165 115 C165 55 133 15 84 15 L70 15 L70 0 L304 0 C581 0 765 128 765 375 C765 600 622 750 344 750 L70 750 L70 735 L70 735 Z " />
<glyph glyph-name="dcaron" unicode="&#x10f;" horiz-adv-x="602" d="M578 759 C567 759 558 697 553 652 L540 541 L548 540 L578 647 C591 692 600 734 600 752 C600 757 591 759 578 759 L578 759 Z M367 713 L378 713 C416 714 442 678 442 621 L442 412 C413 468 358 511 299 511 C132 511 46 409 46 255 C46 100 137 -4 274 -4 C340 -4 407 28 443 76 L443 1 L468 1 C504 11 552 24 588 34 L588 49 L574 45 C525 32 493 63 493 123 L493 751 L468 751 C438 743 398 732 368 724 L367 713 L367 713 Z M443 376 L443 81 C413 42 355 17 295 17 C176 17 97 117 97 268 C97 405 168 496 305 496 C366 496 423 441 443 376 L443 376 Z " />
<glyph glyph-name="Emacron" unicode="&#x112;" horiz-adv-x="636" d="M202 901 L502 901 L502 936 L202 936 L202 901 L202 901 Z M50 735 L67 735 C126 735 165 687 165 615 L165 135 C165 63 126 15 67 15 L50 15 L50 0 L559 0 L559 2 L561 2 C569 43 579 98 586 139 L571 139 L563 119 C540 54 470 9 385 4 C241 11 225 81 225 183 L225 385 L306 385 C384 385 444 336 457 262 L461 240 L476 240 L476 534 L461 534 L457 512 C444 438 384 389 306 389 L225 389 L225 746 L365 746 C443 746 509 697 531 623 L538 601 L553 601 C548 645 541 704 536 748 L535 748 L535 750 L51 750 L50 735 L50 735 Z " />
<glyph glyph-name="emacron" unicode="&#x113;" horiz-adv-x="530" d="M146 651 L446 651 L446 686 L146 686 L146 651 L146 651 Z M105 340 L500 340 C478 462 400 510 296 510 C145 510 45 433 45 235 C45 88 136 -10 273 -10 C369 -10 454 48 486 135 L484 135 C456 57 373 5 278 5 C170 5 98 105 98 255 C98 287 100 315 105 340 L105 340 Z M444 345 L106 344 C129 459 199 506 295 506 C366 506 422 461 444 345 L444 345 Z " />
<glyph glyph-name="Ebreve" unicode="&#x114;" horiz-adv-x="636" d="M227 995 C230 931 280 889 352 889 C423 889 472 931 475 994 L465 995 C463 952 418 924 352 924 C286 924 240 953 238 996 L227 995 L227 995 Z M50 735 L67 735 C126 735 165 687 165 615 L165 135 C165 63 126 15 67 15 L50 15 L50 0 L559 0 L559 2 L561 2 C569 43 579 98 586 139 L571 139 L563 119 C540 54 470 9 385 4 C241 11 225 81 225 183 L225 385 L306 385 C384 385 444 336 457 262 L461 240 L476 240 L476 534 L461 534 L457 512 C444 438 384 389 306 389 L225 389 L225 746 L365 746 C443 746 509 697 531 623 L538 601 L553 601 C548 645 541 704 536 748 L535 748 L535 750 L51 750 L50 735 L50 735 Z " />
<glyph glyph-name="ebreve" unicode="&#x115;" horiz-adv-x="530" d="M172 745 C175 681 225 639 296 639 C367 639 417 681 420 744 L410 745 C408 702 362 674 296 674 C230 674 184 703 182 746 L172 745 L172 745 Z M105 340 L500 340 C478 462 400 510 296 510 C145 510 45 433 45 235 C45 88 136 -10 273 -10 C369 -10 454 48 486 135 L484 135 C456 57 373 5 278 5 C170 5 98 105 98 255 C98 287 100 315 105 340 L105 340 Z M444 345 L106 344 C129 459 199 506 295 506 C366 506 422 461 444 345 L444 345 Z " />
<glyph glyph-name="Edot" unicode="&#x116;" horiz-adv-x="636" d="M384 897 C384 941 319 940 319 897 C319 856 384 855 384 897 L384 897 Z M50 735 L67 735 C126 735 165 687 165 615 L165 135 C165 63 126 15 67 15 L50 15 L50 0 L559 0 L559 2 L561 2 C569 43 579 98 586 139 L571 139 L563 119 C540 54 470 9 385 4 C241 11 225 81 225 183 L225 385 L306 385 C384 385 444 336 457 262 L461 240 L476 240 L476 534 L461 534 L457 512 C444 438 384 389 306 389 L225 389 L225 746 L365 746 C443 746 509 697 531 623 L538 601 L553 601 C548 645 541 704 536 748 L535 748 L535 750 L51 750 L50 735 L50 735 Z " />
<glyph glyph-name="edot" unicode="&#x117;" horiz-adv-x="530" d="M328 647 C328 690 264 690 264 647 C264 605 328 605 328 647 L328 647 Z M105 340 L500 340 C478 462 400 510 296 510 C145 510 45 433 45 235 C45 88 136 -10 273 -10 C369 -10 454 48 486 135 L484 135 C456 57 373 5 278 5 C170 5 98 105 98 255 C98 287 100 315 105 340 L105 340 Z M444 345 L106 344 C129 459 199 506 295 506 C366 506 422 461 444 345 L444 345 Z " />
<glyph glyph-name="Ecaron" unicode="&#x11a;" horiz-adv-x="636" d="M494 1042 L351 873 L209 1042 L202 1037 L334 835 C338 830 346 817 352 817 C357 817 365 830 369 835 L501 1037 L494 1042 L494 1042 Z M50 735 L67 735 C126 735 165 687 165 615 L165 135 C165 63 126 15 67 15 L50 15 L50 0 L559 0 L559 2 L561 2 C569 43 579 98 586 139 L571 139 L563 119 C540 54 470 9 385 4 C241 11 225 81 225 183 L225 385 L306 385 C384 385 444 336 457 262 L461 240 L476 240 L476 534 L461 534 L457 512 C444 438 384 389 306 389 L225 389 L225 746 L365 746 C443 746 509 697 531 623 L538 601 L553 601 C548 645 541 704 536 748 L535 748 L535 750 L51 750 L50 735 L50 735 Z " />
<glyph glyph-name="ecaron" unicode="&#x11b;" horiz-adv-x="530" d="M438 792 L296 624 L154 792 L147 787 L278 585 C282 580 290 567 296 567 C302 567 310 580 314 585 L445 787 L438 792 L438 792 Z M105 340 L500 340 C478 462 400 510 296 510 C145 510 45 433 45 235 C45 88 136 -10 273 -10 C369 -10 454 48 486 135 L484 135 C456 57 373 5 278 5 C170 5 98 105 98 255 C98 287 100 315 105 340 L105 340 Z M444 345 L106 344 C129 459 199 506 295 506 C366 506 422 461 444 345 L444 345 Z " />
<glyph glyph-name="Gcircumflex" unicode="&#x11c;" horiz-adv-x="793" d="M660 526 L660 754 L646 754 L642 731 C638 705 598 705 541 729 C521 739 495 748 472 754 L471 752 C446 757 418 760 386 760 C191 760 61 606 61 375 C61 144 188 -10 379 -10 C478 -10 557 4 627 27 L641 30 L641 32 C667 41 692 51 716 62 L715 65 C692 54 668 44 642 36 L642 171 C642 252 678 306 731 306 L747 306 L747 325 L478 325 L478 306 L494 306 C547 306 583 252 583 171 C583 171 583 74 583 73 C577 37 521 11 437 4 C472 6 512 10 542 13 C498 6 448 2 390 2 C232 2 127 151 127 375 C127 603 231 755 388 755 C424 755 455 750 483 741 C551 717 611 646 633 559 L642 526 L660 526 L660 526 Z M406 1015 C402 1020 394 1033 388 1033 C382 1033 374 1020 370 1015 L239 813 L246 808 L388 976 L530 808 L537 813 L406 1015 L406 1015 Z M438 4 C423 3 407 2 390 2 C403 2 420 3 438 4 L438 4 Z " />
<glyph glyph-name="Gbreve" unicode="&#x11e;" horiz-adv-x="793" d="M262 995 C265 931 315 889 386 889 C457 889 507 931 510 994 L500 995 C498 952 452 924 386 924 C320 924 274 953 272 996 L262 995 L262 995 Z M660 526 L660 754 L646 754 L642 731 C638 705 598 705 541 729 C521 739 495 748 472 754 L471 752 C446 757 418 760 386 760 C191 760 61 606 61 375 C61 144 188 -10 379 -10 C478 -10 557 4 627 27 L641 30 L641 32 C667 41 692 51 716 62 L715 65 C692 54 668 44 642 36 L642 171 C642 252 678 306 731 306 L747 306 L747 325 L478 325 L478 306 L494 306 C547 306 583 252 583 171 C583 171 583 74 583 73 C577 37 521 11 437 4 C472 6 512 10 542 13 C498 6 448 2 390 2 C232 2 127 151 127 375 C127 603 231 755 388 755 C424 755 455 750 483 741 C551 717 611 646 633 559 L642 526 L660 526 L660 526 Z M438 4 C423 3 407 2 390 2 C403 2 420 3 438 4 L438 4 Z " />
<glyph glyph-name="gbreve" unicode="&#x11f;" horiz-adv-x="520" d="M136 745 C139 681 189 639 260 639 C331 639 381 681 384 744 L374 745 C372 702 326 674 260 674 C194 674 148 703 146 746 L136 745 L136 745 Z M540 459 C540 477 527 489 508 489 C469 489 434 467 416 432 C388 481 333 511 261 511 C155 511 85 447 85 351 C85 264 141 203 229 191 C128 186 62 154 62 109 C62 61 101 27 162 20 C97 1 54 -42 54 -90 C54 -172 140 -227 270 -227 C400 -227 486 -167 486 -76 C486 12 434 70 302 70 L187 70 C129 70 90 92 90 125 C90 165 158 191 261 191 C367 191 437 256 437 353 C437 382 431 408 419 430 C432 449 454 461 479 461 C491 461 508 441 520 441 C533 441 541 450 541 463 L540 459 L540 459 Z M261 196 C185 196 135 259 135 354 C135 448 185 510 261 510 C337 510 387 448 387 354 C387 259 337 196 261 196 L261 196 Z M166 22 C172 22 178 22 184 22 L297 22 C404 22 445 -21 445 -85 C445 -167 375 -221 271 -221 C165 -221 95 -163 95 -76 C95 -31 123 7 166 23 L166 22 L166 22 Z " />
<glyph glyph-name="Gdot" unicode="&#x120;" horiz-adv-x="793" d="M418 897 C418 940 354 940 354 897 C354 855 418 855 418 897 L418 897 Z M660 526 L660 754 L646 754 L642 731 C638 705 598 705 541 729 C521 739 495 748 472 754 L471 752 C446 757 418 760 386 760 C191 760 61 606 61 375 C61 144 188 -10 379 -10 C478 -10 557 4 627 27 L641 30 L641 32 C667 41 692 51 716 62 L715 65 C692 54 668 44 642 36 L642 171 C642 252 678 306 731 306 L747 306 L747 325 L478 325 L478 306 L494 306 C547 306 583 252 583 171 C583 171 583 74 583 73 C577 37 521 11 437 4 C472 6 512 10 542 13 C498 6 448 2 390 2 C232 2 127 151 127 375 C127 603 231 755 388 755 C424 755 455 750 483 741 C551 717 611 646 633 559 L642 526 L660 526 L660 526 Z M438 4 C423 3 407 2 390 2 C403 2 420 3 438 4 L438 4 Z " />
<glyph glyph-name="gdot" unicode="&#x121;" horiz-adv-x="520" d="M292 647 C292 690 228 690 228 647 C228 605 292 605 292 647 L292 647 Z M540 459 C540 477 527 489 508 489 C469 489 434 467 416 432 C388 481 333 511 261 511 C155 511 85 447 85 351 C85 264 141 203 229 191 C128 186 62 154 62 109 C62 61 101 27 162 20 C97 1 54 -42 54 -90 C54 -172 140 -227 270 -227 C400 -227 486 -167 486 -76 C486 12 434 70 302 70 L187 70 C129 70 90 92 90 125 C90 165 158 191 261 191 C367 191 437 256 437 353 C437 382 431 408 419 430 C432 449 454 461 479 461 C491 461 508 441 520 441 C533 441 541 450 541 463 L540 459 L540 459 Z M261 196 C185 196 135 259 135 354 C135 448 185 510 261 510 C337 510 387 448 387 354 C387 259 337 196 261 196 L261 196 Z M166 22 C172 22 178 22 184 22 L297 22 C404 22 445 -21 445 -85 C445 -167 375 -221 271 -221 C165 -221 95 -163 95 -76 C95 -31 123 7 166 23 L166 22 L166 22 Z " />
<glyph glyph-name="Hcircumflex" unicode="&#x124;" horiz-adv-x="840" d="M461 1015 C457 1020 449 1033 443 1033 C437 1033 429 1020 425 1015 L294 813 L301 808 L443 976 L585 808 L592 813 L461 1015 L461 1015 Z M780 15 L766 15 C717 15 685 55 685 115 L685 635 C685 695 717 735 766 735 L780 735 L780 750 L531 750 L531 735 L545 735 C594 735 626 695 626 635 L626 388 L260 388 L260 635 C260 695 292 735 341 735 L355 735 L355 750 L106 750 L106 735 L120 735 C169 735 201 695 201 635 L201 115 C201 55 169 15 120 15 L106 15 L106 0 L355 0 L355 15 L341 15 C292 15 260 55 260 115 L260 383 L626 383 L626 115 C626 55 594 15 545 15 L531 15 L531 0 L780 0 L780 15 L780 15 Z " />
<glyph glyph-name="Itilde" unicode="&#x128;" horiz-adv-x="384" d="M57 870 C57 910 75 936 103 936 C157 936 228 871 282 871 C320 871 346 909 346 966 L343 966 C343 930 323 906 294 906 C240 906 169 971 115 971 C78 971 54 931 54 870 L57 870 L57 870 Z M324 15 L310 15 C261 15 229 55 229 115 L229 635 C229 695 261 735 310 735 L324 735 L324 750 L76 750 L76 735 L90 735 C139 735 171 695 171 635 L171 115 C171 55 139 15 90 15 L76 15 L76 0 L324 0 L324 15 L324 15 Z " />
<glyph glyph-name="itilde" unicode="&#x129;" horiz-adv-x="314" d="M26 620 C26 660 44 686 72 686 C126 686 197 621 251 621 C289 621 315 659 315 716 L312 716 C312 680 292 656 263 656 C209 656 138 721 84 721 C47 721 23 681 23 620 L26 620 L26 620 Z M69 458 L80 461 C118 471 144 452 144 413 L144 80 C144 41 118 15 80 15 L69 15 L69 0 L269 0 L269 15 L258 15 C220 15 194 41 194 80 L194 500 L169 500 C139 492 99 481 69 473 L69 458 L69 458 Z " />
<glyph glyph-name="Imacron" unicode="&#x12a;" horiz-adv-x="384" d="M50 901 L350 901 L350 936 L50 936 L50 901 L50 901 Z M324 15 L310 15 C261 15 229 55 229 115 L229 635 C229 695 261 735 310 735 L324 735 L324 750 L76 750 L76 735 L90 735 C139 735 171 695 171 635 L171 115 C171 55 139 15 90 15 L76 15 L76 0 L324 0 L324 15 L324 15 Z " />
<glyph glyph-name="imacron" unicode="&#x12b;" horiz-adv-x="314" d="M19 651 L319 651 L319 686 L19 686 L19 651 L19 651 Z M69 458 L80 461 C118 471 144 452 144 413 L144 80 C144 41 118 15 80 15 L69 15 L69 0 L269 0 L269 15 L258 15 C220 15 194 41 194 80 L194 500 L169 500 C139 492 99 481 69 473 L69 458 L69 458 Z " />
<glyph glyph-name="Ibreve" unicode="&#x12c;" horiz-adv-x="384" d="M76 995 C79 931 129 889 200 889 C271 889 321 931 324 994 L314 995 C312 952 266 924 200 924 C134 924 88 953 86 996 L76 995 L76 995 Z M324 15 L310 15 C261 15 229 55 229 115 L229 635 C229 695 261 735 310 735 L324 735 L324 750 L76 750 L76 735 L90 735 C139 735 171 695 171 635 L171 115 C171 55 139 15 90 15 L76 15 L76 0 L324 0 L324 15 L324 15 Z " />
<glyph glyph-name="ibreve" unicode="&#x12d;" horiz-adv-x="314" d="M45 745 C48 681 98 639 169 639 C240 639 290 681 293 744 L283 745 C281 702 235 674 169 674 C103 674 57 703 55 746 L45 745 L45 745 Z M69 458 L80 461 C118 471 144 452 144 413 L144 80 C144 41 118 15 80 15 L69 15 L69 0 L269 0 L269 15 L258 15 C220 15 194 41 194 80 L194 500 L169 500 C139 492 99 481 69 473 L69 458 L69 458 Z " />
<glyph glyph-name="Idot" unicode="&#x130;" horiz-adv-x="384" d="M232 897 C232 940 168 940 168 897 C168 855 232 855 232 897 L232 897 Z M324 15 L310 15 C261 15 229 55 229 115 L229 635 C229 695 261 735 310 735 L324 735 L324 750 L76 750 L76 735 L90 735 C139 735 171 695 171 635 L171 115 C171 55 139 15 90 15 L76 15 L76 0 L324 0 L324 15 L324 15 Z " />
<glyph glyph-name="dotlessi" unicode="&#x131;" horiz-adv-x="314" d="M69 458 L80 461 C118 471 144 452 144 413 L144 80 C144 41 118 15 80 15 L69 15 L69 0 L269 0 L269 15 L258 15 C220 15 194 41 194 80 L194 500 L169 500 C139 492 99 481 69 473 L69 458 L69 458 Z " />
<glyph glyph-name="Jcircumflex" unicode="&#x134;" horiz-adv-x="384" d="M218 1015 C214 1020 206 1033 200 1033 C194 1033 186 1020 182 1015 L51 813 L58 808 L200 976 L342 808 L349 813 L218 1015 L218 1015 Z M324 750 L76 750 L76 735 L90 735 C137 735 168 698 171 642 C171 470 170 135 170 -35 C170 -186 101 -215 51 -215 C22 -215 36 -168 7 -168 C-9 -168 -20 -178 -20 -194 C-20 -210 6 -221 46 -221 C123 -221 230 -173 230 77 C230 219 230 492 230 643 C233 698 264 734 311 734 L325 734 L324 750 L324 750 Z " />
<glyph glyph-name="Lacute" unicode="&#x139;" horiz-adv-x="649" d="M206 813 L345 936 C387 974 415 1001 415 1005 C415 1018 404 1029 391 1029 C387 1029 360 1001 322 959 L199 820 L206 813 L206 813 Z M324 750 L76 750 L76 735 L90 735 C139 735 171 695 171 635 L171 115 C171 55 139 15 90 15 L76 15 L76 0 L564 0 L564 5 C571 47 581 103 588 145 L573 145 L565 125 C542 60 472 16 387 10 C245 17 229 84 229 182 L229 634 C229 694 261 734 310 734 L324 734 L324 750 L324 750 Z " />
<glyph glyph-name="Lcaron" unicode="&#x13d;" horiz-adv-x="649" d="M424 809 C413 809 404 747 399 702 L386 591 L394 590 L424 697 C437 742 446 784 446 802 C446 807 437 809 424 809 L424 809 Z M324 750 L76 750 L76 735 L90 735 C139 735 171 695 171 635 L171 115 C171 55 139 15 90 15 L76 15 L76 0 L564 0 L564 5 C571 47 581 103 588 145 L573 145 L565 125 C542 60 472 16 387 10 C245 17 229 84 229 182 L229 634 C229 694 261 734 310 734 L324 734 L324 750 L324 750 Z " />
<glyph glyph-name="lcaron" unicode="&#x13e;" horiz-adv-x="258" d="M239 759 C228 759 219 697 214 652 L201 541 L209 540 L239 647 C252 692 261 734 261 752 C261 757 252 759 239 759 L239 759 Z M28 713 L39 713 C77 714 103 678 103 621 L103 80 C103 41 77 15 39 15 L28 15 L28 0 L228 0 L228 15 L217 15 C179 15 153 41 153 80 L153 750 L128 750 C98 742 58 731 28 723 L28 713 L28 713 Z " />
<glyph glyph-name="Nacute" unicode="&#x143;" horiz-adv-x="786" d="M298 813 L437 936 C479 974 507 1001 507 1005 C507 1018 496 1029 483 1029 C479 1029 452 1001 414 959 L291 820 L298 813 L298 813 Z M22 735 L36 735 C73 735 115 713 151 677 L151 116 C151 56 119 16 70 16 L56 16 L56 1 L263 1 L263 16 L249 16 C201 16 168 56 168 116 L168 116 L167 661 C172 655 177 649 181 643 C326 429 470 214 616 1 L628 1 L631 648 C635 701 667 736 713 736 L727 736 L727 751 L520 751 L520 736 L534 736 C583 736 615 696 615 636 L615 636 L616 106 L611 113 L181 751 L23 751 L22 735 L22 735 Z " />
<glyph glyph-name="Ncaron" unicode="&#x147;" horiz-adv-x="786" d="M533 1042 L391 874 L249 1042 L242 1037 L373 835 C377 830 385 817 391 817 C397 817 405 830 409 835 L540 1037 L533 1042 L533 1042 Z M22 735 L36 735 C73 735 115 713 151 677 L151 116 C151 56 119 16 70 16 L56 16 L56 1 L263 1 L263 16 L249 16 C201 16 168 56 168 116 L168 116 L167 661 C172 655 177 649 181 643 C326 429 470 214 616 1 L628 1 L631 648 C635 701 667 736 713 736 L727 736 L727 751 L520 751 L520 736 L534 736 C583 736 615 696 615 636 L615 636 L616 106 L611 113 L181 751 L23 751 L22 735 L22 735 Z " />
<glyph glyph-name="ncaron" unicode="&#x148;" horiz-adv-x="555" d="M419 792 L276 623 L134 792 L127 787 L259 585 C263 580 271 567 277 567 C282 567 290 580 294 585 L426 787 L419 792 L419 792 Z M28 463 L39 463 C77 464 103 428 103 371 L103 80 C103 41 77 15 39 15 L28 15 L28 0 L228 0 L228 15 L217 15 C179 15 153 41 153 80 L153 368 C193 438 252 484 300 484 C366 484 400 422 400 330 L400 80 C400 41 374 15 336 15 L325 15 L325 0 L525 0 L525 15 L514 15 C476 15 450 41 450 80 L450 330 C450 438 404 510 316 510 C265 510 199 456 153 376 L153 500 L128 500 C98 492 58 481 28 473 L28 463 L28 463 Z " />
<glyph glyph-name="Omacron" unicode="&#x14c;" horiz-adv-x="806" d="M251 901 L551 901 L551 936 L251 936 L251 901 L251 901 Z M125 375 C125 603 235 755 400 755 C572 755 687 603 687 375 C687 147 569 -5 392 -5 C232 -5 125 147 125 375 L125 375 Z M61 375 C61 144 193 -10 391 -10 C607 -10 751 144 751 375 C751 606 611 760 401 760 C197 760 61 606 61 375 L61 375 Z " />
<glyph glyph-name="omacron" unicode="&#x14d;" horiz-adv-x="604" d="M152 651 L452 651 L452 686 L152 686 L152 651 L152 651 Z M100 250 C100 403 181 505 302 505 C423 505 504 403 504 250 C504 97 423 -5 302 -5 C181 -5 100 97 100 250 L100 250 Z M45 250 C45 94 148 -10 302 -10 C456 -10 559 94 559 250 C559 406 456 510 302 510 C148 510 45 406 45 250 L45 250 Z " />
<glyph glyph-name="Obreve" unicode="&#x14e;" horiz-adv-x="806" d="M277 995 C280 931 330 889 401 889 C472 889 522 931 525 994 L515 995 C513 952 467 924 401 924 C335 924 289 953 287 996 L277 995 L277 995 Z M125 375 C125 603 235 755 400 755 C572 755 687 603 687 375 C687 147 569 -5 392 -5 C232 -5 125 147 125 375 L125 375 Z M61 375 C61 144 193 -10 391 -10 C607 -10 751 144 751 375 C751 606 611 760 401 760 C197 760 61 606 61 375 L61 375 Z " />
<glyph glyph-name="obreve" unicode="&#x14f;" horiz-adv-x="604" d="M178 745 C181 681 231 639 302 639 C373 639 423 681 426 744 L416 745 C414 702 368 674 302 674 C236 674 190 703 188 746 L178 745 L178 745 Z M100 250 C100 403 181 505 302 505 C423 505 504 403 504 250 C504 97 423 -5 302 -5 C181 -5 100 97 100 250 L100 250 Z M45 250 C45 94 148 -10 302 -10 C456 -10 559 94 559 250 C559 406 456 510 302 510 C148 510 45 406 45 250 L45 250 Z " />
<glyph glyph-name="Racute" unicode="&#x154;" horiz-adv-x="738" d="M346 813 L485 936 C527 974 555 1001 555 1005 C555 1018 544 1029 531 1029 C527 1029 500 1001 462 959 L339 820 L346 813 L346 813 Z M70 735 L84 735 C133 735 165 695 165 635 L165 115 C165 55 133 15 84 15 L70 15 L70 0 L319 0 L319 15 L305 15 C256 15 224 55 224 115 L224 365 L360 365 C375 334 438 224 525 76 C568 4 576 1 728 1 L728 10 C637 10 631 13 594 76 C507 224 443 333 421 370 C518 385 579 439 579 541 C579 667 493 751 364 751 L71 751 L70 735 L70 735 Z M225 381 L225 739 L346 739 C447 739 514 665 514 553 C514 434 454 381 364 381 L225 381 L225 381 Z " />
<glyph glyph-name="Rcaron" unicode="&#x158;" horiz-adv-x="738" d="M481 1042 L339 874 L197 1042 L190 1037 L321 835 C325 830 333 817 339 817 C345 817 353 830 357 835 L488 1037 L481 1042 L481 1042 Z M70 735 L84 735 C133 735 165 695 165 635 L165 115 C165 55 133 15 84 15 L70 15 L70 0 L319 0 L319 15 L305 15 C256 15 224 55 224 115 L224 365 L360 365 C375 334 438 224 525 76 C568 4 576 1 728 1 L728 10 C637 10 631 13 594 76 C507 224 443 333 421 370 C518 385 579 439 579 541 C579 667 493 751 364 751 L71 751 L70 735 L70 735 Z M225 381 L225 739 L346 739 C447 739 514 665 514 553 C514 434 454 381 364 381 L225 381 L225 381 Z " />
<glyph glyph-name="rcaron" unicode="&#x159;" horiz-adv-x="373" d="M371 792 L229 624 L87 792 L80 787 L211 585 C215 580 223 567 229 567 C235 567 243 580 247 585 L378 787 L371 792 L371 792 Z M29 463 L40 463 C78 464 104 428 104 371 L104 80 C104 41 78 15 40 15 L29 15 L29 0 L229 0 L229 15 L218 15 C180 15 154 41 154 80 L154 379 C176 444 224 487 276 487 C293 487 304 473 304 452 C304 415 363 414 363 452 C363 487 337 510 299 510 C236 510 179 461 154 386 L154 499 L129 499 C99 491 59 480 29 472 L29 463 L29 463 Z " />
<glyph glyph-name="Sacute" unicode="&#x15a;" horiz-adv-x="546" d="M281 813 L420 936 C462 974 490 1001 490 1005 C490 1018 479 1029 466 1029 C462 1029 435 1001 397 959 L274 820 L281 813 L281 813 Z M53 246 L53 -9 L67 -9 L71 18 C75 47 120 46 185 16 L185 17 C203 8 224 -1 244 -6 L244 -4 C391 -36 504 50 504 183 C504 264 440 348 317 406 C184 468 116 539 116 598 C116 705 176 766 273 753 C347 741 409 674 431 580 L440 544 L460 544 L460 763 L446 763 L442 743 C438 723 397 724 339 745 C313 757 284 764 254 765 L254 761 C142 765 69 691 69 577 C69 497 141 410 280 345 C396 291 455 224 455 166 C455 41 355 -31 232 8 C161 33 100 112 78 211 L69 248 L53 246 L53 246 Z " />
<glyph glyph-name="Scircumflex" unicode="&#x15c;" horiz-adv-x="546" d="M53 246 L53 -9 L67 -9 L71 18 C75 47 120 46 185 16 L185 17 C203 8 224 -1 244 -6 L244 -4 C391 -36 504 50 504 183 C504 264 440 348 317 406 C184 468 116 539 116 598 C116 705 176 766 273 753 C347 741 409 674 431 580 L440 544 L460 544 L460 763 L446 763 L442 743 C438 723 397 724 339 745 C313 757 284 764 254 765 L254 761 C142 765 69 691 69 577 C69 497 141 410 280 345 C396 291 455 224 455 166 C455 41 355 -31 232 8 C161 33 100 112 78 211 L69 248 L53 246 L53 246 Z M288 1017 C284 1022 276 1035 270 1035 C264 1035 256 1022 252 1017 L121 815 L128 810 L270 978 L412 810 L419 815 L288 1017 L288 1017 Z " />
<glyph glyph-name="Scaron" unicode="&#x160;" horiz-adv-x="546" d="M416 1042 L274 874 L132 1042 L125 1037 L256 835 C260 830 268 817 274 817 C280 817 288 830 292 835 L423 1037 L416 1042 L416 1042 Z M53 246 L53 -9 L67 -9 L71 18 C75 47 120 46 185 16 L185 17 C203 8 224 -1 244 -6 L244 -4 C391 -36 504 50 504 183 C504 264 440 348 317 406 C184 468 116 539 116 598 C116 705 176 766 273 753 C347 741 409 674 431 580 L440 544 L460 544 L460 763 L446 763 L442 743 C438 723 397 724 339 745 C313 757 284 764 254 765 L254 761 C142 765 69 691 69 577 C69 497 141 410 280 345 C396 291 455 224 455 166 C455 41 355 -31 232 8 C161 33 100 112 78 211 L69 248 L53 246 L53 246 Z " />
<glyph glyph-name="scaron" unicode="&#x161;" horiz-adv-x="422" d="M368 792 L226 624 L84 792 L77 787 L208 585 C212 580 220 567 226 567 C232 567 240 580 244 585 L375 787 L368 792 L368 792 Z M344 335 L344 519 L333 519 L330 504 C329 501 293 502 236 506 C222 510 207 512 192 512 L192 509 C114 509 62 461 62 388 C62 327 114 267 215 230 C293 202 333 155 333 106 C333 26 271 -24 190 -2 L190 0 C182 2 174 4 166 7 C117 32 83 87 75 158 L73 183 L61 183 L61 -11 L72 -11 L75 6 C76 12 113 8 170 -3 C185 -9 201 -13 217 -14 L217 -11 C311 -17 374 38 374 119 C374 178 328 235 239 267 C147 300 100 352 100 404 C100 469 145 511 211 502 L211 499 C222 498 233 496 244 493 C291 473 324 424 332 357 L335 332 L344 335 L344 335 Z " />
<glyph glyph-name="Tcaron" unicode="&#x164;" horiz-adv-x="775" d="M531 1042 L389 874 L247 1042 L240 1037 L371 835 C375 830 383 817 389 817 C395 817 403 830 407 835 L538 1037 L531 1042 L531 1042 Z M687 805 L683 797 C671 769 612 750 534 750 L241 750 C163 750 104 769 92 797 L88 805 L77 805 C71 789 63 768 56 750 L56 750 L56 749 C55 747 54 745 53 743 L56 743 L56 742 C38 699 16 643 -1 601 L14 601 L26 621 C67 690 148 736 229 736 L359 736 L359 116 C359 56 327 16 278 16 L264 16 L264 1 L513 1 L513 16 L499 16 C450 16 418 56 418 116 L418 736 L548 736 C629 736 710 690 751 621 L763 601 L778 601 C761 644 738 700 721 743 L724 743 C717 762 707 787 699 806 L687 805 L687 805 Z " />
<glyph glyph-name="tcaron" unicode="&#x165;" horiz-adv-x="339" d="M299 500 L145 500 L145 620 L141 620 L30 500 L30 490 L95 490 L95 129 C95 29 142 -10 212 -10 C253 -10 299 21 329 68 L324 71 C302 37 264 14 227 14 C177 14 144 43 144 118 L145 474 L299 474 L299 500 L299 500 Z M385 759 C374 759 365 697 360 652 L347 541 L355 540 L385 647 C398 692 407 734 407 752 C407 757 398 759 385 759 L385 759 Z " />
<glyph glyph-name="Utilde" unicode="&#x168;" horiz-adv-x="718" d="M218 869 C218 909 237 935 265 935 C319 935 390 870 444 870 C482 870 508 908 508 965 L505 965 C505 929 485 905 456 905 C402 905 330 970 276 970 C239 970 215 930 215 869 L218 869 L218 869 Z M35 734 L49 734 C98 734 130 694 130 634 L130 220 C130 82 188 -10 275 -10 C386 -10 490 54 534 149 L534 0 L564 0 L593 8 C624 16 659 25 687 32 L687 47 L673 43 C624 30 592 61 592 121 L592 749 L533 749 L533 748 L438 748 L438 733 L452 733 C501 733 533 693 533 633 L533 175 C492 86 398 27 298 27 C232 27 188 104 188 219 L188 749 L129 749 L129 748 L34 748 L35 734 L35 734 Z " />
<glyph glyph-name="utilde" unicode="&#x169;" horiz-adv-x="546" d="M129 621 C129 661 148 687 176 687 C230 687 301 622 355 622 C393 622 419 660 419 717 L416 717 C416 681 396 657 367 657 C313 657 241 722 187 722 C150 722 126 682 126 621 L129 621 L129 621 Z M531 45 L518 42 C475 31 446 63 446 123 L446 500 L421 500 L421 501 L321 501 L321 486 L332 486 C370 486 396 460 396 421 L396 128 C368 65 312 24 252 24 C191 24 150 78 150 159 L150 499 L25 499 L25 484 L36 484 C74 484 100 458 100 419 L100 159 C100 57 151 -11 228 -11 C296 -11 362 42 397 123 L397 -1 L422 -1 L532 29 L531 45 L531 45 Z " />
<glyph glyph-name="Umacron" unicode="&#x16a;" horiz-adv-x="718" d="M212 900 L512 900 L512 935 L212 935 L212 900 L212 900 Z M35 734 L49 734 C98 734 130 694 130 634 L130 220 C130 82 188 -10 275 -10 C386 -10 490 54 534 149 L534 0 L564 0 L593 8 C624 16 659 25 687 32 L687 47 L673 43 C624 30 592 61 592 121 L592 749 L533 749 L533 748 L438 748 L438 733 L452 733 C501 733 533 693 533 633 L533 175 C492 86 398 27 298 27 C232 27 188 104 188 219 L188 749 L129 749 L129 748 L34 748 L35 734 L35 734 Z " />
<glyph glyph-name="umacron" unicode="&#x16b;" horiz-adv-x="546" d="M123 652 L423 652 L423 687 L123 687 L123 652 L123 652 Z M531 45 L518 42 C475 31 446 63 446 123 L446 500 L421 500 L421 501 L321 501 L321 486 L332 486 C370 486 396 460 396 421 L396 128 C368 65 312 24 252 24 C191 24 150 78 150 159 L150 499 L25 499 L25 484 L36 484 C74 484 100 458 100 419 L100 159 C100 57 151 -11 228 -11 C296 -11 362 42 397 123 L397 -1 L422 -1 L532 29 L531 45 L531 45 Z " />
<glyph glyph-name="Ubreve" unicode="&#x16c;" horiz-adv-x="718" d="M237 994 C240 930 290 888 362 888 C433 888 482 930 485 993 L475 994 C473 951 428 923 362 923 C296 923 250 952 248 995 L237 994 L237 994 Z M35 734 L49 734 C98 734 130 694 130 634 L130 220 C130 82 188 -10 275 -10 C386 -10 490 54 534 149 L534 0 L564 0 L593 8 C624 16 659 25 687 32 L687 47 L673 43 C624 30 592 61 592 121 L592 749 L533 749 L533 748 L438 748 L438 733 L452 733 C501 733 533 693 533 633 L533 175 C492 86 398 27 298 27 C232 27 188 104 188 219 L188 749 L129 749 L129 748 L34 748 L35 734 L35 734 Z " />
<glyph glyph-name="ubreve" unicode="&#x16d;" horiz-adv-x="546" d="M148 746 C151 682 201 640 273 640 C344 640 393 682 396 745 L386 746 C384 703 339 675 273 675 C207 675 161 704 159 747 L148 746 L148 746 Z M531 45 L518 42 C475 31 446 63 446 123 L446 500 L421 500 L421 501 L321 501 L321 486 L332 486 C370 486 396 460 396 421 L396 128 C368 65 312 24 252 24 C191 24 150 78 150 159 L150 499 L25 499 L25 484 L36 484 C74 484 100 458 100 419 L100 159 C100 57 151 -11 228 -11 C296 -11 362 42 397 123 L397 -1 L422 -1 L532 29 L531 45 L531 45 Z " />
<glyph glyph-name="Uring" unicode="&#x16e;" horiz-adv-x="718" d="M280 904 C280 954 313 987 362 987 C411 987 443 954 443 904 C443 859 406 821 362 821 C318 821 280 859 280 904 L280 904 Z M265 904 C265 853 310 809 362 809 C414 809 458 853 458 904 C458 961 420 999 362 999 C304 999 265 961 265 904 L265 904 Z M35 734 L49 734 C98 734 130 694 130 634 L130 220 C130 82 188 -10 275 -10 C386 -10 490 54 534 149 L534 0 L564 0 L593 8 C624 16 659 25 687 32 L687 47 L673 43 C624 30 592 61 592 121 L592 749 L533 749 L533 748 L438 748 L438 733 L452 733 C501 733 533 693 533 633 L533 175 C492 86 398 27 298 27 C232 27 188 104 188 219 L188 749 L129 749 L129 748 L34 748 L35 734 L35 734 Z " />
<glyph glyph-name="uring" unicode="&#x16f;" horiz-adv-x="546" d="M191 656 C191 706 224 739 273 739 C322 739 354 706 354 656 C354 611 317 573 273 573 C229 573 191 611 191 656 L191 656 Z M176 656 C176 605 221 561 273 561 C325 561 369 605 369 656 C369 713 331 751 273 751 C215 751 176 713 176 656 L176 656 Z M531 45 L518 42 C475 31 446 63 446 123 L446 500 L421 500 L421 501 L321 501 L321 486 L332 486 C370 486 396 460 396 421 L396 128 C368 65 312 24 252 24 C191 24 150 78 150 159 L150 499 L25 499 L25 484 L36 484 C74 484 100 458 100 419 L100 159 C100 57 151 -11 228 -11 C296 -11 362 42 397 123 L397 -1 L422 -1 L532 29 L531 45 L531 45 Z " />
<glyph glyph-name="Wcircumflex" unicode="&#x174;" horiz-adv-x="1083" d="M549 1015 C545 1020 537 1033 531 1033 C525 1033 517 1020 513 1015 L382 813 L389 808 L531 976 L673 808 L680 813 L549 1015 L549 1015 Z M279 750 L15 750 L15 731 L28 731 C70 731 115 681 141 606 C208 401 276 197 342 -9 L357 -9 L570 476 C621 314 672 152 723 -9 L738 -9 L924 608 C949 683 999 732 1052 732 L1067 732 L1067 751 L790 751 L790 732 L812 732 C885 732 921 685 905 613 L751 83 L594 602 C570 680 600 732 669 732 L689 732 L689 751 L400 751 L400 732 L413 732 C459 732 506 680 531 603 L563 501 L378 72 L206 607 C183 682 205 732 262 732 L279 732 L279 750 L279 750 Z " />
<glyph glyph-name="Ycircumflex" unicode="&#x176;" horiz-adv-x="716" d="M272 750 L17 750 L17 735 L29 735 C70 735 121 693 158 630 L158 630 L334 329 L334 135 C334 63 295 15 236 15 L219 15 L219 0 L508 0 L508 15 L491 15 C432 15 393 63 393 135 L393 337 L556 638 C590 696 645 734 697 734 L713 734 L713 749 L472 749 L472 734 L494 734 C557 734 576 692 543 629 L543 629 L391 342 L223 634 C190 695 203 735 256 735 L272 735 L272 750 L272 750 Z M381 1015 C377 1020 369 1033 364 1033 C358 1033 350 1020 346 1015 L214 813 L221 808 L363 977 L506 808 L513 813 L381 1015 L381 1015 Z " />
<glyph glyph-name="Ydieresis" unicode="&#x178;" horiz-adv-x="716" d="M465 897 C465 940 400 941 400 897 C400 855 465 856 465 897 L465 897 Z M327 897 C327 941 262 940 262 897 C262 856 327 855 327 897 L327 897 Z M272 750 L17 750 L17 735 L29 735 C70 735 121 693 158 630 L158 630 L334 329 L334 135 C334 63 295 15 236 15 L219 15 L219 0 L508 0 L508 15 L491 15 C432 15 393 63 393 135 L393 337 L556 638 C590 696 645 734 697 734 L713 734 L713 749 L472 749 L472 734 L494 734 C557 734 576 692 543 629 L543 629 L391 342 L223 634 C190 695 203 735 256 735 L272 735 L272 750 L272 750 Z " />
<glyph glyph-name="Zacute" unicode="&#x179;" horiz-adv-x="657" d="M347 813 L486 936 C528 974 556 1001 556 1005 C556 1018 545 1029 532 1029 C528 1029 501 1001 463 959 L340 820 L347 813 L347 813 Z M642 153 L627 153 L618 133 C589 65 510 18 419 16 L95 13 L610 738 L610 750 L70 750 L69 734 C69 734 62 653 57 599 L72 599 L78 619 C98 688 173 733 265 735 L547 737 L26 11 L26 -1 L607 -1 C613 12 620 54 643 152 L642 153 L642 153 Z " />
<glyph glyph-name="Zdot" unicode="&#x17b;" horiz-adv-x="657" d="M372 897 C372 940 308 940 308 897 C308 855 372 855 372 897 L372 897 Z M642 153 L627 153 L618 133 C589 65 510 18 419 16 L95 13 L610 738 L610 750 L70 750 L69 734 C69 734 62 653 57 599 L72 599 L78 619 C98 688 173 733 265 735 L547 737 L26 11 L26 -1 L607 -1 C613 12 620 54 643 152 L642 153 L642 153 Z " />
<glyph glyph-name="zdot" unicode="&#x17c;" horiz-adv-x="475" d="M281 647 C281 690 217 690 217 647 C217 605 281 605 281 647 L281 647 Z M426 126 L420 109 C401 57 339 20 263 16 L102 14 L435 489 L435 501 L166 501 C114 501 85 516 94 543 L76 543 C72 528 66 507 62 492 C60 492 48 446 29 375 L46 375 L55 392 C83 444 152 481 229 485 L376 487 L41 12 L41 0 L431 0 L431 9 C433 9 437 55 444 126 L426 126 L426 126 Z " />
<glyph glyph-name="Zcaron" unicode="&#x17d;" horiz-adv-x="657" d="M482 1042 L340 874 L198 1042 L191 1037 L322 835 C326 830 334 817 340 817 C346 817 354 830 358 835 L489 1037 L482 1042 L482 1042 Z M642 153 L627 153 L618 133 C589 65 510 18 419 16 L95 13 L610 738 L610 750 L70 750 L69 734 C69 734 62 653 57 599 L72 599 L78 619 C98 688 173 733 265 735 L547 737 L26 11 L26 -1 L607 -1 C613 12 620 54 643 152 L642 153 L642 153 Z " />
<glyph glyph-name="zcaron" unicode="&#x17e;" horiz-adv-x="475" d="M391 792 L249 624 L107 792 L100 787 L231 585 C235 580 243 567 249 567 C255 567 263 580 267 585 L398 787 L391 792 L391 792 Z M426 126 L420 109 C401 57 339 20 263 16 L102 14 L435 489 L435 501 L166 501 C114 501 85 516 94 543 L76 543 C72 528 66 507 62 492 C60 492 48 446 29 375 L46 375 L55 392 C83 444 152 481 229 485 L376 487 L41 12 L41 0 L431 0 L431 9 C433 9 437 55 444 126 L426 126 L426 126 Z " />
<glyph glyph-name="oogonek" unicode="&#x1eb;" horiz-adv-x="719" d="M944 -52 L943 -51 C914 -76 813 -92 691 -92 C542 -92 392 -59 311 -8 C324 -10 337 -11 351 -11 C542 -11 669 110 669 291 C669 472 546 592 361 592 C182 592 63 472 63 291 C63 145 138 38 258 2 C375 -77 546 -129 685 -129 C786 -129 890 -99 944 -53 L944 -52 L944 -52 Z M120 291 C120 469 216 588 360 588 C511 588 612 469 612 291 C612 111 506 -9 347 -9 C211 -9 120 111 120 291 L120 291 Z " />
<glyph glyph-name="Adotabove" unicode="&#x226;" horiz-adv-x="772" d="M448 897 C448 941 383 940 383 897 C383 856 448 855 448 897 L448 897 Z M25 0 L314 0 L314 19 L293 19 C226 19 196 72 216 154 L259 294 L516 294 C528 252 541 210 553 169 C580 79 551 19 480 19 L459 19 L459 0 L764 0 L764 19 L749 19 C695 19 641 79 614 169 L614 169 L443 732 C443 732 435 770 431 770 L426 770 C429 751 413 736 384 732 L387 722 C343 581 299 440 255 299 L255 298 L211 156 C181 73 116 19 46 19 L24 19 L25 0 L25 0 Z M261 299 L390 715 L515 299 L261 299 L261 299 Z " />
<glyph glyph-name="G_sc" unicode="&#x262;" horiz-adv-x="712" d="M579 388 L579 615 L565 615 L561 591 C557 567 516 562 458 577 C448 580 437 583 425 585 C409 590 393 593 378 594 L378 590 C186 603 61 484 61 290 C61 109 173 -12 341 -12 C399 -12 452 -4 503 10 C506 10 507 10 507 10 L558 23 L558 27 C584 36 609 47 634 59 L633 62 C609 51 584 41 558 32 L558 96 C558 177 594 231 647 231 L663 231 L663 250 L400 250 L400 231 L416 231 C469 231 505 177 505 96 L506 96 C506 82 506 69 506 57 C499 25 452 3 381 -2 C396 -1 413 0 429 1 C404 -2 377 -4 349 -4 C211 -4 119 112 119 287 C119 465 209 584 343 584 C362 584 380 583 396 580 C467 565 527 502 548 417 L557 384 L579 388 L579 388 Z M382 -2 C371 -3 360 -3 348 -3 C357 -3 368 -3 381 -2 L382 -2 L382 -2 Z " />
<glyph glyph-name="I_sc" unicode="&#x26a;" horiz-adv-x="381" d="M321 15 L307 15 C258 15 226 55 226 115 L226 468 C226 528 258 568 307 568 L321 568 L321 583 L79 583 L79 568 L93 568 C142 568 174 528 174 468 L174 115 C174 55 142 15 93 15 L79 15 L79 0 L321 0 L321 15 L321 15 Z " />
<glyph glyph-name="N_sc" unicode="&#x274;" horiz-adv-x="709" d="M28 568 L42 568 C75 568 115 549 151 517 L150 115 L150 115 C150 55 117 15 69 15 L55 15 L55 0 L261 0 L261 15 L247 15 C199 15 166 55 166 115 L166 115 L165 504 C176 493 186 481 196 468 L196 468 C310 312 424 156 538 0 L549 0 L552 477 C555 532 587 568 633 568 L647 568 L647 583 L441 583 L441 568 L455 568 C504 568 536 528 536 468 L536 468 L537 70 C417 241 296 411 175 582 L26 582 L28 568 L28 568 Z " />
<glyph glyph-name="R_sc" unicode="&#x280;" horiz-adv-x="642" d="M72 568 L86 568 C135 568 167 528 167 468 L167 115 C167 55 135 15 86 15 L72 15 L72 0 L315 0 L315 15 L301 15 C252 15 220 55 220 115 L220 282 L304 282 C318 257 373 172 450 58 C488 2 495 0 631 0 L631 8 C549 8 544 10 512 58 C436 171 380 254 359 285 C445 297 499 340 499 420 C499 518 422 583 306 583 L72 583 L72 568 L72 568 Z M220 296 L220 573 L290 573 C381 573 441 516 441 430 C441 338 387 296 306 296 L220 296 L220 296 Z " />
<glyph glyph-name="Y_sc" unicode="&#x28f;" horiz-adv-x="635" d="M267 583 L18 583 L18 568 L30 568 C68 568 117 532 156 476 L296 254 L296 135 C296 63 257 15 198 15 L181 15 L181 0 L464 0 L464 15 L447 15 C388 15 349 63 349 135 L349 262 L465 463 L466 463 C502 526 562 568 616 568 L631 568 L631 583 L392 583 L392 568 L413 568 C474 568 494 528 462 468 L347 266 L222 469 C187 529 198 568 250 568 L266 568 L267 583 L267 583 Z " />
<glyph glyph-name="B_sc" unicode="&#x299;" horiz-adv-x="550" d="M335 2 L285 2 C246 2 220 78 220 191 L220 299 L354 299 C412 299 451 240 451 151 C451 30 405 2 335 2 L335 2 Z M72 564 L86 564 C135 564 167 524 167 464 L167 119 C167 59 135 19 86 19 L72 19 L72 0 L340 0 C442 0 510 29 510 151 C510 245 450 302 359 302 C441 315 494 369 494 444 C494 528 453 584 279 584 L71 584 L72 564 L72 564 Z M317 303 L219 303 L219 581 L272 581 C410 581 442 524 442 438 C442 357 392 303 317 303 L317 303 Z " />
<glyph glyph-name="H_sc" unicode="&#x29c;" horiz-adv-x="764" d="M704 15 L690 15 C641 15 609 55 609 115 L609 468 C609 528 641 568 690 568 L704 568 L704 583 L461 583 L461 568 L475 568 C524 568 556 528 556 468 L556 302 L256 302 L256 468 C256 528 288 568 337 568 L351 568 L351 583 L108 583 L108 568 L122 568 C171 568 203 528 203 468 L203 115 C203 55 171 15 122 15 L108 15 L108 0 L351 0 L351 15 L337 15 C288 15 256 55 256 115 L256 298 L556 298 L556 115 C556 55 524 15 475 15 L461 15 L461 0 L704 0 L704 15 L704 15 Z " />
<glyph glyph-name="L_sc" unicode="&#x29f;" horiz-adv-x="571" d="M321 583 L79 583 L79 568 L93 568 C142 568 174 528 174 468 L174 115 C174 55 142 15 93 15 L79 15 L79 0 L486 0 L486 4 C493 46 503 102 510 144 L495 144 L487 124 C467 68 412 27 343 13 C239 31 226 95 226 183 L226 468 C226 528 258 568 307 568 L321 568 L321 583 L321 583 Z " />
<glyph glyph-name="circumflex" unicode="&#x2c6;" horiz-adv-x="340" d="M188 765 C184 770 176 783 170 783 C164 783 156 770 152 765 L21 563 L28 558 L170 726 L312 558 L319 563 L188 765 L188 765 Z " />
<glyph glyph-name="caron" unicode="&#x2c7;" horiz-adv-x="340" d="M312 792 L170 624 L28 792 L21 787 L152 585 C156 580 164 567 170 567 C176 567 184 580 188 585 L319 787 L312 792 L312 792 Z " />
<glyph glyph-name="firsttonechinese" unicode="&#x2c9;" horiz-adv-x="340" d="M20 651 L320 651 L320 686 L20 686 L20 651 L20 651 Z " />
<glyph glyph-name="breve" unicode="&#x2d8;" horiz-adv-x="340" d="M46 745 C49 681 99 639 170 639 C241 639 291 681 294 744 L284 745 C282 702 236 674 170 674 C104 674 58 703 56 746 L46 745 L46 745 Z " />
<glyph glyph-name="dotaccent" unicode="&#x2d9;" horiz-adv-x="340" d="M202 647 C202 690 138 690 138 647 C138 605 202 605 202 647 L202 647 Z " />
<glyph glyph-name="ring" unicode="&#x2da;" horiz-adv-x="340" d="M88 655 C88 705 121 738 170 738 C219 738 252 705 252 655 C252 610 214 572 170 572 C126 572 88 610 88 655 L88 655 Z M74 655 C74 604 118 560 170 560 C222 560 266 604 266 655 C266 712 228 750 170 750 C112 750 74 712 74 655 L74 655 Z " />
<glyph glyph-name="A_sc" unicode="&#x1d00;" horiz-adv-x="698" d="M393 0 L692 0 L692 19 L676 19 C623 19 569 76 539 163 L404 571 C404 571 396 603 393 603 L388 603 C391 587 376 575 351 571 L354 561 L354 561 C310 430 266 299 221 169 C191 79 121 19 47 19 L25 19 L25 0 L314 0 L314 19 L293 19 C222 19 196 79 226 169 L246 229 L463 229 L487 157 C510 74 482 19 414 19 L393 19 L393 0 L393 0 Z M247 233 L356 555 L462 233 L247 233 L247 233 Z " />
<glyph glyph-name="C_sc" unicode="&#x1d04;" horiz-adv-x="626" d="M579 -35 L579 196 L559 196 L550 163 C529 80 468 16 395 -1 C377 -4 358 -6 337 -6 C208 -6 122 113 122 292 C122 470 212 589 346 589 C365 589 383 588 399 585 C470 570 530 507 551 422 L560 389 L580 389 L580 616 L566 616 L562 592 C558 568 517 563 459 578 C449 581 438 584 426 586 C410 591 394 594 379 595 L379 591 C187 604 62 485 62 291 C62 94 185 -27 377 -10 L377 -14 C399 -11 423 -4 444 2 C509 20 556 16 560 -12 L564 -37 L579 -35 L579 -35 Z " />
<glyph glyph-name="D_sc" unicode="&#x1d05;" horiz-adv-x="740" d="M271 3 C225 3 220 75 220 183 L220 580 L291 580 C512 580 626 465 626 292 C626 101 484 3 271 3 L271 3 Z M72 568 L86 568 C135 568 167 528 167 468 L167 115 C167 55 135 15 86 15 L72 15 L72 0 L276 0 C521 0 685 99 685 292 C685 467 555 583 304 583 L72 583 L72 568 L72 568 Z " />
<glyph glyph-name="E_sc" unicode="&#x1d07;" horiz-adv-x="572" d="M52 568 L69 568 C128 568 167 520 167 448 L167 135 C167 63 128 15 69 15 L52 15 L52 0 L495 0 L495 2 L497 2 C504 43 514 98 521 139 L506 139 L498 119 C477 61 419 19 346 7 C234 23 220 90 220 183 L220 299 L241 299 C319 299 379 250 392 176 L396 154 L411 154 L411 448 L396 448 L392 426 C379 352 319 303 241 303 L220 303 L220 580 L300 580 C378 580 444 531 466 457 L473 435 L488 435 C483 479 476 538 471 582 L470 582 L470 583 L52 583 L52 568 L52 568 Z " />
<glyph glyph-name="J_sc" unicode="&#x1d0a;" horiz-adv-x="381" d="M321 583 L79 583 L79 568 L93 568 C140 568 171 532 174 477 C174 338 174 98 174 -27 C174 -183 113 -213 68 -213 C42 -213 54 -171 28 -171 C14 -171 4 -180 4 -194 C4 -209 28 -219 64 -219 C133 -219 228 -172 228 73 C228 173 228 361 228 479 C231 534 262 570 308 570 L322 570 L321 583 L321 583 Z " />
<glyph glyph-name="K_sc" unicode="&#x1d0b;" horiz-adv-x="652" d="M324 418 L324 418 L220 292 L220 468 C220 528 252 568 301 568 L319 568 C397 568 399 508 324 418 L324 418 Z M72 568 L86 568 C135 568 167 528 167 468 L167 115 C167 55 135 15 86 15 L72 15 L72 0 L315 0 L315 15 L301 15 C252 15 220 55 220 115 L220 292 L493 0 L638 0 L638 15 L624 15 C578 15 515 50 462 104 L261 325 C297 367 333 410 370 452 C429 521 507 567 566 567 L583 567 L583 582 L72 582 L72 568 L72 568 Z " />
<glyph glyph-name="M_sc" unicode="&#x1d0d;" horiz-adv-x="803" d="M768 583 L622 583 L430 72 L209 583 L57 583 L57 568 L71 568 C104 568 138 549 165 518 C160 384 156 249 150 115 C148 55 114 15 66 15 L52 15 L52 0 L260 0 L260 15 L246 15 C200 15 169 51 168 107 L179 501 C185 493 190 484 195 474 C265 316 335 158 405 0 L418 0 L626 538 L641 115 C643 55 612 15 564 15 L550 15 L550 0 L792 0 L792 15 L778 15 C730 15 696 55 694 115 L694 115 L680 478 C682 533 712 569 757 569 L771 569 L768 583 L768 583 Z " />
<glyph glyph-name="O_sc" unicode="&#x1d0f;" horiz-adv-x="724" d="M120 292 C120 470 216 589 360 589 C511 589 612 470 612 292 C612 113 508 -6 352 -6 C213 -6 120 113 120 292 L120 292 Z M63 292 C63 111 178 -10 351 -10 C542 -10 669 111 669 292 C669 473 546 593 361 593 C182 593 63 473 63 292 L63 292 Z " />
<glyph glyph-name="P_sc" unicode="&#x1d18;" horiz-adv-x="486" d="M328 15 L314 15 C265 15 233 55 233 115 L233 273 L268 273 C387 273 466 319 466 420 C466 518 401 583 303 583 L85 583 L85 568 L99 568 C148 568 180 528 180 468 L180 115 C180 55 148 15 99 15 L85 15 L85 0 L328 0 L328 15 L328 15 Z M233 284 L233 574 L290 574 C366 574 416 516 416 429 C416 329 357 284 268 284 L233 284 L233 284 Z " />
<glyph glyph-name="T_sc" unicode="&#x1d1b;" horiz-adv-x="715" d="M627 638 L623 630 C611 602 552 583 474 583 L241 583 C163 583 104 602 92 630 L88 638 L77 638 C70 619 60 595 52 576 L55 576 L55 572 C38 530 16 477 0 436 L15 436 L27 456 C68 525 149 571 230 571 L331 571 L331 116 C331 56 299 16 250 16 L236 16 L236 1 L479 1 L479 16 L465 16 C416 16 384 56 384 116 L384 571 L486 571 C567 571 648 525 689 456 L701 436 L716 436 C699 478 677 533 660 576 L660 578 L664 578 C656 597 646 621 638 640 L627 638 L627 638 Z " />
<glyph glyph-name="U_sc" unicode="&#x1d1c;" horiz-adv-x="635" d="M605 48 L591 44 C542 31 510 62 510 122 L510 583 L362 583 L362 568 L376 568 C425 568 457 528 457 468 L457 156 C420 77 339 24 254 24 C213 24 185 95 185 202 L185 583 L37 583 L37 568 L51 568 C100 568 132 528 132 468 L132 202 C132 75 172 -10 233 -10 C328 -10 417 47 457 132 L457 0 L483 0 C486 0 510 6 510 7 C541 16 576 25 604 33 L605 48 L605 48 Z " />
<glyph glyph-name="V_sc" unicode="&#x1d20;" horiz-adv-x="697" d="M674 583 L401 583 L401 564 L424 564 C498 564 527 510 499 427 L362 80 C317 191 270 303 225 414 C188 504 209 564 279 564 L300 564 L300 583 L16 583 L16 564 L29 564 C72 564 125 504 160 414 L161 414 C216 273 272 132 327 -10 L337 -10 L511 414 L512 414 C549 504 607 564 658 564 L673 564 L674 583 L674 583 Z " />
<glyph glyph-name="W_sc" unicode="&#x1d21;" horiz-adv-x="956" d="M274 583 L17 583 L17 564 L30 564 C70 564 115 518 143 448 C198 295 253 142 309 -10 L322 -10 L500 368 C543 242 586 117 629 -9 L642 -9 L791 435 C817 513 870 565 924 565 L940 565 L940 584 L666 584 L666 565 L688 565 C761 565 795 517 775 444 L655 74 L530 444 C509 517 537 565 602 565 L622 565 L622 584 L340 584 L340 565 L354 565 C400 565 448 513 475 435 L475 435 L490 390 L489 390 L340 65 L202 445 C179 517 199 565 255 565 L272 565 L274 583 L274 583 Z " />
<glyph glyph-name="Z_sc" unicode="&#x1d22;" horiz-adv-x="597" d="M581 151 L566 151 L557 131 C529 64 452 18 363 14 L89 11 L549 572 L549 582 L504 582 L500 583 L499 582 L69 582 L68 568 C68 568 61 488 56 433 L71 433 L77 453 C95 519 163 565 249 570 L489 572 L23 10 L23 -1 L544 -1 C553 34 560 69 579 150 L581 151 L581 151 Z " />
<glyph glyph-name="Wgrave" unicode="&#x1e80;" horiz-adv-x="1083" d="M325 1005 C325 999 353 972 395 936 L534 813 L541 820 L418 959 C382 1001 355 1029 349 1029 C336 1029 325 1018 325 1005 L325 1005 Z M279 750 L15 750 L15 731 L28 731 C70 731 115 681 141 606 C208 401 276 197 342 -9 L357 -9 L570 476 C621 314 672 152 723 -9 L738 -9 L924 608 C949 683 999 732 1052 732 L1067 732 L1067 751 L790 751 L790 732 L812 732 C885 732 921 685 905 613 L751 83 L594 602 C570 680 600 732 669 732 L689 732 L689 751 L400 751 L400 732 L413 732 C459 732 506 680 531 603 L563 501 L378 72 L206 607 C183 682 205 732 262 732 L279 732 L279 750 L279 750 Z " />
<glyph glyph-name="Wacute" unicode="&#x1e82;" horiz-adv-x="1083" d="M538 813 L677 936 C719 974 747 1001 747 1005 C747 1018 736 1029 723 1029 C719 1029 692 1001 654 959 L531 820 L538 813 L538 813 Z M279 750 L15 750 L15 731 L28 731 C70 731 115 681 141 606 C208 401 276 197 342 -9 L357 -9 L570 476 C621 314 672 152 723 -9 L738 -9 L924 608 C949 683 999 732 1052 732 L1067 732 L1067 751 L790 751 L790 732 L812 732 C885 732 921 685 905 613 L751 83 L594 602 C570 680 600 732 669 732 L689 732 L689 751 L400 751 L400 732 L413 732 C459 732 506 680 531 603 L563 501 L378 72 L206 607 C183 682 205 732 262 732 L279 732 L279 750 L279 750 Z " />
<glyph glyph-name="Wdieresis" unicode="&#x1e84;" horiz-adv-x="1083" d="M632 897 C632 941 567 940 567 897 C567 856 632 855 632 897 L632 897 Z M495 897 C495 940 430 941 430 897 C430 855 495 856 495 897 L495 897 Z M279 750 L15 750 L15 731 L28 731 C70 731 115 681 141 606 C208 401 276 197 342 -9 L357 -9 L570 476 C621 314 672 152 723 -9 L738 -9 L924 608 C949 683 999 732 1052 732 L1067 732 L1067 751 L790 751 L790 732 L812 732 C885 732 921 685 905 613 L751 83 L594 602 C570 680 600 732 669 732 L689 732 L689 751 L400 751 L400 732 L413 732 C459 732 506 680 531 603 L563 501 L378 72 L206 607 C183 682 205 732 262 732 L279 732 L279 750 L279 750 Z " />
<glyph glyph-name="Etilde" unicode="&#x1ebc;" horiz-adv-x="636" d="M208 870 C208 910 227 936 255 936 C309 936 380 871 434 871 C472 871 498 909 498 966 L495 966 C495 930 475 906 446 906 C392 906 320 971 266 971 C229 971 205 931 205 870 L208 870 L208 870 Z M50 735 L67 735 C126 735 165 687 165 615 L165 135 C165 63 126 15 67 15 L50 15 L50 0 L559 0 L559 2 L561 2 C569 43 579 98 586 139 L571 139 L563 119 C540 54 470 9 385 4 C241 11 225 81 225 183 L225 385 L306 385 C384 385 444 336 457 262 L461 240 L476 240 L476 534 L461 534 L457 512 C444 438 384 389 306 389 L225 389 L225 746 L365 746 C443 746 509 697 531 623 L538 601 L553 601 C548 645 541 704 536 748 L535 748 L535 750 L51 750 L50 735 L50 735 Z " />
<glyph glyph-name="Ygrave" unicode="&#x1ef2;" horiz-adv-x="716" d="M272 750 L17 750 L17 735 L29 735 C70 735 121 693 158 630 L158 630 L334 329 L334 135 C334 63 295 15 236 15 L219 15 L219 0 L508 0 L508 15 L491 15 C432 15 393 63 393 135 L393 337 L556 638 C590 696 645 734 697 734 L713 734 L713 749 L472 749 L472 734 L494 734 C557 734 576 692 543 629 L543 629 L391 342 L223 634 C190 695 203 735 256 735 L272 735 L272 750 L272 750 Z M158 1005 C158 999 186 972 228 936 L367 813 L373 820 L251 959 C215 1001 189 1029 183 1029 C170 1029 158 1018 158 1005 L158 1005 Z " />
<glyph glyph-name="quoteleft" unicode="&#x2018;" horiz-adv-x="508" d="M76 632 C76 633 76 634 76 635 C76 694 98 739 131 748 L121 759 C86 750 62 696 62 625 C62 605 74 592 91 592 C105 592 115 601 115 615 C115 634 89 649 77 631 L76 632 L76 632 Z " />
<glyph glyph-name="quoteright" unicode="&#x2019;" horiz-adv-x="48" d="M92 720 C92 656 78 609 58 604 L69 593 C92 599 108 654 108 731 C108 748 96 760 78 760 C64 760 54 750 54 736 C54 717 79 703 92 719 L92 720 L92 720 Z " />
<glyph glyph-name="quotedblleft" unicode="&#x201c;" horiz-adv-x="508" d="M137 632 C137 633 137 634 137 635 C137 694 159 739 192 748 L182 759 C147 750 123 696 123 625 C123 605 135 592 152 592 C166 592 176 601 176 615 C176 634 150 649 138 631 L137 632 L137 632 Z M65 631 C65 632 65 633 65 634 C65 693 87 738 120 747 L110 758 C75 749 51 695 51 624 C51 604 63 591 80 591 C94 591 104 600 104 614 C104 633 78 648 66 630 L65 631 L65 631 Z " />
<glyph glyph-name="quotedblright" unicode="&#x201d;" horiz-adv-x="508" d="M165 720 C165 656 152 609 132 604 L143 593 C166 599 181 654 181 731 C181 748 169 760 151 760 C121 760 120 713 151 713 C157 713 162 715 165 719 L165 720 L165 720 Z M92 719 C92 655 78 608 58 603 L69 592 C92 598 108 653 108 730 C108 747 96 759 78 759 C64 759 54 749 54 735 C54 716 79 702 92 718 L92 719 L92 719 Z " />
<glyph glyph-name="Euro" unicode="&#x20ac;" horiz-adv-x="756" d="M710 526 L710 754 L698 754 L694 730 C690 702 648 702 589 730 C571 739 549 746 528 752 L528 751 C501 757 471 760 436 760 C259 760 135 633 114 436 L60 436 L55 400 L112 400 C111 384 111 367 112 351 L55 351 L50 315 L114 315 C138 86 295 -53 523 2 L524 0 C547 7 572 16 593 26 C651 51 691 48 695 18 L699 -7 L711 -7 L711 122 L704 128 C704 128 710 123 711 122 L711 224 L692 224 L684 192 C663 105 598 32 522 8 L522 8 C493 -1 462 -6 428 -6 C291 -6 196 119 180 314 L488 314 L493 350 L178 350 C177 366 177 383 178 399 L493 399 L498 435 L181 435 C198 629 297 754 440 754 C474 754 503 750 529 742 C602 721 664 647 686 557 L694 525 L710 526 L710 526 Z " />
<glyph glyph-name="F_sc" unicode="&#xa730;" horiz-adv-x="547" d="M52 568 L69 568 C128 568 167 520 167 448 L167 135 C167 63 128 15 69 15 L52 15 L52 0 L335 0 L335 15 L318 15 C259 15 220 63 220 135 L220 299 L231 299 C309 299 369 250 382 176 L386 154 L401 154 L401 448 L386 448 L382 426 C369 352 309 303 231 303 L220 303 L220 581 L300 581 C378 581 444 532 466 458 L473 436 L488 436 C483 480 476 538 471 582 L470 582 L470 583 L52 583 L52 568 L52 568 Z " />
<glyph glyph-name="S_sc" unicode="&#xa731;" horiz-adv-x="485" d="M53 212 L53 -42 L67 -42 L71 -14 C75 15 121 21 187 2 C209 -7 232 -12 256 -13 L256 -10 C368 -15 445 47 445 140 C445 202 390 270 284 319 C172 371 115 426 115 469 C115 541 157 589 220 589 C290 589 351 528 373 437 L382 402 L402 402 L402 621 L388 621 L384 601 C381 583 348 576 299 583 C275 593 248 598 220 598 L220 593 C132 593 74 535 74 448 C74 387 135 319 252 264 C351 218 402 167 402 125 C402 36 332 -18 235 -3 C164 11 103 80 81 175 L72 211 L53 212 L53 212 Z M60 118 L60 118 L60 118 L60 118 Z " />
<glyph glyph-name="X_sc" unicode="&#xf078;" horiz-adv-x="687" d="M679 583 L428 583 L428 568 L447 568 C508 568 521 528 481 468 L373 318 L268 474 C235 530 244 567 295 567 L311 567 L311 582 L63 582 L63 567 L75 567 C116 567 171 525 213 462 L213 462 L335 280 C294 226 254 172 213 119 C166 56 98 14 45 14 L29 14 L29 -1 L279 -1 L279 14 L260 14 C199 14 186 53 226 112 L341 270 L450 107 C483 51 474 14 423 14 L407 14 L407 -1 L655 -1 L655 14 L643 14 C602 14 547 56 505 119 L505 119 L374 314 L490 462 C539 525 608 567 661 567 L677 567 L679 583 L679 583 Z " />
</font>
</svg>
