<?xml version="1.0" encoding="UTF-8"?>
<svg xmlns="http://www.w3.org/2000/svg" xmlns:xlink="http://www.w3.org/1999/xlink" version="1.2" >
<font id="Jerin Regular">
<font-face  font-family="Jerin" units-per-em="1024" ascent="975" descent="-300" font-style="normal" font-weight="400" font-stretch="normal" cap-height="1044" x-height="488" underline-position="-125" underline-thickness="50" />
<missing-glyph  horiz-adv-x="100" d="" />
<glyph glyph-name="NULL" d="" />
<glyph glyph-name="CR" unicode="&#xd;" horiz-adv-x="256" d="" />
<glyph glyph-name="space" unicode="&#x20;" horiz-adv-x="250" d="" />
<glyph glyph-name="exclam" unicode="&#x21;" horiz-adv-x="244" d="M122 -5 C158 -5 182 19 182 55 C182 91 158 115 122 115 C86 115 62 91 62 55 C62 19 86 -5 122 -5 L122 -5 Z M122 755 C81 755 64 713 70 650 L114 210 L130 210 L174 650 C180 713 163 755 122 755 L122 755 Z " />
<glyph glyph-name="quotedbl" unicode="&#x22;" horiz-adv-x="325" d="M212 750 C193 750 181 732 187 705 L217 560 L227 560 L257 705 C263 732 252 750 232 750 L212 750 L212 750 Z M92 750 C73 750 61 732 67 705 L97 560 L107 560 L137 705 C143 732 132 750 112 750 L92 750 L92 750 Z " />
<glyph glyph-name="numbersign" unicode="&#x23;" horiz-adv-x="533" d="M390 667 L364 493 L215 493 L241 667 L231 667 L205 493 L67 493 L58 427 L195 427 L166 233 L26 233 L16 167 L156 167 L131 0 L141 0 L166 167 L315 167 L290 0 L300 0 L325 167 L456 167 L466 233 L335 233 L364 427 L504 427 L513 493 L374 493 L400 667 L390 667 L390 667 Z M205 427 L354 427 L325 233 L176 233 L205 427 L205 427 Z " />
<glyph glyph-name="dollar" unicode="&#x24;" horiz-adv-x="551" d="M50 250 L50 -10 L64 -10 L68 17 C72 45 115 45 176 18 C190 11 205 5 219 -1 L219 -75 L249 -75 L249 -6 C266 -9 282 -10 300 -10 L300 -75 L330 -75 L330 -8 C440 6 512 84 512 196 C512 291 450 378 330 424 L330 733 C382 705 424 647 443 573 L452 540 L472 540 L472 764 L458 764 L454 744 C450 724 413 723 360 741 C350 745 341 750 331 754 L331 825 L301 825 L301 763 C293 765 285 766 277 767 L277 759 C269 759 261 759 253 759 L253 824 L223 824 L223 756 C129 741 68 667 68 562 C68 473 120 392 223 341 L223 16 C161 47 107 124 83 217 L74 250 L50 250 L50 250 Z M303 746 L303 436 C285 444 268 452 253 461 L253 752 C255 752 277 752 277 751 C286 750 295 748 304 746 L303 746 L303 746 Z M254 328 C271 321 289 315 304 308 L304 0 C286 -1 270 1 253 5 L254 328 L254 328 Z M333 293 C401 256 435 211 435 167 C435 83 395 22 333 5 L333 293 L333 293 Z M223 480 C173 516 147 559 147 601 C147 674 176 727 223 745 L223 480 L223 480 Z " />
<glyph glyph-name="ampersand" unicode="&#x26;" horiz-adv-x="345" d="M326 465 C425 497 490 556 490 612 C490 701 420 761 315 761 C213 761 145 697 145 600 C145 560 181 509 238 440 C119 401 40 307 40 201 C40 76 122 -8 245 -8 C333 -8 424 40 507 125 C516 114 525 103 535 92 C585 32 651 -8 700 -8 C770 -8 824 54 835 148 L820 153 C813 98 780 62 736 62 C697 62 646 92 609 136 C593 155 578 173 563 190 C628 273 686 379 730 501 L710 501 C667 384 610 285 545 211 C391 394 363 422 326 467 L326 465 L326 465 Z M318 477 C258 550 220 603 220 646 C220 704 258 742 315 742 C377 742 419 692 419 618 C419 555 379 499 319 477 L318 477 L318 477 Z M486 152 C424 100 358 71 294 71 C195 71 129 133 129 226 C129 322 174 402 244 432 C291 375 314 353 484 151 L486 152 L486 152 Z " />
<glyph glyph-name="quotesingle" unicode="&#x27;" horiz-adv-x="204" d="M92 750 C73 750 61 732 67 705 L97 560 L107 560 L137 705 C143 732 132 750 112 750 L92 750 L92 750 Z " />
<glyph glyph-name="parenleft" unicode="&#x28;" horiz-adv-x="470" d="M320 760 C188 671 100 476 100 273 C100 77 185 -118 313 -214 L318 -205 C223 -134 160 58 160 273 C160 492 226 683 325 750 L320 760 L320 760 Z " />
<glyph glyph-name="parenright" unicode="&#x29;" horiz-adv-x="470" d="M25 750 C160 662 250 472 250 273 C250 72 163 -119 32 -204 L37 -214 C201 -108 310 87 310 273 C310 456 198 651 30 760 L25 750 L25 750 Z " />
<glyph glyph-name="asterisk" unicode="&#x2a;" horiz-adv-x="296" d="M267 665 C286 672 292 687 282 704 C272 721 256 723 241 710 C241 710 259 679 267 665 L267 665 Z M241 546 C256 533 272 535 282 552 C292 569 286 584 267 591 C267 591 249 560 241 546 L241 546 Z M59 546 L148 626 L124 510 C120 490 130 477 150 477 C170 477 180 490 176 510 L152 627 L240 547 L266 592 L153 629 L266 666 L240 711 L151 631 L176 750 C180 770 170 783 150 783 C130 783 120 770 124 750 L149 631 L59 712 L33 667 C41 681 59 712 59 712 C44 725 28 723 18 706 C8 688 14 673 33 666 L33 667 C72 654 111 642 149 629 L33 591 C14 584 8 569 18 552 C28 534 44 532 59 545 L59 546 L59 546 Z " />
<glyph glyph-name="plus" unicode="&#x2b;" horiz-adv-x="620" d="M277 460 L277 280 L100 280 L100 220 L277 220 L277 40 L343 40 L343 220 L520 220 L520 280 L343 280 L343 460 L277 460 L277 460 Z " />
<glyph glyph-name="comma" unicode="&#x2c;" horiz-adv-x="260" d="M171 29 C188 -49 141 -105 66 -105 L66 -112 C141 -112 191 -63 191 11 C191 63 173 101 144 112 C139 114 133 115 127 115 C91 115 67 91 67 55 C67 19 91 -5 127 -5 C149 -5 166 8 173 29 L171 29 L171 29 Z " />
<glyph glyph-name="hyphen" unicode="&#x2d;" horiz-adv-x="430" d="M80 250 L350 250 L350 320 L80 320 L80 250 L80 250 Z " />
<glyph glyph-name="period" unicode="&#x2e;" horiz-adv-x="195" d="M125 -5 C161 -5 185 19 185 55 C185 91 161 115 125 115 C89 115 65 91 65 55 C65 19 89 -5 125 -5 L125 -5 Z " />
<glyph glyph-name="slash" unicode="&#x2f;" horiz-adv-x="389" d="M309 770 L27 -80 L77 -80 L359 770 L309 770 L309 770 Z " />
<glyph glyph-name="zero" unicode="0" horiz-adv-x="610" d="M85 250 C85 372 173 475 305 475 C424 475 525 385 525 250 C525 128 437 25 305 25 C186 25 85 115 85 250 L85 250 Z M45 250 C45 94 165 -10 305 -10 C461 -10 565 110 565 250 C565 406 445 510 305 510 C149 510 45 390 45 250 L45 250 Z " />
<glyph glyph-name="one" unicode="1" horiz-adv-x="396" d="M336 15 L322 15 C273 15 241 55 241 115 L241 385 C241 445 273 485 322 485 L336 485 L336 500 L60 500 L60 485 L74 485 C123 485 155 445 155 385 L155 115 C155 55 123 15 74 15 L60 15 L60 0 L336 0 L336 15 L336 15 Z " />
<glyph glyph-name="two" unicode="2" horiz-adv-x="541" d="M61 290 C79 383 145 445 226 445 C304 445 356 397 356 325 C356 238 263 152 136 74 C125 71 113 63 101 54 C74 39 46 24 17 9 L27 1 C24 0 21 -1 18 -1 L430 -1 L477 75 C494 99 511 124 525 144 C525 146 518 150 519 150 L510 139 C480 101 415 75 346 75 L170 75 C326 166 441 261 441 344 C441 443 373 509 270 509 C160 509 69 423 44 293 L61 290 L61 290 Z " />
<glyph glyph-name="three" unicode="3" horiz-adv-x="435" d="M17 -215 L20 -232 C245 -208 395 -113 395 7 C395 107 310 176 178 188 C302 250 380 317 380 386 C380 460 315 510 217 510 C121 510 42 446 20 351 L39 346 C53 408 111 450 183 450 C247 450 289 412 289 356 C289 290 232 235 143 190 C132 190 131 190 125 181 C117 177 108 173 99 169 L99 151 C101 152 103 153 105 154 C103 153 101 152 99 152 C222 135 304 67 304 -17 C304 -118 189 -197 17 -215 L17 -215 Z " />
<glyph glyph-name="four" unicode="4" horiz-adv-x="620" d="M600 145 L596 133 C586 92 541 65 484 65 L415 65 L415 530 L404 530 L15 15 L15 0 L330 0 L330 -220 L415 -220 L415 0 L475 0 C532 0 570 -22 569 -55 L570 -65 C570 -65 582 -69 586 -69 C591 -38 597 2 601 33 L600 33 C605 66 611 108 616 141 C612 142 600 145 600 145 L600 145 Z M92 64 L330 381 L330 65 L93 65 L92 64 L92 64 Z " />
<glyph glyph-name="five" unicode="5" horiz-adv-x="436" d="M60 -234 C268 -209 406 -95 406 50 C406 186 281 277 94 277 L75 277 L102 423 L343 426 L354 489 C359 515 365 543 369 566 L353 566 L349 556 C338 523 293 501 236 501 L86 501 L31 202 L47 188 L85 188 C233 188 331 122 331 22 C331 -101 222 -197 59 -217 L60 -234 L60 -234 Z " />
<glyph glyph-name="six" unicode="6" horiz-adv-x="568" d="M550 750 C250 686 50 503 50 291 C50 110 146 -10 290 -10 C425 -10 515 90 515 239 C515 373 427 462 294 462 C236 462 189 439 158 399 C212 568 357 697 552 738 L550 750 L550 750 Z M134 247 C134 372 196 455 290 455 C373 455 429 371 429 244 C429 97 373 -1 288 -1 C196 -1 134 98 134 247 L134 247 Z " />
<glyph glyph-name="seven" unicode="7" horiz-adv-x="442" d="M33 361 L40 372 C61 407 113 431 170 431 L403 431 L408 439 L109 -220 L174 -220 L437 485 L437 500 L200 500 C143 500 111 519 121 548 L123 557 C123 557 114 565 111 566 C102 547 91 523 80 500 L80 500 L76 490 C72 481 68 472 64 464 L65 464 L50 430 C50 430 22 371 21 368 C24 366 33 360 33 360 L33 361 L33 361 Z " />
<glyph glyph-name="eight" unicode="8" horiz-adv-x="542" d="M212 375 C223 369 234 364 246 359 C359 313 435 271 435 208 C435 81 369 -4 270 -4 C176 -4 114 67 114 174 C114 260 152 336 212 375 L212 375 Z M203 380 C104 331 40 253 40 175 C40 65 132 -9 271 -9 C410 -9 503 64 503 174 C503 304 433 369 325 420 C418 466 477 534 477 599 C477 696 394 761 269 761 C147 761 66 689 66 581 C66 497 119 427 203 381 L203 380 L203 380 Z M314 424 C303 429 291 434 279 439 C192 474 134 537 134 613 C134 699 190 757 274 757 C352 757 404 691 404 591 C404 522 369 460 314 425 L314 424 L314 424 Z " />
<glyph glyph-name="nine" unicode="9" horiz-adv-x="568" d="M18 -250 C318 -186 518 -3 518 209 C518 390 422 510 278 510 C143 510 53 410 53 261 C53 127 141 38 274 38 C332 38 379 61 410 101 C356 -68 211 -197 16 -238 L18 -250 L18 -250 Z M434 253 C434 128 372 45 278 45 C195 45 139 129 139 256 C139 403 195 501 280 501 C372 501 434 402 434 253 L434 253 Z " />
<glyph glyph-name="colon" unicode="&#x3a;" horiz-adv-x="135" d="M125 385 C161 385 185 409 185 445 C185 481 161 505 125 505 C89 505 65 481 65 445 C65 409 89 385 125 385 L125 385 Z M125 -5 C161 -5 185 19 185 55 C185 91 161 115 125 115 C89 115 65 91 65 55 C65 19 89 -5 125 -5 L125 -5 Z " />
<glyph glyph-name="semicolon" unicode="&#x3b;" horiz-adv-x="260" d="M125 385 C161 385 185 409 185 445 C185 481 161 505 125 505 C89 505 65 481 65 445 C65 409 89 385 125 385 L125 385 Z M171 29 C188 -49 141 -105 66 -105 L66 -112 C141 -112 191 -63 191 11 C191 63 173 101 144 112 C139 114 133 115 127 115 C91 115 67 91 67 55 C67 19 91 -5 127 -5 C149 -5 166 8 173 29 L171 29 L171 29 Z " />
<glyph glyph-name="equal" unicode="&#x3d;" horiz-adv-x="533" d="M83 219 L83 181 L463 181 L463 219 L83 219 L83 219 Z M83 319 L83 281 L463 281 L463 319 L83 319 L83 319 Z " />
<glyph glyph-name="question" unicode="&#x3f;" horiz-adv-x="299" d="M125 -5 C161 -5 185 19 185 55 C185 91 161 115 125 115 C89 115 65 91 65 55 C65 19 89 -5 125 -5 L125 -5 Z M125 210 L125 360 C218 360 251 394 285 444 C303 471 315 515 315 555 C315 678 247 760 145 760 C97 760 65 735 65 697 C65 672 83 655 111 655 C131 655 157 670 176 670 C244 670 289 620 289 545 C289 529 280 505 266 485 C248 458 222 440 97 440 C104 442 109 210 109 210 L125 210 L125 210 Z " />
<glyph glyph-name="at" unicode="&#x40;" horiz-adv-x="1160" d="M1041 0 C974 -143 794 -238 591 -238 C310 -238 122 -39 122 259 C122 556 305 754 580 754 C855 754 1038 590 1038 343 C1038 141 965 7 855 7 C760 7 716 84 745 200 L815 480 L735 480 L716 403 C699 457 651 490 585 490 C407 490 289 371 289 192 C289 82 360 8 466 8 C548 8 619 49 659 116 C669 31 735 -22 841 -22 C1000 -22 1106 124 1106 343 C1106 604 896 778 581 778 C266 778 56 570 56 259 C56 -48 278 -253 611 -253 C816 -253 999 -152 1070 0 L1041 0 L1041 0 Z M705 356 L666 200 C644 113 582 55 511 55 C434 55 383 116 383 208 C383 363 463 466 584 466 C657 466 705 422 705 356 L705 356 Z " />
<glyph glyph-name="A" unicode="A" horiz-adv-x="808" d="M453 0 L802 0 L802 19 L786 19 C733 19 678 78 649 167 L472 720 C472 720 461 770 456 770 L446 770 C450 747 420 727 372 720 C373 717 374 713 375 710 L209 157 C180 74 115 19 44 19 L23 19 L23 0 L316 0 L316 19 L295 19 C224 19 194 79 221 169 L257 292 L505 292 C518 251 531 210 543 169 C571 79 543 19 472 19 L451 19 L453 0 L453 0 Z M259 300 L377 700 L502 300 L259 300 L259 300 Z " />
<glyph glyph-name="B" unicode="B" horiz-adv-x="695" d="M365 3 L315 3 C279 3 255 78 255 191 L255 385 L380 385 C478 385 544 309 544 195 C544 39 472 3 365 3 L365 3 Z M60 731 L74 731 C123 731 155 691 155 631 L155 119 C155 59 123 19 74 19 L60 19 L60 0 L375 0 C543 0 655 37 655 195 C655 306 563 382 422 389 C547 407 627 475 627 570 C627 678 572 750 340 750 L60 750 L60 731 L60 731 Z M352 390 L255 390 L255 744 L327 744 C489 744 527 670 527 560 C527 458 457 390 352 390 L352 390 Z " />
<glyph glyph-name="C" unicode="C" horiz-adv-x="740" d="M684 131 L684 131 L684 131 L684 131 Z M696 -9 L696 231 L676 231 L667 200 C645 123 591 55 527 22 C491 5 452 -4 408 -4 C259 -4 160 147 160 374 C160 600 264 751 419 751 C458 751 492 744 522 732 C588 704 645 633 668 549 L677 518 L697 518 L697 755 L683 755 L679 732 C675 706 636 704 580 727 C561 736 536 744 515 751 L514 749 C486 755 454 758 417 758 C197 758 50 604 50 373 C50 142 192 -12 406 -12 C445 -12 479 -8 510 -1 L511 -4 C518 -2 525 1 533 5 C545 9 557 13 568 18 C630 45 675 43 679 13 L683 -11 L696 -9 L696 -9 Z " />
<glyph glyph-name="D" unicode="D" horiz-adv-x="863" d="M326 6 C262 6 255 77 255 183 L255 744 L350 744 C579 744 697 596 697 375 C697 131 549 6 326 6 L326 6 Z M60 735 L74 735 C123 735 155 695 155 635 L155 115 C155 55 123 15 74 15 L60 15 L60 0 L335 0 C619 0 808 128 808 375 C808 600 661 750 375 750 L60 750 L60 735 L60 735 Z " />
<glyph glyph-name="E" unicode="E" horiz-adv-x="667" d="M40 735 L57 735 C116 735 155 687 155 615 L155 135 C155 63 116 15 57 15 L40 15 L40 0 L590 0 L591 4 L590 4 C590 7 612 130 614 142 L599 142 L591 122 C568 58 498 14 413 8 C271 15 255 83 255 183 L255 385 L334 385 C412 385 472 336 485 262 L489 240 L504 240 L504 385 L505 385 L505 392 L504 392 L504 537 L489 537 L485 515 C472 441 412 392 334 392 L255 392 L255 743 L395 743 C474 743 540 694 562 620 L569 598 L584 598 C578 643 571 702 565 747 L565 750 L40 750 L40 735 L40 735 Z " />
<glyph glyph-name="F" unicode="F" horiz-adv-x="642" d="M40 735 L57 735 C116 735 155 687 155 615 L155 135 C155 63 116 15 57 15 L40 15 L40 0 L370 0 L370 15 L353 15 C294 15 255 63 255 135 L255 385 L326 385 C404 385 464 336 477 262 L481 240 L496 240 L496 537 L481 537 L477 515 C464 441 404 392 326 392 L255 392 L255 745 L396 745 C474 745 540 696 562 622 L569 600 L584 600 C579 644 572 704 567 748 L565 748 L565 750 L40 750 L40 735 L40 735 Z " />
<glyph glyph-name="G" unicode="G" horiz-adv-x="830" d="M696 519 L696 756 L682 756 L678 733 C674 707 635 705 579 728 C560 737 535 745 514 752 L513 750 C485 756 453 759 416 759 C196 759 49 605 49 374 C49 143 195 -11 413 -11 C515 -11 596 4 668 28 L678 30 L678 31 C703 40 727 50 751 61 L748 65 C727 55 704 46 678 38 L678 170 C678 251 714 305 767 305 L783 305 L783 324 L473 324 L473 305 L489 305 C542 305 578 251 578 170 L579 170 C579 150 579 130 579 111 C577 50 518 10 430 10 C269 10 161 156 161 375 C161 601 265 752 420 752 C459 752 493 745 523 733 C589 705 646 634 669 550 L678 519 L696 519 L696 519 Z " />
<glyph glyph-name="H" unicode="H" horiz-adv-x="881" d="M821 15 L807 15 C758 15 726 55 726 115 L726 635 C726 695 758 735 807 735 L821 735 L821 750 L531 750 L531 735 L545 735 C594 735 626 695 626 635 L626 391 L291 391 L291 635 C291 695 323 735 372 735 L386 735 L386 750 L96 750 L96 735 L110 735 C159 735 191 695 191 635 L191 115 C191 55 159 15 110 15 L96 15 L96 0 L386 0 L386 15 L372 15 C323 15 291 55 291 115 L291 383 L626 383 L626 115 C626 55 594 15 545 15 L531 15 L531 0 L821 0 L821 15 L821 15 Z " />
<glyph glyph-name="I" unicode="I" horiz-adv-x="405" d="M345 15 L331 15 C282 15 250 55 250 115 L250 635 C250 695 282 735 331 735 L345 735 L345 750 L55 750 L55 735 L69 735 C118 735 150 695 150 635 L150 115 C150 55 118 15 69 15 L55 15 L55 0 L345 0 L345 15 L345 15 Z " />
<glyph glyph-name="J" unicode="J" horiz-adv-x="405" d="M345 750 L55 750 L55 735 L69 735 C118 735 150 695 150 635 L150 -73 C150 -187 82 -209 33 -209 C-16 -209 8 -129 -42 -129 C-69 -129 -87 -147 -87 -174 C-87 -202 -42 -220 25 -220 C120 -220 250 -166 250 117 L250 635 C250 695 282 735 331 735 L345 735 L345 750 L345 750 Z " />
<glyph glyph-name="K" unicode="K" horiz-adv-x="795" d="M350 750 L60 750 L60 735 L74 735 C123 735 155 695 155 635 L155 115 C155 55 123 15 74 15 L60 15 L60 0 L350 0 L350 15 L336 15 C287 15 255 55 255 115 L255 375 L570 0 L782 0 L782 15 L768 15 C722 15 662 50 614 103 L334 437 C386 498 438 559 491 620 C550 689 628 735 687 735 L704 735 L704 750 L397 750 L397 735 L420 735 C498 735 500 675 427 585 L427 585 L256 375 L256 635 C256 695 288 735 337 735 L351 735 L350 750 L350 750 Z " />
<glyph glyph-name="L" unicode="L" horiz-adv-x="670" d="M345 750 L55 750 L55 735 L69 735 C118 735 150 695 150 635 L150 115 C150 55 118 15 69 15 L55 15 L55 0 L585 0 L586 9 L585 9 L585 14 C592 56 601 111 609 152 L594 152 L586 132 C563 67 493 23 408 18 C266 25 250 89 250 184 L250 636 C250 696 282 736 331 736 L345 736 L345 750 L345 750 Z " />
<glyph glyph-name="M" unicode="M" horiz-adv-x="920" d="M619 0 L909 0 L909 15 L894 15 C849 15 816 51 811 105 C806 282 800 459 795 635 C793 695 824 735 872 735 L886 735 L886 750 L696 750 L489 130 L262 750 L53 750 L53 735 L67 735 C102 735 137 715 163 681 L145 103 C139 50 107 15 61 15 L46 15 L46 0 L271 0 L271 15 L257 15 C209 15 177 55 178 115 L187 636 C273 424 359 212 445 0 L470 0 L697 656 C702 476 707 295 711 115 C713 55 681 15 633 15 L619 15 L619 0 L619 0 Z " />
<glyph glyph-name="N" unicode="N" horiz-adv-x="806" d="M-12 735 L2 735 C48 735 107 699 149 646 L148 115 L148 115 C148 55 115 15 67 15 L53 15 L53 0 L274 0 L274 15 L260 15 C214 15 182 50 178 103 L175 610 C324 407 474 204 623 0 L643 0 C645 212 647 424 650 635 C651 695 683 735 732 735 L746 735 L746 750 L525 750 L525 735 L539 735 C588 735 620 695 620 635 L620 635 L622 170 C482 365 339 557 197 750 L-12 750 L-12 735 L-12 735 Z " />
<glyph glyph-name="O" unicode="O" horiz-adv-x="851" d="M159 375 C159 601 262 752 417 752 C579 752 687 601 687 375 C687 149 576 -2 410 -2 C259 -2 159 149 159 375 L159 375 Z M50 375 C50 144 193 -10 408 -10 C641 -10 796 144 796 375 C796 606 645 760 418 760 C197 760 50 606 50 375 L50 375 Z " />
<glyph glyph-name="P" unicode="P" horiz-adv-x="639" d="M375 15 L361 15 C312 15 280 55 280 115 L280 344 L330 344 C503 344 619 404 619 539 C619 666 523 750 380 750 L85 750 L85 735 L99 735 C148 735 180 695 180 635 L180 115 C180 55 148 15 99 15 L85 15 L85 0 L375 0 L375 15 L375 15 Z M280 365 L280 733 L355 733 C456 733 524 662 524 555 C524 424 446 365 330 365 L280 365 L280 365 Z " />
<glyph glyph-name="Q" unicode="Q" horiz-adv-x="846" d="M1146 -50 L1144 -47 C1113 -73 986 -90 825 -90 C629 -90 447 -57 354 -7 C372 -9 390 -10 409 -10 C642 -10 797 144 797 375 C797 606 646 760 419 760 C198 760 51 606 51 375 C51 209 125 83 246 25 C403 -85 630 -157 814 -157 C937 -157 1070 -114 1147 -50 L1146 -50 L1146 -50 Z M332 7 C227 48 160 185 160 375 C160 601 263 752 418 752 C580 752 688 601 688 375 C688 146 574 -6 402 -6 C377 -6 354 -2 332 7 L332 7 L332 7 Z " />
<glyph glyph-name="R" unicode="R" horiz-adv-x="816" d="M60 735 L74 735 C123 735 155 695 155 635 L155 115 C155 55 123 15 74 15 L60 15 L60 0 L350 0 L350 15 L336 15 C287 15 255 55 255 115 L255 355 L356 355 C377 318 450 213 549 75 C601 3 611 0 806 0 L806 15 C713 15 707 17 666 75 C565 216 490 321 459 364 C559 385 621 441 621 538 C621 665 517 750 360 750 L60 750 L60 735 L60 735 Z M255 380 L255 730 L330 730 C438 730 510 661 510 558 C510 435 450 380 360 380 L255 380 L255 380 Z " />
<glyph glyph-name="S" unicode="S" horiz-adv-x="551" d="M50 250 L50 -10 L64 -10 L68 17 C72 45 115 45 176 18 C194 9 214 0 233 -6 L234 -3 C253 -8 272 -10 292 -10 C423 -10 511 72 511 196 C511 293 447 382 322 427 C204 470 143 536 143 601 C143 699 192 759 273 751 C349 744 416 673 442 573 L451 540 L471 540 L471 764 L457 764 L453 744 C449 724 407 722 356 741 C330 755 302 764 273 767 L273 759 C147 767 64 687 64 563 C64 462 131 371 262 323 C374 282 431 224 431 167 C431 47 349 -27 238 9 C169 32 105 115 79 217 L70 250 L50 250 L50 250 Z " />
<glyph glyph-name="T" unicode="T" horiz-adv-x="775" d="M687 805 L683 797 C671 769 612 750 534 750 L241 750 C163 750 104 769 92 797 L88 805 L77 805 C69 785 59 760 50 738 L55 738 L55 734 C37 691 14 634 -3 592 L12 592 L24 612 C65 681 146 727 227 727 L337 727 L337 117 C337 57 305 17 256 17 L242 17 L242 2 L533 2 L533 17 L519 17 C470 17 438 57 438 117 L438 727 L548 727 C629 727 710 681 751 612 L763 592 L778 592 C761 634 738 691 720 734 L720 738 L725 738 C724 741 720 747 720 751 L720 751 C713 769 705 790 699 806 L687 805 L687 805 Z " />
<glyph glyph-name="U" unicode="U" horiz-adv-x="780" d="M750 54 L736 50 C687 37 655 68 655 128 L655 750 L460 750 L460 735 L474 735 C523 735 555 695 555 635 L555 190 C517 109 433 55 344 55 C270 55 220 121 220 220 L220 750 L25 750 L25 735 L39 735 C88 735 120 695 120 635 L120 220 C120 82 194 -10 304 -10 C411 -10 512 52 555 145 L555 0 L605 0 C621 4 639 8 655 13 C687 22 721 31 749 39 L750 54 L750 54 Z " />
<glyph glyph-name="V" unicode="V" horiz-adv-x="839" d="M804 750 L511 750 L511 731 L534 731 C608 731 639 677 614 595 L444 135 L261 589 C229 675 252 731 320 731 L341 731 L341 750 L4 750 L4 731 L16 731 C58 731 108 677 145 595 C227 393 309 191 391 -11 L411 -11 L647 586 C683 673 740 731 790 731 L805 731 L804 750 L804 750 Z " />
<glyph glyph-name="W" unicode="W" horiz-adv-x="1181" d="M1139 750 L846 750 L846 731 L868 731 C941 731 978 684 963 613 L831 138 L662 605 C636 681 662 731 729 731 L749 731 L749 750 L416 750 L416 731 L430 731 C475 731 524 681 554 605 L594 500 L450 121 C391 281 332 441 273 601 C244 679 264 731 321 731 L338 731 L338 750 L29 750 L29 731 L42 731 C85 731 134 679 164 601 L164 601 C243 397 322 193 400 -11 L425 -11 L610 456 C670 300 730 144 790 -11 L815 -11 C875 193 935 397 996 600 C1019 678 1070 730 1124 730 L1139 730 L1139 750 L1139 750 Z " />
<glyph glyph-name="X" unicode="X" horiz-adv-x="848" d="M475 0 L779 0 L779 15 L767 15 C729 15 679 52 639 108 L440 416 C497 487 554 559 612 630 C663 693 732 735 785 735 L801 735 L801 750 L528 750 L528 735 L547 735 C607 735 622 697 585 639 L434 425 C390 493 345 562 302 630 C261 693 270 735 323 735 L339 735 L339 750 L35 750 L35 735 L47 735 C85 735 135 698 175 642 L363 351 L187 107 C143 52 83 16 33 16 L17 16 L17 1 L286 1 L286 16 L266 16 C203 16 190 58 233 121 L233 121 L377 332 C422 262 469 191 513 121 C554 58 545 16 492 16 L476 16 L475 0 L475 0 Z " />
<glyph glyph-name="Y" unicode="Y" horiz-adv-x="771" d="M322 750 L17 750 L17 735 L29 735 C70 735 123 693 161 630 L161 630 L349 322 L349 135 C349 63 310 15 251 15 L234 15 L234 0 L565 0 L565 15 L548 15 C489 15 450 63 450 135 L450 335 L610 635 C644 695 700 735 752 735 L768 735 L768 750 L520 750 L520 735 L542 735 C605 735 625 693 593 630 L593 630 L447 345 L275 635 C242 695 254 735 306 735 L322 735 L322 750 L322 750 Z " />
<glyph glyph-name="Z" unicode="Z" horiz-adv-x="657" d="M71 587 L77 608 C95 674 164 720 252 724 L501 728 L24 20 L24 0 L605 0 L608 15 L608 15 L643 165 L628 165 L619 144 C590 75 509 29 415 27 L415 27 L141 22 L608 730 L608 750 L68 750 L65 722 L66 722 C64 699 60 650 54 586 L71 587 L71 587 Z " />
<glyph glyph-name="bracketleft" unicode="&#x5b;" horiz-adv-x="295" d="M135 725 L345 725 L345 750 L104 750 L104 -195 L345 -195 L345 -170 L135 -170 L135 725 L135 725 Z " />
<glyph glyph-name="backslash" unicode="&#x5c;" horiz-adv-x="347" d="M27 770 L287 -80 L337 -80 L77 770 L27 770 L27 770 Z " />
<glyph glyph-name="bracketright" unicode="&#x5d;" horiz-adv-x="298" d="M157 725 L157 -170 L-53 -170 L-53 -195 L188 -195 L188 750 L-53 750 L-53 725 L157 725 L157 725 Z " />
<glyph glyph-name="asciicircum" unicode="&#x5e;" horiz-adv-x="340" d="M200 755 C194 764 180 785 170 785 C160 785 146 764 140 755 L18 566 L30 556 L170 695 L310 556 L322 566 L200 755 L200 755 Z " />
<glyph glyph-name="underscore" unicode="&#x5f;" horiz-adv-x="455" d="M5 -50 L5 -97 L450 -97 L450 -50 L5 -50 L5 -50 Z " />
<glyph glyph-name="grave" unicode="&#x60;" horiz-adv-x="340" d="M-34 746 C-34 738 -8 714 30 682 L172 562 L183 573 L69 721 C39 761 16 788 8 788 C-15 788 -34 769 -34 746 L-34 746 Z " />
<glyph glyph-name="a" unicode="a" horiz-adv-x="512" d="M522 103 L514 107 C509 76 485 56 454 56 C422 56 400 74 400 102 L400 355 C400 462 344 510 259 510 C143 510 65 414 65 360 C65 324 85 300 114 300 C141 300 159 325 159 343 C159 361 139 384 139 402 C139 438 183 502 250 502 C289 502 315 466 315 386 L315 265 C97 198 45 173 45 89 C45 30 90 -9 158 -9 C199 -9 251 17 316 84 C324 31 364 -4 420 -4 C470 -4 512 39 523 104 L522 103 L522 103 Z M316 260 L316 103 C316 98 316 93 316 89 C277 51 239 36 204 36 C160 36 131 61 131 98 C131 190 167 213 316 259 L316 260 L316 260 Z " />
<glyph glyph-name="b" unicode="b" horiz-adv-x="583" d="M10 709 L21 709 C59 710 85 674 85 617 L85 0 L90 0 L120 64 C160 18 226 -10 301 -10 C443 -10 538 95 538 253 C538 404 447 505 311 505 C262 505 208 475 170 428 L170 750 L128 750 L128 751 C115 747 100 743 85 739 C59 732 32 725 10 719 L10 709 L10 709 Z M170 110 L170 413 C202 452 246 477 283 477 C378 477 442 383 442 242 C442 99 387 3 304 3 C247 3 195 46 170 111 L170 110 L170 110 Z " />
<glyph glyph-name="c" unicode="c" horiz-adv-x="504" d="M474 128 L470 130 C439 60 370 13 299 13 C200 13 134 117 134 273 C134 412 200 504 300 504 C332 504 367 464 389 405 C398 379 416 362 432 362 C467 362 483 379 474 405 C451 468 382 510 302 510 C148 510 45 400 45 236 C45 88 141 -10 285 -10 C362 -10 437 45 474 128 L474 128 Z " />
<glyph glyph-name="d" unicode="d" horiz-adv-x="610" d="M595 51 L581 47 C532 34 500 65 500 125 L500 750 L458 750 L415 739 L415 737 C389 730 362 723 340 717 L340 707 L351 707 C389 708 415 672 415 615 L415 431 C384 477 334 510 280 510 C125 510 45 406 45 251 C45 97 130 -5 257 -5 C317 -5 379 25 415 71 L415 0 L457 0 L457 -1 C498 10 554 25 595 36 L595 51 L595 51 Z M415 375 L415 81 C389 51 341 31 291 31 C195 31 131 129 131 276 C131 402 185 486 289 486 C344 486 396 435 414 376 L415 375 L415 375 Z " />
<glyph glyph-name="e" unicode="e" horiz-adv-x="540" d="M140 340 L510 340 C488 462 408 510 301 510 C147 510 45 432 45 231 C45 86 138 -10 278 -10 C375 -10 461 48 492 134 L489 135 C463 63 382 15 287 15 C196 15 135 115 135 266 C135 293 137 318 140 340 L140 340 Z M414 348 L141 346 C159 458 218 504 299 504 C350 504 392 460 413 348 L414 348 L414 348 Z " />
<glyph glyph-name="f" unicode="f" horiz-adv-x="378" d="M290 15 L279 15 C241 15 215 41 215 80 L215 455 L368 455 L368 500 L215 500 C215 637 251 729 320 729 C363 729 404 635 440 635 C467 635 485 653 485 680 C485 725 431 755 350 755 C205 755 130 653 130 500 L36 465 L36 455 L130 455 L130 80 C130 41 104 15 66 15 L55 15 L55 0 L290 0 L290 15 L290 15 Z " />
<glyph glyph-name="g" unicode="g" horiz-adv-x="520" d="M541 479 C541 510 519 530 486 530 C452 530 415 503 391 461 C359 492 312 510 255 510 C147 510 75 446 75 350 C75 266 129 206 213 191 C116 184 54 151 54 104 C54 50 89 12 145 2 C84 -17 45 -54 45 -94 C45 -175 133 -229 265 -229 C397 -229 485 -164 485 -67 C485 24 433 85 299 85 C264 85 199 86 181 86 C135 86 105 104 105 131 C105 166 165 189 255 189 C363 189 435 254 435 351 C435 394 421 430 396 457 C407 469 422 476 437 476 C458 476 485 442 506 442 C528 442 542 457 542 479 L541 479 L541 479 Z M256 194 C199 194 161 256 161 350 C161 442 199 504 256 504 C313 504 351 442 351 350 C351 256 313 194 256 194 L256 194 Z M157 0 C187 -4 243 -1 291 -1 C380 -1 414 -36 414 -89 C414 -171 355 -225 267 -225 C176 -225 116 -165 116 -76 C116 -43 131 -15 156 -1 L157 0 L157 0 Z " />
<glyph glyph-name="h" unicode="h" horiz-adv-x="609" d="M19 709 L30 709 C68 710 94 674 94 617 L94 80 C94 41 68 15 30 15 L19 15 L19 0 L254 0 L254 15 L243 15 C205 15 179 41 179 80 L179 377 C204 421 263 450 325 450 C387 450 419 402 419 330 L419 80 C419 41 393 15 355 15 L344 15 L344 0 L579 0 L579 15 L568 15 C530 15 504 41 504 80 L504 330 C504 438 460 510 374 510 C300 510 222 460 179 385 L179 750 L137 750 L137 751 C124 747 109 743 94 739 C68 732 41 725 19 719 L19 709 L19 709 Z " />
<glyph glyph-name="i" unicode="i" horiz-adv-x="294" d="M147 615 C180 615 202 637 202 670 C202 703 180 725 147 725 C113 725 91 703 91 670 C91 637 113 615 147 615 L147 615 Z M29 459 L40 459 C78 460 104 424 104 367 L104 80 C104 41 78 15 40 15 L29 15 L29 0 L264 0 L264 15 L253 15 C215 15 189 41 189 80 L189 500 L147 500 L147 501 C134 497 119 493 104 489 C78 482 51 475 29 469 L29 459 L29 459 Z " />
<glyph glyph-name="j" unicode="j" horiz-adv-x="280" d="M148 615 C181 615 203 637 203 670 C203 703 181 725 148 725 C114 725 92 703 92 670 C92 637 114 615 148 615 L148 615 Z M30 459 L41 459 C79 460 105 424 105 367 L105 50 C105 -38 87 -107 59 -123 C26 -123 -17 -100 -50 -100 C-77 -100 -95 -116 -95 -140 C-95 -169 -71 -187 -35 -185 C-28 -185 14 -163 70 -130 C142 -88 190 -16 190 50 L190 500 L148 500 L148 501 C135 497 120 493 105 489 C79 482 52 475 30 469 L30 459 L30 459 Z " />
<glyph glyph-name="k" unicode="k" horiz-adv-x="584" d="M19 709 L30 709 C68 710 94 674 94 617 L94 80 C94 41 68 15 30 15 L19 15 L19 0 L254 0 L254 15 L243 15 C205 15 179 41 179 80 L179 280 L331 99 C372 48 379 15 348 15 L339 15 L339 0 L572 0 L572 15 C532 15 491 44 440 101 L255 324 L333 383 C419 445 504 485 550 485 L564 485 L564 500 L286 500 L286 485 L311 485 C395 485 371 425 252 335 L179 280 L179 750 L137 750 L137 751 C124 747 109 743 94 739 C68 732 41 725 19 719 L19 709 L19 709 Z " />
<glyph glyph-name="l" unicode="l" horiz-adv-x="284" d="M19 709 L30 709 C68 710 94 674 94 617 L94 80 C94 41 68 15 30 15 L19 15 L19 0 L254 0 L254 15 L243 15 C205 15 179 41 179 80 L179 750 L137 750 L137 751 C124 747 109 743 94 739 C68 732 41 725 19 719 L19 709 L19 709 Z " />
<glyph glyph-name="m" unicode="m" horiz-adv-x="894" d="M19 459 L30 459 C68 460 94 424 94 367 L94 80 C94 41 68 15 30 15 L19 15 L19 0 L254 0 L254 15 L243 15 C205 15 179 41 179 80 L179 382 C202 421 255 447 312 447 C375 447 399 400 399 330 L399 80 C399 41 373 15 335 15 L324 15 L324 0 L559 0 L559 15 L548 15 C510 15 484 41 484 80 L484 330 C484 349 483 367 480 384 C504 422 558 447 617 447 C680 447 704 400 704 330 L704 80 C704 41 678 15 640 15 L629 15 L629 0 L864 0 L864 15 L853 15 C815 15 789 41 789 80 L789 330 C789 438 751 510 652 510 C590 510 521 462 479 390 C466 464 426 510 347 510 C288 510 221 462 179 390 L179 500 L137 500 L137 501 C124 497 109 493 94 489 C68 482 41 475 19 469 L19 459 L19 459 Z " />
<glyph glyph-name="n" unicode="n" horiz-adv-x="589" d="M19 459 L30 459 C68 460 94 424 94 367 L94 80 C94 41 68 15 30 15 L19 15 L19 0 L254 0 L254 15 L243 15 C205 15 179 41 179 80 L179 370 C212 427 268 465 319 465 C372 465 399 411 399 330 L399 80 C399 41 373 15 335 15 L324 15 L324 0 L559 0 L559 15 L548 15 C510 15 484 41 484 80 L484 330 C484 438 437 510 347 510 C290 510 222 460 179 385 L179 500 L137 500 L137 501 C124 497 109 493 94 489 C68 482 41 475 19 469 L19 459 L19 459 Z " />
<glyph glyph-name="o" unicode="o" horiz-adv-x="614" d="M139 250 C139 401 206 502 307 502 C407 502 474 401 474 250 C474 99 407 -2 307 -2 C206 -2 139 99 139 250 L139 250 Z M45 250 C45 94 150 -10 307 -10 C464 -10 569 94 569 250 C569 406 464 510 307 510 C150 510 45 406 45 250 L45 250 Z " />
<glyph glyph-name="p" unicode="p" horiz-adv-x="581" d="M4 459 L15 459 C53 460 79 424 79 367 L79 -140 C79 -179 53 -205 15 -205 L4 -205 L4 -220 L239 -220 L239 -205 L228 -205 C190 -205 164 -179 164 -140 L164 29 C199 7 242 -5 288 -5 C437 -5 536 116 536 257 C536 409 447 510 313 510 C254 510 196 483 164 441 L164 501 L122 501 L122 502 C109 498 94 494 79 490 C53 483 26 476 4 470 L4 459 L4 459 Z M164 131 L164 407 C193 448 235 475 272 475 C374 475 442 377 442 231 C442 115 382 17 292 17 C236 17 184 63 163 131 L164 131 L164 131 Z " />
<glyph glyph-name="q" unicode="q" horiz-adv-x="561" d="M556 -205 L545 -205 C507 -205 481 -179 481 -140 L481 500 L476 500 L448 440 L446 438 C408 483 347 510 279 510 C115 510 31 406 31 251 C31 97 118 -5 248 -5 C303 -5 360 21 395 62 L395 -140 C395 -179 369 -205 331 -205 L320 -205 L320 -220 L555 -220 L556 -205 L556 -205 Z M395 390 L395 92 C364 54 321 30 283 30 C184 30 118 128 118 275 C118 405 171 491 273 491 C324 491 372 451 395 389 L395 390 L395 390 Z " />
<glyph glyph-name="r" unicode="r" horiz-adv-x="430" d="M20 459 L31 459 C69 460 95 424 95 367 L95 80 C95 41 69 15 31 15 L20 15 L20 0 L255 0 L255 15 L244 15 C206 15 180 41 180 80 L180 379 C200 434 241 469 285 469 C306 469 320 455 320 434 C320 404 340 384 370 384 C400 384 420 404 420 434 C420 479 382 509 325 509 C262 509 206 464 180 394 L180 500 L138 500 L138 501 C125 497 110 493 95 489 C69 482 42 475 20 469 L20 459 L20 459 Z " />
<glyph glyph-name="s" unicode="s" horiz-adv-x="428" d="M353 332 L353 520 L342 520 L339 504 C339 502 306 503 255 506 C239 513 222 517 205 517 L205 510 C118 510 60 458 60 379 C60 304 108 242 200 217 C275 197 314 154 314 106 C314 32 263 -21 191 0 L192 5 C180 7 168 11 156 16 C115 44 84 98 74 165 L72 186 L60 186 L60 -12 L71 -12 L74 5 C75 9 110 6 165 -4 C177 -10 190 -14 202 -16 L203 -10 C307 -20 378 43 378 129 C378 198 330 257 237 282 C159 303 119 351 119 408 C119 469 158 509 218 502 L217 496 C233 495 248 492 262 487 C301 463 330 415 339 352 L342 331 L353 332 L353 332 Z " />
<glyph glyph-name="t" unicode="t" horiz-adv-x="378" d="M333 500 L180 500 L180 620 L174 620 L30 466 L30 456 L95 456 L95 160 C95 38 150 -10 232 -10 C291 -10 345 32 368 96 L358 100 C343 58 303 30 258 30 C210 30 178 61 178 141 L180 455 L333 455 L333 500 L333 500 Z " />
<glyph glyph-name="u" unicode="u" horiz-adv-x="580" d="M565 48 L552 45 C509 34 480 66 480 126 L480 500 L320 500 L320 485 L331 485 C369 485 395 459 395 420 L395 132 C371 82 321 49 267 49 C212 49 175 93 175 160 L175 500 L15 500 L15 485 L26 485 C64 485 90 459 90 420 L90 160 C90 58 145 -10 227 -10 C295 -10 361 42 395 122 L395 -1 L437 -1 L437 -2 C475 8 527 22 565 32 L565 48 L565 48 Z " />
<glyph glyph-name="v" unicode="v" horiz-adv-x="576" d="M548 500 L364 500 L364 485 L374 485 C407 485 418 449 403 394 L311 123 L214 388 C194 447 203 486 238 486 L248 486 L248 501 L10 501 L10 486 L22 486 C60 486 101 444 124 381 L267 -9 L292 -9 L438 391 C462 448 501 485 537 485 L549 485 L548 500 L548 500 Z " />
<glyph glyph-name="w" unicode="w" horiz-adv-x="875" d="M268 500 L29 500 L29 485 L40 485 C75 485 114 449 138 393 L288 -10 L313 -10 L433 305 L546 -10 L571 -10 C621 120 671 251 722 380 C746 443 788 485 826 485 L837 485 L837 500 L653 500 L653 485 L663 485 C699 485 707 443 685 380 L685 380 L593 123 C562 209 531 295 500 381 C477 444 486 486 522 486 L532 486 L532 501 L292 501 L292 486 L304 486 C342 486 382 444 405 381 L416 351 L334 122 C302 208 269 295 237 381 C213 444 221 486 257 486 L267 486 L268 500 L268 500 Z " />
<glyph glyph-name="x" unicode="x" horiz-adv-x="594" d="M317 0 L562 0 L562 15 L551 15 C513 15 464 55 425 115 L321 285 L403 395 C448 450 499 486 535 486 L546 486 L546 501 L368 501 L368 486 L378 486 C411 486 403 444 360 381 L360 381 L308 306 L262 381 C223 444 220 486 253 486 L263 486 L263 501 L18 501 L18 486 L29 486 C67 486 116 446 155 386 L249 234 L153 106 C108 51 57 16 21 16 L10 16 L10 1 L188 1 L188 16 L178 16 C145 16 152 58 195 121 L195 121 L260 216 L319 121 C358 58 361 16 328 16 L318 16 L317 0 L317 0 Z " />
<glyph glyph-name="y" unicode="y" horiz-adv-x="605" d="M576 500 L393 500 L393 485 L404 485 C437 485 448 450 433 396 L342 119 L225 398 C206 451 214 485 247 485 L257 485 L257 500 L20 500 L20 485 L32 485 C70 485 113 443 139 380 L139 380 L298 1 C277 -51 258 -104 238 -156 C229 -179 215 -194 211 -194 C189 -194 184 -165 161 -165 C134 -165 116 -183 116 -210 C116 -240 136 -260 166 -260 C192 -260 238 -223 259 -167 L319 -10 C366 120 414 250 462 380 C485 443 526 485 564 485 L575 485 L576 500 L576 500 Z " />
<glyph glyph-name="z" unicode="z" horiz-adv-x="475" d="M29 362 L46 362 L55 379 C82 431 149 469 225 475 L333 478 L40 21 L40 1 L430 1 L430 16 L435 16 C435 16 440 65 448 139 L431 139 L425 122 C406 70 346 34 273 27 L144 24 L435 481 L435 501 L167 501 C115 501 86 516 95 543 L77 543 C72 526 66 503 61 486 C63 486 49 438 29 363 L29 362 L29 362 Z " />
<glyph glyph-name="bar" unicode="&#x7c;" horiz-adv-x="186" d="M60 800 L60 -250 L126 -250 L126 800 L60 800 L60 800 Z " />
<glyph glyph-name="asciitilde" unicode="&#x7e;" horiz-adv-x="340" d="M27 310 C27 346 45 370 71 370 C123 370 192 305 244 305 C288 305 318 353 318 425 L313 425 C313 389 293 365 264 365 C212 365 143 430 91 430 C50 430 22 382 22 310 L27 310 L27 310 Z " />
<glyph glyph-name="exclamdown" unicode="&#xa1;" horiz-adv-x="244" d="M122 505 C86 505 62 481 62 445 C62 409 86 385 122 385 C158 385 182 409 182 445 C182 481 158 505 122 505 L122 505 Z M122 -255 C163 -255 180 -213 174 -150 C174 -150 130 158 130 290 L114 290 C114 158 70 -150 70 -150 C64 -213 81 -255 122 -255 L122 -255 Z " />
<glyph glyph-name="cent" unicode="&#xa2;" horiz-adv-x="504" d="M272 575 L272 509 C135 496 45 390 45 237 C45 93 135 -3 272 -9 L272 -74 L302 -74 L302 -8 C373 -1 440 52 474 129 L470 131 C439 62 372 15 302 14 L302 505 C333 503 367 463 389 405 C398 379 416 362 432 362 C467 362 483 379 474 405 C451 468 382 510 302 510 L302 575 L272 575 L272 575 Z M272 16 C188 33 134 132 134 273 C134 399 188 486 272 502 L272 16 L272 16 Z " />
<glyph glyph-name="acute" unicode="&#xb4;" horiz-adv-x="340" d="M178 562 L320 682 C358 715 384 740 384 746 C384 769 365 788 342 788 C336 788 313 761 281 721 L167 573 L178 562 L178 562 Z " />
<glyph glyph-name="questiondown" unicode="&#xbf;" horiz-adv-x="299" d="M174 505 C138 505 114 481 114 445 C114 409 138 385 174 385 C210 385 234 409 234 445 C234 481 210 505 174 505 L174 505 Z M174 290 L174 140 C81 140 48 106 14 56 C-4 29 -16 -15 -16 -55 C-16 -178 52 -260 154 -260 C202 -260 234 -235 234 -197 C234 -172 216 -155 188 -155 C168 -155 142 -170 123 -170 C55 -170 10 -120 10 -45 C10 -29 19 -5 33 15 C51 42 77 60 202 60 C195 58 190 290 190 290 L174 290 L174 290 Z " />
<glyph glyph-name="Agrave" unicode="&#xc0;" horiz-adv-x="808" d="M453 0 L802 0 L802 19 L786 19 C733 19 678 78 649 167 L472 720 C472 720 461 770 456 770 L446 770 C450 747 420 727 372 720 C373 717 374 713 375 710 L209 157 C180 74 115 19 44 19 L23 19 L23 0 L316 0 L316 19 L295 19 C224 19 194 79 221 169 L257 292 L505 292 C518 251 531 210 543 169 C571 79 543 19 472 19 L451 19 L453 0 L453 0 Z M217 996 C217 988 243 964 281 932 L423 812 L434 823 L320 971 C290 1011 267 1038 259 1038 C236 1038 217 1019 217 996 L217 996 Z M259 300 L377 700 L502 300 L259 300 L259 300 Z " />
<glyph glyph-name="Aacute" unicode="&#xc1;" horiz-adv-x="808" d="M431 812 L573 932 C611 965 637 990 637 996 C637 1019 618 1038 595 1038 C589 1038 566 1011 534 971 L420 823 L431 812 L431 812 Z M453 0 L802 0 L802 19 L786 19 C733 19 678 78 649 167 L472 720 C472 720 461 770 456 770 L446 770 C450 747 420 727 372 720 C373 717 374 713 375 710 L209 157 C180 74 115 19 44 19 L23 19 L23 0 L316 0 L316 19 L295 19 C224 19 194 79 221 169 L257 292 L505 292 C518 251 531 210 543 169 C571 79 543 19 472 19 L451 19 L453 0 L453 0 Z M259 300 L377 700 L502 300 L259 300 L259 300 Z " />
<glyph glyph-name="Acircumflex" unicode="&#xc2;" horiz-adv-x="808" d="M453 0 L802 0 L802 19 L786 19 C733 19 678 78 649 167 L472 720 C472 720 461 770 456 770 L446 770 C450 747 420 727 372 720 C373 717 374 713 375 710 L209 157 C180 74 115 19 44 19 L23 19 L23 0 L316 0 L316 19 L295 19 C224 19 194 79 221 169 L257 292 L505 292 C518 251 531 210 543 169 C571 79 543 19 472 19 L451 19 L453 0 L453 0 Z M451 1005 C445 1014 431 1035 421 1035 C411 1035 397 1014 391 1005 L269 816 L281 806 L421 945 L561 806 L573 816 L451 1005 L451 1005 Z M259 300 L377 700 L502 300 L259 300 L259 300 Z " />
<glyph glyph-name="Atilde" unicode="&#xc3;" horiz-adv-x="808" d="M280 870 C280 906 298 930 324 930 C376 930 445 865 497 865 C541 865 571 913 571 985 L566 985 C566 949 546 925 517 925 C465 925 396 990 344 990 C303 990 275 942 275 870 L280 870 L280 870 Z M453 0 L802 0 L802 19 L786 19 C733 19 678 78 649 167 L472 720 C472 720 461 770 456 770 L446 770 C450 747 420 727 372 720 C373 717 374 713 375 710 L209 157 C180 74 115 19 44 19 L23 19 L23 0 L316 0 L316 19 L295 19 C224 19 194 79 221 169 L257 292 L505 292 C518 251 531 210 543 169 C571 79 543 19 472 19 L451 19 L453 0 L453 0 Z M259 300 L377 700 L502 300 L259 300 L259 300 Z " />
<glyph glyph-name="Adieresis" unicode="&#xc4;" horiz-adv-x="808" d="M498 865 C531 865 553 887 553 920 C553 953 531 975 498 975 C465 975 443 953 443 920 C443 887 465 865 498 865 L498 865 Z M348 865 C381 865 403 887 403 920 C403 953 381 975 348 975 C315 975 293 953 293 920 C293 887 315 865 348 865 L348 865 Z M453 0 L802 0 L802 19 L786 19 C733 19 678 78 649 167 L472 720 C472 720 461 770 456 770 L446 770 C450 747 420 727 372 720 C373 717 374 713 375 710 L209 157 C180 74 115 19 44 19 L23 19 L23 0 L316 0 L316 19 L295 19 C224 19 194 79 221 169 L257 292 L505 292 C518 251 531 210 543 169 C571 79 543 19 472 19 L451 19 L453 0 L453 0 Z M259 300 L377 700 L502 300 L259 300 L259 300 Z " />
<glyph glyph-name="Aring" unicode="&#xc5;" horiz-adv-x="808" d="M351 905 C351 950 380 980 423 980 C466 980 495 950 495 905 C495 864 462 830 423 830 C384 830 351 865 351 905 L351 905 Z M325 905 C325 854 370 810 423 810 C476 810 521 854 521 905 C521 962 482 1000 423 1000 C364 1000 325 962 325 905 L325 905 Z M453 0 L802 0 L802 19 L786 19 C733 19 678 78 649 167 L472 720 C472 720 461 770 456 770 L446 770 C450 747 420 727 372 720 C373 717 374 713 375 710 L209 157 C180 74 115 19 44 19 L23 19 L23 0 L316 0 L316 19 L295 19 C224 19 194 79 221 169 L257 292 L505 292 C518 251 531 210 543 169 C571 79 543 19 472 19 L451 19 L453 0 L453 0 Z M259 300 L377 700 L502 300 L259 300 L259 300 Z " />
<glyph glyph-name="Egrave" unicode="&#xc8;" horiz-adv-x="667" d="M155 996 C155 988 181 964 219 932 L361 812 L372 823 L258 971 C228 1011 205 1038 197 1038 C174 1038 155 1019 155 996 L155 996 Z M40 735 L57 735 C116 735 155 687 155 615 L155 135 C155 63 116 15 57 15 L40 15 L40 0 L590 0 L591 4 L590 4 C590 7 612 130 614 142 L599 142 L591 122 C568 58 498 14 413 8 C271 15 255 83 255 183 L255 385 L334 385 C412 385 472 336 485 262 L489 240 L504 240 L504 385 L505 385 L505 392 L504 392 L504 537 L489 537 L485 515 C472 441 412 392 334 392 L255 392 L255 743 L395 743 C474 743 540 694 562 620 L569 598 L584 598 C578 643 571 702 565 747 L565 750 L40 750 L40 735 L40 735 Z " />
<glyph glyph-name="Eacute" unicode="&#xc9;" horiz-adv-x="667" d="M367 812 L509 932 C547 965 573 990 573 996 C573 1019 554 1038 531 1038 C525 1038 502 1011 470 971 L356 823 L367 812 L367 812 Z M40 735 L57 735 C116 735 155 687 155 615 L155 135 C155 63 116 15 57 15 L40 15 L40 0 L590 0 L591 4 L590 4 C590 7 612 130 614 142 L599 142 L591 122 C568 58 498 14 413 8 C271 15 255 83 255 183 L255 385 L334 385 C412 385 472 336 485 262 L489 240 L504 240 L504 385 L505 385 L505 392 L504 392 L504 537 L489 537 L485 515 C472 441 412 392 334 392 L255 392 L255 743 L395 743 C474 743 540 694 562 620 L569 598 L584 598 C578 643 571 702 565 747 L565 750 L40 750 L40 735 L40 735 Z " />
<glyph glyph-name="Ecircumflex" unicode="&#xca;" horiz-adv-x="667" d="M389 1005 C383 1014 369 1035 359 1035 C349 1035 335 1014 329 1005 L207 816 L219 806 L359 945 L499 806 L511 816 L389 1005 L389 1005 Z M40 735 L57 735 C116 735 155 687 155 615 L155 135 C155 63 116 15 57 15 L40 15 L40 0 L590 0 L591 4 L590 4 C590 7 612 130 614 142 L599 142 L591 122 C568 58 498 14 413 8 C271 15 255 83 255 183 L255 385 L334 385 C412 385 472 336 485 262 L489 240 L504 240 L504 385 L505 385 L505 392 L504 392 L504 537 L489 537 L485 515 C472 441 412 392 334 392 L255 392 L255 743 L395 743 C474 743 540 694 562 620 L569 598 L584 598 C578 643 571 702 565 747 L565 750 L40 750 L40 735 L40 735 Z " />
<glyph glyph-name="Edieresis" unicode="&#xcb;" horiz-adv-x="667" d="M434 865 C467 865 489 887 489 920 C489 953 467 975 434 975 C401 975 379 953 379 920 C379 887 401 865 434 865 L434 865 Z M284 865 C317 865 339 887 339 920 C339 953 317 975 284 975 C251 975 229 953 229 920 C229 887 251 865 284 865 L284 865 Z M40 735 L57 735 C116 735 155 687 155 615 L155 135 C155 63 116 15 57 15 L40 15 L40 0 L590 0 L591 4 L590 4 C590 7 612 130 614 142 L599 142 L591 122 C568 58 498 14 413 8 C271 15 255 83 255 183 L255 385 L334 385 C412 385 472 336 485 262 L489 240 L504 240 L504 385 L505 385 L505 392 L504 392 L504 537 L489 537 L485 515 C472 441 412 392 334 392 L255 392 L255 743 L395 743 C474 743 540 694 562 620 L569 598 L584 598 C578 643 571 702 565 747 L565 750 L40 750 L40 735 L40 735 Z " />
<glyph glyph-name="Igrave" unicode="&#xcc;" horiz-adv-x="405" d="M-4 996 C-4 988 22 964 60 932 L202 812 L213 823 L99 971 C69 1011 46 1038 38 1038 C15 1038 -4 1019 -4 996 L-4 996 Z M345 15 L331 15 C282 15 250 55 250 115 L250 635 C250 695 282 735 331 735 L345 735 L345 750 L55 750 L55 735 L69 735 C118 735 150 695 150 635 L150 115 C150 55 118 15 69 15 L55 15 L55 0 L345 0 L345 15 L345 15 Z " />
<glyph glyph-name="Iacute" unicode="&#xcd;" horiz-adv-x="405" d="M208 812 L350 932 C388 965 414 990 414 996 C414 1019 395 1038 372 1038 C366 1038 343 1011 311 971 L197 823 L208 812 L208 812 Z M345 15 L331 15 C282 15 250 55 250 115 L250 635 C250 695 282 735 331 735 L345 735 L345 750 L55 750 L55 735 L69 735 C118 735 150 695 150 635 L150 115 C150 55 118 15 69 15 L55 15 L55 0 L345 0 L345 15 L345 15 Z " />
<glyph glyph-name="Icircumflex" unicode="&#xce;" horiz-adv-x="405" d="M230 1005 C224 1014 210 1035 200 1035 C190 1035 176 1014 170 1005 L48 816 L60 806 L200 945 L340 806 L352 816 L230 1005 L230 1005 Z M345 15 L331 15 C282 15 250 55 250 115 L250 635 C250 695 282 735 331 735 L345 735 L345 750 L55 750 L55 735 L69 735 C118 735 150 695 150 635 L150 115 C150 55 118 15 69 15 L55 15 L55 0 L345 0 L345 15 L345 15 Z " />
<glyph glyph-name="Idieresis" unicode="&#xcf;" horiz-adv-x="405" d="M275 865 C308 865 330 887 330 920 C330 953 308 975 275 975 C242 975 220 953 220 920 C220 887 242 865 275 865 L275 865 Z M125 865 C158 865 180 887 180 920 C180 953 158 975 125 975 C92 975 70 953 70 920 C70 887 92 865 125 865 L125 865 Z M345 15 L331 15 C282 15 250 55 250 115 L250 635 C250 695 282 735 331 735 L345 735 L345 750 L55 750 L55 735 L69 735 C118 735 150 695 150 635 L150 115 C150 55 118 15 69 15 L55 15 L55 0 L345 0 L345 15 L345 15 Z " />
<glyph glyph-name="Ntilde" unicode="&#xd1;" horiz-adv-x="806" d="M256 870 C256 906 274 930 300 930 C352 930 421 865 473 865 C517 865 547 913 547 985 L542 985 C542 949 522 925 493 925 C441 925 372 990 320 990 C279 990 251 942 251 870 L256 870 L256 870 Z M-12 735 L2 735 C48 735 107 699 149 646 L148 115 L148 115 C148 55 115 15 67 15 L53 15 L53 0 L274 0 L274 15 L260 15 C214 15 182 50 178 103 L175 610 C324 407 474 204 623 0 L643 0 C645 212 647 424 650 635 C651 695 683 735 732 735 L746 735 L746 750 L525 750 L525 735 L539 735 C588 735 620 695 620 635 L620 635 L622 170 C482 365 339 557 197 750 L-12 750 L-12 735 L-12 735 Z " />
<glyph glyph-name="Ograve" unicode="&#xd2;" horiz-adv-x="851" d="M159 375 C159 601 262 752 417 752 C579 752 687 601 687 375 C687 149 576 -2 410 -2 C259 -2 159 149 159 375 L159 375 Z M50 375 C50 144 193 -10 408 -10 C641 -10 796 144 796 375 C796 606 645 760 418 760 C197 760 50 606 50 375 L50 375 Z M214 996 C214 988 240 964 278 932 L420 812 L431 823 L317 971 C287 1011 264 1038 256 1038 C233 1038 214 1019 214 996 L214 996 Z " />
<glyph glyph-name="Oacute" unicode="&#xd3;" horiz-adv-x="851" d="M426 812 L568 932 C606 965 632 990 632 996 C632 1019 613 1038 590 1038 C584 1038 561 1011 529 971 L415 823 L426 812 L426 812 Z M159 375 C159 601 262 752 417 752 C579 752 687 601 687 375 C687 149 576 -2 410 -2 C259 -2 159 149 159 375 L159 375 Z M50 375 C50 144 193 -10 408 -10 C641 -10 796 144 796 375 C796 606 645 760 418 760 C197 760 50 606 50 375 L50 375 Z " />
<glyph glyph-name="Ocircumflex" unicode="&#xd4;" horiz-adv-x="851" d="M159 375 C159 601 262 752 417 752 C579 752 687 601 687 375 C687 149 576 -2 410 -2 C259 -2 159 149 159 375 L159 375 Z M50 375 C50 144 193 -10 408 -10 C641 -10 796 144 796 375 C796 606 645 760 418 760 C197 760 50 606 50 375 L50 375 Z M448 1005 C442 1014 428 1035 418 1035 C408 1035 394 1014 388 1005 L266 816 L278 806 L418 945 L558 806 L570 816 L448 1005 L448 1005 Z " />
<glyph glyph-name="Otilde" unicode="&#xd5;" horiz-adv-x="851" d="M275 870 C275 906 293 930 319 930 C371 930 440 865 492 865 C536 865 566 913 566 985 L561 985 C561 949 541 925 512 925 C460 925 391 990 339 990 C298 990 270 942 270 870 L275 870 L275 870 Z M159 375 C159 601 262 752 417 752 C579 752 687 601 687 375 C687 149 576 -2 410 -2 C259 -2 159 149 159 375 L159 375 Z M50 375 C50 144 193 -10 408 -10 C641 -10 796 144 796 375 C796 606 645 760 418 760 C197 760 50 606 50 375 L50 375 Z " />
<glyph glyph-name="Odieresis" unicode="&#xd6;" horiz-adv-x="851" d="M493 865 C526 865 548 887 548 920 C548 953 526 975 493 975 C460 975 438 953 438 920 C438 887 460 865 493 865 L493 865 Z M343 865 C376 865 398 887 398 920 C398 953 376 975 343 975 C310 975 288 953 288 920 C288 887 310 865 343 865 L343 865 Z M159 375 C159 601 262 752 417 752 C579 752 687 601 687 375 C687 149 576 -2 410 -2 C259 -2 159 149 159 375 L159 375 Z M50 375 C50 144 193 -10 408 -10 C641 -10 796 144 796 375 C796 606 645 760 418 760 C197 760 50 606 50 375 L50 375 Z " />
<glyph glyph-name="Oslash" unicode="&#xd8;" horiz-adv-x="851" d="M55 -15 C55 -15 90 22 155 89 C217 26 304 -10 408 -10 C641 -10 796 144 796 375 C796 487 760 581 697 648 C730 683 764 719 799 756 L789 766 C754 730 720 694 687 660 C621 725 528 762 417 762 C196 762 49 608 49 377 C49 263 84 168 145 101 C80 34 44 -3 44 -3 L55 -15 L55 -15 Z M637 609 C452 419 301 264 198 157 C172 217 158 292 158 378 C158 604 261 755 416 755 C513 755 590 701 637 610 L637 609 L637 609 Z M644 596 C671 536 686 462 686 377 C686 151 575 0 409 0 C320 0 249 53 206 143 C309 249 460 405 645 596 L644 596 L644 596 Z " />
<glyph glyph-name="Ugrave" unicode="&#xd9;" horiz-adv-x="780" d="M184 996 C184 988 210 964 248 932 L390 812 L400 823 L287 971 C257 1011 234 1038 226 1038 C203 1038 184 1019 184 996 L184 996 Z M750 54 L736 50 C687 37 655 68 655 128 L655 750 L460 750 L460 735 L474 735 C523 735 555 695 555 635 L555 190 C517 109 433 55 344 55 C270 55 220 121 220 220 L220 750 L25 750 L25 735 L39 735 C88 735 120 695 120 635 L120 220 C120 82 194 -10 304 -10 C411 -10 512 52 555 145 L555 0 L605 0 C621 4 639 8 655 13 C687 22 721 31 749 39 L750 54 L750 54 Z " />
<glyph glyph-name="Uacute" unicode="&#xda;" horiz-adv-x="780" d="M395 812 L537 932 C575 965 601 990 601 996 C601 1019 582 1038 559 1038 C553 1038 529 1011 498 971 L385 823 L395 812 L395 812 Z M750 54 L736 50 C687 37 655 68 655 128 L655 750 L460 750 L460 735 L474 735 C523 735 555 695 555 635 L555 190 C517 109 433 55 344 55 C270 55 220 121 220 220 L220 750 L25 750 L25 735 L39 735 C88 735 120 695 120 635 L120 220 C120 82 194 -10 304 -10 C411 -10 512 52 555 145 L555 0 L605 0 C621 4 639 8 655 13 C687 22 721 31 749 39 L750 54 L750 54 Z " />
<glyph glyph-name="Ucircumflex" unicode="&#xdb;" horiz-adv-x="780" d="M418 1005 C412 1014 398 1035 388 1035 C378 1035 364 1014 358 1005 L236 816 L247 806 L387 945 L528 806 L539 816 L418 1005 L418 1005 Z M750 54 L736 50 C687 37 655 68 655 128 L655 750 L460 750 L460 735 L474 735 C523 735 555 695 555 635 L555 190 C517 109 433 55 344 55 C270 55 220 121 220 220 L220 750 L25 750 L25 735 L39 735 C88 735 120 695 120 635 L120 220 C120 82 194 -10 304 -10 C411 -10 512 52 555 145 L555 0 L605 0 C621 4 639 8 655 13 C687 22 721 31 749 39 L750 54 L750 54 Z " />
<glyph glyph-name="Udieresis" unicode="&#xdc;" horiz-adv-x="780" d="M463 865 C496 865 518 887 518 920 C518 953 496 975 463 975 C429 975 407 953 407 920 C407 887 429 865 463 865 L463 865 Z M312 865 C346 865 368 887 368 920 C368 953 346 975 312 975 C279 975 257 953 257 920 C257 887 279 865 312 865 L312 865 Z M750 54 L736 50 C687 37 655 68 655 128 L655 750 L460 750 L460 735 L474 735 C523 735 555 695 555 635 L555 190 C517 109 433 55 344 55 C270 55 220 121 220 220 L220 750 L25 750 L25 735 L39 735 C88 735 120 695 120 635 L120 220 C120 82 194 -10 304 -10 C411 -10 512 52 555 145 L555 0 L605 0 C621 4 639 8 655 13 C687 22 721 31 749 39 L750 54 L750 54 Z " />
<glyph glyph-name="Yacute" unicode="&#xdd;" horiz-adv-x="758" d="M394 812 L536 932 C574 965 600 990 600 996 C600 1019 581 1038 558 1038 C552 1038 528 1011 497 971 L384 823 L394 812 L394 812 Z M309 750 L4 750 L4 735 L16 735 C57 735 110 693 148 630 L148 630 L336 322 L336 135 C336 63 297 15 238 15 L221 15 L221 0 L552 0 L552 15 L535 15 C476 15 437 63 437 135 L437 335 L597 635 C631 695 687 735 739 735 L755 735 L755 750 L507 750 L507 735 L529 735 C592 735 612 693 580 630 L580 630 L434 345 L262 635 C229 695 241 735 293 735 L309 735 L309 750 L309 750 Z " />
<glyph glyph-name="agrave" unicode="&#xe0;" horiz-adv-x="512" d="M522 103 L514 107 C509 76 485 56 454 56 C422 56 400 74 400 102 L400 355 C400 462 344 510 259 510 C143 510 65 414 65 360 C65 324 85 300 114 300 C141 300 159 325 159 343 C159 361 139 384 139 402 C139 438 183 502 250 502 C289 502 315 466 315 386 L315 265 C97 198 45 173 45 89 C45 30 90 -9 158 -9 C199 -9 251 17 316 84 C324 31 364 -4 420 -4 C470 -4 512 39 523 104 L522 103 L522 103 Z M56 747 C56 739 82 715 120 683 L262 563 L273 574 L159 722 C129 762 106 789 98 789 C75 789 56 770 56 747 L56 747 Z M316 260 L316 103 C316 98 316 93 316 89 C277 51 239 36 204 36 C160 36 131 61 131 98 C131 190 167 213 316 259 L316 260 L316 260 Z " />
<glyph glyph-name="aacute" unicode="&#xe1;" horiz-adv-x="512" d="M267 562 L409 682 C447 715 473 740 473 746 C473 769 454 788 431 788 C425 788 402 761 370 721 L256 573 L267 562 L267 562 Z M522 103 L514 107 C509 76 485 56 454 56 C422 56 400 74 400 102 L400 355 C400 462 344 510 259 510 C143 510 65 414 65 360 C65 324 85 300 114 300 C141 300 159 325 159 343 C159 361 139 384 139 402 C139 438 183 502 250 502 C289 502 315 466 315 386 L315 265 C97 198 45 173 45 89 C45 30 90 -9 158 -9 C199 -9 251 17 316 84 C324 31 364 -4 420 -4 C470 -4 512 39 523 104 L522 103 L522 103 Z M316 260 L316 103 C316 98 316 93 316 89 C277 51 239 36 204 36 C160 36 131 61 131 98 C131 190 167 213 316 259 L316 260 L316 260 Z " />
<glyph glyph-name="acircumflex" unicode="&#xe2;" horiz-adv-x="512" d="M522 103 L514 107 C509 76 485 56 454 56 C422 56 400 74 400 102 L400 355 C400 462 344 510 259 510 C143 510 65 414 65 360 C65 324 85 300 114 300 C141 300 159 325 159 343 C159 361 139 384 139 402 C139 438 183 502 250 502 C289 502 315 466 315 386 L315 265 C97 198 45 173 45 89 C45 30 90 -9 158 -9 C199 -9 251 17 316 84 C324 31 364 -4 420 -4 C470 -4 512 39 523 104 L522 103 L522 103 Z M290 756 C284 765 270 786 260 786 C250 786 236 765 230 756 L108 567 L120 557 L260 696 L400 557 L412 567 L290 756 L290 756 Z M316 260 L316 103 C316 98 316 93 316 89 C277 51 239 36 204 36 C160 36 131 61 131 98 C131 190 167 213 316 259 L316 260 L316 260 Z " />
<glyph glyph-name="atilde" unicode="&#xe3;" horiz-adv-x="512" d="M116 620 C116 656 134 680 160 680 C212 680 281 615 333 615 C377 615 407 663 407 735 L402 735 C402 699 382 675 353 675 C301 675 232 740 180 740 C139 740 111 692 111 620 L116 620 L116 620 Z M522 103 L514 107 C509 76 485 56 454 56 C422 56 400 74 400 102 L400 355 C400 462 344 510 259 510 C143 510 65 414 65 360 C65 324 85 300 114 300 C141 300 159 325 159 343 C159 361 139 384 139 402 C139 438 183 502 250 502 C289 502 315 466 315 386 L315 265 C97 198 45 173 45 89 C45 30 90 -9 158 -9 C199 -9 251 17 316 84 C324 31 364 -4 420 -4 C470 -4 512 39 523 104 L522 103 L522 103 Z M316 260 L316 103 C316 98 316 93 316 89 C277 51 239 36 204 36 C160 36 131 61 131 98 C131 190 167 213 316 259 L316 260 L316 260 Z " />
<glyph glyph-name="adieresis" unicode="&#xe4;" horiz-adv-x="512" d="M334 615 C367 615 389 637 389 670 C389 703 367 725 334 725 C301 725 279 703 279 670 C279 637 301 615 334 615 L334 615 Z M184 615 C217 615 239 637 239 670 C239 703 217 725 184 725 C151 725 129 703 129 670 C129 637 151 615 184 615 L184 615 Z M522 103 L514 107 C509 76 485 56 454 56 C422 56 400 74 400 102 L400 355 C400 462 344 510 259 510 C143 510 65 414 65 360 C65 324 85 300 114 300 C141 300 159 325 159 343 C159 361 139 384 139 402 C139 438 183 502 250 502 C289 502 315 466 315 386 L315 265 C97 198 45 173 45 89 C45 30 90 -9 158 -9 C199 -9 251 17 316 84 C324 31 364 -4 420 -4 C470 -4 512 39 523 104 L522 103 L522 103 Z M316 260 L316 103 C316 98 316 93 316 89 C277 51 239 36 204 36 C160 36 131 61 131 98 C131 190 167 213 316 259 L316 260 L316 260 Z " />
<glyph glyph-name="aring" unicode="&#xe5;" horiz-adv-x="512" d="M187 655 C187 700 216 730 259 730 C302 730 331 700 331 655 C331 615 298 580 259 580 C220 580 187 615 187 655 L187 655 Z M161 655 C161 604 206 560 259 560 C312 560 357 604 357 655 C357 712 318 750 259 750 C200 750 161 712 161 655 L161 655 Z M522 103 L514 107 C509 76 485 56 454 56 C422 56 400 74 400 102 L400 355 C400 462 344 510 259 510 C143 510 65 414 65 360 C65 324 85 300 114 300 C141 300 159 325 159 343 C159 361 139 384 139 402 C139 438 183 502 250 502 C289 502 315 466 315 386 L315 265 C97 198 45 173 45 89 C45 30 90 -9 158 -9 C199 -9 251 17 316 84 C324 31 364 -4 420 -4 C470 -4 512 39 523 104 L522 103 L522 103 Z M316 260 L316 103 C316 98 316 93 316 89 C277 51 239 36 204 36 C160 36 131 61 131 98 C131 190 167 213 316 259 L316 260 L316 260 Z " />
<glyph glyph-name="egrave" unicode="&#xe8;" horiz-adv-x="540" d="M97 746 C97 738 123 714 161 682 L303 562 L314 573 L200 721 C170 761 147 788 139 788 C116 788 97 769 97 746 L97 746 Z M140 340 L510 340 C488 462 408 510 301 510 C147 510 45 432 45 231 C45 86 138 -10 278 -10 C375 -10 461 48 492 134 L489 135 C463 63 382 15 287 15 C196 15 135 115 135 266 C135 293 137 318 140 340 L140 340 Z M414 348 L141 346 C159 458 218 504 299 504 C350 504 392 460 413 348 L414 348 L414 348 Z " />
<glyph glyph-name="eacute" unicode="&#xe9;" horiz-adv-x="540" d="M309 562 L451 682 C489 715 515 740 515 746 C515 769 496 788 473 788 C467 788 444 761 412 721 L298 573 L309 562 L309 562 Z M140 340 L510 340 C488 462 408 510 301 510 C147 510 45 432 45 231 C45 86 138 -10 278 -10 C375 -10 461 48 492 134 L489 135 C463 63 382 15 287 15 C196 15 135 115 135 266 C135 293 137 318 140 340 L140 340 Z M414 348 L141 346 C159 458 218 504 299 504 C350 504 392 460 413 348 L414 348 L414 348 Z " />
<glyph glyph-name="ecircumflex" unicode="&#xea;" horiz-adv-x="540" d="M331 755 C325 764 311 785 301 785 C291 785 277 764 271 755 L149 566 L161 556 L301 695 L441 556 L453 566 L331 755 L331 755 Z M140 340 L510 340 C488 462 408 510 301 510 C147 510 45 432 45 231 C45 86 138 -10 278 -10 C375 -10 461 48 492 134 L489 135 C463 63 382 15 287 15 C196 15 135 115 135 266 C135 293 137 318 140 340 L140 340 Z M414 348 L141 346 C159 458 218 504 299 504 C350 504 392 460 413 348 L414 348 L414 348 Z " />
<glyph glyph-name="edieresis" unicode="&#xeb;" horiz-adv-x="540" d="M376 615 C409 615 431 637 431 670 C431 703 409 725 376 725 C343 725 321 703 321 670 C321 637 343 615 376 615 L376 615 Z M226 615 C259 615 281 637 281 670 C281 703 259 725 226 725 C193 725 171 703 171 670 C171 637 193 615 226 615 L226 615 Z M140 340 L510 340 C488 462 408 510 301 510 C147 510 45 432 45 231 C45 86 138 -10 278 -10 C375 -10 461 48 492 134 L489 135 C463 63 382 15 287 15 C196 15 135 115 135 266 C135 293 137 318 140 340 L140 340 Z M414 348 L141 346 C159 458 218 504 299 504 C350 504 392 460 413 348 L414 348 L414 348 Z " />
<glyph glyph-name="igrave" unicode="&#xec;" horiz-adv-x="340" d="M-26 746 C-26 738 0 714 38 682 L180 562 L190 573 L77 721 C47 761 24 788 16 788 C-7 788 -26 769 -26 746 L-26 746 Z M60 454 L71 457 C109 467 135 448 135 409 L135 80 C135 41 109 15 71 15 L60 15 L60 0 L295 0 L295 15 L284 15 C246 15 220 41 220 80 L220 500 L178 500 L178 501 C165 497 150 493 135 489 C109 482 82 475 60 469 L60 454 L60 454 Z " />
<glyph glyph-name="iacute" unicode="&#xed;" horiz-adv-x="340" d="M-26 746 C-26 738 0 714 38 682 L180 562 L190 573 L77 721 C47 761 24 788 16 788 C-7 788 -26 769 -26 746 L-26 746 Z M60 454 L71 457 C109 467 135 448 135 409 L135 80 C135 41 109 15 71 15 L60 15 L60 0 L295 0 L295 15 L284 15 C246 15 220 41 220 80 L220 500 L178 500 L178 501 C165 497 150 493 135 489 C109 482 82 475 60 469 L60 454 L60 454 Z " />
<glyph glyph-name="icircumflex" unicode="&#xee;" horiz-adv-x="340" d="M208 755 C202 764 188 785 178 785 C168 785 154 764 148 755 L26 566 L37 556 L177 695 L318 556 L329 566 L208 755 L208 755 Z M60 454 L71 457 C109 467 135 448 135 409 L135 80 C135 41 109 15 71 15 L60 15 L60 0 L295 0 L295 15 L284 15 C246 15 220 41 220 80 L220 500 L178 500 L178 501 C165 497 150 493 135 489 C109 482 82 475 60 469 L60 454 L60 454 Z " />
<glyph glyph-name="idieresis" unicode="&#xef;" horiz-adv-x="340" d="M253 615 C286 615 308 637 308 670 C308 703 286 725 253 725 C219 725 197 703 197 670 C197 637 219 615 253 615 L253 615 Z M102 615 C136 615 158 637 158 670 C158 703 136 725 102 725 C69 725 47 703 47 670 C47 637 69 615 102 615 L102 615 Z M60 454 L71 457 C109 467 135 448 135 409 L135 80 C135 41 109 15 71 15 L60 15 L60 0 L295 0 L295 15 L284 15 C246 15 220 41 220 80 L220 500 L178 500 L178 501 C165 497 150 493 135 489 C109 482 82 475 60 469 L60 454 L60 454 Z " />
<glyph glyph-name="ntilde" unicode="&#xf1;" horiz-adv-x="589" d="M146 620 C146 656 164 680 190 680 C242 680 311 615 363 615 C407 615 437 663 437 735 L432 735 C432 699 412 675 383 675 C331 675 262 740 210 740 C169 740 141 692 141 620 L146 620 L146 620 Z M19 459 L30 459 C68 460 94 424 94 367 L94 80 C94 41 68 15 30 15 L19 15 L19 0 L254 0 L254 15 L243 15 C205 15 179 41 179 80 L179 370 C212 427 268 465 319 465 C372 465 399 411 399 330 L399 80 C399 41 373 15 335 15 L324 15 L324 0 L559 0 L559 15 L548 15 C510 15 484 41 484 80 L484 330 C484 438 437 510 347 510 C290 510 222 460 179 385 L179 500 L137 500 L137 501 C124 497 109 493 94 489 C68 482 41 475 19 469 L19 459 L19 459 Z " />
<glyph glyph-name="ograve" unicode="&#xf2;" horiz-adv-x="614" d="M139 250 C139 401 206 502 307 502 C407 502 474 401 474 250 C474 99 407 -2 307 -2 C206 -2 139 99 139 250 L139 250 Z M45 250 C45 94 150 -10 307 -10 C464 -10 569 94 569 250 C569 406 464 510 307 510 C150 510 45 406 45 250 L45 250 Z M103 746 C103 738 129 714 167 682 L309 562 L320 573 L206 721 C176 761 153 788 145 788 C122 788 103 769 103 746 L103 746 Z " />
<glyph glyph-name="oacute" unicode="&#xf3;" horiz-adv-x="614" d="M315 562 L457 682 C495 715 521 740 521 746 C521 769 502 788 479 788 C473 788 450 761 418 721 L304 573 L315 562 L315 562 Z M139 250 C139 401 206 502 307 502 C407 502 474 401 474 250 C474 99 407 -2 307 -2 C206 -2 139 99 139 250 L139 250 Z M45 250 C45 94 150 -10 307 -10 C464 -10 569 94 569 250 C569 406 464 510 307 510 C150 510 45 406 45 250 L45 250 Z " />
<glyph glyph-name="ocircumflex" unicode="&#xf4;" horiz-adv-x="614" d="M139 250 C139 401 206 502 307 502 C407 502 474 401 474 250 C474 99 407 -2 307 -2 C206 -2 139 99 139 250 L139 250 Z M45 250 C45 94 150 -10 307 -10 C464 -10 569 94 569 250 C569 406 464 510 307 510 C150 510 45 406 45 250 L45 250 Z M337 755 C331 764 317 785 307 785 C297 785 283 764 277 755 L155 566 L167 556 L307 695 L447 556 L459 566 L337 755 L337 755 Z " />
<glyph glyph-name="otilde" unicode="&#xf5;" horiz-adv-x="614" d="M164 620 C164 656 182 680 208 680 C260 680 329 615 381 615 C425 615 455 663 455 735 L450 735 C450 699 430 675 401 675 C349 675 280 740 228 740 C187 740 159 692 159 620 L164 620 L164 620 Z M139 250 C139 401 206 502 307 502 C407 502 474 401 474 250 C474 99 407 -2 307 -2 C206 -2 139 99 139 250 L139 250 Z M45 250 C45 94 150 -10 307 -10 C464 -10 569 94 569 250 C569 406 464 510 307 510 C150 510 45 406 45 250 L45 250 Z " />
<glyph glyph-name="odieresis" unicode="&#xf6;" horiz-adv-x="614" d="M382 615 C415 615 437 637 437 670 C437 703 415 725 382 725 C349 725 327 703 327 670 C327 637 349 615 382 615 L382 615 Z M232 615 C265 615 287 637 287 670 C287 703 265 725 232 725 C199 725 177 703 177 670 C177 637 199 615 232 615 L232 615 Z M139 250 C139 401 206 502 307 502 C407 502 474 401 474 250 C474 99 407 -2 307 -2 C206 -2 139 99 139 250 L139 250 Z M45 250 C45 94 150 -10 307 -10 C464 -10 569 94 569 250 C569 406 464 510 307 510 C150 510 45 406 45 250 L45 250 Z " />
<glyph glyph-name="oslash" unicode="&#xf8;" horiz-adv-x="614" d="M48 -13 C48 -13 74 12 121 58 C167 14 231 -11 308 -11 C465 -11 570 93 570 249 C570 325 545 389 501 434 C524 457 548 481 573 506 L567 512 C542 487 518 463 495 440 C449 484 385 509 308 509 C151 509 46 405 46 249 C46 173 71 109 115 64 C68 18 42 -7 42 -7 L48 -13 L48 -13 Z M448 396 C330 279 232 182 162 113 C147 151 139 198 139 251 C139 402 206 503 307 503 C370 503 420 463 448 396 L448 396 Z M451 387 C466 349 474 303 474 251 C474 100 407 -1 307 -1 C244 -1 194 38 165 104 C235 173 333 270 451 387 L451 387 Z " />
<glyph glyph-name="ugrave" unicode="&#xf9;" horiz-adv-x="580" d="M81 746 C81 738 107 714 145 682 L287 562 L298 573 L184 721 C154 761 131 788 123 788 C100 788 81 769 81 746 L81 746 Z M565 48 L552 45 C509 34 480 66 480 126 L480 500 L320 500 L320 485 L331 485 C369 485 395 459 395 420 L395 132 C371 82 321 49 267 49 C212 49 175 93 175 160 L175 500 L15 500 L15 485 L26 485 C64 485 90 459 90 420 L90 160 C90 58 145 -10 227 -10 C295 -10 361 42 395 122 L395 -1 L437 -1 L437 -2 C475 8 527 22 565 32 L565 48 L565 48 Z " />
<glyph glyph-name="uacute" unicode="&#xfa;" horiz-adv-x="580" d="M293 562 L435 682 C473 715 499 740 499 746 C499 769 480 788 457 788 C451 788 428 761 396 721 L282 573 L293 562 L293 562 Z M565 48 L552 45 C509 34 480 66 480 126 L480 500 L320 500 L320 485 L331 485 C369 485 395 459 395 420 L395 132 C371 82 321 49 267 49 C212 49 175 93 175 160 L175 500 L15 500 L15 485 L26 485 C64 485 90 459 90 420 L90 160 C90 58 145 -10 227 -10 C295 -10 361 42 395 122 L395 -1 L437 -1 L437 -2 C475 8 527 22 565 32 L565 48 L565 48 Z " />
<glyph glyph-name="ucircumflex" unicode="&#xfb;" horiz-adv-x="580" d="M315 755 C309 764 295 785 285 785 C275 785 261 764 255 755 L133 566 L145 556 L285 695 L425 556 L437 566 L315 755 L315 755 Z M565 48 L552 45 C509 34 480 66 480 126 L480 500 L320 500 L320 485 L331 485 C369 485 395 459 395 420 L395 132 C371 82 321 49 267 49 C212 49 175 93 175 160 L175 500 L15 500 L15 485 L26 485 C64 485 90 459 90 420 L90 160 C90 58 145 -10 227 -10 C295 -10 361 42 395 122 L395 -1 L437 -1 L437 -2 C475 8 527 22 565 32 L565 48 L565 48 Z " />
<glyph glyph-name="udieresis" unicode="&#xfc;" horiz-adv-x="580" d="M360 615 C393 615 415 637 415 670 C415 703 393 725 360 725 C327 725 305 703 305 670 C305 637 327 615 360 615 L360 615 Z M210 615 C243 615 265 637 265 670 C265 703 243 725 210 725 C177 725 155 703 155 670 C155 637 177 615 210 615 L210 615 Z M565 48 L552 45 C509 34 480 66 480 126 L480 500 L320 500 L320 485 L331 485 C369 485 395 459 395 420 L395 132 C371 82 321 49 267 49 C212 49 175 93 175 160 L175 500 L15 500 L15 485 L26 485 C64 485 90 459 90 420 L90 160 C90 58 145 -10 227 -10 C295 -10 361 42 395 122 L395 -1 L437 -1 L437 -2 C475 8 527 22 565 32 L565 48 L565 48 Z " />
<glyph glyph-name="ydieresis" unicode="&#xff;" horiz-adv-x="578" d="M391 615 C424 615 446 637 446 670 C446 703 424 725 391 725 C358 725 336 703 336 670 C336 637 358 615 391 615 L391 615 Z M241 615 C274 615 296 637 296 670 C296 703 274 725 241 725 C208 725 186 703 186 670 C186 637 208 615 241 615 L241 615 Z M567 500 L384 500 L384 485 L395 485 C428 485 439 450 424 396 L333 119 L216 398 C197 451 205 485 238 485 L248 485 L248 500 L11 500 L11 485 L23 485 C61 485 104 443 130 380 L130 380 L289 1 C268 -51 249 -104 229 -156 C220 -179 206 -194 202 -194 C180 -194 175 -165 152 -165 C125 -165 107 -183 107 -210 C107 -240 127 -260 157 -260 C183 -260 229 -223 250 -167 L310 -10 C357 120 405 250 453 380 C476 443 517 485 555 485 L566 485 L567 500 L567 500 Z " />
<glyph glyph-name="Amacron" unicode="&#x100;" horiz-adv-x="808" d="M273 895 L573 895 L573 954 L273 954 L273 895 L273 895 Z M453 0 L802 0 L802 19 L786 19 C733 19 678 78 649 167 L472 720 C472 720 461 770 456 770 L446 770 C450 747 420 727 372 720 C373 717 374 713 375 710 L209 157 C180 74 115 19 44 19 L23 19 L23 0 L316 0 L316 19 L295 19 C224 19 194 79 221 169 L257 292 L505 292 C518 251 531 210 543 169 C571 79 543 19 472 19 L451 19 L453 0 L453 0 Z M259 300 L377 700 L502 300 L259 300 L259 300 Z " />
<glyph glyph-name="amacron" unicode="&#x101;" horiz-adv-x="512" d="M109 645 L409 645 L409 704 L109 704 L109 645 L109 645 Z M522 103 L514 107 C509 76 485 56 454 56 C422 56 400 74 400 102 L400 355 C400 462 344 510 259 510 C143 510 65 414 65 360 C65 324 85 300 114 300 C141 300 159 325 159 343 C159 361 139 384 139 402 C139 438 183 502 250 502 C289 502 315 466 315 386 L315 265 C97 198 45 173 45 89 C45 30 90 -9 158 -9 C199 -9 251 17 316 84 C324 31 364 -4 420 -4 C470 -4 512 39 523 104 L522 103 L522 103 Z M316 260 L316 103 C316 98 316 93 316 89 C277 51 239 36 204 36 C160 36 131 61 131 98 C131 190 167 213 316 259 L316 260 L316 260 Z " />
<glyph glyph-name="Abreve" unicode="&#x102;" horiz-adv-x="808" d="M288 994 C295 920 349 870 423 870 C498 870 552 919 558 992 L540 995 C537 956 490 930 423 930 C356 930 310 957 306 997 L288 994 L288 994 Z M453 0 L802 0 L802 19 L786 19 C733 19 678 78 649 167 L472 720 C472 720 461 770 456 770 L446 770 C450 747 420 727 372 720 C373 717 374 713 375 710 L209 157 C180 74 115 19 44 19 L23 19 L23 0 L316 0 L316 19 L295 19 C224 19 194 79 221 169 L257 292 L505 292 C518 251 531 210 543 169 C571 79 543 19 472 19 L451 19 L453 0 L453 0 Z M259 300 L377 700 L502 300 L259 300 L259 300 Z " />
<glyph glyph-name="abreve" unicode="&#x103;" horiz-adv-x="512" d="M124 744 C131 670 185 620 259 620 C334 620 388 669 394 742 L376 745 C373 706 326 680 259 680 C192 680 146 707 142 747 L124 744 L124 744 Z M522 103 L514 107 C509 76 485 56 454 56 C422 56 400 74 400 102 L400 355 C400 462 344 510 259 510 C143 510 65 414 65 360 C65 324 85 300 114 300 C141 300 159 325 159 343 C159 361 139 384 139 402 C139 438 183 502 250 502 C289 502 315 466 315 386 L315 265 C97 198 45 173 45 89 C45 30 90 -9 158 -9 C199 -9 251 17 316 84 C324 31 364 -4 420 -4 C470 -4 512 39 523 104 L522 103 L522 103 Z M316 260 L316 103 C316 98 316 93 316 89 C277 51 239 36 204 36 C160 36 131 61 131 98 C131 190 167 213 316 259 L316 260 L316 260 Z " />
<glyph glyph-name="Cacute" unicode="&#x106;" horiz-adv-x="740" d="M424 812 L566 932 C604 965 630 990 630 996 C630 1019 611 1038 588 1038 C582 1038 559 1011 527 971 L413 823 L424 812 L424 812 Z M684 131 L684 131 L684 131 L684 131 Z M696 -9 L696 231 L676 231 L667 200 C645 123 591 55 527 22 C491 5 452 -4 408 -4 C259 -4 160 147 160 374 C160 600 264 751 419 751 C458 751 492 744 522 732 C588 704 645 633 668 549 L677 518 L697 518 L697 755 L683 755 L679 732 C675 706 636 704 580 727 C561 736 536 744 515 751 L514 749 C486 755 454 758 417 758 C197 758 50 604 50 373 C50 142 192 -12 406 -12 C445 -12 479 -8 510 -1 L511 -4 C518 -2 525 1 533 5 C545 9 557 13 568 18 C630 45 675 43 679 13 L683 -11 L696 -9 L696 -9 Z " />
<glyph glyph-name="Ccircumflex" unicode="&#x108;" horiz-adv-x="740" d="M446 1005 C440 1014 426 1035 416 1035 C406 1035 392 1014 386 1005 L264 816 L276 806 L416 945 L556 806 L568 816 L446 1005 L446 1005 Z M684 131 L684 131 L684 131 L684 131 Z M696 -9 L696 231 L676 231 L667 200 C645 123 591 55 527 22 C491 5 452 -4 408 -4 C259 -4 160 147 160 374 C160 600 264 751 419 751 C458 751 492 744 522 732 C588 704 645 633 668 549 L677 518 L697 518 L697 755 L683 755 L679 732 C675 706 636 704 580 727 C561 736 536 744 515 751 L514 749 C486 755 454 758 417 758 C197 758 50 604 50 373 C50 142 192 -12 406 -12 C445 -12 479 -8 510 -1 L511 -4 C518 -2 525 1 533 5 C545 9 557 13 568 18 C630 45 675 43 679 13 L683 -11 L696 -9 L696 -9 Z " />
<glyph glyph-name="Cdot" unicode="&#x10a;" horiz-adv-x="740" d="M416 865 C449 865 471 887 471 920 C471 953 449 975 416 975 C383 975 361 953 361 920 C361 887 383 865 416 865 L416 865 Z M684 131 L684 131 L684 131 L684 131 Z M696 -9 L696 231 L676 231 L667 200 C645 123 591 55 527 22 C491 5 452 -4 408 -4 C259 -4 160 147 160 374 C160 600 264 751 419 751 C458 751 492 744 522 732 C588 704 645 633 668 549 L677 518 L697 518 L697 755 L683 755 L679 732 C675 706 636 704 580 727 C561 736 536 744 515 751 L514 749 C486 755 454 758 417 758 C197 758 50 604 50 373 C50 142 192 -12 406 -12 C445 -12 479 -8 510 -1 L511 -4 C518 -2 525 1 533 5 C545 9 557 13 568 18 C630 45 675 43 679 13 L683 -11 L696 -9 L696 -9 Z " />
<glyph glyph-name="cdot" unicode="&#x10b;" horiz-adv-x="504" d="M302 615 C335 615 357 637 357 670 C357 703 335 725 302 725 C269 725 247 703 247 670 C247 637 269 615 302 615 L302 615 Z M474 128 L470 130 C439 60 370 13 299 13 C200 13 134 117 134 273 C134 412 200 504 300 504 C332 504 367 464 389 405 C398 379 416 362 432 362 C467 362 483 379 474 405 C451 468 382 510 302 510 C148 510 45 400 45 236 C45 88 141 -10 285 -10 C362 -10 437 45 474 128 L474 128 Z " />
<glyph glyph-name="Ccaron" unicode="&#x10c;" horiz-adv-x="740" d="M556 1044 L416 905 L276 1044 L264 1034 L386 845 C392 836 406 815 416 815 C426 815 440 836 446 845 L568 1034 L556 1044 L556 1044 Z M684 131 L684 131 L684 131 L684 131 Z M696 -9 L696 231 L676 231 L667 200 C645 123 591 55 527 22 C491 5 452 -4 408 -4 C259 -4 160 147 160 374 C160 600 264 751 419 751 C458 751 492 744 522 732 C588 704 645 633 668 549 L677 518 L697 518 L697 755 L683 755 L679 732 C675 706 636 704 580 727 C561 736 536 744 515 751 L514 749 C486 755 454 758 417 758 C197 758 50 604 50 373 C50 142 192 -12 406 -12 C445 -12 479 -8 510 -1 L511 -4 C518 -2 525 1 533 5 C545 9 557 13 568 18 C630 45 675 43 679 13 L683 -11 L696 -9 L696 -9 Z " />
<glyph glyph-name="ccaron" unicode="&#x10d;" horiz-adv-x="504" d="M442 794 L302 655 L162 794 L150 784 L272 595 C278 586 292 565 302 565 C312 565 326 586 332 595 L454 784 L442 794 L442 794 Z M474 128 L470 130 C439 60 370 13 299 13 C200 13 134 117 134 273 C134 412 200 504 300 504 C332 504 367 464 389 405 C398 379 416 362 432 362 C467 362 483 379 474 405 C451 468 382 510 302 510 C148 510 45 400 45 236 C45 88 141 -10 285 -10 C362 -10 437 45 474 128 L474 128 Z " />
<glyph glyph-name="Dcaron" unicode="&#x10e;" horiz-adv-x="863" d="M566 1044 L426 905 L286 1044 L274 1034 L396 845 C402 836 416 815 426 815 C436 815 450 836 456 845 L578 1034 L566 1044 L566 1044 Z M326 6 C262 6 255 77 255 183 L255 744 L350 744 C579 744 697 596 697 375 C697 131 549 6 326 6 L326 6 Z M60 735 L74 735 C123 735 155 695 155 635 L155 115 C155 55 123 15 74 15 L60 15 L60 0 L335 0 C619 0 808 128 808 375 C808 600 661 750 375 750 L60 750 L60 735 L60 735 Z " />
<glyph glyph-name="dcaron" unicode="&#x10f;" horiz-adv-x="610" d="M587 756 C570 756 560 693 556 648 L546 537 L561 534 L600 639 C615 678 625 720 625 744 C625 753 610 756 587 756 L587 756 Z M595 51 L581 47 C532 34 500 65 500 125 L500 750 L458 750 L415 739 L415 737 C389 730 362 723 340 717 L340 707 L351 707 C389 708 415 672 415 615 L415 431 C384 477 334 510 280 510 C125 510 45 406 45 251 C45 97 130 -5 257 -5 C317 -5 379 25 415 71 L415 0 L457 0 L457 -1 C498 10 554 25 595 36 L595 51 L595 51 Z M415 375 L415 81 C389 51 341 31 291 31 C195 31 131 129 131 276 C131 402 185 486 289 486 C344 486 396 435 414 376 L415 375 L415 375 Z " />
<glyph glyph-name="Emacron" unicode="&#x112;" horiz-adv-x="667" d="M209 895 L509 895 L509 954 L209 954 L209 895 L209 895 Z M40 735 L57 735 C116 735 155 687 155 615 L155 135 C155 63 116 15 57 15 L40 15 L40 0 L590 0 L591 4 L590 4 C590 7 612 130 614 142 L599 142 L591 122 C568 58 498 14 413 8 C271 15 255 83 255 183 L255 385 L334 385 C412 385 472 336 485 262 L489 240 L504 240 L504 385 L505 385 L505 392 L504 392 L504 537 L489 537 L485 515 C472 441 412 392 334 392 L255 392 L255 743 L395 743 C474 743 540 694 562 620 L569 598 L584 598 C578 643 571 702 565 747 L565 750 L40 750 L40 735 L40 735 Z " />
<glyph glyph-name="emacron" unicode="&#x113;" horiz-adv-x="540" d="M151 645 L451 645 L451 704 L151 704 L151 645 L151 645 Z M140 340 L510 340 C488 462 408 510 301 510 C147 510 45 432 45 231 C45 86 138 -10 278 -10 C375 -10 461 48 492 134 L489 135 C463 63 382 15 287 15 C196 15 135 115 135 266 C135 293 137 318 140 340 L140 340 Z M414 348 L141 346 C159 458 218 504 299 504 C350 504 392 460 413 348 L414 348 L414 348 Z " />
<glyph glyph-name="Ebreve" unicode="&#x114;" horiz-adv-x="667" d="M224 994 C231 920 285 870 359 870 C434 870 488 919 494 992 L476 995 C473 956 426 930 359 930 C292 930 246 957 242 997 L224 994 L224 994 Z M40 735 L57 735 C116 735 155 687 155 615 L155 135 C155 63 116 15 57 15 L40 15 L40 0 L590 0 L591 4 L590 4 C590 7 612 130 614 142 L599 142 L591 122 C568 58 498 14 413 8 C271 15 255 83 255 183 L255 385 L334 385 C412 385 472 336 485 262 L489 240 L504 240 L504 385 L505 385 L505 392 L504 392 L504 537 L489 537 L485 515 C472 441 412 392 334 392 L255 392 L255 743 L395 743 C474 743 540 694 562 620 L569 598 L584 598 C578 643 571 702 565 747 L565 750 L40 750 L40 735 L40 735 Z " />
<glyph glyph-name="ebreve" unicode="&#x115;" horiz-adv-x="540" d="M166 744 C173 670 227 620 301 620 C376 620 430 669 436 742 L418 745 C415 706 368 680 301 680 C234 680 188 707 184 747 L166 744 L166 744 Z M140 340 L510 340 C488 462 408 510 301 510 C147 510 45 432 45 231 C45 86 138 -10 278 -10 C375 -10 461 48 492 134 L489 135 C463 63 382 15 287 15 C196 15 135 115 135 266 C135 293 137 318 140 340 L140 340 Z M414 348 L141 346 C159 458 218 504 299 504 C350 504 392 460 413 348 L414 348 L414 348 Z " />
<glyph glyph-name="Edot" unicode="&#x116;" horiz-adv-x="667" d="M359 865 C392 865 414 887 414 920 C414 953 392 975 359 975 C326 975 304 953 304 920 C304 887 326 865 359 865 L359 865 Z M40 735 L57 735 C116 735 155 687 155 615 L155 135 C155 63 116 15 57 15 L40 15 L40 0 L590 0 L591 4 L590 4 C590 7 612 130 614 142 L599 142 L591 122 C568 58 498 14 413 8 C271 15 255 83 255 183 L255 385 L334 385 C412 385 472 336 485 262 L489 240 L504 240 L504 385 L505 385 L505 392 L504 392 L504 537 L489 537 L485 515 C472 441 412 392 334 392 L255 392 L255 743 L395 743 C474 743 540 694 562 620 L569 598 L584 598 C578 643 571 702 565 747 L565 750 L40 750 L40 735 L40 735 Z " />
<glyph glyph-name="edot" unicode="&#x117;" horiz-adv-x="540" d="M301 615 C334 615 356 637 356 670 C356 703 334 725 301 725 C268 725 246 703 246 670 C246 637 268 615 301 615 L301 615 Z M140 340 L510 340 C488 462 408 510 301 510 C147 510 45 432 45 231 C45 86 138 -10 278 -10 C375 -10 461 48 492 134 L489 135 C463 63 382 15 287 15 C196 15 135 115 135 266 C135 293 137 318 140 340 L140 340 Z M414 348 L141 346 C159 458 218 504 299 504 C350 504 392 460 413 348 L414 348 L414 348 Z " />
<glyph glyph-name="Ecaron" unicode="&#x11a;" horiz-adv-x="667" d="M499 1044 L359 905 L219 1044 L207 1034 L329 845 C335 836 349 815 359 815 C369 815 383 836 389 845 L511 1034 L499 1044 L499 1044 Z M40 735 L57 735 C116 735 155 687 155 615 L155 135 C155 63 116 15 57 15 L40 15 L40 0 L590 0 L591 4 L590 4 C590 7 612 130 614 142 L599 142 L591 122 C568 58 498 14 413 8 C271 15 255 83 255 183 L255 385 L334 385 C412 385 472 336 485 262 L489 240 L504 240 L504 385 L505 385 L505 392 L504 392 L504 537 L489 537 L485 515 C472 441 412 392 334 392 L255 392 L255 743 L395 743 C474 743 540 694 562 620 L569 598 L584 598 C578 643 571 702 565 747 L565 750 L40 750 L40 735 L40 735 Z " />
<glyph glyph-name="ecaron" unicode="&#x11b;" horiz-adv-x="540" d="M441 794 L301 655 L161 794 L149 784 L271 595 C277 586 291 565 301 565 C311 565 325 586 331 595 L453 784 L441 794 L441 794 Z M140 340 L510 340 C488 462 408 510 301 510 C147 510 45 432 45 231 C45 86 138 -10 278 -10 C375 -10 461 48 492 134 L489 135 C463 63 382 15 287 15 C196 15 135 115 135 266 C135 293 137 318 140 340 L140 340 Z M414 348 L141 346 C159 458 218 504 299 504 C350 504 392 460 413 348 L414 348 L414 348 Z " />
<glyph glyph-name="Gcircumflex" unicode="&#x11c;" horiz-adv-x="830" d="M696 519 L696 756 L682 756 L678 733 C674 707 635 705 579 728 C560 737 535 745 514 752 L513 750 C485 756 453 759 416 759 C196 759 49 605 49 374 C49 143 195 -11 413 -11 C515 -11 596 4 668 28 L678 30 L678 31 C703 40 727 50 751 61 L748 65 C727 55 704 46 678 38 L678 170 C678 251 714 305 767 305 L783 305 L783 324 L473 324 L473 305 L489 305 C542 305 578 251 578 170 L579 170 C579 150 579 130 579 111 C577 50 518 10 430 10 C269 10 161 156 161 375 C161 601 265 752 420 752 C459 752 493 745 523 733 C589 705 646 634 669 550 L678 519 L696 519 L696 519 Z M448 1005 C442 1014 428 1035 418 1035 C408 1035 394 1014 388 1005 L266 816 L278 806 L418 945 L558 806 L570 816 L448 1005 L448 1005 Z " />
<glyph glyph-name="Gbreve" unicode="&#x11e;" horiz-adv-x="830" d="M281 994 C288 920 342 870 416 870 C491 870 545 919 551 992 L533 995 C530 956 483 930 416 930 C349 930 303 957 299 997 L281 994 L281 994 Z M696 519 L696 756 L682 756 L678 733 C674 707 635 705 579 728 C560 737 535 745 514 752 L513 750 C485 756 453 759 416 759 C196 759 49 605 49 374 C49 143 195 -11 413 -11 C515 -11 596 4 668 28 L678 30 L678 31 C703 40 727 50 751 61 L748 65 C727 55 704 46 678 38 L678 170 C678 251 714 305 767 305 L783 305 L783 324 L473 324 L473 305 L489 305 C542 305 578 251 578 170 L579 170 C579 150 579 130 579 111 C577 50 518 10 430 10 C269 10 161 156 161 375 C161 601 265 752 420 752 C459 752 493 745 523 733 C589 705 646 634 669 550 L678 519 L696 519 L696 519 Z " />
<glyph glyph-name="gbreve" unicode="&#x11f;" horiz-adv-x="520" d="M120 744 C127 670 181 620 255 620 C330 620 384 669 390 742 L372 745 C369 706 322 680 255 680 C188 680 142 707 138 747 L120 744 L120 744 Z M541 479 C541 510 519 530 486 530 C452 530 415 503 391 461 C359 492 312 510 255 510 C147 510 75 446 75 350 C75 266 129 206 213 191 C116 184 54 151 54 104 C54 50 89 12 145 2 C84 -17 45 -54 45 -94 C45 -175 133 -229 265 -229 C397 -229 485 -164 485 -67 C485 24 433 85 299 85 C264 85 199 86 181 86 C135 86 105 104 105 131 C105 166 165 189 255 189 C363 189 435 254 435 351 C435 394 421 430 396 457 C407 469 422 476 437 476 C458 476 485 442 506 442 C528 442 542 457 542 479 L541 479 L541 479 Z M256 194 C199 194 161 256 161 350 C161 442 199 504 256 504 C313 504 351 442 351 350 C351 256 313 194 256 194 L256 194 Z M157 0 C187 -4 243 -1 291 -1 C380 -1 414 -36 414 -89 C414 -171 355 -225 267 -225 C176 -225 116 -165 116 -76 C116 -43 131 -15 156 -1 L157 0 L157 0 Z " />
<glyph glyph-name="Gdot" unicode="&#x120;" horiz-adv-x="830" d="M416 865 C449 865 471 887 471 920 C471 953 449 975 416 975 C383 975 361 953 361 920 C361 887 383 865 416 865 L416 865 Z M696 519 L696 756 L682 756 L678 733 C674 707 635 705 579 728 C560 737 535 745 514 752 L513 750 C485 756 453 759 416 759 C196 759 49 605 49 374 C49 143 195 -11 413 -11 C515 -11 596 4 668 28 L678 30 L678 31 C703 40 727 50 751 61 L748 65 C727 55 704 46 678 38 L678 170 C678 251 714 305 767 305 L783 305 L783 324 L473 324 L473 305 L489 305 C542 305 578 251 578 170 L579 170 C579 150 579 130 579 111 C577 50 518 10 430 10 C269 10 161 156 161 375 C161 601 265 752 420 752 C459 752 493 745 523 733 C589 705 646 634 669 550 L678 519 L696 519 L696 519 Z " />
<glyph glyph-name="gdot" unicode="&#x121;" horiz-adv-x="520" d="M255 615 C288 615 310 637 310 670 C310 703 288 725 255 725 C222 725 200 703 200 670 C200 637 222 615 255 615 L255 615 Z M541 479 C541 510 519 530 486 530 C452 530 415 503 391 461 C359 492 312 510 255 510 C147 510 75 446 75 350 C75 266 129 206 213 191 C116 184 54 151 54 104 C54 50 89 12 145 2 C84 -17 45 -54 45 -94 C45 -175 133 -229 265 -229 C397 -229 485 -164 485 -67 C485 24 433 85 299 85 C264 85 199 86 181 86 C135 86 105 104 105 131 C105 166 165 189 255 189 C363 189 435 254 435 351 C435 394 421 430 396 457 C407 469 422 476 437 476 C458 476 485 442 506 442 C528 442 542 457 542 479 L541 479 L541 479 Z M256 194 C199 194 161 256 161 350 C161 442 199 504 256 504 C313 504 351 442 351 350 C351 256 313 194 256 194 L256 194 Z M157 0 C187 -4 243 -1 291 -1 C380 -1 414 -36 414 -89 C414 -171 355 -225 267 -225 C176 -225 116 -165 116 -76 C116 -43 131 -15 156 -1 L157 0 L157 0 Z " />
<glyph glyph-name="Hcircumflex" unicode="&#x124;" horiz-adv-x="881" d="M489 1005 C483 1014 469 1035 459 1035 C449 1035 435 1014 429 1005 L307 816 L318 806 L458 945 L599 806 L610 816 L489 1005 L489 1005 Z M821 15 L807 15 C758 15 726 55 726 115 L726 635 C726 695 758 735 807 735 L821 735 L821 750 L531 750 L531 735 L545 735 C594 735 626 695 626 635 L626 391 L291 391 L291 635 C291 695 323 735 372 735 L386 735 L386 750 L96 750 L96 735 L110 735 C159 735 191 695 191 635 L191 115 C191 55 159 15 110 15 L96 15 L96 0 L386 0 L386 15 L372 15 C323 15 291 55 291 115 L291 383 L626 383 L626 115 C626 55 594 15 545 15 L531 15 L531 0 L821 0 L821 15 L821 15 Z " />
<glyph glyph-name="Itilde" unicode="&#x128;" horiz-adv-x="405" d="M57 870 C57 906 75 930 101 930 C153 930 222 865 274 865 C318 865 348 913 348 985 L343 985 C343 949 323 925 294 925 C242 925 173 990 121 990 C80 990 52 942 52 870 L57 870 L57 870 Z M345 15 L331 15 C282 15 250 55 250 115 L250 635 C250 695 282 735 331 735 L345 735 L345 750 L55 750 L55 735 L69 735 C118 735 150 695 150 635 L150 115 C150 55 118 15 69 15 L55 15 L55 0 L345 0 L345 15 L345 15 Z " />
<glyph glyph-name="itilde" unicode="&#x129;" horiz-adv-x="340" d="M35 620 C35 656 53 680 79 680 C131 680 200 615 252 615 C296 615 325 663 325 735 L320 735 C320 699 301 675 272 675 C220 675 150 740 98 740 C57 740 30 692 30 620 L35 620 L35 620 Z M60 454 L71 457 C109 467 135 448 135 409 L135 80 C135 41 109 15 71 15 L60 15 L60 0 L295 0 L295 15 L284 15 C246 15 220 41 220 80 L220 500 L178 500 L178 501 C165 497 150 493 135 489 C109 482 82 475 60 469 L60 454 L60 454 Z " />
<glyph glyph-name="Imacron" unicode="&#x12a;" horiz-adv-x="405" d="M50 895 L350 895 L350 954 L50 954 L50 895 L50 895 Z M345 15 L331 15 C282 15 250 55 250 115 L250 635 C250 695 282 735 331 735 L345 735 L345 750 L55 750 L55 735 L69 735 C118 735 150 695 150 635 L150 115 C150 55 118 15 69 15 L55 15 L55 0 L345 0 L345 15 L345 15 Z " />
<glyph glyph-name="imacron" unicode="&#x12b;" horiz-adv-x="340" d="M28 645 L328 645 L328 704 L28 704 L28 645 L28 645 Z M60 454 L71 457 C109 467 135 448 135 409 L135 80 C135 41 109 15 71 15 L60 15 L60 0 L295 0 L295 15 L284 15 C246 15 220 41 220 80 L220 500 L178 500 L178 501 C165 497 150 493 135 489 C109 482 82 475 60 469 L60 454 L60 454 Z " />
<glyph glyph-name="Ibreve" unicode="&#x12c;" horiz-adv-x="405" d="M65 994 C72 920 126 870 200 870 C275 870 329 919 335 992 L317 995 C314 956 267 930 200 930 C133 930 87 957 83 997 L65 994 L65 994 Z M345 15 L331 15 C282 15 250 55 250 115 L250 635 C250 695 282 735 331 735 L345 735 L345 750 L55 750 L55 735 L69 735 C118 735 150 695 150 635 L150 115 C150 55 118 15 69 15 L55 15 L55 0 L345 0 L345 15 L345 15 Z " />
<glyph glyph-name="ibreve" unicode="&#x12d;" horiz-adv-x="340" d="M43 744 C50 670 104 620 178 620 C252 620 306 669 312 742 L294 745 C291 706 244 680 178 680 C111 680 65 707 61 747 L43 744 L43 744 Z M60 454 L71 457 C109 467 135 448 135 409 L135 80 C135 41 109 15 71 15 L60 15 L60 0 L295 0 L295 15 L284 15 C246 15 220 41 220 80 L220 500 L178 500 L178 501 C165 497 150 493 135 489 C109 482 82 475 60 469 L60 454 L60 454 Z " />
<glyph glyph-name="Idot" unicode="&#x130;" horiz-adv-x="405" d="M200 865 C233 865 255 887 255 920 C255 953 233 975 200 975 C167 975 145 953 145 920 C145 887 167 865 200 865 L200 865 Z M345 15 L331 15 C282 15 250 55 250 115 L250 635 C250 695 282 735 331 735 L345 735 L345 750 L55 750 L55 735 L69 735 C118 735 150 695 150 635 L150 115 C150 55 118 15 69 15 L55 15 L55 0 L345 0 L345 15 L345 15 Z " />
<glyph glyph-name="dotlessi" unicode="&#x131;" horiz-adv-x="340" d="M60 454 L71 457 C109 467 135 448 135 409 L135 80 C135 41 109 15 71 15 L60 15 L60 0 L295 0 L295 15 L284 15 C246 15 220 41 220 80 L220 500 L178 500 L178 501 C165 497 150 493 135 489 C109 482 82 475 60 469 L60 454 L60 454 Z " />
<glyph glyph-name="Jcircumflex" unicode="&#x134;" horiz-adv-x="405" d="M230 1005 C224 1014 210 1035 200 1035 C190 1035 176 1014 170 1005 L48 816 L60 806 L200 945 L340 806 L352 816 L230 1005 L230 1005 Z M345 750 L55 750 L55 735 L69 735 C118 735 150 695 150 635 L150 -73 C150 -187 82 -209 33 -209 C-16 -209 8 -129 -42 -129 C-69 -129 -87 -147 -87 -174 C-87 -202 -42 -220 25 -220 C120 -220 250 -166 250 117 L250 635 C250 695 282 735 331 735 L345 735 L345 750 L345 750 Z " />
<glyph glyph-name="Lacute" unicode="&#x139;" horiz-adv-x="670" d="M207 812 L349 932 C387 965 413 990 413 996 C413 1019 394 1038 371 1038 C365 1038 342 1011 310 971 L196 823 L207 812 L207 812 Z M345 750 L55 750 L55 735 L69 735 C118 735 150 695 150 635 L150 115 C150 55 118 15 69 15 L55 15 L55 0 L585 0 L586 9 L585 9 L585 14 C592 56 601 111 609 152 L594 152 L586 132 C563 67 493 23 408 18 C266 25 250 89 250 184 L250 636 C250 696 282 736 331 736 L345 736 L345 750 L345 750 Z " />
<glyph glyph-name="Lcaron" unicode="&#x13d;" horiz-adv-x="670" d="M446 808 C429 808 419 745 415 700 L405 589 L420 586 L459 691 C474 730 484 772 484 796 C484 805 469 808 446 808 L446 808 Z M345 750 L55 750 L55 735 L69 735 C118 735 150 695 150 635 L150 115 C150 55 118 15 69 15 L55 15 L55 0 L585 0 L586 9 L585 9 L585 14 C592 56 601 111 609 152 L594 152 L586 132 C563 67 493 23 408 18 C266 25 250 89 250 184 L250 636 C250 696 282 736 331 736 L345 736 L345 750 L345 750 Z " />
<glyph glyph-name="lcaron" unicode="&#x13e;" horiz-adv-x="284" d="M266 758 C249 758 239 695 235 650 L225 539 L240 536 L279 641 C294 680 304 722 304 746 C304 755 289 758 266 758 L266 758 Z M19 709 L30 709 C68 710 94 674 94 617 L94 80 C94 41 68 15 30 15 L19 15 L19 0 L254 0 L254 15 L243 15 C205 15 179 41 179 80 L179 750 L137 750 L137 751 C124 747 109 743 94 739 C68 732 41 725 19 719 L19 709 L19 709 Z " />
<glyph glyph-name="Nacute" unicode="&#x143;" horiz-adv-x="806" d="M307 812 L449 932 C487 965 513 990 513 996 C513 1019 494 1038 471 1038 C465 1038 442 1011 410 971 L296 823 L307 812 L307 812 Z M-12 735 L2 735 C48 735 107 699 149 646 L148 115 L148 115 C148 55 115 15 67 15 L53 15 L53 0 L274 0 L274 15 L260 15 C214 15 182 50 178 103 L175 610 C324 407 474 204 623 0 L643 0 C645 212 647 424 650 635 C651 695 683 735 732 735 L746 735 L746 750 L525 750 L525 735 L539 735 C588 735 620 695 620 635 L620 635 L622 170 C482 365 339 557 197 750 L-12 750 L-12 735 L-12 735 Z " />
<glyph glyph-name="Ncaron" unicode="&#x147;" horiz-adv-x="806" d="M539 1044 L399 905 L259 1044 L247 1034 L369 845 C375 836 389 815 399 815 C409 815 423 836 429 845 L551 1034 L539 1044 L539 1044 Z M-12 735 L2 735 C48 735 107 699 149 646 L148 115 L148 115 C148 55 115 15 67 15 L53 15 L53 0 L274 0 L274 15 L260 15 C214 15 182 50 178 103 L175 610 C324 407 474 204 623 0 L643 0 C645 212 647 424 650 635 C651 695 683 735 732 735 L746 735 L746 750 L525 750 L525 735 L539 735 C588 735 620 695 620 635 L620 635 L622 170 C482 365 339 557 197 750 L-12 750 L-12 735 L-12 735 Z " />
<glyph glyph-name="ncaron" unicode="&#x148;" horiz-adv-x="589" d="M429 794 L289 655 L149 794 L137 784 L259 595 C265 586 279 565 289 565 C299 565 313 586 319 595 L441 784 L429 794 L429 794 Z M19 459 L30 459 C68 460 94 424 94 367 L94 80 C94 41 68 15 30 15 L19 15 L19 0 L254 0 L254 15 L243 15 C205 15 179 41 179 80 L179 370 C212 427 268 465 319 465 C372 465 399 411 399 330 L399 80 C399 41 373 15 335 15 L324 15 L324 0 L559 0 L559 15 L548 15 C510 15 484 41 484 80 L484 330 C484 438 437 510 347 510 C290 510 222 460 179 385 L179 500 L137 500 L137 501 C124 497 109 493 94 489 C68 482 41 475 19 469 L19 459 L19 459 Z " />
<glyph glyph-name="Omacron" unicode="&#x14c;" horiz-adv-x="851" d="M268 895 L568 895 L568 954 L268 954 L268 895 L268 895 Z M159 375 C159 601 262 752 417 752 C579 752 687 601 687 375 C687 149 576 -2 410 -2 C259 -2 159 149 159 375 L159 375 Z M50 375 C50 144 193 -10 408 -10 C641 -10 796 144 796 375 C796 606 645 760 418 760 C197 760 50 606 50 375 L50 375 Z " />
<glyph glyph-name="omacron" unicode="&#x14d;" horiz-adv-x="614" d="M157 645 L457 645 L457 704 L157 704 L157 645 L157 645 Z M139 250 C139 401 206 502 307 502 C407 502 474 401 474 250 C474 99 407 -2 307 -2 C206 -2 139 99 139 250 L139 250 Z M45 250 C45 94 150 -10 307 -10 C464 -10 569 94 569 250 C569 406 464 510 307 510 C150 510 45 406 45 250 L45 250 Z " />
<glyph glyph-name="Obreve" unicode="&#x14e;" horiz-adv-x="851" d="M283 994 C290 920 344 870 418 870 C493 870 547 919 553 992 L535 995 C532 956 485 930 418 930 C351 930 305 957 301 997 L283 994 L283 994 Z M159 375 C159 601 262 752 417 752 C579 752 687 601 687 375 C687 149 576 -2 410 -2 C259 -2 159 149 159 375 L159 375 Z M50 375 C50 144 193 -10 408 -10 C641 -10 796 144 796 375 C796 606 645 760 418 760 C197 760 50 606 50 375 L50 375 Z " />
<glyph glyph-name="obreve" unicode="&#x14f;" horiz-adv-x="614" d="M172 744 C179 670 233 620 307 620 C382 620 436 669 442 742 L424 745 C421 706 374 680 307 680 C240 680 194 707 190 747 L172 744 L172 744 Z M139 250 C139 401 206 502 307 502 C407 502 474 401 474 250 C474 99 407 -2 307 -2 C206 -2 139 99 139 250 L139 250 Z M45 250 C45 94 150 -10 307 -10 C464 -10 569 94 569 250 C569 406 464 510 307 510 C150 510 45 406 45 250 L45 250 Z " />
<glyph glyph-name="Racute" unicode="&#x154;" horiz-adv-x="816" d="M340 812 L482 932 C520 965 546 990 546 996 C546 1019 527 1038 504 1038 C498 1038 474 1011 443 971 L330 823 L340 812 L340 812 Z M60 735 L74 735 C123 735 155 695 155 635 L155 115 C155 55 123 15 74 15 L60 15 L60 0 L350 0 L350 15 L336 15 C287 15 255 55 255 115 L255 355 L356 355 C377 318 450 213 549 75 C601 3 611 0 806 0 L806 15 C713 15 707 17 666 75 C565 216 490 321 459 364 C559 385 621 441 621 538 C621 665 517 750 360 750 L60 750 L60 735 L60 735 Z M255 380 L255 730 L330 730 C438 730 510 661 510 558 C510 435 450 380 360 380 L255 380 L255 380 Z " />
<glyph glyph-name="Rcaron" unicode="&#x158;" horiz-adv-x="816" d="M473 1044 L332 905 L192 1044 L181 1034 L303 845 C309 836 323 815 333 815 C343 815 357 836 363 845 L484 1034 L473 1044 L473 1044 Z M60 735 L74 735 C123 735 155 695 155 635 L155 115 C155 55 123 15 74 15 L60 15 L60 0 L350 0 L350 15 L336 15 C287 15 255 55 255 115 L255 355 L356 355 C377 318 450 213 549 75 C601 3 611 0 806 0 L806 15 C713 15 707 17 666 75 C565 216 490 321 459 364 C559 385 621 441 621 538 C621 665 517 750 360 750 L60 750 L60 735 L60 735 Z M255 380 L255 730 L330 730 C438 730 510 661 510 558 C510 435 450 380 360 380 L255 380 L255 380 Z " />
<glyph glyph-name="rcaron" unicode="&#x159;" horiz-adv-x="430" d="M390 794 L250 655 L110 794 L98 784 L220 595 C226 586 240 565 250 565 C260 565 274 586 280 595 L402 784 L390 794 L390 794 Z M20 459 L31 459 C69 460 95 424 95 367 L95 80 C95 41 69 15 31 15 L20 15 L20 0 L255 0 L255 15 L244 15 C206 15 180 41 180 80 L180 379 C200 434 241 469 285 469 C306 469 320 455 320 434 C320 404 340 384 370 384 C400 384 420 404 420 434 C420 479 382 509 325 509 C262 509 206 464 180 394 L180 500 L138 500 L138 501 C125 497 110 493 95 489 C69 482 42 475 20 469 L20 459 L20 459 Z " />
<glyph glyph-name="Sacute" unicode="&#x15a;" horiz-adv-x="551" d="M282 812 L424 932 C462 965 488 990 488 996 C488 1019 469 1038 446 1038 C440 1038 417 1011 385 971 L271 823 L282 812 L282 812 Z M50 250 L50 -10 L64 -10 L68 17 C72 45 115 45 176 18 C194 9 214 0 233 -6 L234 -3 C253 -8 272 -10 292 -10 C423 -10 511 72 511 196 C511 293 447 382 322 427 C204 470 143 536 143 601 C143 699 192 759 273 751 C349 744 416 673 442 573 L451 540 L471 540 L471 764 L457 764 L453 744 C449 724 407 722 356 741 C330 755 302 764 273 767 L273 759 C147 767 64 687 64 563 C64 462 131 371 262 323 C374 282 431 224 431 167 C431 47 349 -27 238 9 C169 32 105 115 79 217 L70 250 L50 250 L50 250 Z " />
<glyph glyph-name="Scircumflex" unicode="&#x15c;" horiz-adv-x="551" d="M304 1005 C298 1014 284 1035 274 1035 C264 1035 250 1014 244 1005 L122 816 L134 806 L274 945 L414 806 L426 816 L304 1005 L304 1005 Z M50 250 L50 -10 L64 -10 L68 17 C72 45 115 45 176 18 C194 9 214 0 233 -6 L234 -3 C253 -8 272 -10 292 -10 C423 -10 511 72 511 196 C511 293 447 382 322 427 C204 470 143 536 143 601 C143 699 192 759 273 751 C349 744 416 673 442 573 L451 540 L471 540 L471 764 L457 764 L453 744 C449 724 407 722 356 741 C330 755 302 764 273 767 L273 759 C147 767 64 687 64 563 C64 462 131 371 262 323 C374 282 431 224 431 167 C431 47 349 -27 238 9 C169 32 105 115 79 217 L70 250 L50 250 L50 250 Z " />
<glyph glyph-name="Scaron" unicode="&#x160;" horiz-adv-x="551" d="M414 1044 L274 905 L134 1044 L122 1034 L244 845 C250 836 264 815 274 815 C284 815 298 836 304 845 L426 1034 L414 1044 L414 1044 Z M50 250 L50 -10 L64 -10 L68 17 C72 45 115 45 176 18 C194 9 214 0 233 -6 L234 -3 C253 -8 272 -10 292 -10 C423 -10 511 72 511 196 C511 293 447 382 322 427 C204 470 143 536 143 601 C143 699 192 759 273 751 C349 744 416 673 442 573 L451 540 L471 540 L471 764 L457 764 L453 744 C449 724 407 722 356 741 C330 755 302 764 273 767 L273 759 C147 767 64 687 64 563 C64 462 131 371 262 323 C374 282 431 224 431 167 C431 47 349 -27 238 9 C169 32 105 115 79 217 L70 250 L50 250 L50 250 Z " />
<glyph glyph-name="scaron" unicode="&#x161;" horiz-adv-x="428" d="M358 794 L218 655 L78 794 L66 784 L188 595 C194 586 208 565 218 565 C228 565 242 586 248 595 L370 784 L358 794 L358 794 Z M353 332 L353 520 L342 520 L339 504 C339 502 306 503 255 506 C239 513 222 517 205 517 L205 510 C118 510 60 458 60 379 C60 304 108 242 200 217 C275 197 314 154 314 106 C314 32 263 -21 191 0 L192 5 C180 7 168 11 156 16 C115 44 84 98 74 165 L72 186 L60 186 L60 -12 L71 -12 L74 5 C75 9 110 6 165 -4 C177 -10 190 -14 202 -16 L203 -10 C307 -20 378 43 378 129 C378 198 330 257 237 282 C159 303 119 351 119 408 C119 469 158 509 218 502 L217 496 C233 495 248 492 262 487 C301 463 330 415 339 352 L342 331 L353 332 L353 332 Z " />
<glyph glyph-name="Tcaron" unicode="&#x164;" horiz-adv-x="775" d="M528 1044 L388 905 L248 1044 L236 1034 L358 845 C364 836 378 815 388 815 C398 815 412 836 418 845 L540 1034 L528 1044 L528 1044 Z M687 805 L683 797 C671 769 612 750 534 750 L241 750 C163 750 104 769 92 797 L88 805 L77 805 C69 785 59 760 50 738 L55 738 L55 734 C37 691 14 634 -3 592 L12 592 L24 612 C65 681 146 727 227 727 L337 727 L337 117 C337 57 305 17 256 17 L242 17 L242 2 L533 2 L533 17 L519 17 C470 17 438 57 438 117 L438 727 L548 727 C629 727 710 681 751 612 L763 592 L778 592 C761 634 738 691 720 734 L720 738 L725 738 C724 741 720 747 720 751 L720 751 C713 769 705 790 699 806 L687 805 L687 805 Z " />
<glyph glyph-name="tcaron" unicode="&#x165;" horiz-adv-x="378" d="M333 500 L180 500 L180 620 L174 620 L30 466 L30 456 L95 456 L95 160 C95 38 150 -10 232 -10 C291 -10 345 32 368 96 L358 100 C343 58 303 30 258 30 C210 30 178 61 178 141 L180 455 L333 455 L333 500 L333 500 Z M425 758 C408 758 398 695 394 650 L384 539 L399 536 L438 641 C453 680 463 722 463 746 C463 755 448 758 425 758 L425 758 Z " />
<glyph glyph-name="Utilde" unicode="&#x168;" horiz-adv-x="780" d="M245 870 C245 906 263 930 289 930 C341 930 410 865 462 865 C506 865 535 913 535 985 L530 985 C530 949 511 925 482 925 C430 925 360 990 308 990 C267 990 240 942 240 870 L245 870 L245 870 Z M750 54 L736 50 C687 37 655 68 655 128 L655 750 L460 750 L460 735 L474 735 C523 735 555 695 555 635 L555 190 C517 109 433 55 344 55 C270 55 220 121 220 220 L220 750 L25 750 L25 735 L39 735 C88 735 120 695 120 635 L120 220 C120 82 194 -10 304 -10 C411 -10 512 52 555 145 L555 0 L605 0 C621 4 639 8 655 13 C687 22 721 31 749 39 L750 54 L750 54 Z " />
<glyph glyph-name="utilde" unicode="&#x169;" horiz-adv-x="580" d="M142 620 C142 656 160 680 186 680 C238 680 307 615 359 615 C403 615 433 663 433 735 L428 735 C428 699 408 675 379 675 C327 675 258 740 206 740 C165 740 137 692 137 620 L142 620 L142 620 Z M565 48 L552 45 C509 34 480 66 480 126 L480 500 L320 500 L320 485 L331 485 C369 485 395 459 395 420 L395 132 C371 82 321 49 267 49 C212 49 175 93 175 160 L175 500 L15 500 L15 485 L26 485 C64 485 90 459 90 420 L90 160 C90 58 145 -10 227 -10 C295 -10 361 42 395 122 L395 -1 L437 -1 L437 -2 C475 8 527 22 565 32 L565 48 L565 48 Z " />
<glyph glyph-name="Umacron" unicode="&#x16a;" horiz-adv-x="780" d="M238 895 L538 895 L538 954 L238 954 L238 895 L238 895 Z M750 54 L736 50 C687 37 655 68 655 128 L655 750 L460 750 L460 735 L474 735 C523 735 555 695 555 635 L555 190 C517 109 433 55 344 55 C270 55 220 121 220 220 L220 750 L25 750 L25 735 L39 735 C88 735 120 695 120 635 L120 220 C120 82 194 -10 304 -10 C411 -10 512 52 555 145 L555 0 L605 0 C621 4 639 8 655 13 C687 22 721 31 749 39 L750 54 L750 54 Z " />
<glyph glyph-name="umacron" unicode="&#x16b;" horiz-adv-x="580" d="M135 645 L435 645 L435 704 L135 704 L135 645 L135 645 Z M565 48 L552 45 C509 34 480 66 480 126 L480 500 L320 500 L320 485 L331 485 C369 485 395 459 395 420 L395 132 C371 82 321 49 267 49 C212 49 175 93 175 160 L175 500 L15 500 L15 485 L26 485 C64 485 90 459 90 420 L90 160 C90 58 145 -10 227 -10 C295 -10 361 42 395 122 L395 -1 L437 -1 L437 -2 C475 8 527 22 565 32 L565 48 L565 48 Z " />
<glyph glyph-name="Ubreve" unicode="&#x16c;" horiz-adv-x="780" d="M253 994 C260 920 314 870 388 870 C462 870 516 919 522 992 L504 995 C501 956 454 930 388 930 C321 930 275 957 271 997 L253 994 L253 994 Z M750 54 L736 50 C687 37 655 68 655 128 L655 750 L460 750 L460 735 L474 735 C523 735 555 695 555 635 L555 190 C517 109 433 55 344 55 C270 55 220 121 220 220 L220 750 L25 750 L25 735 L39 735 C88 735 120 695 120 635 L120 220 C120 82 194 -10 304 -10 C411 -10 512 52 555 145 L555 0 L605 0 C621 4 639 8 655 13 C687 22 721 31 749 39 L750 54 L750 54 Z " />
<glyph glyph-name="ubreve" unicode="&#x16d;" horiz-adv-x="580" d="M150 744 C157 670 211 620 285 620 C360 620 414 669 420 742 L402 745 C399 706 352 680 285 680 C218 680 172 707 168 747 L150 744 L150 744 Z M565 48 L552 45 C509 34 480 66 480 126 L480 500 L320 500 L320 485 L331 485 C369 485 395 459 395 420 L395 132 C371 82 321 49 267 49 C212 49 175 93 175 160 L175 500 L15 500 L15 485 L26 485 C64 485 90 459 90 420 L90 160 C90 58 145 -10 227 -10 C295 -10 361 42 395 122 L395 -1 L437 -1 L437 -2 C475 8 527 22 565 32 L565 48 L565 48 Z " />
<glyph glyph-name="Uring" unicode="&#x16e;" horiz-adv-x="780" d="M315 905 C315 950 344 980 388 980 C431 980 460 950 460 905 C460 865 427 830 388 830 C349 830 315 865 315 905 L315 905 Z M290 905 C290 854 335 810 388 810 C440 810 485 854 485 905 C485 962 446 1000 388 1000 C329 1000 290 962 290 905 L290 905 Z M750 54 L736 50 C687 37 655 68 655 128 L655 750 L460 750 L460 735 L474 735 C523 735 555 695 555 635 L555 190 C517 109 433 55 344 55 C270 55 220 121 220 220 L220 750 L25 750 L25 735 L39 735 C88 735 120 695 120 635 L120 220 C120 82 194 -10 304 -10 C411 -10 512 52 555 145 L555 0 L605 0 C621 4 639 8 655 13 C687 22 721 31 749 39 L750 54 L750 54 Z " />
<glyph glyph-name="uring" unicode="&#x16f;" horiz-adv-x="580" d="M213 655 C213 700 242 730 285 730 C328 730 357 700 357 655 C357 615 324 580 285 580 C246 580 213 615 213 655 L213 655 Z M187 655 C187 604 232 560 285 560 C338 560 383 604 383 655 C383 712 344 750 285 750 C226 750 187 712 187 655 L187 655 Z M565 48 L552 45 C509 34 480 66 480 126 L480 500 L320 500 L320 485 L331 485 C369 485 395 459 395 420 L395 132 C371 82 321 49 267 49 C212 49 175 93 175 160 L175 500 L15 500 L15 485 L26 485 C64 485 90 459 90 420 L90 160 C90 58 145 -10 227 -10 C295 -10 361 42 395 122 L395 -1 L437 -1 L437 -2 C475 8 527 22 565 32 L565 48 L565 48 Z " />
<glyph glyph-name="Wcircumflex" unicode="&#x174;" horiz-adv-x="1129" d="M1113 750 L820 750 L820 731 L842 731 C915 731 952 684 937 613 L805 138 L636 605 C610 681 636 731 703 731 L723 731 L723 750 L390 750 L390 731 L404 731 C449 731 498 681 528 605 L568 500 L424 121 C365 281 306 441 247 601 C218 679 238 731 295 731 L312 731 L312 750 L3 750 L3 731 L16 731 C59 731 108 679 138 601 L138 601 C217 397 296 193 374 -11 L399 -11 L584 456 C644 300 704 144 764 -11 L789 -11 C849 193 909 397 970 600 C993 678 1044 730 1098 730 L1113 730 L1113 750 L1113 750 Z M578 1004 C572 1013 558 1034 548 1034 C538 1034 524 1013 518 1004 L396 815 L408 805 L548 944 L688 805 L700 815 L578 1004 L578 1004 Z " />
<glyph glyph-name="Ycircumflex" unicode="&#x176;" horiz-adv-x="758" d="M309 750 L4 750 L4 735 L16 735 C57 735 110 693 148 630 L148 630 L336 322 L336 135 C336 63 297 15 238 15 L221 15 L221 0 L552 0 L552 15 L535 15 C476 15 437 63 437 135 L437 335 L597 635 C631 695 687 735 739 735 L755 735 L755 750 L507 750 L507 735 L529 735 C592 735 612 693 580 630 L580 630 L434 345 L262 635 C229 695 241 735 293 735 L309 735 L309 750 L309 750 Z M417 1005 C411 1014 397 1035 387 1035 C377 1035 363 1014 357 1005 L235 816 L246 806 L386 945 L527 806 L538 816 L417 1005 L417 1005 Z " />
<glyph glyph-name="Ydieresis" unicode="&#x178;" horiz-adv-x="758" d="M462 865 C495 865 517 887 517 920 C517 953 495 975 462 975 C428 975 406 953 406 920 C406 887 428 865 462 865 L462 865 Z M311 865 C345 865 367 887 367 920 C367 953 345 975 311 975 C278 975 256 953 256 920 C256 887 278 865 311 865 L311 865 Z M309 750 L4 750 L4 735 L16 735 C57 735 110 693 148 630 L148 630 L336 322 L336 135 C336 63 297 15 238 15 L221 15 L221 0 L552 0 L552 15 L535 15 C476 15 437 63 437 135 L437 335 L597 635 C631 695 687 735 739 735 L755 735 L755 750 L507 750 L507 735 L529 735 C592 735 612 693 580 630 L580 630 L434 345 L262 635 C229 695 241 735 293 735 L309 735 L309 750 L309 750 Z " />
<glyph glyph-name="Zacute" unicode="&#x179;" horiz-adv-x="657" d="M349 812 L491 932 C529 965 555 990 555 996 C555 1019 536 1038 513 1038 C507 1038 484 1011 452 971 L338 823 L349 812 L349 812 Z M71 587 L77 608 C95 674 164 720 252 724 L501 728 L24 20 L24 0 L605 0 L608 15 L608 15 L643 165 L628 165 L619 144 C590 75 509 29 415 27 L415 27 L141 22 L608 730 L608 750 L68 750 L65 722 L66 722 C64 699 60 650 54 586 L71 587 L71 587 Z " />
<glyph glyph-name="Zdot" unicode="&#x17b;" horiz-adv-x="657" d="M341 865 C374 865 396 887 396 920 C396 953 374 975 341 975 C308 975 286 953 286 920 C286 887 308 865 341 865 L341 865 Z M71 587 L77 608 C95 674 164 720 252 724 L501 728 L24 20 L24 0 L605 0 L608 15 L608 15 L643 165 L628 165 L619 144 C590 75 509 29 415 27 L415 27 L141 22 L608 730 L608 750 L68 750 L65 722 L66 722 C64 699 60 650 54 586 L71 587 L71 587 Z " />
<glyph glyph-name="zdot" unicode="&#x17c;" horiz-adv-x="475" d="M254 615 C287 615 309 637 309 670 C309 703 287 725 254 725 C221 725 199 703 199 670 C199 637 221 615 254 615 L254 615 Z M29 362 L46 362 L55 379 C82 431 149 469 225 475 L333 478 L40 21 L40 1 L430 1 L430 16 L435 16 C435 16 440 65 448 139 L431 139 L425 122 C406 70 346 34 273 27 L144 24 L435 481 L435 501 L167 501 C115 501 86 516 95 543 L77 543 C72 526 66 503 61 486 C63 486 49 438 29 363 L29 362 L29 362 Z " />
<glyph glyph-name="Zcaron" unicode="&#x17d;" horiz-adv-x="657" d="M481 1044 L341 905 L201 1044 L189 1034 L311 845 C317 836 331 815 341 815 C351 815 365 836 371 845 L493 1034 L481 1044 L481 1044 Z M71 587 L77 608 C95 674 164 720 252 724 L501 728 L24 20 L24 0 L605 0 L608 15 L608 15 L643 165 L628 165 L619 144 C590 75 509 29 415 27 L415 27 L141 22 L608 730 L608 750 L68 750 L65 722 L66 722 C64 699 60 650 54 586 L71 587 L71 587 Z " />
<glyph glyph-name="zcaron" unicode="&#x17e;" horiz-adv-x="475" d="M394 794 L254 655 L114 794 L102 784 L224 595 C230 586 244 565 254 565 C264 565 278 586 284 595 L406 784 L394 794 L394 794 Z M29 362 L46 362 L55 379 C82 431 149 469 225 475 L333 478 L40 21 L40 1 L430 1 L430 16 L435 16 C435 16 440 65 448 139 L431 139 L425 122 C406 70 346 34 273 27 L144 24 L435 481 L435 501 L167 501 C115 501 86 516 95 543 L77 543 C72 526 66 503 61 486 C63 486 49 438 29 363 L29 362 L29 362 Z " />
<glyph glyph-name="oogonek" unicode="&#x1eb;" horiz-adv-x="761" d="M986 -50 L984 -48 C954 -73 846 -90 713 -90 C557 -90 401 -57 312 -6 C330 -8 348 -9 367 -9 C573 -9 711 112 711 293 C711 474 577 594 377 594 C182 594 52 474 52 293 C52 168 112 72 211 24 C365 -80 561 -150 703 -150 C801 -150 914 -110 986 -49 L986 -50 L986 -50 Z M151 293 C151 469 241 587 375 587 C517 587 612 469 612 293 C612 114 511 -6 360 -6 C235 -6 151 114 151 293 L151 293 Z " />
<glyph glyph-name="Adotabove" unicode="&#x226;" horiz-adv-x="808" d="M423 865 C456 865 478 887 478 920 C478 953 456 975 423 975 C390 975 368 953 368 920 C368 887 390 865 423 865 L423 865 Z M453 0 L802 0 L802 19 L786 19 C733 19 678 78 649 167 L472 720 C472 720 461 770 456 770 L446 770 C450 747 420 727 372 720 C373 717 374 713 375 710 L209 157 C180 74 115 19 44 19 L23 19 L23 0 L316 0 L316 19 L295 19 C224 19 194 79 221 169 L257 292 L505 292 C518 251 531 210 543 169 C571 79 543 19 472 19 L451 19 L453 0 L453 0 Z M259 300 L377 700 L502 300 L259 300 L259 300 Z " />
<glyph glyph-name="G_sc" unicode="&#x262;" horiz-adv-x="746" d="M612 382 L612 617 L598 617 L594 593 C590 568 546 562 484 580 C484 580 423 597 419 598 L418 591 C200 610 52 489 52 292 C52 111 180 -10 372 -10 C419 -10 463 -5 505 5 C506 5 506 5 506 5 L594 27 L594 32 C618 41 642 51 666 62 L665 66 C642 55 619 46 594 38 L594 99 C594 180 630 234 683 234 L699 234 L699 253 L399 253 L399 234 L415 234 C468 234 504 180 504 99 L505 99 C505 43 456 8 387 8 C245 8 151 122 151 292 C151 468 240 586 373 586 C390 586 406 585 421 583 C494 570 558 503 583 414 L592 383 L612 382 L612 382 Z " />
<glyph glyph-name="I_sc" unicode="&#x26a;" horiz-adv-x="400" d="M340 15 L326 15 C277 15 245 55 245 115 L245 468 C245 528 277 568 326 568 L340 568 L340 583 L60 583 L60 568 L74 568 C123 568 155 528 155 468 L155 115 C155 55 123 15 74 15 L60 15 L60 0 L340 0 L340 15 L340 15 Z " />
<glyph glyph-name="N_sc" unicode="&#x274;" horiz-adv-x="725" d="M-2 568 L12 568 C53 568 105 540 149 495 L148 115 L148 115 C148 55 115 15 67 15 L53 15 L53 0 L270 0 L270 15 L256 15 C210 15 178 50 174 103 L172 468 C296 312 421 156 545 -1 L564 -1 C566 155 567 311 569 467 C570 527 602 567 651 567 L665 567 L665 582 L448 582 L448 567 L462 567 C511 567 543 527 543 467 L543 467 L544 111 C427 269 309 426 192 583 L-3 583 L-2 568 L-2 568 Z " />
<glyph glyph-name="R_sc" unicode="&#x280;" horiz-adv-x="680" d="M62 568 L76 568 C125 568 157 528 157 468 L157 115 C157 55 125 15 76 15 L62 15 L62 0 L343 0 L343 15 L329 15 C280 15 248 55 248 115 L248 273 L300 273 C319 243 377 163 456 58 C498 2 506 0 670 0 L670 14 C597 14 593 16 561 58 C481 164 420 244 393 280 C482 297 537 341 537 418 C537 517 443 583 303 583 L62 583 L62 568 L62 568 Z M248 296 L248 565 L276 565 C373 565 438 513 438 435 C438 339 384 296 303 296 L248 296 L248 296 Z " />
<glyph glyph-name="Y_sc" unicode="&#x28f;" horiz-adv-x="673" d="M300 583 L8 583 L8 568 L20 568 C59 568 110 531 150 474 L298 249 L298 136 C298 64 259 16 200 16 L183 16 L183 1 L504 1 L504 16 L487 16 C428 16 389 64 389 136 L389 261 C428 329 466 397 505 464 C541 527 600 569 654 569 L669 569 L669 584 L423 584 L423 569 L445 569 C504 569 524 532 498 475 L386 270 C345 335 303 400 262 465 C222 528 231 570 284 570 L300 570 L300 583 L300 583 Z " />
<glyph glyph-name="B_sc" unicode="&#x299;" horiz-adv-x="597" d="M359 3 L309 3 C272 3 248 78 248 191 L248 299 L375 299 C425 299 458 240 458 152 C458 31 418 3 359 3 L359 3 Z M62 564 L76 564 C125 564 157 524 157 464 L157 119 C157 59 125 19 76 19 L62 19 L62 0 L368 0 C481 0 557 29 557 152 C557 241 494 301 400 304 C480 320 531 372 531 444 C531 527 488 583 307 583 L61 583 L62 564 L62 564 Z M344 304 L247 304 L247 578 L295 578 C414 578 442 520 442 434 C442 356 403 304 344 304 L344 304 Z " />
<glyph glyph-name="H_sc" unicode="&#x29c;" horiz-adv-x="801" d="M741 15 L727 15 C678 15 646 55 646 115 L646 468 C646 528 678 568 727 568 L741 568 L741 583 L461 583 L461 568 L475 568 C524 568 556 528 556 468 L556 305 L284 305 L284 468 C284 528 316 568 365 568 L379 568 L379 583 L98 583 L98 568 L112 568 C161 568 193 528 193 468 L193 115 C193 55 161 15 112 15 L98 15 L98 0 L379 0 L379 15 L365 15 C316 15 284 55 284 115 L284 298 L556 298 L556 115 C556 55 524 15 475 15 L461 15 L461 0 L741 0 L741 15 L741 15 Z " />
<glyph glyph-name="L_sc" unicode="&#x29f;" horiz-adv-x="590" d="M340 583 L60 583 L60 568 L74 568 C123 568 155 528 155 468 L155 115 C155 55 123 15 74 15 L60 15 L60 0 L505 0 L506 8 L505 8 C512 51 522 107 530 150 L515 150 L507 130 C487 74 432 33 362 20 C258 37 245 98 245 183 L245 468 C245 528 277 568 326 568 L340 568 L340 583 L340 583 Z " />
<glyph glyph-name="circumflex" unicode="&#x2c6;" horiz-adv-x="340" d="M200 755 C194 764 180 785 170 785 C160 785 146 764 140 755 L18 566 L30 556 L170 695 L310 556 L322 566 L200 755 L200 755 Z " />
<glyph glyph-name="caron" unicode="&#x2c7;" horiz-adv-x="340" d="M310 794 L170 655 L30 794 L18 784 L140 595 C146 586 160 565 170 565 C180 565 194 586 200 595 L322 784 L310 794 L310 794 Z " />
<glyph glyph-name="firsttonechinese" unicode="&#x2c9;" horiz-adv-x="340" d="M20 645 L320 645 L320 704 L20 704 L20 645 L20 645 Z " />
<glyph glyph-name="breve" unicode="&#x2d8;" horiz-adv-x="340" d="M35 744 C42 670 96 620 170 620 C245 620 299 669 305 742 L287 745 C284 706 237 680 170 680 C103 680 57 707 53 747 L35 744 L35 744 Z " />
<glyph glyph-name="dotaccent" unicode="&#x2d9;" horiz-adv-x="340" d="M170 615 C203 615 225 637 225 670 C225 703 203 725 170 725 C137 725 115 703 115 670 C115 637 137 615 170 615 L170 615 Z " />
<glyph glyph-name="ring" unicode="&#x2da;" horiz-adv-x="340" d="M98 655 C98 700 127 730 170 730 C213 730 242 700 242 655 C242 615 209 580 170 580 C131 580 98 615 98 655 L98 655 Z M72 655 C72 604 117 560 170 560 C223 560 268 604 268 655 C268 712 229 750 170 750 C111 750 72 712 72 655 L72 655 Z " />
<glyph glyph-name="A_sc" unicode="&#x1d00;" horiz-adv-x="729" d="M316 19 L295 19 C227 19 198 75 222 159 L244 226 L454 226 L479 153 C502 72 474 19 407 19 L386 19 L386 0 L723 0 L723 19 L708 19 C657 19 604 72 572 153 L430 562 C430 562 420 603 416 603 L407 603 C410 585 383 568 340 562 L343 552 L343 552 L215 159 C184 75 117 20 46 20 L24 20 L24 1 L316 1 L316 19 L316 19 Z M246 235 L345 545 L450 235 L246 235 L246 235 Z " />
<glyph glyph-name="C_sc" unicode="&#x1d04;" horiz-adv-x="656" d="M419 598 L418 591 C200 610 52 489 52 292 C52 93 200 -30 416 -7 L417 -14 C439 -10 464 0 487 7 C548 23 590 15 594 -13 L598 -38 L612 -38 L612 201 L592 201 L583 170 C560 86 497 20 424 2 C406 -2 386 -4 365 -4 C237 -4 152 114 152 291 C152 467 241 585 374 585 C391 585 407 584 422 582 C495 569 559 502 584 413 L593 382 L613 382 L613 617 L599 617 L595 593 C591 568 547 562 485 580 C485 580 424 597 420 598 L419 598 L419 598 Z " />
<glyph glyph-name="D_sc" unicode="&#x1d05;" horiz-adv-x="778" d="M296 6 C253 6 248 77 248 183 L248 578 C248 578 310 578 310 577 C517 577 624 463 624 292 C624 103 493 6 296 6 L296 6 Z M62 568 L76 568 C125 568 157 528 157 468 L157 115 C157 55 125 15 76 15 L62 15 L62 0 L304 0 C555 0 723 99 723 292 C723 467 590 583 332 583 L62 583 L62 568 L62 568 Z " />
<glyph glyph-name="E_sc" unicode="&#x1d07;" horiz-adv-x="600" d="M42 568 L59 568 C118 568 157 520 157 448 L157 135 C157 63 118 15 59 15 L42 15 L42 0 L523 0 L524 3 L523 3 C530 44 540 100 547 141 L532 141 L524 121 C503 63 445 21 372 9 C261 25 247 91 247 183 L247 299 L267 299 C345 299 405 250 418 176 L422 154 L437 154 L437 451 L422 451 L418 429 C405 355 345 306 267 306 L247 306 L247 577 L328 577 C406 577 472 528 494 454 L501 432 L516 432 C510 476 503 536 498 580 L497 580 L497 583 L41 583 L42 568 L42 568 Z " />
<glyph glyph-name="J_sc" unicode="&#x1d0a;" horiz-adv-x="400" d="M340 583 L60 583 L60 568 L74 568 C123 568 155 528 155 468 L155 -63 C155 -186 94 -210 50 -210 C5 -210 27 -138 -18 -138 C-42 -138 -58 -154 -58 -178 C-58 -203 -17 -220 44 -220 C128 -220 245 -168 245 107 L245 468 C245 528 277 568 326 568 L340 568 L340 583 L340 583 Z " />
<glyph glyph-name="K_sc" unicode="&#x1d0b;" horiz-adv-x="703" d="M349 418 L349 418 L248 292 L248 468 C248 528 280 568 329 568 L340 568 C418 568 421 508 349 418 L349 418 Z M62 568 L76 568 C125 568 157 528 157 468 L157 115 C157 55 125 15 76 15 L62 15 L62 0 L343 0 L343 15 L329 15 C280 15 248 55 248 115 L248 292 L498 0 L691 0 L691 15 L676 15 C630 15 570 50 522 104 L317 350 L412 461 C470 525 544 567 601 567 L618 567 L618 582 L62 582 L62 568 L62 568 Z " />
<glyph glyph-name="M_sc" unicode="&#x1d0d;" horiz-adv-x="836" d="M544 0 L824 0 L824 15 L810 15 C764 15 731 50 726 104 C721 225 715 347 711 468 C709 528 739 568 787 568 L801 568 L801 583 L621 583 L452 123 L250 583 L54 583 L54 568 L68 568 C101 568 135 550 162 519 C157 385 153 250 147 116 C145 56 111 16 63 16 L49 16 L49 1 L270 1 L270 16 L256 16 C208 16 177 56 178 116 L178 116 L186 487 C187 485 194 469 195 469 C266 313 337 157 408 1 L431 1 L432 6 L625 507 C629 377 634 246 637 117 C639 57 608 17 560 17 L546 17 L544 0 L544 0 Z " />
<glyph glyph-name="O_sc" unicode="&#x1d0f;" horiz-adv-x="766" d="M151 292 C151 468 241 586 375 586 C517 586 612 468 612 292 C612 115 514 -3 368 -3 C238 -3 151 115 151 292 L151 292 Z M52 292 C52 111 178 -10 367 -10 C573 -10 711 111 711 292 C711 473 577 593 377 593 C182 593 52 473 52 292 L52 292 Z " />
<glyph glyph-name="P_sc" unicode="&#x1d18;" horiz-adv-x="532" d="M365 15 L351 15 C302 15 270 55 270 115 L270 265 L305 265 C429 265 512 313 512 419 C512 517 443 583 340 583 L85 583 L85 568 L99 568 C148 568 180 528 180 468 L180 115 C180 55 148 15 99 15 L85 15 L85 0 L365 0 L365 15 L365 15 Z M270 284 L270 568 L317 568 C383 568 427 514 427 434 C427 331 378 284 305 284 L270 284 L270 284 Z " />
<glyph glyph-name="T_sc" unicode="&#x1d1b;" horiz-adv-x="715" d="M625 638 L621 630 C609 602 550 583 472 583 L241 583 C163 583 104 602 92 630 L88 638 L77 638 C69 618 58 592 50 572 L55 572 L55 570 C37 526 15 469 -3 426 L12 426 L24 446 C65 515 146 561 227 561 L312 561 L312 115 C312 55 280 15 231 15 L217 15 L217 0 L498 0 L498 15 L484 15 C435 15 403 55 403 115 L403 561 L485 561 C566 561 647 515 688 446 L700 426 L715 426 C698 467 677 520 660 563 L660 573 L663 573 C662 575 661 577 660 580 L660 584 L659 584 C652 602 643 623 636 639 L625 638 L625 638 Z " />
<glyph glyph-name="U_sc" unicode="&#x1d1c;" horiz-adv-x="691" d="M27 566 L41 566 C90 566 122 526 122 466 L122 202 C122 75 177 -10 259 -10 C350 -10 436 45 475 128 L475 0 L520 0 L520 -1 C562 10 619 25 661 36 L661 51 L647 47 C598 34 566 65 566 125 L566 583 L475 583 L475 581 L380 581 L380 566 L394 566 C443 566 475 526 475 466 L475 168 C441 96 369 48 295 48 C246 48 213 110 213 202 L213 583 L122 583 L122 581 L27 581 L27 566 L27 566 Z " />
<glyph glyph-name="V_sc" unicode="&#x1d20;" horiz-adv-x="740" d="M717 583 L429 583 L429 564 L452 564 C528 564 556 507 524 421 L409 137 C363 229 317 322 272 414 C227 504 244 564 313 564 L333 564 L333 583 L7 583 L7 564 L20 564 C62 564 114 511 153 429 C219 283 285 137 351 -9 L369 -9 C430 132 491 274 553 415 C592 505 652 565 703 565 L718 565 L717 583 L717 583 Z " />
<glyph glyph-name="W_sc" unicode="&#x1d21;" horiz-adv-x="997" d="M304 583 L8 583 L8 564 L21 564 C64 564 115 512 148 434 C211 286 274 138 337 -10 L360 -10 L512 354 C563 233 614 112 664 -10 L687 -10 C736 138 785 286 834 434 C860 512 913 564 966 564 L982 564 L982 583 L693 583 L693 564 L715 564 C788 564 823 516 804 443 L706 126 L575 441 C547 516 571 565 636 565 L656 565 L656 584 L335 584 L335 565 L348 565 C394 565 446 513 479 435 L479 435 C485 420 492 404 497 389 L384 108 L241 449 C216 519 234 564 287 564 L304 564 L304 583 L304 583 Z " />
<glyph glyph-name="Z_sc" unicode="&#x1d22;" horiz-adv-x="597" d="M71 423 L77 444 C95 510 164 556 252 561 L451 564 L25 18 L25 0 L546 0 L549 13 L550 13 C550 13 564 73 585 162 L570 162 L561 141 C532 72 451 26 357 24 L357 24 L133 20 L550 565 L550 583 L70 583 L69 571 C69 571 64 512 56 423 L71 423 L71 423 Z " />
<glyph glyph-name="Wgrave" unicode="&#x1e80;" horiz-adv-x="1129" d="M1113 750 L820 750 L820 731 L842 731 C915 731 952 684 937 613 L805 138 L636 605 C610 681 636 731 703 731 L723 731 L723 750 L390 750 L390 731 L404 731 C449 731 498 681 528 605 L568 500 L424 121 C365 281 306 441 247 601 C218 679 238 731 295 731 L312 731 L312 750 L3 750 L3 731 L16 731 C59 731 108 679 138 601 L138 601 C217 397 296 193 374 -11 L399 -11 L584 456 C644 300 704 144 764 -11 L789 -11 C849 193 909 397 970 600 C993 678 1044 730 1098 730 L1113 730 L1113 750 L1113 750 Z M344 995 C344 987 370 963 408 931 L550 811 L561 822 L447 970 C417 1010 394 1037 386 1037 C363 1037 344 1018 344 995 L344 995 Z " />
<glyph glyph-name="Wacute" unicode="&#x1e82;" horiz-adv-x="1129" d="M556 812 L698 932 C736 965 762 990 762 996 C762 1019 743 1038 720 1038 C714 1038 691 1011 659 971 L545 823 L556 812 L556 812 Z M1113 750 L820 750 L820 731 L842 731 C915 731 952 684 937 613 L805 138 L636 605 C610 681 636 731 703 731 L723 731 L723 750 L390 750 L390 731 L404 731 C449 731 498 681 528 605 L568 500 L424 121 C365 281 306 441 247 601 C218 679 238 731 295 731 L312 731 L312 750 L3 750 L3 731 L16 731 C59 731 108 679 138 601 L138 601 C217 397 296 193 374 -11 L399 -11 L584 456 C644 300 704 144 764 -11 L789 -11 C849 193 909 397 970 600 C993 678 1044 730 1098 730 L1113 730 L1113 750 L1113 750 Z " />
<glyph glyph-name="Wdieresis" unicode="&#x1e84;" horiz-adv-x="1129" d="M623 865 C656 865 678 887 678 920 C678 953 656 975 623 975 C590 975 568 953 568 920 C568 887 590 865 623 865 L623 865 Z M473 865 C506 865 528 887 528 920 C528 953 506 975 473 975 C440 975 418 953 418 920 C418 887 440 865 473 865 L473 865 Z M1113 750 L820 750 L820 731 L842 731 C915 731 952 684 937 613 L805 138 L636 605 C610 681 636 731 703 731 L723 731 L723 750 L390 750 L390 731 L404 731 C449 731 498 681 528 605 L568 500 L424 121 C365 281 306 441 247 601 C218 679 238 731 295 731 L312 731 L312 750 L3 750 L3 731 L16 731 C59 731 108 679 138 601 L138 601 C217 397 296 193 374 -11 L399 -11 L584 456 C644 300 704 144 764 -11 L789 -11 C849 193 909 397 970 600 C993 678 1044 730 1098 730 L1113 730 L1113 750 L1113 750 Z " />
<glyph glyph-name="Etilde" unicode="&#x1ebc;" horiz-adv-x="667" d="M216 870 C216 906 234 930 260 930 C312 930 381 865 433 865 C477 865 507 913 507 985 L502 985 C502 949 482 925 453 925 C401 925 332 990 280 990 C239 990 211 942 211 870 L216 870 L216 870 Z M40 735 L57 735 C116 735 155 687 155 615 L155 135 C155 63 116 15 57 15 L40 15 L40 0 L590 0 L591 4 L590 4 C590 7 612 130 614 142 L599 142 L591 122 C568 58 498 14 413 8 C271 15 255 83 255 183 L255 385 L334 385 C412 385 472 336 485 262 L489 240 L504 240 L504 385 L505 385 L505 392 L504 392 L504 537 L489 537 L485 515 C472 441 412 392 334 392 L255 392 L255 743 L395 743 C474 743 540 694 562 620 L569 598 L584 598 C578 643 571 702 565 747 L565 750 L40 750 L40 735 L40 735 Z " />
<glyph glyph-name="Ygrave" unicode="&#x1ef2;" horiz-adv-x="758" d="M309 750 L4 750 L4 735 L16 735 C57 735 110 693 148 630 L148 630 L336 322 L336 135 C336 63 297 15 238 15 L221 15 L221 0 L552 0 L552 15 L535 15 C476 15 437 63 437 135 L437 335 L597 635 C631 695 687 735 739 735 L755 735 L755 750 L507 750 L507 735 L529 735 C592 735 612 693 580 630 L580 630 L434 345 L262 635 C229 695 241 735 293 735 L309 735 L309 750 L309 750 Z M183 996 C183 988 209 964 247 932 L389 812 L399 823 L286 971 C256 1011 233 1038 225 1038 C202 1038 183 1019 183 996 L183 996 Z " />
<glyph glyph-name="quoteleft" unicode="&#x2018;" horiz-adv-x="578" d="M90 640 C80 640 72 636 66 628 C64 690 92 739 130 749 L120 760 C72 747 40 689 40 614 C40 582 60 560 90 560 C142 560 142 640 90 640 L90 640 Z " />
<glyph glyph-name="quoteright" unicode="&#x2019;" horiz-adv-x="118" d="M102 692 C101 628 77 580 42 570 L53 559 C98 571 128 631 128 710 C128 739 108 759 78 759 C26 759 26 679 78 679 C88 679 96 683 102 691 L102 692 L102 692 Z " />
<glyph glyph-name="quotedblleft" unicode="&#x201c;" horiz-adv-x="578" d="M217 640 C207 640 199 636 193 628 C191 690 219 739 257 749 L247 760 C199 747 167 689 167 614 C167 582 187 560 217 560 C242 560 258 576 258 600 C258 624 242 640 217 640 L217 640 Z M78 640 C68 640 60 636 54 628 C52 690 80 739 118 749 L108 760 C60 747 28 689 28 614 C28 582 48 560 78 560 C130 560 130 640 78 640 L78 640 Z " />
<glyph glyph-name="quotedblright" unicode="&#x201d;" horiz-adv-x="578" d="M242 692 C241 628 217 580 181 570 L192 559 C238 571 268 632 268 710 C268 739 248 759 217 759 C165 759 165 679 217 679 C228 679 237 683 243 691 L242 692 L242 692 Z M103 691 C102 627 78 579 43 569 L54 558 C99 570 129 630 129 709 C129 738 109 758 79 758 C27 758 27 678 79 678 C89 678 97 682 103 690 L103 691 L103 691 Z " />
<glyph glyph-name="Euro" unicode="&#x20ac;" horiz-adv-x="790" d="M746 -9 L746 120 L734 130 L734 130 L746 119 L746 230 L727 230 L719 200 C699 124 645 56 581 23 C544 5 504 -5 458 -5 C329 -5 237 109 215 287 L513 287 L522 348 L210 348 C209 364 209 381 210 397 L522 397 L531 458 L215 458 C238 635 334 749 468 749 C504 749 535 743 563 733 C633 707 695 632 718 546 L726 516 L745 516 L745 753 L733 753 L729 729 C725 700 684 700 625 727 C608 735 587 742 569 749 L568 747 C538 754 504 758 464 758 C273 758 137 641 105 459 L63 459 L54 398 L99 398 C98 382 98 365 99 349 L54 349 L45 288 L105 288 C136 106 268 -11 454 -11 C495 -11 531 -7 563 1 L564 -2 C569 0 575 3 581 6 C595 10 609 15 622 21 C682 48 724 45 728 14 L732 -11 L746 -9 L746 -9 Z M622 21 C621 21 620 21 619 21 C620 21 621 21 622 21 L622 21 Z " />
<glyph glyph-name="F_sc" unicode="&#xa730;" horiz-adv-x="575" d="M42 568 L59 568 C118 568 157 520 157 448 L157 135 C157 63 118 15 59 15 L42 15 L42 0 L363 0 L363 15 L346 15 C287 15 248 63 248 135 L248 299 L259 299 C337 299 397 250 410 176 L414 154 L429 154 L429 451 L414 451 L410 429 C397 355 337 306 259 306 L248 306 L248 579 L329 579 C407 579 473 530 495 456 L502 434 L517 434 C512 478 505 537 500 581 L498 581 L498 583 L42 583 L42 568 L42 568 Z " />
<glyph glyph-name="S_sc" unicode="&#xa731;" horiz-adv-x="489" d="M409 399 L409 622 L395 622 L391 601 C388 584 356 577 307 584 C283 595 257 601 230 601 L230 593 C132 593 67 530 67 436 C67 360 123 287 233 245 C329 208 378 164 378 126 C378 38 315 -16 226 3 C161 20 104 89 81 183 L72 216 L52 216 L52 -43 L66 -43 L70 -15 C74 13 118 20 182 3 C203 -7 226 -13 249 -15 L249 -10 C370 -16 452 52 452 153 C452 227 397 298 289 339 C191 377 140 426 140 471 C140 560 206 611 282 574 L282 573 C283 573 284 573 285 573 C329 550 365 499 382 433 L391 400 L409 399 L409 399 Z " />
<glyph glyph-name="X_sc" unicode="&#xf078;" horiz-adv-x="725" d="M402 0 L695 0 L695 15 L683 15 C644 15 591 53 548 111 L397 327 L524 471 C579 530 647 569 699 569 L715 569 L715 584 L447 584 L447 569 L466 569 C528 569 538 527 490 464 L490 464 L391 334 C361 377 330 421 301 464 C257 527 263 569 316 569 L332 569 L332 584 L40 584 L40 569 L52 569 C90 569 142 533 184 477 L327 272 C287 222 247 171 207 121 C157 58 88 16 35 16 L19 16 L19 1 L283 1 L283 16 L264 16 C201 16 191 58 238 121 L238 121 L339 256 C370 211 403 165 433 121 C477 58 471 16 418 16 L402 16 L402 0 L402 0 Z " />
</font>
</svg>
