<?xml version="1.0" encoding="UTF-8"?>
<svg xmlns="http://www.w3.org/2000/svg" xmlns:xlink="http://www.w3.org/1999/xlink" version="1.2" >
<font id="Jerin Round">
<font-face  font-family="Jerin" units-per-em="1024" ascent="975" descent="-300" font-style="normal" font-weight="400" font-stretch="normal" cap-height="1044" x-height="488" underline-position="-125" underline-thickness="50" />
<missing-glyph  horiz-adv-x="100" d="" />
<glyph glyph-name="NULL" d="" />
<glyph glyph-name="CR" unicode="&#xd;" horiz-adv-x="256" d="" />
<glyph glyph-name="space" unicode="&#x20;" horiz-adv-x="250" d="" />
<glyph glyph-name="exclam" unicode="&#x21;" horiz-adv-x="244" d="M122 -5 C158 -5 182 19 182 55 C182 91 158 115 122 115 C86 115 62 91 62 55 C62 19 86 -5 122 -5 L122 -5 Z M122 755 C81 755 64 713 70 650 L113.204 217.96 C113.641 213.588 117.606 210 122 210 C126.394 210 130.359 213.588 130.796 217.96 L174 650 C180 713 163 755 122 755 L122 755 Z " />
<glyph glyph-name="quotedbl" unicode="&#x22;" horiz-adv-x="325" d="M212 750 C193 750 181 732 187 705 L215.987 564.896 C216.535 562.25 219.297 560 222 560 C224.703 560 227.465 562.25 228.013 564.896 L257 705 C263 732 252 750 232 750 L212 750 L212 750 Z M92 750 C73 750 61 732 67 705 L95.987 564.896 C96.5345 562.25 99.2974 560 102 560 C104.703 560 107.465 562.25 108.013 564.896 L137 705 C143 732 132 750 112 750 L92 750 L92 750 Z " />
<glyph glyph-name="numbersign" unicode="&#x23;" horiz-adv-x="533" d="M389.261 662.055 L371.172 540.997 C367.257 514.795 341.963 493 315.47 493 L280.361 493 C244.68 493 219.386 522.354 224.659 557.643 L240.261 662.055 C240.664 664.754 238.73 667 236 667 C233.27 667 230.664 664.754 230.261 662.055 L212.172 540.997 C208.257 514.795 182.963 493 156.47 493 L100.305 493 C82.0904 493 64.9611 478.048 62.5 460 C60.0389 441.952 73.0904 427 91.3054 427 L129.635 427 C165.318 427 190.612 397.644 185.336 362.354 L173.174 280.994 C169.258 254.794 143.964 233 117.473 233 L59.3766 233 C41.1616 233 23.7287 218.009 21 200 C18.2713 181.991 31.1616 167 49.3766 167 L90.6213 167 C126.311 167 151.604 137.638 146.321 102.342 L131.74 4.9449 C131.336 2.24554 133.271 0 136 0 C138.729 0 141.336 2.24554 141.74 4.9449 L158.817 119.018 C162.738 145.211 188.032 167 214.516 167 L249.621 167 C285.311 167 310.604 137.638 305.321 102.342 L290.74 4.9449 C290.336 2.24554 292.271 0 295 0 C297.729 0 300.336 2.24554 300.74 4.9449 L317.817 119.018 C321.738 145.211 347.032 167 373.516 167 L422.623 167 C440.838 167 458.271 181.991 461 200 C463.729 218.009 450.838 233 432.623 233 L400.365 233 C364.682 233 339.388 262.356 344.664 297.646 L356.826 379.006 C360.742 405.206 386.036 427 412.527 427 L470.695 427 C488.91 427 506.039 441.952 508.5 460 C510.961 478.048 497.91 493 479.695 493 L439.361 493 C403.68 493 378.386 522.354 383.659 557.643 L399.261 662.055 C399.664 664.754 397.73 667 395 667 C392.27 667 389.664 664.754 389.261 662.055 L389.261 662.055 Z M253.527 427 L288.635 427 C324.318 427 349.612 397.644 344.336 362.354 L332.174 280.994 C328.258 254.794 302.964 233 276.473 233 L241.365 233 C205.682 233 180.388 262.356 185.664 297.646 L197.826 379.006 C201.742 405.206 227.036 427 253.527 427 L253.527 427 Z " />
<glyph glyph-name="dollar" unicode="&#x24;" horiz-adv-x="551" d="M50 238 L50 -3 C50 -6.86379 53.1362 -10 57 -10 C60.8221 -10 64.4657 -6.85639 65.0258 -3.07558 L68 17 C72 45 115 45 176 18 C187.9 12.05 200.522 6.8225 212.639 1.70337 C216.226 0.187912 219 -4.72175 219 -8.61577 L219 -60 C219 -68.2796 225.72 -75 234 -75 C242.28 -75 249 -68.2796 249 -60 L249 -14.6313 C249 -10.0887 253.691 -6.82401 258.192 -7.44403 C268.841 -8.91134 279.307 -9.64237 290.362 -9.89482 C295.215 -10.0056 300 -14.1457 300 -19 L300 -60 C300 -68.2796 306.72 -75 315 -75 C323.28 -75 330 -68.2796 330 -60 L330 -41.5 C330 -25.7825 346.613 -5.86009 361.826 -1.91 C453.68 21.94 512 95.2 512 196 C512 281.5 461.78 360.52 364.256 409.003 C348.811 416.681 330 445.479 330 462.727 L330 703.47 C330 719.063 340.226 727.803 352.681 718.422 C394.082 687.24 426.85 635.9 443 573 L449.369 549.648 C450.77 544.51 456.675 540 462 540 C467.52 540 472 544.48 472 550 L472 757 C472 760.864 468.864 764 465 764 C461.211 764 457.37 760.851 456.627 757.136 L454 744 C450 724 413 723 360 741 C350.769 744.692 342.391 749.237 333.291 753.06 C330.811 754.102 331 756.695 331 759.385 L331 810 C331 818.28 324.28 825 316 825 C307.72 825 301 818.28 301 810 L301 767.123 C301 764.983 298.731 763.561 296.636 763.998 C291.545 765.06 286.455 765.791 281.364 766.449 C279.183 766.73 277 765.199 277 763 C277 760.792 275.208 759 273 759 L265 759 C258.376 759 253 764.376 253 771 L253 809 C253 817.28 246.28 824 238 824 C229.72 824 223 817.28 223 809 L223 790 C223 775.149 203.396 752.49 189.352 747.664 C114.703 722.016 68 653.875 68 562 C68 481.9 110.12 408.28 193.631 357.178 C206.307 349.421 223 320.902 223 306.041 L223 50.6591 C223 31.7624 210.857 21.6492 195.714 32.9537 C145.475 70.46 103.4 137.95 83 217 L77.1574 238.423 C75.476 244.588 68.3902 250 62 250 C55.3764 250 50 244.624 50 238 L50 238 Z M303 741.39 L303 445.849 C303 440.853 298.635 437.935 294.088 440.005 C282.329 445.356 271.088 450.782 260.662 456.579 C256.831 458.709 253 465.363 253 469.746 L253 752 C255 752 277 752 277 751 C284.5 750.167 291.653 748.639 299.037 746.995 C301.461 746.456 303 743.873 303 741.39 L303 741.39 Z M262.939 324.428 C274.174 320.05 285.539 315.95 295.923 311.572 C299.965 309.868 304 304.11 304 299.724 L304 9.01388 C304 3.73689 299.639 -0.271518 294.362 -0.253944 C283.307 -0.21713 272.841 0.960932 262.192 3.02254 C257.35 3.95984 253.012 8.8003 253.027 13.7321 L253.972 318.808 C253.986 323.445 258.618 326.112 262.939 324.428 L262.939 324.428 Z M365.576 272.888 C411.859 240.281 435 203.3 435 167 C435 97.7 407.775 44.0544 363.432 17.855 C345.855 7.46943 333 16.7278 333 37.1442 L333 254.293 C333 274.304 349.217 284.414 365.576 272.888 L365.576 272.888 Z M198.966 499.5 C164.696 531.019 147 566.35 147 601 C147 661.225 166.738 707.837 200.038 732.415 C212.29 741.458 223 735.063 223 719.836 L223 510.806 C223 496.2 209.716 489.613 198.966 499.5 L198.966 499.5 Z " />
<glyph glyph-name="ampersand" unicode="&#x26;" horiz-adv-x="345" d="M354.649 475.38 C437.35 508.77 490 561.6 490 612 C490 701 420 761 315 761 C213 761 145 697 145 600 C145 567 169.503 526.513 210.085 474.609 C222.681 458.498 213.759 431.737 195.326 422.881 C100.484 377.313 40 293.75 40 201 C40 76 122 -8 245 -8 C330.8 -8 419.452 37.63 500.76 118.695 C503.484 121.41 508.827 122.763 511.267 119.789 C518.867 110.526 526.579 101.263 535 92 C585 32 651 -8 700 -8 C768.25 -8 821.29 50.9387 834.095 141.01 C834.714 145.369 831.676 149.108 827.5 150.5 C823.612 151.796 819.484 148.928 818.757 144.895 C809.672 94.49 777.8 62 736 62 C697 62 646 92 609 136 C595.581 151.935 582.865 167.168 570.262 181.696 C566.317 186.244 564.194 191.493 567.862 196.268 C629.275 276.206 684.213 376.744 726.674 491.88 C728.48 496.776 725.218 501 720 501 C714.877 501 708.554 497.054 706.749 492.259 C671.792 399.382 627.971 318.138 578.358 252.109 C561.197 229.271 530.871 227.807 512.419 249.616 C410.525 370.05 373.81 410.075 345.322 443.096 C335.869 454.053 341.23 469.962 354.649 475.38 L354.649 475.38 Z M296.563 503.457 C249.094 563.094 220 608.375 220 646 C220 704 258 742 315 742 C377 742 419 692 419 618 C419 566.025 391.435 518.814 348.096 491.529 C329.379 479.745 310.336 486.153 296.563 503.457 L296.563 503.457 Z M453.115 126.845 C400.961 90.7381 346.8 71 294 71 C195 71 129 133 129 226 C129 307.6 161.513 377.64 214.255 415.24 C234.374 429.582 251.336 422.893 267.468 404.179 C301.665 364.507 339.811 323.453 460.574 180.473 C476.336 161.811 473.199 140.75 453.115 126.845 L453.115 126.845 Z " />
<glyph glyph-name="quotesingle" unicode="&#x27;" horiz-adv-x="204" d="M92 750 C73 750 61 732 67 705 L95.987 564.896 C96.5345 562.25 99.2974 560 102 560 C104.703 560 107.465 562.25 108.013 564.896 L137 705 C143 732 132 750 112 750 L92 750 L92 750 Z " />
<glyph glyph-name="parenleft" unicode="&#x28;" horiz-adv-x="470" d="M310.183 753.128 C183.655 661.245 100 470.925 100 273 C100 77 185 -118 313 -214 C315.252 -215.689 314.133 -211.961 315.5 -209.5 C316.793 -207.172 312.99 -201.143 310.935 -199.45 C219.889 -124.386 160 63.375 160 273 C160 486.525 222.741 673.432 317.637 744.744 C319.945 746.478 323.791 752.418 322.5 755 C321.09 757.82 312.735 754.981 310.183 753.128 L310.183 753.128 Z " />
<glyph glyph-name="parenright" unicode="&#x29;" horiz-adv-x="470" d="M35.0399 743.21 C164.444 652.494 250 467.025 250 273 C250 72 163 -119 32 -204 C29.4277 -205.669 33.1287 -206.257 34.5 -209 C35.9042 -211.808 46.6053 -207.659 49.196 -205.885 C206.382 -98.2556 310 91.65 310 273 C310 456 198 651 30 760 C27.4277 761.669 28.8713 757.743 27.5 755 C26.1808 752.362 32.6245 744.904 35.0399 743.21 L35.0399 743.21 Z " />
<glyph glyph-name="asterisk" unicode="&#x2a;" horiz-adv-x="296" d="M275.403 669.139 C287.556 677.056 290.333 689.833 282 704 C273.667 718.167 261.167 721.917 248.551 715.25 C242.465 712.034 242.521 707.367 245.965 701.407 L261.935 673.766 C265.432 667.714 269.546 665.323 275.403 669.139 L275.403 669.139 Z M248.551 540.75 C261.167 534.083 273.667 537.833 282 552 C290.333 566.167 287.556 578.944 275.403 586.861 C269.546 590.677 265.432 588.286 261.935 582.234 L245.965 554.593 C242.521 548.633 242.465 543.966 248.551 540.75 L248.551 540.75 Z M59 546 L103.951 586.406 C118.365 599.362 139.927 586.979 136 568 L124 510 C120 490 130 477 150 477 C170 477 180 490 176 510 L163.949 568.749 C160.06 587.709 181.679 600.019 196 587 L220.772 564.48 C231.144 555.051 245.988 557.364 253 569.5 C260.022 581.653 254.643 595.719 241.305 600.086 L209.5 610.5 C191.055 616.54 191.055 641.46 209.5 647.5 L241.305 657.914 C254.643 662.281 260.022 676.347 253 688.5 C245.979 700.651 231.111 703.01 220.674 693.629 L195.5 671 C180.999 657.965 159.293 670.475 163.302 689.557 L176 750 C180 770 170 783 150 783 C130 783 120 770 124 750 L136.553 690.248 C140.606 670.957 118.652 658.313 104 671.5 L78.3149 694.617 C67.8854 704.003 53.0196 701.649 46 689.5 L37.0334 673.981 C37.0227 673.962 36.797 673.619 36.8076 673.637 C45.6231 688.962 59 712 59 712 C59 712 57.301 714.158 51.4491 717.25 C38.8333 723.917 26.3333 720.167 18 706 C8 688 14 673.5 33 666.5 C65.175 655.775 97.35 646.071 128.963 635.703 C135.332 633.615 136.286 624.835 129.917 622.749 L33 591 C14 584 8 569 18 552 C28 534 44 532.5 59 545.5 L59 546 Z " />
<glyph glyph-name="plus" unicode="&#x2b;" horiz-adv-x="620" d="M277 427 L277 336.32 C277 305.233 251.767 280 220.68 280 L130 280 C113.441 280 100 266.559 100 250 C100 233.441 113.441 220 130 220 L220.68 220 C251.767 220 277 194.767 277 163.68 L277 73 C277 54.785 291.785 40 310 40 C328.215 40 343 54.785 343 73 L343 163.68 C343 194.767 368.233 220 399.32 220 L490 220 C506.559 220 520 233.441 520 250 C520 266.559 506.559 280 490 280 L399.32 280 C368.233 280 343 305.233 343 336.32 L343 427 C343 445.215 328.215 460 310 460 C291.785 460 277 445.215 277 427 L277 427 Z " />
<glyph glyph-name="comma" unicode="&#x2c;" horiz-adv-x="260" d="M173.075 17.4692 C182.963 -52.5671 139.631 -102.325 71.5719 -104.896 C69.7143 -104.966 66 -106.641 66 -108.5 C66 -110.496 69.5832 -111.974 71.5777 -111.908 C143.469 -109.534 191 -61.15 191 11 C191 60.4 174.755 97.165 148.267 110.149 C147.171 110.686 139.976 112.71 138.775 112.922 L131.856 114.143 C130.959 114.301 122.601 114.883 121.691 114.821 C88.66 112.57 67 89.2 67 55 C67 19 91 -5 127 -5 C145.071 -5 159.094 3.77168 167.406 18.5438 C168.883 21.1691 172.653 20.452 173.075 17.4692 L173.075 17.4692 Z " />
<glyph glyph-name="hyphen" unicode="&#x2d;" horiz-adv-x="430" d="M115 250 L315 250 C334.319 250 350 265.681 350 285 C350 304.319 334.319 320 315 320 L115 320 C95.681 320 80 304.319 80 285 C80 265.681 95.681 250 115 250 L115 250 Z " />
<glyph glyph-name="period" unicode="&#x2e;" horiz-adv-x="195" d="M125 -5 C161 -5 185 19 185 55 C185 91 161 115 125 115 C89 115 65 91 65 55 C65 19 89 -5 125 -5 L125 -5 Z " />
<glyph glyph-name="slash" unicode="&#x2f;" horiz-adv-x="389" d="M301.128 746.272 L34.8722 -56.2718 C30.748 -68.7028 38.9027 -80 52 -80 C65.0973 -80 80.748 -68.7028 84.8722 -56.2718 L351.128 746.272 C355.252 758.703 347.097 770 334 770 C320.903 770 305.252 758.703 301.128 746.272 L301.128 746.272 Z " />
<glyph glyph-name="zero" unicode="0" horiz-adv-x="610" d="M85 250 C85 372 173 475 305 475 C424 475 525 385 525 250 C525 128 437 25 305 25 C186 25 85 115 85 250 L85 250 Z M45 250 C45 94 165 -10 305 -10 C461 -10 565 110 565 250 C565 406 445 510 305 510 C149 510 45 390 45 250 L45 250 Z " />
<glyph glyph-name="one" unicode="1" horiz-adv-x="396" d="M329 15 L322 15 C273 15 241 55 241 115 L241 385 C241 445 273 485 322 485 L329 485 C332.864 485 336 488.136 336 492 L336 492.5 C336 496.64 332.64 500 328.5 500 L67.5 500 C63.3602 500 60 496.64 60 492.5 L60 492 C60 488.136 63.1362 485 67 485 L74 485 C123 485 155 445 155 385 L155 115 C155 55 123 15 74 15 L67 15 C63.1362 15 60 11.8638 60 8 L60 7.5 C60 3.36022 63.3602 0 67.5 0 L328.5 0 C332.64 0 336 3.36022 336 7.5 L336 8 C336 11.8638 332.864 15 329 15 L329 15 Z " />
<glyph glyph-name="two" unicode="2" horiz-adv-x="541" d="M62.4395 296.916 C82.3094 386.061 147.025 445 226 445 C304 445 356 397 356 325 C356 240.175 267.592 156.301 145.46 79.8649 C145.172 79.6845 130.737 72.2289 130.421 72.1019 C122.256 68.8117 113.656 63.2613 104.999 56.9575 C104.806 56.8174 97.1507 51.8652 96.9425 51.75 C73.23 38.625 48.7519 25.5 23.5081 12.375 C20.6472 10.8875 19.482 7.01437 22 5 L23.4004 3.8797 C24.9486 2.64114 24.4355 0.430102 22.5 -2.22045e-016 C21.9612 -0.119739 22.0578 -1 22.6098 -1 L398.61 -1 C413.346 -1 438.759 13.1642 446.51 25.6974 L477 75 C494 99 511 124 525 144 C525 146 518 150 519 150 L510 139 C480 101 415 75 346 75 L258 75 C233.905 75 227.621 109.793 247.737 123.057 C362.728 198.882 441 275.525 441 344 C441 443 373 509 270 509 C162.75 509 73.5619 427.246 45.998 302.667 C44.9408 297.889 47.6806 292.35 52.5 291.5 C57.057 290.696 61.4328 292.4 62.4395 296.916 L62.4395 296.916 Z " />
<glyph glyph-name="three" unicode="3" horiz-adv-x="435" d="M18.5 -223.5 C19.3415 -228.269 31.928 -230.665 36.7332 -230.068 C252.406 -203.234 395 -110 395 7 C395 89.5 337.147 150.901 242.778 176.602 C225.764 181.236 223.55 211.972 238.702 220.993 C326.911 273.511 380 329.075 380 386 C380 460 315 510 217 510 C123.4 510 45.9606 449.16 21.7563 358.066 C20.3183 352.655 24.085 349.925 29.5 348.5 C34.3629 347.22 39.9562 350.338 41.4262 355.147 C58.835 412.095 114.6 450 183 450 C247 450 289 412 289 356 C289 291.65 234.814 237.757 149.615 193.394 C148.495 192.811 139.526 189.997 138.264 189.958 C132.875 189.792 130.819 188.958 127.653 184.792 C126.904 183.807 121.212 179.252 120.089 178.734 L107.172 172.772 C103.076 170.881 99 164.51 99 160 L99 154.354 C99 152.698 100.519 151.759 102 152.5 L102.172 152.586 C102.392 152.696 102.234 153.078 102 153 C101.27 152.757 107.388 150.753 108.147 150.63 C226.049 131.59 304 64.9 304 -17 C304 -115.475 194.678 -193.036 29.7922 -213.536 C25.1615 -214.112 17.6891 -218.905 18.5 -223.5 L18.5 -223.5 Z " />
<glyph glyph-name="four" unicode="4" horiz-adv-x="620" d="M598 139 L596 133 C586 92 541 65 484 65 L449.5 65 C430.457 65 415 80.457 415 99.5 L415 524.5 C415 527.536 412.536 530 409.5 530 C407.078 530 402.145 527.544 400.685 525.611 L19.5204 20.9846 C18.0165 18.9936 15 9.99514 15 7.5 C15 3.36022 18.3602 0 22.5 0 L273.68 0 C304.767 0 330 -25.233 330 -56.32 L330 -177.5 C330 -200.959 349.041 -220 372.5 -220 C395.959 -220 415 -200.959 415 -177.5 L415 -30 C415 -13.4409 428.441 0 445 0 L475 0 C530.575 0 568.088 -20.9138 569.002 -52.5458 C569.004 -52.6236 569.357 -58.5693 569.365 -58.6467 L569.5 -60 C569.754 -62.5397 567.914 -64.3181 570.34 -65.112 C572.32 -65.76 582.4 -69 586 -69 C591 -38 596.5 2 600.5 33 C605.244 64.3077 610.437 103.716 615.227 135.854 C615.893 140.324 612.384 141.904 608 143 L606.136 143.466 C602.759 144.31 599.101 142.302 598 139 L598 139 Z M159.851 154.373 L235.136 254.648 C266.575 296.522 330 275.362 330 223 L330 121.202 C330 90.1801 304.82 64.947 273.799 64.8817 L205.508 64.7379 C155.704 64.6331 129.948 114.544 159.851 154.373 L159.851 154.373 Z " />
<glyph glyph-name="five" unicode="5" horiz-adv-x="436" d="M75.4677 -231.959 C274.814 -203.281 406 -91.375 406 50 C406 186 281 277 94 277 L84.5 277 C79.3437 277 75.7899 281.271 76.7276 286.342 L93.586 377.502 C98.142 402.138 123.214 423.264 148.266 423.576 L311.026 425.602 C328.372 425.818 345.516 440.411 348.5 457.5 L354 489 C358.412 511.941 363.602 536.439 367.51 557.686 C368.303 562 365.386 566 361 566 L358.385 566 C355.625 566 352.025 563.562 351 561 L349 556 C338 523 293 501 236 501 L132.905 501 C107.442 501 82.1209 479.912 77.5144 454.869 L32.9231 212.455 C32.011 207.496 35.2056 198.32 39 195 C41.9078 192.456 53.7664 188 57.6301 188 L85 188 C233 188 331 122 331 22 C331 -97.925 227.382 -192.183 71.1229 -215.358 C66.6074 -216.028 59.2319 -220.943 59.5 -225.5 C59.7815 -230.285 70.7228 -232.642 75.4677 -231.959 L75.4677 -231.959 Z " />
<glyph glyph-name="six" unicode="6" horiz-adv-x="568" d="M527.689 744.978 C240.125 676.832 50 497.7 50 291 C50 110 146 -10 290 -10 C425 -10 515 90 515 239 C515 373 427 462 294 462 C246.15 462 205.787 446.346 175.718 418.406 C172.286 415.216 165.105 419.667 166.777 424.044 C226.625 580.68 366.75 699.05 552 738 C555.283 738.69 551.551 740.691 551 744 C550.437 747.38 531.023 745.768 527.689 744.978 L527.689 744.978 Z M134 247 C134 372 196 455 290 455 C373 455 429 371 429 244 C429 97 373 -1 288 -1 C196 -1 134 98 134 247 L134 247 Z " />
<glyph glyph-name="seven" unicode="7" horiz-adv-x="442" d="M36.5 366.5 L40 372 C61 407 113 431 170 431 L398.283 431 C400.491 431 404.33 433.128 405.5 435 C405.683 435.292 406.193 435.018 406.051 434.704 L122.428 -190.404 C115.679 -205.28 125.164 -220 141.5 -220 C158.308 -220 179.485 -205.297 185.359 -189.55 L434.379 477.973 C434.884 479.329 437 491.053 437 492.5 C437 496.64 433.64 500 429.5 500 L200 500 C144.425 500 112.616 518.062 120.328 545.844 C120.34 545.885 121.684 551.079 121.693 551.12 L122 552.5 C122.488 554.694 124.376 555.793 122.687 557.276 C121.074 558.691 113.667 565.111 111 566 C102 547 91 523 80 500 L76 490 L64.5 464 L50 430 C50 430 22 371 21 368 L27.4717 363.955 C30.5231 362.048 34.5682 363.464 36.5 366.5 L36.5 366.5 Z " />
<glyph glyph-name="eight" unicode="8" horiz-adv-x="542" d="M218.194 371.724 C227.16 367.125 236.25 363.063 246 359 C359 313 435 271 435 208 C435 81 369 -4 270 -4 C176 -4 114 67 114 174 C114 257.85 150.124 332.194 207.541 372.006 C210.061 373.753 215.466 373.123 218.194 371.724 L218.194 371.724 Z M160.91 356.09 C86.24 307.6 40 241.3 40 175 C40 65 132 -9 271 -9 C410 -9 503 64 503 174 C503 284.5 452.425 348.037 370.927 395.933 C353.73 406.039 353.911 435.062 370.567 446.037 C436.843 489.708 477 545.375 477 599 C477 696 394 761 269 761 C147 761 66 689 66 581 C66 511.7 102.073 451.588 161.866 406.842 C176.697 395.743 176.446 366.179 160.91 356.09 L160.91 356.09 Z M296.5 431.5 L279 439 C192 474 134 537 134 613 C134 699 190 757 274 757 C352 757 404 691 404 591 C404 528.9 375.65 472.065 329.885 435.804 C321.707 429.325 306.09 427.39 296.5 431.5 L296.5 431.5 Z " />
<glyph glyph-name="nine" unicode="9" horiz-adv-x="568" d="M40.3109 -244.978 C327.875 -176.832 518 2.3 518 209 C518 390 422 510 278 510 C143 510 53 410 53 261 C53 127 141 38 274 38 C321.85 38 362.213 53.6544 392.282 81.594 C395.714 84.7836 402.895 80.3332 401.223 75.956 C341.375 -80.68 201.25 -199.05 16 -238 C12.7172 -238.69 16.4485 -240.691 17 -244 C17.5633 -247.38 36.9771 -245.768 40.3109 -244.978 L40.3109 -244.978 Z M434 253 C434 128 372 45 278 45 C195 45 139 129 139 256 C139 403 195 501 280 501 C372 501 434 402 434 253 L434 253 Z " />
<glyph glyph-name="colon" unicode="&#x3a;" horiz-adv-x="135" d="M125 385 C161 385 185 409 185 445 C185 481 161 505 125 505 C89 505 65 481 65 445 C65 409 89 385 125 385 L125 385 Z M125 -5 C161 -5 185 19 185 55 C185 91 161 115 125 115 C89 115 65 91 65 55 C65 19 89 -5 125 -5 L125 -5 Z " />
<glyph glyph-name="semicolon" unicode="&#x3b;" horiz-adv-x="260" d="M125 385 C161 385 185 409 185 445 C185 481 161 505 125 505 C89 505 65 481 65 445 C65 409 89 385 125 385 L125 385 Z M173.075 17.4692 C182.963 -52.5671 139.631 -102.325 71.5719 -104.896 C69.7143 -104.966 66 -106.641 66 -108.5 C66 -110.496 69.5832 -111.974 71.5777 -111.908 C143.469 -109.534 191 -61.15 191 11 C191 60.4 174.755 97.165 148.267 110.149 C147.171 110.686 139.976 112.71 138.775 112.922 L131.856 114.143 C130.959 114.301 122.601 114.883 121.691 114.821 C88.66 112.57 67 89.2 67 55 C67 19 91 -5 127 -5 C145.071 -5 159.094 3.77168 167.406 18.5438 C168.883 21.1691 172.653 20.452 173.075 17.4692 L173.075 17.4692 Z " />
<glyph glyph-name="equal" unicode="&#x3d;" horiz-adv-x="533" d="M83 200 C83 189.513 91.5126 181 102 181 L444 181 C454.487 181 463 189.513 463 200 C463 210.487 454.487 219 444 219 L102 219 C91.5126 219 83 210.487 83 200 L83 200 Z M83 300 C83 289.513 91.5126 281 102 281 L444 281 C454.487 281 463 289.513 463 300 C463 310.487 454.487 319 444 319 L102 319 C91.5126 319 83 310.487 83 300 L83 300 Z " />
<glyph glyph-name="question" unicode="&#x3f;" horiz-adv-x="299" d="M125 -5 C161 -5 185 19 185 55 C185 91 161 115 125 115 C89 115 65 91 65 55 C65 19 89 -5 125 -5 L125 -5 Z M125 218 L125 313.5 C125 335.269 147.123 359.722 168.639 363.027 C229.581 372.39 256.95 402.75 285 444 C303 471 315 515 315 555 C315 678 247 760 145 760 C97 760 65 735 65 697 C65 672 83 655 111 655 C131 655 157 670 176 670 C244 670 289 620 289 545 C289 529 280 505 266 485 C248 458 222 440 97 440 C96.5522 440 97.2564 440.08 97.5212 439.719 C104.247 430.545 109 210 109 210 C109 210 112.488 210 117 210 C121.416 210 125 213.584 125 218 L125 218 Z " />
<glyph glyph-name="at" unicode="&#x40;" horiz-adv-x="1160" d="M1035.76 -10.6343 C964.986 -147.691 788.925 -238 591 -238 C310 -238 122 -39 122 259 C122 556 305 754 580 754 C855 754 1038 590 1038 343 C1038 141 965 7 855 7 C760 7 716 84 745 200 L805.299 441.194 C810.494 461.974 796.42 480 775 480 L774.655 480 C753.404 480 730.591 462.132 725.5 441.5 L722.781 430.482 C720.983 423.194 708.126 422.9 704.297 429.356 C681.649 467.539 639.45 490 585 490 C407 490 289 371 289 192 C289 82 360 8 466 8 C533.65 8 593.813 35.9056 635.259 83.2941 C642.443 91.5086 663.595 90.2719 667.226 79.9809 C689.7 16.2925 750.9 -22 841 -22 C1000 -22 1106 124 1106 343 C1106 604 896 778 581 778 C266 778 56 570 56 259 C56 -48 278 -253 611 -253 C810.875 -253 989.836 -156.987 1064.47 -11.3036 C1067.85 -4.70129 1062.92 0 1055.5 0 C1048.69 0 1038.89 -4.58149 1035.76 -10.6343 L1035.76 -10.6343 Z M703.318 349.274 L666 200 C644 113 582 55 511 55 C434 55 383 116 383 208 C383 363 463 466 584 466 C655.175 466 702.584 424.173 704.91 360.908 C704.955 359.684 703.616 350.463 703.318 349.274 L703.318 349.274 Z " />
<glyph glyph-name="A" unicode="A" horiz-adv-x="808" d="M462.552 0 L792.5 0 C797.744 0 802 4.25628 802 9.5 L802 11 C802 15.4158 798.416 19 794 19 L786 19 C733 19 678 78 649 167 L472.801 717.498 C472.761 717.623 472.007 719.969 471.979 720.097 C471.44 722.531 460.872 770 456 770 L451 770 C448.783 770 446.432 767.095 446.333 764.88 C445.424 744.635 417.947 727.429 375.566 720.549 C372.792 720.099 372.692 717.692 373.5 715 C373.956 713.48 373.955 706.52 373.499 705 L209 157 C180 74 115 19 44 19 L32.5 19 C27.2563 19 23 14.7437 23 9.5 C23 4.25628 27.2563 0 32.5 0 L306.5 0 C311.744 0 316 4.25628 316 9.5 C316 14.7437 311.744 19 306.5 19 L295 19 C224 19 194 79 221 169 L245.146 251.5 C251.426 272.955 276.844 292 299.199 292 L483.494 292 C494.82 292 508.404 281.273 511.82 270.475 C522.519 236.65 533.1 202.825 543 169 C571 79 543 19 472 19 L460.552 19 C455.309 19 451.451 14.7149 452 9.5 C452.549 4.2851 457.309 0 462.552 0 L462.552 0 Z M280.315 372.255 L324.534 522.149 C340.64 576.745 415.33 577.344 432.309 523.012 L479.15 373.119 C491.189 334.597 465.753 300 425.394 300 L334.334 300 C294.451 300 269.031 334.002 280.315 372.255 L280.315 372.255 Z " />
<glyph glyph-name="B" unicode="B" horiz-adv-x="695" d="M365 3 L315 3 C279 3 255 78 255 191 L255 328.68 C255 359.767 280.233 385 311.32 385 L380 385 C478 385 544 309 544 195 C544 39 472 3 365 3 L365 3 Z M67 731 L74 731 C123 731 155 691 155 631 L155 119 C155 59 123 19 74 19 L67 19 C63.1362 19 60 15.8638 60 12 L60 9.5 C60 4.25628 64.2563 0 69.5 0 L375 0 C543 0 655 37 655 195 C655 289.35 588.53 358.413 481.997 381.307 C475.853 382.628 477.32 400.996 483.303 402.92 C572.55 431.627 627 491.625 627 570 C627 678 572 750 340 750 L69.5 750 C64.2563 750 60 745.744 60 740.5 L60 738 C60 734.136 63.1362 731 67 731 L67 731 Z M352 390 L303.5 390 C276.729 390 255 411.729 255 438.5 L255 708 C255 727.871 271.129 744 291 744 L327 744 C489 744 527 670 527 560 C527 458 457 390 352 390 L352 390 Z " />
<glyph glyph-name="C" unicode="C" horiz-adv-x="740" d="M684 131 L684 131 L684 131 L684 131 Z M696 -2.42353 L696 221 C696 226.52 691.52 231 686 231 C680.699 231 674.69 226.487 673.212 221.397 L667 200 C645 123 591 55 527 22 C491 5 452 -4 408 -4 C259 -4 160 147 160 374 C160 600 264 751 419 751 C458 751 492 744 522 732 C588 704 645 633 668 549 L674.212 527.603 C675.69 522.513 681.699 518 687 518 C692.52 518 697 522.48 697 528 L697 748 C697 751.864 693.864 755 690 755 C686.193 755 682.453 751.854 681.801 748.104 L679 732 C675 706 636 704 580 727 C561.633 735.7 537.193 742.531 516.615 749.3 C516.419 749.364 512.593 750.401 512.392 750.443 C484.872 756.099 453.075 758 417 758 C197 758 50 604 50 373 C50 142 192 -12 406 -12 C445 -12 479.5 -9.5 510.5 -2.5 C516.1 -0.9 522.02 0.38 528.26 2.876 C528.307 2.89488 537.45 6.4858 537.498 6.50195 C547.984 10.0156 558.375 13.625 568 18 C630 45 675 43 679 13 L681.919 -4.51301 C682.516 -8.09335 685.912 -10.5519 689.5 -10 C693.046 -9.45445 696 -6.01133 696 -2.42353 L696 -2.42353 Z " />
<glyph glyph-name="D" unicode="D" horiz-adv-x="863" d="M326 6 C262 6 255 77 255 183 L255 696.5 C255 722.719 276.281 744 302.5 744 L350 744 C579 744 697 596 697 375 C697 131 549 6 326 6 L326 6 Z M67 735 L74 735 C123 735 155 695 155 635 L155 115 C155 55 123 15 74 15 L67 15 C63.1362 15 60 11.8638 60 8 L60 7.5 C60 3.36022 63.3602 0 67.5 0 L335 0 C619 0 808 128 808 375 C808 600 661 750 375 750 L67.5 750 C63.3602 750 60 746.64 60 742.5 L60 742 C60 738.136 63.1362 735 67 735 L67 735 Z " />
<glyph glyph-name="E" unicode="E" horiz-adv-x="667" d="M47.5 735 L57 735 C116 735 155 687 155 615 L155 135 C155 63 116 15 57 15 L47.5 15 C43.3602 15 40 11.6398 40 7.5 C40 3.36029 43.3602 0.0183202 47.4999 0.0408899 L590.25 3 C590.25 5.7 607.868 106.41 612.849 135.273 C613.415 138.552 611.245 142 607.917 142 L606.5 142 C602.656 142 597.642 138.605 596.215 135.036 L591 122 C568.575 59.6 501.471 16.2125 419.346 8.52097 C418.915 8.48057 403.017 8.607 402.585 8.63892 C270.21 18.42 255 85.5 255 183 L255 345.5 C255 367.303 272.697 385 294.5 385 L334 385 C412 385 472 336 485 262 L487.658 247.379 C488.387 243.372 492.427 240 496.5 240 C500.64 240 504.012 243.36 504.026 247.5 L504.5 385 L504.5 392 L504.026 529.5 C504.012 533.64 500.64 537 496.5 537 C492.427 537 488.387 533.628 487.658 529.621 L485 515 C472 441 412 392 334 392 L294.5 392 C272.697 392 255 409.697 255 431.5 L255 686.68 C255 717.767 280.233 743 311.32 743 L395 743 C474 743 540 694 562 620 L566.726 605.147 C567.922 601.388 572.555 598 576.5 598 C580.596 598 583.602 600.98 583.069 605.041 C578.066 643.202 572.459 690.727 567.353 730.493 C565.763 742.875 554.784 748.529 542.301 748.565 L47.5 749.979 C43.3602 749.99 40 746.64 40 742.5 C40 738.36 43.3602 735 47.5 735 L47.5 735 Z " />
<glyph glyph-name="F" unicode="F" horiz-adv-x="642" d="M47.5 735 L57 735 C116 735 155 687 155 615 L155 135 C155 63 116 15 57 15 L47.5 15 C43.3602 15 40 11.6398 40 7.5 C40 3.36022 43.3602 0 47.5 0 L362.5 0 C366.64 0 370 3.36022 370 7.5 C370 11.6398 366.64 15 362.5 15 L353 15 C294 15 255 63 255 135 L255 349.5 C255 369.095 270.905 385 290.5 385 L326 385 C404 385 464 336 477 262 L479.658 247.379 C480.387 243.372 484.427 240 488.5 240 C492.64 240 496 243.36 496 247.5 L496 529.5 C496 533.64 492.64 537 488.5 537 C484.427 537 480.387 533.628 479.658 529.621 L477 515 C464 441 404 392 326 392 L290.5 392 C270.905 392 255 407.905 255 427.5 L255 688.68 C255 719.767 280.233 745 311.32 745 L396 745 C474 745 540 696 562 622 L566.726 607.147 C567.922 603.388 572.555 600 576.5 600 C580.625 600 583.683 602.801 583.204 606.899 C578.822 644.359 572.325 692.09 567.581 731.31 C566.135 743.265 555.401 749.019 543.358 749.042 L47.5 749.986 C43.3602 749.994 40 746.64 40 742.5 C40 738.36 43.3602 735 47.5 735 L47.5 735 Z " />
<glyph glyph-name="G" unicode="G" horiz-adv-x="830" d="M696 528 L696 749 C696 752.864 692.864 756 689 756 C685.193 756 681.453 752.854 680.801 749.104 L678 733 C674 707 635 705 579 728 C560.633 736.7 536.193 743.531 515.615 750.3 C515.419 750.364 511.593 751.401 511.392 751.443 C483.872 757.099 452.075 759 416 759 C196 759 49 605 49 374 C49 143 195 -11 413 -11 C515 -11 596 4 668 28 L675.25 29.8125 C675.414 29.8536 680.044 31.24 680.203 31.298 C704.412 40.1181 727.706 50.3235 751 61 L748 65 C730.818 56.8182 712.298 49.3058 691.89 42.4628 C684.962 40.1395 678 44.2937 678 51.6015 L678 170 C678 251 714 305 767 305 L775 305 C779.416 305 783 308.584 783 313 L783 314.5 C783 319.744 778.744 324 773.5 324 L482.5 324 C477.256 324 473 319.744 473 314.5 L473 313 C473 308.584 476.584 305 481 305 L489 305 C542 305 578.5 251 578.5 170 C578.5 150 579 130 579 111 C577 50 518 10 430 10 C269 10 161 156 161 375 C161 601 265 752 420 752 C459 752 493 745 523 733 C589 705 646 634 669 550 L675.491 527.643 C676.821 523.062 682.229 519 687 519 C691.968 519 696 523.032 696 528 L696 528 Z " />
<glyph glyph-name="H" unicode="H" horiz-adv-x="881" d="M814 15 L807 15 C758 15 726 55 726 115 L726 635 C726 695 758 735 807 735 L814 735 C817.864 735 821 738.136 821 742 L821 742.5 C821 746.64 817.64 750 813.5 750 L538.5 750 C534.36 750 531 746.64 531 742.5 L531 742 C531 738.136 534.136 735 538 735 L545 735 C594 735 626 695 626 635 L626 447.32 C626 416.233 600.767 391 569.68 391 L347.32 391 C316.233 391 291 416.233 291 447.32 L291 635 C291 695 323 735 372 735 L379 735 C382.864 735 386 738.136 386 742 L386 742.5 C386 746.64 382.64 750 378.5 750 L103.5 750 C99.3602 750 96 746.64 96 742.5 L96 742 C96 738.136 99.1362 735 103 735 L110 735 C159 735 191 695 191 635 L191 115 C191 55 159 15 110 15 L103 15 C99.1362 15 96 11.8638 96 8 L96 7.5 C96 3.36022 99.3602 0 103.5 0 L378.5 0 C382.64 0 386 3.36022 386 7.5 L386 8 C386 11.8638 382.864 15 379 15 L372 15 C323 15 291 55 291 115 L291 326.68 C291 357.767 316.233 383 347.32 383 L569.68 383 C600.767 383 626 357.767 626 326.68 L626 115 C626 55 594 15 545 15 L538 15 C534.136 15 531 11.8638 531 8 L531 7.5 C531 3.36022 534.36 0 538.5 0 L813.5 0 C817.64 0 821 3.36022 821 7.5 L821 8 C821 11.8638 817.864 15 814 15 L814 15 Z " />
<glyph glyph-name="I" unicode="I" horiz-adv-x="405" d="M338 15 L331 15 C282 15 250 55 250 115 L250 635 C250 695 282 735 331 735 L338 735 C341.864 735 345 738.136 345 742 L345 742.5 C345 746.64 341.64 750 337.5 750 L62.5 750 C58.3602 750 55 746.64 55 742.5 L55 742 C55 738.136 58.1362 735 62 735 L69 735 C118 735 150 695 150 635 L150 115 C150 55 118 15 69 15 L62 15 C58.1362 15 55 11.8638 55 8 L55 7.5 C55 3.36022 58.3602 0 62.5 0 L337.5 0 C341.64 0 345 3.36022 345 7.5 L345 8 C345 11.8638 341.864 15 338 15 L338 15 Z " />
<glyph glyph-name="J" unicode="J" horiz-adv-x="405" d="M337.5 750 L62.5 750 C58.3602 750 55 746.64 55 742.5 L55 742 C55 738.136 58.1362 735 62 735 L69 735 C118 735 150 695 150 635 L150 -73 C150 -187 82 -209 33 -209 C-16 -209 8 -129 -42 -129 C-69 -129 -87 -147 -87 -174 C-87 -202 -42 -220 25 -220 C120 -220 250 -166 250 117 L250 635 C250 695 282 735 331 735 L338 735 C341.864 735 345 738.136 345 742 L345 742.5 C345 746.64 341.64 750 337.5 750 L337.5 750 Z " />
<glyph glyph-name="K" unicode="K" horiz-adv-x="795" d="M342.483 750 L67.5 750 C63.3602 750 60 746.64 60 742.5 L60 742 C60 738.136 63.1362 735 67 735 L74 735 C123 735 155 695 155 635 L155 115 C155 55 123 15 74 15 L67 15 C63.1362 15 60 11.8638 60 8 L60 7.5 C60 3.36022 63.3602 0 67.5 0 L342.5 0 C346.64 0 350 3.36022 350 7.5 L350 8 C350 11.8638 346.864 15 343 15 L336 15 C287 15 255 55 255 115 L255 245 C255 291.153 308.93 310.798 338.615 275.458 L553.12 20.0954 C560.254 11.6022 585.152 0 596.244 0 L774.5 0 C778.64 0 782 3.36022 782 7.5 L782 8 C782 11.8638 778.864 15 775 15 L768 15 C722 15 662 50 614 103 L359.748 406.287 C345.729 423.009 347.145 452.423 361.305 469.025 C404.231 519.35 447.275 569.675 491 620 C550 689 628 735 687 735 L696.5 735 C700.64 735 704 738.36 704 742.5 C704 746.64 700.64 750 696.5 750 L404.5 750 C400.36 750 397 746.64 397 742.5 C397 738.36 400.36 735 404.5 735 L420 735 C498 735 500 675 427 585 L338.085 475.807 C309.476 440.673 256 459.691 256 505 L256 635 C256 695 288 735 337 735 L344 735 C347.855 735 350.791 738.138 350.534 741.984 L350.5 742.5 C350.225 746.631 346.623 750 342.483 750 L342.483 750 Z " />
<glyph glyph-name="L" unicode="L" horiz-adv-x="670" d="M338 750 L62.5 750 C58.3602 750 55 746.64 55 742.5 L55 742 C55 738.136 58.1362 735 62 735 L69 735 C118 735 150 695 150 635 L150 115 C150 55 118 15 69 15 L62 15 C58.1362 15 55 11.8638 55 8 L55 7.5 C55 3.36022 58.3602 0 62.5 0 L580.493 0 C582.977 0 585.112 2.01996 585.25 4.5 L585.361 6.4914 C585.373 6.70539 585.271 11.2867 585.25 11.5 C585.214 11.8607 585.469 16.8164 585.529 17.174 C592.094 56.6096 600.307 106.591 607.793 145.748 C608.553 149.727 605.55 152 601.5 152 C597.656 152 592.642 148.605 591.215 145.036 L586 132 C563 67 493 23 408 18 C407.734 17.9843 397.85 18.6122 397.585 18.6315 C265.21 28.2194 250 91.375 250 184 L250 636 C250 696 282 736 331 736 L338 736 C341.864 736 345 739.136 345 743 C345 746.864 341.864 750 338 750 L338 750 Z " />
<glyph glyph-name="M" unicode="M" horiz-adv-x="920" d="M626.5 0 L901.5 0 C905.64 0 909 3.36022 909 7.5 C909 11.6398 905.64 15 901.5 15 L894 15 C849 15 816 51 811 105 C806 282 800 459 795 635 C793 695 824 735 872 735 L879 735 C882.864 735 886 738.136 886 742 L886 742.5 C886 746.64 882.64 750 878.5 750 L736.572 750 C715.33 750 689.878 731.665 683.151 711.516 L539.971 282.667 C522.429 230.127 452.707 229.125 433.663 281.14 L275.531 713.043 C268.518 732.199 243.043 750 222.644 750 L60.5 750 C56.3602 750 53 746.64 53 742.5 L53 742 C53 738.136 56.1362 735 60 735 L67 735 C96.75 735 126.5 720.55 150.723 695.335 C157.2 688.592 162.667 670.306 162.376 660.961 L145 103 C139 50 107 15 61 15 L53.5 15 C49.3602 15 46 11.6398 46 7.5 C46 3.36022 49.3602 0 53.5 0 L263.5 0 C267.64 0 271 3.36022 271 7.5 L271 8 C271 11.8638 267.864 15 264 15 L257 15 C209 15 177 55 178 115 L182.5 375.5 C183.473 431.844 263.755 446.79 284.939 394.57 L440.301 11.5832 C442.705 5.65855 451.106 0 457.5 0 C464.02 0 471.955 5.65095 474.088 11.8128 L667.558 570.915 C673.297 587.5 699.136 578.962 699.62 561.419 C703.719 412.681 707.7 263.5 711 115 C713 55 681 15 633 15 L626 15 C622.136 15 619 11.8638 619 8 L619 7.5 C619 3.36022 622.36 0 626.5 0 L626.5 0 Z " />
<glyph glyph-name="N" unicode="N" horiz-adv-x="806" d="M-5 735 L2 735 C43.4 735 95.33 705.84 135.92 661.371 C141.425 655.34 148.978 634.497 148.963 626.331 L148 115 C148 55 115 15 67 15 L60 15 C56.1362 15 53 11.8638 53 8 L53 7.5 C53 3.36022 56.3602 0 60.5 0 L266.5 0 C270.64 0 274 3.36022 274 7.5 L274 8 C274 11.8638 270.864 15 267 15 L260 15 C214 15 182 50 178 103 L175.745 484.095 C175.504 524.873 229.149 536.273 253.306 503.42 C372.737 340.995 492.584 178.459 611.823 15.2981 C614.452 11.7013 628.545 0 633 0 C638.519 0 643.098 10.3808 643.15 15.9 C645.101 222.599 647.075 429.275 650 635 C651 695 683 735 732 735 L739 735 C742.864 735 746 738.136 746 742 L746 742.5 C746 746.64 742.64 750 738.5 750 L532.5 750 C528.36 750 525 746.64 525 742.5 L525 742 C525 738.136 528.136 735 532 735 L539 735 C588 735 620 695 620 635 L621.484 290.025 C621.649 251.687 568.879 243.714 546.349 274.733 C434.313 428.98 320.835 581.784 207.925 735.156 C200.421 745.348 181.173 750 168.516 750 L-4.5 750 C-8.63978 750 -12 746.64 -12 742.5 L-12 742 C-12 738.136 -8.86379 735 -5 735 L-5 735 Z " />
<glyph glyph-name="O" unicode="O" horiz-adv-x="851" d="M159 375 C159 601 262 752 417 752 C579 752 687 601 687 375 C687 149 576 -2 410 -2 C259 -2 159 149 159 375 L159 375 Z M50 375 C50 144 193 -10 408 -10 C641 -10 796 144 796 375 C796 606 645 760 418 760 C197 760 50 606 50 375 L50 375 Z " />
<glyph glyph-name="P" unicode="P" horiz-adv-x="639" d="M368 15 L361 15 C312 15 280 55 280 115 L280 319 C280 332.799 291.201 344 305 344 L330 344 C503 344 619 404 619 539 C619 666 523 750 380 750 L92.5 750 C88.3602 750 85 746.64 85 742.5 L85 742 C85 738.136 88.1362 735 92 735 L99 735 C148 735 180 695 180 635 L180 115 C180 55 148 15 99 15 L92 15 C88.1362 15 85 11.8638 85 8 L85 7.5 C85 3.36022 88.3602 0 92.5 0 L367.5 0 C371.64 0 375 3.36022 375 7.5 L375 8 C375 11.8638 371.864 15 368 15 L368 15 Z M280 390 L280 695.5 C280 716.199 296.801 733 317.5 733 L355 733 C456 733 524 662 524 555 C524 424 446 365 330 365 L305 365 C291.201 365 280 376.201 280 390 L280 390 Z " />
<glyph glyph-name="Q" unicode="Q" horiz-adv-x="846" d="M1128.95 -57.748 C1081.48 -78.1328 965.875 -90 825 -90 C633.9 -90 456.109 -58.6294 361.141 -10.7179 C359.472 -9.87605 361.144 -7.74462 363.005 -7.91667 C378.028 -9.30556 393.167 -10 409 -10 C642 -10 797 144 797 375 C797 606 646 760 419 760 C198 760 51 606 51 375 C51 209 125 83 246 25 C246.298 24.8573 257.631 17.0062 257.904 16.8218 C414.323 -88.555 634.6 -157 814 -157 C927.775 -157 1049.68 -120.208 1128.27 -64.0363 C1128.31 -64.0078 1129 -57.7287 1128.95 -57.748 L1128.95 -57.748 Z M332 7 C227 48 160 185 160 375 C160 601 263 752 418 752 C580 752 688 601 688 375 C688 146 574 -6 402 -6 C377 -6 354 -2 332 7 L332 7 Z " />
<glyph glyph-name="R" unicode="R" horiz-adv-x="816" d="M67 735 L74 735 C123 735 155 695 155 635 L155 115 C155 55 123 15 74 15 L67 15 C63.1362 15 60 11.8638 60 8 L60 7.5 C60 3.36022 63.3602 0 67.5 0 L342.5 0 C346.64 0 350 3.36022 350 7.5 L350 8 C350 11.8638 346.864 15 343 15 L336 15 C287 15 255 55 255 115 L255 304.5 C255 332.374 277.626 355 305.5 355 L334.728 355 C344.163 355 361.241 345.994 366.262 338.006 C395.656 291.234 462.375 195.75 549 75 C599.7 4.8 610.474 0.193125 791.718 0.00665625 C795.862 0.00239277 806 3.35597 806 7.5 C806 11.6335 803.32 14.9984 799.186 15.0046 C712.678 15.135 705.975 18.45 666 75 C580.15 194.85 513.085 288.69 475.859 340.553 C468.53 350.764 475.812 367.695 487.836 371.356 C570.78 396.61 621 450.7 621 538 C621 665 517 750 360 750 L67.5 750 C63.3602 750 60 746.64 60 742.5 L60 742 C60 738.136 63.1362 735 67 735 L67 735 Z M255 432.5 L255 692.5 C255 713.199 271.801 730 292.5 730 L330 730 C438 730 510 661 510 558 C510 435 450 380 360 380 L307.5 380 C278.522 380 255 403.522 255 432.5 L255 432.5 Z " />
<glyph glyph-name="S" unicode="S" horiz-adv-x="551" d="M50 240 L50 -3 C50 -6.86379 53.1362 -10 57 -10 C60.8221 -10 64.4657 -6.85639 65.0258 -3.07558 L68 17 C72 45 115 45 176 18 C194 9 214.5 1.5 233.5 -4.5 C252.5 -9.5 272 -10 292 -10 C423 -10 511 72 511 196 C511 293 447 382 322 427 C204 470 143 536 143 601 C143 699 192 759 273 751 C349 744 416 673 442 573 L448.369 549.648 C449.77 544.51 455.675 540 461 540 C466.52 540 471 544.48 471 550 L471 757 C471 760.864 467.864 764 464 764 C460.211 764 456.37 760.851 455.627 757.136 L453 744 C449.1 724.5 409.076 722.111 359.808 739.614 C359.547 739.707 352.124 743.042 351.878 743.169 C328.429 755.222 303.421 763.23 277.57 766.477 C275.349 766.756 273 765.239 273 763 C273 760.867 265.763 759.373 263.631 759.436 C142.902 762.972 64 683.9 64 563 C64 462 131 371 262 323 C374 282 431 224 431 167 C431 47 349 -27 238 9 C169 32 105 115 79 217 L72.6312 240.352 C71.23 245.49 65.3252 250 60 250 C54.4803 250 50 245.52 50 240 L50 240 Z " />
<glyph glyph-name="T" unicode="T" horiz-adv-x="775" d="M685 801 L683 797 C671 769 612 750 534 750 L241 750 C163 750 104 769 92 797 L90 801 C89.0126 802.975 85.7357 805 83.5279 805 L82.5 805 C79.6842 805 75.9967 802.51 74.9442 799.899 L51.0064 740.497 C50.4509 739.119 51.1201 737.552 52.5 737 C53.8776 736.449 54.2115 734.115 53.6408 732.746 C36.7659 692.25 15.8482 638.77 -0.406375 598.423 C-1.83879 594.868 0.666841 592 4.5 592 C8.04983 592 14.0323 595.387 15.8587 598.431 L24 612 C65 681 146 727 227 727 L282 727 C312.358 727 337 702.358 337 672 L337 117 C337 57 305 17 256 17 L249 17 C245.136 17 242 13.8638 242 10 L242 9.5 C242 5.36022 245.36 2 249.5 2 L525.5 2 C529.64 2 533 5.36022 533 9.5 L533 10 C533 13.8638 529.864 17 526 17 L519 17 C470 17 438 57 438 117 L438 672 C438 702.358 462.642 727 493 727 L548 727 C629 727 710 681 751 612 L759.141 598.431 C760.968 595.387 766.95 592 770.5 592 C774.333 592 776.839 594.868 775.406 598.423 C759.152 638.77 738.234 692.25 721.359 732.746 C720.789 734.115 721.122 736.449 722.5 737 L725 738 C724 741 720 747 720 751 L701.148 800.375 C700.009 803.358 696.181 805.765 693 805.5 L691.457 805.371 C689.355 805.196 685.943 802.886 685 801 L685 801 Z " />
<glyph glyph-name="U" unicode="U" horiz-adv-x="780" d="M743 52 L736 50 C687 37 655 68 655 128 L655 693.68 C655 724.767 629.767 750 598.68 750 L467.5 750 C463.36 750 460 746.64 460 742.5 L460 742 C460 738.136 463.136 735 467 735 L474 735 C523 735 555 695 555 635 L555 202.554 C555 198.784 550.76 181.369 548.96 178.056 C508.587 103.735 428.55 55 344 55 C270 55 220 121 220 220 L220 693.68 C220 724.767 194.767 750 163.68 750 L32.5 750 C28.3602 750 25 746.64 25 742.5 L25 742 C25 738.136 28.1362 735 32 735 L39 735 C88 735 120 695 120 635 L120 220 C120 82 194 -10 304 -10 C392.275 -10 476.466 32.1987 527.375 99.1893 C534.136 108.086 555 104.944 555 93.7701 L555 25 C555 11.2007 566.201 0 580 0 L598.067 0 C598.953 0 610.786 1.42892 611.647 1.6389 C625.872 5.1095 641.182 8.68182 655 13 C684.6 21.325 715.911 29.65 742.602 37.1835 C746.377 38.249 749.239 42.5862 749.5 46.5 L749.516 46.736 C749.767 50.5094 746.636 53.0389 743 52 L743 52 Z " />
<glyph glyph-name="V" unicode="V" horiz-adv-x="839" d="M794.487 750 L520.5 750 C515.256 750 511 745.744 511 740.5 C511 735.256 515.256 731 520.5 731 L534 731 C608 731 639 677 614 595 L494.548 271.778 C475.794 221.03 409.711 220.066 389.485 270.246 L261 589 C229 675 252 731 320 731 L331.5 731 C336.744 731 341 735.256 341 740.5 C341 745.744 336.744 750 331.5 750 L13.5 750 C8.25628 750 4 745.744 4 740.5 L4 737 C4 733.688 6.68818 731 10 731 L16 731 C58 731 108 677 145 595 L387.239 -1.73433 C389.162 -6.47314 395.886 -11 401 -11 C406.133 -11 412.789 -6.47398 414.676 -1.70027 L647 586 C683 673 740 731 790 731 L797.5 731 C801.634 731 804.823 734.361 804.606 738.49 L804.5 740.5 C804.224 745.736 799.731 750 794.487 750 L794.487 750 Z " />
<glyph glyph-name="W" unicode="W" horiz-adv-x="1181" d="M1129 750 L855.5 750 C850.256 750 846 745.744 846 740.5 C846 735.256 850.256 731 855.5 731 L868 731 C941 731 978 684 963 613 L878.215 307.904 C863.109 253.545 790.192 250.767 770.993 303.819 L662 605 C636 681 662 731 729 731 L739.5 731 C744.744 731 749 735.256 749 740.5 C749 745.744 744.744 750 739.5 750 L425.5 750 C420.256 750 416 745.744 416 740.5 L416 738 C416 734.136 419.136 731 423 731 L430 731 C475 731 524 681 554 605 L586.372 520.023 C589.171 512.677 589.182 487.319 586.39 479.97 L503.437 261.643 C484.068 210.666 416.814 210.996 397.947 262.161 L273 601 C244 679 264 731 321 731 L329.5 731 C334.192 731 338 734.808 338 739.5 L338 740.5 C338 745.744 333.744 750 328.5 750 L38.5 750 C33.2563 750 29 745.744 29 740.5 L29 737.5 C29 733.912 31.9122 731 35.5 731 L42 731 C85 731 134 679 164 601 C241.025 402.1 318.05 203.2 394.148 4.3 C396.45 -1.71726 406.057 -11 412.5 -11 C418.915 -11 427.241 -5.34239 429.604 0.62134 L579.221 378.304 C590.731 407.358 630.28 403.273 641.5 374.105 C689.5 249.33 737.5 124.666 785.5 0.626859 C787.822 -5.37482 796.065 -11 802.5 -11 C809.119 -11 817.632 -2.05027 819.5 4.29998 C878.001 203.199 936.525 402.075 996 600 C1019 678 1070 730 1124 730 L1131.5 730 C1135.64 730 1139 733.36 1139 737.5 L1139 740 C1139 745.52 1134.52 750 1129 750 L1129 750 Z " />
<glyph glyph-name="X" unicode="X" horiz-adv-x="848" d="M483.016 0 L771.5 0 C775.64 0 779 3.36022 779 7.5 L779 9 C779 12.3118 776.312 15 773 15 L767 15 C729 15 679 52 639 108 L462.054 381.867 C450.526 399.708 452.381 431.426 465.653 448.011 C514.122 508.577 562.7 569.65 612 630 C663 693 732 735 785 735 L793.5 735 C797.64 735 801 738.36 801 742.5 C801 746.64 797.64 750 793.5 750 L535.5 750 C531.36 750 528 746.64 528 742.5 C528 738.36 531.36 735 535.5 735 L547 735 C607 735 622 697 585 639 L457.348 458.089 C445.395 441.15 422.099 443.384 410.824 460.781 C374.311 517.119 337.475 573.9 302 630 C261 693 270 735 323 735 L331.5 735 C335.64 735 339 738.36 339 742.5 C339 746.64 335.64 750 331.5 750 L42.5 750 C38.3602 750 35 746.64 35 742.5 L35 741 C35 737.688 37.6882 735 41 735 L47 735 C85 735 135 698 175 642 L342.125 383.311 C352.858 366.698 352.067 335.842 340.496 319.802 L187 107 C143 52 83 16 33 16 L24.5 16 C20.3602 16 17 12.6398 17 8.5 C17 4.36022 20.3602 1 24.5 1 L278.5 1 C282.64 1 286 4.36022 286 8.5 C286 12.6398 282.64 16 278.5 16 L266 16 C203 16 190 58 233 121 L353.545 297.632 C365.438 315.058 389.309 312.874 400.782 295.169 C438.358 237.181 476.7 178.75 513 121 C554 58 545 16 492 16 L484 16 C479.593 16 475.776 12.4142 475.501 8.01558 L475.5 8 C475.225 3.59284 478.6 0 483.016 0 L483.016 0 Z " />
<glyph glyph-name="Y" unicode="Y" horiz-adv-x="771" d="M314.5 750 L24.5 750 C20.3602 750 17 746.64 17 742.5 L17 741 C17 737.688 19.6882 735 23 735 L29 735 C70 735 123 693 161 630 L340.752 335.512 C343.124 331.626 349 310.722 349 306.169 L349 135 C349 63 310 15 251 15 L241.5 15 C237.36 15 234 11.6398 234 7.5 C234 3.36022 237.36 0 241.5 0 L557.5 0 C561.64 0 565 3.36022 565 7.5 C565 11.6398 561.64 15 557.5 15 L548 15 C489 15 450 63 450 135 L450 320.92 C450 324.577 454.905 344.197 456.626 347.424 L610 635 C644 695 700 735 752 735 L760.5 735 C764.64 735 768 738.36 768 742.5 C768 746.64 764.64 750 760.5 750 L527.5 750 C523.36 750 520 746.64 520 742.5 C520 738.36 523.36 735 527.5 735 L542 735 C605 735 625 693 593 630 L493.519 435.807 C471.792 393.395 419.262 391.768 394.952 432.755 L275 635 C242 695 254 735 306 735 L314.5 735 C318.64 735 322 738.36 322 742.5 C322 746.64 318.64 750 314.5 750 L314.5 750 Z " />
<glyph glyph-name="Z" unicode="Z" horiz-adv-x="657" d="M73.3392 595.187 L77 608 C95 674 164 720 252 724 L393.078 726.266 C441.94 727.051 467.996 679.013 440.691 638.485 L29.5875 28.2934 C27.8642 25.7356 24 13.0841 24 10 C24 4.4803 28.4803 0 34 0 L597.351 0 C601.491 0 605.688 3.44062 606.5 7.5 L608 15 L641.296 157.696 C642.212 161.622 639.531 165 635.5 165 C631.695 165 626.544 161.604 625.046 158.106 L619 144 C590 75 509 29 415 27 L247.926 23.9512 C199.259 23.0631 173.084 70.6408 199.884 111.272 L602.494 721.652 C604.167 724.189 608 736.961 608 740 C608 745.52 603.52 750 598 750 L82.0557 750 C74.3281 750 67.4372 743.697 66.75 736 L65.5 722 C63.6 700.15 60.3463 654.835 54.8814 595.486 C54.456 590.867 57.8691 586.228 62.5 586.5 C66.9278 586.76 72.1207 590.922 73.3392 595.187 L73.3392 595.187 Z " />
<glyph glyph-name="bracketleft" unicode="&#x5b;" horiz-adv-x="295" d="M191.32 725 L332.5 725 C339.4 725 345 730.6 345 737.5 C345 744.4 339.4 750 332.5 750 L160.32 750 C129.233 750 104 724.767 104 693.68 L104 -138.68 C104 -169.767 129.233 -195 160.32 -195 L332.5 -195 C339.4 -195 345 -189.4 345 -182.5 C345 -175.6 339.4 -170 332.5 -170 L191.32 -170 C160.233 -170 135 -144.767 135 -113.68 L135 668.68 C135 699.767 160.233 725 191.32 725 L191.32 725 Z " />
<glyph glyph-name="backslash" unicode="&#x5c;" horiz-adv-x="347" d="M34.3126 746.093 L279.687 -56.0934 C283.547 -68.712 298.804 -80 312 -80 C325.196 -80 333.547 -68.712 329.687 -56.0934 L84.3126 746.093 C80.4528 758.712 65.1957 770 52 770 C38.8043 770 30.4528 758.712 34.3126 746.093 L34.3126 746.093 Z " />
<glyph glyph-name="bracketright" unicode="&#x5d;" horiz-adv-x="298" d="M157 668.68 L157 -113.68 C157 -144.767 131.767 -170 100.68 -170 L-40.5 -170 C-47.3996 -170 -53 -175.6 -53 -182.5 C-53 -189.4 -47.3996 -195 -40.5 -195 L131.68 -195 C162.767 -195 188 -169.767 188 -138.68 L188 693.68 C188 724.767 162.767 750 131.68 750 L-40.5 750 C-47.3996 750 -53 744.4 -53 737.5 C-53 730.6 -47.3996 725 -40.5 725 L100.68 725 C131.767 725 157 699.767 157 668.68 L157 668.68 Z " />
<glyph glyph-name="asciicircum" unicode="&#x5e;" horiz-adv-x="340" d="M200 755 C194 764 180 785 170 785 C160 785 146 764 140 755 L22.2357 572.562 C19.915 568.967 20.7126 563.739 24 561 C27.2971 558.252 32.4968 558.479 35.5424 561.503 L130.319 655.602 C152.221 677.348 187.779 677.348 209.681 655.602 L304.458 561.503 C307.503 558.479 312.703 558.252 316 561 C319.287 563.739 320.085 568.967 317.764 572.562 L200 755 L200 755 Z " />
<glyph glyph-name="underscore" unicode="&#x5f;" horiz-adv-x="455" d="M5 -73.5 C5 -86.4713 15.5287 -97 28.5 -97 L426.5 -97 C439.471 -97 450 -86.4713 450 -73.5 C450 -60.5287 439.471 -50 426.5 -50 L28.5 -50 C15.5287 -50 5 -60.5287 5 -73.5 L5 -73.5 Z " />
<glyph glyph-name="grave" unicode="&#x60;" horiz-adv-x="340" d="M-34 746 C-34 738 -8 714 30 682 L166.059 567.02 C169.327 564.259 174.475 564.475 177.5 567.5 C180.511 570.511 180.852 575.789 178.254 579.162 L69 721 C39 761 16 788 8 788 C-15 788 -34 769 -34 746 L-34 746 Z " />
<glyph glyph-name="a" unicode="a" horiz-adv-x="512" d="M518 105 C515.996 106.002 513.611 104.617 513.109 102.434 C506.582 74.05 483.45 56 454 56 C422 56 400 74 400 102 L400 355 C400 462 344 510 259 510 C143 510 65 414 65 360 C65 324 85 300 114 300 C141 300 159 325 159 343 C159 361 139 384 139 402 C139 438 183 502 250 502 C289 502 315 466 315 386 L315 306.611 C315 284.897 289.406 257.138 268.703 250.591 C89.4925 193.918 45 166.7 45 89 C45 30 90 -9 158 -9 C194.9 -9 240.71 12.06 296.888 65.115 C304.153 71.9763 319.302 67.1815 323.054 57.9199 C338.49 19.8219 373.8 -4 420 -4 C468.75 -4 509.42 36.4016 521.618 98.6675 C522.088 101.066 520.186 103.907 518 105 L518 105 Z M316 183.67 L316 103 L316 96 C316 93.0361 312.341 85.4763 310.158 83.4715 C273.207 49.5375 237.25 36 204 36 C160 36 131 61 131 98 C131 173.9 155.503 203.177 247.744 236.929 C286.97 251.283 316 225.439 316 183.67 L316 183.67 Z " />
<glyph glyph-name="b" unicode="b" horiz-adv-x="583" d="M15 709 L21 709 C59 710 85 674 85 617 L85 0 L90 0 L107.063 36.4021 C112.83 48.7043 132.745 50.1149 143.298 41.5573 C183.376 9.0575 239.125 -10 301 -10 C443 -10 538 95 538 253 C538 404 447 505 311 505 C270.575 505 226.747 484.581 191.307 451.043 C184.077 444.201 170 448.265 170 458.22 L170 728.999 C170 740.59 160.591 750.112 149 750.25 L134.8 750.419 C133.803 750.431 122.659 748.912 121.7 748.639 C110.263 745.382 97.6316 742.368 85 739 C60.5294 732.412 35.173 725.824 13.933 720.069 C11.3574 719.371 10 716.668 10 714 C10 711.24 12.2402 709 15 709 L15 709 Z M170 120.457 L170 392.852 C170 401.761 176.282 420.591 182.525 426.947 C212.891 457.859 250.625 477 283 477 C378 477 442 383 442 242 C442 99 387 3 304 3 C249.85 3 200.213 41.3562 173.95 100.921 C172.884 103.339 170 117.815 170 120.457 L170 120.457 Z " />
<glyph glyph-name="c" unicode="c" horiz-adv-x="504" d="M452.264 94.5729 C416.15 44.3087 357.575 13 299 13 C200 13 134 117 134 273 C134 412 200 504 300 504 C332 504 367 464 389 405 C398 379 416 362 432 362 C467 362 483 379 474 405 C451 468 382 510 302 510 C148 510 45 400 45 236 C45 88 141 -10 285 -10 C350.45 -10 414.455 29.7375 454.906 92.6311 C454.934 92.6745 452.294 94.6148 452.264 94.5729 L452.264 94.5729 Z " />
<glyph glyph-name="d" unicode="d" horiz-adv-x="610" d="M588 49 L581 47 C532 34 500 65 500 125 L500 729 C500 740.591 490.591 750 479 750 L465.711 750 C464.567 750 451.675 748.235 450.573 747.927 L415 738 C390.529 731.412 365.173 723.938 343.933 718.079 C341.376 717.374 340 714.653 340 712 C340 709.24 342.24 707 345 707 L351 707 C389 708 415 672 415 615 L415 458.735 C415 450.6 402.537 447.834 397.06 453.848 C366.377 487.539 324.55 510 280 510 C125 510 45 406 45 251 C45 97 130 -5 257 -5 C306.5 -5 357.361 15.4187 393.861 48.395 C400.751 54.6192 415 51.0783 415 41.7938 L415 21.0015 C415 9.41012 424.409 -0.112017 436 -0.25 L449.235 -0.407564 C450.386 -0.421259 462.311 0.92211 463.422 1.21898 C502.615 11.6872 553.279 24.8318 591.817 35.1471 C595.682 36.1817 595 39.4986 595 43.5 L595 43.7199 C595 47.5837 591.715 50.0615 588 49 L588 49 Z M415 366.6 L415 100.849 C415 90.2745 410.008 74.9762 401.882 68.2087 C374.555 45.45 333.5 31 291 31 C195 31 131 129 131 276 C131 402 185 486 289 486 C341.25 486 391.244 439.521 411.545 384.288 C412.204 382.497 415 368.509 415 366.6 L415 366.6 Z " />
<glyph glyph-name="e" unicode="e" horiz-adv-x="540" d="M151.102 340 L448.016 340 C487.835 340 508.917 360.767 493.287 397.391 C459.173 477.33 389.275 510 301 510 C147 510 45 432 45 231 C45 86 138 -10 278 -10 C360.45 -10 433.869 32.2662 473.077 97.7609 C473.083 97.7712 471.902 99.084 471.895 99.0742 C435.242 47.3297 365.375 15 287 15 C196 15 135 115 135 266 C135 288.781 136.424 310.139 138.671 329.472 C139.388 335.64 144.892 340 151.102 340 L151.102 340 Z M357.026 347.583 L197.717 346.416 C162.199 346.155 142.235 365.37 154.115 398.843 C180.324 472.691 232.175 504 299 504 C341.075 504 377.365 474.053 400.569 400.681 C410.834 368.225 391.066 347.832 357.026 347.583 L357.026 347.583 Z " />
<glyph glyph-name="f" unicode="f" horiz-adv-x="378" d="M284.5 15 L279 15 C241 15 215 41 215 80 L215 398.68 C215 429.767 240.233 455 271.32 455 L345.5 455 C357.919 455 368 465.081 368 477.5 C368 489.919 357.919 500 345.5 500 L271.32 500 C237.519 500 214.468 524.782 217.42 558.454 C226.542 662.53 261.35 729 320 729 C363 729 404 635 440 635 C467 635 485 653 485 680 C485 725 431 755 350 755 C219.5 755 145.7 672.38 132.245 544.319 C130.442 527.159 109.502 492.368 93.3322 486.347 L40.6857 466.745 C38.2619 465.842 36 462.586 36 460 C36 457.24 38.2402 455 41 455 L83 455 C108.943 455 130 433.943 130 408 L130 80 C130 41 104 15 66 15 L60.5 15 C57.4642 15 55 12.5358 55 9.5 L55 7.5 C55 3.36022 58.3602 0 62.5 0 L282.5 0 C286.64 0 290 3.36022 290 7.5 L290 9.5 C290 12.5358 287.536 15 284.5 15 L284.5 15 Z " />
<glyph glyph-name="g" unicode="g" horiz-adv-x="520" d="M541 479 C541 510 519 530 486 530 C457.1 530 426.033 510.493 402.623 478.847 C397.061 471.327 380.48 470.644 372.849 476.054 C342.244 497.749 302.025 510 255 510 C147 510 75 446 75 350 C75 280.7 111.754 227.735 171.785 202.897 C176.81 200.817 177.166 187.043 171.804 186.135 C98.795 173.785 54 143.95 54 104 C54 59.45 77.8219 25.79 117.604 9.75819 C123.628 7.33093 125.024 -5.07195 119.092 -7.71437 C73.1775 -28.1675 45 -60 45 -94 C45 -175 133 -229 265 -229 C397 -229 485 -164 485 -67 C485 24 433 85 299 85 C264 85 199 86 181 86 C135 86 105 104 105 131 C105 166 165 189 255 189 C363 189 435 254 435 351 C435 390.775 423.021 424.561 401.438 450.774 C398.313 454.57 398.872 460.205 402.693 463.299 C412.714 471.413 424.857 476 437 476 C458 476 485 442 506 442 C528 442 541.5 457 541.5 479 L541 479 Z M256 194 C199 194 161 256 161 350 C161 442 199 504 256 504 C313 504 351 442 351 350 C351 256 313 194 256 194 L256 194 Z M172.14 -1.36125 C203.62 -3.1675 250.2 -1 291 -1 C380 -1 414 -36 414 -89 C414 -171 355 -225 267 -225 C176 -225 116 -165 116 -76 C116 -48.775 126.55 -24.6128 144.28 -9.12859 C149.389 -4.66659 165.368 -0.972673 172.14 -1.36125 L172.14 -1.36125 Z " />
<glyph glyph-name="h" unicode="h" horiz-adv-x="609" d="M24 709 L30 709 C68 710 94 674 94 617 L94 80 C94 41 68 15 30 15 L24.5 15 C21.4642 15 19 12.5358 19 9.5 L19 7.5 C19 3.36022 22.3602 0 26.5 0 L246.5 0 C250.64 0 254 3.36022 254 7.5 L254 9.5 C254 12.5358 251.536 15 248.5 15 L243 15 C205 15 179 41 179 80 L179 362.117 C179 368.581 183.543 384.616 187.489 389.736 C215.83 426.51 269.2 450 325 450 C387 450 419 402 419 330 L419 80 C419 41 393 15 355 15 L349.5 15 C346.464 15 344 12.5358 344 9.5 L344 7.5 C344 3.36022 347.36 0 351.5 0 L571.5 0 C575.64 0 579 3.36022 579 7.5 L579 9.5 C579 12.5358 576.536 15 573.5 15 L568 15 C530 15 504 41 504 80 L504 330 C504 438 460 510 374 510 C312.95 510 249.177 475.969 204.582 421.944 C197.417 413.264 179 416.971 179 428.226 L179 728.999 C179 740.59 169.591 750.112 158 750.25 L143.8 750.419 C142.803 750.431 131.659 748.912 130.7 748.639 C119.263 745.382 106.632 742.368 94 739 C69.5294 732.412 44.173 725.824 22.933 720.069 C20.3574 719.371 19 716.668 19 714 C19 711.24 21.2402 709 24 709 L24 709 Z " />
<glyph glyph-name="i" unicode="i" horiz-adv-x="294" d="M147 615 C180 615 202 637 202 670 C202 703 180 725 147 725 C113 725 91 703 91 670 C91 637 113 615 147 615 L147 615 Z M34 459 L40 459 C78 460 104 424 104 367 L104 80 C104 41 78 15 40 15 L34.5 15 C31.4642 15 29 12.5358 29 9.5 L29 7.5 C29 3.36022 32.3602 0 36.5 0 L256.5 0 C260.64 0 264 3.36022 264 7.5 L264 9.5 C264 12.5358 261.536 15 258.5 15 L253 15 C215 15 189 41 189 80 L189 478.999 C189 490.59 179.591 500.112 168 500.25 L153.8 500.419 C152.803 500.431 141.659 498.912 140.7 498.639 C129.263 495.382 116.632 492.368 104 489 C79.5294 482.412 54.173 475.824 32.933 470.069 C30.3574 469.371 29 466.668 29 464 C29 461.24 31.2402 459 34 459 L34 459 Z " />
<glyph glyph-name="j" unicode="j" horiz-adv-x="280" d="M148 615 C181 615 203 637 203 670 C203 703 181 725 148 725 C114 725 92 703 92 670 C92 637 114 615 148 615 L148 615 Z M35 459 L41 459 C79 460 105 424 105 367 L105 50 C105 -27 91.2188 -89.4531 69.0156 -114.582 C59.3139 -125.562 57.5813 -123.965 43.132 -121.534 C13.0059 -116.467 -22.0769 -100 -50 -100 C-77 -100 -95 -116 -95 -140 C-95 -169 -71 -187 -35 -185 C-28 -185 14 -163 70 -130 C142 -88 190 -16 190 50 L190 478.999 C190 490.59 180.591 500.112 169 500.25 L154.8 500.419 C153.803 500.431 142.659 498.912 141.7 498.639 C130.263 495.382 117.632 492.368 105 489 C80.5294 482.412 55.173 475.824 33.933 470.069 C31.3574 469.371 30 466.668 30 464 C30 461.24 32.2402 459 35 459 L35 459 Z " />
<glyph glyph-name="k" unicode="k" horiz-adv-x="584" d="M24 709 L30 709 C68 710 94 674 94 617 L94 80 C94 41 68 15 30 15 L24.5 15 C21.4642 15 19 12.5358 19 9.5 L19 7.5 C19 3.36022 22.3602 0 26.5 0 L246.5 0 C250.64 0 254 3.36022 254 7.5 L254 9.5 C254 12.5358 251.536 15 248.5 15 L243 15 C205 15 179 41 179 80 L179 180 C179 215.497 220.482 230.604 243.309 203.421 L331 99 C372 48 379 15 348 15 L343.5 15 C341.016 15 339 12.9839 339 10.5 L339 7.5 C339 3.36022 342.36 0 346.5 0 L564.5 0 C568.64 0 572 3.36022 572 7.5 C572 11.3416 569.823 14.9407 565.991 15.2174 C527.875 17.97 488.45 46.85 440 101 L286.222 286.365 C269.006 307.117 272.495 337.233 294 353.5 L333 383 C419 445 504 485 550 485 L557 485 C560.864 485 564 488.136 564 492 L564 492.5 C564 496.64 560.64 500 556.5 500 L293.5 500 C289.36 500 286 496.64 286 492.5 C286 488.36 289.36 485 293.5 485 L311 485 C395 485 371 425 252 335 L215.5 307.5 C199.409 295.377 179 305.553 179 325.7 L179 728.999 C179 740.59 169.591 750.112 158 750.25 L143.8 750.419 C142.803 750.431 131.659 748.912 130.7 748.639 C119.263 745.382 106.632 742.368 94 739 C69.5294 732.412 44.173 725.824 22.933 720.069 C20.3574 719.371 19 716.668 19 714 C19 711.24 21.2402 709 24 709 L24 709 Z " />
<glyph glyph-name="l" unicode="l" horiz-adv-x="284" d="M24 709 L30 709 C68 710 94 674 94 617 L94 80 C94 41 68 15 30 15 L24.5 15 C21.4642 15 19 12.5358 19 9.5 L19 7.5 C19 3.36022 22.3602 0 26.5 0 L246.5 0 C250.64 0 254 3.36022 254 7.5 L254 9.5 C254 12.5358 251.536 15 248.5 15 L243 15 C205 15 179 41 179 80 L179 728.999 C179 740.59 169.591 750.112 158 750.25 L143.8 750.419 C142.803 750.431 131.659 748.912 130.7 748.639 C119.263 745.382 106.632 742.368 94 739 C69.5294 732.412 44.173 725.824 22.933 720.069 C20.3574 719.371 19 716.668 19 714 C19 711.24 21.2402 709 24 709 L24 709 Z " />
<glyph glyph-name="m" unicode="m" horiz-adv-x="894" d="M24 459 L30 459 C68 460 94 424 94 367 L94 80 C94 41 68 15 30 15 L24.5 15 C21.4642 15 19 12.5358 19 9.5 L19 7.5 C19 3.36022 22.3602 0 26.5 0 L246.5 0 C250.64 0 254 3.36022 254 7.5 L254 9.5 C254 12.5358 251.536 15 248.5 15 L243 15 C205 15 179 41 179 80 L179 366.63 C179 373.352 182.599 388.029 186.774 393.297 C212.64 425.94 260.7 447 312 447 C375 447 399 400 399 330 L399 80 C399 41 373 15 335 15 L329.5 15 C326.464 15 324 12.5358 324 9.5 L324 7.5 C324 3.36022 327.36 0 331.5 0 L551.5 0 C555.64 0 559 3.36022 559 7.5 L559 9.5 C559 12.5358 556.536 15 553.5 15 L548 15 C510 15 484 41 484 80 L484 330 C484 345.833 483.306 360.972 481.338 375.417 C480.83 379.144 483.567 389.371 485.896 392.326 C512.128 425.609 562.425 447 617 447 C680 447 704 400 704 330 L704 80 C704 41 678 15 640 15 L634.5 15 C631.464 15 629 12.5358 629 9.5 L629 7.5 C629 3.36022 632.36 0 636.5 0 L856.5 0 C860.64 0 864 3.36022 864 7.5 L864 9.5 C864 12.5358 861.536 15 858.5 15 L853 15 C815 15 789 41 789 80 L789 330 C789 438 751 510 652 510 C599.3 510 541.543 475.32 499.608 420.699 C492.482 411.418 473.579 415.166 469.63 426.181 C450.806 478.691 412.175 510 347 510 C298.325 510 244.205 477.33 203.17 425.466 C196.285 416.764 179 420.581 179 431.677 L179 478.999 C179 490.59 169.591 500.112 158 500.25 L143.8 500.419 C142.803 500.431 131.659 498.912 130.7 498.639 C119.263 495.382 106.632 492.368 94 489 C69.5294 482.412 44.173 475.824 22.933 470.069 C20.3574 469.371 19 466.668 19 464 C19 461.24 21.2402 459 24 459 L24 459 Z " />
<glyph glyph-name="n" unicode="n" horiz-adv-x="589" d="M24 459 L30 459 C68 460 94 424 94 367 L94 80 C94 41 68 15 30 15 L24.5 15 C21.4642 15 19 12.5358 19 9.5 L19 7.5 C19 3.36022 22.3602 0 26.5 0 L246.5 0 C250.64 0 254 3.36022 254 7.5 L254 9.5 C254 12.5358 251.536 15 248.5 15 L243 15 C205 15 179 41 179 80 L179 354.873 C179 360.152 183.858 378.114 186.801 382.496 C220.372 432.486 271.825 465 319 465 C372 465 399 411 399 330 L399 80 C399 41 373 15 335 15 L329.5 15 C326.464 15 324 12.5358 324 9.5 L324 7.5 C324 3.36022 327.36 0 331.5 0 L551.5 0 C555.64 0 559 3.36022 559 7.5 L559 9.5 C559 12.5358 556.536 15 553.5 15 L548 15 C510 15 484 41 484 80 L484 330 C484 438 437 510 347 510 C299.975 510 245.463 475.969 203.679 421.944 C196.716 412.941 179 416.845 179 428.226 L179 478.999 C179 490.59 169.591 500.112 158 500.25 L143.8 500.419 C142.803 500.431 131.659 498.912 130.7 498.639 C119.263 495.382 106.632 492.368 94 489 C69.5294 482.412 44.173 475.824 22.933 470.069 C20.3574 469.371 19 466.668 19 464 C19 461.24 21.2402 459 24 459 L24 459 Z " />
<glyph glyph-name="o" unicode="o" horiz-adv-x="614" d="M139 250 C139 401 206 502 307 502 C407 502 474 401 474 250 C474 99 407 -2 307 -2 C206 -2 139 99 139 250 L139 250 Z M45 250 C45 94 150 -10 307 -10 C464 -10 569 94 569 250 C569 406 464 510 307 510 C150 510 45 406 45 250 L45 250 Z " />
<glyph glyph-name="p" unicode="p" horiz-adv-x="581" d="M9.5 459 L15 459 C53 460 79 424 79 367 L79 -140 C79 -179 53 -205 15 -205 L9.5 -205 C6.46416 -205 4 -207.464 4 -210.5 L4 -212.5 C4 -216.64 7.36022 -220 11.5 -220 L231.5 -220 C235.64 -220 239 -216.64 239 -212.5 L239 -210.5 C239 -207.464 236.536 -205 233.5 -205 L228 -205 C190 -205 164 -179 164 -140 L164 8.32997 C164 17.4075 174.931 22.3723 183.083 18.3795 C214.142 3.1675 250.05 -5 288 -5 C437 -5 536 116 536 257 C536 409 447 510 313 510 C264.325 510 216.331 491.623 183.055 461.608 C176.956 456.106 164 459.187 164 467.401 L164 479.999 C164 491.59 154.591 501.112 143 501.25 L128.8 501.419 C127.803 501.431 116.659 499.912 115.7 499.639 C104.263 496.382 91.6316 493.368 79 490 C55.2941 483.618 30.7569 477.235 9.93619 471.611 C7.09973 470.845 4 467.438 4 464.5 C4 461.464 6.46416 459 9.5 459 L9.5 459 Z M164 139.498 L164 389.095 C164 396.579 170.579 416.011 175.449 421.693 C203.422 454.328 239.625 475 272 475 C374 475 442 377 442 231 C442 115 382 17 292 17 C238.8 17 189.661 58.515 166.875 120.968 C166.23 122.737 164 137.615 164 139.498 L164 139.498 Z " />
<glyph glyph-name="q" unicode="q" horiz-adv-x="561" d="M550.5 -205 L545 -205 C507 -205 481 -179 481 -140 L481 500 L476 500 L459.644 465.596 C454.033 453.793 434.989 452.484 424.941 460.842 C387.116 492.304 335.1 510 279 510 C115 510 31 406 31 251 C31 97 118 -5 248 -5 C293.375 -5 340.111 12.6962 374.732 41.9121 C381.63 47.7325 395 44.0714 395 35.0463 L395 -140 C395 -179 369 -205 331 -205 L325.5 -205 C322.464 -205 320 -207.464 320 -210.5 L320 -212.5 C320 -216.64 323.36 -220 327.5 -220 L547.483 -220 C551.623 -220 555.225 -216.631 555.5 -212.5 L555.634 -210.488 C555.836 -207.465 553.529 -205 550.5 -205 L550.5 -205 Z M395 379.89 L395 112.059 C395 103.149 389.089 84.7817 382.846 78.4258 C353.328 48.375 316.25 30 283 30 C184 30 118 128 118 275 C118 405 171 491 273 491 C321.45 491 367.193 455.351 391.365 398.629 C392.341 396.34 395 382.379 395 379.89 L395 379.89 Z " />
<glyph glyph-name="r" unicode="r" horiz-adv-x="430" d="M25 459 L31 459 C69 460 95 424 95 367 L95 80 C95 41 69 15 31 15 L25.5 15 C22.4642 15 20 12.5358 20 9.5 L20 7.5 C20 3.36022 23.3602 0 27.5 0 L247.5 0 C251.64 0 255 3.36022 255 7.5 L255 9.5 C255 12.5358 252.536 15 249.5 15 L244 15 C206 15 180 41 180 80 L180 369.078 C180 371.467 182.237 384.893 183.155 387.098 C204.108 437.412 243.2 469 285 469 C306 469 320 455 320 434 C320 404 340 384 370 384 C400 384 420 404 420 434 C420 479 382 509 325 509 C273.025 509 225.814 478.372 196.283 428.346 C192.779 422.41 180 424.443 180 431.336 L180 478.999 C180 490.59 170.591 500.112 159 500.25 L144.8 500.419 C143.803 500.431 132.659 498.912 131.7 498.639 C120.263 495.382 107.632 492.368 95 489 C70.5294 482.412 45.173 475.824 23.933 470.069 C21.3574 469.371 20 466.668 20 464 C20 461.24 22.2402 459 25 459 L25 459 Z " />
<glyph glyph-name="s" unicode="s" horiz-adv-x="428" d="M353 337.523 L353 514.5 C353 517.536 350.536 520 347.5 520 C344.516 520 341.536 517.527 340.986 514.594 L339 504 C339 502.1 309.217 502.907 262.513 505.565 C261.4 505.628 247.229 509.137 246.18 509.515 C234.303 513.788 221.993 516.379 209.636 516.902 C207.624 516.987 205 515.514 205 513.5 C205 511.626 200.403 509.959 198.53 509.903 C115.136 507.383 60 456.025 60 379 C60 304 108 242 200 217 C275 197 314 154 314 106 C314 32 263 -21 191 0 C189.654 0.392561 191.225 1.12522 191.5 2.5 C191.771 3.85265 191.106 5.14441 189.75 5.39819 C180 7.22314 170.25 10.3271 160.5 14.1738 C159.397 14.6089 150.868 19.6732 149.926 20.3934 C111.953 49.4325 83.5 101.35 74 165 L72.5689 180.027 C72.2563 183.309 69.2969 186 66 186 C62.6882 186 60 183.312 60 180 L60 -6.5 C60 -9.53584 62.4642 -12 65.5 -12 C68.4896 -12 71.4363 -9.52784 71.9558 -6.58369 L74 5 C74.95 8.8 106.585 6.2825 156.902 -2.5525 C157.591 -2.67353 170.793 -6.71276 171.435 -6.98962 C180.834 -11.0381 190.611 -13.917 199.872 -15.6263 C201.552 -15.9363 202.219 -14.6847 202.5 -13 C202.765 -11.4074 209.126 -10.5134 210.738 -10.6139 C310.506 -16.8356 378 45.15 378 129 C378 198 330 257 237 282 C159 303 119 351 119 408 C119 467.475 156.074 506.987 213.54 502.437 C215.27 502.3 217.785 500.712 217.5 499 C217.229 497.372 217.747 495.959 219.392 495.835 C232.112 494.875 244.193 492.635 255.632 489.115 C257.036 488.683 266.568 484.059 267.774 483.221 C303.85 458.162 330.45 411.85 339 352 L341.219 336.467 C341.65 333.453 344.468 331.224 347.5 331.5 C350.523 331.775 353 334.487 353 337.523 L353 337.523 Z " />
<glyph glyph-name="t" unicode="t" horiz-adv-x="378" d="M310.5 500 L236.32 500 C205.233 500 180 525.233 180 556.32 L180 617 C180 618.656 178.656 620 177 620 C175.79 620 172.777 618.692 171.951 617.809 L33.415 469.652 C32.1276 468.275 30 462.885 30 461 C30 458.24 32.2402 456 35 456 L62.5 456 C80.439 456 95 441.439 95 423.5 L95 160 C95 38 150 -10 232 -10 C289.525 -10 342.297 29.9262 366.217 91.2416 C367.327 94.0863 365.835 96.8659 363 98 C360.41 99.036 356.667 96.3691 355.565 93.8067 C338.987 55.27 300.75 30 258 30 C210 30 178 61 178 141 L179.644 399.039 C179.84 429.927 205.073 455 235.962 455 L310.5 455 C322.919 455 333 465.081 333 477.5 C333 489.919 322.919 500 310.5 500 L310.5 500 Z " />
<glyph glyph-name="u" unicode="u" horiz-adv-x="580" d="M558.5 46.5 L552 45 C509 34 480 66 480 126 L480 443.68 C480 474.767 454.767 500 423.68 500 L327.5 500 C323.36 500 320 496.64 320 492.5 L320 490.5 C320 487.464 322.464 485 325.5 485 L331 485 C369 485 395 459 395 420 L395 144.817 C395 140.545 391.332 124.728 389.171 121.044 C363.478 77.2356 316.95 49 267 49 C212 49 175 93 175 160 L175 443.68 C175 474.767 149.767 500 118.68 500 L22.5 500 C18.3602 500 15 496.64 15 492.5 L15 490.5 C15 487.464 17.4642 485 20.5 485 L26 485 C64 485 90 459 90 420 L90 160 C90 58 145 -10 227 -10 C283.1 -10 337.839 25.3925 374.371 82.7011 C379.212 90.296 395 87.5442 395 78.5374 L395 20.0015 C395 8.41012 404.409 -1.11202 416 -1.25 L429.373 -1.4092 C430.488 -1.42247 444.696 0.523016 445.774 0.806109 C479.726 9.71889 522.274 20.7811 556.226 29.6939 C560.359 30.779 565 35.7263 565 40 L565 41.3292 C565 44.917 561.996 47.3068 558.5 46.5 L558.5 46.5 Z " />
<glyph glyph-name="v" unicode="v" horiz-adv-x="576" d="M540.483 500 L371.5 500 C367.36 500 364 496.64 364 492.5 L364 490 C364 487.24 366.24 485 369 485 L374 485 C407 485 418 449 403 394 L356.358 256.608 C340.651 210.341 279.295 209.617 262.5 255.5 L214 388 C194 447 203 486 238 486 L243 486 C245.76 486 248 488.24 248 491 L248 493.5 C248 497.64 244.64 501 240.5 501 L17.5 501 C13.3602 501 10 497.64 10 493.5 L10 492 C10 488.688 12.6882 486 16 486 L22 486 C60 486 101 444 124 381 L262.697 2.73595 C264.927 -3.34599 273.022 -9 279.5 -9 C285.981 -9 294.064 -3.34622 296.286 2.74227 L438 391 C462 448 501 485 537 485 L543 485 C546.304 485 548.821 487.69 548.601 490.987 L548.5 492.5 C548.225 496.631 544.623 500 540.483 500 L540.483 500 Z " />
<glyph glyph-name="w" unicode="w" horiz-adv-x="875" d="M260.982 500 L36.5 500 C32.3602 500 29 496.64 29 492.5 L29 490.5 C29 487.464 31.4642 485 34.5 485 L40 485 C75 485 114 449 138 393 L283.64 1.71483 C285.895 -4.34524 294.034 -10 300.5 -10 C306.948 -10 315.155 -4.34412 317.45 1.6811 L378.783 162.679 C398.254 213.79 465.957 213.129 484.425 161.647 L541.779 1.76585 C543.972 -4.34712 552.006 -10 558.5 -10 C564.941 -10 572.439 -6.26 574.75 -0.248172 C623.501 126.549 672.275 254.225 722 380 C746 443 788 485 826 485 L831.5 485 C834.536 485 837 487.464 837 490.5 L837 492.5 C837 496.64 833.64 500 829.5 500 L660.5 500 C656.36 500 653 496.64 653 492.5 L653 490 C653 487.24 655.24 485 658 485 L663 485 C699 485 707 443 685 380 L639 251.5 C622.843 206.366 562.973 206.3 546.717 251.398 L500 381 C477 444 486 486 522 486 L527 486 C529.76 486 532 488.24 532 491 L532 493.5 C532 497.64 528.64 501 524.5 501 L299.5 501 C295.36 501 292 497.64 292 493.5 L292 492 C292 488.688 294.688 486 298 486 L304 486 C342 486 382 444 405 381 L410.5 366 C412.445 360.696 412.519 341.277 410.614 335.959 L349.467 165.195 C343.97 149.844 322.399 153.122 316.684 168.393 C290.186 239.199 263.256 310.436 237 381 C213 444 221 486 257 486 L262 486 C264.753 486 267.16 488.241 267.356 490.987 L267.5 493 C267.775 496.854 264.846 500 260.982 500 L260.982 500 Z " />
<glyph glyph-name="x" unicode="x" horiz-adv-x="594" d="M325.016 0 L554.5 0 C558.64 0 562 3.36022 562 7.5 L562 9.5 C562 12.5358 559.536 15 556.5 15 L551 15 C513 15 464 55 425 115 L340.884 252.497 C330.696 269.15 332.105 299.897 343.773 315.549 L403 395 C448 450 499 486 535 486 L540.5 486 C543.536 486 546 488.464 546 491.5 L546 493.5 C546 497.64 542.64 501 538.5 501 L375.5 501 C371.36 501 368 497.64 368 493.5 L368 491 C368 488.24 370.24 486 373 486 L378 486 C411 486 403 444 360 381 L333.065 342.152 C320.401 323.886 296.621 324.553 285 343.5 L262 381 C223 444 220 486 253 486 L258 486 C260.76 486 263 488.24 263 491 L263 493.5 C263 497.64 259.64 501 255.5 501 L25.5 501 C21.3602 501 18 497.64 18 493.5 L18 491.5 C18 488.464 20.4642 486 23.5 486 L29 486 C67 486 116 446 155 386 L228.792 266.678 C239.177 249.884 237.795 219.06 225.947 203.263 L153 106 C108 51 57 16 21 16 L15.5 16 C12.4642 16 10 13.5358 10 10.5 L10 8.5 C10 4.36022 13.3602 1 17.5 1 L180.5 1 C184.64 1 188 4.36022 188 8.5 L188 11 C188 13.7599 185.76 16 183 16 L178 16 C145 16 152 58 195 121 L228.426 169.853 C244.374 193.163 274.599 192.493 289.5 168.5 L319 121 C358 58 361 16 328 16 L323 16 C320.246 16 317.86 13.7588 317.688 11.0097 L317.5 8 C317.225 3.59284 320.6 0 325.016 0 L325.016 0 Z " />
<glyph glyph-name="y" unicode="y" horiz-adv-x="605" d="M568.483 500 L400.5 500 C396.36 500 393 496.64 393 492.5 L393 490.5 C393 487.464 395.464 485 398.5 485 L404 485 C437 485 448 450 433 396 L387.5 257.5 C371.044 207.409 306.012 204.817 285.622 253.44 L225 398 C206 451 214 485 247 485 L252 485 C254.76 485 257 487.24 257 490 L257 492.5 C257 496.64 253.64 500 249.5 500 L27.5 500 C23.3602 500 20 496.64 20 492.5 L20 491 C20 487.688 22.6882 485 26 485 L32 485 C70 485 113 443 139 380 L289.031 22.3797 C292.428 14.2824 291.877 -14.2845 288.675 -22.4607 C271.278 -66.8775 255 -111.8 238 -156 C229 -179 215 -194 211 -194 C189 -194 184 -165 161 -165 C134 -165 116 -183 116 -210 C116 -240 136 -260 166 -260 C192 -260 238 -223 259 -167 L319 -10 C366 120 414 250 462 380 C485 443 526 485 564 485 L569.5 485 C572.529 485 575.164 487.465 575.366 490.488 L575.5 492.5 C575.775 496.631 572.623 500 568.483 500 L568.483 500 Z " />
<glyph glyph-name="z" unicode="z" horiz-adv-x="475" d="M37.5 362 C41.6465 362 48.0369 365.848 49.977 369.512 L55 379 C82 431 149 469 225 475 L279 476.5 C303.636 477.184 317.145 453.271 303.843 432.523 L45.3973 29.4184 C43.7894 26.9104 40 13.9792 40 11 C40 5.4803 44.4803 1 50 1 L422.5 1 C426.64 1 430 4.36022 430 8.5 L430 16 L435 16 C435 16 439.512 60.2225 446.823 128.09 C447.322 132.727 444.163 139 439.5 139 C435.076 139 429.644 135.157 428.171 130.985 L425 122 C406 70 346 34 273 27 L208.5 25.5 C178.922 24.8121 162.762 53.465 178.653 78.4211 L429.629 472.565 C431.221 475.066 435 488.035 435 491 C435 496.52 430.52 501 425 501 L167 501 C120.2 501 92.03 513.15 93.425 535.263 C93.6646 539.061 89.806 543 86 543 L85.86 543 C81.1043 543 75.8267 539.004 74.5314 534.428 C70.1056 518.794 65.2 500.28 61 486 C62.95 486 49.69 439.895 30.4886 368.075 C29.3171 363.693 32.9644 362 37.5 362 L37.5 362 Z " />
<glyph glyph-name="bar" unicode="&#x7c;" horiz-adv-x="186" d="M60 767 L60 -217 C60 -235.215 74.785 -250 93 -250 C111.215 -250 126 -235.215 126 -217 L126 767 C126 785.215 111.215 800 93 800 C74.785 800 60 785.215 60 767 L60 767 Z " />
<glyph glyph-name="asciitilde" unicode="&#x7e;" horiz-adv-x="340" d="M27 310 C27 346 45 370 71 370 C123 370 192 305 244 305 C288 305 318 353 318 425 L313 425 C313 389 293 365 264 365 C212 365 143 430 91 430 C50 430 22 382 22 310 L27 310 L27 310 Z " />
<glyph glyph-name="exclamdown" unicode="&#xa1;" horiz-adv-x="244" d="M122 505 C86 505 62 481 62 445 C62 409 86 385 122 385 C158 385 182 409 182 445 C182 481 158 505 122 505 L122 505 Z M122 -255 C163 -255 180 -213 174 -150 C174 -150 132.173 142.792 130.081 279.778 C130.015 284.125 126.348 290 122 290 C117.652 290 113.985 284.125 113.919 279.778 C111.827 142.792 70 -150 70 -150 C64 -213 81 -255 122 -255 L122 -255 Z " />
<glyph glyph-name="cent" unicode="&#xa2;" horiz-adv-x="504" d="M272 560 L272 542 C272 526.011 257.647 507.748 241.986 504.525 C122.006 479.836 45 378.525 45 237 C45 103.8 122.006 11.67 241.986 -6.14897 C257.801 -8.49777 272 -25.5114 272 -41.5 L272 -59 C272 -67.2796 278.72 -74 287 -74 C295.28 -74 302 -67.2796 302 -59 L302 -41 C302 -26.6682 319.732 -5.87097 333.461 -1.7585 C381.507 12.6335 424.776 48.2915 454.692 96.9835 C454.762 97.0979 452.51 96.1152 452.432 96.006 C424.374 56.8265 382.996 28.991 338.46 18.5415 C315.681 13.1968 302 25.6058 302 49.0036 L302 489.468 C302 500.557 305.843 505.812 316.102 501.602 C342.93 490.595 370.3 454.3 389 405 C398 379 416 362 432 362 C467 362 483 379 474 405 C453.875 460.125 398.531 499.172 331.416 508.072 C315.971 510.121 302 526.919 302 542.5 L302 560 C302 568.28 295.28 575 287 575 C278.72 575 272 568.28 272 560 L272 560 Z M236.306 29.05 C173.015 63.645 134 153.15 134 273 C134 376.95 170.754 454.356 230.785 487.248 C256.141 501.142 272 488.158 272 459.245 L272 58.8515 C272 30.2275 261.423 15.3211 236.306 29.05 L236.306 29.05 Z " />
<glyph glyph-name="acute" unicode="&#xb4;" horiz-adv-x="340" d="M183.941 567.02 L320 682 C358 715 384 740 384 746 C384 769 365 788 342 788 C336 788 313 761 281 721 L171.746 579.162 C169.148 575.789 169.489 570.511 172.5 567.5 C175.525 564.475 180.673 564.259 183.941 567.02 L183.941 567.02 Z " />
<glyph glyph-name="questiondown" unicode="&#xbf;" horiz-adv-x="299" d="M174 505 C138 505 114 481 114 445 C114 409 138 385 174 385 C210 385 234 409 234 445 C234 481 210 505 174 505 L174 505 Z M174 282 L174 186.5 C174 164.731 151.877 140.278 130.361 136.973 C69.4194 127.61 42.05 97.25 14 56 C-4 29 -16 -15 -16 -55 C-16 -178 52 -260 154 -260 C202 -260 234 -235 234 -197 C234 -172 216 -155 188 -155 C168 -155 142 -170 123 -170 C55 -170 10 -120 10 -45 C10 -29 19 -5 33 15 C51 42 77 60 202 60 C202.448 60 201.744 59.9203 201.479 60.2815 C194.753 69.455 190 290 190 290 C190 290 186.512 290 182 290 C177.584 290 174 286.416 174 282 L174 282 Z " />
<glyph glyph-name="Agrave" unicode="&#xc0;" horiz-adv-x="808" d="M462.552 0 L792.5 0 C797.744 0 802 4.25628 802 9.5 L802 11 C802 15.4158 798.416 19 794 19 L786 19 C733 19 678 78 649 167 L472.801 717.498 C472.761 717.623 472.007 719.969 471.979 720.097 C471.44 722.531 460.872 770 456 770 L451 770 C448.783 770 446.432 767.095 446.333 764.88 C445.424 744.635 417.947 727.429 375.566 720.549 C372.792 720.099 372.692 717.692 373.5 715 C373.956 713.48 373.955 706.52 373.499 705 L209 157 C180 74 115 19 44 19 L32.5 19 C27.2563 19 23 14.7437 23 9.5 C23 4.25628 27.2563 0 32.5 0 L306.5 0 C311.744 0 316 4.25628 316 9.5 C316 14.7437 311.744 19 306.5 19 L295 19 C224 19 194 79 221 169 L245.146 251.5 C251.426 272.955 276.844 292 299.199 292 L483.494 292 C494.82 292 508.404 281.273 511.82 270.475 C522.519 236.65 533.1 202.825 543 169 C571 79 543 19 472 19 L460.552 19 C455.309 19 451.451 14.7149 452 9.5 C452.549 4.2851 457.309 0 462.552 0 L462.552 0 Z M217 996 C217 988 243 964 281 932 L417.059 817.02 C420.327 814.259 425.475 814.475 428.5 817.5 C431.511 820.511 431.852 825.789 429.254 829.162 L320 971 C290 1011 267 1038 259 1038 C236 1038 217 1019 217 996 L217 996 Z M280.315 372.255 L324.534 522.149 C340.64 576.745 415.33 577.344 432.309 523.012 L479.15 373.119 C491.189 334.597 465.753 300 425.394 300 L334.334 300 C294.451 300 269.031 334.002 280.315 372.255 L280.315 372.255 Z " />
<glyph glyph-name="Aacute" unicode="&#xc1;" horiz-adv-x="808" d="M436.941 817.02 L573 932 C611 965 637 990 637 996 C637 1019 618 1038 595 1038 C589 1038 566 1011 534 971 L424.746 829.162 C422.148 825.789 422.489 820.511 425.5 817.5 C428.525 814.475 433.673 814.259 436.941 817.02 L436.941 817.02 Z M462.552 0 L792.5 0 C797.744 0 802 4.25628 802 9.5 L802 11 C802 15.4158 798.416 19 794 19 L786 19 C733 19 678 78 649 167 L472.801 717.498 C472.761 717.623 472.007 719.969 471.979 720.097 C471.44 722.531 460.872 770 456 770 L451 770 C448.783 770 446.432 767.095 446.333 764.88 C445.424 744.635 417.947 727.429 375.566 720.549 C372.792 720.099 372.692 717.692 373.5 715 C373.956 713.48 373.955 706.52 373.499 705 L209 157 C180 74 115 19 44 19 L32.5 19 C27.2563 19 23 14.7437 23 9.5 C23 4.25628 27.2563 0 32.5 0 L306.5 0 C311.744 0 316 4.25628 316 9.5 C316 14.7437 311.744 19 306.5 19 L295 19 C224 19 194 79 221 169 L245.146 251.5 C251.426 272.955 276.844 292 299.199 292 L483.494 292 C494.82 292 508.404 281.273 511.82 270.475 C522.519 236.65 533.1 202.825 543 169 C571 79 543 19 472 19 L460.552 19 C455.309 19 451.451 14.7149 452 9.5 C452.549 4.2851 457.309 0 462.552 0 L462.552 0 Z M280.315 372.255 L324.534 522.149 C340.64 576.745 415.33 577.344 432.309 523.012 L479.15 373.119 C491.189 334.597 465.753 300 425.394 300 L334.334 300 C294.451 300 269.031 334.002 280.315 372.255 L280.315 372.255 Z " />
<glyph glyph-name="Acircumflex" unicode="&#xc2;" horiz-adv-x="808" d="M462.552 0 L792.5 0 C797.744 0 802 4.25628 802 9.5 L802 11 C802 15.4158 798.416 19 794 19 L786 19 C733 19 678 78 649 167 L472.801 717.498 C472.761 717.623 472.007 719.969 471.979 720.097 C471.44 722.531 460.872 770 456 770 L451 770 C448.783 770 446.432 767.095 446.333 764.88 C445.424 744.635 417.947 727.429 375.566 720.549 C372.792 720.099 372.692 717.692 373.5 715 C373.956 713.48 373.955 706.52 373.499 705 L209 157 C180 74 115 19 44 19 L32.5 19 C27.2563 19 23 14.7437 23 9.5 C23 4.25628 27.2563 0 32.5 0 L306.5 0 C311.744 0 316 4.25628 316 9.5 C316 14.7437 311.744 19 306.5 19 L295 19 C224 19 194 79 221 169 L245.146 251.5 C251.426 272.955 276.844 292 299.199 292 L483.494 292 C494.82 292 508.404 281.273 511.82 270.475 C522.519 236.65 533.1 202.825 543 169 C571 79 543 19 472 19 L460.552 19 C455.309 19 451.451 14.7149 452 9.5 C452.549 4.2851 457.309 0 462.552 0 L462.552 0 Z M451 1005 C445 1014 431 1035 421 1035 C411 1035 397 1014 391 1005 L273.236 822.562 C270.915 818.967 271.713 813.739 275 811 C278.297 808.252 283.497 808.479 286.542 811.503 L381.319 905.602 C403.221 927.348 438.779 927.348 460.681 905.602 L555.458 811.503 C558.503 808.479 563.703 808.252 567 811 C570.287 813.739 571.085 818.967 568.764 822.562 L451 1005 L451 1005 Z M280.315 372.255 L324.534 522.149 C340.64 576.745 415.33 577.344 432.309 523.012 L479.15 373.119 C491.189 334.597 465.753 300 425.394 300 L334.334 300 C294.451 300 269.031 334.002 280.315 372.255 L280.315 372.255 Z " />
<glyph glyph-name="Atilde" unicode="&#xc3;" horiz-adv-x="808" d="M280 870 C280 906 298 930 324 930 C376 930 445 865 497 865 C541 865 571 913 571 985 L566 985 C566 949 546 925 517 925 C465 925 396 990 344 990 C303 990 275 942 275 870 L280 870 L280 870 Z M462.552 0 L792.5 0 C797.744 0 802 4.25628 802 9.5 L802 11 C802 15.4158 798.416 19 794 19 L786 19 C733 19 678 78 649 167 L472.801 717.498 C472.761 717.623 472.007 719.969 471.979 720.097 C471.44 722.531 460.872 770 456 770 L451 770 C448.783 770 446.432 767.095 446.333 764.88 C445.424 744.635 417.947 727.429 375.566 720.549 C372.792 720.099 372.692 717.692 373.5 715 C373.956 713.48 373.955 706.52 373.499 705 L209 157 C180 74 115 19 44 19 L32.5 19 C27.2563 19 23 14.7437 23 9.5 C23 4.25628 27.2563 0 32.5 0 L306.5 0 C311.744 0 316 4.25628 316 9.5 C316 14.7437 311.744 19 306.5 19 L295 19 C224 19 194 79 221 169 L245.146 251.5 C251.426 272.955 276.844 292 299.199 292 L483.494 292 C494.82 292 508.404 281.273 511.82 270.475 C522.519 236.65 533.1 202.825 543 169 C571 79 543 19 472 19 L460.552 19 C455.309 19 451.451 14.7149 452 9.5 C452.549 4.2851 457.309 0 462.552 0 L462.552 0 Z M280.315 372.255 L324.534 522.149 C340.64 576.745 415.33 577.344 432.309 523.012 L479.15 373.119 C491.189 334.597 465.753 300 425.394 300 L334.334 300 C294.451 300 269.031 334.002 280.315 372.255 L280.315 372.255 Z " />
<glyph glyph-name="Adieresis" unicode="&#xc4;" horiz-adv-x="808" d="M498 865 C531 865 553 887 553 920 C553 953 531 975 498 975 C465 975 443 953 443 920 C443 887 465 865 498 865 L498 865 Z M348 865 C381 865 403 887 403 920 C403 953 381 975 348 975 C315 975 293 953 293 920 C293 887 315 865 348 865 L348 865 Z M462.552 0 L792.5 0 C797.744 0 802 4.25628 802 9.5 L802 11 C802 15.4158 798.416 19 794 19 L786 19 C733 19 678 78 649 167 L472.801 717.498 C472.761 717.623 472.007 719.969 471.979 720.097 C471.44 722.531 460.872 770 456 770 L451 770 C448.783 770 446.432 767.095 446.333 764.88 C445.424 744.635 417.947 727.429 375.566 720.549 C372.792 720.099 372.692 717.692 373.5 715 C373.956 713.48 373.955 706.52 373.499 705 L209 157 C180 74 115 19 44 19 L32.5 19 C27.2563 19 23 14.7437 23 9.5 C23 4.25628 27.2563 0 32.5 0 L306.5 0 C311.744 0 316 4.25628 316 9.5 C316 14.7437 311.744 19 306.5 19 L295 19 C224 19 194 79 221 169 L245.146 251.5 C251.426 272.955 276.844 292 299.199 292 L483.494 292 C494.82 292 508.404 281.273 511.82 270.475 C522.519 236.65 533.1 202.825 543 169 C571 79 543 19 472 19 L460.552 19 C455.309 19 451.451 14.7149 452 9.5 C452.549 4.2851 457.309 0 462.552 0 L462.552 0 Z M280.315 372.255 L324.534 522.149 C340.64 576.745 415.33 577.344 432.309 523.012 L479.15 373.119 C491.189 334.597 465.753 300 425.394 300 L334.334 300 C294.451 300 269.031 334.002 280.315 372.255 L280.315 372.255 Z " />
<glyph glyph-name="Aring" unicode="&#xc5;" horiz-adv-x="808" d="M351 905 C351 950 380 980 423 980 C466 980 495 950 495 905 C495 864 462 830 423 830 C384 830 351 865 351 905 L351 905 Z M325 905 C325 854 370 810 423 810 C476 810 521 854 521 905 C521 962 482 1000 423 1000 C364 1000 325 962 325 905 L325 905 Z M462.552 0 L792.5 0 C797.744 0 802 4.25628 802 9.5 L802 11 C802 15.4158 798.416 19 794 19 L786 19 C733 19 678 78 649 167 L472.801 717.498 C472.761 717.623 472.007 719.969 471.979 720.097 C471.44 722.531 460.872 770 456 770 L451 770 C448.783 770 446.432 767.095 446.333 764.88 C445.424 744.635 417.947 727.429 375.566 720.549 C372.792 720.099 372.692 717.692 373.5 715 C373.956 713.48 373.955 706.52 373.499 705 L209 157 C180 74 115 19 44 19 L32.5 19 C27.2563 19 23 14.7437 23 9.5 C23 4.25628 27.2563 0 32.5 0 L306.5 0 C311.744 0 316 4.25628 316 9.5 C316 14.7437 311.744 19 306.5 19 L295 19 C224 19 194 79 221 169 L245.146 251.5 C251.426 272.955 276.844 292 299.199 292 L483.494 292 C494.82 292 508.404 281.273 511.82 270.475 C522.519 236.65 533.1 202.825 543 169 C571 79 543 19 472 19 L460.552 19 C455.309 19 451.451 14.7149 452 9.5 C452.549 4.2851 457.309 0 462.552 0 L462.552 0 Z M280.315 372.255 L324.534 522.149 C340.64 576.745 415.33 577.344 432.309 523.012 L479.15 373.119 C491.189 334.597 465.753 300 425.394 300 L334.334 300 C294.451 300 269.031 334.002 280.315 372.255 L280.315 372.255 Z " />
<glyph glyph-name="Egrave" unicode="&#xc8;" horiz-adv-x="667" d="M155 996 C155 988 181 964 219 932 L355.059 817.02 C358.327 814.259 363.475 814.475 366.5 817.5 C369.511 820.511 369.852 825.789 367.254 829.162 L258 971 C228 1011 205 1038 197 1038 C174 1038 155 1019 155 996 L155 996 Z M47.5 735 L57 735 C116 735 155 687 155 615 L155 135 C155 63 116 15 57 15 L47.5 15 C43.3602 15 40 11.6398 40 7.5 C40 3.36029 43.3602 0.0183202 47.4999 0.0408899 L590.25 3 C590.25 5.7 607.868 106.41 612.849 135.273 C613.415 138.552 611.245 142 607.917 142 L606.5 142 C602.656 142 597.642 138.605 596.215 135.036 L591 122 C568.575 59.6 501.471 16.2125 419.346 8.52097 C418.915 8.48057 403.017 8.607 402.585 8.63892 C270.21 18.42 255 85.5 255 183 L255 345.5 C255 367.303 272.697 385 294.5 385 L334 385 C412 385 472 336 485 262 L487.658 247.379 C488.387 243.372 492.427 240 496.5 240 C500.64 240 504.012 243.36 504.026 247.5 L504.5 385 L504.5 392 L504.026 529.5 C504.012 533.64 500.64 537 496.5 537 C492.427 537 488.387 533.628 487.658 529.621 L485 515 C472 441 412 392 334 392 L294.5 392 C272.697 392 255 409.697 255 431.5 L255 686.68 C255 717.767 280.233 743 311.32 743 L395 743 C474 743 540 694 562 620 L566.726 605.147 C567.922 601.388 572.555 598 576.5 598 C580.596 598 583.602 600.98 583.069 605.041 C578.066 643.202 572.459 690.727 567.353 730.493 C565.763 742.875 554.784 748.529 542.301 748.565 L47.5 749.979 C43.3602 749.99 40 746.64 40 742.5 C40 738.36 43.3602 735 47.5 735 L47.5 735 Z " />
<glyph glyph-name="Eacute" unicode="&#xc9;" horiz-adv-x="667" d="M372.941 817.02 L509 932 C547 965 573 990 573 996 C573 1019 554 1038 531 1038 C525 1038 502 1011 470 971 L360.746 829.162 C358.148 825.789 358.489 820.511 361.5 817.5 C364.525 814.475 369.673 814.259 372.941 817.02 L372.941 817.02 Z M47.5 735 L57 735 C116 735 155 687 155 615 L155 135 C155 63 116 15 57 15 L47.5 15 C43.3602 15 40 11.6398 40 7.5 C40 3.36029 43.3602 0.0183202 47.4999 0.0408899 L590.25 3 C590.25 5.7 607.868 106.41 612.849 135.273 C613.415 138.552 611.245 142 607.917 142 L606.5 142 C602.656 142 597.642 138.605 596.215 135.036 L591 122 C568.575 59.6 501.471 16.2125 419.346 8.52097 C418.915 8.48057 403.017 8.607 402.585 8.63892 C270.21 18.42 255 85.5 255 183 L255 345.5 C255 367.303 272.697 385 294.5 385 L334 385 C412 385 472 336 485 262 L487.658 247.379 C488.387 243.372 492.427 240 496.5 240 C500.64 240 504.012 243.36 504.026 247.5 L504.5 385 L504.5 392 L504.026 529.5 C504.012 533.64 500.64 537 496.5 537 C492.427 537 488.387 533.628 487.658 529.621 L485 515 C472 441 412 392 334 392 L294.5 392 C272.697 392 255 409.697 255 431.5 L255 686.68 C255 717.767 280.233 743 311.32 743 L395 743 C474 743 540 694 562 620 L566.726 605.147 C567.922 601.388 572.555 598 576.5 598 C580.596 598 583.602 600.98 583.069 605.041 C578.066 643.202 572.459 690.727 567.353 730.493 C565.763 742.875 554.784 748.529 542.301 748.565 L47.5 749.979 C43.3602 749.99 40 746.64 40 742.5 C40 738.36 43.3602 735 47.5 735 L47.5 735 Z " />
<glyph glyph-name="Ecircumflex" unicode="&#xca;" horiz-adv-x="667" d="M389 1005 C383 1014 369 1035 359 1035 C349 1035 335 1014 329 1005 L211.236 822.562 C208.915 818.967 209.713 813.739 213 811 C216.297 808.252 221.497 808.479 224.542 811.503 L319.319 905.602 C341.221 927.348 376.779 927.348 398.681 905.602 L493.458 811.503 C496.503 808.479 501.703 808.252 505 811 C508.287 813.739 509.085 818.967 506.764 822.562 L389 1005 L389 1005 Z M47.5 735 L57 735 C116 735 155 687 155 615 L155 135 C155 63 116 15 57 15 L47.5 15 C43.3602 15 40 11.6398 40 7.5 C40 3.36029 43.3602 0.0183202 47.4999 0.0408899 L590.25 3 C590.25 5.7 607.868 106.41 612.849 135.273 C613.415 138.552 611.245 142 607.917 142 L606.5 142 C602.656 142 597.642 138.605 596.215 135.036 L591 122 C568.575 59.6 501.471 16.2125 419.346 8.52097 C418.915 8.48057 403.017 8.607 402.585 8.63892 C270.21 18.42 255 85.5 255 183 L255 345.5 C255 367.303 272.697 385 294.5 385 L334 385 C412 385 472 336 485 262 L487.658 247.379 C488.387 243.372 492.427 240 496.5 240 C500.64 240 504.012 243.36 504.026 247.5 L504.5 385 L504.5 392 L504.026 529.5 C504.012 533.64 500.64 537 496.5 537 C492.427 537 488.387 533.628 487.658 529.621 L485 515 C472 441 412 392 334 392 L294.5 392 C272.697 392 255 409.697 255 431.5 L255 686.68 C255 717.767 280.233 743 311.32 743 L395 743 C474 743 540 694 562 620 L566.726 605.147 C567.922 601.388 572.555 598 576.5 598 C580.596 598 583.602 600.98 583.069 605.041 C578.066 643.202 572.459 690.727 567.353 730.493 C565.763 742.875 554.784 748.529 542.301 748.565 L47.5 749.979 C43.3602 749.99 40 746.64 40 742.5 C40 738.36 43.3602 735 47.5 735 L47.5 735 Z " />
<glyph glyph-name="Edieresis" unicode="&#xcb;" horiz-adv-x="667" d="M434 865 C467 865 489 887 489 920 C489 953 467 975 434 975 C401 975 379 953 379 920 C379 887 401 865 434 865 L434 865 Z M284 865 C317 865 339 887 339 920 C339 953 317 975 284 975 C251 975 229 953 229 920 C229 887 251 865 284 865 L284 865 Z M47.5 735 L57 735 C116 735 155 687 155 615 L155 135 C155 63 116 15 57 15 L47.5 15 C43.3602 15 40 11.6398 40 7.5 C40 3.36029 43.3602 0.0183202 47.4999 0.0408899 L590.25 3 C590.25 5.7 607.868 106.41 612.849 135.273 C613.415 138.552 611.245 142 607.917 142 L606.5 142 C602.656 142 597.642 138.605 596.215 135.036 L591 122 C568.575 59.6 501.471 16.2125 419.346 8.52097 C418.915 8.48057 403.017 8.607 402.585 8.63892 C270.21 18.42 255 85.5 255 183 L255 345.5 C255 367.303 272.697 385 294.5 385 L334 385 C412 385 472 336 485 262 L487.658 247.379 C488.387 243.372 492.427 240 496.5 240 C500.64 240 504.012 243.36 504.026 247.5 L504.5 385 L504.5 392 L504.026 529.5 C504.012 533.64 500.64 537 496.5 537 C492.427 537 488.387 533.628 487.658 529.621 L485 515 C472 441 412 392 334 392 L294.5 392 C272.697 392 255 409.697 255 431.5 L255 686.68 C255 717.767 280.233 743 311.32 743 L395 743 C474 743 540 694 562 620 L566.726 605.147 C567.922 601.388 572.555 598 576.5 598 C580.596 598 583.602 600.98 583.069 605.041 C578.066 643.202 572.459 690.727 567.353 730.493 C565.763 742.875 554.784 748.529 542.301 748.565 L47.5 749.979 C43.3602 749.99 40 746.64 40 742.5 C40 738.36 43.3602 735 47.5 735 L47.5 735 Z " />
<glyph glyph-name="Igrave" unicode="&#xcc;" horiz-adv-x="405" d="M-4 996 C-4 988 22 964 60 932 L196.059 817.02 C199.327 814.259 204.475 814.475 207.5 817.5 C210.511 820.511 210.852 825.789 208.254 829.162 L99 971 C69 1011 46 1038 38 1038 C15 1038 -4 1019 -4 996 L-4 996 Z M338 15 L331 15 C282 15 250 55 250 115 L250 635 C250 695 282 735 331 735 L338 735 C341.864 735 345 738.136 345 742 L345 742.5 C345 746.64 341.64 750 337.5 750 L62.5 750 C58.3602 750 55 746.64 55 742.5 L55 742 C55 738.136 58.1362 735 62 735 L69 735 C118 735 150 695 150 635 L150 115 C150 55 118 15 69 15 L62 15 C58.1362 15 55 11.8638 55 8 L55 7.5 C55 3.36022 58.3602 0 62.5 0 L337.5 0 C341.64 0 345 3.36022 345 7.5 L345 8 C345 11.8638 341.864 15 338 15 L338 15 Z " />
<glyph glyph-name="Iacute" unicode="&#xcd;" horiz-adv-x="405" d="M213.941 817.02 L350 932 C388 965 414 990 414 996 C414 1019 395 1038 372 1038 C366 1038 343 1011 311 971 L201.746 829.162 C199.148 825.789 199.489 820.511 202.5 817.5 C205.525 814.475 210.673 814.259 213.941 817.02 L213.941 817.02 Z M338 15 L331 15 C282 15 250 55 250 115 L250 635 C250 695 282 735 331 735 L338 735 C341.864 735 345 738.136 345 742 L345 742.5 C345 746.64 341.64 750 337.5 750 L62.5 750 C58.3602 750 55 746.64 55 742.5 L55 742 C55 738.136 58.1362 735 62 735 L69 735 C118 735 150 695 150 635 L150 115 C150 55 118 15 69 15 L62 15 C58.1362 15 55 11.8638 55 8 L55 7.5 C55 3.36022 58.3602 0 62.5 0 L337.5 0 C341.64 0 345 3.36022 345 7.5 L345 8 C345 11.8638 341.864 15 338 15 L338 15 Z " />
<glyph glyph-name="Icircumflex" unicode="&#xce;" horiz-adv-x="405" d="M230 1005 C224 1014 210 1035 200 1035 C190 1035 176 1014 170 1005 L52.2357 822.562 C49.915 818.967 50.7126 813.739 54 811 C57.2971 808.252 62.4968 808.479 65.5424 811.503 L160.319 905.602 C182.221 927.348 217.779 927.348 239.681 905.602 L334.458 811.503 C337.503 808.479 342.703 808.252 346 811 C349.287 813.739 350.085 818.967 347.764 822.562 L230 1005 L230 1005 Z M338 15 L331 15 C282 15 250 55 250 115 L250 635 C250 695 282 735 331 735 L338 735 C341.864 735 345 738.136 345 742 L345 742.5 C345 746.64 341.64 750 337.5 750 L62.5 750 C58.3602 750 55 746.64 55 742.5 L55 742 C55 738.136 58.1362 735 62 735 L69 735 C118 735 150 695 150 635 L150 115 C150 55 118 15 69 15 L62 15 C58.1362 15 55 11.8638 55 8 L55 7.5 C55 3.36022 58.3602 0 62.5 0 L337.5 0 C341.64 0 345 3.36022 345 7.5 L345 8 C345 11.8638 341.864 15 338 15 L338 15 Z " />
<glyph glyph-name="Idieresis" unicode="&#xcf;" horiz-adv-x="405" d="M275 865 C308 865 330 887 330 920 C330 953 308 975 275 975 C242 975 220 953 220 920 C220 887 242 865 275 865 L275 865 Z M125 865 C158 865 180 887 180 920 C180 953 158 975 125 975 C92 975 70 953 70 920 C70 887 92 865 125 865 L125 865 Z M338 15 L331 15 C282 15 250 55 250 115 L250 635 C250 695 282 735 331 735 L338 735 C341.864 735 345 738.136 345 742 L345 742.5 C345 746.64 341.64 750 337.5 750 L62.5 750 C58.3602 750 55 746.64 55 742.5 L55 742 C55 738.136 58.1362 735 62 735 L69 735 C118 735 150 695 150 635 L150 115 C150 55 118 15 69 15 L62 15 C58.1362 15 55 11.8638 55 8 L55 7.5 C55 3.36022 58.3602 0 62.5 0 L337.5 0 C341.64 0 345 3.36022 345 7.5 L345 8 C345 11.8638 341.864 15 338 15 L338 15 Z " />
<glyph glyph-name="Ntilde" unicode="&#xd1;" horiz-adv-x="806" d="M256 870 C256 906 274 930 300 930 C352 930 421 865 473 865 C517 865 547 913 547 985 L542 985 C542 949 522 925 493 925 C441 925 372 990 320 990 C279 990 251 942 251 870 L256 870 L256 870 Z M-5 735 L2 735 C43.4 735 95.33 705.84 135.92 661.371 C141.425 655.34 148.978 634.497 148.963 626.331 L148 115 C148 55 115 15 67 15 L60 15 C56.1362 15 53 11.8638 53 8 L53 7.5 C53 3.36022 56.3602 0 60.5 0 L266.5 0 C270.64 0 274 3.36022 274 7.5 L274 8 C274 11.8638 270.864 15 267 15 L260 15 C214 15 182 50 178 103 L175.745 484.095 C175.504 524.873 229.149 536.273 253.306 503.42 C372.737 340.995 492.584 178.459 611.823 15.2981 C614.452 11.7013 628.545 0 633 0 C638.519 0 643.098 10.3808 643.15 15.9 C645.101 222.599 647.075 429.275 650 635 C651 695 683 735 732 735 L739 735 C742.864 735 746 738.136 746 742 L746 742.5 C746 746.64 742.64 750 738.5 750 L532.5 750 C528.36 750 525 746.64 525 742.5 L525 742 C525 738.136 528.136 735 532 735 L539 735 C588 735 620 695 620 635 L621.484 290.025 C621.649 251.687 568.879 243.714 546.349 274.733 C434.313 428.98 320.835 581.784 207.925 735.156 C200.421 745.348 181.173 750 168.516 750 L-4.5 750 C-8.63978 750 -12 746.64 -12 742.5 L-12 742 C-12 738.136 -8.86379 735 -5 735 L-5 735 Z " />
<glyph glyph-name="Ograve" unicode="&#xd2;" horiz-adv-x="851" d="M159 375 C159 601 262 752 417 752 C579 752 687 601 687 375 C687 149 576 -2 410 -2 C259 -2 159 149 159 375 L159 375 Z M50 375 C50 144 193 -10 408 -10 C641 -10 796 144 796 375 C796 606 645 760 418 760 C197 760 50 606 50 375 L50 375 Z M214 996 C214 988 240 964 278 932 L414.059 817.02 C417.327 814.259 422.475 814.475 425.5 817.5 C428.511 820.511 428.852 825.789 426.254 829.162 L317 971 C287 1011 264 1038 256 1038 C233 1038 214 1019 214 996 L214 996 Z " />
<glyph glyph-name="Oacute" unicode="&#xd3;" horiz-adv-x="851" d="M431.941 817.02 L568 932 C606 965 632 990 632 996 C632 1019 613 1038 590 1038 C584 1038 561 1011 529 971 L419.746 829.162 C417.148 825.789 417.489 820.511 420.5 817.5 C423.525 814.475 428.673 814.259 431.941 817.02 L431.941 817.02 Z M159 375 C159 601 262 752 417 752 C579 752 687 601 687 375 C687 149 576 -2 410 -2 C259 -2 159 149 159 375 L159 375 Z M50 375 C50 144 193 -10 408 -10 C641 -10 796 144 796 375 C796 606 645 760 418 760 C197 760 50 606 50 375 L50 375 Z " />
<glyph glyph-name="Ocircumflex" unicode="&#xd4;" horiz-adv-x="851" d="M159 375 C159 601 262 752 417 752 C579 752 687 601 687 375 C687 149 576 -2 410 -2 C259 -2 159 149 159 375 L159 375 Z M50 375 C50 144 193 -10 408 -10 C641 -10 796 144 796 375 C796 606 645 760 418 760 C197 760 50 606 50 375 L50 375 Z M448 1005 C442 1014 428 1035 418 1035 C408 1035 394 1014 388 1005 L270.236 822.562 C267.915 818.967 268.713 813.739 272 811 C275.297 808.252 280.497 808.479 283.542 811.503 L378.319 905.602 C400.221 927.348 435.779 927.348 457.681 905.602 L552.458 811.503 C555.503 808.479 560.703 808.252 564 811 C567.287 813.739 568.085 818.967 565.764 822.562 L448 1005 L448 1005 Z " />
<glyph glyph-name="Otilde" unicode="&#xd5;" horiz-adv-x="851" d="M275 870 C275 906 293 930 319 930 C371 930 440 865 492 865 C536 865 566 913 566 985 L561 985 C561 949 541 925 512 925 C460 925 391 990 339 990 C298 990 270 942 270 870 L275 870 L275 870 Z M159 375 C159 601 262 752 417 752 C579 752 687 601 687 375 C687 149 576 -2 410 -2 C259 -2 159 149 159 375 L159 375 Z M50 375 C50 144 193 -10 408 -10 C641 -10 796 144 796 375 C796 606 645 760 418 760 C197 760 50 606 50 375 L50 375 Z " />
<glyph glyph-name="Odieresis" unicode="&#xd6;" horiz-adv-x="851" d="M493 865 C526 865 548 887 548 920 C548 953 526 975 493 975 C460 975 438 953 438 920 C438 887 460 865 493 865 L493 865 Z M343 865 C376 865 398 887 398 920 C398 953 376 975 343 975 C310 975 288 953 288 920 C288 887 310 865 343 865 L343 865 Z M159 375 C159 601 262 752 417 752 C579 752 687 601 687 375 C687 149 576 -2 410 -2 C259 -2 159 149 159 375 L159 375 Z M50 375 C50 144 193 -10 408 -10 C641 -10 796 144 796 375 C796 606 645 760 418 760 C197 760 50 606 50 375 L50 375 Z " />
<glyph glyph-name="Oslash" unicode="&#xd8;" horiz-adv-x="851" d="M55.0655 -14.9307 C56.463 -13.4542 80.1805 11.5903 123.658 56.6188 C138.22 71.7001 173.078 71.0923 189.804 58.4539 C247.971 14.5025 322.2 -10 408 -10 C641 -10 796 144 796 375 C796 467.4 771.498 547.549 727.546 610.393 C715.232 628 713.82 665.81 728.573 681.431 L794.145 750.859 C796.824 753.696 796.759 758.241 794 761 C791.237 763.763 786.478 763.406 783.757 760.6 C756.71 732.704 730.263 704.868 704.417 678.023 C695.878 669.154 680.996 666.08 671.698 674.149 C606.949 730.342 519.675 762 417 762 C196 762 49 608 49 377 C49 282.95 72.8219 201.832 115.412 138.699 C127.237 121.171 128.304 83.7907 113.577 68.6188 C68.5025 22.1831 44 -3 44 -3 C44 -3 46.2855 -5.49329 49.5 -9 C52.5273 -12.3025 51.9859 -18.1845 55.0655 -14.9307 L55.0655 -14.9307 Z M609.507 580.764 C450.637 417.605 318.335 281.741 221.979 181.88 C209.769 169.225 191.031 173.177 185.463 189.857 C167.529 243.587 158 307.05 158 378 C158 604 261 755 416 755 C500.875 755 570.438 713.273 617.988 641.879 C631.609 621.428 626.648 598.369 609.507 580.764 L609.507 580.764 Z M657.056 563.23 C675.791 509.763 686 447.125 686 377 C686 151 575 0 409 0 C331.125 0 267.031 40.5781 223.418 111.016 C211.039 131.008 213.596 150.811 229.971 167.687 C326.266 266.926 458.183 403.585 617.01 567.614 C629.42 580.43 651.157 580.066 657.056 563.23 L657.056 563.23 Z " />
<glyph glyph-name="Ugrave" unicode="&#xd9;" horiz-adv-x="780" d="M184 996 C184 988 210 964 248 932 L384.323 816.798 C387.454 814.151 392.242 814.466 395 817.5 C397.715 820.486 397.938 825.7 395.489 828.908 L287 971 C257 1011 234 1038 226 1038 C203 1038 184 1019 184 996 L184 996 Z M743 52 L736 50 C687 37 655 68 655 128 L655 693.68 C655 724.767 629.767 750 598.68 750 L467.5 750 C463.36 750 460 746.64 460 742.5 L460 742 C460 738.136 463.136 735 467 735 L474 735 C523 735 555 695 555 635 L555 202.554 C555 198.784 550.76 181.369 548.96 178.056 C508.587 103.735 428.55 55 344 55 C270 55 220 121 220 220 L220 693.68 C220 724.767 194.767 750 163.68 750 L32.5 750 C28.3602 750 25 746.64 25 742.5 L25 742 C25 738.136 28.1362 735 32 735 L39 735 C88 735 120 695 120 635 L120 220 C120 82 194 -10 304 -10 C392.275 -10 476.466 32.1987 527.375 99.1893 C534.136 108.086 555 104.944 555 93.7701 L555 25 C555 11.2007 566.201 0 580 0 L598.067 0 C598.953 0 610.786 1.42892 611.647 1.6389 C625.872 5.1095 641.182 8.68182 655 13 C684.6 21.325 715.911 29.65 742.602 37.1835 C746.377 38.249 749.239 42.5862 749.5 46.5 L749.516 46.736 C749.767 50.5094 746.636 53.0389 743 52 L743 52 Z " />
<glyph glyph-name="Uacute" unicode="&#xda;" horiz-adv-x="780" d="M400.677 816.798 L537 932 C575 965 601 990 601 996 C601 1019 582 1038 559 1038 C553 1038 529 1011 498 971 L389.511 828.908 C387.062 825.7 387.285 820.486 390 817.5 C392.758 814.466 397.546 814.151 400.677 816.798 L400.677 816.798 Z M743 52 L736 50 C687 37 655 68 655 128 L655 693.68 C655 724.767 629.767 750 598.68 750 L467.5 750 C463.36 750 460 746.64 460 742.5 L460 742 C460 738.136 463.136 735 467 735 L474 735 C523 735 555 695 555 635 L555 202.554 C555 198.784 550.76 181.369 548.96 178.056 C508.587 103.735 428.55 55 344 55 C270 55 220 121 220 220 L220 693.68 C220 724.767 194.767 750 163.68 750 L32.5 750 C28.3602 750 25 746.64 25 742.5 L25 742 C25 738.136 28.1362 735 32 735 L39 735 C88 735 120 695 120 635 L120 220 C120 82 194 -10 304 -10 C392.275 -10 476.466 32.1987 527.375 99.1893 C534.136 108.086 555 104.944 555 93.7701 L555 25 C555 11.2007 566.201 0 580 0 L598.067 0 C598.953 0 610.786 1.42892 611.647 1.6389 C625.872 5.1095 641.182 8.68182 655 13 C684.6 21.325 715.911 29.65 742.602 37.1835 C746.377 38.249 749.239 42.5862 749.5 46.5 L749.516 46.736 C749.767 50.5094 746.636 53.0389 743 52 L743 52 Z " />
<glyph glyph-name="Ucircumflex" unicode="&#xdb;" horiz-adv-x="780" d="M418 1005 C412 1014 398 1035 388 1035 C378 1035 364 1014 358 1005 L240.031 822.245 C237.836 818.845 238.505 813.723 241.5 811 C244.532 808.244 249.367 808.35 252.275 811.237 L347.46 905.742 C369.284 927.41 404.779 927.473 426.68 905.883 L522.707 811.218 C525.624 808.342 530.469 808.244 533.5 811 C536.493 813.721 537.173 818.854 534.992 822.26 L418 1005 L418 1005 Z M743 52 L736 50 C687 37 655 68 655 128 L655 693.68 C655 724.767 629.767 750 598.68 750 L467.5 750 C463.36 750 460 746.64 460 742.5 L460 742 C460 738.136 463.136 735 467 735 L474 735 C523 735 555 695 555 635 L555 202.554 C555 198.784 550.76 181.369 548.96 178.056 C508.587 103.735 428.55 55 344 55 C270 55 220 121 220 220 L220 693.68 C220 724.767 194.767 750 163.68 750 L32.5 750 C28.3602 750 25 746.64 25 742.5 L25 742 C25 738.136 28.1362 735 32 735 L39 735 C88 735 120 695 120 635 L120 220 C120 82 194 -10 304 -10 C392.275 -10 476.466 32.1987 527.375 99.1893 C534.136 108.086 555 104.944 555 93.7701 L555 25 C555 11.2007 566.201 0 580 0 L598.067 0 C598.953 0 610.786 1.42892 611.647 1.6389 C625.872 5.1095 641.182 8.68182 655 13 C684.6 21.325 715.911 29.65 742.602 37.1835 C746.377 38.249 749.239 42.5862 749.5 46.5 L749.516 46.736 C749.767 50.5094 746.636 53.0389 743 52 L743 52 Z " />
<glyph glyph-name="Udieresis" unicode="&#xdc;" horiz-adv-x="780" d="M463 865 C496 865 518 887 518 920 C518 953 496 975 463 975 C429 975 407 953 407 920 C407 887 429 865 463 865 L463 865 Z M312 865 C346 865 368 887 368 920 C368 953 346 975 312 975 C279 975 257 953 257 920 C257 887 279 865 312 865 L312 865 Z M743 52 L736 50 C687 37 655 68 655 128 L655 693.68 C655 724.767 629.767 750 598.68 750 L467.5 750 C463.36 750 460 746.64 460 742.5 L460 742 C460 738.136 463.136 735 467 735 L474 735 C523 735 555 695 555 635 L555 202.554 C555 198.784 550.76 181.369 548.96 178.056 C508.587 103.735 428.55 55 344 55 C270 55 220 121 220 220 L220 693.68 C220 724.767 194.767 750 163.68 750 L32.5 750 C28.3602 750 25 746.64 25 742.5 L25 742 C25 738.136 28.1362 735 32 735 L39 735 C88 735 120 695 120 635 L120 220 C120 82 194 -10 304 -10 C392.275 -10 476.466 32.1987 527.375 99.1893 C534.136 108.086 555 104.944 555 93.7701 L555 25 C555 11.2007 566.201 0 580 0 L598.067 0 C598.953 0 610.786 1.42892 611.647 1.6389 C625.872 5.1095 641.182 8.68182 655 13 C684.6 21.325 715.911 29.65 742.602 37.1835 C746.377 38.249 749.239 42.5862 749.5 46.5 L749.516 46.736 C749.767 50.5094 746.636 53.0389 743 52 L743 52 Z " />
<glyph glyph-name="Yacute" unicode="&#xdd;" horiz-adv-x="758" d="M399.677 816.798 L536 932 C574 965 600 990 600 996 C600 1019 581 1038 558 1038 C552 1038 528 1011 497 971 L388.511 828.908 C386.062 825.7 386.285 820.486 389 817.5 C391.758 814.466 396.546 814.151 399.677 816.798 L399.677 816.798 Z M301.5 750 L11.5 750 C7.36022 750 4 746.64 4 742.5 L4 741 C4 737.688 6.68818 735 10 735 L16 735 C57 735 110 693 148 630 L327.752 335.512 C330.124 331.626 336 310.722 336 306.169 L336 135 C336 63 297 15 238 15 L228.5 15 C224.36 15 221 11.6398 221 7.5 C221 3.36022 224.36 0 228.5 0 L544.5 0 C548.64 0 552 3.36022 552 7.5 C552 11.6398 548.64 15 544.5 15 L535 15 C476 15 437 63 437 135 L437 320.92 C437 324.577 441.905 344.197 443.626 347.424 L597 635 C631 695 687 735 739 735 L747.5 735 C751.64 735 755 738.36 755 742.5 C755 746.64 751.64 750 747.5 750 L514.5 750 C510.36 750 507 746.64 507 742.5 C507 738.36 510.36 735 514.5 735 L529 735 C592 735 612 693 580 630 L480.519 435.807 C458.792 393.395 406.262 391.768 381.952 432.755 L262 635 C229 695 241 735 293 735 L301.5 735 C305.64 735 309 738.36 309 742.5 C309 746.64 305.64 750 301.5 750 L301.5 750 Z " />
<glyph glyph-name="agrave" unicode="&#xe0;" horiz-adv-x="512" d="M518 105 C515.996 106.002 513.611 104.617 513.109 102.434 C506.582 74.05 483.45 56 454 56 C422 56 400 74 400 102 L400 355 C400 462 344 510 259 510 C143 510 65 414 65 360 C65 324 85 300 114 300 C141 300 159 325 159 343 C159 361 139 384 139 402 C139 438 183 502 250 502 C289 502 315 466 315 386 L315 306.611 C315 284.897 289.406 257.138 268.703 250.591 C89.4925 193.918 45 166.7 45 89 C45 30 90 -9 158 -9 C194.9 -9 240.71 12.06 296.888 65.115 C304.153 71.9763 319.302 67.1815 323.054 57.9199 C338.49 19.8219 373.8 -4 420 -4 C468.75 -4 509.42 36.4016 521.618 98.6675 C522.088 101.066 520.186 103.907 518 105 L518 105 Z M56 747 C56 739 82 715 120 683 L256.059 568.02 C259.327 565.259 264.475 565.475 267.5 568.5 C270.511 571.511 270.852 576.789 268.254 580.162 L159 722 C129 762 106 789 98 789 C75 789 56 770 56 747 L56 747 Z M316 183.67 L316 103 L316 96 C316 93.0361 312.341 85.4763 310.158 83.4715 C273.207 49.5375 237.25 36 204 36 C160 36 131 61 131 98 C131 173.9 155.503 203.177 247.744 236.929 C286.97 251.283 316 225.439 316 183.67 L316 183.67 Z " />
<glyph glyph-name="aacute" unicode="&#xe1;" horiz-adv-x="512" d="M272.941 567.02 L409 682 C447 715 473 740 473 746 C473 769 454 788 431 788 C425 788 402 761 370 721 L260.746 579.162 C258.148 575.789 258.489 570.511 261.5 567.5 C264.525 564.475 269.673 564.259 272.941 567.02 L272.941 567.02 Z M518 105 C515.996 106.002 513.611 104.617 513.109 102.434 C506.582 74.05 483.45 56 454 56 C422 56 400 74 400 102 L400 355 C400 462 344 510 259 510 C143 510 65 414 65 360 C65 324 85 300 114 300 C141 300 159 325 159 343 C159 361 139 384 139 402 C139 438 183 502 250 502 C289 502 315 466 315 386 L315 306.611 C315 284.897 289.406 257.138 268.703 250.591 C89.4925 193.918 45 166.7 45 89 C45 30 90 -9 158 -9 C194.9 -9 240.71 12.06 296.888 65.115 C304.153 71.9763 319.302 67.1815 323.054 57.9199 C338.49 19.8219 373.8 -4 420 -4 C468.75 -4 509.42 36.4016 521.618 98.6675 C522.088 101.066 520.186 103.907 518 105 L518 105 Z M316 183.67 L316 103 L316 96 C316 93.0361 312.341 85.4763 310.158 83.4715 C273.207 49.5375 237.25 36 204 36 C160 36 131 61 131 98 C131 173.9 155.503 203.177 247.744 236.929 C286.97 251.283 316 225.439 316 183.67 L316 183.67 Z " />
<glyph glyph-name="acircumflex" unicode="&#xe2;" horiz-adv-x="512" d="M518 105 C515.996 106.002 513.611 104.617 513.109 102.434 C506.582 74.05 483.45 56 454 56 C422 56 400 74 400 102 L400 355 C400 462 344 510 259 510 C143 510 65 414 65 360 C65 324 85 300 114 300 C141 300 159 325 159 343 C159 361 139 384 139 402 C139 438 183 502 250 502 C289 502 315 466 315 386 L315 306.611 C315 284.897 289.406 257.138 268.703 250.591 C89.4925 193.918 45 166.7 45 89 C45 30 90 -9 158 -9 C194.9 -9 240.71 12.06 296.888 65.115 C304.153 71.9763 319.302 67.1815 323.054 57.9199 C338.49 19.8219 373.8 -4 420 -4 C468.75 -4 509.42 36.4016 521.618 98.6675 C522.088 101.066 520.186 103.907 518 105 L518 105 Z M290 756 C284 765 270 786 260 786 C250 786 236 765 230 756 L112.236 573.562 C109.915 569.967 110.713 564.739 114 562 C117.297 559.252 122.497 559.479 125.542 562.503 L220.319 656.602 C242.221 678.348 277.779 678.348 299.681 656.602 L394.458 562.503 C397.503 559.479 402.703 559.252 406 562 C409.287 564.739 410.085 569.967 407.764 573.562 L290 756 L290 756 Z M316 183.67 L316 103 L316 96 C316 93.0361 312.341 85.4763 310.158 83.4715 C273.207 49.5375 237.25 36 204 36 C160 36 131 61 131 98 C131 173.9 155.503 203.177 247.744 236.929 C286.97 251.283 316 225.439 316 183.67 L316 183.67 Z " />
<glyph glyph-name="atilde" unicode="&#xe3;" horiz-adv-x="512" d="M116 620 C116 656 134 680 160 680 C212 680 281 615 333 615 C377 615 407 663 407 735 L402 735 C402 699 382 675 353 675 C301 675 232 740 180 740 C139 740 111 692 111 620 L116 620 L116 620 Z M518 105 C515.996 106.002 513.611 104.617 513.109 102.434 C506.582 74.05 483.45 56 454 56 C422 56 400 74 400 102 L400 355 C400 462 344 510 259 510 C143 510 65 414 65 360 C65 324 85 300 114 300 C141 300 159 325 159 343 C159 361 139 384 139 402 C139 438 183 502 250 502 C289 502 315 466 315 386 L315 306.611 C315 284.897 289.406 257.138 268.703 250.591 C89.4925 193.918 45 166.7 45 89 C45 30 90 -9 158 -9 C194.9 -9 240.71 12.06 296.888 65.115 C304.153 71.9763 319.302 67.1815 323.054 57.9199 C338.49 19.8219 373.8 -4 420 -4 C468.75 -4 509.42 36.4016 521.618 98.6675 C522.088 101.066 520.186 103.907 518 105 L518 105 Z M316 183.67 L316 103 L316 96 C316 93.0361 312.341 85.4763 310.158 83.4715 C273.207 49.5375 237.25 36 204 36 C160 36 131 61 131 98 C131 173.9 155.503 203.177 247.744 236.929 C286.97 251.283 316 225.439 316 183.67 L316 183.67 Z " />
<glyph glyph-name="adieresis" unicode="&#xe4;" horiz-adv-x="512" d="M334 615 C367 615 389 637 389 670 C389 703 367 725 334 725 C301 725 279 703 279 670 C279 637 301 615 334 615 L334 615 Z M184 615 C217 615 239 637 239 670 C239 703 217 725 184 725 C151 725 129 703 129 670 C129 637 151 615 184 615 L184 615 Z M518 105 C515.996 106.002 513.611 104.617 513.109 102.434 C506.582 74.05 483.45 56 454 56 C422 56 400 74 400 102 L400 355 C400 462 344 510 259 510 C143 510 65 414 65 360 C65 324 85 300 114 300 C141 300 159 325 159 343 C159 361 139 384 139 402 C139 438 183 502 250 502 C289 502 315 466 315 386 L315 306.611 C315 284.897 289.406 257.138 268.703 250.591 C89.4925 193.918 45 166.7 45 89 C45 30 90 -9 158 -9 C194.9 -9 240.71 12.06 296.888 65.115 C304.153 71.9763 319.302 67.1815 323.054 57.9199 C338.49 19.8219 373.8 -4 420 -4 C468.75 -4 509.42 36.4016 521.618 98.6675 C522.088 101.066 520.186 103.907 518 105 L518 105 Z M316 183.67 L316 103 L316 96 C316 93.0361 312.341 85.4763 310.158 83.4715 C273.207 49.5375 237.25 36 204 36 C160 36 131 61 131 98 C131 173.9 155.503 203.177 247.744 236.929 C286.97 251.283 316 225.439 316 183.67 L316 183.67 Z " />
<glyph glyph-name="aring" unicode="&#xe5;" horiz-adv-x="512" d="M187 655 C187 700 216 730 259 730 C302 730 331 700 331 655 C331 615 298 580 259 580 C220 580 187 615 187 655 L187 655 Z M161 655 C161 604 206 560 259 560 C312 560 357 604 357 655 C357 712 318 750 259 750 C200 750 161 712 161 655 L161 655 Z M518 105 C515.996 106.002 513.611 104.617 513.109 102.434 C506.582 74.05 483.45 56 454 56 C422 56 400 74 400 102 L400 355 C400 462 344 510 259 510 C143 510 65 414 65 360 C65 324 85 300 114 300 C141 300 159 325 159 343 C159 361 139 384 139 402 C139 438 183 502 250 502 C289 502 315 466 315 386 L315 306.611 C315 284.897 289.406 257.138 268.703 250.591 C89.4925 193.918 45 166.7 45 89 C45 30 90 -9 158 -9 C194.9 -9 240.71 12.06 296.888 65.115 C304.153 71.9763 319.302 67.1815 323.054 57.9199 C338.49 19.8219 373.8 -4 420 -4 C468.75 -4 509.42 36.4016 521.618 98.6675 C522.088 101.066 520.186 103.907 518 105 L518 105 Z M316 183.67 L316 103 L316 96 C316 93.0361 312.341 85.4763 310.158 83.4715 C273.207 49.5375 237.25 36 204 36 C160 36 131 61 131 98 C131 173.9 155.503 203.177 247.744 236.929 C286.97 251.283 316 225.439 316 183.67 L316 183.67 Z " />
<glyph glyph-name="egrave" unicode="&#xe8;" horiz-adv-x="540" d="M97 746 C97 738 123 714 161 682 L297.059 567.02 C300.327 564.259 305.475 564.475 308.5 567.5 C311.511 570.511 311.852 575.789 309.254 579.162 L200 721 C170 761 147 788 139 788 C116 788 97 769 97 746 L97 746 Z M151.102 340 L448.016 340 C487.835 340 508.917 360.767 493.287 397.391 C459.173 477.33 389.275 510 301 510 C147 510 45 432 45 231 C45 86 138 -10 278 -10 C360.45 -10 433.869 32.2662 473.077 97.7609 C473.083 97.7712 471.902 99.084 471.895 99.0742 C435.242 47.3297 365.375 15 287 15 C196 15 135 115 135 266 C135 288.781 136.424 310.139 138.671 329.472 C139.388 335.64 144.892 340 151.102 340 L151.102 340 Z M357.026 347.583 L197.717 346.416 C162.199 346.155 142.235 365.37 154.115 398.843 C180.324 472.691 232.175 504 299 504 C341.075 504 377.365 474.053 400.569 400.681 C410.834 368.225 391.066 347.832 357.026 347.583 L357.026 347.583 Z " />
<glyph glyph-name="eacute" unicode="&#xe9;" horiz-adv-x="540" d="M314.941 567.02 L451 682 C489 715 515 740 515 746 C515 769 496 788 473 788 C467 788 444 761 412 721 L302.746 579.162 C300.148 575.789 300.489 570.511 303.5 567.5 C306.525 564.475 311.673 564.259 314.941 567.02 L314.941 567.02 Z M151.102 340 L448.016 340 C487.835 340 508.917 360.767 493.287 397.391 C459.173 477.33 389.275 510 301 510 C147 510 45 432 45 231 C45 86 138 -10 278 -10 C360.45 -10 433.869 32.2662 473.077 97.7609 C473.083 97.7712 471.902 99.084 471.895 99.0742 C435.242 47.3297 365.375 15 287 15 C196 15 135 115 135 266 C135 288.781 136.424 310.139 138.671 329.472 C139.388 335.64 144.892 340 151.102 340 L151.102 340 Z M357.026 347.583 L197.717 346.416 C162.199 346.155 142.235 365.37 154.115 398.843 C180.324 472.691 232.175 504 299 504 C341.075 504 377.365 474.053 400.569 400.681 C410.834 368.225 391.066 347.832 357.026 347.583 L357.026 347.583 Z " />
<glyph glyph-name="ecircumflex" unicode="&#xea;" horiz-adv-x="540" d="M331 755 C325 764 311 785 301 785 C291 785 277 764 271 755 L153.236 572.562 C150.915 568.967 151.713 563.739 155 561 C158.297 558.252 163.497 558.479 166.542 561.503 L261.319 655.602 C283.221 677.348 318.779 677.348 340.681 655.602 L435.458 561.503 C438.503 558.479 443.703 558.252 447 561 C450.287 563.739 451.085 568.967 448.764 572.562 L331 755 L331 755 Z M151.102 340 L448.016 340 C487.835 340 508.917 360.767 493.287 397.391 C459.173 477.33 389.275 510 301 510 C147 510 45 432 45 231 C45 86 138 -10 278 -10 C360.45 -10 433.869 32.2662 473.077 97.7609 C473.083 97.7712 471.902 99.084 471.895 99.0742 C435.242 47.3297 365.375 15 287 15 C196 15 135 115 135 266 C135 288.781 136.424 310.139 138.671 329.472 C139.388 335.64 144.892 340 151.102 340 L151.102 340 Z M357.026 347.583 L197.717 346.416 C162.199 346.155 142.235 365.37 154.115 398.843 C180.324 472.691 232.175 504 299 504 C341.075 504 377.365 474.053 400.569 400.681 C410.834 368.225 391.066 347.832 357.026 347.583 L357.026 347.583 Z " />
<glyph glyph-name="edieresis" unicode="&#xeb;" horiz-adv-x="540" d="M376 615 C409 615 431 637 431 670 C431 703 409 725 376 725 C343 725 321 703 321 670 C321 637 343 615 376 615 L376 615 Z M226 615 C259 615 281 637 281 670 C281 703 259 725 226 725 C193 725 171 703 171 670 C171 637 193 615 226 615 L226 615 Z M151.102 340 L448.016 340 C487.835 340 508.917 360.767 493.287 397.391 C459.173 477.33 389.275 510 301 510 C147 510 45 432 45 231 C45 86 138 -10 278 -10 C360.45 -10 433.869 32.2662 473.077 97.7609 C473.083 97.7712 471.902 99.084 471.895 99.0742 C435.242 47.3297 365.375 15 287 15 C196 15 135 115 135 266 C135 288.781 136.424 310.139 138.671 329.472 C139.388 335.64 144.892 340 151.102 340 L151.102 340 Z M357.026 347.583 L197.717 346.416 C162.199 346.155 142.235 365.37 154.115 398.843 C180.324 472.691 232.175 504 299 504 C341.075 504 377.365 474.053 400.569 400.681 C410.834 368.225 391.066 347.832 357.026 347.583 L357.026 347.583 Z " />
<glyph glyph-name="igrave" unicode="&#xec;" horiz-adv-x="340" d="M-26 746 C-26 738 0 714 38 682 L174.323 566.798 C177.454 564.151 182.242 564.466 185 567.5 C187.715 570.486 187.938 575.7 185.489 578.908 L77 721 C47 761 24 788 16 788 C-7 788 -26 769 -26 746 L-26 746 Z M65.5 455.5 L71 457 C109 467 135 448 135 409 L135 80 C135 41 109 15 71 15 L65.5 15 C62.4642 15 60 12.5358 60 9.5 L60 7.5 C60 3.36022 63.3602 0 67.5 0 L287.5 0 C291.64 0 295 3.36022 295 7.5 L295 9.5 C295 12.5358 292.536 15 289.5 15 L284 15 C246 15 220 41 220 80 L220 478.999 C220 490.59 210.591 500.112 199 500.25 L184.8 500.419 C183.803 500.431 172.659 498.912 171.7 498.639 C160.263 495.382 147.632 492.368 135 489 C112.059 482.824 88.3391 476.647 67.9625 471.158 C64.0905 470.114 60 465.51 60 461.5 L60 459.701 C60 456.665 62.5711 454.701 65.5 455.5 L65.5 455.5 Z " />
<glyph glyph-name="iacute" unicode="&#xed;" horiz-adv-x="340" d="M-26 746 C-26 738 0 714 38 682 L174.323 566.798 C177.454 564.151 182.242 564.466 185 567.5 C187.715 570.486 187.938 575.7 185.489 578.908 L77 721 C47 761 24 788 16 788 C-7 788 -26 769 -26 746 L-26 746 Z M65.5 455.5 L71 457 C109 467 135 448 135 409 L135 80 C135 41 109 15 71 15 L65.5 15 C62.4642 15 60 12.5358 60 9.5 L60 7.5 C60 3.36022 63.3602 0 67.5 0 L287.5 0 C291.64 0 295 3.36022 295 7.5 L295 9.5 C295 12.5358 292.536 15 289.5 15 L284 15 C246 15 220 41 220 80 L220 478.999 C220 490.59 210.591 500.112 199 500.25 L184.8 500.419 C183.803 500.431 172.659 498.912 171.7 498.639 C160.263 495.382 147.632 492.368 135 489 C112.059 482.824 88.3391 476.647 67.9625 471.158 C64.0905 470.114 60 465.51 60 461.5 L60 459.701 C60 456.665 62.5711 454.701 65.5 455.5 L65.5 455.5 Z " />
<glyph glyph-name="icircumflex" unicode="&#xee;" horiz-adv-x="340" d="M208 755 C202 764 188 785 178 785 C168 785 154 764 148 755 L30.0312 572.245 C27.8362 568.845 28.5052 563.723 31.5 561 C34.5319 558.244 39.3671 558.35 42.2748 561.237 L137.46 655.742 C159.284 677.41 194.779 677.473 216.68 655.883 L312.707 561.218 C315.624 558.342 320.469 558.244 323.5 561 C326.493 563.721 327.173 568.854 324.992 572.26 L208 755 L208 755 Z M65.5 455.5 L71 457 C109 467 135 448 135 409 L135 80 C135 41 109 15 71 15 L65.5 15 C62.4642 15 60 12.5358 60 9.5 L60 7.5 C60 3.36022 63.3602 0 67.5 0 L287.5 0 C291.64 0 295 3.36022 295 7.5 L295 9.5 C295 12.5358 292.536 15 289.5 15 L284 15 C246 15 220 41 220 80 L220 478.999 C220 490.59 210.591 500.112 199 500.25 L184.8 500.419 C183.803 500.431 172.659 498.912 171.7 498.639 C160.263 495.382 147.632 492.368 135 489 C112.059 482.824 88.3391 476.647 67.9625 471.158 C64.0905 470.114 60 465.51 60 461.5 L60 459.701 C60 456.665 62.5711 454.701 65.5 455.5 L65.5 455.5 Z " />
<glyph glyph-name="idieresis" unicode="&#xef;" horiz-adv-x="340" d="M253 615 C286 615 308 637 308 670 C308 703 286 725 253 725 C219 725 197 703 197 670 C197 637 219 615 253 615 L253 615 Z M102 615 C136 615 158 637 158 670 C158 703 136 725 102 725 C69 725 47 703 47 670 C47 637 69 615 102 615 L102 615 Z M65.5 455.5 L71 457 C109 467 135 448 135 409 L135 80 C135 41 109 15 71 15 L65.5 15 C62.4642 15 60 12.5358 60 9.5 L60 7.5 C60 3.36022 63.3602 0 67.5 0 L287.5 0 C291.64 0 295 3.36022 295 7.5 L295 9.5 C295 12.5358 292.536 15 289.5 15 L284 15 C246 15 220 41 220 80 L220 478.999 C220 490.59 210.591 500.112 199 500.25 L184.8 500.419 C183.803 500.431 172.659 498.912 171.7 498.639 C160.263 495.382 147.632 492.368 135 489 C112.059 482.824 88.3391 476.647 67.9625 471.158 C64.0905 470.114 60 465.51 60 461.5 L60 459.701 C60 456.665 62.5711 454.701 65.5 455.5 L65.5 455.5 Z " />
<glyph glyph-name="ntilde" unicode="&#xf1;" horiz-adv-x="589" d="M146 620 C146 656 164 680 190 680 C242 680 311 615 363 615 C407 615 437 663 437 735 L432 735 C432 699 412 675 383 675 C331 675 262 740 210 740 C169 740 141 692 141 620 L146 620 L146 620 Z M24 459 L30 459 C68 460 94 424 94 367 L94 80 C94 41 68 15 30 15 L24.5 15 C21.4642 15 19 12.5358 19 9.5 L19 7.5 C19 3.36022 22.3602 0 26.5 0 L246.5 0 C250.64 0 254 3.36022 254 7.5 L254 9.5 C254 12.5358 251.536 15 248.5 15 L243 15 C205 15 179 41 179 80 L179 354.873 C179 360.152 183.858 378.114 186.801 382.496 C220.372 432.486 271.825 465 319 465 C372 465 399 411 399 330 L399 80 C399 41 373 15 335 15 L329.5 15 C326.464 15 324 12.5358 324 9.5 L324 7.5 C324 3.36022 327.36 0 331.5 0 L551.5 0 C555.64 0 559 3.36022 559 7.5 L559 9.5 C559 12.5358 556.536 15 553.5 15 L548 15 C510 15 484 41 484 80 L484 330 C484 438 437 510 347 510 C299.975 510 245.463 475.969 203.679 421.944 C196.716 412.941 179 416.845 179 428.226 L179 478.999 C179 490.59 169.591 500.112 158 500.25 L143.8 500.419 C142.803 500.431 131.659 498.912 130.7 498.639 C119.263 495.382 106.632 492.368 94 489 C69.5294 482.412 44.173 475.824 22.933 470.069 C20.3574 469.371 19 466.668 19 464 C19 461.24 21.2402 459 24 459 L24 459 Z " />
<glyph glyph-name="ograve" unicode="&#xf2;" horiz-adv-x="614" d="M139 250 C139 401 206 502 307 502 C407 502 474 401 474 250 C474 99 407 -2 307 -2 C206 -2 139 99 139 250 L139 250 Z M45 250 C45 94 150 -10 307 -10 C464 -10 569 94 569 250 C569 406 464 510 307 510 C150 510 45 406 45 250 L45 250 Z M103 746 C103 738 129 714 167 682 L303.059 567.02 C306.327 564.259 311.475 564.475 314.5 567.5 C317.511 570.511 317.852 575.789 315.254 579.162 L206 721 C176 761 153 788 145 788 C122 788 103 769 103 746 L103 746 Z " />
<glyph glyph-name="oacute" unicode="&#xf3;" horiz-adv-x="614" d="M320.941 567.02 L457 682 C495 715 521 740 521 746 C521 769 502 788 479 788 C473 788 450 761 418 721 L308.746 579.162 C306.148 575.789 306.489 570.511 309.5 567.5 C312.525 564.475 317.673 564.259 320.941 567.02 L320.941 567.02 Z M139 250 C139 401 206 502 307 502 C407 502 474 401 474 250 C474 99 407 -2 307 -2 C206 -2 139 99 139 250 L139 250 Z M45 250 C45 94 150 -10 307 -10 C464 -10 569 94 569 250 C569 406 464 510 307 510 C150 510 45 406 45 250 L45 250 Z " />
<glyph glyph-name="ocircumflex" unicode="&#xf4;" horiz-adv-x="614" d="M139 250 C139 401 206 502 307 502 C407 502 474 401 474 250 C474 99 407 -2 307 -2 C206 -2 139 99 139 250 L139 250 Z M45 250 C45 94 150 -10 307 -10 C464 -10 569 94 569 250 C569 406 464 510 307 510 C150 510 45 406 45 250 L45 250 Z M337 755 C331 764 317 785 307 785 C297 785 283 764 277 755 L159.236 572.562 C156.915 568.967 157.713 563.739 161 561 C164.297 558.252 169.497 558.479 172.542 561.503 L267.319 655.602 C289.221 677.348 324.779 677.348 346.681 655.602 L441.458 561.503 C444.503 558.479 449.703 558.252 453 561 C456.287 563.739 457.085 568.967 454.764 572.562 L337 755 L337 755 Z " />
<glyph glyph-name="otilde" unicode="&#xf5;" horiz-adv-x="614" d="M164 620 C164 656 182 680 208 680 C260 680 329 615 381 615 C425 615 455 663 455 735 L450 735 C450 699 430 675 401 675 C349 675 280 740 228 740 C187 740 159 692 159 620 L164 620 L164 620 Z M139 250 C139 401 206 502 307 502 C407 502 474 401 474 250 C474 99 407 -2 307 -2 C206 -2 139 99 139 250 L139 250 Z M45 250 C45 94 150 -10 307 -10 C464 -10 569 94 569 250 C569 406 464 510 307 510 C150 510 45 406 45 250 L45 250 Z " />
<glyph glyph-name="odieresis" unicode="&#xf6;" horiz-adv-x="614" d="M382 615 C415 615 437 637 437 670 C437 703 415 725 382 725 C349 725 327 703 327 670 C327 637 349 615 382 615 L382 615 Z M232 615 C265 615 287 637 287 670 C287 703 265 725 232 725 C199 725 177 703 177 670 C177 637 199 615 232 615 L232 615 Z M139 250 C139 401 206 502 307 502 C407 502 474 401 474 250 C474 99 407 -2 307 -2 C206 -2 139 99 139 250 L139 250 Z M45 250 C45 94 150 -10 307 -10 C464 -10 569 94 569 250 C569 406 464 510 307 510 C150 510 45 406 45 250 L45 250 Z " />
<glyph glyph-name="oslash" unicode="&#xf8;" horiz-adv-x="614" d="M48.0487 -12.9532 C49.0862 -11.9552 66.6837 4.97881 98.2812 35.8008 C108.969 46.2268 134.618 45.3437 146.777 36.6778 C189.798 6.01562 244.475 -11 308 -11 C465 -11 570 93 570 249 C570 311.7 552.984 366.232 522.322 408.667 C513.67 420.641 512.805 445.805 523.251 456.251 L570 503 C571.656 504.656 571.656 507.344 570 509 C568.344 510.656 565.656 510.656 564 509 L517.506 462.506 C506.905 451.905 481.431 452.621 469.223 461.322 C426.202 491.984 371.525 509 308 509 C151 509 46 405 46 249 C46 186.3 63.0156 131.768 93.6778 89.3331 C102.362 77.3143 102.896 52.1548 92.2812 41.8008 C59.6962 10.0156 42 -7 42 -7 C42 -7 43.3762 -8.37624 45 -10 C46.6559 -11.6559 46.3609 -14.5767 48.0487 -12.9532 L48.0487 -12.9532 Z M421.791 370.016 C324.079 273.154 241.251 191.176 178.219 128.994 C170.448 121.327 157.957 123.319 154.773 133.761 C144.445 167.634 139 207.275 139 251 C139 402 206 503 307 503 C358.975 503 402.102 475.775 431.327 428.625 C443.487 409.006 438.184 386.266 421.791 370.016 L421.791 370.016 Z M458.227 366.326 C468.555 332.716 474 293.9 474 251 C474 100 407 -1 307 -1 C255.025 -1 211.898 25.5444 182.112 71.8949 C169.719 91.1793 176.232 115.069 192.547 131.172 C255.969 193.769 337.767 274.743 433.451 369.601 C441.18 377.263 455.029 376.729 458.227 366.326 L458.227 366.326 Z " />
<glyph glyph-name="ugrave" unicode="&#xf9;" horiz-adv-x="580" d="M81 746 C81 738 107 714 145 682 L281.059 567.02 C284.327 564.259 289.475 564.475 292.5 567.5 C295.511 570.511 295.852 575.789 293.254 579.162 L184 721 C154 761 131 788 123 788 C100 788 81 769 81 746 L81 746 Z M558.5 46.5 L552 45 C509 34 480 66 480 126 L480 443.68 C480 474.767 454.767 500 423.68 500 L327.5 500 C323.36 500 320 496.64 320 492.5 L320 490.5 C320 487.464 322.464 485 325.5 485 L331 485 C369 485 395 459 395 420 L395 144.817 C395 140.545 391.332 124.728 389.171 121.044 C363.478 77.2356 316.95 49 267 49 C212 49 175 93 175 160 L175 443.68 C175 474.767 149.767 500 118.68 500 L22.5 500 C18.3602 500 15 496.64 15 492.5 L15 490.5 C15 487.464 17.4642 485 20.5 485 L26 485 C64 485 90 459 90 420 L90 160 C90 58 145 -10 227 -10 C283.1 -10 337.839 25.3925 374.371 82.7011 C379.212 90.296 395 87.5442 395 78.5374 L395 20.0015 C395 8.41012 404.409 -1.11202 416 -1.25 L429.373 -1.4092 C430.488 -1.42247 444.696 0.523016 445.774 0.806109 C479.726 9.71889 522.274 20.7811 556.226 29.6939 C560.359 30.779 565 35.7263 565 40 L565 41.3292 C565 44.917 561.996 47.3068 558.5 46.5 L558.5 46.5 Z " />
<glyph glyph-name="uacute" unicode="&#xfa;" horiz-adv-x="580" d="M298.941 567.02 L435 682 C473 715 499 740 499 746 C499 769 480 788 457 788 C451 788 428 761 396 721 L286.746 579.162 C284.148 575.789 284.489 570.511 287.5 567.5 C290.525 564.475 295.673 564.259 298.941 567.02 L298.941 567.02 Z M558.5 46.5 L552 45 C509 34 480 66 480 126 L480 443.68 C480 474.767 454.767 500 423.68 500 L327.5 500 C323.36 500 320 496.64 320 492.5 L320 490.5 C320 487.464 322.464 485 325.5 485 L331 485 C369 485 395 459 395 420 L395 144.817 C395 140.545 391.332 124.728 389.171 121.044 C363.478 77.2356 316.95 49 267 49 C212 49 175 93 175 160 L175 443.68 C175 474.767 149.767 500 118.68 500 L22.5 500 C18.3602 500 15 496.64 15 492.5 L15 490.5 C15 487.464 17.4642 485 20.5 485 L26 485 C64 485 90 459 90 420 L90 160 C90 58 145 -10 227 -10 C283.1 -10 337.839 25.3925 374.371 82.7011 C379.212 90.296 395 87.5442 395 78.5374 L395 20.0015 C395 8.41012 404.409 -1.11202 416 -1.25 L429.373 -1.4092 C430.488 -1.42247 444.696 0.523016 445.774 0.806109 C479.726 9.71889 522.274 20.7811 556.226 29.6939 C560.359 30.779 565 35.7263 565 40 L565 41.3292 C565 44.917 561.996 47.3068 558.5 46.5 L558.5 46.5 Z " />
<glyph glyph-name="ucircumflex" unicode="&#xfb;" horiz-adv-x="580" d="M315 755 C309 764 295 785 285 785 C275 785 261 764 255 755 L137.236 572.562 C134.915 568.967 135.713 563.739 139 561 C142.297 558.252 147.497 558.479 150.542 561.503 L245.319 655.602 C267.221 677.348 302.779 677.348 324.681 655.602 L419.458 561.503 C422.503 558.479 427.703 558.252 431 561 C434.287 563.739 435.085 568.967 432.764 572.562 L315 755 L315 755 Z M558.5 46.5 L552 45 C509 34 480 66 480 126 L480 443.68 C480 474.767 454.767 500 423.68 500 L327.5 500 C323.36 500 320 496.64 320 492.5 L320 490.5 C320 487.464 322.464 485 325.5 485 L331 485 C369 485 395 459 395 420 L395 144.817 C395 140.545 391.332 124.728 389.171 121.044 C363.478 77.2356 316.95 49 267 49 C212 49 175 93 175 160 L175 443.68 C175 474.767 149.767 500 118.68 500 L22.5 500 C18.3602 500 15 496.64 15 492.5 L15 490.5 C15 487.464 17.4642 485 20.5 485 L26 485 C64 485 90 459 90 420 L90 160 C90 58 145 -10 227 -10 C283.1 -10 337.839 25.3925 374.371 82.7011 C379.212 90.296 395 87.5442 395 78.5374 L395 20.0015 C395 8.41012 404.409 -1.11202 416 -1.25 L429.373 -1.4092 C430.488 -1.42247 444.696 0.523016 445.774 0.806109 C479.726 9.71889 522.274 20.7811 556.226 29.6939 C560.359 30.779 565 35.7263 565 40 L565 41.3292 C565 44.917 561.996 47.3068 558.5 46.5 L558.5 46.5 Z " />
<glyph glyph-name="udieresis" unicode="&#xfc;" horiz-adv-x="580" d="M360 615 C393 615 415 637 415 670 C415 703 393 725 360 725 C327 725 305 703 305 670 C305 637 327 615 360 615 L360 615 Z M210 615 C243 615 265 637 265 670 C265 703 243 725 210 725 C177 725 155 703 155 670 C155 637 177 615 210 615 L210 615 Z M558.5 46.5 L552 45 C509 34 480 66 480 126 L480 443.68 C480 474.767 454.767 500 423.68 500 L327.5 500 C323.36 500 320 496.64 320 492.5 L320 490.5 C320 487.464 322.464 485 325.5 485 L331 485 C369 485 395 459 395 420 L395 144.817 C395 140.545 391.332 124.728 389.171 121.044 C363.478 77.2356 316.95 49 267 49 C212 49 175 93 175 160 L175 443.68 C175 474.767 149.767 500 118.68 500 L22.5 500 C18.3602 500 15 496.64 15 492.5 L15 490.5 C15 487.464 17.4642 485 20.5 485 L26 485 C64 485 90 459 90 420 L90 160 C90 58 145 -10 227 -10 C283.1 -10 337.839 25.3925 374.371 82.7011 C379.212 90.296 395 87.5442 395 78.5374 L395 20.0015 C395 8.41012 404.409 -1.11202 416 -1.25 L429.373 -1.4092 C430.488 -1.42247 444.696 0.523016 445.774 0.806109 C479.726 9.71889 522.274 20.7811 556.226 29.6939 C560.359 30.779 565 35.7263 565 40 L565 41.3292 C565 44.917 561.996 47.3068 558.5 46.5 L558.5 46.5 Z " />
<glyph glyph-name="ydieresis" unicode="&#xff;" horiz-adv-x="578" d="M391 615 C424 615 446 637 446 670 C446 703 424 725 391 725 C358 725 336 703 336 670 C336 637 358 615 391 615 L391 615 Z M241 615 C274 615 296 637 296 670 C296 703 274 725 241 725 C208 725 186 703 186 670 C186 637 208 615 241 615 L241 615 Z M559.483 500 L391.5 500 C387.36 500 384 496.64 384 492.5 L384 490.5 C384 487.464 386.464 485 389.5 485 L395 485 C428 485 439 450 424 396 L378.5 257.5 C362.044 207.409 297.012 204.817 276.622 253.44 L216 398 C197 451 205 485 238 485 L243 485 C245.76 485 248 487.24 248 490 L248 492.5 C248 496.64 244.64 500 240.5 500 L18.5 500 C14.3602 500 11 496.64 11 492.5 L11 491 C11 487.688 13.6882 485 17 485 L23 485 C61 485 104 443 130 380 L280.031 22.3797 C283.428 14.2824 282.877 -14.2845 279.675 -22.4607 C262.277 -66.8775 246 -111.8 229 -156 C220 -179 206 -194 202 -194 C180 -194 175 -165 152 -165 C125 -165 107 -183 107 -210 C107 -240 127 -260 157 -260 C183 -260 229 -223 250 -167 L310 -10 C357 120 405 250 453 380 C476 443 517 485 555 485 L560.5 485 C563.529 485 566.164 487.465 566.366 490.488 L566.5 492.5 C566.775 496.631 563.623 500 559.483 500 L559.483 500 Z " />
<glyph glyph-name="Amacron" unicode="&#x100;" horiz-adv-x="808" d="M302.5 895 L543.5 895 C559.783 895 573 908.217 573 924.5 C573 940.783 559.783 954 543.5 954 L302.5 954 C286.217 954 273 940.783 273 924.5 C273 908.217 286.217 895 302.5 895 L302.5 895 Z M462.552 0 L792.5 0 C797.744 0 802 4.25628 802 9.5 L802 11 C802 15.4158 798.416 19 794 19 L786 19 C733 19 678 78 649 167 L472.801 717.498 C472.761 717.623 472.007 719.969 471.979 720.097 C471.44 722.531 460.872 770 456 770 L451 770 C448.783 770 446.432 767.095 446.333 764.88 C445.424 744.635 417.947 727.429 375.566 720.549 C372.792 720.099 372.692 717.692 373.5 715 C373.956 713.48 373.955 706.52 373.499 705 L209 157 C180 74 115 19 44 19 L32.5 19 C27.2563 19 23 14.7437 23 9.5 C23 4.25628 27.2563 0 32.5 0 L306.5 0 C311.744 0 316 4.25628 316 9.5 C316 14.7437 311.744 19 306.5 19 L295 19 C224 19 194 79 221 169 L245.146 251.5 C251.426 272.955 276.844 292 299.199 292 L483.494 292 C494.82 292 508.404 281.273 511.82 270.475 C522.519 236.65 533.1 202.825 543 169 C571 79 543 19 472 19 L460.552 19 C455.309 19 451.451 14.7149 452 9.5 C452.549 4.2851 457.309 0 462.552 0 L462.552 0 Z M280.315 372.255 L324.534 522.149 C340.64 576.745 415.33 577.344 432.309 523.012 L479.15 373.119 C491.189 334.597 465.753 300 425.394 300 L334.334 300 C294.451 300 269.031 334.002 280.315 372.255 L280.315 372.255 Z " />
<glyph glyph-name="amacron" unicode="&#x101;" horiz-adv-x="512" d="M138.5 645 L379.5 645 C395.783 645 409 658.217 409 674.5 C409 690.783 395.783 704 379.5 704 L138.5 704 C122.217 704 109 690.783 109 674.5 C109 658.217 122.217 645 138.5 645 L138.5 645 Z M518 105 C515.996 106.002 513.611 104.617 513.109 102.434 C506.582 74.05 483.45 56 454 56 C422 56 400 74 400 102 L400 355 C400 462 344 510 259 510 C143 510 65 414 65 360 C65 324 85 300 114 300 C141 300 159 325 159 343 C159 361 139 384 139 402 C139 438 183 502 250 502 C289 502 315 466 315 386 L315 306.611 C315 284.897 289.406 257.138 268.703 250.591 C89.4925 193.918 45 166.7 45 89 C45 30 90 -9 158 -9 C194.9 -9 240.71 12.06 296.888 65.115 C304.153 71.9763 319.302 67.1815 323.054 57.9199 C338.49 19.8219 373.8 -4 420 -4 C468.75 -4 509.42 36.4016 521.618 98.6675 C522.088 101.066 520.186 103.907 518 105 L518 105 Z M316 183.67 L316 103 L316 96 C316 93.0361 312.341 85.4763 310.158 83.4715 C273.207 49.5375 237.25 36 204 36 C160 36 131 61 131 98 C131 173.9 155.503 203.177 247.744 236.929 C286.97 251.283 316 225.439 316 183.67 L316 183.67 Z " />
<glyph glyph-name="Abreve" unicode="&#x102;" horiz-adv-x="808" d="M289.399 983.083 C300.45 915.125 352.7 870 423 870 C494.25 870 546.548 914.222 556.743 981.233 C557.555 986.568 554.323 992.613 549 993.5 C544.841 994.193 539.638 990.535 538.593 986.45 C529.837 952.246 484.975 930 423 930 C361.025 930 317.018 953.102 307.6 988.225 C306.496 992.341 301.203 996.2 297 995.5 C291.688 994.615 288.535 988.398 289.399 983.083 L289.399 983.083 Z M462.552 0 L792.5 0 C797.744 0 802 4.25628 802 9.5 L802 11 C802 15.4158 798.416 19 794 19 L786 19 C733 19 678 78 649 167 L472.801 717.498 C472.761 717.623 472.007 719.969 471.979 720.097 C471.44 722.531 460.872 770 456 770 L451 770 C448.783 770 446.432 767.095 446.333 764.88 C445.424 744.635 417.947 727.429 375.566 720.549 C372.792 720.099 372.692 717.692 373.5 715 C373.956 713.48 373.955 706.52 373.499 705 L209 157 C180 74 115 19 44 19 L32.5 19 C27.2563 19 23 14.7437 23 9.5 C23 4.25628 27.2563 0 32.5 0 L306.5 0 C311.744 0 316 4.25628 316 9.5 C316 14.7437 311.744 19 306.5 19 L295 19 C224 19 194 79 221 169 L245.146 251.5 C251.426 272.955 276.844 292 299.199 292 L483.494 292 C494.82 292 508.404 281.273 511.82 270.475 C522.519 236.65 533.1 202.825 543 169 C571 79 543 19 472 19 L460.552 19 C455.309 19 451.451 14.7149 452 9.5 C452.549 4.2851 457.309 0 462.552 0 L462.552 0 Z M280.315 372.255 L324.534 522.149 C340.64 576.745 415.33 577.344 432.309 523.012 L479.15 373.119 C491.189 334.597 465.753 300 425.394 300 L334.334 300 C294.451 300 269.031 334.002 280.315 372.255 L280.315 372.255 Z " />
<glyph glyph-name="abreve" unicode="&#x103;" horiz-adv-x="512" d="M125.399 733.083 C136.45 665.125 188.7 620 259 620 C330.25 620 382.548 664.222 392.743 731.233 C393.555 736.568 390.323 742.613 385 743.5 C380.841 744.193 375.638 740.535 374.593 736.45 C365.838 702.246 320.975 680 259 680 C197.025 680 153.018 703.102 143.6 738.225 C142.496 742.341 137.203 746.2 133 745.5 C127.688 744.615 124.535 738.398 125.399 733.083 L125.399 733.083 Z M518 105 C515.996 106.002 513.611 104.617 513.109 102.434 C506.582 74.05 483.45 56 454 56 C422 56 400 74 400 102 L400 355 C400 462 344 510 259 510 C143 510 65 414 65 360 C65 324 85 300 114 300 C141 300 159 325 159 343 C159 361 139 384 139 402 C139 438 183 502 250 502 C289 502 315 466 315 386 L315 306.611 C315 284.897 289.406 257.138 268.703 250.591 C89.4925 193.918 45 166.7 45 89 C45 30 90 -9 158 -9 C194.9 -9 240.71 12.06 296.888 65.115 C304.153 71.9763 319.302 67.1815 323.054 57.9199 C338.49 19.8219 373.8 -4 420 -4 C468.75 -4 509.42 36.4016 521.618 98.6675 C522.088 101.066 520.186 103.907 518 105 L518 105 Z M316 183.67 L316 103 L316 96 C316 93.0361 312.341 85.4763 310.158 83.4715 C273.207 49.5375 237.25 36 204 36 C160 36 131 61 131 98 C131 173.9 155.503 203.177 247.744 236.929 C286.97 251.283 316 225.439 316 183.67 L316 183.67 Z " />
<glyph glyph-name="Cacute" unicode="&#x106;" horiz-adv-x="740" d="M429.941 817.02 L566 932 C604 965 630 990 630 996 C630 1019 611 1038 588 1038 C582 1038 559 1011 527 971 L417.746 829.162 C415.148 825.789 415.489 820.511 418.5 817.5 C421.525 814.475 426.673 814.259 429.941 817.02 L429.941 817.02 Z M684 131 L684 131 L684 131 L684 131 Z M696 -2.42353 L696 221 C696 226.52 691.52 231 686 231 C680.699 231 674.69 226.487 673.212 221.397 L667 200 C645 123 591 55 527 22 C491 5 452 -4 408 -4 C259 -4 160 147 160 374 C160 600 264 751 419 751 C458 751 492 744 522 732 C588 704 645 633 668 549 L674.212 527.603 C675.69 522.513 681.699 518 687 518 C692.52 518 697 522.48 697 528 L697 748 C697 751.864 693.864 755 690 755 C686.193 755 682.453 751.854 681.801 748.104 L679 732 C675 706 636 704 580 727 C561.633 735.7 537.193 742.531 516.615 749.3 C516.419 749.364 512.593 750.401 512.392 750.443 C484.872 756.099 453.075 758 417 758 C197 758 50 604 50 373 C50 142 192 -12 406 -12 C445 -12 479.5 -9.5 510.5 -2.5 C516.1 -0.9 522.02 0.38 528.26 2.876 C528.307 2.89488 537.45 6.4858 537.498 6.50195 C547.984 10.0156 558.375 13.625 568 18 C630 45 675 43 679 13 L681.919 -4.51301 C682.516 -8.09335 685.912 -10.5519 689.5 -10 C693.046 -9.45445 696 -6.01133 696 -2.42353 L696 -2.42353 Z " />
<glyph glyph-name="Ccircumflex" unicode="&#x108;" horiz-adv-x="740" d="M446 1005 C440 1014 426 1035 416 1035 C406 1035 392 1014 386 1005 L268.236 822.562 C265.915 818.967 266.713 813.739 270 811 C273.297 808.252 278.497 808.479 281.542 811.503 L376.319 905.602 C398.221 927.348 433.779 927.348 455.681 905.602 L550.458 811.503 C553.503 808.479 558.703 808.252 562 811 C565.287 813.739 566.085 818.967 563.764 822.562 L446 1005 L446 1005 Z M684 131 L684 131 L684 131 L684 131 Z M696 -2.42353 L696 221 C696 226.52 691.52 231 686 231 C680.699 231 674.69 226.487 673.212 221.397 L667 200 C645 123 591 55 527 22 C491 5 452 -4 408 -4 C259 -4 160 147 160 374 C160 600 264 751 419 751 C458 751 492 744 522 732 C588 704 645 633 668 549 L674.212 527.603 C675.69 522.513 681.699 518 687 518 C692.52 518 697 522.48 697 528 L697 748 C697 751.864 693.864 755 690 755 C686.193 755 682.453 751.854 681.801 748.104 L679 732 C675 706 636 704 580 727 C561.633 735.7 537.193 742.531 516.615 749.3 C516.419 749.364 512.593 750.401 512.392 750.443 C484.872 756.099 453.075 758 417 758 C197 758 50 604 50 373 C50 142 192 -12 406 -12 C445 -12 479.5 -9.5 510.5 -2.5 C516.1 -0.9 522.02 0.38 528.26 2.876 C528.307 2.89488 537.45 6.4858 537.498 6.50195 C547.984 10.0156 558.375 13.625 568 18 C630 45 675 43 679 13 L681.919 -4.51301 C682.516 -8.09335 685.912 -10.5519 689.5 -10 C693.046 -9.45445 696 -6.01133 696 -2.42353 L696 -2.42353 Z " />
<glyph glyph-name="Cdot" unicode="&#x10a;" horiz-adv-x="740" d="M416 865 C449 865 471 887 471 920 C471 953 449 975 416 975 C383 975 361 953 361 920 C361 887 383 865 416 865 L416 865 Z M684 131 L684 131 L684 131 L684 131 Z M696 -2.42353 L696 221 C696 226.52 691.52 231 686 231 C680.699 231 674.69 226.487 673.212 221.397 L667 200 C645 123 591 55 527 22 C491 5 452 -4 408 -4 C259 -4 160 147 160 374 C160 600 264 751 419 751 C458 751 492 744 522 732 C588 704 645 633 668 549 L674.212 527.603 C675.69 522.513 681.699 518 687 518 C692.52 518 697 522.48 697 528 L697 748 C697 751.864 693.864 755 690 755 C686.193 755 682.453 751.854 681.801 748.104 L679 732 C675 706 636 704 580 727 C561.633 735.7 537.193 742.531 516.615 749.3 C516.419 749.364 512.593 750.401 512.392 750.443 C484.872 756.099 453.075 758 417 758 C197 758 50 604 50 373 C50 142 192 -12 406 -12 C445 -12 479.5 -9.5 510.5 -2.5 C516.1 -0.9 522.02 0.38 528.26 2.876 C528.307 2.89488 537.45 6.4858 537.498 6.50195 C547.984 10.0156 558.375 13.625 568 18 C630 45 675 43 679 13 L681.919 -4.51301 C682.516 -8.09335 685.912 -10.5519 689.5 -10 C693.046 -9.45445 696 -6.01133 696 -2.42353 L696 -2.42353 Z " />
<glyph glyph-name="cdot" unicode="&#x10b;" horiz-adv-x="504" d="M302 615 C335 615 357 637 357 670 C357 703 335 725 302 725 C269 725 247 703 247 670 C247 637 269 615 302 615 L302 615 Z M452.264 94.5729 C416.15 44.3087 357.575 13 299 13 C200 13 134 117 134 273 C134 412 200 504 300 504 C332 504 367 464 389 405 C398 379 416 362 432 362 C467 362 483 379 474 405 C451 468 382 510 302 510 C148 510 45 400 45 236 C45 88 141 -10 285 -10 C350.45 -10 414.455 29.7375 454.906 92.6311 C454.934 92.6745 452.294 94.6148 452.264 94.5729 L452.264 94.5729 Z " />
<glyph glyph-name="Ccaron" unicode="&#x10c;" horiz-adv-x="740" d="M550.458 1038.5 L455.681 944.398 C433.779 922.652 398.221 922.652 376.319 944.398 L281.542 1038.5 C278.497 1041.52 273.297 1041.75 270 1039 C266.713 1036.26 265.915 1031.03 268.236 1027.44 L386 845 C392 836 406 815 416 815 C426 815 440 836 446 845 L563.764 1027.44 C566.085 1031.03 565.287 1036.26 562 1039 C558.703 1041.75 553.503 1041.52 550.458 1038.5 L550.458 1038.5 Z M684 131 L684 131 L684 131 L684 131 Z M696 -2.42353 L696 221 C696 226.52 691.52 231 686 231 C680.699 231 674.69 226.487 673.212 221.397 L667 200 C645 123 591 55 527 22 C491 5 452 -4 408 -4 C259 -4 160 147 160 374 C160 600 264 751 419 751 C458 751 492 744 522 732 C588 704 645 633 668 549 L674.212 527.603 C675.69 522.513 681.699 518 687 518 C692.52 518 697 522.48 697 528 L697 748 C697 751.864 693.864 755 690 755 C686.193 755 682.453 751.854 681.801 748.104 L679 732 C675 706 636 704 580 727 C561.633 735.7 537.193 742.531 516.615 749.3 C516.419 749.364 512.593 750.401 512.392 750.443 C484.872 756.099 453.075 758 417 758 C197 758 50 604 50 373 C50 142 192 -12 406 -12 C445 -12 479.5 -9.5 510.5 -2.5 C516.1 -0.9 522.02 0.38 528.26 2.876 C528.307 2.89488 537.45 6.4858 537.498 6.50195 C547.984 10.0156 558.375 13.625 568 18 C630 45 675 43 679 13 L681.919 -4.51301 C682.516 -8.09335 685.912 -10.5519 689.5 -10 C693.046 -9.45445 696 -6.01133 696 -2.42353 L696 -2.42353 Z " />
<glyph glyph-name="ccaron" unicode="&#x10d;" horiz-adv-x="504" d="M436.458 788.497 L341.681 694.398 C319.779 672.652 284.221 672.652 262.319 694.398 L167.542 788.497 C164.497 791.521 159.297 791.748 156 789 C152.713 786.261 151.915 781.033 154.236 777.438 L272 595 C278 586 292 565 302 565 C312 565 326 586 332 595 L449.764 777.438 C452.085 781.033 451.287 786.261 448 789 C444.703 791.748 439.503 791.521 436.458 788.497 L436.458 788.497 Z M452.264 94.5729 C416.15 44.3087 357.575 13 299 13 C200 13 134 117 134 273 C134 412 200 504 300 504 C332 504 367 464 389 405 C398 379 416 362 432 362 C467 362 483 379 474 405 C451 468 382 510 302 510 C148 510 45 400 45 236 C45 88 141 -10 285 -10 C350.45 -10 414.455 29.7375 454.906 92.6311 C454.934 92.6745 452.294 94.6148 452.264 94.5729 L452.264 94.5729 Z " />
<glyph glyph-name="Dcaron" unicode="&#x10e;" horiz-adv-x="863" d="M560.458 1038.5 L465.681 944.398 C443.779 922.652 408.221 922.652 386.319 944.398 L291.542 1038.5 C288.497 1041.52 283.297 1041.75 280 1039 C276.713 1036.26 275.915 1031.03 278.236 1027.44 L396 845 C402 836 416 815 426 815 C436 815 450 836 456 845 L573.764 1027.44 C576.085 1031.03 575.287 1036.26 572 1039 C568.703 1041.75 563.503 1041.52 560.458 1038.5 L560.458 1038.5 Z M326 6 C262 6 255 77 255 183 L255 696.5 C255 722.719 276.281 744 302.5 744 L350 744 C579 744 697 596 697 375 C697 131 549 6 326 6 L326 6 Z M67 735 L74 735 C123 735 155 695 155 635 L155 115 C155 55 123 15 74 15 L67 15 C63.1362 15 60 11.8638 60 8 L60 7.5 C60 3.36022 63.3602 0 67.5 0 L335 0 C619 0 808 128 808 375 C808 600 661 750 375 750 L67.5 750 C63.3602 750 60 746.64 60 742.5 L60 742 C60 738.136 63.1362 735 67 735 L67 735 Z " />
<glyph glyph-name="dcaron" unicode="&#x10f;" horiz-adv-x="610" d="M587 756 C570 756 560 693 556 648 L546.686 544.618 C546.31 540.437 549.384 536.323 553.5 535.5 C557.588 534.682 562.212 537.262 563.663 541.17 L600 639 C615 678 625 720 625 744 C625 753 610 756 587 756 L587 756 Z M588 49 L581 47 C532 34 500 65 500 125 L500 729 C500 740.591 490.591 750 479 750 L465.711 750 C464.567 750 451.675 748.235 450.573 747.927 L415 738 C390.529 731.412 365.173 723.938 343.933 718.079 C341.376 717.374 340 714.653 340 712 C340 709.24 342.24 707 345 707 L351 707 C389 708 415 672 415 615 L415 458.735 C415 450.6 402.537 447.834 397.06 453.848 C366.377 487.539 324.55 510 280 510 C125 510 45 406 45 251 C45 97 130 -5 257 -5 C306.5 -5 357.361 15.4187 393.861 48.395 C400.751 54.6192 415 51.0783 415 41.7938 L415 21.0015 C415 9.41012 424.409 -0.112017 436 -0.25 L449.235 -0.407564 C450.386 -0.421259 462.311 0.92211 463.422 1.21898 C502.615 11.6872 553.279 24.8318 591.817 35.1471 C595.682 36.1817 595 39.4986 595 43.5 L595 43.7199 C595 47.5837 591.715 50.0615 588 49 L588 49 Z M415 366.6 L415 100.849 C415 90.2745 410.008 74.9762 401.882 68.2087 C374.555 45.45 333.5 31 291 31 C195 31 131 129 131 276 C131 402 185 486 289 486 C341.25 486 391.244 439.521 411.545 384.288 C412.204 382.497 415 368.509 415 366.6 L415 366.6 Z " />
<glyph glyph-name="Emacron" unicode="&#x112;" horiz-adv-x="667" d="M238.5 895 L479.5 895 C495.783 895 509 908.217 509 924.5 C509 940.783 495.783 954 479.5 954 L238.5 954 C222.217 954 209 940.783 209 924.5 C209 908.217 222.217 895 238.5 895 L238.5 895 Z M47.5 735 L57 735 C116 735 155 687 155 615 L155 135 C155 63 116 15 57 15 L47.5 15 C43.3602 15 40 11.6398 40 7.5 C40 3.36029 43.3602 0.0183202 47.4999 0.0408899 L590.25 3 C590.25 5.7 607.868 106.41 612.849 135.273 C613.415 138.552 611.245 142 607.917 142 L606.5 142 C602.656 142 597.642 138.605 596.215 135.036 L591 122 C568.575 59.6 501.471 16.2125 419.346 8.52097 C418.915 8.48057 403.017 8.607 402.585 8.63892 C270.21 18.42 255 85.5 255 183 L255 345.5 C255 367.303 272.697 385 294.5 385 L334 385 C412 385 472 336 485 262 L487.658 247.379 C488.387 243.372 492.427 240 496.5 240 C500.64 240 504.012 243.36 504.026 247.5 L504.5 385 L504.5 392 L504.026 529.5 C504.012 533.64 500.64 537 496.5 537 C492.427 537 488.387 533.628 487.658 529.621 L485 515 C472 441 412 392 334 392 L294.5 392 C272.697 392 255 409.697 255 431.5 L255 686.68 C255 717.767 280.233 743 311.32 743 L395 743 C474 743 540 694 562 620 L566.726 605.147 C567.922 601.388 572.555 598 576.5 598 C580.596 598 583.602 600.98 583.069 605.041 C578.066 643.202 572.459 690.727 567.353 730.493 C565.763 742.875 554.784 748.529 542.301 748.565 L47.5 749.979 C43.3602 749.99 40 746.64 40 742.5 C40 738.36 43.3602 735 47.5 735 L47.5 735 Z " />
<glyph glyph-name="emacron" unicode="&#x113;" horiz-adv-x="540" d="M180.5 645 L421.5 645 C437.783 645 451 658.217 451 674.5 C451 690.783 437.783 704 421.5 704 L180.5 704 C164.217 704 151 690.783 151 674.5 C151 658.217 164.217 645 180.5 645 L180.5 645 Z M151.102 340 L448.016 340 C487.835 340 508.917 360.767 493.287 397.391 C459.173 477.33 389.275 510 301 510 C147 510 45 432 45 231 C45 86 138 -10 278 -10 C360.45 -10 433.869 32.2662 473.077 97.7609 C473.083 97.7712 471.902 99.084 471.895 99.0742 C435.242 47.3297 365.375 15 287 15 C196 15 135 115 135 266 C135 288.781 136.424 310.139 138.671 329.472 C139.388 335.64 144.892 340 151.102 340 L151.102 340 Z M357.026 347.583 L197.717 346.416 C162.199 346.155 142.235 365.37 154.115 398.843 C180.324 472.691 232.175 504 299 504 C341.075 504 377.365 474.053 400.569 400.681 C410.834 368.225 391.066 347.832 357.026 347.583 L357.026 347.583 Z " />
<glyph glyph-name="Ebreve" unicode="&#x114;" horiz-adv-x="667" d="M225.399 983.083 C236.45 915.125 288.7 870 359 870 C430.25 870 482.548 914.222 492.743 981.233 C493.555 986.568 490.323 992.613 485 993.5 C480.841 994.193 475.638 990.535 474.593 986.45 C465.838 952.246 420.975 930 359 930 C297.025 930 253.018 953.102 243.6 988.225 C242.496 992.341 237.203 996.2 233 995.5 C227.688 994.615 224.535 988.398 225.399 983.083 L225.399 983.083 Z M47.5 735 L57 735 C116 735 155 687 155 615 L155 135 C155 63 116 15 57 15 L47.5 15 C43.3602 15 40 11.6398 40 7.5 C40 3.36029 43.3602 0.0183202 47.4999 0.0408899 L590.25 3 C590.25 5.7 607.868 106.41 612.849 135.273 C613.415 138.552 611.245 142 607.917 142 L606.5 142 C602.656 142 597.642 138.605 596.215 135.036 L591 122 C568.575 59.6 501.471 16.2125 419.346 8.52097 C418.915 8.48057 403.017 8.607 402.585 8.63892 C270.21 18.42 255 85.5 255 183 L255 345.5 C255 367.303 272.697 385 294.5 385 L334 385 C412 385 472 336 485 262 L487.658 247.379 C488.387 243.372 492.427 240 496.5 240 C500.64 240 504.012 243.36 504.026 247.5 L504.5 385 L504.5 392 L504.026 529.5 C504.012 533.64 500.64 537 496.5 537 C492.427 537 488.387 533.628 487.658 529.621 L485 515 C472 441 412 392 334 392 L294.5 392 C272.697 392 255 409.697 255 431.5 L255 686.68 C255 717.767 280.233 743 311.32 743 L395 743 C474 743 540 694 562 620 L566.726 605.147 C567.922 601.388 572.555 598 576.5 598 C580.596 598 583.602 600.98 583.069 605.041 C578.066 643.202 572.459 690.727 567.353 730.493 C565.763 742.875 554.784 748.529 542.301 748.565 L47.5 749.979 C43.3602 749.99 40 746.64 40 742.5 C40 738.36 43.3602 735 47.5 735 L47.5 735 Z " />
<glyph glyph-name="ebreve" unicode="&#x115;" horiz-adv-x="540" d="M167.399 733.083 C178.45 665.125 230.7 620 301 620 C372.25 620 424.548 664.222 434.743 731.233 C435.555 736.568 432.323 742.613 427 743.5 C422.841 744.193 417.638 740.535 416.593 736.45 C407.838 702.246 362.975 680 301 680 C239.025 680 195.018 703.102 185.6 738.225 C184.496 742.341 179.203 746.2 175 745.5 C169.688 744.615 166.535 738.398 167.399 733.083 L167.399 733.083 Z M151.102 340 L448.016 340 C487.835 340 508.917 360.767 493.287 397.391 C459.173 477.33 389.275 510 301 510 C147 510 45 432 45 231 C45 86 138 -10 278 -10 C360.45 -10 433.869 32.2662 473.077 97.7609 C473.083 97.7712 471.902 99.084 471.895 99.0742 C435.242 47.3297 365.375 15 287 15 C196 15 135 115 135 266 C135 288.781 136.424 310.139 138.671 329.472 C139.388 335.64 144.892 340 151.102 340 L151.102 340 Z M357.026 347.583 L197.717 346.416 C162.199 346.155 142.235 365.37 154.115 398.843 C180.324 472.691 232.175 504 299 504 C341.075 504 377.365 474.053 400.569 400.681 C410.834 368.225 391.066 347.832 357.026 347.583 L357.026 347.583 Z " />
<glyph glyph-name="Edot" unicode="&#x116;" horiz-adv-x="667" d="M359 865 C392 865 414 887 414 920 C414 953 392 975 359 975 C326 975 304 953 304 920 C304 887 326 865 359 865 L359 865 Z M47.5 735 L57 735 C116 735 155 687 155 615 L155 135 C155 63 116 15 57 15 L47.5 15 C43.3602 15 40 11.6398 40 7.5 C40 3.36029 43.3602 0.0183202 47.4999 0.0408899 L590.25 3 C590.25 5.7 607.868 106.41 612.849 135.273 C613.415 138.552 611.245 142 607.917 142 L606.5 142 C602.656 142 597.642 138.605 596.215 135.036 L591 122 C568.575 59.6 501.471 16.2125 419.346 8.52097 C418.915 8.48057 403.017 8.607 402.585 8.63892 C270.21 18.42 255 85.5 255 183 L255 345.5 C255 367.303 272.697 385 294.5 385 L334 385 C412 385 472 336 485 262 L487.658 247.379 C488.387 243.372 492.427 240 496.5 240 C500.64 240 504.012 243.36 504.026 247.5 L504.5 385 L504.5 392 L504.026 529.5 C504.012 533.64 500.64 537 496.5 537 C492.427 537 488.387 533.628 487.658 529.621 L485 515 C472 441 412 392 334 392 L294.5 392 C272.697 392 255 409.697 255 431.5 L255 686.68 C255 717.767 280.233 743 311.32 743 L395 743 C474 743 540 694 562 620 L566.726 605.147 C567.922 601.388 572.555 598 576.5 598 C580.596 598 583.602 600.98 583.069 605.041 C578.066 643.202 572.459 690.727 567.353 730.493 C565.763 742.875 554.784 748.529 542.301 748.565 L47.5 749.979 C43.3602 749.99 40 746.64 40 742.5 C40 738.36 43.3602 735 47.5 735 L47.5 735 Z " />
<glyph glyph-name="edot" unicode="&#x117;" horiz-adv-x="540" d="M301 615 C334 615 356 637 356 670 C356 703 334 725 301 725 C268 725 246 703 246 670 C246 637 268 615 301 615 L301 615 Z M151.102 340 L448.016 340 C487.835 340 508.917 360.767 493.287 397.391 C459.173 477.33 389.275 510 301 510 C147 510 45 432 45 231 C45 86 138 -10 278 -10 C360.45 -10 433.869 32.2662 473.077 97.7609 C473.083 97.7712 471.902 99.084 471.895 99.0742 C435.242 47.3297 365.375 15 287 15 C196 15 135 115 135 266 C135 288.781 136.424 310.139 138.671 329.472 C139.388 335.64 144.892 340 151.102 340 L151.102 340 Z M357.026 347.583 L197.717 346.416 C162.199 346.155 142.235 365.37 154.115 398.843 C180.324 472.691 232.175 504 299 504 C341.075 504 377.365 474.053 400.569 400.681 C410.834 368.225 391.066 347.832 357.026 347.583 L357.026 347.583 Z " />
<glyph glyph-name="Ecaron" unicode="&#x11a;" horiz-adv-x="667" d="M493.458 1038.5 L398.681 944.398 C376.779 922.652 341.221 922.652 319.319 944.398 L224.542 1038.5 C221.497 1041.52 216.297 1041.75 213 1039 C209.713 1036.26 208.915 1031.03 211.236 1027.44 L329 845 C335 836 349 815 359 815 C369 815 383 836 389 845 L506.764 1027.44 C509.085 1031.03 508.287 1036.26 505 1039 C501.703 1041.75 496.503 1041.52 493.458 1038.5 L493.458 1038.5 Z M47.5 735 L57 735 C116 735 155 687 155 615 L155 135 C155 63 116 15 57 15 L47.5 15 C43.3602 15 40 11.6398 40 7.5 C40 3.36029 43.3602 0.0183202 47.4999 0.0408899 L590.25 3 C590.25 5.7 607.868 106.41 612.849 135.273 C613.415 138.552 611.245 142 607.917 142 L606.5 142 C602.656 142 597.642 138.605 596.215 135.036 L591 122 C568.575 59.6 501.471 16.2125 419.346 8.52097 C418.915 8.48057 403.017 8.607 402.585 8.63892 C270.21 18.42 255 85.5 255 183 L255 345.5 C255 367.303 272.697 385 294.5 385 L334 385 C412 385 472 336 485 262 L487.658 247.379 C488.387 243.372 492.427 240 496.5 240 C500.64 240 504.012 243.36 504.026 247.5 L504.5 385 L504.5 392 L504.026 529.5 C504.012 533.64 500.64 537 496.5 537 C492.427 537 488.387 533.628 487.658 529.621 L485 515 C472 441 412 392 334 392 L294.5 392 C272.697 392 255 409.697 255 431.5 L255 686.68 C255 717.767 280.233 743 311.32 743 L395 743 C474 743 540 694 562 620 L566.726 605.147 C567.922 601.388 572.555 598 576.5 598 C580.596 598 583.602 600.98 583.069 605.041 C578.066 643.202 572.459 690.727 567.353 730.493 C565.763 742.875 554.784 748.529 542.301 748.565 L47.5 749.979 C43.3602 749.99 40 746.64 40 742.5 C40 738.36 43.3602 735 47.5 735 L47.5 735 Z " />
<glyph glyph-name="ecaron" unicode="&#x11b;" horiz-adv-x="540" d="M435.458 788.497 L340.681 694.398 C318.779 672.652 283.221 672.652 261.319 694.398 L166.542 788.497 C163.497 791.521 158.297 791.748 155 789 C151.713 786.261 150.915 781.033 153.236 777.438 L271 595 C277 586 291 565 301 565 C311 565 325 586 331 595 L448.764 777.438 C451.085 781.033 450.287 786.261 447 789 C443.703 791.748 438.503 791.521 435.458 788.497 L435.458 788.497 Z M151.102 340 L448.016 340 C487.835 340 508.917 360.767 493.287 397.391 C459.173 477.33 389.275 510 301 510 C147 510 45 432 45 231 C45 86 138 -10 278 -10 C360.45 -10 433.869 32.2662 473.077 97.7609 C473.083 97.7712 471.902 99.084 471.895 99.0742 C435.242 47.3297 365.375 15 287 15 C196 15 135 115 135 266 C135 288.781 136.424 310.139 138.671 329.472 C139.388 335.64 144.892 340 151.102 340 L151.102 340 Z M357.026 347.583 L197.717 346.416 C162.199 346.155 142.235 365.37 154.115 398.843 C180.324 472.691 232.175 504 299 504 C341.075 504 377.365 474.053 400.569 400.681 C410.834 368.225 391.066 347.832 357.026 347.583 L357.026 347.583 Z " />
<glyph glyph-name="Gcircumflex" unicode="&#x11c;" horiz-adv-x="830" d="M696 528 L696 749 C696 752.864 692.864 756 689 756 C685.193 756 681.453 752.854 680.801 749.104 L678 733 C674 707 635 705 579 728 C560.633 736.7 536.193 743.531 515.615 750.3 C515.419 750.364 511.593 751.401 511.392 751.443 C483.872 757.099 452.075 759 416 759 C196 759 49 605 49 374 C49 143 195 -11 413 -11 C515 -11 596 4 668 28 L675.25 29.8125 C675.414 29.8536 680.044 31.24 680.203 31.298 C704.412 40.1181 727.706 50.3235 751 61 L748 65 C730.818 56.8182 712.298 49.3058 691.89 42.4628 C684.962 40.1395 678 44.2937 678 51.6015 L678 170 C678 251 714 305 767 305 L775 305 C779.416 305 783 308.584 783 313 L783 314.5 C783 319.744 778.744 324 773.5 324 L482.5 324 C477.256 324 473 319.744 473 314.5 L473 313 C473 308.584 476.584 305 481 305 L489 305 C542 305 578.5 251 578.5 170 C578.5 150 579 130 579 111 C577 50 518 10 430 10 C269 10 161 156 161 375 C161 601 265 752 420 752 C459 752 493 745 523 733 C589 705 646 634 669 550 L675.491 527.643 C676.821 523.062 682.229 519 687 519 C691.968 519 696 523.032 696 528 L696 528 Z M448 1005 C442 1014 428 1035 418 1035 C408 1035 394 1014 388 1005 L270.236 822.562 C267.915 818.967 268.713 813.739 272 811 C275.297 808.252 280.497 808.479 283.542 811.503 L378.319 905.602 C400.221 927.348 435.779 927.348 457.681 905.602 L552.458 811.503 C555.503 808.479 560.703 808.252 564 811 C567.287 813.739 568.085 818.967 565.764 822.562 L448 1005 L448 1005 Z " />
<glyph glyph-name="Gbreve" unicode="&#x11e;" horiz-adv-x="830" d="M282.399 983.083 C293.45 915.125 345.7 870 416 870 C487.25 870 539.548 914.222 549.743 981.233 C550.555 986.568 547.323 992.613 542 993.5 C537.841 994.193 532.638 990.535 531.593 986.45 C522.838 952.246 477.975 930 416 930 C354.025 930 310.018 953.102 300.6 988.225 C299.496 992.341 294.203 996.2 290 995.5 C284.688 994.615 281.535 988.398 282.399 983.083 L282.399 983.083 Z M696 528 L696 749 C696 752.864 692.864 756 689 756 C685.193 756 681.453 752.854 680.801 749.104 L678 733 C674 707 635 705 579 728 C560.633 736.7 536.193 743.531 515.615 750.3 C515.419 750.364 511.593 751.401 511.392 751.443 C483.872 757.099 452.075 759 416 759 C196 759 49 605 49 374 C49 143 195 -11 413 -11 C515 -11 596 4 668 28 L675.25 29.8125 C675.414 29.8536 680.044 31.24 680.203 31.298 C704.412 40.1181 727.706 50.3235 751 61 L748 65 C730.818 56.8182 712.298 49.3058 691.89 42.4628 C684.962 40.1395 678 44.2937 678 51.6015 L678 170 C678 251 714 305 767 305 L775 305 C779.416 305 783 308.584 783 313 L783 314.5 C783 319.744 778.744 324 773.5 324 L482.5 324 C477.256 324 473 319.744 473 314.5 L473 313 C473 308.584 476.584 305 481 305 L489 305 C542 305 578.5 251 578.5 170 C578.5 150 579 130 579 111 C577 50 518 10 430 10 C269 10 161 156 161 375 C161 601 265 752 420 752 C459 752 493 745 523 733 C589 705 646 634 669 550 L675.491 527.643 C676.821 523.062 682.229 519 687 519 C691.968 519 696 523.032 696 528 L696 528 Z " />
<glyph glyph-name="gbreve" unicode="&#x11f;" horiz-adv-x="520" d="M121.399 733.083 C132.45 665.125 184.7 620 255 620 C326.25 620 378.547 664.222 388.743 731.233 C389.555 736.568 386.323 742.613 381 743.5 C376.841 744.193 371.638 740.535 370.593 736.45 C361.837 702.246 316.975 680 255 680 C193.025 680 149.018 703.102 139.6 738.225 C138.496 742.341 133.203 746.2 129 745.5 C123.688 744.615 120.535 738.398 121.399 733.083 L121.399 733.083 Z M541 479 C541 510 519 530 486 530 C457.1 530 426.033 510.493 402.623 478.847 C397.061 471.327 380.48 470.644 372.849 476.054 C342.244 497.749 302.025 510 255 510 C147 510 75 446 75 350 C75 280.7 111.754 227.735 171.785 202.897 C176.81 200.817 177.166 187.043 171.804 186.135 C98.795 173.785 54 143.95 54 104 C54 59.45 77.8219 25.79 117.604 9.75819 C123.628 7.33093 125.024 -5.07195 119.092 -7.71437 C73.1775 -28.1675 45 -60 45 -94 C45 -175 133 -229 265 -229 C397 -229 485 -164 485 -67 C485 24 433 85 299 85 C264 85 199 86 181 86 C135 86 105 104 105 131 C105 166 165 189 255 189 C363 189 435 254 435 351 C435 390.775 423.021 424.561 401.438 450.774 C398.313 454.57 398.872 460.205 402.693 463.299 C412.714 471.413 424.857 476 437 476 C458 476 485 442 506 442 C528 442 541.5 457 541.5 479 L541 479 Z M256 194 C199 194 161 256 161 350 C161 442 199 504 256 504 C313 504 351 442 351 350 C351 256 313 194 256 194 L256 194 Z M172.14 -1.36125 C203.62 -3.1675 250.2 -1 291 -1 C380 -1 414 -36 414 -89 C414 -171 355 -225 267 -225 C176 -225 116 -165 116 -76 C116 -48.775 126.55 -24.6128 144.28 -9.12859 C149.389 -4.66659 165.368 -0.972673 172.14 -1.36125 L172.14 -1.36125 Z " />
<glyph glyph-name="Gdot" unicode="&#x120;" horiz-adv-x="830" d="M416 865 C449 865 471 887 471 920 C471 953 449 975 416 975 C383 975 361 953 361 920 C361 887 383 865 416 865 L416 865 Z M696 528 L696 749 C696 752.864 692.864 756 689 756 C685.193 756 681.453 752.854 680.801 749.104 L678 733 C674 707 635 705 579 728 C560.633 736.7 536.193 743.531 515.615 750.3 C515.419 750.364 511.593 751.401 511.392 751.443 C483.872 757.099 452.075 759 416 759 C196 759 49 605 49 374 C49 143 195 -11 413 -11 C515 -11 596 4 668 28 L675.25 29.8125 C675.414 29.8536 680.044 31.24 680.203 31.298 C704.412 40.1181 727.706 50.3235 751 61 L748 65 C730.818 56.8182 712.298 49.3058 691.89 42.4628 C684.962 40.1395 678 44.2937 678 51.6015 L678 170 C678 251 714 305 767 305 L775 305 C779.416 305 783 308.584 783 313 L783 314.5 C783 319.744 778.744 324 773.5 324 L482.5 324 C477.256 324 473 319.744 473 314.5 L473 313 C473 308.584 476.584 305 481 305 L489 305 C542 305 578.5 251 578.5 170 C578.5 150 579 130 579 111 C577 50 518 10 430 10 C269 10 161 156 161 375 C161 601 265 752 420 752 C459 752 493 745 523 733 C589 705 646 634 669 550 L675.491 527.643 C676.821 523.062 682.229 519 687 519 C691.968 519 696 523.032 696 528 L696 528 Z " />
<glyph glyph-name="gdot" unicode="&#x121;" horiz-adv-x="520" d="M255 615 C288 615 310 637 310 670 C310 703 288 725 255 725 C222 725 200 703 200 670 C200 637 222 615 255 615 L255 615 Z M541 479 C541 510 519 530 486 530 C457.1 530 426.033 510.493 402.623 478.847 C397.061 471.327 380.48 470.644 372.849 476.054 C342.244 497.749 302.025 510 255 510 C147 510 75 446 75 350 C75 280.7 111.754 227.735 171.785 202.897 C176.81 200.817 177.166 187.043 171.804 186.135 C98.795 173.785 54 143.95 54 104 C54 59.45 77.8219 25.79 117.604 9.75819 C123.628 7.33093 125.024 -5.07195 119.092 -7.71437 C73.1775 -28.1675 45 -60 45 -94 C45 -175 133 -229 265 -229 C397 -229 485 -164 485 -67 C485 24 433 85 299 85 C264 85 199 86 181 86 C135 86 105 104 105 131 C105 166 165 189 255 189 C363 189 435 254 435 351 C435 390.775 423.021 424.561 401.438 450.774 C398.313 454.57 398.872 460.205 402.693 463.299 C412.714 471.413 424.857 476 437 476 C458 476 485 442 506 442 C528 442 541.5 457 541.5 479 L541 479 Z M256 194 C199 194 161 256 161 350 C161 442 199 504 256 504 C313 504 351 442 351 350 C351 256 313 194 256 194 L256 194 Z M172.14 -1.36125 C203.62 -3.1675 250.2 -1 291 -1 C380 -1 414 -36 414 -89 C414 -171 355 -225 267 -225 C176 -225 116 -165 116 -76 C116 -48.775 126.55 -24.6128 144.28 -9.12859 C149.389 -4.66659 165.368 -0.972673 172.14 -1.36125 L172.14 -1.36125 Z " />
<glyph glyph-name="Hcircumflex" unicode="&#x124;" horiz-adv-x="881" d="M489 1005 C483 1014 469 1035 459 1035 C449 1035 435 1014 429 1005 L311.031 822.245 C308.836 818.845 309.505 813.723 312.5 811 C315.532 808.244 320.367 808.35 323.275 811.237 L418.46 905.742 C440.284 927.41 475.779 927.473 497.68 905.883 L593.707 811.218 C596.624 808.342 601.469 808.244 604.5 811 C607.493 813.721 608.173 818.854 605.992 822.26 L489 1005 L489 1005 Z M814 15 L807 15 C758 15 726 55 726 115 L726 635 C726 695 758 735 807 735 L814 735 C817.864 735 821 738.136 821 742 L821 742.5 C821 746.64 817.64 750 813.5 750 L538.5 750 C534.36 750 531 746.64 531 742.5 L531 742 C531 738.136 534.136 735 538 735 L545 735 C594 735 626 695 626 635 L626 447.32 C626 416.233 600.767 391 569.68 391 L347.32 391 C316.233 391 291 416.233 291 447.32 L291 635 C291 695 323 735 372 735 L379 735 C382.864 735 386 738.136 386 742 L386 742.5 C386 746.64 382.64 750 378.5 750 L103.5 750 C99.3602 750 96 746.64 96 742.5 L96 742 C96 738.136 99.1362 735 103 735 L110 735 C159 735 191 695 191 635 L191 115 C191 55 159 15 110 15 L103 15 C99.1362 15 96 11.8638 96 8 L96 7.5 C96 3.36022 99.3602 0 103.5 0 L378.5 0 C382.64 0 386 3.36022 386 7.5 L386 8 C386 11.8638 382.864 15 379 15 L372 15 C323 15 291 55 291 115 L291 326.68 C291 357.767 316.233 383 347.32 383 L569.68 383 C600.767 383 626 357.767 626 326.68 L626 115 C626 55 594 15 545 15 L538 15 C534.136 15 531 11.8638 531 8 L531 7.5 C531 3.36022 534.36 0 538.5 0 L813.5 0 C817.64 0 821 3.36022 821 7.5 L821 8 C821 11.8638 817.864 15 814 15 L814 15 Z " />
<glyph glyph-name="Itilde" unicode="&#x128;" horiz-adv-x="405" d="M57 870 C57 906 75 930 101 930 C153 930 222 865 274 865 C318 865 348 913 348 985 L343 985 C343 949 323 925 294 925 C242 925 173 990 121 990 C80 990 52 942 52 870 L57 870 L57 870 Z M338 15 L331 15 C282 15 250 55 250 115 L250 635 C250 695 282 735 331 735 L338 735 C341.864 735 345 738.136 345 742 L345 742.5 C345 746.64 341.64 750 337.5 750 L62.5 750 C58.3602 750 55 746.64 55 742.5 L55 742 C55 738.136 58.1362 735 62 735 L69 735 C118 735 150 695 150 635 L150 115 C150 55 118 15 69 15 L62 15 C58.1362 15 55 11.8638 55 8 L55 7.5 C55 3.36022 58.3602 0 62.5 0 L337.5 0 C341.64 0 345 3.36022 345 7.5 L345 8 C345 11.8638 341.864 15 338 15 L338 15 Z " />
<glyph glyph-name="itilde" unicode="&#x129;" horiz-adv-x="340" d="M35 620 C35 656 53 680 79 680 C131 680 200 615 252 615 C296 615 325 663 325 735 L320 735 C320 699 301 675 272 675 C220 675 150 740 98 740 C57 740 30 692 30 620 L35 620 L35 620 Z M65.5 455.5 L71 457 C109 467 135 448 135 409 L135 80 C135 41 109 15 71 15 L65.5 15 C62.4642 15 60 12.5358 60 9.5 L60 7.5 C60 3.36022 63.3602 0 67.5 0 L287.5 0 C291.64 0 295 3.36022 295 7.5 L295 9.5 C295 12.5358 292.536 15 289.5 15 L284 15 C246 15 220 41 220 80 L220 478.999 C220 490.59 210.591 500.112 199 500.25 L184.8 500.419 C183.803 500.431 172.659 498.912 171.7 498.639 C160.263 495.382 147.632 492.368 135 489 C112.059 482.824 88.3391 476.647 67.9625 471.158 C64.0905 470.114 60 465.51 60 461.5 L60 459.701 C60 456.665 62.5711 454.701 65.5 455.5 L65.5 455.5 Z " />
<glyph glyph-name="Imacron" unicode="&#x12a;" horiz-adv-x="405" d="M79.5 895 L320.5 895 C336.783 895 350 908.217 350 924.5 C350 940.783 336.783 954 320.5 954 L79.5 954 C63.2169 954 50 940.783 50 924.5 C50 908.217 63.2169 895 79.5 895 L79.5 895 Z M338 15 L331 15 C282 15 250 55 250 115 L250 635 C250 695 282 735 331 735 L338 735 C341.864 735 345 738.136 345 742 L345 742.5 C345 746.64 341.64 750 337.5 750 L62.5 750 C58.3602 750 55 746.64 55 742.5 L55 742 C55 738.136 58.1362 735 62 735 L69 735 C118 735 150 695 150 635 L150 115 C150 55 118 15 69 15 L62 15 C58.1362 15 55 11.8638 55 8 L55 7.5 C55 3.36022 58.3602 0 62.5 0 L337.5 0 C341.64 0 345 3.36022 345 7.5 L345 8 C345 11.8638 341.864 15 338 15 L338 15 Z " />
<glyph glyph-name="imacron" unicode="&#x12b;" horiz-adv-x="340" d="M57.5 645 L298.5 645 C314.783 645 328 658.217 328 674.5 C328 690.783 314.783 704 298.5 704 L57.5 704 C41.2169 704 28 690.783 28 674.5 C28 658.217 41.2169 645 57.5 645 L57.5 645 Z M65.5 455.5 L71 457 C109 467 135 448 135 409 L135 80 C135 41 109 15 71 15 L65.5 15 C62.4642 15 60 12.5358 60 9.5 L60 7.5 C60 3.36022 63.3602 0 67.5 0 L287.5 0 C291.64 0 295 3.36022 295 7.5 L295 9.5 C295 12.5358 292.536 15 289.5 15 L284 15 C246 15 220 41 220 80 L220 478.999 C220 490.59 210.591 500.112 199 500.25 L184.8 500.419 C183.803 500.431 172.659 498.912 171.7 498.639 C160.263 495.382 147.632 492.368 135 489 C112.059 482.824 88.3391 476.647 67.9625 471.158 C64.0905 470.114 60 465.51 60 461.5 L60 459.701 C60 456.665 62.5711 454.701 65.5 455.5 L65.5 455.5 Z " />
<glyph glyph-name="Ibreve" unicode="&#x12c;" horiz-adv-x="405" d="M66.3991 983.083 C77.45 915.125 129.7 870 200 870 C271.25 870 323.548 914.222 333.743 981.233 C334.555 986.568 331.323 992.613 326 993.5 C321.841 994.193 316.638 990.535 315.593 986.45 C306.837 952.246 261.975 930 200 930 C138.025 930 94.0181 953.102 84.5999 988.225 C83.4964 992.341 78.2028 996.2 74 995.5 C68.6884 994.615 65.5348 988.398 66.3991 983.083 L66.3991 983.083 Z M338 15 L331 15 C282 15 250 55 250 115 L250 635 C250 695 282 735 331 735 L338 735 C341.864 735 345 738.136 345 742 L345 742.5 C345 746.64 341.64 750 337.5 750 L62.5 750 C58.3602 750 55 746.64 55 742.5 L55 742 C55 738.136 58.1362 735 62 735 L69 735 C118 735 150 695 150 635 L150 115 C150 55 118 15 69 15 L62 15 C58.1362 15 55 11.8638 55 8 L55 7.5 C55 3.36022 58.3602 0 62.5 0 L337.5 0 C341.64 0 345 3.36022 345 7.5 L345 8 C345 11.8638 341.864 15 338 15 L338 15 Z " />
<glyph glyph-name="ibreve" unicode="&#x12d;" horiz-adv-x="340" d="M44.3991 733.083 C55.45 665.125 107.7 620 178 620 C248.3 620 300.55 664.222 310.743 731.233 C311.555 736.568 308.322 742.613 303 743.5 C298.84 744.193 293.638 740.535 292.593 736.45 C283.843 702.246 239.05 680 178 680 C116.025 680 72.0181 703.102 62.5999 738.225 C61.4964 742.341 56.2028 746.2 52 745.5 C46.6884 744.615 43.5348 738.398 44.3991 733.083 L44.3991 733.083 Z M65.5 455.5 L71 457 C109 467 135 448 135 409 L135 80 C135 41 109 15 71 15 L65.5 15 C62.4642 15 60 12.5358 60 9.5 L60 7.5 C60 3.36022 63.3602 0 67.5 0 L287.5 0 C291.64 0 295 3.36022 295 7.5 L295 9.5 C295 12.5358 292.536 15 289.5 15 L284 15 C246 15 220 41 220 80 L220 478.999 C220 490.59 210.591 500.112 199 500.25 L184.8 500.419 C183.803 500.431 172.659 498.912 171.7 498.639 C160.263 495.382 147.632 492.368 135 489 C112.059 482.824 88.3391 476.647 67.9625 471.158 C64.0905 470.114 60 465.51 60 461.5 L60 459.701 C60 456.665 62.5711 454.701 65.5 455.5 L65.5 455.5 Z " />
<glyph glyph-name="Idot" unicode="&#x130;" horiz-adv-x="405" d="M200 865 C233 865 255 887 255 920 C255 953 233 975 200 975 C167 975 145 953 145 920 C145 887 167 865 200 865 L200 865 Z M338 15 L331 15 C282 15 250 55 250 115 L250 635 C250 695 282 735 331 735 L338 735 C341.864 735 345 738.136 345 742 L345 742.5 C345 746.64 341.64 750 337.5 750 L62.5 750 C58.3602 750 55 746.64 55 742.5 L55 742 C55 738.136 58.1362 735 62 735 L69 735 C118 735 150 695 150 635 L150 115 C150 55 118 15 69 15 L62 15 C58.1362 15 55 11.8638 55 8 L55 7.5 C55 3.36022 58.3602 0 62.5 0 L337.5 0 C341.64 0 345 3.36022 345 7.5 L345 8 C345 11.8638 341.864 15 338 15 L338 15 Z " />
<glyph glyph-name="dotlessi" unicode="&#x131;" horiz-adv-x="340" d="M65.5 455.5 L71 457 C109 467 135 448 135 409 L135 80 C135 41 109 15 71 15 L65.5 15 C62.4642 15 60 12.5358 60 9.5 L60 7.5 C60 3.36022 63.3602 0 67.5 0 L287.5 0 C291.64 0 295 3.36022 295 7.5 L295 9.5 C295 12.5358 292.536 15 289.5 15 L284 15 C246 15 220 41 220 80 L220 478.999 C220 490.59 210.591 500.112 199 500.25 L184.8 500.419 C183.803 500.431 172.659 498.912 171.7 498.639 C160.263 495.382 147.632 492.368 135 489 C112.059 482.824 88.3391 476.647 67.9625 471.158 C64.0905 470.114 60 465.51 60 461.5 L60 459.701 C60 456.665 62.5711 454.701 65.5 455.5 L65.5 455.5 Z " />
<glyph glyph-name="Jcircumflex" unicode="&#x134;" horiz-adv-x="405" d="M230 1005 C224 1014 210 1035 200 1035 C190 1035 176 1014 170 1005 L52.2357 822.562 C49.915 818.967 50.7126 813.739 54 811 C57.2971 808.252 62.4968 808.479 65.5424 811.503 L160.319 905.602 C182.221 927.348 217.779 927.348 239.681 905.602 L334.458 811.503 C337.503 808.479 342.703 808.252 346 811 C349.287 813.739 350.085 818.967 347.764 822.562 L230 1005 L230 1005 Z M337.5 750 L62.5 750 C58.3602 750 55 746.64 55 742.5 L55 742 C55 738.136 58.1362 735 62 735 L69 735 C118 735 150 695 150 635 L150 -73 C150 -187 82 -209 33 -209 C-16 -209 8 -129 -42 -129 C-69 -129 -87 -147 -87 -174 C-87 -202 -42 -220 25 -220 C120 -220 250 -166 250 117 L250 635 C250 695 282 735 331 735 L338 735 C341.864 735 345 738.136 345 742 L345 742.5 C345 746.64 341.64 750 337.5 750 L337.5 750 Z " />
<glyph glyph-name="Lacute" unicode="&#x139;" horiz-adv-x="670" d="M212.941 817.02 L349 932 C387 965 413 990 413 996 C413 1019 394 1038 371 1038 C365 1038 342 1011 310 971 L200.746 829.162 C198.148 825.789 198.489 820.511 201.5 817.5 C204.525 814.475 209.673 814.259 212.941 817.02 L212.941 817.02 Z M338 750 L62.5 750 C58.3602 750 55 746.64 55 742.5 L55 742 C55 738.136 58.1362 735 62 735 L69 735 C118 735 150 695 150 635 L150 115 C150 55 118 15 69 15 L62 15 C58.1362 15 55 11.8638 55 8 L55 7.5 C55 3.36022 58.3602 0 62.5 0 L580.493 0 C582.977 0 585.112 2.01996 585.25 4.5 L585.361 6.4914 C585.373 6.70539 585.271 11.2867 585.25 11.5 C585.214 11.8607 585.469 16.8164 585.529 17.174 C592.094 56.6096 600.307 106.591 607.793 145.748 C608.553 149.727 605.55 152 601.5 152 C597.656 152 592.642 148.605 591.215 145.036 L586 132 C563 67 493 23 408 18 C407.734 17.9843 397.85 18.6122 397.585 18.6315 C265.21 28.2194 250 91.375 250 184 L250 636 C250 696 282 736 331 736 L338 736 C341.864 736 345 739.136 345 743 C345 746.864 341.864 750 338 750 L338 750 Z " />
<glyph glyph-name="Lcaron" unicode="&#x13d;" horiz-adv-x="670" d="M446 808 C429 808 419 745 415 700 L405.686 596.618 C405.31 592.437 408.384 588.323 412.5 587.5 C416.588 586.682 421.212 589.262 422.663 593.17 L459 691 C474 730 484 772 484 796 C484 805 469 808 446 808 L446 808 Z M338 750 L62.5 750 C58.3602 750 55 746.64 55 742.5 L55 742 C55 738.136 58.1362 735 62 735 L69 735 C118 735 150 695 150 635 L150 115 C150 55 118 15 69 15 L62 15 C58.1362 15 55 11.8638 55 8 L55 7.5 C55 3.36022 58.3602 0 62.5 0 L580.493 0 C582.977 0 585.112 2.01996 585.25 4.5 L585.361 6.4914 C585.373 6.70539 585.271 11.2867 585.25 11.5 C585.214 11.8607 585.469 16.8164 585.529 17.174 C592.094 56.6096 600.307 106.591 607.793 145.748 C608.553 149.727 605.55 152 601.5 152 C597.656 152 592.642 148.605 591.215 145.036 L586 132 C563 67 493 23 408 18 C407.734 17.9843 397.85 18.6122 397.585 18.6315 C265.21 28.2194 250 91.375 250 184 L250 636 C250 696 282 736 331 736 L338 736 C341.864 736 345 739.136 345 743 C345 746.864 341.864 750 338 750 L338 750 Z " />
<glyph glyph-name="lcaron" unicode="&#x13e;" horiz-adv-x="284" d="M266 758 C249 758 239 695 235 650 L225.686 546.618 C225.31 542.437 228.384 538.323 232.5 537.5 C236.588 536.682 241.212 539.262 242.663 543.17 L279 641 C294 680 304 722 304 746 C304 755 289 758 266 758 L266 758 Z M24 709 L30 709 C68 710 94 674 94 617 L94 80 C94 41 68 15 30 15 L24.5 15 C21.4642 15 19 12.5358 19 9.5 L19 7.5 C19 3.36022 22.3602 0 26.5 0 L246.5 0 C250.64 0 254 3.36022 254 7.5 L254 9.5 C254 12.5358 251.536 15 248.5 15 L243 15 C205 15 179 41 179 80 L179 728.999 C179 740.59 169.591 750.112 158 750.25 L143.8 750.419 C142.803 750.431 131.659 748.912 130.7 748.639 C119.263 745.382 106.632 742.368 94 739 C69.5294 732.412 44.173 725.824 22.933 720.069 C20.3574 719.371 19 716.668 19 714 C19 711.24 21.2402 709 24 709 L24 709 Z " />
<glyph glyph-name="Nacute" unicode="&#x143;" horiz-adv-x="806" d="M312.941 817.02 L449 932 C487 965 513 990 513 996 C513 1019 494 1038 471 1038 C465 1038 442 1011 410 971 L300.746 829.162 C298.148 825.789 298.489 820.511 301.5 817.5 C304.525 814.475 309.673 814.259 312.941 817.02 L312.941 817.02 Z M-5 735 L2 735 C43.4 735 95.33 705.84 135.92 661.371 C141.425 655.34 148.978 634.497 148.963 626.331 L148 115 C148 55 115 15 67 15 L60 15 C56.1362 15 53 11.8638 53 8 L53 7.5 C53 3.36022 56.3602 0 60.5 0 L266.5 0 C270.64 0 274 3.36022 274 7.5 L274 8 C274 11.8638 270.864 15 267 15 L260 15 C214 15 182 50 178 103 L175.745 484.095 C175.504 524.873 229.149 536.273 253.306 503.42 C372.737 340.995 492.584 178.459 611.823 15.2981 C614.452 11.7013 628.545 0 633 0 C638.519 0 643.098 10.3808 643.15 15.9 C645.101 222.599 647.075 429.275 650 635 C651 695 683 735 732 735 L739 735 C742.864 735 746 738.136 746 742 L746 742.5 C746 746.64 742.64 750 738.5 750 L532.5 750 C528.36 750 525 746.64 525 742.5 L525 742 C525 738.136 528.136 735 532 735 L539 735 C588 735 620 695 620 635 L621.484 290.025 C621.649 251.687 568.879 243.714 546.349 274.733 C434.313 428.98 320.835 581.784 207.925 735.156 C200.421 745.348 181.173 750 168.516 750 L-4.5 750 C-8.63978 750 -12 746.64 -12 742.5 L-12 742 C-12 738.136 -8.86379 735 -5 735 L-5 735 Z " />
<glyph glyph-name="Ncaron" unicode="&#x147;" horiz-adv-x="806" d="M533.458 1038.5 L438.681 944.398 C416.779 922.652 381.221 922.652 359.319 944.398 L264.542 1038.5 C261.497 1041.52 256.297 1041.75 253 1039 C249.713 1036.26 248.915 1031.03 251.236 1027.44 L369 845 C375 836 389 815 399 815 C409 815 423 836 429 845 L546.764 1027.44 C549.085 1031.03 548.287 1036.26 545 1039 C541.703 1041.75 536.503 1041.52 533.458 1038.5 L533.458 1038.5 Z M-5 735 L2 735 C43.4 735 95.33 705.84 135.92 661.371 C141.425 655.34 148.978 634.497 148.963 626.331 L148 115 C148 55 115 15 67 15 L60 15 C56.1362 15 53 11.8638 53 8 L53 7.5 C53 3.36022 56.3602 0 60.5 0 L266.5 0 C270.64 0 274 3.36022 274 7.5 L274 8 C274 11.8638 270.864 15 267 15 L260 15 C214 15 182 50 178 103 L175.745 484.095 C175.504 524.873 229.149 536.273 253.306 503.42 C372.737 340.995 492.584 178.459 611.823 15.2981 C614.452 11.7013 628.545 0 633 0 C638.519 0 643.098 10.3808 643.15 15.9 C645.101 222.599 647.075 429.275 650 635 C651 695 683 735 732 735 L739 735 C742.864 735 746 738.136 746 742 L746 742.5 C746 746.64 742.64 750 738.5 750 L532.5 750 C528.36 750 525 746.64 525 742.5 L525 742 C525 738.136 528.136 735 532 735 L539 735 C588 735 620 695 620 635 L621.484 290.025 C621.649 251.687 568.879 243.714 546.349 274.733 C434.313 428.98 320.835 581.784 207.925 735.156 C200.421 745.348 181.173 750 168.516 750 L-4.5 750 C-8.63978 750 -12 746.64 -12 742.5 L-12 742 C-12 738.136 -8.86379 735 -5 735 L-5 735 Z " />
<glyph glyph-name="ncaron" unicode="&#x148;" horiz-adv-x="589" d="M423.458 788.497 L328.681 694.398 C306.779 672.652 271.221 672.652 249.319 694.398 L154.542 788.497 C151.497 791.521 146.297 791.748 143 789 C139.713 786.261 138.915 781.033 141.236 777.438 L259 595 C265 586 279 565 289 565 C299 565 313 586 319 595 L436.764 777.438 C439.085 781.033 438.287 786.261 435 789 C431.703 791.748 426.503 791.521 423.458 788.497 L423.458 788.497 Z M24 459 L30 459 C68 460 94 424 94 367 L94 80 C94 41 68 15 30 15 L24.5 15 C21.4642 15 19 12.5358 19 9.5 L19 7.5 C19 3.36022 22.3602 0 26.5 0 L246.5 0 C250.64 0 254 3.36022 254 7.5 L254 9.5 C254 12.5358 251.536 15 248.5 15 L243 15 C205 15 179 41 179 80 L179 354.873 C179 360.152 183.858 378.114 186.801 382.496 C220.372 432.486 271.825 465 319 465 C372 465 399 411 399 330 L399 80 C399 41 373 15 335 15 L329.5 15 C326.464 15 324 12.5358 324 9.5 L324 7.5 C324 3.36022 327.36 0 331.5 0 L551.5 0 C555.64 0 559 3.36022 559 7.5 L559 9.5 C559 12.5358 556.536 15 553.5 15 L548 15 C510 15 484 41 484 80 L484 330 C484 438 437 510 347 510 C299.975 510 245.463 475.969 203.679 421.944 C196.716 412.941 179 416.845 179 428.226 L179 478.999 C179 490.59 169.591 500.112 158 500.25 L143.8 500.419 C142.803 500.431 131.659 498.912 130.7 498.639 C119.263 495.382 106.632 492.368 94 489 C69.5294 482.412 44.173 475.824 22.933 470.069 C20.3574 469.371 19 466.668 19 464 C19 461.24 21.2402 459 24 459 L24 459 Z " />
<glyph glyph-name="Omacron" unicode="&#x14c;" horiz-adv-x="851" d="M297.5 895 L538.5 895 C554.783 895 568 908.217 568 924.5 C568 940.783 554.783 954 538.5 954 L297.5 954 C281.217 954 268 940.783 268 924.5 C268 908.217 281.217 895 297.5 895 L297.5 895 Z M159 375 C159 601 262 752 417 752 C579 752 687 601 687 375 C687 149 576 -2 410 -2 C259 -2 159 149 159 375 L159 375 Z M50 375 C50 144 193 -10 408 -10 C641 -10 796 144 796 375 C796 606 645 760 418 760 C197 760 50 606 50 375 L50 375 Z " />
<glyph glyph-name="omacron" unicode="&#x14d;" horiz-adv-x="614" d="M186.5 645 L427.5 645 C443.783 645 457 658.217 457 674.5 C457 690.783 443.783 704 427.5 704 L186.5 704 C170.217 704 157 690.783 157 674.5 C157 658.217 170.217 645 186.5 645 L186.5 645 Z M139 250 C139 401 206 502 307 502 C407 502 474 401 474 250 C474 99 407 -2 307 -2 C206 -2 139 99 139 250 L139 250 Z M45 250 C45 94 150 -10 307 -10 C464 -10 569 94 569 250 C569 406 464 510 307 510 C150 510 45 406 45 250 L45 250 Z " />
<glyph glyph-name="Obreve" unicode="&#x14e;" horiz-adv-x="851" d="M284.399 983.083 C295.45 915.125 347.7 870 418 870 C489.25 870 541.548 914.222 551.743 981.233 C552.555 986.568 549.323 992.613 544 993.5 C539.841 994.193 534.638 990.535 533.593 986.45 C524.838 952.246 479.975 930 418 930 C356.025 930 312.018 953.102 302.6 988.225 C301.496 992.341 296.203 996.2 292 995.5 C286.688 994.615 283.535 988.398 284.399 983.083 L284.399 983.083 Z M159 375 C159 601 262 752 417 752 C579 752 687 601 687 375 C687 149 576 -2 410 -2 C259 -2 159 149 159 375 L159 375 Z M50 375 C50 144 193 -10 408 -10 C641 -10 796 144 796 375 C796 606 645 760 418 760 C197 760 50 606 50 375 L50 375 Z " />
<glyph glyph-name="obreve" unicode="&#x14f;" horiz-adv-x="614" d="M173.399 733.083 C184.45 665.125 236.7 620 307 620 C378.25 620 430.547 664.222 440.743 731.233 C441.555 736.568 438.323 742.613 433 743.5 C428.841 744.193 423.638 740.535 422.593 736.45 C413.838 702.246 368.975 680 307 680 C245.025 680 201.018 703.102 191.6 738.225 C190.496 742.341 185.203 746.2 181 745.5 C175.688 744.615 172.535 738.398 173.399 733.083 L173.399 733.083 Z M139 250 C139 401 206 502 307 502 C407 502 474 401 474 250 C474 99 407 -2 307 -2 C206 -2 139 99 139 250 L139 250 Z M45 250 C45 94 150 -10 307 -10 C464 -10 569 94 569 250 C569 406 464 510 307 510 C150 510 45 406 45 250 L45 250 Z " />
<glyph glyph-name="Racute" unicode="&#x154;" horiz-adv-x="816" d="M345.677 816.798 L482 932 C520 965 546 990 546 996 C546 1019 527 1038 504 1038 C498 1038 474 1011 443 971 L334.511 828.908 C332.062 825.7 332.285 820.486 335 817.5 C337.758 814.466 342.546 814.151 345.677 816.798 L345.677 816.798 Z M67 735 L74 735 C123 735 155 695 155 635 L155 115 C155 55 123 15 74 15 L67 15 C63.1362 15 60 11.8638 60 8 L60 7.5 C60 3.36022 63.3602 0 67.5 0 L342.5 0 C346.64 0 350 3.36022 350 7.5 L350 8 C350 11.8638 346.864 15 343 15 L336 15 C287 15 255 55 255 115 L255 304.5 C255 332.374 277.626 355 305.5 355 L334.728 355 C344.163 355 361.241 345.994 366.262 338.006 C395.656 291.234 462.375 195.75 549 75 C599.7 4.8 610.474 0.193125 791.718 0.00665625 C795.862 0.00239277 806 3.35597 806 7.5 C806 11.6335 803.32 14.9984 799.186 15.0046 C712.678 15.135 705.975 18.45 666 75 C580.15 194.85 513.085 288.69 475.859 340.553 C468.53 350.764 475.812 367.695 487.836 371.356 C570.78 396.61 621 450.7 621 538 C621 665 517 750 360 750 L67.5 750 C63.3602 750 60 746.64 60 742.5 L60 742 C60 738.136 63.1362 735 67 735 L67 735 Z M255 432.5 L255 692.5 C255 713.199 271.801 730 292.5 730 L330 730 C438 730 510 661 510 558 C510 435 450 380 360 380 L307.5 380 C278.522 380 255 403.522 255 432.5 L255 432.5 Z " />
<glyph glyph-name="Rcaron" unicode="&#x158;" horiz-adv-x="816" d="M467.707 1038.78 L371.68 944.117 C349.779 922.527 314.284 922.59 292.46 944.258 L197.275 1038.76 C194.367 1041.65 189.532 1041.76 186.5 1039 C183.505 1036.28 182.836 1031.16 185.031 1027.76 L303 845 C309 836 323 815 333 815 C343 815 357 836 363 845 L479.992 1027.74 C482.173 1031.15 481.493 1036.28 478.5 1039 C475.469 1041.76 470.624 1041.66 467.707 1038.78 L467.707 1038.78 Z M67 735 L74 735 C123 735 155 695 155 635 L155 115 C155 55 123 15 74 15 L67 15 C63.1362 15 60 11.8638 60 8 L60 7.5 C60 3.36022 63.3602 0 67.5 0 L342.5 0 C346.64 0 350 3.36022 350 7.5 L350 8 C350 11.8638 346.864 15 343 15 L336 15 C287 15 255 55 255 115 L255 304.5 C255 332.374 277.626 355 305.5 355 L334.728 355 C344.163 355 361.241 345.994 366.262 338.006 C395.656 291.234 462.375 195.75 549 75 C599.7 4.8 610.474 0.193125 791.718 0.00665625 C795.862 0.00239277 806 3.35597 806 7.5 C806 11.6335 803.32 14.9984 799.186 15.0046 C712.678 15.135 705.975 18.45 666 75 C580.15 194.85 513.085 288.69 475.859 340.553 C468.53 350.764 475.812 367.695 487.836 371.356 C570.78 396.61 621 450.7 621 538 C621 665 517 750 360 750 L67.5 750 C63.3602 750 60 746.64 60 742.5 L60 742 C60 738.136 63.1362 735 67 735 L67 735 Z M255 432.5 L255 692.5 C255 713.199 271.801 730 292.5 730 L330 730 C438 730 510 661 510 558 C510 435 450 380 360 380 L307.5 380 C278.522 380 255 403.522 255 432.5 L255 432.5 Z " />
<glyph glyph-name="rcaron" unicode="&#x159;" horiz-adv-x="430" d="M384.458 788.497 L289.681 694.398 C267.779 672.652 232.221 672.652 210.319 694.398 L115.542 788.497 C112.497 791.521 107.297 791.748 104 789 C100.713 786.261 99.915 781.033 102.236 777.438 L220 595 C226 586 240 565 250 565 C260 565 274 586 280 595 L397.764 777.438 C400.085 781.033 399.287 786.261 396 789 C392.703 791.748 387.503 791.521 384.458 788.497 L384.458 788.497 Z M25 459 L31 459 C69 460 95 424 95 367 L95 80 C95 41 69 15 31 15 L25.5 15 C22.4642 15 20 12.5358 20 9.5 L20 7.5 C20 3.36022 23.3602 0 27.5 0 L247.5 0 C251.64 0 255 3.36022 255 7.5 L255 9.5 C255 12.5358 252.536 15 249.5 15 L244 15 C206 15 180 41 180 80 L180 369.078 C180 371.467 182.237 384.893 183.155 387.098 C204.108 437.412 243.2 469 285 469 C306 469 320 455 320 434 C320 404 340 384 370 384 C400 384 420 404 420 434 C420 479 382 509 325 509 C273.025 509 225.814 478.372 196.283 428.346 C192.779 422.41 180 424.443 180 431.336 L180 478.999 C180 490.59 170.591 500.112 159 500.25 L144.8 500.419 C143.803 500.431 132.659 498.912 131.7 498.639 C120.263 495.382 107.632 492.368 95 489 C70.5294 482.412 45.173 475.824 23.933 470.069 C21.3574 469.371 20 466.668 20 464 C20 461.24 22.2402 459 25 459 L25 459 Z " />
<glyph glyph-name="Sacute" unicode="&#x15a;" horiz-adv-x="551" d="M287.941 817.02 L424 932 C462 965 488 990 488 996 C488 1019 469 1038 446 1038 C440 1038 417 1011 385 971 L275.746 829.162 C273.148 825.789 273.489 820.511 276.5 817.5 C279.525 814.475 284.673 814.259 287.941 817.02 L287.941 817.02 Z M50 240 L50 -3 C50 -6.86379 53.1362 -10 57 -10 C60.8221 -10 64.4657 -6.85639 65.0258 -3.07558 L68 17 C72 45 115 45 176 18 C194 9 214.5 1.5 233.5 -4.5 C252.5 -9.5 272 -10 292 -10 C423 -10 511 72 511 196 C511 293 447 382 322 427 C204 470 143 536 143 601 C143 699 192 759 273 751 C349 744 416 673 442 573 L448.369 549.648 C449.77 544.51 455.675 540 461 540 C466.52 540 471 544.48 471 550 L471 757 C471 760.864 467.864 764 464 764 C460.211 764 456.37 760.851 455.627 757.136 L453 744 C449.1 724.5 409.076 722.111 359.808 739.614 C359.547 739.707 352.124 743.042 351.878 743.169 C328.429 755.222 303.421 763.23 277.57 766.477 C275.349 766.756 273 765.239 273 763 C273 760.867 265.763 759.373 263.631 759.436 C142.902 762.972 64 683.9 64 563 C64 462 131 371 262 323 C374 282 431 224 431 167 C431 47 349 -27 238 9 C169 32 105 115 79 217 L72.6312 240.352 C71.23 245.49 65.3252 250 60 250 C54.4803 250 50 245.52 50 240 L50 240 Z " />
<glyph glyph-name="Scircumflex" unicode="&#x15c;" horiz-adv-x="551" d="M304 1005 C298 1014 284 1035 274 1035 C264 1035 250 1014 244 1005 L126.236 822.562 C123.915 818.967 124.713 813.739 128 811 C131.297 808.252 136.497 808.479 139.542 811.503 L234.319 905.602 C256.221 927.348 291.779 927.348 313.681 905.602 L408.458 811.503 C411.503 808.479 416.703 808.252 420 811 C423.287 813.739 424.085 818.967 421.764 822.562 L304 1005 L304 1005 Z M50 240 L50 -3 C50 -6.86379 53.1362 -10 57 -10 C60.8221 -10 64.4657 -6.85639 65.0258 -3.07558 L68 17 C72 45 115 45 176 18 C194 9 214.5 1.5 233.5 -4.5 C252.5 -9.5 272 -10 292 -10 C423 -10 511 72 511 196 C511 293 447 382 322 427 C204 470 143 536 143 601 C143 699 192 759 273 751 C349 744 416 673 442 573 L448.369 549.648 C449.77 544.51 455.675 540 461 540 C466.52 540 471 544.48 471 550 L471 757 C471 760.864 467.864 764 464 764 C460.211 764 456.37 760.851 455.627 757.136 L453 744 C449.1 724.5 409.076 722.111 359.808 739.614 C359.547 739.707 352.124 743.042 351.878 743.169 C328.429 755.222 303.421 763.23 277.57 766.477 C275.349 766.756 273 765.239 273 763 C273 760.867 265.763 759.373 263.631 759.436 C142.902 762.972 64 683.9 64 563 C64 462 131 371 262 323 C374 282 431 224 431 167 C431 47 349 -27 238 9 C169 32 105 115 79 217 L72.6312 240.352 C71.23 245.49 65.3252 250 60 250 C54.4803 250 50 245.52 50 240 L50 240 Z " />
<glyph glyph-name="Scaron" unicode="&#x160;" horiz-adv-x="551" d="M408.458 1038.5 L313.681 944.398 C291.779 922.652 256.221 922.652 234.319 944.398 L139.542 1038.5 C136.497 1041.52 131.297 1041.75 128 1039 C124.713 1036.26 123.915 1031.03 126.236 1027.44 L244 845 C250 836 264 815 274 815 C284 815 298 836 304 845 L421.764 1027.44 C424.085 1031.03 423.287 1036.26 420 1039 C416.703 1041.75 411.503 1041.52 408.458 1038.5 L408.458 1038.5 Z M50 240 L50 -3 C50 -6.86379 53.1362 -10 57 -10 C60.8221 -10 64.4657 -6.85639 65.0258 -3.07558 L68 17 C72 45 115 45 176 18 C194 9 214.5 1.5 233.5 -4.5 C252.5 -9.5 272 -10 292 -10 C423 -10 511 72 511 196 C511 293 447 382 322 427 C204 470 143 536 143 601 C143 699 192 759 273 751 C349 744 416 673 442 573 L448.369 549.648 C449.77 544.51 455.675 540 461 540 C466.52 540 471 544.48 471 550 L471 757 C471 760.864 467.864 764 464 764 C460.211 764 456.37 760.851 455.627 757.136 L453 744 C449.1 724.5 409.076 722.111 359.808 739.614 C359.547 739.707 352.124 743.042 351.878 743.169 C328.429 755.222 303.421 763.23 277.57 766.477 C275.349 766.756 273 765.239 273 763 C273 760.867 265.763 759.373 263.631 759.436 C142.902 762.972 64 683.9 64 563 C64 462 131 371 262 323 C374 282 431 224 431 167 C431 47 349 -27 238 9 C169 32 105 115 79 217 L72.6312 240.352 C71.23 245.49 65.3252 250 60 250 C54.4803 250 50 245.52 50 240 L50 240 Z " />
<glyph glyph-name="scaron" unicode="&#x161;" horiz-adv-x="428" d="M352.458 788.497 L257.681 694.398 C235.779 672.652 200.221 672.652 178.319 694.398 L83.5424 788.497 C80.4968 791.521 75.2971 791.748 72 789 C68.7126 786.261 67.915 781.033 70.2357 777.438 L188 595 C194 586 208 565 218 565 C228 565 242 586 248 595 L365.764 777.438 C368.085 781.033 367.287 786.261 364 789 C360.703 791.748 355.503 791.521 352.458 788.497 L352.458 788.497 Z M353 337.523 L353 514.5 C353 517.536 350.536 520 347.5 520 C344.516 520 341.536 517.527 340.986 514.594 L339 504 C339 502.1 309.217 502.907 262.513 505.565 C261.4 505.628 247.229 509.137 246.18 509.515 C234.303 513.788 221.993 516.379 209.636 516.902 C207.624 516.987 205 515.514 205 513.5 C205 511.626 200.403 509.959 198.53 509.903 C115.136 507.383 60 456.025 60 379 C60 304 108 242 200 217 C275 197 314 154 314 106 C314 32 263 -21 191 0 C189.654 0.392561 191.225 1.12522 191.5 2.5 C191.771 3.85265 191.106 5.14441 189.75 5.39819 C180 7.22314 170.25 10.3271 160.5 14.1738 C159.397 14.6089 150.868 19.6732 149.926 20.3934 C111.953 49.4325 83.5 101.35 74 165 L72.5689 180.027 C72.2563 183.309 69.2969 186 66 186 C62.6882 186 60 183.312 60 180 L60 -6.5 C60 -9.53584 62.4642 -12 65.5 -12 C68.4896 -12 71.4363 -9.52784 71.9558 -6.58369 L74 5 C74.95 8.8 106.585 6.2825 156.902 -2.5525 C157.591 -2.67353 170.793 -6.71276 171.435 -6.98962 C180.834 -11.0381 190.611 -13.917 199.872 -15.6263 C201.552 -15.9363 202.219 -14.6847 202.5 -13 C202.765 -11.4074 209.126 -10.5134 210.738 -10.6139 C310.506 -16.8356 378 45.15 378 129 C378 198 330 257 237 282 C159 303 119 351 119 408 C119 467.475 156.074 506.987 213.54 502.437 C215.27 502.3 217.785 500.712 217.5 499 C217.229 497.372 217.747 495.959 219.392 495.835 C232.112 494.875 244.193 492.635 255.632 489.115 C257.036 488.683 266.568 484.059 267.774 483.221 C303.85 458.162 330.45 411.85 339 352 L341.219 336.467 C341.65 333.453 344.468 331.224 347.5 331.5 C350.523 331.775 353 334.487 353 337.523 L353 337.523 Z " />
<glyph glyph-name="Tcaron" unicode="&#x164;" horiz-adv-x="775" d="M522.458 1038.5 L427.681 944.398 C405.779 922.652 370.221 922.652 348.319 944.398 L253.542 1038.5 C250.497 1041.52 245.297 1041.75 242 1039 C238.713 1036.26 237.915 1031.03 240.236 1027.44 L358 845 C364 836 378 815 388 815 C398 815 412 836 418 845 L535.764 1027.44 C538.085 1031.03 537.287 1036.26 534 1039 C530.703 1041.75 525.503 1041.52 522.458 1038.5 L522.458 1038.5 Z M685 801 L683 797 C671 769 612 750 534 750 L241 750 C163 750 104 769 92 797 L90 801 C89.0126 802.975 85.7357 805 83.5279 805 L82.5 805 C79.6842 805 75.9967 802.51 74.9442 799.899 L51.0064 740.497 C50.4509 739.119 51.1201 737.552 52.5 737 C53.8776 736.449 54.2115 734.115 53.6408 732.746 C36.7659 692.25 15.8482 638.77 -0.406375 598.423 C-1.83879 594.868 0.666841 592 4.5 592 C8.04983 592 14.0323 595.387 15.8587 598.431 L24 612 C65 681 146 727 227 727 L282 727 C312.358 727 337 702.358 337 672 L337 117 C337 57 305 17 256 17 L249 17 C245.136 17 242 13.8638 242 10 L242 9.5 C242 5.36022 245.36 2 249.5 2 L525.5 2 C529.64 2 533 5.36022 533 9.5 L533 10 C533 13.8638 529.864 17 526 17 L519 17 C470 17 438 57 438 117 L438 672 C438 702.358 462.642 727 493 727 L548 727 C629 727 710 681 751 612 L759.141 598.431 C760.968 595.387 766.95 592 770.5 592 C774.333 592 776.839 594.868 775.406 598.423 C759.152 638.77 738.234 692.25 721.359 732.746 C720.789 734.115 721.122 736.449 722.5 737 L725 738 C724 741 720 747 720 751 L701.148 800.375 C700.009 803.358 696.181 805.765 693 805.5 L691.457 805.371 C689.355 805.196 685.943 802.886 685 801 L685 801 Z " />
<glyph glyph-name="tcaron" unicode="&#x165;" horiz-adv-x="378" d="M310.5 500 L236.32 500 C205.233 500 180 525.233 180 556.32 L180 617 C180 618.656 178.656 620 177 620 C175.79 620 172.777 618.692 171.951 617.809 L33.415 469.652 C32.1276 468.275 30 462.885 30 461 C30 458.24 32.2402 456 35 456 L62.5 456 C80.439 456 95 441.439 95 423.5 L95 160 C95 38 150 -10 232 -10 C289.525 -10 342.297 29.9262 366.217 91.2416 C367.327 94.0863 365.835 96.8659 363 98 C360.41 99.036 356.667 96.3691 355.565 93.8067 C338.987 55.27 300.75 30 258 30 C210 30 178 61 178 141 L179.644 399.039 C179.84 429.927 205.073 455 235.962 455 L310.5 455 C322.919 455 333 465.081 333 477.5 C333 489.919 322.919 500 310.5 500 L310.5 500 Z M425 758 C408 758 398 695 394 650 L384.686 546.618 C384.31 542.437 387.384 538.323 391.5 537.5 C395.588 536.682 400.212 539.262 401.663 543.17 L438 641 C453 680 463 722 463 746 C463 755 448 758 425 758 L425 758 Z " />
<glyph glyph-name="Utilde" unicode="&#x168;" horiz-adv-x="780" d="M245 870 C245 906 263 930 289 930 C341 930 410 865 462 865 C506 865 535 913 535 985 L530 985 C530 949 511 925 482 925 C430 925 360 990 308 990 C267 990 240 942 240 870 L245 870 L245 870 Z M743 52 L736 50 C687 37 655 68 655 128 L655 693.68 C655 724.767 629.767 750 598.68 750 L467.5 750 C463.36 750 460 746.64 460 742.5 L460 742 C460 738.136 463.136 735 467 735 L474 735 C523 735 555 695 555 635 L555 202.554 C555 198.784 550.76 181.369 548.96 178.056 C508.587 103.735 428.55 55 344 55 C270 55 220 121 220 220 L220 693.68 C220 724.767 194.767 750 163.68 750 L32.5 750 C28.3602 750 25 746.64 25 742.5 L25 742 C25 738.136 28.1362 735 32 735 L39 735 C88 735 120 695 120 635 L120 220 C120 82 194 -10 304 -10 C392.275 -10 476.466 32.1987 527.375 99.1893 C534.136 108.086 555 104.944 555 93.7701 L555 25 C555 11.2007 566.201 0 580 0 L598.067 0 C598.953 0 610.786 1.42892 611.647 1.6389 C625.872 5.1095 641.182 8.68182 655 13 C684.6 21.325 715.911 29.65 742.602 37.1835 C746.377 38.249 749.239 42.5862 749.5 46.5 L749.516 46.736 C749.767 50.5094 746.636 53.0389 743 52 L743 52 Z " />
<glyph glyph-name="utilde" unicode="&#x169;" horiz-adv-x="580" d="M142 620 C142 656 160 680 186 680 C238 680 307 615 359 615 C403 615 433 663 433 735 L428 735 C428 699 408 675 379 675 C327 675 258 740 206 740 C165 740 137 692 137 620 L142 620 L142 620 Z M558.5 46.5 L552 45 C509 34 480 66 480 126 L480 443.68 C480 474.767 454.767 500 423.68 500 L327.5 500 C323.36 500 320 496.64 320 492.5 L320 490.5 C320 487.464 322.464 485 325.5 485 L331 485 C369 485 395 459 395 420 L395 144.817 C395 140.545 391.332 124.728 389.171 121.044 C363.478 77.2356 316.95 49 267 49 C212 49 175 93 175 160 L175 443.68 C175 474.767 149.767 500 118.68 500 L22.5 500 C18.3602 500 15 496.64 15 492.5 L15 490.5 C15 487.464 17.4642 485 20.5 485 L26 485 C64 485 90 459 90 420 L90 160 C90 58 145 -10 227 -10 C283.1 -10 337.839 25.3925 374.371 82.7011 C379.212 90.296 395 87.5442 395 78.5374 L395 20.0015 C395 8.41012 404.409 -1.11202 416 -1.25 L429.373 -1.4092 C430.488 -1.42247 444.696 0.523016 445.774 0.806109 C479.726 9.71889 522.274 20.7811 556.226 29.6939 C560.359 30.779 565 35.7263 565 40 L565 41.3292 C565 44.917 561.996 47.3068 558.5 46.5 L558.5 46.5 Z " />
<glyph glyph-name="Umacron" unicode="&#x16a;" horiz-adv-x="780" d="M267.5 895 L508.5 895 C524.783 895 538 908.217 538 924.5 C538 940.783 524.783 954 508.5 954 L267.5 954 C251.217 954 238 940.783 238 924.5 C238 908.217 251.217 895 267.5 895 L267.5 895 Z M743 52 L736 50 C687 37 655 68 655 128 L655 693.68 C655 724.767 629.767 750 598.68 750 L467.5 750 C463.36 750 460 746.64 460 742.5 L460 742 C460 738.136 463.136 735 467 735 L474 735 C523 735 555 695 555 635 L555 202.554 C555 198.784 550.76 181.369 548.96 178.056 C508.587 103.735 428.55 55 344 55 C270 55 220 121 220 220 L220 693.68 C220 724.767 194.767 750 163.68 750 L32.5 750 C28.3602 750 25 746.64 25 742.5 L25 742 C25 738.136 28.1362 735 32 735 L39 735 C88 735 120 695 120 635 L120 220 C120 82 194 -10 304 -10 C392.275 -10 476.466 32.1987 527.375 99.1893 C534.136 108.086 555 104.944 555 93.7701 L555 25 C555 11.2007 566.201 0 580 0 L598.067 0 C598.953 0 610.786 1.42892 611.647 1.6389 C625.872 5.1095 641.182 8.68182 655 13 C684.6 21.325 715.911 29.65 742.602 37.1835 C746.377 38.249 749.239 42.5862 749.5 46.5 L749.516 46.736 C749.767 50.5094 746.636 53.0389 743 52 L743 52 Z " />
<glyph glyph-name="umacron" unicode="&#x16b;" horiz-adv-x="580" d="M164.5 645 L405.5 645 C421.783 645 435 658.217 435 674.5 C435 690.783 421.783 704 405.5 704 L164.5 704 C148.217 704 135 690.783 135 674.5 C135 658.217 148.217 645 164.5 645 L164.5 645 Z M558.5 46.5 L552 45 C509 34 480 66 480 126 L480 443.68 C480 474.767 454.767 500 423.68 500 L327.5 500 C323.36 500 320 496.64 320 492.5 L320 490.5 C320 487.464 322.464 485 325.5 485 L331 485 C369 485 395 459 395 420 L395 144.817 C395 140.545 391.332 124.728 389.171 121.044 C363.478 77.2356 316.95 49 267 49 C212 49 175 93 175 160 L175 443.68 C175 474.767 149.767 500 118.68 500 L22.5 500 C18.3602 500 15 496.64 15 492.5 L15 490.5 C15 487.464 17.4642 485 20.5 485 L26 485 C64 485 90 459 90 420 L90 160 C90 58 145 -10 227 -10 C283.1 -10 337.839 25.3925 374.371 82.7011 C379.212 90.296 395 87.5442 395 78.5374 L395 20.0015 C395 8.41012 404.409 -1.11202 416 -1.25 L429.373 -1.4092 C430.488 -1.42247 444.696 0.523016 445.774 0.806109 C479.726 9.71889 522.274 20.7811 556.226 29.6939 C560.359 30.779 565 35.7263 565 40 L565 41.3292 C565 44.917 561.996 47.3068 558.5 46.5 L558.5 46.5 Z " />
<glyph glyph-name="Ubreve" unicode="&#x16c;" horiz-adv-x="780" d="M254.399 983.083 C265.45 915.125 317.7 870 388 870 C458.3 870 510.55 914.222 520.744 981.233 C521.555 986.568 518.322 992.613 513 993.5 C508.84 994.193 503.638 990.535 502.593 986.45 C493.843 952.246 449.05 930 388 930 C326.025 930 282.018 953.102 272.6 988.225 C271.496 992.341 266.203 996.2 262 995.5 C256.688 994.615 253.535 988.398 254.399 983.083 L254.399 983.083 Z M743 52 L736 50 C687 37 655 68 655 128 L655 693.68 C655 724.767 629.767 750 598.68 750 L467.5 750 C463.36 750 460 746.64 460 742.5 L460 742 C460 738.136 463.136 735 467 735 L474 735 C523 735 555 695 555 635 L555 202.554 C555 198.784 550.76 181.369 548.96 178.056 C508.587 103.735 428.55 55 344 55 C270 55 220 121 220 220 L220 693.68 C220 724.767 194.767 750 163.68 750 L32.5 750 C28.3602 750 25 746.64 25 742.5 L25 742 C25 738.136 28.1362 735 32 735 L39 735 C88 735 120 695 120 635 L120 220 C120 82 194 -10 304 -10 C392.275 -10 476.466 32.1987 527.375 99.1893 C534.136 108.086 555 104.944 555 93.7701 L555 25 C555 11.2007 566.201 0 580 0 L598.067 0 C598.953 0 610.786 1.42892 611.647 1.6389 C625.872 5.1095 641.182 8.68182 655 13 C684.6 21.325 715.911 29.65 742.602 37.1835 C746.377 38.249 749.239 42.5862 749.5 46.5 L749.516 46.736 C749.767 50.5094 746.636 53.0389 743 52 L743 52 Z " />
</font>
</svg>
