<?xml version="1.0" encoding="UTF-8"?>
<svg xmlns="http://www.w3.org/2000/svg" xmlns:xlink="http://www.w3.org/1999/xlink" version="1.2" >
<font id="Jerin Thin">
<font-face  font-family="Jerin" units-per-em="1024" ascent="975" descent="-300" font-style="normal" font-weight="100" font-stretch="normal" cap-height="1041" x-height="488" underline-position="-125" underline-thickness="50" />
<missing-glyph  horiz-adv-x="100" d="" />
<glyph glyph-name="NULL" d="" />
<glyph glyph-name="CR" unicode="&#xd;" horiz-adv-x="256" d="" />
<glyph glyph-name="space" unicode="&#x20;" horiz-adv-x="250" d="" />
<glyph glyph-name="exclam" unicode="&#x21;" horiz-adv-x="164" d="M102 15 C102 41 62 41 62 15 C62 -11 102 -11 102 15 L102 15 Z M82 755 C73 755 69 728 70 688 L80 210 L84 210 L94 688 C95 728 91 755 82 755 L82 755 Z " />
<glyph glyph-name="quotedbl" unicode="&#x22;" horiz-adv-x="325" d="M220 750 C215 750 213 732 214 705 L221 560 L223 560 L230 705 C229 734 232 752 220 750 L220 750 Z M100 750 C95 750 93 732 94 705 L101 560 L103 560 L110 705 C109 734 112 752 100 750 L100 750 Z " />
<glyph glyph-name="numbersign" unicode="&#x23;" horiz-adv-x="522" d="M390 692 L359 468 L202 468 L233 692 L231 692 L200 468 L61 468 L59 452 L198 452 L165 208 L23 208 L21 192 L162 192 L136 0 L138 0 L164 192 L321 192 L295 0 L297 0 L323 192 L457 192 L459 208 L326 208 L359 452 L500 452 L502 468 L361 468 L392 692 L390 692 L390 692 Z M200 452 L357 452 L324 208 L167 208 L200 452 L200 452 Z " />
<glyph glyph-name="dollar" unicode="&#x24;" horiz-adv-x="541" d="M55 242 L55 -8 L69 -8 L73 19 C77 49 123 49 187 18 C200 12 213 7 227 2 L227 -75 L241 -75 L241 -2 C245 -3 249 -4 253 -5 L253 -4 C271 -8 289 -10 307 -10 L307 -75 L321 -75 L321 -10 C430 -6 501 65 501 170 C501 247 439 327 321 384 L321 737 C372 709 411 655 426 586 L435 548 L455 548 L455 762 L441 762 L437 742 C433 723 396 722 344 740 C336 744 328 747 320 750 L320 826 L306 826 L306 754 C287 759 267 762 246 763 L246 761 C244 761 242 761 240 761 L240 826 L226 826 L226 761 C137 756 78 688 78 589 C78 531 128 465 226 405 L226 8 C158 36 102 110 82 203 L73 243 L55 242 L55 242 Z M305 745 L305 392 C281 403 259 415 239 427 L239 758 C265 758 284 754 305 745 L305 745 Z M57 152 L57 152 L57 152 L57 152 Z M239 396 C259 384 282 373 305 362 L305 -7 C283 -7 261 -4 240 2 L239 396 L239 396 Z M320 355 C426 301 481 230 481 165 C481 66 417 -2 320 -7 L320 355 L320 355 Z M226 436 C140 490 97 547 97 597 C97 690 148 753 226 758 L226 436 L226 436 Z " />
<glyph glyph-name="ampersand" unicode="&#x26;" horiz-adv-x="337" d="M311 471 L314 468 C395 493 449 551 449 614 C449 702 395 760 315 760 C222 760 160 699 160 607 C160 582 217 514 302 412 C302 412 382 322 520 158 C437 64 345 10 257 10 C150 10 78 90 78 211 C78 316 148 408 252 440 L248 441 C133 406 57 311 57 204 C57 76 132 -9 245 -9 C338 -9 436 50 524 153 C536 138 549 123 562 107 C621 37 676 -10 699 -10 C763 -10 814 54 826 149 L822 150 C811 64 765 6 707 6 C687 6 636 50 580 117 C565 135 551 152 537 168 C607 254 670 367 718 500 L713 500 C665 369 602 257 532 173 C397 334 318 422 318 422 C232 524 175 593 175 618 C175 700 230 755 313 755 C384 755 431 699 431 615 C431 551 382 493 309 471 L311 471 L311 471 Z " />
<glyph glyph-name="quotesingle" unicode="&#x27;" horiz-adv-x="204" d="M100 750 C95 750 93 732 94 705 L101 560 L103 560 L110 705 C109 734 112 752 100 750 L100 750 Z " />
<glyph glyph-name="parenleft" unicode="&#x28;" horiz-adv-x="405" d="M320 760 C188 671 100 476 100 273 C100 77 185 -118 313 -214 L314 -212 C194 -122 114 72 114 273 C114 480 197 674 321 758 L320 760 L320 760 Z " />
<glyph glyph-name="parenright" unicode="&#x29;" horiz-adv-x="405" d="M29 758 C162 672 250 478 250 273 C250 65 164 -129 36 -212 L37 -214 C173 -126 264 69 264 273 C264 474 170 669 30 760 L29 758 L29 758 Z " />
<glyph glyph-name="asterisk" unicode="&#x2a;" horiz-adv-x="246" d="M257 688 C266 692 261 701 252 696 C252 696 256 689 258 686 L257 688 L257 688 Z M252 566 L252 566 L252 566 Z M50 565 C50 565 50 565 50 566 L50 565 L50 565 Z M50 566 C48 569 45 574 45 574 C37 570 42 560 51 566 L50 566 L50 566 Z M51 566 L51 566 L51 564 L151 628 L151 628 L258 683 L252 693 L151 628 L157 747 C157 758 145 758 145 747 L151 628 L150 628 L50 692 C41 699 35 689 44 685 L44 683 L150 629 L44 575 L51 566 L51 566 Z M258 575 L258 575 L151 630 L252 565 L253 566 C262 560 265 570 258 575 L258 575 Z M145 509 C145 498 157 498 157 509 L151 629 L145 509 L145 509 Z " />
<glyph glyph-name="plus" unicode="&#x2b;" horiz-adv-x="620" d="M302 460 L302 257 L100 257 L100 243 L302 243 L302 40 L318 40 L318 243 L520 243 L520 257 L318 257 L318 460 L302 460 L302 460 Z " />
<glyph glyph-name="comma" unicode="&#x2c;" horiz-adv-x="257" d="M175 61 C180 46 183 27 183 6 C183 -63 136 -109 65 -109 L65 -110 C138 -110 187 -62 187 9 C187 45 179 74 165 92 C156 106 142 114 125 114 C89 114 65 90 65 54 C65 18 89 -6 125 -6 C157 -6 178 21 175 60 L175 61 L175 61 Z " />
<glyph glyph-name="hyphen" unicode="&#x2d;" horiz-adv-x="430" d="M80 277 L350 277 L350 293 L80 293 L80 277 L80 277 Z " />
<glyph glyph-name="period" unicode="&#x2e;" horiz-adv-x="195" d="M145 15 C145 41 105 41 105 15 C105 -11 145 -11 145 15 L145 15 Z " />
<glyph glyph-name="slash" unicode="&#x2f;" horiz-adv-x="370" d="M328 770 L46 -80 L58 -80 L340 770 L328 770 L328 770 Z " />
<glyph glyph-name="zero" unicode="0" horiz-adv-x="602" d="M62 250 C62 386 159 502 305 502 C436 502 548 401 548 250 C548 114 451 -2 305 -2 C174 -2 62 99 62 250 L62 250 Z M53 250 C53 94 169 -10 305 -10 C456 -10 557 110 557 250 C557 406 441 510 305 510 C154 510 53 390 53 250 L53 250 Z " />
<glyph glyph-name="one" unicode="1" horiz-adv-x="330" d="M270 15 L256 15 C207 15 175 55 175 115 L175 385 C175 445 207 485 256 485 L270 485 L270 500 L60 500 L60 485 L74 485 C123 485 155 445 155 385 L155 115 C155 55 123 15 74 15 L60 15 L60 0 L270 0 L270 15 L270 15 Z " />
<glyph glyph-name="two" unicode="2" horiz-adv-x="515" d="M51 292 C75 414 151 495 241 495 C333 495 395 432 395 337 C395 228 243 115 58 18 C53 18 49 15 44 11 C38 8 32 5 26 2 L29 0 L419 0 L428 15 C444 37 464 66 479 87 C479 89 472 93 473 93 L464 82 C434 44 369 18 300 18 L65 18 C258 120 416 235 416 342 C416 443 350 511 252 511 C155 511 73 424 48 294 L51 292 L51 292 Z " />
<glyph glyph-name="three" unicode="3" horiz-adv-x="401" d="M19 -228 L20 -232 C225 -210 361 -122 361 -11 C361 91 254 160 92 161 C256 231 365 306 365 381 C365 458 303 509 210 509 C120 509 45 445 23 349 L27 348 C47 436 117 495 202 495 C287 495 344 447 344 374 C344 300 241 227 87 162 L87 158 L87 158 L87 158 C238 137 339 67 339 -17 C339 -124 211 -209 18 -229 L19 -228 L19 -228 Z " />
<glyph glyph-name="four" unicode="4" horiz-adv-x="620" d="M593 95 L589 83 C579 42 534 15 477 15 L415 15 L415 530 L412 530 L15 4 L15 0 L395 0 L395 -220 L415 -220 L415 0 L475 0 C532 0 570 -22 569 -55 L570 -65 C570 -65 582 -69 586 -69 C595 -17 600 34 609 92 C605 93 593 96 593 96 L593 95 L593 95 Z M32 16 L395 496 L395 16 L32 16 L32 16 Z " />
<glyph glyph-name="five" unicode="5" horiz-adv-x="421" d="M60 -231 C259 -207 391 -96 391 45 C391 176 270 260 89 260 L137 482 L338 483 L341 500 C346 521 351 546 354 565 L338 565 L334 555 C323 522 278 500 221 500 L133 500 L78 242 L82 239 C256 239 374 163 374 38 C374 -98 248 -204 60 -227 L60 -231 L60 -231 Z " />
<glyph glyph-name="six" unicode="6" horiz-adv-x="566" d="M550 750 C260 688 66 501 66 283 C66 107 159 -10 298 -10 C428 -10 515 90 515 240 C515 372 418 460 272 460 C183 460 117 415 93 343 C128 537 303 694 552 747 L550 750 L550 750 Z M87 272 C87 384 161 459 272 459 C406 459 496 372 496 241 C496 92 417 -8 298 -8 C171 -8 87 104 87 272 L87 272 Z " />
<glyph glyph-name="seven" unicode="7" horiz-adv-x="437" d="M111 566 C102 547 90 521 80 500 L79 500 L72 484 C72 484 45 426 43 422 C46 420 55 414 55 414 L62 425 C83 460 135 484 192 484 C271 485 352 483 430 485 L120 -220 L135 -220 L431 485 L431 500 L200 500 C143 500 110 519 120 548 L122 557 C122 557 113 565 110 566 L111 566 L111 566 Z " />
<glyph glyph-name="eight" unicode="8" horiz-adv-x="544" d="M254 394 C258 392 262 390 266 388 C399 334 488 280 488 187 C488 69 404 -10 278 -10 C154 -10 71 63 71 173 C71 264 144 352 254 392 L254 394 L254 394 Z M252 393 C134 348 55 260 55 171 C55 61 145 -13 279 -13 C415 -13 505 63 505 177 C505 286 420 345 290 399 C402 441 476 518 476 593 C476 691 396 757 277 757 C158 757 79 687 79 583 C79 507 148 439 253 393 L252 393 L252 393 Z M288 401 C284 403 280 405 276 407 C168 451 96 518 96 593 C96 692 169 758 279 758 C388 758 460 692 460 594 C460 517 391 441 288 403 L288 401 L288 401 Z " />
<glyph glyph-name="nine" unicode="9" horiz-adv-x="566" d="M16 -250 C306 -188 500 -1 500 217 C500 393 407 510 268 510 C138 510 51 410 51 260 C51 128 148 40 294 40 C383 40 449 85 473 157 C438 -37 263 -194 14 -247 L16 -250 L16 -250 Z M479 228 C479 116 405 41 294 41 C160 41 70 128 70 259 C70 408 149 508 268 508 C395 508 479 396 479 228 L479 228 Z " />
<glyph glyph-name="colon" unicode="&#x3a;" horiz-adv-x="135" d="M145 405 C145 431 105 431 105 405 C105 379 145 379 145 405 L145 405 Z M145 15 C145 41 105 41 105 15 C105 -11 145 -11 145 15 L145 15 Z " />
<glyph glyph-name="semicolon" unicode="&#x3b;" horiz-adv-x="257" d="M145 405 C145 431 105 431 105 405 C105 379 145 379 145 405 L145 405 Z M175 61 C180 46 183 27 183 6 C183 -63 136 -109 65 -109 L65 -110 C138 -110 187 -62 187 9 C187 45 179 74 165 92 C156 106 142 114 125 114 C89 114 65 90 65 54 C65 18 89 -6 125 -6 C157 -6 178 21 175 60 L175 61 L175 61 Z " />
<glyph glyph-name="equal" unicode="&#x3d;" horiz-adv-x="523" d="M73 204 L73 196 L453 196 L453 204 L73 204 L73 204 Z M73 304 L73 296 L453 296 L453 304 L73 304 L73 304 Z " />
<glyph glyph-name="question" unicode="&#x3f;" horiz-adv-x="309" d="M145 15 C145 41 105 41 105 15 C105 -11 145 -11 145 15 L145 15 Z M119 145 C119 145 121 359 125 360 C202 360 238 400 278 460 C294 484 305 520 305 551 C305 676 241 760 145 760 C134 760 126 754 126 745 C126 739 130 735 137 735 C142 735 148 739 152 739 C240 739 299 663 299 549 C299 524 289 492 273 469 C237 416 204 380 118 380 C116 379 115 145 115 145 L119 145 L119 145 Z " />
<glyph glyph-name="at" unicode="&#x40;" horiz-adv-x="1122" d="M1046 0 C979 -145 785 -241 561 -241 C267 -241 71 -41 71 259 C71 559 267 759 561 759 C855 759 1051 593 1051 343 C1051 138 970 2 849 2 C709 2 635 81 665 200 L735 480 L716 480 L688 370 C683 442 636 490 566 490 C409 490 305 374 305 201 C305 91 372 17 473 17 C544 17 608 72 641 158 C636 58 714 -6 847 -6 C980 -6 1068 133 1068 342 C1068 595 866 763 562 763 C258 763 56 561 56 258 C56 -44 260 -245 566 -245 C791 -245 986 -147 1054 -1 L1046 0 L1046 0 Z M686 355 L647 199 C621 96 556 27 484 27 C390 27 328 98 328 204 C328 371 423 483 566 483 C638 483 686 431 686 355 L686 355 Z " />
<glyph glyph-name="A" unicode="A" horiz-adv-x="743" d="M468 0 L738 0 L738 19 L722 19 C668 19 615 79 589 169 L589 169 L421 743 C421 743 415 770 413 770 L411 770 C414 755 408 745 397 743 L400 733 C339 545 279 356 218 169 C189 79 121 19 47 19 L25 19 L25 0 L312 0 L312 19 L291 19 C220 19 192 79 221 169 L262 297 L527 297 L566 161 C588 75 558 18 489 18 L468 18 L468 0 L468 0 Z M262 297 L400 730 L526 297 L262 297 L262 297 Z " />
<glyph glyph-name="B" unicode="B" horiz-adv-x="597" d="M316 1 L266 1 C225 1 198 77 198 191 L198 385 L338 385 C454 385 532 308 532 193 C532 37 446 1 316 1 L316 1 Z M79 731 L93 731 C142 731 174 691 174 631 L174 119 C174 59 142 19 93 19 L79 19 L79 0 L318 0 C461 0 557 37 557 193 C557 309 471 386 343 386 L328 386 C463 395 551 465 551 568 C551 677 500 750 283 750 L79 750 L79 731 L79 731 Z M297 386 L198 386 L198 749 C198 749 280 749 280 748 C480 748 527 675 527 566 C527 458 435 386 297 386 L297 386 Z " />
<glyph glyph-name="C" unicode="C" horiz-adv-x="676" d="M435 754 L435 753 C412 757 387 759 359 759 C186 759 71 605 71 374 C71 143 182 -11 348 -11 C378 -11 406 -8 431 -3 L431 -3 C454 2 476 9 496 18 L496 17 C560 46 605 46 609 17 L613 -7 L627 -7 L627 217 L607 217 L598 182 C577 95 515 24 441 2 C413 -6 383 -10 350 -10 C198 -10 97 143 97 373 C97 603 203 756 361 756 C394 756 423 752 449 745 C519 724 579 653 600 564 L609 528 L629 528 L629 749 L615 749 L611 726 C607 699 561 703 501 729 C482 738 459 745 436 750 L435 754 L435 754 Z M626 123 L626 123 L626 123 L626 123 Z " />
<glyph glyph-name="D" unicode="D" horiz-adv-x="784" d="M276 1 C206 1 198 74 198 183 L198 749 L312 749 C571 749 704 599 704 375 C704 128 533 1 276 1 L276 1 Z M79 735 L93 735 C142 735 174 695 174 635 L174 115 C174 55 142 15 93 15 L79 15 L79 0 L278 0 C549 0 729 128 729 375 C729 600 589 750 318 750 L79 750 L79 735 L79 735 Z " />
<glyph glyph-name="E" unicode="E" horiz-adv-x="610" d="M59 735 L76 735 C135 735 174 687 174 615 L174 135 C174 63 135 15 76 15 L59 15 L59 0 L533 0 L533 1 L534 1 C541 42 551 96 558 137 L543 137 L535 117 C511 53 441 9 356 3 C214 10 198 80 198 183 L198 385 L279 385 C357 385 417 336 430 262 L434 240 L449 240 L449 532 L434 532 L430 510 C417 436 357 387 279 387 L198 387 L198 748 L338 748 C416 748 482 699 504 625 L511 603 L526 603 C521 647 514 705 509 749 L508 749 L508 750 L59 750 L59 735 L59 735 Z " />
<glyph glyph-name="F" unicode="F" horiz-adv-x="585" d="M59 735 L76 735 C135 735 174 687 174 615 L174 135 C174 63 135 15 76 15 L59 15 L59 0 L313 0 L313 15 L296 15 C237 15 198 63 198 135 L198 385 L269 385 C347 385 407 336 420 262 L424 240 L439 240 L439 532 L424 532 L420 510 C407 436 347 387 269 387 L198 387 L198 749 L338 749 C416 749 482 700 504 626 L511 604 L526 604 C521 648 514 706 509 750 L59 750 L59 735 L59 735 Z " />
<glyph glyph-name="G" unicode="G" horiz-adv-x="760" d="M435 754 L435 753 C412 757 387 759 359 759 C186 759 71 605 71 374 C71 143 183 -11 350 -11 C444 -11 521 2 590 24 L608 28 L608 30 C635 39 661 50 686 62 L686 63 C661 52 635 42 608 33 L608 171 C608 252 644 306 697 306 L713 306 L713 325 L480 325 L480 306 L496 306 C549 306 585 252 585 171 L585 26 C573 22 564 20 549 17 C573 26 586 37 586 49 L586 24 C568 21 544 15 525 11 C534 13 542 15 549 18 C497 9 403 -5 355 -5 C200 -5 97 147 97 375 C97 605 203 758 361 758 C394 758 423 754 449 747 C519 726 579 655 600 566 L609 530 L629 530 L629 751 L615 751 L611 728 C607 701 561 705 501 731 C482 740 459 747 436 752 L435 754 L435 754 Z " />
<glyph glyph-name="H" unicode="H" horiz-adv-x="805" d="M745 15 L731 15 C682 15 650 55 650 115 L650 635 C650 695 682 735 731 735 L745 735 L745 750 L531 750 L531 735 L545 735 C594 735 626 695 626 635 L626 385 L234 385 L234 635 C234 695 266 735 315 735 L329 735 L329 750 L115 750 L115 735 L129 735 C178 735 210 695 210 635 L210 115 C210 55 178 15 129 15 L115 15 L115 0 L329 0 L329 15 L315 15 C266 15 234 55 234 115 L234 383 L626 383 L626 115 C626 55 594 15 545 15 L531 15 L531 0 L745 0 L745 15 L745 15 Z " />
<glyph glyph-name="I" unicode="I" horiz-adv-x="367" d="M307 15 L293 15 C244 15 212 55 212 115 L212 635 C212 695 244 735 293 735 L307 735 L307 750 L93 750 L93 735 L107 735 C156 735 188 695 188 635 L188 115 C188 55 156 15 107 15 L93 15 L93 0 L307 0 L307 15 L307 15 Z " />
<glyph glyph-name="J" unicode="J" horiz-adv-x="367" d="M307 750 L93 750 L93 735 L107 735 C156 735 188 695 188 635 L188 0 C188 -182 117 -217 65 -217 C53 -217 59 -198 47 -198 C41 -198 37 -202 37 -209 C37 -216 47 -220 63 -220 C126 -220 212 -178 212 44 L212 635 C212 695 244 735 293 735 L307 735 L307 750 L307 750 Z " />
<glyph glyph-name="K" unicode="K" horiz-adv-x="688" d="M674 15 L659 15 C612 15 544 53 487 110 L217 390 L425 630 C484 693 558 734 614 734 L631 734 L631 749 L354 749 L354 734 L377 734 C452 734 455 679 387 595 L198 375 L198 635 C198 695 230 735 279 735 L293 735 L293 750 L79 750 L79 735 L93 735 C142 735 174 695 174 635 L174 115 C174 55 142 15 93 15 L79 15 L79 0 L293 0 L293 15 L279 15 C230 15 198 55 198 115 L198 375 L563 0 L674 0 L674 15 L674 15 Z " />
<glyph glyph-name="L" unicode="L" horiz-adv-x="632" d="M307 750 L93 750 L93 735 L107 735 C156 735 188 695 188 635 L188 115 C188 55 156 15 107 15 L93 15 L93 0 L547 0 L547 2 C554 43 564 98 571 139 L556 139 L548 119 C524 55 455 11 370 5 C229 12 213 82 213 183 L213 635 C213 695 245 735 294 735 L308 735 L307 750 L307 750 Z " />
<glyph glyph-name="M" unicode="M" horiz-adv-x="851" d="M816 750 L698 750 L448 31 L176 750 L59 750 L59 735 L73 735 C107 735 141 714 166 680 C161 492 156 303 150 115 C148 55 115 15 67 15 L52 15 L52 0 L250 0 L250 15 L236 15 C188 15 157 55 158 115 L158 115 L171 673 C179 661 186 648 191 634 L191 634 C273 422 354 210 436 -1 L442 -1 L698 728 L715 108 C715 51 684 14 638 14 L624 14 L624 -1 L838 -1 L838 14 L823 14 C775 14 742 54 740 114 L740 114 L725 643 C726 698 757 734 802 734 L816 734 L816 750 L816 750 Z " />
<glyph glyph-name="N" unicode="N" horiz-adv-x="770" d="M49 735 L64 735 C93 735 125 721 154 697 L153 115 L153 115 C153 55 121 15 72 15 L58 15 L58 0 L255 0 L255 15 L241 15 C192 15 160 55 160 115 L160 115 L159 692 C174 679 189 663 202 645 C338 430 475 216 610 0 L615 0 L616 635 L616 635 C616 695 648 735 697 735 L711 735 L711 750 L514 750 L514 735 L528 735 C577 735 609 695 609 635 L609 635 L610 44 L166 750 L50 750 L49 735 L49 735 Z " />
<glyph glyph-name="O" unicode="O" horiz-adv-x="767" d="M96 375 C96 605 212 758 386 758 C567 758 687 605 687 375 C687 145 563 -8 377 -8 C208 -8 96 145 96 375 L96 375 Z M71 375 C71 144 193 -10 377 -10 C578 -10 712 144 712 375 C712 606 582 760 387 760 C197 760 71 606 71 375 L71 375 Z " />
<glyph glyph-name="P" unicode="P" horiz-adv-x="545" d="M299 15 L285 15 C236 15 204 55 204 115 L204 360 L254 360 C417 360 525 416 525 542 C525 667 437 750 304 750 L85 750 L85 735 L99 735 C148 735 180 695 180 635 L180 115 C180 55 148 15 99 15 L85 15 L85 0 L299 0 L299 15 L299 15 Z M204 365 L204 746 L298 746 C420 746 502 666 502 546 C502 421 403 365 254 365 L204 365 L204 365 Z " />
<glyph glyph-name="Q" unicode="Q" horiz-adv-x="762" d="M1062 -54 L1061 -53 C1032 -78 920 -94 781 -94 C603 -94 434 -61 358 -10 C364 -10 370 -10 376 -10 C577 -10 711 144 711 375 C711 606 581 760 386 760 C196 760 70 606 70 375 C70 159 176 10 340 -9 L337 -9 C427 -70 603 -111 777 -111 C907 -111 1021 -89 1061 -55 L1062 -54 L1062 -54 Z M355 -9 L351 -9 C197 5 95 155 95 374 C95 604 211 757 385 757 C566 757 686 604 686 374 C686 144 561 -10 374 -10 C369 -10 358 -11 355 -9 L355 -9 Z " />
<glyph glyph-name="R" unicode="R" horiz-adv-x="672" d="M79 735 L93 735 C142 735 174 695 174 635 L174 115 C174 55 142 15 93 15 L79 15 L79 0 L293 0 L293 15 L279 15 C230 15 198 55 198 115 L198 374 L366 374 C374 354 429 238 507 75 C542 3 548 0 662 0 L662 4 C572 4 567 7 534 75 C458 235 403 348 390 375 C482 382 542 435 542 542 C542 667 472 750 367 750 L79 750 L79 735 L79 735 Z M367 380 L198 380 L198 745 L360 745 C454 745 517 665 517 546 C517 433 460 380 367 380 L367 380 Z " />
<glyph glyph-name="S" unicode="S" horiz-adv-x="541" d="M456 548 L456 762 L442 762 L438 742 C434 723 397 722 345 740 C315 753 281 761 246 762 L246 760 C145 763 78 695 78 589 C78 517 154 433 302 364 C420 309 481 234 481 165 C481 62 412 -7 309 -7 C284 -7 260 -3 237 4 C165 28 104 105 83 203 L74 243 L54 243 L54 -7 L68 -7 L72 20 C76 50 122 50 186 19 C206 9 228 1 251 -4 L251 -3 C392 -32 499 45 499 172 C499 250 436 331 315 388 C170 455 96 533 96 598 C96 703 158 765 256 758 C337 750 404 683 425 587 L434 549 L456 548 L456 548 Z M57 152 L57 152 L57 152 L57 152 Z " />
<glyph glyph-name="T" unicode="T" horiz-adv-x="775" d="M281 0 L494 0 L494 15 L480 15 C431 15 399 55 399 115 L399 744 L543 744 C624 744 705 698 746 629 L758 609 L773 609 C757 649 735 703 718 744 L720 744 L720 750 L718 750 C711 767 702 789 695 805 L684 805 L680 797 C668 769 609 750 531 750 L241 750 C163 750 104 769 92 797 L88 805 L77 805 C70 788 60 764 53 747 L54 747 C37 706 14 650 -3 609 L12 609 L24 629 C65 698 146 744 227 744 L376 744 L376 115 C376 55 344 15 295 15 L281 15 L281 0 L281 0 Z " />
<glyph glyph-name="U" unicode="U" horiz-adv-x="666" d="M636 44 L622 40 C573 27 541 58 541 118 L541 750 L422 750 L422 735 L436 735 C485 735 517 695 517 635 L517 164 C473 69 370 5 261 5 C202 5 163 91 163 220 L163 750 L44 750 L44 735 L58 735 C107 735 139 695 139 635 L139 220 C139 82 184 -10 252 -10 C365 -10 471 55 517 153 L517 0 L529 0 L541 3 C571 11 608 21 636 29 L636 44 L636 44 Z " />
<glyph glyph-name="V" unicode="V" horiz-adv-x="750" d="M715 750 L453 750 L453 731 L476 731 C553 731 584 673 555 585 L358 32 C300 215 241 399 184 581 C155 671 183 731 254 731 L275 731 L275 750 L24 750 L24 731 L37 731 C80 731 128 671 156 581 L156 581 C218 384 281 187 343 -10 L347 -10 C418 187 489 384 561 581 C594 671 649 731 700 731 L715 731 L715 750 L715 750 Z " />
<glyph glyph-name="W" unicode="W" horiz-adv-x="1095" d="M685 750 L434 750 L434 731 L447 731 C491 731 534 684 555 613 C565 575 575 537 584 500 L360 28 L194 612 C177 684 201 731 257 731 L274 731 L274 750 L49 750 L49 731 L62 731 C105 731 148 679 170 601 L170 601 C227 397 282 192 341 -11 L347 -11 L349 -5 L586 488 C629 322 672 155 716 -11 L722 -11 L723 -4 C785 197 846 399 908 600 C932 678 983 730 1037 730 L1052 730 L1052 749 L789 749 L789 730 L811 730 C887 730 922 678 899 600 L899 600 L729 32 L579 612 C565 683 598 730 663 730 L683 730 L685 750 L685 750 Z " />
<glyph glyph-name="X" unicode="X" horiz-adv-x="772" d="M294 750 L80 750 L80 735 L92 735 C130 735 179 699 216 643 L379 373 C323 289 268 204 212 120 C170 57 107 15 54 15 L38 15 L38 0 L277 0 L277 15 L257 15 C197 15 181 53 215 111 L383 368 C433 285 484 202 533 120 C571 57 561 15 507 15 L491 15 L491 0 L705 0 L705 15 L693 15 C655 15 606 51 569 107 L398 389 C451 469 503 550 556 630 C597 693 660 735 713 735 L729 735 L729 750 L488 750 L488 735 L509 735 C571 735 587 693 547 630 L547 630 L397 391 C349 470 300 550 253 629 C215 692 225 734 279 734 L295 734 L294 750 L294 750 Z " />
<glyph glyph-name="Y" unicode="Y" horiz-adv-x="694" d="M254 750 L39 750 L39 735 L51 735 C90 735 139 696 175 637 L345 336 L345 135 C345 63 306 15 247 15 L230 15 L230 0 L484 0 L484 15 L467 15 C408 15 369 63 369 135 L369 339 L534 641 C569 698 624 735 675 735 L691 735 L691 750 L455 750 L455 735 L477 735 C540 735 559 693 525 630 L368 341 L201 639 C172 697 185 735 237 735 L253 735 L254 750 L254 750 Z " />
<glyph glyph-name="Z" unicode="Z" horiz-adv-x="657" d="M73 608 L79 628 C97 694 165 740 252 744 L585 745 L26 5 L26 0 L607 0 L609 7 L608 7 C611 21 623 72 639 142 L624 142 L615 122 C588 57 514 11 427 6 L54 5 L611 745 L611 750 L71 750 L70 743 L71 743 C70 729 66 678 60 608 L73 608 L73 608 Z " />
<glyph glyph-name="bracketleft" unicode="&#x5b;" horiz-adv-x="277" d="M117 744 L327 744 L327 750 L110 750 L110 -195 L327 -195 L327 -189 L117 -189 L117 744 L117 744 Z " />
<glyph glyph-name="backslash" unicode="&#x5c;" horiz-adv-x="328" d="M46 770 L306 -80 L318 -80 L58 770 L46 770 L46 770 Z " />
<glyph glyph-name="bracketright" unicode="&#x5d;" horiz-adv-x="280" d="M163 744 L163 -189 L-47 -189 L-47 -195 L170 -195 L170 750 L-47 750 L-47 744 L163 744 L163 744 Z " />
<glyph glyph-name="asciicircum" unicode="&#x5e;" horiz-adv-x="340" d="M177 774 C174 782 167 782 164 774 L24 561 L27 559 L171 758 L315 559 L318 561 L177 774 L177 774 Z " />
<glyph glyph-name="underscore" unicode="&#x5f;" horiz-adv-x="455" d="M5 -50 L5 -61 L450 -61 L450 -50 L5 -50 L5 -50 Z " />
<glyph glyph-name="grave" unicode="&#x60;" horiz-adv-x="340" d="M-37 762 C-37 759 -7 731 38 690 L174 564 L177 567 L47 699 C5 743 -24 772 -27 772 C-32 772 -37 767 -37 762 L-37 762 Z " />
<glyph glyph-name="a" unicode="a" horiz-adv-x="512" d="M522 57 L515 59 C510 29 487 9 459 9 C424 9 400 31 400 64 L400 361 C400 464 346 510 266 510 C155 510 81 414 81 360 C81 352 85 346 91 346 C106 346 116 352 116 356 C116 361 96 370 96 373 C96 422 163 508 264 508 C334 508 380 465 380 368 L380 266 C122 187 61 158 61 73 C61 23 107 -11 177 -11 C230 -11 297 17 380 91 L380 63 C380 22 408 -6 451 -6 C487 -6 515 19 522 56 L522 57 L522 57 Z M380 264 L380 92 C305 26 241 0 188 0 C124 0 81 30 81 75 C81 163 138 190 380 265 L380 264 L380 264 Z " />
<glyph glyph-name="b" unicode="b" horiz-adv-x="500" d="M10 717 L21 717 C59 718 85 682 85 625 L85 125 L81 125 C82 121 83 117 84 113 L84 0 L85 0 L93 75 L104 75 C139 23 199 -10 267 -10 C379 -10 454 94 454 251 C454 403 370 505 243 505 C202 505 147 465 104 406 L104 750 L94 750 C69 743 35 734 9 727 L10 717 L10 717 Z M104 110 L104 402 C145 459 198 497 236 497 C353 497 431 397 431 247 C431 94 365 -8 267 -8 C195 -8 132 39 105 110 L104 110 L104 110 Z " />
<glyph glyph-name="c" unicode="c" horiz-adv-x="434" d="M404 128 L403 128 C368 49 295 -4 220 -4 C126 -4 64 99 64 254 C64 407 132 509 233 509 C301 509 361 467 384 405 C386 399 390 395 394 395 C402 395 406 399 404 405 C381 468 313 510 234 510 C121 510 45 403 45 242 C45 91 114 -10 217 -10 C292 -10 367 45 404 128 L404 128 Z " />
<glyph glyph-name="d" unicode="d" horiz-adv-x="594" d="M579 43 L565 39 C516 26 484 57 484 117 L484 750 L474 750 L464 747 L464 746 C440 740 411 732 388 726 L388 716 L399 716 C437 717 463 681 463 624 L463 393 C437 458 377 511 313 511 C136 511 45 409 45 257 C45 100 141 -4 286 -4 C357 -4 428 29 463 78 L463 0 L473 0 C504 8 546 19 578 28 L579 43 L579 43 Z M463 375 L463 81 C430 35 362 4 294 4 C157 4 65 107 65 262 C65 408 150 505 316 505 C381 505 443 446 464 376 L463 375 L463 375 Z " />
<glyph glyph-name="e" unicode="e" horiz-adv-x="522" d="M75 340 L492 340 C470 462 394 510 291 510 C143 510 45 434 45 238 C45 89 135 -10 269 -10 C364 -10 448 48 480 135 L479 135 C449 52 365 -4 271 -4 C148 -4 66 96 66 246 C66 281 69 312 75 340 L75 340 Z M469 342 L76 341 C102 460 182 509 292 509 C381 509 449 463 470 342 L469 342 L469 342 Z " />
<glyph glyph-name="f" unicode="f" horiz-adv-x="329" d="M241 15 L230 15 C192 15 166 41 166 80 L166 489 L319 489 L319 500 L166 500 C166 649 210 749 294 749 C329 749 362 635 391 635 C418 635 436 653 436 680 C436 725 382 755 301 755 C199 755 146 653 146 500 L36 491 L36 489 L146 489 L146 80 C146 41 120 15 82 15 L71 15 L71 0 L241 0 L241 15 L241 15 Z " />
<glyph glyph-name="g" unicode="g" horiz-adv-x="520" d="M524 454 C475 454 440 434 428 401 C408 468 347 510 264 510 C161 510 92 446 92 350 C92 259 153 196 246 189 C137 186 65 155 65 110 C65 65 111 35 180 33 C108 15 61 -34 61 -91 C61 -174 146 -230 274 -230 C402 -230 487 -173 487 -88 C487 -4 436 52 304 52 L191 52 C123 52 78 77 78 115 C78 159 153 188 265 188 C368 188 437 253 437 350 C437 367 435 383 431 398 C443 425 474 442 515 442 C520 442 526 434 531 434 C544 434 539 455 525 455 L524 454 L524 454 Z M181 33 C184 33 187 33 190 33 L302 33 C424 33 471 -17 471 -92 C471 -174 392 -228 274 -228 C156 -228 77 -171 77 -85 C77 -29 118 17 181 33 L181 33 Z M264 190 C173 190 112 254 112 351 C112 446 173 510 264 510 C355 510 416 446 416 351 C416 254 355 190 264 190 L264 190 Z " />
<glyph glyph-name="h" unicode="h" horiz-adv-x="511" d="M35 717 L46 717 C84 718 110 682 110 625 L110 80 C110 41 84 15 46 15 L35 15 L35 0 L205 0 L205 15 L194 15 C156 15 130 41 130 80 L130 367 C175 444 236 496 284 496 C351 496 386 456 386 395 L386 80 C386 41 360 15 322 15 L311 15 L311 0 L481 0 L481 15 L470 15 C432 15 406 41 406 80 L406 395 C406 464 369 510 296 510 C245 510 179 454 130 369 L130 750 L120 750 C95 743 61 734 35 727 L35 717 L35 717 Z " />
<glyph glyph-name="i" unicode="i" horiz-adv-x="245" d="M150 635 C150 661 110 661 110 635 C110 609 150 609 150 635 L150 635 Z M45 467 L56 467 C94 468 120 432 120 375 L120 80 C120 41 94 15 56 15 L45 15 L45 0 L215 0 L215 15 L204 15 C166 15 140 41 140 80 L140 500 L130 500 C105 493 71 484 45 477 L45 467 L45 467 Z " />
<glyph glyph-name="j" unicode="j" horiz-adv-x="215" d="M135 635 C135 661 95 661 95 635 C95 609 135 609 135 635 L135 635 Z M30 467 L41 467 C79 468 105 432 105 375 L105 12 C105 -59 90 -115 67 -128 C32 -128 -15 -100 -50 -100 C-77 -100 -95 -116 -95 -140 C-95 -169 -71 -187 -35 -185 C-28 -185 14 -163 70 -130 C103 -111 125 -54 125 12 L125 500 L115 500 C90 493 56 484 30 477 L30 467 L30 467 Z " />
<glyph glyph-name="k" unicode="k" horiz-adv-x="428" d="M440 500 L170 500 L170 485 L195 485 C282 485 278 425 186 335 L130 280 L130 750 L120 750 C95 743 61 734 35 727 L35 717 L46 717 C84 718 110 682 110 625 L110 80 C110 41 84 15 46 15 L35 15 L35 0 L205 0 L205 15 L194 15 C156 15 130 41 130 80 L130 280 L273 91 C304 45 306 15 277 15 L267 15 L267 0 L417 0 L417 15 L408 15 C377 15 327 55 281 115 L281 115 L147 292 L241 384 C308 445 380 485 426 485 L441 485 L440 500 L440 500 Z " />
<glyph glyph-name="l" unicode="l" horiz-adv-x="235" d="M35 717 L46 717 C84 718 110 682 110 625 L110 80 C110 41 84 15 46 15 L35 15 L35 0 L205 0 L205 15 L194 15 C156 15 130 41 130 80 L130 750 L120 750 C95 743 61 734 35 727 L35 717 L35 717 Z " />
<glyph glyph-name="m" unicode="m" horiz-adv-x="813" d="M35 467 L46 467 C84 468 110 432 110 375 L110 80 C110 41 84 15 46 15 L35 15 L35 0 L205 0 L205 15 L194 15 C156 15 130 41 130 80 L130 372 C173 446 233 495 281 495 C366 495 399 455 399 395 L399 80 C399 41 373 15 335 15 L324 15 L324 0 L494 0 L494 15 L483 15 C445 15 419 41 419 80 L419 374 C462 447 521 495 570 495 C655 495 688 455 688 395 L688 80 C688 41 662 15 624 15 L613 15 L613 0 L783 0 L783 15 L772 15 C734 15 708 41 708 80 L708 395 C708 464 672 510 578 510 C529 510 466 457 419 376 L419 395 C419 464 383 510 289 510 C241 510 177 456 130 374 L130 500 L120 500 C95 493 61 484 35 477 L35 467 L35 467 Z " />
<glyph glyph-name="n" unicode="n" horiz-adv-x="524" d="M35 467 L46 467 C84 468 110 432 110 375 L110 80 C110 41 84 15 46 15 L35 15 L35 0 L205 0 L205 15 L194 15 C156 15 130 41 130 80 L130 365 C177 446 238 500 282 500 C359 500 399 432 399 330 L399 80 C399 41 373 15 335 15 L324 15 L324 0 L494 0 L494 15 L483 15 C445 15 419 41 419 80 L419 330 C419 438 375 510 289 510 C242 510 179 454 130 369 L130 500 L120 500 C95 493 61 484 35 477 L35 467 L35 467 Z " />
<glyph glyph-name="o" unicode="o" horiz-adv-x="596" d="M67 250 C67 405 159 508 298 508 C436 508 528 405 528 250 C528 95 436 -8 298 -8 C159 -8 67 95 67 250 L67 250 Z M45 250 C45 94 146 -10 298 -10 C450 -10 551 94 551 250 C551 406 450 510 298 510 C146 510 45 406 45 250 L45 250 Z " />
<glyph glyph-name="p" unicode="p" horiz-adv-x="514" d="M20 467 L31 467 C69 468 95 432 95 375 L95 -140 C95 -179 69 -205 31 -205 L20 -205 L20 -220 L190 -220 L190 -205 L179 -205 C141 -205 115 -179 115 -140 L115 83 C143 29 186 -5 231 -5 C373 -5 468 113 468 252 C468 407 383 510 256 510 C200 510 143 478 113 429 L113 501 L103 501 C78 494 44 485 18 478 L20 467 L20 467 Z M113 131 L113 421 C142 470 195 502 245 502 C366 502 446 399 446 245 C446 113 360 0 231 0 C184 0 137 52 113 130 L113 131 L113 131 Z " />
<glyph glyph-name="q" unicode="q" horiz-adv-x="572" d="M567 -205 L556 -205 C518 -205 492 -179 492 -140 L492 500 L491 500 L484 440 L472 428 L472 418 C436 474 369 509 291 509 C127 509 42 407 42 255 C42 98 142 -6 293 -6 C367 -6 438 25 473 71 L473 -141 C473 -180 447 -206 409 -206 L398 -206 L398 -221 L568 -221 L567 -205 L567 -205 Z M473 388 L473 78 C439 33 371 2 301 2 C158 2 62 105 62 260 C62 406 140 504 290 504 C373 504 444 458 472 388 L473 388 L473 388 Z " />
<glyph glyph-name="r" unicode="r" horiz-adv-x="324" d="M36 467 L47 467 C85 468 111 432 111 375 L111 80 C111 41 85 15 47 15 L36 15 L36 0 L206 0 L206 15 L195 15 C157 15 131 41 131 80 L131 376 C154 451 208 500 267 500 C281 500 290 486 290 465 C290 449 314 449 314 465 C314 491 299 509 276 509 C212 509 155 457 131 379 L131 500 L121 500 C96 493 62 484 36 477 L36 467 L36 467 Z " />
<glyph glyph-name="s" unicode="s" horiz-adv-x="416" d="M336 338 L336 518 L325 518 L322 503 C321 500 283 501 225 506 C211 509 197 511 182 511 L182 509 C112 509 66 463 66 395 C66 338 121 280 228 241 C309 212 350 161 350 107 C350 23 278 -31 189 -5 L189 -4 C123 12 82 75 75 151 L73 179 L61 179 L61 -11 L72 -11 L75 6 C76 14 118 10 180 -4 C194 -8 209 -11 224 -12 L224 -11 C310 -15 367 36 367 113 C367 171 323 226 238 257 C134 295 81 349 81 402 C81 472 130 517 202 507 L201 505 C272 498 314 440 322 365 L325 337 L336 338 L336 338 Z " />
<glyph glyph-name="t" unicode="t" horiz-adv-x="306" d="M269 500 L115 500 L115 620 L114 620 L30 500 L30 490 L95 490 L95 103 C95 22 135 -10 196 -10 C225 -10 265 12 296 45 L294 46 C268 18 231 -1 202 -1 C149 -1 114 27 114 98 L115 489 L269 489 L269 500 L269 500 Z " />
<glyph glyph-name="u" unicode="u" horiz-adv-x="515" d="M500 41 L487 38 C444 27 415 59 415 119 L415 500 L405 500 L405 501 L320 501 L320 486 L331 486 C369 486 395 460 395 421 L395 126 C363 52 301 4 236 4 C170 4 126 66 126 160 L126 500 L31 500 L31 485 L42 485 C80 485 106 459 106 420 L106 160 C106 58 154 -10 227 -10 C295 -10 360 43 395 125 L395 0 L405 0 C433 8 471 18 500 26 L500 41 L500 41 Z " />
<glyph glyph-name="v" unicode="v" horiz-adv-x="483" d="M455 500 L301 500 L301 485 L312 485 C345 485 356 449 341 393 L221 28 L129 391 C117 448 131 485 165 485 L176 485 L176 500 L8 500 L8 485 L19 485 C57 485 93 443 109 380 L109 380 L208 -10 L214 -10 L344 380 C365 443 405 485 443 485 L454 485 L455 500 L455 500 Z " />
<glyph glyph-name="w" unicode="w" horiz-adv-x="691" d="M654 500 L499 500 L499 485 L509 485 C542 485 553 449 538 394 L416 31 C391 147 364 264 339 380 C325 443 340 485 376 485 L387 485 L387 500 L218 500 L218 485 L230 485 C268 485 302 443 316 380 L316 380 L323 350 L210 -10 L216 -10 L326 335 L402 -10 L408 -10 C453 120 497 251 543 380 C565 443 605 485 643 485 L654 485 L654 500 L654 500 Z M195 500 L26 500 L26 485 L38 485 C76 485 110 443 124 380 L124 380 L210 -10 L223 32 L143 394 C134 449 149 485 183 485 L194 485 L195 500 L195 500 Z " />
<glyph glyph-name="x" unicode="x" horiz-adv-x="504" d="M307 0 L472 0 L472 15 L461 15 C425 15 379 51 342 107 L255 253 L331 394 C364 450 408 486 444 486 L455 486 L455 501 L304 501 L304 486 L314 486 C348 486 349 444 316 381 L316 381 L252 258 C228 299 202 341 179 381 C141 444 139 486 172 486 L182 486 L182 501 L17 501 L17 486 L28 486 C64 486 110 450 147 394 L239 239 L147 106 C105 51 56 15 21 15 L9 15 L9 0 L158 0 L158 15 L148 15 C115 15 122 57 165 120 L165 120 L243 234 C265 196 289 157 310 119 C348 56 350 14 317 14 L307 14 L307 0 L307 0 Z " />
<glyph glyph-name="y" unicode="y" horiz-adv-x="512" d="M484 500 L330 500 L330 485 L341 485 C374 485 385 450 370 396 C330 275 292 152 250 33 C216 149 181 266 148 381 C129 444 140 486 176 486 L187 486 L187 501 L19 501 L19 486 L31 486 C66 486 101 450 121 395 L238 -1 C219 -56 201 -111 182 -166 C177 -182 163 -193 155 -193 C133 -193 128 -183 106 -183 C84 -183 69 -198 69 -220 C69 -243 85 -259 110 -259 C127 -259 168 -223 187 -168 L242 -9 C287 126 333 260 379 395 C401 450 438 486 474 486 L485 486 L484 500 L484 500 Z " />
<glyph glyph-name="z" unicode="z" horiz-adv-x="475" d="M61 497 C61 497 49 452 31 385 L48 385 L56 401 C84 455 155 492 233 494 L411 495 L40 5 L40 0 L430 0 L430 3 C432 3 436 47 443 115 L426 115 L420 99 C401 46 337 9 260 7 L66 6 L436 496 L436 501 L165 501 C113 501 84 516 93 543 L75 543 C74 539 64 498 62 498 L61 497 L61 497 Z " />
<glyph glyph-name="bar" unicode="&#x7c;" horiz-adv-x="136" d="M60 800 L60 -250 L76 -250 L76 800 L60 800 L60 800 Z " />
<glyph glyph-name="asciitilde" unicode="&#x7e;" horiz-adv-x="340" d="M26 310 C26 353 46 381 75 381 C131 381 205 316 260 316 C293 316 315 346 315 391 L314 391 C314 355 294 331 264 331 C209 331 135 396 79 396 C47 396 25 362 25 310 L26 310 L26 310 Z " />
<glyph glyph-name="exclamdown" unicode="&#xa1;" horiz-adv-x="164" d="M62 485 C62 459 102 459 102 485 C102 511 62 511 62 485 L62 485 Z M82 -255 C91 -255 95 -228 94 -188 C94 -188 84 147 84 290 L80 290 C80 147 70 -188 70 -188 C69 -228 73 -255 82 -255 L82 -255 Z " />
<glyph glyph-name="cent" unicode="&#xa2;" horiz-adv-x="434" d="M212 575 L212 509 C111 496 45 393 45 243 C45 94 112 -6 212 -9 L212 -74 L226 -74 L226 -9 C298 -5 369 49 405 129 L404 129 C370 52 300 0 227 -3 L227 510 C299 513 361 469 384 406 C386 400 390 396 394 396 C402 396 406 400 404 406 C381 470 310 514 227 510 L227 575 L212 575 L212 575 Z M213 -4 C123 2 65 103 65 254 C65 396 124 494 213 507 L213 -4 L213 -4 Z " />
<glyph glyph-name="acute" unicode="&#xb4;" horiz-adv-x="340" d="M176 564 L312 690 C357 733 387 761 387 762 C387 767 382 772 377 772 C377 772 347 743 303 699 L173 567 L176 564 L176 564 Z " />
<glyph glyph-name="questiondown" unicode="&#xbf;" horiz-adv-x="309" d="M164 485 C164 459 204 459 204 485 C204 511 164 511 164 485 L164 485 Z M190 355 C190 355 188 141 184 140 C107 140 71 100 31 40 C15 16 4 -20 4 -51 C4 -176 68 -260 164 -260 C175 -260 183 -254 183 -245 C183 -239 179 -235 172 -235 C167 -235 161 -239 157 -239 C69 -239 10 -163 10 -49 C10 -24 20 8 36 31 C72 84 105 120 191 120 C193 121 194 355 194 355 L190 355 L190 355 Z " />
<glyph glyph-name="Agrave" unicode="&#xc0;" horiz-adv-x="743" d="M468 0 L738 0 L738 19 L722 19 C668 19 615 79 589 169 L589 169 L421 743 C421 743 415 770 413 770 L411 770 C414 755 408 745 397 743 L400 733 C339 545 279 356 218 169 C189 79 121 19 47 19 L25 19 L25 0 L312 0 L312 19 L291 19 C220 19 192 79 221 169 L262 297 L527 297 L566 161 C588 75 558 18 489 18 L468 18 L468 0 L468 0 Z M202 1011 C202 1008 232 980 277 939 L413 813 L416 816 L286 948 C244 992 215 1021 212 1021 C207 1021 202 1016 202 1011 L202 1011 Z M262 297 L400 730 L526 297 L262 297 L262 297 Z " />
<glyph glyph-name="Aacute" unicode="&#xc1;" horiz-adv-x="743" d="M415 814 L551 940 C596 983 626 1011 626 1012 C626 1017 621 1022 616 1022 C616 1022 586 993 542 949 L412 817 L415 814 L415 814 Z M468 0 L738 0 L738 19 L722 19 C668 19 615 79 589 169 L589 169 L421 743 C421 743 415 770 413 770 L411 770 C414 755 408 745 397 743 L400 733 C339 545 279 356 218 169 C189 79 121 19 47 19 L25 19 L25 0 L312 0 L312 19 L291 19 C220 19 192 79 221 169 L262 297 L527 297 L566 161 C588 75 558 18 489 18 L468 18 L468 0 L468 0 Z M262 297 L400 730 L526 297 L262 297 L262 297 Z " />
<glyph glyph-name="Acircumflex" unicode="&#xc2;" horiz-adv-x="743" d="M468 0 L738 0 L738 19 L722 19 C668 19 615 79 589 169 L589 169 L421 743 C421 743 415 770 413 770 L411 770 C414 755 408 745 397 743 L400 733 C339 545 279 356 218 169 C189 79 121 19 47 19 L25 19 L25 0 L312 0 L312 19 L291 19 C220 19 192 79 221 169 L262 297 L527 297 L566 161 C588 75 558 18 489 18 L468 18 L468 0 L468 0 Z M416 1023 C413 1031 406 1031 403 1023 L263 810 L266 808 L410 1007 L554 808 L557 810 L416 1023 L416 1023 Z M263 297 L401 730 L527 297 L263 297 L263 297 Z " />
<glyph glyph-name="Atilde" unicode="&#xc3;" horiz-adv-x="743" d="M265 870 C265 913 285 941 314 941 C370 941 444 876 499 876 C532 876 554 906 554 951 L553 951 C553 915 533 891 503 891 C448 891 374 956 318 956 C286 956 264 922 264 870 L265 870 L265 870 Z M468 0 L738 0 L738 19 L722 19 C668 19 615 79 589 169 L589 169 L421 743 C421 743 415 770 413 770 L411 770 C414 755 408 745 397 743 L400 733 C339 545 279 356 218 169 C189 79 121 19 47 19 L25 19 L25 0 L312 0 L312 19 L291 19 C220 19 192 79 221 169 L262 297 L527 297 L566 161 C588 75 558 18 489 18 L468 18 L468 0 L468 0 Z M262 297 L400 730 L526 297 L262 297 L262 297 Z " />
<glyph glyph-name="Adieresis" unicode="&#xc4;" horiz-adv-x="743" d="M493 885 C493 911 453 911 453 885 C453 859 493 859 493 885 L493 885 Z M365 885 C365 911 325 911 325 885 C325 859 365 859 365 885 L365 885 Z M468 0 L738 0 L738 19 L722 19 C668 19 615 79 589 169 L589 169 L421 743 C421 743 415 770 413 770 L411 770 C414 755 408 745 397 743 L400 733 C339 545 279 356 218 169 C189 79 121 19 47 19 L25 19 L25 0 L312 0 L312 19 L291 19 C220 19 192 79 221 169 L262 297 L527 297 L566 161 C588 75 558 18 489 18 L468 18 L468 0 L468 0 Z M262 297 L400 730 L526 297 L262 297 L262 297 Z " />
<glyph glyph-name="Aring" unicode="&#xc5;" horiz-adv-x="743" d="M320 905 C320 959 356 995 409 995 C462 995 498 959 498 905 C498 856 457 815 409 815 C361 815 320 856 320 905 L320 905 Z M314 905 C314 854 358 810 409 810 C460 810 504 854 504 905 C504 962 466 1000 409 1000 C352 1000 314 962 314 905 L314 905 Z M468 0 L738 0 L738 19 L722 19 C668 19 615 79 589 169 L589 169 L421 743 C421 743 415 770 413 770 L411 770 C414 755 408 745 397 743 L400 733 C339 545 279 356 218 169 C189 79 121 19 47 19 L25 19 L25 0 L312 0 L312 19 L291 19 C220 19 192 79 221 169 L262 297 L527 297 L566 161 C588 75 558 18 489 18 L468 18 L468 0 L468 0 Z M262 297 L400 730 L526 297 L262 297 L262 297 Z " />
<glyph glyph-name="Egrave" unicode="&#xc8;" horiz-adv-x="610" d="M134 1012 C134 1009 164 981 209 940 L345 814 L348 817 L218 949 C176 993 147 1022 144 1022 C139 1022 134 1017 134 1012 L134 1012 Z M59 735 L76 735 C135 735 174 687 174 615 L174 135 C174 63 135 15 76 15 L59 15 L59 0 L533 0 L533 1 L534 1 C541 42 551 96 558 137 L543 137 L535 117 C511 53 441 9 356 3 C214 10 198 80 198 183 L198 385 L279 385 C357 385 417 336 430 262 L434 240 L449 240 L449 532 L434 532 L430 510 C417 436 357 387 279 387 L198 387 L198 748 L338 748 C416 748 482 699 504 625 L511 603 L526 603 C521 647 514 705 509 749 L508 749 L508 750 L59 750 L59 735 L59 735 Z " />
<glyph glyph-name="Eacute" unicode="&#xc9;" horiz-adv-x="610" d="M347 814 L483 940 C528 983 558 1011 558 1012 C558 1017 553 1022 548 1022 C548 1022 518 993 474 949 L344 817 L347 814 L347 814 Z M59 735 L76 735 C135 735 174 687 174 615 L174 135 C174 63 135 15 76 15 L59 15 L59 0 L533 0 L533 1 L534 1 C541 42 551 96 558 137 L543 137 L535 117 C511 53 441 9 356 3 C214 10 198 80 198 183 L198 385 L279 385 C357 385 417 336 430 262 L434 240 L449 240 L449 532 L434 532 L430 510 C417 436 357 387 279 387 L198 387 L198 748 L338 748 C416 748 482 699 504 625 L511 603 L526 603 C521 647 514 705 509 749 L508 749 L508 750 L59 750 L59 735 L59 735 Z " />
<glyph glyph-name="Ecircumflex" unicode="&#xca;" horiz-adv-x="610" d="M348 1024 C345 1032 338 1032 335 1024 L195 811 L198 809 L342 1008 L486 809 L489 811 L348 1024 L348 1024 Z M60 735 L77 735 C136 735 175 687 175 615 L175 135 C175 63 136 15 77 15 L60 15 L60 0 L534 0 L534 1 L535 1 C542 42 552 96 559 137 L544 137 L536 117 C512 53 442 9 357 3 C215 10 199 80 199 183 L199 385 L280 385 C358 385 418 336 431 262 L435 240 L450 240 L450 532 L435 532 L431 510 C418 436 358 387 280 387 L199 387 L199 748 L339 748 C417 748 483 699 505 625 L512 603 L527 603 C522 647 515 705 510 749 L509 749 L509 750 L60 750 L60 735 L60 735 Z " />
<glyph glyph-name="Edieresis" unicode="&#xcb;" horiz-adv-x="610" d="M425 885 C425 911 385 911 385 885 C385 859 425 859 425 885 L425 885 Z M297 885 C297 911 257 911 257 885 C257 859 297 859 297 885 L297 885 Z M59 735 L76 735 C135 735 174 687 174 615 L174 135 C174 63 135 15 76 15 L59 15 L59 0 L533 0 L533 1 L534 1 C541 42 551 96 558 137 L543 137 L535 117 C511 53 441 9 356 3 C214 10 198 80 198 183 L198 385 L279 385 C357 385 417 336 430 262 L434 240 L449 240 L449 532 L434 532 L430 510 C417 436 357 387 279 387 L198 387 L198 748 L338 748 C416 748 482 699 504 625 L511 603 L526 603 C521 647 514 705 509 749 L508 749 L508 750 L59 750 L59 735 L59 735 Z " />
<glyph glyph-name="Igrave" unicode="&#xcc;" horiz-adv-x="367" d="M-7 1012 C-7 1009 23 981 68 940 L204 814 L207 817 L77 949 C35 993 6 1022 3 1022 C-2 1022 -7 1017 -7 1012 L-7 1012 Z M307 15 L293 15 C244 15 212 55 212 115 L212 635 C212 695 244 735 293 735 L307 735 L307 750 L93 750 L93 735 L107 735 C156 735 188 695 188 635 L188 115 C188 55 156 15 107 15 L93 15 L93 0 L307 0 L307 15 L307 15 Z " />
<glyph glyph-name="Iacute" unicode="&#xcd;" horiz-adv-x="367" d="M206 814 L342 940 C387 983 417 1011 417 1012 C417 1017 412 1022 407 1022 C407 1022 377 993 333 949 L203 817 L206 814 L206 814 Z M307 15 L293 15 C244 15 212 55 212 115 L212 635 C212 695 244 735 293 735 L307 735 L307 750 L93 750 L93 735 L107 735 C156 735 188 695 188 635 L188 115 C188 55 156 15 107 15 L93 15 L93 0 L307 0 L307 15 L307 15 Z " />
<glyph glyph-name="Icircumflex" unicode="&#xce;" horiz-adv-x="367" d="M207 1024 C204 1032 197 1032 194 1024 L54 811 L57 809 L201 1008 L345 809 L348 811 L207 1024 L207 1024 Z M308 15 L294 15 C245 15 213 55 213 115 L213 635 C213 695 245 735 294 735 L308 735 L308 750 L94 750 L94 735 L108 735 C157 735 189 695 189 635 L189 115 C189 55 157 15 108 15 L94 15 L94 0 L308 0 L308 15 L308 15 Z " />
<glyph glyph-name="Idieresis" unicode="&#xcf;" horiz-adv-x="367" d="M284 885 C284 911 244 911 244 885 C244 859 284 859 284 885 L284 885 Z M156 885 C156 911 116 911 116 885 C116 859 156 859 156 885 L156 885 Z M307 15 L293 15 C244 15 212 55 212 115 L212 635 C212 695 244 735 293 735 L307 735 L307 750 L93 750 L93 735 L107 735 C156 735 188 695 188 635 L188 115 C188 55 156 15 107 15 L93 15 L93 0 L307 0 L307 15 L307 15 Z " />
<glyph glyph-name="Ntilde" unicode="&#xd1;" horiz-adv-x="770" d="M240 870 C240 913 260 941 289 941 C345 941 419 876 474 876 C507 876 529 906 529 951 L528 951 C528 915 508 891 478 891 C423 891 349 956 293 956 C261 956 239 922 239 870 L240 870 L240 870 Z M49 735 L64 735 C93 735 125 721 154 697 L153 115 L153 115 C153 55 121 15 72 15 L58 15 L58 0 L255 0 L255 15 L241 15 C192 15 160 55 160 115 L160 115 L159 692 C174 679 189 663 202 645 C338 430 475 216 610 0 L615 0 L616 635 L616 635 C616 695 648 735 697 735 L711 735 L711 750 L514 750 L514 735 L528 735 C577 735 609 695 609 635 L609 635 L610 44 L166 750 L50 750 L49 735 L49 735 Z " />
<glyph glyph-name="Ograve" unicode="&#xd2;" horiz-adv-x="767" d="M96 375 C96 605 212 758 386 758 C567 758 687 605 687 375 C687 145 563 -8 377 -8 C208 -8 96 145 96 375 L96 375 Z M71 375 C71 144 193 -10 377 -10 C578 -10 712 144 712 375 C712 606 582 760 387 760 C197 760 71 606 71 375 L71 375 Z M180 1012 C180 1009 210 981 255 940 L391 814 L394 817 L264 949 C222 993 193 1022 190 1022 C185 1022 180 1017 180 1012 L180 1012 Z " />
<glyph glyph-name="Oacute" unicode="&#xd3;" horiz-adv-x="767" d="M393 814 L529 940 C574 983 604 1011 604 1012 C604 1017 599 1022 594 1022 C594 1022 564 993 520 949 L390 817 L393 814 L393 814 Z M96 375 C96 605 212 758 386 758 C567 758 687 605 687 375 C687 145 563 -8 377 -8 C208 -8 96 145 96 375 L96 375 Z M71 375 C71 144 193 -10 377 -10 C578 -10 712 144 712 375 C712 606 582 760 387 760 C197 760 71 606 71 375 L71 375 Z " />
<glyph glyph-name="Ocircumflex" unicode="&#xd4;" horiz-adv-x="767" d="M96 375 C96 605 212 758 386 758 C567 758 687 605 687 375 C687 145 563 -8 377 -8 C208 -8 96 145 96 375 L96 375 Z M71 375 C71 144 193 -10 377 -10 C578 -10 712 144 712 375 C712 606 582 760 387 760 C197 760 71 606 71 375 L71 375 Z M394 1024 C391 1032 384 1032 381 1024 L241 811 L244 809 L388 1008 L532 809 L535 811 L394 1024 L394 1024 Z " />
<glyph glyph-name="Otilde" unicode="&#xd5;" horiz-adv-x="767" d="M243 870 C243 913 263 941 292 941 C348 941 422 876 477 876 C510 876 532 906 532 951 L531 951 C531 915 511 891 481 891 C426 891 352 956 296 956 C264 956 242 922 242 870 L243 870 L243 870 Z M96 375 C96 605 212 758 386 758 C567 758 687 605 687 375 C687 145 563 -8 377 -8 C208 -8 96 145 96 375 L96 375 Z M71 375 C71 144 193 -10 377 -10 C578 -10 712 144 712 375 C712 606 582 760 387 760 C197 760 71 606 71 375 L71 375 Z " />
<glyph glyph-name="Odieresis" unicode="&#xd6;" horiz-adv-x="767" d="M471 885 C471 911 431 911 431 885 C431 859 471 859 471 885 L471 885 Z M343 885 C343 911 303 911 303 885 C303 859 343 859 343 885 L343 885 Z M96 375 C96 605 212 758 386 758 C567 758 687 605 687 375 C687 145 563 -8 377 -8 C208 -8 96 145 96 375 L96 375 Z M71 375 C71 144 193 -10 377 -10 C578 -10 712 144 712 375 C712 606 582 760 387 760 C197 760 71 606 71 375 L71 375 Z " />
<glyph glyph-name="Oslash" unicode="&#xd8;" horiz-adv-x="767" d="M72 -11 C72 -11 102 26 158 93 C211 28 286 -9 376 -9 C577 -9 711 145 711 376 C711 490 679 586 623 653 C652 688 682 724 712 761 L710 763 C680 727 650 691 621 657 C564 724 483 762 386 762 C196 762 70 608 70 377 C70 261 101 164 155 97 C99 30 69 -7 69 -7 L72 -11 L72 -11 Z M611 644 C414 407 258 220 165 108 C120 174 95 266 95 376 C95 606 211 759 385 759 C480 759 558 717 611 644 L611 644 Z M613 642 C660 576 686 485 686 377 C686 147 562 -6 376 -6 C289 -6 217 35 168 106 C261 218 417 405 614 642 L613 642 L613 642 Z " />
<glyph glyph-name="Ugrave" unicode="&#xd9;" horiz-adv-x="666" d="M133 1012 C133 1009 163 981 208 940 L344 814 L347 817 L217 949 C175 993 146 1022 143 1022 C138 1022 133 1017 133 1012 L133 1012 Z M636 44 L622 40 C573 27 541 58 541 118 L541 750 L422 750 L422 735 L436 735 C485 735 517 695 517 635 L517 164 C473 69 370 5 261 5 C202 5 163 91 163 220 L163 750 L44 750 L44 735 L58 735 C107 735 139 695 139 635 L139 220 C139 82 184 -10 252 -10 C365 -10 471 55 517 153 L517 0 L529 0 L541 3 C571 11 608 21 636 29 L636 44 L636 44 Z " />
<glyph glyph-name="Uacute" unicode="&#xda;" horiz-adv-x="666" d="M346 814 L482 940 C527 983 557 1011 557 1012 C557 1017 552 1022 547 1022 C547 1022 517 993 473 949 L343 817 L346 814 L346 814 Z M636 44 L622 40 C573 27 541 58 541 118 L541 750 L422 750 L422 735 L436 735 C485 735 517 695 517 635 L517 164 C473 69 370 5 261 5 C202 5 163 91 163 220 L163 750 L44 750 L44 735 L58 735 C107 735 139 695 139 635 L139 220 C139 82 184 -10 252 -10 C365 -10 471 55 517 153 L517 0 L529 0 L541 3 C571 11 608 21 636 29 L636 44 L636 44 Z " />
<glyph glyph-name="Ucircumflex" unicode="&#xdb;" horiz-adv-x="666" d="M347 1024 C344 1032 337 1032 334 1024 L194 811 L197 809 L341 1008 L485 809 L488 811 L347 1024 L347 1024 Z M637 44 L623 40 C574 27 542 58 542 118 L542 750 L423 750 L423 735 L437 735 C486 735 518 695 518 635 L518 164 C474 69 371 5 262 5 C203 5 164 91 164 220 L164 750 L45 750 L45 735 L59 735 C108 735 140 695 140 635 L140 220 C140 82 185 -10 253 -10 C366 -10 472 55 518 153 L518 0 L530 0 L542 3 C572 11 609 21 637 29 L637 44 L637 44 Z " />
<glyph glyph-name="Udieresis" unicode="&#xdc;" horiz-adv-x="666" d="M424 885 C424 911 384 911 384 885 C384 859 424 859 424 885 L424 885 Z M296 885 C296 911 256 911 256 885 C256 859 296 859 296 885 L296 885 Z M636 44 L622 40 C573 27 541 58 541 118 L541 750 L422 750 L422 735 L436 735 C485 735 517 695 517 635 L517 164 C473 69 370 5 261 5 C202 5 163 91 163 220 L163 750 L44 750 L44 735 L58 735 C107 735 139 695 139 635 L139 220 C139 82 184 -10 252 -10 C365 -10 471 55 517 153 L517 0 L529 0 L541 3 C571 11 608 21 636 29 L636 44 L636 44 Z " />
<glyph glyph-name="Yacute" unicode="&#xdd;" horiz-adv-x="681" d="M350 814 L486 940 C531 983 561 1011 561 1012 C561 1017 556 1022 551 1022 C551 1022 521 993 477 949 L347 817 L350 814 L350 814 Z M241 750 L26 750 L26 735 L38 735 C77 735 126 696 162 637 L332 336 L332 135 C332 63 293 15 234 15 L217 15 L217 0 L471 0 L471 15 L454 15 C395 15 356 63 356 135 L356 339 L521 641 C556 698 611 735 662 735 L678 735 L678 750 L442 750 L442 735 L464 735 C527 735 546 693 512 630 L355 341 L188 639 C159 697 172 735 224 735 L240 735 L241 750 L241 750 Z " />
<glyph glyph-name="agrave" unicode="&#xe0;" horiz-adv-x="512" d="M522 57 L515 59 C510 29 487 9 459 9 C424 9 400 31 400 64 L400 361 C400 464 346 510 266 510 C155 510 81 414 81 360 C81 352 85 346 91 346 C106 346 116 352 116 356 C116 361 96 370 96 373 C96 422 163 508 264 508 C334 508 380 465 380 368 L380 266 C122 187 61 158 61 73 C61 23 107 -11 177 -11 C230 -11 297 17 380 91 L380 63 C380 22 408 -6 451 -6 C487 -6 515 19 522 56 L522 57 L522 57 Z M59 761 C59 758 89 730 134 689 L270 563 L273 566 L143 698 C101 742 72 771 69 771 C64 771 59 766 59 761 L59 761 Z M380 264 L380 92 C305 26 241 0 188 0 C124 0 81 30 81 75 C81 163 138 190 380 265 L380 264 L380 264 Z " />
<glyph glyph-name="aacute" unicode="&#xe1;" horiz-adv-x="512" d="M272 564 L408 690 C453 733 483 761 483 762 C483 767 478 772 473 772 C473 772 443 743 399 699 L269 567 L272 564 L272 564 Z M522 57 L515 59 C510 29 487 9 459 9 C424 9 400 31 400 64 L400 361 C400 464 346 510 266 510 C155 510 81 414 81 360 C81 352 85 346 91 346 C106 346 116 352 116 356 C116 361 96 370 96 373 C96 422 163 508 264 508 C334 508 380 465 380 368 L380 266 C122 187 61 158 61 73 C61 23 107 -11 177 -11 C230 -11 297 17 380 91 L380 63 C380 22 408 -6 451 -6 C487 -6 515 19 522 56 L522 57 L522 57 Z M380 264 L380 92 C305 26 241 0 188 0 C124 0 81 30 81 75 C81 163 138 190 380 265 L380 264 L380 264 Z " />
<glyph glyph-name="acircumflex" unicode="&#xe2;" horiz-adv-x="512" d="M522 57 L515 59 C510 29 487 9 459 9 C424 9 400 31 400 64 L400 361 C400 464 346 510 266 510 C155 510 81 414 81 360 C81 352 85 346 91 346 C106 346 116 352 116 356 C116 361 96 370 96 373 C96 422 163 508 264 508 C334 508 380 465 380 368 L380 266 C122 187 61 158 61 73 C61 23 107 -11 177 -11 C230 -11 297 17 380 91 L380 63 C380 22 408 -6 451 -6 C487 -6 515 19 522 56 L522 57 L522 57 Z M273 773 C270 781 263 781 260 773 L120 560 L123 558 L267 757 L411 558 L414 560 L273 773 L273 773 Z M381 264 L381 92 C306 26 242 0 189 0 C125 0 82 30 82 75 C82 163 139 190 381 265 L381 264 L381 264 Z " />
<glyph glyph-name="atilde" unicode="&#xe3;" horiz-adv-x="512" d="M122 620 C122 663 142 691 171 691 C227 691 301 626 356 626 C389 626 411 656 411 701 L410 701 C410 665 390 641 360 641 C305 641 231 706 175 706 C143 706 121 672 121 620 L122 620 L122 620 Z M522 57 L515 59 C510 29 487 9 459 9 C424 9 400 31 400 64 L400 361 C400 464 346 510 266 510 C155 510 81 414 81 360 C81 352 85 346 91 346 C106 346 116 352 116 356 C116 361 96 370 96 373 C96 422 163 508 264 508 C334 508 380 465 380 368 L380 266 C122 187 61 158 61 73 C61 23 107 -11 177 -11 C230 -11 297 17 380 91 L380 63 C380 22 408 -6 451 -6 C487 -6 515 19 522 56 L522 57 L522 57 Z M380 264 L380 92 C305 26 241 0 188 0 C124 0 81 30 81 75 C81 163 138 190 380 265 L380 264 L380 264 Z " />
<glyph glyph-name="adieresis" unicode="&#xe4;" horiz-adv-x="512" d="M350 635 C350 661 310 661 310 635 C310 609 350 609 350 635 L350 635 Z M222 635 C222 661 182 661 182 635 C182 609 222 609 222 635 L222 635 Z M522 57 L515 59 C510 29 487 9 459 9 C424 9 400 31 400 64 L400 361 C400 464 346 510 266 510 C155 510 81 414 81 360 C81 352 85 346 91 346 C106 346 116 352 116 356 C116 361 96 370 96 373 C96 422 163 508 264 508 C334 508 380 465 380 368 L380 266 C122 187 61 158 61 73 C61 23 107 -11 177 -11 C230 -11 297 17 380 91 L380 63 C380 22 408 -6 451 -6 C487 -6 515 19 522 56 L522 57 L522 57 Z M380 264 L380 92 C305 26 241 0 188 0 C124 0 81 30 81 75 C81 163 138 190 380 265 L380 264 L380 264 Z " />
<glyph glyph-name="aring" unicode="&#xe5;" horiz-adv-x="512" d="M177 655 C177 709 213 745 266 745 C319 745 355 709 355 655 C355 606 314 565 266 565 C218 565 177 606 177 655 L177 655 Z M171 655 C171 604 215 560 266 560 C317 560 361 604 361 655 C361 712 323 750 266 750 C209 750 171 712 171 655 L171 655 Z M522 57 L515 59 C510 29 487 9 459 9 C424 9 400 31 400 64 L400 361 C400 464 346 510 266 510 C155 510 81 414 81 360 C81 352 85 346 91 346 C106 346 116 352 116 356 C116 361 96 370 96 373 C96 422 163 508 264 508 C334 508 380 465 380 368 L380 266 C122 187 61 158 61 73 C61 23 107 -11 177 -11 C230 -11 297 17 380 91 L380 63 C380 22 408 -6 451 -6 C487 -6 515 19 522 56 L522 57 L522 57 Z M380 264 L380 92 C305 26 241 0 188 0 C124 0 81 30 81 75 C81 163 138 190 380 265 L380 264 L380 264 Z " />
<glyph glyph-name="egrave" unicode="&#xe8;" horiz-adv-x="522" d="M84 762 C84 759 114 731 159 690 L295 564 L298 567 L168 699 C126 743 97 772 94 772 C89 772 84 767 84 762 L84 762 Z M75 340 L492 340 C470 462 394 510 291 510 C143 510 45 434 45 238 C45 89 135 -10 269 -10 C364 -10 448 48 480 135 L479 135 C449 52 365 -4 271 -4 C148 -4 66 96 66 246 C66 281 69 312 75 340 L75 340 Z M469 342 L76 341 C102 460 182 509 292 509 C381 509 449 463 470 342 L469 342 L469 342 Z " />
<glyph glyph-name="eacute" unicode="&#xe9;" horiz-adv-x="522" d="M297 564 L433 690 C478 733 508 761 508 762 C508 767 503 772 498 772 C498 772 468 743 424 699 L294 567 L297 564 L297 564 Z M75 340 L492 340 C470 462 394 510 291 510 C143 510 45 434 45 238 C45 89 135 -10 269 -10 C364 -10 448 48 480 135 L479 135 C449 52 365 -4 271 -4 C148 -4 66 96 66 246 C66 281 69 312 75 340 L75 340 Z M469 342 L76 341 C102 460 182 509 292 509 C381 509 449 463 470 342 L469 342 L469 342 Z " />
<glyph glyph-name="ecircumflex" unicode="&#xea;" horiz-adv-x="522" d="M298 774 C295 782 288 782 285 774 L145 561 L148 559 L292 758 L436 559 L439 561 L298 774 L298 774 Z M76 340 L493 340 C471 462 395 510 292 510 C144 510 46 434 46 238 C46 89 136 -10 270 -10 C365 -10 449 48 481 135 L480 135 C450 52 366 -4 272 -4 C149 -4 67 96 67 246 C67 281 70 312 76 340 L76 340 Z M470 342 L77 341 C103 460 183 509 293 509 C382 509 450 463 471 342 L470 342 L470 342 Z " />
<glyph glyph-name="edieresis" unicode="&#xeb;" horiz-adv-x="522" d="M375 635 C375 661 335 661 335 635 C335 609 375 609 375 635 L375 635 Z M247 635 C247 661 207 661 207 635 C207 609 247 609 247 635 L247 635 Z M75 340 L492 340 C470 462 394 510 291 510 C143 510 45 434 45 238 C45 89 135 -10 269 -10 C364 -10 448 48 480 135 L479 135 C449 52 365 -4 271 -4 C148 -4 66 96 66 246 C66 281 69 312 75 340 L75 340 Z M469 342 L76 341 C102 460 182 509 292 509 C381 509 449 463 470 342 L469 342 L469 342 Z " />
<glyph glyph-name="igrave" unicode="&#xec;" horiz-adv-x="291" d="M-46 762 C-46 759 -16 731 29 690 L165 564 L168 567 L38 699 C-4 743 -33 772 -36 772 C-41 772 -46 767 -46 762 L-46 762 Z M76 462 L87 465 C125 475 151 456 151 417 L151 80 C151 41 125 15 87 15 L76 15 L76 0 L246 0 L246 15 L235 15 C197 15 171 41 171 80 L171 500 L161 500 C136 493 102 484 76 477 L76 462 L76 462 Z " />
<glyph glyph-name="iacute" unicode="&#xed;" horiz-adv-x="291" d="M-46 762 C-46 759 -16 731 29 690 L165 564 L168 567 L38 699 C-4 743 -33 772 -36 772 C-41 772 -46 767 -46 762 L-46 762 Z M76 462 L87 465 C125 475 151 456 151 417 L151 80 C151 41 125 15 87 15 L76 15 L76 0 L246 0 L246 15 L235 15 C197 15 171 41 171 80 L171 500 L161 500 C136 493 102 484 76 477 L76 462 L76 462 Z " />
<glyph glyph-name="icircumflex" unicode="&#xee;" horiz-adv-x="291" d="M168 774 C165 782 158 782 155 774 L15 561 L18 559 L162 758 L306 559 L309 561 L168 774 L168 774 Z M77 462 L88 465 C126 475 152 456 152 417 L152 80 C152 41 126 15 88 15 L77 15 L77 0 L247 0 L247 15 L236 15 C198 15 172 41 172 80 L172 500 L162 500 C137 493 103 484 77 477 L77 462 L77 462 Z " />
<glyph glyph-name="idieresis" unicode="&#xef;" horiz-adv-x="291" d="M245 635 C245 661 205 661 205 635 C205 609 245 609 245 635 L245 635 Z M117 635 C117 661 77 661 77 635 C77 609 117 609 117 635 L117 635 Z M76 462 L87 465 C125 475 151 456 151 417 L151 80 C151 41 125 15 87 15 L76 15 L76 0 L246 0 L246 15 L235 15 C197 15 171 41 171 80 L171 500 L161 500 C136 493 102 484 76 477 L76 462 L76 462 Z " />
<glyph glyph-name="ntilde" unicode="&#xf1;" horiz-adv-x="524" d="M121 620 C121 663 140 691 169 691 C225 691 299 626 354 626 C387 626 409 656 409 701 L408 701 C408 665 388 641 358 641 C303 641 229 706 174 706 C142 706 120 672 120 620 L121 620 L121 620 Z M35 467 L46 467 C84 468 110 432 110 375 L110 80 C110 41 84 15 46 15 L35 15 L35 0 L205 0 L205 15 L194 15 C156 15 130 41 130 80 L130 365 C177 446 238 500 282 500 C359 500 399 432 399 330 L399 80 C399 41 373 15 335 15 L324 15 L324 0 L494 0 L494 15 L483 15 C445 15 419 41 419 80 L419 330 C419 438 375 510 289 510 C242 510 179 454 130 369 L130 500 L120 500 C95 493 61 484 35 477 L35 467 L35 467 Z " />
<glyph glyph-name="ograve" unicode="&#xf2;" horiz-adv-x="596" d="M67 250 C67 405 159 508 298 508 C436 508 528 405 528 250 C528 95 436 -8 298 -8 C159 -8 67 95 67 250 L67 250 Z M45 250 C45 94 146 -10 298 -10 C450 -10 551 94 551 250 C551 406 450 510 298 510 C146 510 45 406 45 250 L45 250 Z M91 762 C91 759 121 731 166 690 L302 564 L305 567 L175 699 C133 743 104 772 101 772 C96 772 91 767 91 762 L91 762 Z " />
<glyph glyph-name="oacute" unicode="&#xf3;" horiz-adv-x="596" d="M304 564 L440 690 C485 733 515 761 515 762 C515 767 510 772 505 772 C505 772 475 743 431 699 L301 567 L304 564 L304 564 Z M67 250 C67 405 159 508 298 508 C436 508 528 405 528 250 C528 95 436 -8 298 -8 C159 -8 67 95 67 250 L67 250 Z M45 250 C45 94 146 -10 298 -10 C450 -10 551 94 551 250 C551 406 450 510 298 510 C146 510 45 406 45 250 L45 250 Z " />
<glyph glyph-name="ocircumflex" unicode="&#xf4;" horiz-adv-x="596" d="M67 250 C67 405 159 508 298 508 C436 508 528 405 528 250 C528 95 436 -8 298 -8 C159 -8 67 95 67 250 L67 250 Z M45 250 C45 94 146 -10 298 -10 C450 -10 551 94 551 250 C551 406 450 510 298 510 C146 510 45 406 45 250 L45 250 Z M305 774 C302 782 295 782 292 774 L152 561 L155 559 L299 758 L443 559 L446 561 L305 774 L305 774 Z " />
<glyph glyph-name="otilde" unicode="&#xf5;" horiz-adv-x="596" d="M154 620 C154 663 174 691 203 691 C259 691 333 626 388 626 C421 626 443 656 443 701 L442 701 C442 665 422 641 392 641 C337 641 263 706 207 706 C175 706 153 672 153 620 L154 620 L154 620 Z M67 250 C67 405 159 508 298 508 C436 508 528 405 528 250 C528 95 436 -8 298 -8 C159 -8 67 95 67 250 L67 250 Z M45 250 C45 94 146 -10 298 -10 C450 -10 551 94 551 250 C551 406 450 510 298 510 C146 510 45 406 45 250 L45 250 Z " />
<glyph glyph-name="odieresis" unicode="&#xf6;" horiz-adv-x="596" d="M382 635 C382 661 342 661 342 635 C342 609 382 609 382 635 L382 635 Z M254 635 C254 661 214 661 214 635 C214 609 254 609 254 635 L254 635 Z M67 250 C67 405 159 508 298 508 C436 508 528 405 528 250 C528 95 436 -8 298 -8 C159 -8 67 95 67 250 L67 250 Z M45 250 C45 94 146 -10 298 -10 C450 -10 551 94 551 250 C551 406 450 510 298 510 C146 510 45 406 45 250 L45 250 Z " />
<glyph glyph-name="oslash" unicode="&#xf8;" horiz-adv-x="596" d="M46 -11 C46 -11 71 14 116 60 C160 15 223 -11 298 -11 C450 -11 551 93 551 249 C551 326 526 391 482 436 C505 459 528 483 552 507 L550 509 C526 485 503 461 480 438 C436 483 373 509 298 509 C146 509 45 405 45 249 C45 172 70 107 114 62 C69 16 44 -9 44 -9 L46 -11 L46 -11 Z M471 430 C318 272 197 147 124 71 C88 116 68 177 68 249 C68 404 160 507 299 507 C372 507 432 478 472 428 L471 430 L471 430 Z M474 426 C509 382 529 321 529 249 C529 94 437 -9 299 -9 C226 -9 166 19 125 68 C198 144 319 269 473 427 L474 426 L474 426 Z " />
<glyph glyph-name="ugrave" unicode="&#xf9;" horiz-adv-x="515" d="M52 763 C52 760 82 732 128 691 L265 565 L267 568 L137 700 C95 744 65 773 62 773 C57 773 52 768 52 763 L52 763 Z M500 41 L487 38 C444 27 415 59 415 119 L415 500 L405 500 L405 501 L320 501 L320 486 L331 486 C369 486 395 460 395 421 L395 126 C363 52 301 4 236 4 C170 4 126 66 126 160 L126 500 L31 500 L31 485 L42 485 C80 485 106 459 106 420 L106 160 C106 58 154 -10 227 -10 C295 -10 360 43 395 125 L395 0 L405 0 C433 8 471 18 500 26 L500 41 L500 41 Z " />
<glyph glyph-name="uacute" unicode="&#xfa;" horiz-adv-x="515" d="M266 565 L403 691 C449 734 479 763 479 763 C479 768 474 773 469 773 C468 773 438 744 394 700 L264 568 L266 565 L266 565 Z M500 41 L487 38 C444 27 415 59 415 119 L415 500 L405 500 L405 501 L320 501 L320 486 L331 486 C369 486 395 460 395 421 L395 126 C363 52 301 4 236 4 C170 4 126 66 126 160 L126 500 L31 500 L31 485 L42 485 C80 485 106 459 106 420 L106 160 C106 58 154 -10 227 -10 C295 -10 360 43 395 125 L395 0 L405 0 C433 8 471 18 500 26 L500 41 L500 41 Z " />
<glyph glyph-name="ucircumflex" unicode="&#xfb;" horiz-adv-x="515" d="M268 775 C265 784 256 783 253 775 L114 562 L117 560 L261 758 L404 560 L407 562 L268 775 L268 775 Z M500 41 L487 38 C444 27 415 59 415 119 L415 500 L405 500 L405 501 L320 501 L320 486 L331 486 C369 486 395 460 395 421 L395 126 C363 52 301 4 236 4 C170 4 126 66 126 160 L126 500 L31 500 L31 485 L42 485 C80 485 106 459 106 420 L106 160 C106 58 154 -10 227 -10 C295 -10 360 43 395 125 L395 0 L405 0 C433 8 471 18 500 26 L500 41 L500 41 Z " />
<glyph glyph-name="udieresis" unicode="&#xfc;" horiz-adv-x="515" d="M344 636 C344 662 304 662 304 636 C304 610 344 610 344 636 L344 636 Z M217 636 C217 662 177 662 177 636 C177 610 217 610 217 636 L217 636 Z M500 41 L487 38 C444 27 415 59 415 119 L415 500 L405 500 L405 501 L320 501 L320 486 L331 486 C369 486 395 460 395 421 L395 126 C363 52 301 4 236 4 C170 4 126 66 126 160 L126 500 L31 500 L31 485 L42 485 C80 485 106 459 106 420 L106 160 C106 58 154 -10 227 -10 C295 -10 360 43 395 125 L395 0 L405 0 C433 8 471 18 500 26 L500 41 L500 41 Z " />
<glyph glyph-name="ydieresis" unicode="&#xff;" horiz-adv-x="485" d="M333 635 C333 661 293 661 293 635 C293 609 333 609 333 635 L333 635 Z M205 635 C205 661 165 661 165 635 C165 609 205 609 205 635 L205 635 Z M475 500 L321 500 L321 485 L332 485 C365 485 376 450 361 396 C321 275 283 152 241 33 C207 149 172 266 139 381 C120 444 131 486 167 486 L178 486 L178 501 L10 501 L10 486 L22 486 C57 486 92 450 112 395 L229 -1 C210 -56 192 -111 173 -166 C168 -182 154 -193 146 -193 C124 -193 119 -183 97 -183 C75 -183 60 -198 60 -220 C60 -243 76 -259 101 -259 C118 -259 159 -223 178 -168 L233 -9 C278 126 324 260 370 395 C392 450 429 486 465 486 L476 486 L475 500 L475 500 Z " />
<glyph glyph-name="Amacron" unicode="&#x100;" horiz-adv-x="743" d="M259 907 L559 907 L559 920 L259 920 L259 907 L259 907 Z M468 0 L738 0 L738 19 L722 19 C668 19 615 79 589 169 L589 169 L421 743 C421 743 415 770 413 770 L411 770 C414 755 408 745 397 743 L400 733 C339 545 279 356 218 169 C189 79 121 19 47 19 L25 19 L25 0 L312 0 L312 19 L291 19 C220 19 192 79 221 169 L262 297 L527 297 L566 161 C588 75 558 18 489 18 L468 18 L468 0 L468 0 Z M262 297 L400 730 L526 297 L262 297 L262 297 Z " />
<glyph glyph-name="amacron" unicode="&#x101;" horiz-adv-x="512" d="M116 657 L416 657 L416 670 L116 670 L116 657 L116 657 Z M522 57 L515 59 C510 29 487 9 459 9 C424 9 400 31 400 64 L400 361 C400 464 346 510 266 510 C155 510 81 414 81 360 C81 352 85 346 91 346 C106 346 116 352 116 356 C116 361 96 370 96 373 C96 422 163 508 264 508 C334 508 380 465 380 368 L380 266 C122 187 61 158 61 73 C61 23 107 -11 177 -11 C230 -11 297 17 380 91 L380 63 C380 22 408 -6 451 -6 C487 -6 515 19 522 56 L522 57 L522 57 Z M380 264 L380 92 C305 26 241 0 188 0 C124 0 81 30 81 75 C81 163 138 190 380 265 L380 264 L380 264 Z " />
<glyph glyph-name="Abreve" unicode="&#x102;" horiz-adv-x="743" d="M293 995 C294 940 341 904 409 904 C477 904 524 940 525 994 L521 995 C520 949 475 919 409 919 C343 919 298 949 297 995 L293 995 L293 995 Z M468 0 L738 0 L738 19 L722 19 C668 19 615 79 589 169 L589 169 L421 743 C421 743 415 770 413 770 L411 770 C414 755 408 745 397 743 L400 733 C339 545 279 356 218 169 C189 79 121 19 47 19 L25 19 L25 0 L312 0 L312 19 L291 19 C220 19 192 79 221 169 L262 297 L527 297 L566 161 C588 75 558 18 489 18 L468 18 L468 0 L468 0 Z M262 297 L400 730 L526 297 L262 297 L262 297 Z " />
<glyph glyph-name="abreve" unicode="&#x103;" horiz-adv-x="512" d="M150 745 C151 690 198 654 266 654 C334 654 381 690 382 744 L378 745 C377 699 332 669 266 669 C200 669 155 699 154 745 L150 745 L150 745 Z M522 57 L515 59 C510 29 487 9 459 9 C424 9 400 31 400 64 L400 361 C400 464 346 510 266 510 C155 510 81 414 81 360 C81 352 85 346 91 346 C106 346 116 352 116 356 C116 361 96 370 96 373 C96 422 163 508 264 508 C334 508 380 465 380 368 L380 266 C122 187 61 158 61 73 C61 23 107 -11 177 -11 C230 -11 297 17 380 91 L380 63 C380 22 408 -6 451 -6 C487 -6 515 19 522 56 L522 57 L522 57 Z M380 264 L380 92 C305 26 241 0 188 0 C124 0 81 30 81 75 C81 163 138 190 380 265 L380 264 L380 264 Z " />
<glyph glyph-name="Cacute" unicode="&#x106;" horiz-adv-x="676" d="M365 814 L501 940 C546 983 576 1011 576 1012 C576 1017 571 1022 566 1022 C566 1022 536 993 492 949 L362 817 L365 814 L365 814 Z M435 754 L435 753 C412 757 387 759 359 759 C186 759 71 605 71 374 C71 143 182 -11 348 -11 C378 -11 406 -8 431 -3 L431 -3 C454 2 476 9 496 18 L496 17 C560 46 605 46 609 17 L613 -7 L627 -7 L627 217 L607 217 L598 182 C577 95 515 24 441 2 C413 -6 383 -10 350 -10 C198 -10 97 143 97 373 C97 603 203 756 361 756 C394 756 423 752 449 745 C519 724 579 653 600 564 L609 528 L629 528 L629 749 L615 749 L611 726 C607 699 561 703 501 729 C482 738 459 745 436 750 L435 754 L435 754 Z M626 123 L626 123 L626 123 L626 123 Z " />
<glyph glyph-name="Ccircumflex" unicode="&#x108;" horiz-adv-x="676" d="M435 754 L435 753 C412 757 387 759 359 759 C186 759 71 605 71 374 C71 143 182 -11 348 -11 C378 -11 406 -8 431 -3 L431 -3 C454 2 476 9 496 18 L496 17 C560 46 605 46 609 17 L613 -7 L627 -7 L627 217 L607 217 L598 182 C577 95 515 24 441 2 C413 -6 383 -10 350 -10 C198 -10 97 143 97 373 C97 603 203 756 361 756 C394 756 423 752 449 745 C519 724 579 653 600 564 L609 528 L629 528 L629 749 L615 749 L611 726 C607 699 561 703 501 729 C482 738 459 745 436 750 L435 754 L435 754 Z M367 1020 C364 1028 357 1028 354 1020 L214 807 L217 805 L361 1004 L505 805 L508 807 L367 1020 L367 1020 Z M627 123 L627 123 L627 123 L627 123 Z " />
<glyph glyph-name="Cdot" unicode="&#x10a;" horiz-adv-x="676" d="M379 885 C379 911 339 911 339 885 C339 859 379 859 379 885 L379 885 Z M435 754 L435 753 C412 757 387 759 359 759 C186 759 71 605 71 374 C71 143 182 -11 348 -11 C378 -11 406 -8 431 -3 L431 -3 C454 2 476 9 496 18 L496 17 C560 46 605 46 609 17 L613 -7 L627 -7 L627 217 L607 217 L598 182 C577 95 515 24 441 2 C413 -6 383 -10 350 -10 C198 -10 97 143 97 373 C97 603 203 756 361 756 C394 756 423 752 449 745 C519 724 579 653 600 564 L609 528 L629 528 L629 749 L615 749 L611 726 C607 699 561 703 501 729 C482 738 459 745 436 750 L435 754 L435 754 Z M626 123 L626 123 L626 123 L626 123 Z " />
<glyph glyph-name="cdot" unicode="&#x10b;" horiz-adv-x="434" d="M254 635 C254 661 214 661 214 635 C214 609 254 609 254 635 L254 635 Z M404 128 L403 128 C368 49 295 -4 220 -4 C126 -4 64 99 64 254 C64 407 132 509 233 509 C301 509 361 467 384 405 C386 399 390 395 394 395 C402 395 406 399 404 405 C381 468 313 510 234 510 C121 510 45 403 45 242 C45 91 114 -10 217 -10 C292 -10 367 45 404 128 L404 128 Z " />
<glyph glyph-name="Ccaron" unicode="&#x10c;" horiz-adv-x="676" d="M503 1041 L359 842 L215 1041 L212 1039 L352 826 C355 818 362 818 365 826 L505 1039 L503 1041 L503 1041 Z M434 754 L434 753 C411 757 386 759 358 759 C185 759 70 605 70 374 C70 143 181 -11 347 -11 C377 -11 405 -8 430 -3 L430 -3 C453 2 475 9 495 18 L495 17 C559 46 604 46 608 17 L612 -7 L626 -7 L626 217 L606 217 L597 182 C576 95 514 24 440 2 C412 -6 382 -10 349 -10 C197 -10 96 143 96 373 C96 603 202 756 360 756 C393 756 422 752 448 745 C518 724 578 653 599 564 L608 528 L628 528 L628 749 L614 749 L610 726 C606 699 560 703 500 729 C481 738 458 745 435 750 L434 754 L434 754 Z M625 123 L625 123 L625 123 L625 123 Z " />
<glyph glyph-name="ccaron" unicode="&#x10d;" horiz-adv-x="434" d="M378 791 L234 592 L90 791 L87 789 L227 576 C230 568 237 568 240 576 L380 789 L378 791 L378 791 Z M403 128 L402 128 C367 49 294 -4 219 -4 C125 -4 63 99 63 254 C63 407 131 509 232 509 C300 509 360 467 383 405 C385 399 389 395 393 395 C401 395 405 399 403 405 C380 468 312 510 233 510 C120 510 44 403 44 242 C44 91 113 -10 216 -10 C291 -10 366 45 403 128 L403 128 Z " />
<glyph glyph-name="Dcaron" unicode="&#x10e;" horiz-adv-x="784" d="M583 1041 L439 842 L295 1041 L292 1039 L432 826 C435 818 442 818 445 826 L585 1039 L583 1041 L583 1041 Z M275 1 C205 1 197 74 197 183 L197 749 L311 749 C570 749 703 599 703 375 C703 128 532 1 275 1 L275 1 Z M78 735 L92 735 C141 735 173 695 173 635 L173 115 C173 55 141 15 92 15 L78 15 L78 0 L277 0 C548 0 728 128 728 375 C728 600 588 750 317 750 L78 750 L78 735 L78 735 Z " />
<glyph glyph-name="dcaron" unicode="&#x10f;" horiz-adv-x="594" d="M568 758 C563 758 554 697 548 653 L533 542 L537 541 L559 650 C570 701 577 743 577 755 C577 757 573 758 568 758 L568 758 Z M579 43 L565 39 C516 26 484 57 484 117 L484 750 L474 750 L464 747 L464 746 C440 740 411 732 388 726 L388 716 L399 716 C437 717 463 681 463 624 L463 393 C437 458 377 511 313 511 C136 511 45 409 45 257 C45 100 141 -4 286 -4 C357 -4 428 29 463 78 L463 0 L473 0 C504 8 546 19 578 28 L579 43 L579 43 Z M463 375 L463 81 C430 35 362 4 294 4 C157 4 65 107 65 262 C65 408 150 505 316 505 C381 505 443 446 464 376 L463 375 L463 375 Z " />
<glyph glyph-name="Emacron" unicode="&#x112;" horiz-adv-x="610" d="M191 907 L491 907 L491 920 L191 920 L191 907 L191 907 Z M59 735 L76 735 C135 735 174 687 174 615 L174 135 C174 63 135 15 76 15 L59 15 L59 0 L533 0 L533 1 L534 1 C541 42 551 96 558 137 L543 137 L535 117 C511 53 441 9 356 3 C214 10 198 80 198 183 L198 385 L279 385 C357 385 417 336 430 262 L434 240 L449 240 L449 532 L434 532 L430 510 C417 436 357 387 279 387 L198 387 L198 748 L338 748 C416 748 482 699 504 625 L511 603 L526 603 C521 647 514 705 509 749 L508 749 L508 750 L59 750 L59 735 L59 735 Z " />
<glyph glyph-name="emacron" unicode="&#x113;" horiz-adv-x="522" d="M141 657 L441 657 L441 670 L141 670 L141 657 L141 657 Z M75 340 L492 340 C470 462 394 510 291 510 C143 510 45 434 45 238 C45 89 135 -10 269 -10 C364 -10 448 48 480 135 L479 135 C449 52 365 -4 271 -4 C148 -4 66 96 66 246 C66 281 69 312 75 340 L75 340 Z M469 342 L76 341 C102 460 182 509 292 509 C381 509 449 463 470 342 L469 342 L469 342 Z " />
<glyph glyph-name="Ebreve" unicode="&#x114;" horiz-adv-x="610" d="M225 995 C226 940 273 904 341 904 C409 904 456 940 457 994 L453 995 C452 949 407 919 341 919 C275 919 230 949 229 995 L225 995 L225 995 Z M59 735 L76 735 C135 735 174 687 174 615 L174 135 C174 63 135 15 76 15 L59 15 L59 0 L533 0 L533 1 L534 1 C541 42 551 96 558 137 L543 137 L535 117 C511 53 441 9 356 3 C214 10 198 80 198 183 L198 385 L279 385 C357 385 417 336 430 262 L434 240 L449 240 L449 532 L434 532 L430 510 C417 436 357 387 279 387 L198 387 L198 748 L338 748 C416 748 482 699 504 625 L511 603 L526 603 C521 647 514 705 509 749 L508 749 L508 750 L59 750 L59 735 L59 735 Z " />
<glyph glyph-name="ebreve" unicode="&#x115;" horiz-adv-x="522" d="M175 745 C176 690 223 654 291 654 C359 654 406 690 407 744 L403 745 C402 699 357 669 291 669 C225 669 180 699 179 745 L175 745 L175 745 Z M75 340 L492 340 C470 462 394 510 291 510 C143 510 45 434 45 238 C45 89 135 -10 269 -10 C364 -10 448 48 480 135 L479 135 C449 52 365 -4 271 -4 C148 -4 66 96 66 246 C66 281 69 312 75 340 L75 340 Z M469 342 L76 341 C102 460 182 509 292 509 C381 509 449 463 470 342 L469 342 L469 342 Z " />
<glyph glyph-name="Edot" unicode="&#x116;" horiz-adv-x="610" d="M361 885 C361 911 321 911 321 885 C321 859 361 859 361 885 L361 885 Z M59 735 L76 735 C135 735 174 687 174 615 L174 135 C174 63 135 15 76 15 L59 15 L59 0 L533 0 L533 1 L534 1 C541 42 551 96 558 137 L543 137 L535 117 C511 53 441 9 356 3 C214 10 198 80 198 183 L198 385 L279 385 C357 385 417 336 430 262 L434 240 L449 240 L449 532 L434 532 L430 510 C417 436 357 387 279 387 L198 387 L198 748 L338 748 C416 748 482 699 504 625 L511 603 L526 603 C521 647 514 705 509 749 L508 749 L508 750 L59 750 L59 735 L59 735 Z " />
<glyph glyph-name="edot" unicode="&#x117;" horiz-adv-x="522" d="M311 635 C311 661 271 661 271 635 C271 609 311 609 311 635 L311 635 Z M75 340 L492 340 C470 462 394 510 291 510 C143 510 45 434 45 238 C45 89 135 -10 269 -10 C364 -10 448 48 480 135 L479 135 C449 52 365 -4 271 -4 C148 -4 66 96 66 246 C66 281 69 312 75 340 L75 340 Z M469 342 L76 341 C102 460 182 509 292 509 C381 509 449 463 470 342 L469 342 L469 342 Z " />
<glyph glyph-name="Ecaron" unicode="&#x11a;" horiz-adv-x="610" d="M485 1041 L341 842 L197 1041 L194 1039 L334 826 C337 818 344 818 347 826 L487 1039 L485 1041 L485 1041 Z M58 735 L75 735 C134 735 173 687 173 615 L173 135 C173 63 134 15 75 15 L58 15 L58 0 L532 0 L532 1 L533 1 C540 42 550 96 557 137 L542 137 L534 117 C510 53 440 9 355 3 C213 10 197 80 197 183 L197 385 L278 385 C356 385 416 336 429 262 L433 240 L448 240 L448 532 L433 532 L429 510 C416 436 356 387 278 387 L197 387 L197 748 L337 748 C415 748 481 699 503 625 L510 603 L525 603 C520 647 513 705 508 749 L507 749 L507 750 L58 750 L58 735 L58 735 Z " />
<glyph glyph-name="ecaron" unicode="&#x11b;" horiz-adv-x="522" d="M435 791 L291 592 L147 791 L144 789 L284 576 C287 568 294 568 297 576 L437 789 L435 791 L435 791 Z M74 340 L491 340 C469 462 393 510 290 510 C142 510 44 434 44 238 C44 89 134 -10 268 -10 C363 -10 447 48 479 135 L478 135 C448 52 364 -4 270 -4 C147 -4 65 96 65 246 C65 281 68 312 74 340 L74 340 Z M468 342 L75 341 C101 460 181 509 291 509 C380 509 448 463 469 342 L468 342 L468 342 Z " />
<glyph glyph-name="Gcircumflex" unicode="&#x11c;" horiz-adv-x="760" d="M435 754 L435 753 C412 757 387 759 359 759 C186 759 71 605 71 374 C71 143 183 -11 350 -11 C444 -11 521 2 590 24 L608 28 L608 30 C635 39 661 50 686 62 L686 63 C661 52 635 42 608 33 L608 171 C608 252 644 306 697 306 L713 306 L713 325 L480 325 L480 306 L496 306 C549 306 585 252 585 171 L585 26 C573 22 564 20 549 17 C573 26 586 37 586 49 L586 24 C568 21 544 15 525 11 C534 13 542 15 549 18 C497 9 403 -5 355 -5 C200 -5 97 147 97 375 C97 605 203 758 361 758 C394 758 423 754 449 747 C519 726 579 655 600 566 L609 530 L629 530 L629 751 L615 751 L611 728 C607 701 561 705 501 731 C482 740 459 747 436 752 L435 754 L435 754 Z M367 1022 C364 1030 357 1030 354 1022 L214 809 L217 807 L361 1006 L505 807 L508 809 L367 1022 L367 1022 Z " />
<glyph glyph-name="Gbreve" unicode="&#x11e;" horiz-adv-x="760" d="M243 995 C244 940 291 904 359 904 C427 904 474 940 475 994 L471 995 C470 949 425 919 359 919 C293 919 248 949 247 995 L243 995 L243 995 Z M435 754 L435 753 C412 757 387 759 359 759 C186 759 71 605 71 374 C71 143 183 -11 350 -11 C444 -11 521 2 590 24 L608 28 L608 30 C635 39 661 50 686 62 L686 63 C661 52 635 42 608 33 L608 171 C608 252 644 306 697 306 L713 306 L713 325 L480 325 L480 306 L496 306 C549 306 585 252 585 171 L585 26 C573 22 564 20 549 17 C573 26 586 37 586 49 L586 24 C568 21 544 15 525 11 C534 13 542 15 549 18 C497 9 403 -5 355 -5 C200 -5 97 147 97 375 C97 605 203 758 361 758 C394 758 423 754 449 747 C519 726 579 655 600 566 L609 530 L629 530 L629 751 L615 751 L611 728 C607 701 561 705 501 731 C482 740 459 747 436 752 L435 754 L435 754 Z " />
<glyph glyph-name="gbreve" unicode="&#x11f;" horiz-adv-x="520" d="M147 745 C148 690 195 654 263 654 C331 654 378 690 379 744 L375 745 C374 699 329 669 263 669 C197 669 152 699 151 745 L147 745 L147 745 Z M524 454 C475 454 440 434 428 401 C408 468 347 510 264 510 C161 510 92 446 92 350 C92 259 153 196 246 189 C137 186 65 155 65 110 C65 65 111 35 180 33 C108 15 61 -34 61 -91 C61 -174 146 -230 274 -230 C402 -230 487 -173 487 -88 C487 -4 436 52 304 52 L191 52 C123 52 78 77 78 115 C78 159 153 188 265 188 C368 188 437 253 437 350 C437 367 435 383 431 398 C443 425 474 442 515 442 C520 442 526 434 531 434 C544 434 539 455 525 455 L524 454 L524 454 Z M181 33 C184 33 187 33 190 33 L302 33 C424 33 471 -17 471 -92 C471 -174 392 -228 274 -228 C156 -228 77 -171 77 -85 C77 -29 118 17 181 33 L181 33 Z M264 190 C173 190 112 254 112 351 C112 446 173 510 264 510 C355 510 416 446 416 351 C416 254 355 190 264 190 L264 190 Z " />
<glyph glyph-name="Gdot" unicode="&#x120;" horiz-adv-x="760" d="M379 885 C379 911 339 911 339 885 C339 859 379 859 379 885 L379 885 Z M435 754 L435 753 C412 757 387 759 359 759 C186 759 71 605 71 374 C71 143 183 -11 350 -11 C444 -11 521 2 590 24 L608 28 L608 30 C635 39 661 50 686 62 L686 63 C661 52 635 42 608 33 L608 171 C608 252 644 306 697 306 L713 306 L713 325 L480 325 L480 306 L496 306 C549 306 585 252 585 171 L585 26 C573 22 564 20 549 17 C573 26 586 37 586 49 L586 24 C568 21 544 15 525 11 C534 13 542 15 549 18 C497 9 403 -5 355 -5 C200 -5 97 147 97 375 C97 605 203 758 361 758 C394 758 423 754 449 747 C519 726 579 655 600 566 L609 530 L629 530 L629 751 L615 751 L611 728 C607 701 561 705 501 731 C482 740 459 747 436 752 L435 754 L435 754 Z " />
<glyph glyph-name="gdot" unicode="&#x121;" horiz-adv-x="520" d="M283 635 C283 661 243 661 243 635 C243 609 283 609 283 635 L283 635 Z M524 454 C475 454 440 434 428 401 C408 468 347 510 264 510 C161 510 92 446 92 350 C92 259 153 196 246 189 C137 186 65 155 65 110 C65 65 111 35 180 33 C108 15 61 -34 61 -91 C61 -174 146 -230 274 -230 C402 -230 487 -173 487 -88 C487 -4 436 52 304 52 L191 52 C123 52 78 77 78 115 C78 159 153 188 265 188 C368 188 437 253 437 350 C437 367 435 383 431 398 C443 425 474 442 515 442 C520 442 526 434 531 434 C544 434 539 455 525 455 L524 454 L524 454 Z M181 33 C184 33 187 33 190 33 L302 33 C424 33 471 -17 471 -92 C471 -174 392 -228 274 -228 C156 -228 77 -171 77 -85 C77 -29 118 17 181 33 L181 33 Z M264 190 C173 190 112 254 112 351 C112 446 173 510 264 510 C355 510 416 446 416 351 C416 254 355 190 264 190 L264 190 Z " />
<glyph glyph-name="Hcircumflex" unicode="&#x124;" horiz-adv-x="805" d="M437 1024 C434 1032 427 1032 424 1024 L284 811 L287 809 L431 1008 L575 809 L578 811 L437 1024 L437 1024 Z M746 15 L732 15 C683 15 651 55 651 115 L651 635 C651 695 683 735 732 735 L746 735 L746 750 L532 750 L532 735 L546 735 C595 735 627 695 627 635 L627 385 L235 385 L235 635 C235 695 267 735 316 735 L330 735 L330 750 L116 750 L116 735 L130 735 C179 735 211 695 211 635 L211 115 C211 55 179 15 130 15 L116 15 L116 0 L330 0 L330 15 L316 15 C267 15 235 55 235 115 L235 383 L627 383 L627 115 C627 55 595 15 546 15 L532 15 L532 0 L746 0 L746 15 L746 15 Z " />
<glyph glyph-name="Itilde" unicode="&#x128;" horiz-adv-x="367" d="M56 870 C56 913 76 941 105 941 C161 941 235 876 290 876 C323 876 345 906 345 951 L344 951 C344 915 324 891 294 891 C239 891 165 956 109 956 C77 956 55 922 55 870 L56 870 L56 870 Z M307 15 L293 15 C244 15 212 55 212 115 L212 635 C212 695 244 735 293 735 L307 735 L307 750 L93 750 L93 735 L107 735 C156 735 188 695 188 635 L188 115 C188 55 156 15 107 15 L93 15 L93 0 L307 0 L307 15 L307 15 Z " />
<glyph glyph-name="itilde" unicode="&#x129;" horiz-adv-x="291" d="M17 620 C17 663 37 691 66 691 C122 691 196 626 251 626 C284 626 306 656 306 701 L305 701 C305 665 285 641 255 641 C200 641 126 706 70 706 C38 706 16 672 16 620 L17 620 L17 620 Z M76 462 L87 465 C125 475 151 456 151 417 L151 80 C151 41 125 15 87 15 L76 15 L76 0 L246 0 L246 15 L235 15 C197 15 171 41 171 80 L171 500 L161 500 C136 493 102 484 76 477 L76 462 L76 462 Z " />
<glyph glyph-name="Imacron" unicode="&#x12a;" horiz-adv-x="367" d="M50 907 L350 907 L350 920 L50 920 L50 907 L50 907 Z M307 15 L293 15 C244 15 212 55 212 115 L212 635 C212 695 244 735 293 735 L307 735 L307 750 L93 750 L93 735 L107 735 C156 735 188 695 188 635 L188 115 C188 55 156 15 107 15 L93 15 L93 0 L307 0 L307 15 L307 15 Z " />
<glyph glyph-name="imacron" unicode="&#x12b;" horiz-adv-x="291" d="M11 657 L311 657 L311 670 L11 670 L11 657 L11 657 Z M76 462 L87 465 C125 475 151 456 151 417 L151 80 C151 41 125 15 87 15 L76 15 L76 0 L246 0 L246 15 L235 15 C197 15 171 41 171 80 L171 500 L161 500 C136 493 102 484 76 477 L76 462 L76 462 Z " />
<glyph glyph-name="Ibreve" unicode="&#x12c;" horiz-adv-x="367" d="M84 995 C85 940 132 904 200 904 C268 904 315 940 316 994 L312 995 C311 949 266 919 200 919 C134 919 89 949 88 995 L84 995 L84 995 Z M307 15 L293 15 C244 15 212 55 212 115 L212 635 C212 695 244 735 293 735 L307 735 L307 750 L93 750 L93 735 L107 735 C156 735 188 695 188 635 L188 115 C188 55 156 15 107 15 L93 15 L93 0 L307 0 L307 15 L307 15 Z " />
<glyph glyph-name="ibreve" unicode="&#x12d;" horiz-adv-x="291" d="M45 745 C46 690 93 654 161 654 C229 654 276 690 277 744 L273 745 C272 699 227 669 161 669 C95 669 50 699 49 745 L45 745 L45 745 Z M76 462 L87 465 C125 475 151 456 151 417 L151 80 C151 41 125 15 87 15 L76 15 L76 0 L246 0 L246 15 L235 15 C197 15 171 41 171 80 L171 500 L161 500 C136 493 102 484 76 477 L76 462 L76 462 Z " />
<glyph glyph-name="Idot" unicode="&#x130;" horiz-adv-x="367" d="M220 885 C220 911 180 911 180 885 C180 859 220 859 220 885 L220 885 Z M307 15 L293 15 C244 15 212 55 212 115 L212 635 C212 695 244 735 293 735 L307 735 L307 750 L93 750 L93 735 L107 735 C156 735 188 695 188 635 L188 115 C188 55 156 15 107 15 L93 15 L93 0 L307 0 L307 15 L307 15 Z " />
<glyph glyph-name="dotlessi" unicode="&#x131;" horiz-adv-x="291" d="M76 462 L87 465 C125 475 151 456 151 417 L151 80 C151 41 125 15 87 15 L76 15 L76 0 L246 0 L246 15 L235 15 C197 15 171 41 171 80 L171 500 L161 500 C136 493 102 484 76 477 L76 462 L76 462 Z " />
<glyph glyph-name="Jcircumflex" unicode="&#x134;" horiz-adv-x="367" d="M207 1024 C204 1032 197 1032 194 1024 L54 811 L57 809 L201 1008 L345 809 L348 811 L207 1024 L207 1024 Z M308 750 L94 750 L94 735 L108 735 C157 735 189 695 189 635 L189 0 C189 -182 118 -217 66 -217 C54 -217 60 -198 48 -198 C42 -198 38 -202 38 -209 C38 -216 48 -220 64 -220 C127 -220 213 -178 213 44 L213 635 C213 695 245 735 294 735 L308 735 L308 750 L308 750 Z " />
<glyph glyph-name="Lacute" unicode="&#x139;" horiz-adv-x="632" d="M205 814 L341 940 C386 983 416 1011 416 1012 C416 1017 411 1022 406 1022 C406 1022 376 993 332 949 L202 817 L205 814 L205 814 Z M307 750 L93 750 L93 735 L107 735 C156 735 188 695 188 635 L188 115 C188 55 156 15 107 15 L93 15 L93 0 L547 0 L547 2 C554 43 564 98 571 139 L556 139 L548 119 C524 55 455 11 370 5 C229 12 213 82 213 183 L213 635 C213 695 245 735 294 735 L308 735 L307 750 L307 750 Z " />
<glyph glyph-name="Lcaron" unicode="&#x13d;" horiz-adv-x="632" d="M405 809 C400 809 391 748 385 704 L370 593 L374 592 L396 701 C407 752 414 794 414 806 C414 808 410 809 405 809 L405 809 Z M307 750 L93 750 L93 735 L107 735 C156 735 188 695 188 635 L188 115 C188 55 156 15 107 15 L93 15 L93 0 L547 0 L547 2 C554 43 564 98 571 139 L556 139 L548 119 C524 55 455 11 370 5 C229 12 213 82 213 183 L213 635 C213 695 245 735 294 735 L308 735 L307 750 L307 750 Z " />
<glyph glyph-name="lcaron" unicode="&#x13e;" horiz-adv-x="235" d="M214 759 C209 759 200 698 194 654 L179 543 L183 542 L205 651 C216 702 223 744 223 756 C223 758 219 759 214 759 L214 759 Z M35 717 L46 717 C84 718 110 682 110 625 L110 80 C110 41 84 15 46 15 L35 15 L35 0 L205 0 L205 15 L194 15 C156 15 130 41 130 80 L130 750 L120 750 C95 743 61 734 35 727 L35 717 L35 717 Z " />
<glyph glyph-name="Nacute" unicode="&#x143;" horiz-adv-x="770" d="M290 814 L426 940 C471 983 501 1011 501 1012 C501 1017 496 1022 491 1022 C491 1022 461 993 417 949 L287 817 L290 814 L290 814 Z M49 735 L64 735 C93 735 125 721 154 697 L153 115 L153 115 C153 55 121 15 72 15 L58 15 L58 0 L255 0 L255 15 L241 15 C192 15 160 55 160 115 L160 115 L159 692 C174 679 189 663 202 645 C338 430 475 216 610 0 L615 0 L616 635 L616 635 C616 695 648 735 697 735 L711 735 L711 750 L514 750 L514 735 L528 735 C577 735 609 695 609 635 L609 635 L610 44 L166 750 L50 750 L49 735 L49 735 Z " />
<glyph glyph-name="Ncaron" unicode="&#x147;" horiz-adv-x="770" d="M528 1041 L384 842 L240 1041 L237 1039 L377 826 C380 818 387 818 390 826 L530 1039 L528 1041 L528 1041 Z M48 735 L63 735 C92 735 124 721 153 697 L152 115 L152 115 C152 55 120 15 71 15 L57 15 L57 0 L254 0 L254 15 L240 15 C191 15 159 55 159 115 L159 115 L158 692 C173 679 188 663 201 645 C337 430 474 216 609 0 L614 0 L615 635 L615 635 C615 695 647 735 696 735 L710 735 L710 750 L513 750 L513 735 L527 735 C576 735 608 695 608 635 L608 635 L609 44 L165 750 L49 750 L48 735 L48 735 Z " />
<glyph glyph-name="ncaron" unicode="&#x148;" horiz-adv-x="524" d="M408 791 L265 593 L121 791 L118 789 L257 576 C260 568 269 567 272 576 L411 789 L408 791 L408 791 Z M35 467 L46 467 C84 468 110 432 110 375 L110 80 C110 41 84 15 46 15 L35 15 L35 0 L205 0 L205 15 L194 15 C156 15 130 41 130 80 L130 365 C177 446 238 500 282 500 C359 500 399 432 399 330 L399 80 C399 41 373 15 335 15 L324 15 L324 0 L494 0 L494 15 L483 15 C445 15 419 41 419 80 L419 330 C419 438 375 510 289 510 C242 510 179 454 130 369 L130 500 L120 500 C95 493 61 484 35 477 L35 467 L35 467 Z " />
<glyph glyph-name="Omacron" unicode="&#x14c;" horiz-adv-x="767" d="M237 907 L537 907 L537 920 L237 920 L237 907 L237 907 Z M96 375 C96 605 212 758 386 758 C567 758 687 605 687 375 C687 145 563 -8 377 -8 C208 -8 96 145 96 375 L96 375 Z M71 375 C71 144 193 -10 377 -10 C578 -10 712 144 712 375 C712 606 582 760 387 760 C197 760 71 606 71 375 L71 375 Z " />
<glyph glyph-name="omacron" unicode="&#x14d;" horiz-adv-x="596" d="M148 657 L448 657 L448 670 L148 670 L148 657 L148 657 Z M67 250 C67 405 159 508 298 508 C436 508 528 405 528 250 C528 95 436 -8 298 -8 C159 -8 67 95 67 250 L67 250 Z M45 250 C45 94 146 -10 298 -10 C450 -10 551 94 551 250 C551 406 450 510 298 510 C146 510 45 406 45 250 L45 250 Z " />
<glyph glyph-name="Obreve" unicode="&#x14e;" horiz-adv-x="767" d="M271 995 C272 940 319 904 387 904 C455 904 502 940 503 994 L499 995 C498 949 453 919 387 919 C321 919 276 949 275 995 L271 995 L271 995 Z M96 375 C96 605 212 758 386 758 C567 758 687 605 687 375 C687 145 563 -8 377 -8 C208 -8 96 145 96 375 L96 375 Z M71 375 C71 144 193 -10 377 -10 C578 -10 712 144 712 375 C712 606 582 760 387 760 C197 760 71 606 71 375 L71 375 Z " />
<glyph glyph-name="obreve" unicode="&#x14f;" horiz-adv-x="596" d="M182 745 C183 690 230 654 298 654 C366 654 413 690 414 744 L410 745 C409 699 364 669 298 669 C232 669 187 699 186 745 L182 745 L182 745 Z M67 250 C67 405 159 508 298 508 C436 508 528 405 528 250 C528 95 436 -8 298 -8 C159 -8 67 95 67 250 L67 250 Z M45 250 C45 94 146 -10 298 -10 C450 -10 551 94 551 250 C551 406 450 510 298 510 C146 510 45 406 45 250 L45 250 Z " />
<glyph glyph-name="Racute" unicode="&#x154;" horiz-adv-x="672" d="M351 814 L488 940 C534 983 564 1012 564 1012 C564 1017 559 1022 554 1022 C553 1022 523 993 479 949 L349 817 L351 814 L351 814 Z M79 735 L93 735 C142 735 174 695 174 635 L174 115 C174 55 142 15 93 15 L79 15 L79 0 L293 0 L293 15 L279 15 C230 15 198 55 198 115 L198 374 L366 374 C374 354 429 238 507 75 C542 3 548 0 662 0 L662 4 C572 4 567 7 534 75 C458 235 403 348 390 375 C482 382 542 435 542 542 C542 667 472 750 367 750 L79 750 L79 735 L79 735 Z M367 380 L198 380 L198 745 L360 745 C454 745 517 665 517 546 C517 433 460 380 367 380 L367 380 Z " />
<glyph glyph-name="Rcaron" unicode="&#x158;" horiz-adv-x="672" d="M489 1041 L346 843 L202 1041 L199 1039 L338 826 C341 818 350 817 353 826 L492 1039 L489 1041 L489 1041 Z M79 735 L93 735 C142 735 174 695 174 635 L174 115 C174 55 142 15 93 15 L79 15 L79 0 L293 0 L293 15 L279 15 C230 15 198 55 198 115 L198 374 L366 374 C374 354 429 238 507 75 C542 3 548 0 662 0 L662 4 C572 4 567 7 534 75 C458 235 403 348 390 375 C482 382 542 435 542 542 C542 667 472 750 367 750 L79 750 L79 735 L79 735 Z M367 380 L198 380 L198 745 L360 745 C454 745 517 665 517 546 C517 433 460 380 367 380 L367 380 Z " />
<glyph glyph-name="rcaron" unicode="&#x159;" horiz-adv-x="324" d="M354 791 L211 593 L67 791 L64 789 L203 576 C206 568 215 567 218 576 L357 789 L354 791 L354 791 Z M36 467 L47 467 C85 468 111 432 111 375 L111 80 C111 41 85 15 47 15 L36 15 L36 0 L206 0 L206 15 L195 15 C157 15 131 41 131 80 L131 376 C154 451 208 500 267 500 C281 500 290 486 290 465 C290 449 314 449 314 465 C314 491 299 509 276 509 C212 509 155 457 131 379 L131 500 L121 500 C96 493 62 484 36 477 L36 467 L36 467 Z " />
<glyph glyph-name="Sacute" unicode="&#x15a;" horiz-adv-x="541" d="M280 814 L416 940 C461 983 491 1011 491 1012 C491 1017 486 1022 481 1022 C481 1022 451 993 407 949 L277 817 L280 814 L280 814 Z M456 548 L456 762 L442 762 L438 742 C434 723 397 722 345 740 C315 753 281 761 246 762 L246 760 C145 763 78 695 78 589 C78 517 154 433 302 364 C420 309 481 234 481 165 C481 62 412 -7 309 -7 C284 -7 260 -3 237 4 C165 28 104 105 83 203 L74 243 L54 243 L54 -7 L68 -7 L72 20 C76 50 122 50 186 19 C206 9 228 1 251 -4 L251 -3 C392 -32 499 45 499 172 C499 250 436 331 315 388 C170 455 96 533 96 598 C96 703 158 765 256 758 C337 750 404 683 425 587 L434 549 L456 548 L456 548 Z M57 152 L57 152 L57 152 L57 152 Z " />
<glyph glyph-name="Scircumflex" unicode="&#x15c;" horiz-adv-x="541" d="M456 548 L456 762 L442 762 L438 742 C434 723 397 722 345 740 C315 753 281 761 246 762 L246 760 C145 763 78 695 78 589 C78 517 154 433 302 364 C420 309 481 234 481 165 C481 62 412 -7 309 -7 C284 -7 260 -3 237 4 C165 28 104 105 83 203 L74 243 L54 243 L54 -7 L68 -7 L72 20 C76 50 122 50 186 19 C206 9 228 1 251 -4 L251 -3 C392 -32 499 45 499 172 C499 250 436 331 315 388 C170 455 96 533 96 598 C96 703 158 765 256 758 C337 750 404 683 425 587 L434 549 L456 548 L456 548 Z M279 1025 C276 1033 269 1033 266 1025 L126 812 L129 810 L273 1009 L417 810 L420 812 L279 1025 L279 1025 Z M58 152 L58 152 L58 152 L58 152 Z " />
<glyph glyph-name="Scaron" unicode="&#x160;" horiz-adv-x="541" d="M418 1041 L274 842 L130 1041 L127 1039 L267 826 C270 818 277 818 280 826 L420 1039 L418 1041 L418 1041 Z M455 548 L455 762 L441 762 L437 742 C433 723 396 722 344 740 C314 753 280 761 245 762 L245 760 C144 763 77 695 77 589 C77 517 153 433 301 364 C419 309 480 234 480 165 C480 62 411 -7 308 -7 C283 -7 259 -3 236 4 C164 28 103 105 82 203 L73 243 L53 243 L53 -7 L67 -7 L71 20 C75 50 121 50 185 19 C205 9 227 1 250 -4 L250 -3 C391 -32 498 45 498 172 C498 250 435 331 314 388 C169 455 95 533 95 598 C95 703 157 765 255 758 C336 750 403 683 424 587 L433 549 L455 548 L455 548 Z M56 152 L56 152 L56 152 L56 152 Z " />
<glyph glyph-name="scaron" unicode="&#x161;" horiz-adv-x="416" d="M377 791 L233 592 L89 791 L86 789 L226 576 C229 568 236 568 239 576 L379 789 L377 791 L377 791 Z M335 338 L335 518 L324 518 L321 503 C320 500 282 501 224 506 C210 509 196 511 181 511 L181 509 C111 509 65 463 65 395 C65 338 120 280 227 241 C308 212 349 161 349 107 C349 23 277 -31 188 -5 L188 -4 C122 12 81 75 74 151 L72 179 L60 179 L60 -11 L71 -11 L74 6 C75 14 117 10 179 -4 C193 -8 208 -11 223 -12 L223 -11 C309 -15 366 36 366 113 C366 171 322 226 237 257 C133 295 80 349 80 402 C80 472 129 517 201 507 L200 505 C271 498 313 440 321 365 L324 337 L335 338 L335 338 Z " />
<glyph glyph-name="Tcaron" unicode="&#x164;" horiz-adv-x="775" d="M529 1041 L385 842 L241 1041 L238 1039 L378 826 C381 818 388 818 391 826 L531 1039 L529 1041 L529 1041 Z M280 0 L493 0 L493 15 L479 15 C430 15 398 55 398 115 L398 744 L542 744 C623 744 704 698 745 629 L757 609 L772 609 C756 649 734 703 717 744 L719 744 L719 750 L717 750 C710 767 701 789 694 805 L683 805 L679 797 C667 769 608 750 530 750 L240 750 C162 750 103 769 91 797 L87 805 L76 805 C69 788 59 764 52 747 L53 747 C36 706 13 650 -4 609 L11 609 L23 629 C64 698 145 744 226 744 L375 744 L375 115 C375 55 343 15 294 15 L280 15 L280 0 L280 0 Z " />
<glyph glyph-name="tcaron" unicode="&#x165;" horiz-adv-x="306" d="M269 500 L115 500 L115 620 L114 620 L30 500 L30 490 L95 490 L95 103 C95 22 135 -10 196 -10 C225 -10 265 12 296 45 L294 46 C268 18 231 -1 202 -1 C149 -1 114 27 114 98 L115 489 L269 489 L269 500 L269 500 Z M350 759 C345 759 336 698 330 654 L315 543 L319 542 L341 651 C352 702 359 744 359 756 C359 758 355 759 350 759 L350 759 Z " />
<glyph glyph-name="Utilde" unicode="&#x168;" horiz-adv-x="666" d="M196 870 C196 913 216 941 245 941 C301 941 375 876 430 876 C463 876 485 906 485 951 L484 951 C484 915 464 891 434 891 C379 891 305 956 249 956 C217 956 195 922 195 870 L196 870 L196 870 Z M636 44 L622 40 C573 27 541 58 541 118 L541 750 L422 750 L422 735 L436 735 C485 735 517 695 517 635 L517 164 C473 69 370 5 261 5 C202 5 163 91 163 220 L163 750 L44 750 L44 735 L58 735 C107 735 139 695 139 635 L139 220 C139 82 184 -10 252 -10 C365 -10 471 55 517 153 L517 0 L529 0 L541 3 C571 11 608 21 636 29 L636 44 L636 44 Z " />
<glyph glyph-name="utilde" unicode="&#x169;" horiz-adv-x="515" d="M117 621 C117 664 136 692 165 692 C221 692 295 627 350 627 C383 627 405 657 405 702 L404 702 C404 666 384 642 354 642 C299 642 225 707 170 707 C138 707 116 673 116 621 L117 621 L117 621 Z M500 41 L487 38 C444 27 415 59 415 119 L415 500 L405 500 L405 501 L320 501 L320 486 L331 486 C369 486 395 460 395 421 L395 126 C363 52 301 4 236 4 C170 4 126 66 126 160 L126 500 L31 500 L31 485 L42 485 C80 485 106 459 106 420 L106 160 C106 58 154 -10 227 -10 C295 -10 360 43 395 125 L395 0 L405 0 C433 8 471 18 500 26 L500 41 L500 41 Z " />
<glyph glyph-name="Umacron" unicode="&#x16a;" horiz-adv-x="666" d="M190 907 L490 907 L490 920 L190 920 L190 907 L190 907 Z M636 44 L622 40 C573 27 541 58 541 118 L541 750 L422 750 L422 735 L436 735 C485 735 517 695 517 635 L517 164 C473 69 370 5 261 5 C202 5 163 91 163 220 L163 750 L44 750 L44 735 L58 735 C107 735 139 695 139 635 L139 220 C139 82 184 -10 252 -10 C365 -10 471 55 517 153 L517 0 L529 0 L541 3 C571 11 608 21 636 29 L636 44 L636 44 Z " />
<glyph glyph-name="umacron" unicode="&#x16b;" horiz-adv-x="515" d="M111 658 L411 658 L411 671 L111 671 L111 658 L111 658 Z M500 41 L487 38 C444 27 415 59 415 119 L415 500 L405 500 L405 501 L320 501 L320 486 L331 486 C369 486 395 460 395 421 L395 126 C363 52 301 4 236 4 C170 4 126 66 126 160 L126 500 L31 500 L31 485 L42 485 C80 485 106 459 106 420 L106 160 C106 58 154 -10 227 -10 C295 -10 360 43 395 125 L395 0 L405 0 C433 8 471 18 500 26 L500 41 L500 41 Z " />
<glyph glyph-name="Ubreve" unicode="&#x16c;" horiz-adv-x="666" d="M224 995 C225 940 272 904 340 904 C408 904 455 940 456 994 L452 995 C451 949 406 919 340 919 C274 919 229 949 228 995 L224 995 L224 995 Z M636 44 L622 40 C573 27 541 58 541 118 L541 750 L422 750 L422 735 L436 735 C485 735 517 695 517 635 L517 164 C473 69 370 5 261 5 C202 5 163 91 163 220 L163 750 L44 750 L44 735 L58 735 C107 735 139 695 139 635 L139 220 C139 82 184 -10 252 -10 C365 -10 471 55 517 153 L517 0 L529 0 L541 3 C571 11 608 21 636 29 L636 44 L636 44 Z " />
<glyph glyph-name="ubreve" unicode="&#x16d;" horiz-adv-x="515" d="M145 746 C146 691 193 655 261 655 C329 655 375 691 376 745 L372 746 C371 700 327 670 261 670 C195 670 150 700 149 746 L145 746 L145 746 Z M500 41 L487 38 C444 27 415 59 415 119 L415 500 L405 500 L405 501 L320 501 L320 486 L331 486 C369 486 395 460 395 421 L395 126 C363 52 301 4 236 4 C170 4 126 66 126 160 L126 500 L31 500 L31 485 L42 485 C80 485 106 459 106 420 L106 160 C106 58 154 -10 227 -10 C295 -10 360 43 395 125 L395 0 L405 0 C433 8 471 18 500 26 L500 41 L500 41 Z " />
<glyph glyph-name="Uring" unicode="&#x16e;" horiz-adv-x="666" d="M251 905 C251 959 287 995 340 995 C393 995 429 959 429 905 C429 856 388 815 340 815 C292 815 251 856 251 905 L251 905 Z M245 905 C245 854 289 810 340 810 C391 810 435 854 435 905 C435 962 397 1000 340 1000 C283 1000 245 962 245 905 L245 905 Z M636 44 L622 40 C573 27 541 58 541 118 L541 750 L422 750 L422 735 L436 735 C485 735 517 695 517 635 L517 164 C473 69 370 5 261 5 C202 5 163 91 163 220 L163 750 L44 750 L44 735 L58 735 C107 735 139 695 139 635 L139 220 C139 82 184 -10 252 -10 C365 -10 471 55 517 153 L517 0 L529 0 L541 3 C571 11 608 21 636 29 L636 44 L636 44 Z " />
<glyph glyph-name="uring" unicode="&#x16f;" horiz-adv-x="515" d="M171 656 C171 710 207 746 261 746 C314 746 350 710 350 656 C350 607 309 566 261 566 C212 566 171 607 171 656 L171 656 Z M165 656 C165 605 209 561 261 561 C312 561 356 605 356 656 C356 713 318 751 261 751 C203 751 165 713 165 656 L165 656 Z M500 41 L487 38 C444 27 415 59 415 119 L415 500 L405 500 L405 501 L320 501 L320 486 L331 486 C369 486 395 460 395 421 L395 126 C363 52 301 4 236 4 C170 4 126 66 126 160 L126 500 L31 500 L31 485 L42 485 C80 485 106 459 106 420 L106 160 C106 58 154 -10 227 -10 C295 -10 360 43 395 125 L395 0 L405 0 C433 8 471 18 500 26 L500 41 L500 41 Z " />
<glyph glyph-name="Wcircumflex" unicode="&#x174;" horiz-adv-x="1043" d="M659 750 L408 750 L408 731 L421 731 C465 731 508 684 529 613 C539 575 549 537 558 500 L334 28 L168 612 C151 684 175 731 231 731 L248 731 L248 750 L23 750 L23 731 L36 731 C79 731 122 679 144 601 L144 601 C201 397 256 192 315 -11 L321 -11 L323 -5 L560 488 C603 322 646 155 690 -11 L696 -11 L697 -4 C759 197 820 399 882 600 C906 678 957 730 1011 730 L1026 730 L1026 749 L763 749 L763 730 L785 730 C861 730 896 678 873 600 L873 600 L703 32 L553 612 C539 683 572 730 637 730 L657 730 L659 750 L659 750 Z M521 1023 C518 1031 511 1031 508 1023 L368 810 L371 808 L515 1007 L659 808 L662 810 L521 1023 L521 1023 Z " />
<glyph glyph-name="Ycircumflex" unicode="&#x176;" horiz-adv-x="681" d="M241 750 L26 750 L26 735 L38 735 C77 735 126 696 162 637 L332 336 L332 135 C332 63 293 15 234 15 L217 15 L217 0 L471 0 L471 15 L454 15 C395 15 356 63 356 135 L356 339 L521 641 C556 698 611 735 662 735 L678 735 L678 750 L442 750 L442 735 L464 735 C527 735 546 693 512 630 L355 341 L188 639 C159 697 172 735 224 735 L240 735 L241 750 L241 750 Z M350 1024 C347 1032 340 1032 337 1024 L197 811 L200 809 L344 1008 L488 809 L491 811 L350 1024 L350 1024 Z " />
<glyph glyph-name="Ydieresis" unicode="&#x178;" horiz-adv-x="681" d="M428 885 C428 911 388 911 388 885 C388 859 428 859 428 885 L428 885 Z M300 885 C300 911 260 911 260 885 C260 859 300 859 300 885 L300 885 Z M241 750 L26 750 L26 735 L38 735 C77 735 126 696 162 637 L332 336 L332 135 C332 63 293 15 234 15 L217 15 L217 0 L471 0 L471 15 L454 15 C395 15 356 63 356 135 L356 339 L521 641 C556 698 611 735 662 735 L678 735 L678 750 L442 750 L442 735 L464 735 C527 735 546 693 512 630 L355 341 L188 639 C159 697 172 735 224 735 L240 735 L241 750 L241 750 Z " />
<glyph glyph-name="Zacute" unicode="&#x179;" horiz-adv-x="657" d="M345 814 L481 940 C526 983 556 1011 556 1012 C556 1017 551 1022 546 1022 C546 1022 516 993 472 949 L342 817 L345 814 L345 814 Z M73 608 L79 628 C97 694 165 740 252 744 L585 745 L26 5 L26 0 L607 0 L609 7 L608 7 C611 21 623 72 639 142 L624 142 L615 122 C588 57 514 11 427 6 L54 5 L611 745 L611 750 L71 750 L70 743 L71 743 C70 729 66 678 60 608 L73 608 L73 608 Z " />
<glyph glyph-name="Zdot" unicode="&#x17b;" horiz-adv-x="657" d="M359 885 C359 911 319 911 319 885 C319 859 359 859 359 885 L359 885 Z M73 608 L79 628 C97 694 165 740 252 744 L585 745 L26 5 L26 0 L607 0 L609 7 L608 7 C611 21 623 72 639 142 L624 142 L615 122 C588 57 514 11 427 6 L54 5 L611 745 L611 750 L71 750 L70 743 L71 743 C70 729 66 678 60 608 L73 608 L73 608 Z " />
<glyph glyph-name="zdot" unicode="&#x17c;" horiz-adv-x="475" d="M269 635 C269 661 229 661 229 635 C229 609 269 609 269 635 L269 635 Z M61 497 C61 497 49 452 31 385 L48 385 L56 401 C84 455 155 492 233 494 L411 495 L40 5 L40 0 L430 0 L430 3 C432 3 436 47 443 115 L426 115 L420 99 C401 46 337 9 260 7 L66 6 L436 496 L436 501 L165 501 C113 501 84 516 93 543 L75 543 C74 539 64 498 62 498 L61 497 L61 497 Z " />
<glyph glyph-name="Zcaron" unicode="&#x17d;" horiz-adv-x="657" d="M483 1041 L339 842 L195 1041 L192 1039 L332 826 C335 818 342 818 345 826 L485 1039 L483 1041 L483 1041 Z M72 608 L78 628 C96 694 164 740 251 744 L584 745 L25 5 L25 0 L606 0 L608 7 L607 7 C610 21 622 72 638 142 L623 142 L614 122 C587 57 513 11 426 6 L53 5 L610 745 L610 750 L70 750 L69 743 L70 743 C69 729 65 678 59 608 L72 608 L72 608 Z " />
<glyph glyph-name="zcaron" unicode="&#x17e;" horiz-adv-x="475" d="M393 791 L249 592 L105 791 L102 789 L242 576 C245 568 252 568 255 576 L395 789 L393 791 L393 791 Z M60 497 C60 497 48 452 30 385 L47 385 L55 401 C83 455 154 492 232 494 L410 495 L39 5 L39 0 L429 0 L429 3 C431 3 435 47 442 115 L425 115 L419 99 C400 46 336 9 259 7 L65 6 L435 496 L435 501 L164 501 C112 501 83 516 92 543 L74 543 C73 539 63 498 61 498 L60 497 L60 497 Z " />
<glyph glyph-name="oogonek" unicode="&#x1eb;" horiz-adv-x="685" d="M910 -54 L910 -53 C881 -78 787 -94 675 -94 C539 -94 397 -61 319 -10 C508 -21 633 107 633 291 C633 472 518 592 346 592 C180 592 69 472 69 291 C69 124 161 8 301 -8 L299 -8 C389 -68 538 -108 670 -108 C774 -108 869 -86 908 -54 L910 -54 L910 -54 Z M316 -8 L311 -8 C179 4 92 121 92 292 C92 472 194 592 346 592 C504 592 610 472 610 292 C610 111 500 -9 334 -9 C329 -9 319 -10 316 -8 L316 -8 Z " />
<glyph glyph-name="Adotabove" unicode="&#x226;" horiz-adv-x="743" d="M429 885 C429 911 389 911 389 885 C389 859 429 859 429 885 L429 885 Z M468 0 L738 0 L738 19 L722 19 C668 19 615 79 589 169 L589 169 L421 743 C421 743 415 770 413 770 L411 770 C414 755 408 745 397 743 L400 733 C339 545 279 356 218 169 C189 79 121 19 47 19 L25 19 L25 0 L312 0 L312 19 L291 19 C220 19 192 79 221 169 L262 297 L527 297 L566 161 C588 75 558 18 489 18 L468 18 L468 0 L468 0 Z M262 297 L400 730 L526 297 L262 297 L262 297 Z " />
<glyph glyph-name="G_sc" unicode="&#x262;" horiz-adv-x="683" d="M636 253 L405 253 L405 234 L421 234 C474 234 510 180 510 99 L510 38 L510 25 L510 23 L510 20 L530 26 L530 30 C556 40 582 51 608 63 L608 64 C582 52 556 41 530 32 L530 99 C530 180 566 234 619 234 L635 234 L636 253 L636 253 Z M344 594 L344 592 C336 592 328 592 319 592 C170 592 70 472 70 291 C70 110 168 -11 314 -11 C354 -11 392 -7 429 1 C454 5 472 9 489 18 C444 5 361 -7 317 -7 C182 -7 92 112 92 291 C92 471 182 591 318 591 C327 591 335 591 343 591 C426 585 497 520 519 427 L528 392 L548 392 L548 612 L534 612 L530 588 C526 565 480 562 416 580 C395 586 367 592 342 593 L344 594 L344 594 Z M508 37 C508 31 508 26 508 23 C501 21 494 19 487 17 C498 23 505 30 507 37 L508 37 L508 37 Z M507 19 C507 19 497 17 482 14 C490 16 498 19 506 22 C506 20 506 19 506 19 L507 19 L507 19 Z M487 536 C461 555 432 570 403 580 C436 571 463 556 487 537 L487 536 L487 536 Z " />
<glyph glyph-name="I_sc" unicode="&#x26a;" horiz-adv-x="366" d="M306 15 L292 15 C243 15 211 55 211 115 L211 468 C211 528 243 568 292 568 L306 568 L306 583 L94 583 L94 568 L108 568 C157 568 189 528 189 468 L189 115 C189 55 157 15 108 15 L94 15 L94 0 L306 0 L306 15 L306 15 Z " />
<glyph glyph-name="N_sc" unicode="&#x274;" horiz-adv-x="695" d="M52 568 L66 568 C94 568 125 555 154 533 L153 115 L153 115 C153 55 120 15 72 15 L58 15 L58 0 L255 0 L255 15 L241 15 C193 15 160 55 160 115 L160 115 L159 529 C179 513 198 492 214 468 L214 468 C320 312 426 156 532 0 L536 0 L538 468 L538 468 C538 528 571 568 619 568 L633 568 L633 583 L436 583 L436 568 L450 568 C499 568 531 528 531 468 L531 468 L532 30 L531 31 L162 583 L50 583 L52 568 L52 568 Z " />
<glyph glyph-name="R_sc" unicode="&#x280;" horiz-adv-x="594" d="M80 568 L94 568 C143 568 175 528 175 468 L175 115 C175 55 143 15 94 15 L80 15 L80 0 L291 0 L291 15 L277 15 C228 15 196 55 196 115 L196 290 L307 290 C316 273 366 184 438 59 C470 3 476 1 583 1 L583 4 C498 4 493 6 463 59 C392 181 342 269 329 292 C412 298 466 339 466 422 C466 519 403 584 308 584 L80 584 L80 568 L80 568 Z M308 297 L196 297 L196 580 L302 580 C387 580 443 518 443 426 C443 337 390 297 308 297 L308 297 Z " />
<glyph glyph-name="Y_sc" unicode="&#x28f;" horiz-adv-x="603" d="M239 583 L28 583 L28 568 L40 568 C79 568 129 530 166 472 L295 259 L295 134 C295 62 256 14 197 14 L180 14 L180 -1 L431 -1 L431 14 L414 14 C355 14 316 62 316 134 L316 262 C355 329 394 396 433 463 C470 526 530 568 583 568 L599 568 L599 583 L365 583 L365 568 L386 568 C449 568 467 526 430 463 L430 463 L315 265 L190 472 C158 530 170 568 221 568 L237 568 L239 583 L239 583 Z " />
<glyph glyph-name="B_sc" unicode="&#x299;" horiz-adv-x="509" d="M337 300 C402 300 446 240 446 151 C446 29 393 1 314 1 L264 1 C223 1 196 77 196 191 L196 299 L296 299 C312 299 337 300 337 300 L337 300 Z M80 564 L94 564 C143 564 175 524 175 464 L175 119 C175 59 143 19 94 19 L80 19 L80 0 L316 0 C408 0 469 29 469 151 C469 241 418 301 341 301 L328 301 C410 312 463 366 463 443 C463 528 424 584 256 584 L80 584 L80 564 L80 564 Z M295 302 L196 302 L196 583 L253 583 C406 583 442 526 442 441 C442 358 383 302 295 302 L295 302 Z " />
<glyph glyph-name="H_sc" unicode="&#x29c;" horiz-adv-x="732" d="M672 15 L658 15 C609 15 577 55 577 115 L577 468 C577 528 609 568 658 568 L672 568 L672 583 L461 583 L461 568 L475 568 C524 568 556 528 556 468 L556 300 L232 300 L232 468 C232 528 264 568 313 568 L327 568 L327 583 L116 583 L116 568 L130 568 C179 568 211 528 211 468 L211 115 C211 55 179 15 130 15 L116 15 L116 0 L327 0 L327 15 L313 15 C264 15 232 55 232 115 L232 298 L556 298 L556 115 C556 55 524 15 475 15 L461 15 L461 0 L672 0 L672 15 L672 15 Z " />
<glyph glyph-name="L_sc" unicode="&#x29f;" horiz-adv-x="556" d="M306 583 L94 583 L94 568 L108 568 C157 568 189 528 189 468 L189 115 C189 55 157 15 108 15 L94 15 L94 0 L471 0 L471 2 C478 43 488 98 495 139 L480 139 L472 119 C451 63 396 22 327 8 C224 26 211 91 211 181 L211 466 C211 526 243 566 292 566 L306 566 L306 583 L306 583 Z " />
<glyph glyph-name="circumflex" unicode="&#x2c6;" horiz-adv-x="340" d="M177 774 C174 782 167 782 164 774 L24 561 L27 559 L171 758 L315 559 L318 561 L177 774 L177 774 Z " />
<glyph glyph-name="caron" unicode="&#x2c7;" horiz-adv-x="340" d="M314 791 L170 592 L26 791 L23 789 L163 576 C166 568 173 568 176 576 L316 789 L314 791 L314 791 Z " />
<glyph glyph-name="firsttonechinese" unicode="&#x2c9;" horiz-adv-x="340" d="M20 657 L320 657 L320 670 L20 670 L20 657 L20 657 Z " />
<glyph glyph-name="breve" unicode="&#x2d8;" horiz-adv-x="340" d="M54 745 C55 690 102 654 170 654 C238 654 285 690 286 744 L282 745 C281 699 236 669 170 669 C104 669 59 699 58 745 L54 745 L54 745 Z " />
<glyph glyph-name="dotaccent" unicode="&#x2d9;" horiz-adv-x="340" d="M190 635 C190 661 150 661 150 635 C150 609 190 609 190 635 L190 635 Z " />
<glyph glyph-name="ring" unicode="&#x2da;" horiz-adv-x="340" d="M81 655 C81 709 117 745 170 745 C223 745 259 709 259 655 C259 606 218 565 170 565 C122 565 81 606 81 655 L81 655 Z M75 655 C75 604 119 560 170 560 C221 560 265 604 265 655 C265 712 227 750 170 750 C113 750 75 712 75 655 L75 655 Z " />
<glyph glyph-name="A_sc" unicode="&#x1d00;" horiz-adv-x="670" d="M27 0 L311 0 L311 19 L290 19 C222 19 195 74 221 157 L246 230 L470 230 L492 159 C515 74 487 18 419 18 L398 18 L398 -1 L664 -1 L664 18 L648 18 C595 18 540 78 512 168 L511 168 L382 577 C382 577 376 602 374 602 L372 602 C374 588 370 578 361 577 C362 574 363 570 364 567 C325 455 286 343 246 231 L246 230 C239 209 232 188 224 168 C192 78 122 18 48 18 L27 18 L27 0 L27 0 Z M247 231 L364 566 L469 231 L247 231 L247 231 Z " />
<glyph glyph-name="C_sc" unicode="&#x1d04;" horiz-adv-x="599" d="M345 594 L345 592 C337 592 329 592 320 592 C171 592 71 472 71 291 C71 110 167 -11 310 -11 C322 -11 334 -11 345 -10 L345 -11 C371 -9 399 -2 421 5 C483 23 527 17 531 -9 L535 -34 L549 -34 L549 190 L529 190 L520 155 C500 72 439 10 364 -5 C347 -8 329 -9 310 -9 C180 -9 93 111 93 291 C93 471 183 591 319 591 C328 591 336 591 344 591 C427 585 498 520 520 427 L529 392 L549 392 L549 612 L535 612 L531 588 C527 565 481 562 417 580 C396 586 368 592 343 593 L345 594 L345 594 Z M546 98 L546 98 L546 98 L546 98 Z M490 536 C464 555 435 570 406 580 C439 571 466 556 490 537 L490 536 L490 536 Z " />
<glyph glyph-name="D_sc" unicode="&#x1d05;" horiz-adv-x="707" d="M250 1 C201 1 196 74 196 183 L196 582 L275 582 C509 582 629 466 629 292 C629 100 477 1 250 1 L250 1 Z M80 568 L94 568 C143 568 175 528 175 468 L175 115 C175 55 143 15 94 15 L80 15 L80 0 L252 0 C492 0 652 99 652 292 C652 467 526 583 280 583 L80 583 L80 568 L80 568 Z " />
<glyph glyph-name="E_sc" unicode="&#x1d07;" horiz-adv-x="548" d="M60 568 L77 568 C136 568 175 520 175 448 L175 135 C175 63 136 15 77 15 L60 15 L60 0 L472 0 C479 41 489 95 496 136 L481 136 L473 116 C451 58 393 16 321 4 C209 20 195 87 195 182 L195 298 L216 298 C294 298 354 249 367 175 L371 153 L386 153 L386 445 L371 445 L367 423 C354 349 294 300 216 300 L195 300 L195 581 L275 581 C353 581 419 532 441 458 L448 436 L463 436 C458 480 451 538 446 582 L59 582 L60 568 L60 568 Z " />
<glyph glyph-name="J_sc" unicode="&#x1d0a;" horiz-adv-x="366" d="M306 583 L94 583 L94 568 L108 568 C157 568 189 528 189 468 L189 2 C189 -183 125 -218 79 -218 C68 -218 74 -201 63 -201 C58 -201 54 -205 54 -211 C54 -216 64 -220 78 -220 C134 -220 211 -178 211 42 L211 468 C211 528 243 568 292 568 L306 568 L306 583 L306 583 Z " />
<glyph glyph-name="K_sc" unicode="&#x1d0b;" horiz-adv-x="609" d="M301 568 C378 568 379 510 306 422 L196 292 L196 468 C196 528 228 568 277 568 L301 568 L301 568 Z M80 568 L94 568 C143 568 175 528 175 468 L175 115 C175 55 143 15 94 15 L80 15 L80 0 L291 0 L291 15 L277 15 C228 15 196 55 196 115 L196 292 L488 0 L594 0 L594 15 L580 15 C535 15 470 49 414 102 L213 306 L349 465 C407 528 481 569 537 569 L554 569 L554 584 L81 584 L80 568 L80 568 Z " />
<glyph glyph-name="M_sc" unicode="&#x1d0d;" horiz-adv-x="774" d="M739 583 L624 583 L411 29 L174 581 L174 583 L59 583 L59 568 L74 568 C107 568 141 549 167 518 C162 384 157 249 152 115 C150 55 116 15 68 15 L54 15 L54 0 L251 0 L251 15 L237 15 C189 15 158 55 160 115 L160 115 L172 512 C181 501 189 489 195 476 C264 318 335 161 401 1 L406 1 L626 567 L641 116 C643 56 612 16 564 16 L550 16 L550 1 L760 1 L760 16 L746 16 C698 16 664 56 662 116 L662 116 L649 475 C649 531 679 568 725 568 L739 568 L739 583 L739 583 Z " />
<glyph glyph-name="O_sc" unicode="&#x1d0f;" horiz-adv-x="690" d="M94 292 C94 472 196 592 348 592 C506 592 612 472 612 292 C612 112 502 -8 338 -8 C192 -8 94 112 94 292 L94 292 Z M71 292 C71 111 178 -10 338 -10 C516 -10 635 111 635 292 C635 473 520 593 348 593 C182 593 71 473 71 292 L71 292 Z " />
<glyph glyph-name="P_sc" unicode="&#x1d18;" horiz-adv-x="446" d="M296 15 L282 15 C233 15 201 55 201 115 L201 279 L236 279 C350 279 426 323 426 421 C426 518 364 583 271 583 L85 583 L85 568 L99 568 C148 568 180 528 180 468 L180 115 C180 55 148 15 99 15 L85 15 L85 0 L296 0 L296 15 L296 15 Z M201 284 L201 580 L266 580 C351 580 407 518 407 425 C407 328 339 284 236 284 L201 284 L201 284 Z " />
<glyph glyph-name="T_sc" unicode="&#x1d1b;" horiz-adv-x="715" d="M252 0 L463 0 L463 15 L449 15 C400 15 368 55 368 115 L368 578 L483 578 C564 578 645 532 686 463 L698 443 L713 443 C697 483 675 537 658 578 L660 578 L660 583 L658 583 C651 600 642 622 635 638 L624 638 L620 630 C608 602 549 583 471 583 L241 583 C163 583 104 602 92 630 L88 638 L77 638 C70 621 60 597 53 580 L54 580 C37 539 14 484 -3 443 L12 443 L24 463 C65 532 146 578 227 578 L347 578 L347 115 C347 55 315 15 266 15 L252 15 L252 0 L252 0 Z " />
<glyph glyph-name="U_sc" unicode="&#x1d1c;" horiz-adv-x="587" d="M452 0 L462 3 C492 11 528 21 556 29 L556 44 L542 40 C493 27 461 58 461 118 L461 583 L345 583 L345 568 L359 568 C408 568 440 528 440 468 L440 145 C401 60 312 4 218 4 C183 4 160 83 160 202 L160 583 L44 583 L44 568 L58 568 C107 568 139 528 139 468 L139 202 C139 75 167 -10 209 -10 C307 -10 399 48 440 135 L440 0 L452 0 L452 0 Z " />
<glyph glyph-name="V_sc" unicode="&#x1d20;" horiz-adv-x="659" d="M637 583 L376 583 L376 564 L399 564 C474 564 504 509 476 425 L324 31 C279 158 233 286 188 413 C156 503 182 563 252 563 L273 563 L273 582 L25 582 L25 563 L38 563 C81 563 129 505 160 418 C209 275 259 133 307 -10 L312 -10 C367 131 422 273 478 414 C513 504 571 564 622 564 L637 564 L637 583 L637 583 Z " />
<glyph glyph-name="W_sc" unicode="&#x1d21;" horiz-adv-x="920" d="M247 583 L25 583 L25 564 L37 564 C81 564 125 512 149 434 L149 434 C194 286 238 137 284 -10 L289 -10 L490 380 C526 250 561 120 598 -9 L603 -9 L758 445 C786 517 837 565 889 565 L905 565 L905 584 L643 584 L643 565 L665 565 C741 565 774 513 748 435 L612 30 L496 448 C481 518 513 564 578 564 L598 564 L598 583 L350 583 L350 564 L364 564 C410 564 454 512 476 434 L476 434 L489 388 L303 25 C260 161 217 298 175 434 C151 512 173 564 231 564 L248 564 L247 583 L247 583 Z " />
<glyph glyph-name="Z_sc" unicode="&#x1d22;" horiz-adv-x="597" d="M73 442 L79 462 C97 528 166 574 254 578 L527 579 L26 4 L26 0 L547 0 C548 8 563 71 579 140 L564 140 L555 120 C527 54 452 8 364 4 L51 3 L550 578 L550 582 L70 582 L69 576 L70 576 C69 563 64 512 58 440 L73 442 L73 442 Z " />
<glyph glyph-name="Wgrave" unicode="&#x1e80;" horiz-adv-x="1043" d="M659 750 L408 750 L408 731 L421 731 C465 731 508 684 529 613 C539 575 549 537 558 500 L334 28 L168 612 C151 684 175 731 231 731 L248 731 L248 750 L23 750 L23 731 L36 731 C79 731 122 679 144 601 L144 601 C201 397 256 192 315 -11 L321 -11 L323 -5 L560 488 C603 322 646 155 690 -11 L696 -11 L697 -4 C759 197 820 399 882 600 C906 678 957 730 1011 730 L1026 730 L1026 749 L763 749 L763 730 L785 730 C861 730 896 678 873 600 L873 600 L703 32 L553 612 C539 683 572 730 637 730 L657 730 L659 750 L659 750 Z M307 1011 C307 1008 337 980 382 939 L518 813 L521 816 L391 948 C349 992 320 1021 317 1021 C312 1021 307 1016 307 1011 L307 1011 Z " />
<glyph glyph-name="Wacute" unicode="&#x1e82;" horiz-adv-x="1043" d="M522 814 L658 940 C703 983 733 1011 733 1012 C733 1017 728 1022 723 1022 C723 1022 693 993 649 949 L519 817 L522 814 L522 814 Z M659 750 L408 750 L408 731 L421 731 C465 731 508 684 529 613 C539 575 549 537 558 500 L334 28 L168 612 C151 684 175 731 231 731 L248 731 L248 750 L23 750 L23 731 L36 731 C79 731 122 679 144 601 L144 601 C201 397 256 192 315 -11 L321 -11 L323 -5 L560 488 C603 322 646 155 690 -11 L696 -11 L697 -4 C759 197 820 399 882 600 C906 678 957 730 1011 730 L1026 730 L1026 749 L763 749 L763 730 L785 730 C861 730 896 678 873 600 L873 600 L703 32 L553 612 C539 683 572 730 637 730 L657 730 L659 750 L659 750 Z " />
<glyph glyph-name="Wdieresis" unicode="&#x1e84;" horiz-adv-x="1043" d="M600 885 C600 911 560 911 560 885 C560 859 600 859 600 885 L600 885 Z M472 885 C472 911 432 911 432 885 C432 859 472 859 472 885 L472 885 Z M659 750 L408 750 L408 731 L421 731 C465 731 508 684 529 613 C539 575 549 537 558 500 L334 28 L168 612 C151 684 175 731 231 731 L248 731 L248 750 L23 750 L23 731 L36 731 C79 731 122 679 144 601 L144 601 C201 397 256 192 315 -11 L321 -11 L323 -5 L560 488 C603 322 646 155 690 -11 L696 -11 L697 -4 C759 197 820 399 882 600 C906 678 957 730 1011 730 L1026 730 L1026 749 L763 749 L763 730 L785 730 C861 730 896 678 873 600 L873 600 L703 32 L553 612 C539 683 572 730 637 730 L657 730 L659 750 L659 750 Z " />
<glyph glyph-name="Etilde" unicode="&#x1ebc;" horiz-adv-x="610" d="M197 870 C197 913 217 941 246 941 C302 941 376 876 431 876 C464 876 486 906 486 951 L485 951 C485 915 465 891 435 891 C380 891 306 956 250 956 C218 956 196 922 196 870 L197 870 L197 870 Z M59 735 L76 735 C135 735 174 687 174 615 L174 135 C174 63 135 15 76 15 L59 15 L59 0 L533 0 L533 1 L534 1 C541 42 551 96 558 137 L543 137 L535 117 C511 53 441 9 356 3 C214 10 198 80 198 183 L198 385 L279 385 C357 385 417 336 430 262 L434 240 L449 240 L449 532 L434 532 L430 510 C417 436 357 387 279 387 L198 387 L198 748 L338 748 C416 748 482 699 504 625 L511 603 L526 603 C521 647 514 705 509 749 L508 749 L508 750 L59 750 L59 735 L59 735 Z " />
<glyph glyph-name="Ygrave" unicode="&#x1ef2;" horiz-adv-x="681" d="M241 750 L26 750 L26 735 L38 735 C77 735 126 696 162 637 L332 336 L332 135 C332 63 293 15 234 15 L217 15 L217 0 L471 0 L471 15 L454 15 C395 15 356 63 356 135 L356 339 L521 641 C556 698 611 735 662 735 L678 735 L678 750 L442 750 L442 735 L464 735 C527 735 546 693 512 630 L355 341 L188 639 C159 697 172 735 224 735 L240 735 L241 750 L241 750 Z M136 1012 C136 1009 166 981 211 940 L347 814 L350 817 L220 949 C178 993 149 1022 146 1022 C141 1022 136 1017 136 1012 L136 1012 Z " />
<glyph glyph-name="quoteleft" unicode="&#x2018;" horiz-adv-x="448" d="M90 621 C101 621 102 640 90 640 L90 653 C86 653 84 649 84 642 C84 699 102 742 130 749 L120 760 C95 753 78 704 78 638 C78 628 83 621 90 621 L90 621 Z " />
<glyph glyph-name="quoteright" unicode="&#x2019;" d="" />
<glyph glyph-name="quotedblleft" unicode="&#x201c;" horiz-adv-x="448" d="M137 621 C148 621 149 640 137 640 L137 653 C133 653 131 649 131 642 C131 699 149 742 177 749 L167 760 C142 753 125 704 125 638 C125 628 130 621 137 621 L137 621 Z M78 621 C89 621 90 640 78 640 L78 653 C74 653 72 649 72 642 C72 699 90 742 118 749 L108 760 C83 753 66 704 66 638 C66 628 71 621 78 621 L78 621 Z " />
<glyph glyph-name="quotedblright" unicode="&#x201d;" horiz-adv-x="448" d="M143 744 C143 679 139 634 132 632 L143 621 C147 622 149 673 149 749 C149 756 144 760 137 760 C125 760 126 741 137 741 L137 728 C141 728 143 734 143 743 L143 744 L143 744 Z M84 743 C84 678 80 633 73 631 L84 620 C88 621 90 672 90 748 C90 755 85 759 78 759 C66 759 67 740 78 740 L78 727 C82 727 84 733 84 742 L84 743 L84 743 Z " />
<glyph glyph-name="Euro" unicode="&#x20ac;" horiz-adv-x="726" d="M677 -5 L677 124 C676 123 675 122 674 121 C675 122 676 123 677 124 L675 126 L675 126 L677 123 L677 218 L658 218 L650 184 C632 101 574 32 504 6 C473 -4 438 -9 399 -9 C256 -9 158 127 147 335 L461 335 L463 349 L146 349 C145 365 145 382 146 398 L463 398 L465 412 L147 412 C158 620 261 756 410 756 C445 756 476 752 503 744 C573 721 630 651 650 564 L658 529 L677 529 L677 750 L665 750 L661 726 C657 700 620 699 565 723 C543 735 517 745 490 751 L490 750 C466 755 439 758 409 758 C246 758 134 621 122 412 L57 412 L55 398 L121 398 C120 382 120 365 121 349 L55 349 L53 335 L122 335 C134 126 242 -11 398 -11 C430 -11 459 -8 486 -2 L486 -3 C513 4 538 13 561 25 C618 49 657 46 661 17 L665 -8 L677 -5 L677 -5 Z M552 20 C551 20 550 20 549 20 C550 20 551 20 552 20 L552 20 Z " />
<glyph glyph-name="F_sc" unicode="&#xa730;" horiz-adv-x="523" d="M60 568 L77 568 C136 568 175 520 175 448 L175 135 C175 63 136 15 77 15 L60 15 L60 0 L311 0 L311 15 L294 15 C235 15 196 63 196 135 L196 299 L207 299 C285 299 345 250 358 176 L362 154 L377 154 L377 446 L362 446 L358 424 C345 350 285 301 207 301 L196 301 L196 582 L276 582 C354 582 420 533 442 459 L449 437 L464 437 C459 481 452 539 447 583 L60 583 L60 568 L60 568 Z " />
<glyph glyph-name="S_sc" unicode="&#xa731;" horiz-adv-x="480" d="M395 406 L395 619 L381 619 L377 599 C373 580 339 575 289 583 C265 591 239 596 212 596 L212 593 C132 593 79 539 79 459 C79 405 143 339 268 281 C370 234 422 175 422 124 C422 35 347 -19 243 -6 C167 7 105 76 84 171 L75 209 L55 209 L55 -41 L69 -41 L73 -13 C77 17 126 22 194 2 C216 -6 239 -11 263 -12 L263 -11 C369 -16 441 41 441 129 C441 189 387 253 283 302 C160 359 97 420 97 466 C97 541 144 591 214 591 C285 591 346 531 367 441 L376 405 L395 406 L395 406 Z " />
<glyph glyph-name="X_sc" unicode="&#xf078;" horiz-adv-x="656" d="M416 0 L626 0 L626 15 L614 15 C575 15 524 53 484 111 L359 304 L475 468 C520 528 583 568 635 568 L650 568 L650 583 L411 583 L411 568 L431 568 C492 568 507 529 469 470 L358 306 C324 359 289 412 255 464 C214 527 223 569 276 569 L292 569 L292 584 L82 584 L82 569 L94 569 C133 569 184 531 224 473 L342 291 L214 114 C168 55 105 16 54 16 L38 16 L38 1 L275 1 L275 16 L256 16 C193 16 181 58 226 121 L226 121 L344 287 C380 232 416 176 451 121 C492 58 483 16 430 16 L414 16 L416 0 L416 0 Z " />
</font>
</svg>
