<?xml version="1.0" encoding="UTF-8"?>
<svg xmlns="http://www.w3.org/2000/svg" xmlns:xlink="http://www.w3.org/1999/xlink" version="1.2" >
<font id="Jerrad Black">
<font-face  font-family="Jerrad" units-per-em="1024" ascent="975" descent="-300" font-style="normal" font-weight="900" font-stretch="normal" cap-height="750" x-height="500" underline-position="-125" underline-thickness="50" />
<missing-glyph  horiz-adv-x="650" d="" />
<glyph glyph-name="NULL" d="" />
<glyph glyph-name="CR" unicode="&#xd;" horiz-adv-x="256" d="" />
<glyph glyph-name="space" unicode="&#x20;" horiz-adv-x="195" d="" />
<glyph glyph-name="exclam" unicode="&#x21;" horiz-adv-x="323" d="M162 -5 C210 -5 242 27 242 75 C242 123 210 155 162 155 C114 155 82 123 82 75 C82 27 114 -5 162 -5 L162 -5 Z M162 755 C68 755 53 698 70 612 L148 210 L176 210 L254 612 C270 698 255 755 162 755 L162 755 Z " />
<glyph glyph-name="quotedbl" unicode="&#x22;" horiz-adv-x="281" d="M732 750 C685 750 678 732 688 705 L741 560 L759 560 L812 705 C822 732 815 750 768 750 L732 750 L732 750 Z " />
<glyph glyph-name="numbersign" unicode="&#x23;" horiz-adv-x="511" d="M366 642 L346 518 L239 518 L259 642 L250 642 L230 518 L75 518 L59 402 L212 402 L189 258 L30 258 L14 142 L171 142 L148 0 L156 0 L179 142 L287 142 L264 0 L273 0 L296 142 L424 142 L441 258 L314 258 L337 402 L475 402 L491 518 L355 518 L375 642 L366 642 L366 642 Z M220 402 L327 402 L304 258 L196 258 L220 402 L220 402 Z " />
<glyph glyph-name="dollar" unicode="&#x24;" horiz-adv-x="515" d="M270 825 L270 760 C265 760 260 760 255 760 C247 760 239 760 232 759 L232 825 L189 825 L189 751 C104 725 50 647 50 540 C50 424 98 328 189 291 L189 28 C177 40 157 64 134 92 C119 114 105 139 92 167 L78 161 C69 173 60 185 51 196 C47 201 44 205 44 205 L44 145 L44 144 L44 82 C44 82 47 88 51 98 C51 98 82 73 128 36 L129 36 C148 21 168 9 189 1 L189 -75 L232 -75 L232 -9 C237 -9 242 -9 247 -9 C255 -9 263 -9 271 -8 L271 -74 L314 -74 L314 -1 C414 24 477 106 477 219 C477 322 422 412 314 457 L314 723 C329 710 346 694 363 677 C374 661 384 643 393 624 L406 630 C416 618 425 607 434 596 C439 591 442 587 442 587 L442 642 L442 647 L442 697 C442 697 439 692 434 684 C434 683 412 698 380 721 L379 721 C360 735 338 746 315 753 L315 826 L270 825 L270 825 Z M272 752 L264 754 C265 754 266 754 267 754 C269 754 271 753 273 752 L272 752 L272 752 Z M273 752 L273 474 C259 481 247 489 236 498 L236 748 C243 752 251 754 259 754 C261 754 263 754 265 754 L264 754 C265 754 266 754 267 754 C269 754 271 754 273 754 L273 753 L273 753 L273 752 L273 752 Z M235 275 C249 269 261 263 272 257 L272 4 C265 1 257 0 249 0 C244 0 239 1 234 2 L235 275 L235 275 Z M314 226 C333 208 343 189 343 171 C343 117 332 72 314 42 L314 226 L314 226 Z M191 560 C186 575 183 590 183 606 C183 634 186 659 191 680 L191 560 L191 560 Z " />
<glyph glyph-name="ampersand" unicode="&#x26;" horiz-adv-x="307" d="M365 471 C464 508 528 561 528 609 C528 699 442 760 314 760 C204 760 130 692 130 590 C130 531 158 484 202 428 C93 382 22 292 22 195 C22 72 111 -9 244 -9 C325 -9 408 29 485 97 L505 73 C548 24 625 -9 699 -9 C774 -9 832 52 843 144 L816 153 C813 130 791 114 761 114 C707 114 657 129 637 153 L588 211 C647 291 699 389 740 501 L705 501 C668 398 616 311 557 247 L377 458 C373 463 369 468 365 472 L365 471 L365 471 Z M346 495 C295 557 262 607 262 671 C262 705 283 727 314 727 C369 727 405 684 405 619 C405 568 382 523 345 496 L346 495 L346 495 Z M435 156 C401 140 366 131 331 131 C240 131 179 175 179 241 C179 310 196 368 224 403 C230 395 237 387 244 379 L435 156 L435 156 Z " />
<glyph glyph-name="quotesingle" unicode="&#x27;" horiz-adv-x="183" d="" />
<glyph glyph-name="parenleft" unicode="&#x28;" horiz-adv-x="432" d="M320 760 C156 650 47 455 47 273 C47 101 153 -94 313 -214 L322 -197 C221 -121 153 67 153 273 C153 484 223 672 329 743 L320 760 L320 760 Z " />
<glyph glyph-name="parenright" unicode="&#x29;" horiz-adv-x="432" d="M21 743 C127 674 197 486 197 273 C197 57 129 -131 28 -197 L37 -214 C197 -111 303 84 303 273 C303 459 194 654 30 760 L21 743 L21 743 Z " />
<glyph glyph-name="asterisk" unicode="&#x2a;" horiz-adv-x="300" d="M144 630 L23 610 C1 606 -2 583 16 552 C33 522 55 513 69 530 L147 626 L104 510 C96 489 115 475 150 475 C185 475 204 489 196 510 L153 626 L231 530 C245 513 267 522 284 552 C302 583 299 606 277 610 L156 630 L277 650 C299 654 302 677 284 707 C267 738 245 747 231 730 L153 634 L196 750 C204 771 185 785 150 785 C115 785 96 771 104 750 L147 634 L69 730 C55 747 33 738 16 707 C-2 677 1 654 23 650 L144 630 L144 630 Z " />
<glyph glyph-name="plus" unicode="&#x2b;" horiz-adv-x="576" d="M230 438 L230 303 L100 303 L100 197 L230 197 L230 62 L346 62 L346 197 L476 197 L476 303 L346 303 L346 438 L230 438 L230 438 Z " />
<glyph glyph-name="comma" unicode="&#x2c;" horiz-adv-x="261" d="M167 21 C169 13 170 4 170 -5 C170 -66 128 -106 64 -106 L64 -111 C140 -111 190 -62 190 12 C190 74 164 115 124 115 C88 115 64 91 64 55 C64 19 88 -5 124 -5 C143 -5 158 5 166 21 L167 21 L167 21 Z " />
<glyph glyph-name="hyphen" unicode="&#x2d;" horiz-adv-x="386" d="M80 226 L306 226 L306 344 L80 344 L80 226 L80 226 Z " />
<glyph glyph-name="period" unicode="&#x2e;" horiz-adv-x="195" d="M125 -5 C173 -5 205 27 205 75 C205 123 173 155 125 155 C77 155 45 123 45 75 C45 27 77 -5 125 -5 L125 -5 Z " />
<glyph glyph-name="slash" unicode="&#x2f;" horiz-adv-x="408" d="M290 770 L8 -80 L96 -80 L378 770 L290 770 L290 770 Z " />
<glyph glyph-name="zero" unicode="0" horiz-adv-x="617" d="M305 52 C199 52 108 131 108 250 C108 357 187 448 305 448 C411 448 502 369 502 250 C502 143 423 52 305 52 L305 52 Z M37 250 C37 94 160 -10 305 -10 C466 -10 573 110 573 250 C573 406 450 510 305 510 C144 510 37 390 37 250 L37 250 Z " />
<glyph glyph-name="one" unicode="1" horiz-adv-x="317" d="M234 22 L234 478 C234 487 241 490 250 493 L278 499 L278 500 L159 500 L40 500 L40 499 L67 493 C77 490 84 487 84 478 L84 22 C84 13 77 10 67 7 L40 1 L40 0 L159 0 L278 0 L278 1 L250 7 C241 10 234 13 234 22 L234 22 Z " />
<glyph glyph-name="two" unicode="2" horiz-adv-x="523" d="M71 288 C86 362 136 411 198 411 C244 411 274 372 274 314 C274 212 162 111 30 26 L30 0 L246 0 L313 0 L397 0 C404 11 412 23 420 35 L481 133 L481 133 L497 159 L497 160 L497 162 L474 133 L363 133 L226 133 C343 220 424 298 424 349 C424 445 360 510 265 510 C155 510 65 424 40 295 L71 288 L71 288 Z " />
<glyph glyph-name="three" unicode="3" horiz-adv-x="439" d="M15 -202 L20 -232 C247 -208 399 -105 399 24 C399 138 344 221 261 232 L261 232 C317 277 350 329 350 389 C350 462 290 510 200 510 C112 510 39 447 17 352 L49 343 C57 380 93 405 139 405 C170 405 191 378 191 337 C191 246 158 197 109 176 L109 146 C188 135 241 70 241 -18 C241 -115 151 -188 15 -202 L15 -202 Z " />
<glyph glyph-name="four" unicode="4" horiz-adv-x="536" d="M520 112 C520 113 518 114 512 114 L512 115 L411 115 L371 115 L371 238 L371 530 L352 530 L15 26 L15 0 L69 0 L221 0 L221 -220 L371 -220 L371 0 L445 0 L506 0 L507 -24 L508 -24 C509 -17 510 -9 511 -1 L511 -1 L511 1 C514 21 517 42 519 59 C523 83 528 117 531 142 L530 142 L529 142 L520 112 L520 112 Z M142 114 L220 236 L220 114 L142 114 L142 114 Z " />
<glyph glyph-name="five" unicode="5" horiz-adv-x="406" d="M61 -237 C250 -214 376 -97 376 56 C376 199 264 294 96 294 L75 294 L82 365 L303 370 L306 385 C310 406 314 430 317 449 C317 450 317 451 317 452 L325 499 C327 510 329 520 331 529 L330 529 L319 501 L219 501 L53 501 L11 161 L38 137 L80 137 C178 137 244 85 244 6 C244 -109 169 -194 57 -208 L61 -237 L61 -237 Z " />
<glyph glyph-name="six" unicode="6" horiz-adv-x="526" d="M506 750 C223 690 34 510 34 300 C34 114 124 -10 260 -10 C386 -10 471 89 471 238 C471 372 401 462 295 462 C264 462 237 451 215 431 C265 587 372 698 512 728 L506 750 L506 750 Z M183 220 C183 361 227 455 292 455 C310 455 321 371 321 246 C321 96 296 -4 258 -4 C213 -4 183 86 183 220 L183 220 Z " />
<glyph glyph-name="seven" unicode="7" horiz-adv-x="397" d="M46 490 L54 520 L53 520 L52 520 C40 494 25 460 14 434 C2 408 -13 374 -25 348 L-24 348 L-23 348 L-3 379 C-4 377 2 376 33 376 L33 376 L45 376 L341 376 L93 -220 L207 -220 L392 485 L392 500 L389 500 L132 500 L80 500 L79 499 C54 497 47 494 46 490 L46 490 Z " />
<glyph glyph-name="eight" unicode="8" horiz-adv-x="496" d="M179 341 C186 337 194 333 202 330 C286 292 342 245 342 132 C342 50 301 -5 241 -5 C190 -5 156 67 156 174 C156 243 165 302 180 341 L179 341 L179 341 Z M147 363 C72 315 26 245 26 174 C26 64 112 -10 242 -10 C371 -10 457 73 457 199 C457 323 406 388 324 436 C392 479 434 539 434 598 C434 695 356 759 240 759 C128 759 53 685 53 573 C53 482 89 409 147 362 L147 363 L147 363 Z M287 454 C279 458 271 462 263 466 C209 491 172 548 172 629 C172 704 199 754 239 754 C278 754 305 686 305 585 C305 533 298 488 286 455 L287 454 L287 454 Z " />
<glyph glyph-name="nine" unicode="9" horiz-adv-x="526" d="M21 -250 C304 -190 493 -10 493 200 C493 386 403 510 267 510 C140 510 56 411 56 262 C56 128 126 38 232 38 C263 38 290 49 312 69 C262 -87 155 -198 15 -228 L21 -250 L21 -250 Z M344 280 C344 139 300 45 234 45 C217 45 206 129 205 254 C206 404 231 504 269 504 C314 504 344 414 344 280 L344 280 Z " />
<glyph glyph-name="colon" unicode="&#x3a;" horiz-adv-x="135" d="M125 385 C173 385 205 417 205 465 C205 513 173 545 125 545 C77 545 45 513 45 465 C45 417 77 385 125 385 L125 385 Z M125 -5 C173 -5 205 27 205 75 C205 123 173 155 125 155 C77 155 45 123 45 75 C45 27 77 -5 125 -5 L125 -5 Z " />
<glyph glyph-name="semicolon" unicode="&#x3b;" horiz-adv-x="261" d="M125 385 C173 385 205 417 205 465 C205 513 173 545 125 545 C77 545 45 513 45 465 C45 417 77 385 125 385 L125 385 Z M167 21 C169 13 170 4 170 -5 C170 -66 128 -106 64 -106 L64 -111 C140 -111 190 -62 190 12 C190 74 164 115 124 115 C88 115 64 91 64 55 C64 19 88 -5 124 -5 C143 -5 158 5 166 21 L167 21 L167 21 Z " />
<glyph glyph-name="equal" unicode="&#x3d;" horiz-adv-x="499" d="M93 233 L93 167 L430 167 L430 233 L93 233 L93 233 Z M93 333 L93 267 L430 267 L430 333 L93 333 L93 333 Z " />
<glyph glyph-name="question" unicode="&#x3f;" horiz-adv-x="289" d="M125 -5 C173 -5 205 27 205 75 C205 123 173 155 125 155 C77 155 45 123 45 75 C45 27 77 -5 125 -5 L125 -5 Z M130 275 L125 360 C233 360 264 387 292 429 C311 456 324 509 324 559 C324 680 252 760 145 760 C60 760 4 716 4 649 C4 605 36 575 85 575 C121 575 163 601 200 601 C248 601 280 577 280 541 C280 535 271 519 259 500 C234 464 205 440 97 440 L104 275 L130 275 L130 275 Z " />
<glyph glyph-name="at" unicode="&#x40;" horiz-adv-x="1132" d="M971 0 C906 -139 756 -232 597 -232 C342 -232 173 -36 173 259 C173 554 331 750 567 750 C803 750 961 587 961 343 C961 145 898 13 804 13 C758 13 747 88 774 200 L844 480 L703 480 L690 426 C669 466 627 490 572 490 C383 490 258 367 258 183 C258 72 325 -1 426 -1 C510 -1 582 32 625 86 C637 9 691 -38 776 -38 C957 -38 1078 115 1078 344 C1078 613 874 792 567 792 C260 792 56 579 56 260 C56 -59 272 -272 597 -272 C774 -272 944 -163 1021 1 L971 0 L971 0 Z M672 356 L633 201 C615 130 563 83 503 83 C454 83 421 135 421 212 C421 354 479 449 567 449 C629 449 671 412 671 356 L672 356 L672 356 Z " />
<glyph glyph-name="A" unicode="A" horiz-adv-x="678" d="M153 293 L356 293 L419 84 C437 21 439 8 436 7 L386 1 L386 0 L445 0 L524 0 L621 0 L662 0 L662 1 L619 7 L403 697 L380 770 L365 770 C340 733 288 704 235 697 L238 687 L238 687 L98 76 C84 20 78 7 74 6 L23 0 L23 -1 L81 -1 L89 -1 L92 -1 L161 -1 L161 0 L104 6 C97 7 96 25 112 104 L153 293 L153 293 Z M156 300 L241 678 L355 300 L156 300 L156 300 Z " />
<glyph glyph-name="B" unicode="B" horiz-adv-x="671" d="M259 745 L316 745 C399 745 419 669 419 554 C419 454 395 387 358 387 L259 387 L259 678 L259 745 L259 745 Z M412 387 C519 404 587 474 587 572 C587 679 538 750 327 750 L260 750 L153 750 L47 750 L47 749 L75 743 C86 740 93 729 93 678 L93 72 C93 21 86 10 75 7 L47 1 L47 0 L153 0 L260 0 L380 0 C532 0 633 37 633 194 C633 308 545 384 412 387 L412 387 Z M360 383 L388 383 C423 383 447 307 447 194 C447 41 417 5 373 5 L323 5 C285 5 259 23 259 51 L259 72 L259 383 L360 383 L360 383 Z " />
<glyph glyph-name="C" unicode="C" horiz-adv-x="740" d="M613 715 C569 743 515 760 437 760 C193 760 30 606 30 375 C30 144 189 -10 428 -10 C499 -10 555 5 602 32 L604 32 C604 32 653 57 693 77 C698 79 701 74 701 64 L701 117 L701 126 L701 187 C701 187 698 183 693 178 C686 169 676 158 665 146 L660 150 C627 110 594 76 561 50 C551 42 541 35 532 29 L532 29 C498 7 464 -5 429 -5 C299 -5 213 147 213 374 C213 601 303 753 438 753 C463 753 487 747 510 735 L510 735 C525 727 543 714 562 698 C593 672 624 638 657 598 L662 602 C672 591 681 580 689 570 C694 564 697 560 697 560 L697 621 L697 631 L697 682 C697 682 694 677 689 669 C688 668 657 684 610 713 L613 715 L613 715 Z " />
<glyph glyph-name="D" unicode="D" horiz-adv-x="830" d="M92 678 L92 72 C92 21 85 10 74 7 L46 1 L46 0 L92 0 L152 0 L259 0 L322 0 C594 0 776 127 776 375 C776 600 632 750 353 750 L259 750 L152 750 L92 750 L46 750 L46 749 L74 743 C85 740 92 729 92 678 L92 678 Z M259 745 L333 745 C503 745 591 597 591 375 C591 131 480 5 314 5 C265 5 259 23 259 51 L259 72 L259 678 L259 745 L259 745 Z " />
<glyph glyph-name="E" unicode="E" horiz-adv-x="604" d="M443 0 L550 0 C551 9 553 21 555 30 C556 39 557 51 559 60 L558 60 L557 60 L547 29 C543 15 524 5 444 5 L310 5 C264 5 259 23 259 51 L259 72 L259 385 L358 385 C437 385 454 373 458 355 L464 324 L465 324 L465 385 L465 388 L465 391 L465 452 L464 452 L458 421 C454 403 437 391 358 391 L259 391 L259 678 L259 745 L418 745 C515 745 517 735 520 721 L528 690 L529 690 L530 690 C529 699 528 711 528 720 C527 729 526 741 525 750 L418 750 L259 750 L152 750 L92 750 L46 750 L46 749 L74 743 C85 740 92 729 92 678 L92 72 C92 21 85 10 74 7 L46 1 L46 0 L92 0 L152 0 L259 0 L443 0 L443 0 Z " />
<glyph glyph-name="F" unicode="F" horiz-adv-x="579" d="M455 328 L455 379 L455 382 L455 385 L455 437 L450 407 C447 394 430 385 348 385 L259 385 L259 678 L259 746 L338 746 C486 746 517 736 521 722 L529 691 L530 692 C529 701 528 713 528 721 C527 730 526 742 525 750 L418 750 L259 750 L152 750 L92 750 L46 750 L46 749 L74 743 C85 740 92 729 92 678 L92 72 C92 21 85 10 74 7 L46 1 L46 0 L92 0 L175 0 L259 0 L305 0 L305 1 L277 7 C266 10 259 21 259 72 L259 379 L423 379 C442 374 448 366 450 357 L455 328 L455 328 Z M455 328 L456 322 L455 322 L455 328 L455 328 Z M455 437 L455 443 L456 443 L455 437 L455 437 Z " />
<glyph glyph-name="G" unicode="G" horiz-adv-x="791" d="M518 258 L520 162 C518 83 495 31 461 31 C314 31 216 169 216 375 C216 602 306 754 441 754 C466 754 490 748 513 736 L513 736 C528 728 546 715 565 699 C596 673 627 639 660 599 L665 603 C675 592 684 581 692 571 C697 565 700 561 700 561 L700 622 L700 632 L700 683 C700 683 697 678 692 670 C691 669 660 685 613 714 C569 742 515 759 437 759 C193 759 30 605 30 374 C30 143 196 -11 444 -11 C469 -11 493 -10 517 -7 L522 -10 L558 -1 C586 4 613 11 639 19 L684 30 L684 35 C706 43 728 52 749 62 L747 66 C731 58 711 51 684 46 L684 258 C684 305 689 315 697 318 L721 324 L721 325 L597 325 L473 325 L473 324 L500 318 C510 315 516 305 516 258 L518 258 L518 258 Z " />
<glyph glyph-name="H" unicode="H" horiz-adv-x="804" d="M696 67 L696 683 C696 730 703 740 713 743 L742 749 L742 750 L612 750 L482 750 L482 749 L510 743 C521 740 528 730 528 683 L528 386 L295 386 L295 683 C295 730 302 740 313 743 L341 749 L341 750 L211 750 L82 750 L82 749 L110 743 C121 740 128 730 128 683 L128 67 C128 20 121 10 110 7 L82 1 L82 0 L211 0 L341 0 L341 1 L313 7 C302 10 295 20 295 67 L295 380 L528 380 L528 67 C528 20 521 10 510 7 L482 1 L482 0 L612 0 L742 0 L742 1 L713 7 C703 10 696 20 696 67 L696 67 Z " />
<glyph glyph-name="I" unicode="I" horiz-adv-x="345" d="M237 67 L237 683 C237 730 244 740 255 743 L283 749 L283 750 L153 750 L24 750 L24 749 L52 743 C63 740 70 730 70 683 L70 67 C70 20 63 10 52 7 L24 1 L24 0 L153 0 L283 0 L283 1 L255 7 C244 10 237 20 237 67 L237 67 Z " />
<glyph glyph-name="J" unicode="J" horiz-adv-x="345" d="M70 683 L69 -136 C69 -199 6 -211 -39 -211 C-124 -211 -87 -70 -172 -70 C-219 -70 -251 -102 -251 -149 C-251 -192 -169 -220 -46 -220 C74 -220 238 -156 238 180 L237 683 C237 730 244 740 255 743 L283 749 L283 750 L153 750 L24 750 L24 749 L52 743 C63 740 70 730 70 683 L70 683 Z " />
<glyph glyph-name="K" unicode="K" horiz-adv-x="736" d="M438 72 L438 72 C478 5 481 0 481 0 L603 0 L688 0 L724 0 L724 1 L684 6 L375 486 L557 744 L603 750 L603 751 L562 751 L520 751 L499 751 L437 751 L437 750 L488 744 C492 743 482 724 417 624 L418 624 L259 376 L259 691 C259 732 266 741 277 744 L305 750 L305 751 L259 751 L175 751 L92 751 L46 751 L46 750 L74 744 C85 741 92 732 92 691 L92 61 C92 20 85 11 74 8 L46 2 L46 1 L92 1 L175 1 L259 1 L305 1 L305 2 L277 8 C266 11 259 20 259 61 L259 376 L438 72 L438 72 Z " />
<glyph glyph-name="L" unicode="L" horiz-adv-x="556" d="M518 29 L518 29 C520 36 522 43 523 49 C527 63 533 83 537 98 L536 99 C536 100 535 100 535 100 L521 69 C510 44 478 28 345 28 L288 28 C242 28 237 37 237 50 L237 71 L237 677 C237 728 244 739 255 742 L283 748 L283 749 L237 749 L153 749 L70 749 L24 749 L24 748 L52 742 C63 739 70 728 70 677 L70 71 C70 20 63 9 52 6 L24 0 L24 -1 L70 -1 L130 -1 L237 -1 L338 -1 L510 -1 L518 -1 L518 29 L518 29 Z " />
<glyph glyph-name="M" unicode="M" horiz-adv-x="833" d="M105 710 L112 693 L94 138 L94 138 C91 30 88 9 85 8 L35 2 L35 1 L90 1 L119 1 L148 1 L203 1 L203 2 L154 8 C151 9 149 18 149 57 L149 83 C149 96 149 111 150 129 L149 129 L154 585 L292 227 L379 2 L421 2 L595 573 L607 52 C606 20 599 12 590 9 L562 3 L562 2 L609 2 L691 2 L777 2 L820 2 L820 3 L792 9 C784 12 778 20 775 53 L755 620 C753 715 751 741 750 745 L750 746 L796 752 L796 753 L750 753 L693 753 L649 753 L590 753 L442 229 L290 753 L167 753 L155 753 L113 753 L89 753 L43 753 L43 752 L90 746 C91 745 94 739 105 712 L105 710 L105 710 Z " />
<glyph glyph-name="N" unicode="N" horiz-adv-x="687" d="M179 750 L140 750 L98 750 L61 750 L-29 750 L-56 750 L-56 749 L-25 745 L98 582 L97 138 L97 138 C97 30 95 9 92 8 L42 2 L42 1 L97 1 L122 1 L147 1 L202 1 L202 2 L153 8 C150 9 147 21 146 73 L146 127 C146 128 146 129 146 130 L146 130 L143 525 L356 241 L534 3 L568 3 L579 685 C582 733 590 744 601 746 L633 752 L633 753 L580 753 L554 753 L530 753 L476 753 L476 752 L508 746 C521 743 530 727 530 646 L531 646 L533 285 L493 338 L179 750 L179 750 Z " />
<glyph glyph-name="O" unicode="O" horiz-adv-x="879" d="M413 -3 C298 -3 221 148 221 375 C221 602 301 753 420 753 C547 753 632 602 632 375 C632 148 544 -3 413 -3 L413 -3 Z M29 375 C29 144 182 -10 412 -10 C659 -10 824 144 824 375 C824 606 663 760 422 760 C186 760 29 606 29 375 L29 375 Z " />
<glyph glyph-name="P" unicode="P" horiz-adv-x="606" d="M217 0 L301 0 L347 0 L347 1 L319 7 C308 10 301 21 301 72 L301 329 L340 329 C488 329 586 393 586 536 C586 664 503 750 379 750 L301 750 L194 750 L133 750 L87 750 L87 749 L116 743 C126 740 133 729 133 678 L133 72 C133 21 126 10 116 7 L87 1 L87 0 L133 0 L217 0 L217 0 Z M301 365 L301 678 L301 722 C312 722 326 721 337 721 C392 721 429 658 429 564 C429 427 393 365 340 365 L301 365 L301 365 Z " />
<glyph glyph-name="Q" unicode="Q" horiz-adv-x="874" d="M1119 -52 L1118 -50 C1087 -75 966 -92 815 -92 C656 -92 508 -61 412 -10 C659 -10 824 144 824 375 C824 606 663 760 422 760 C186 760 29 606 29 375 C29 262 93 167 172 100 L171 100 C381 -79 631 -198 795 -198 C885 -198 1014 -140 1118 -52 L1119 -52 L1119 -52 Z M412 -3 C405 -3 396 -1 387 4 C368 16 352 29 339 43 C282 104 221 223 221 376 C221 603 301 754 420 754 C547 754 632 603 632 376 C632 149 544 -2 413 -2 L412 -3 L412 -3 Z " />
<glyph glyph-name="R" unicode="R" horiz-adv-x="699" d="M690 0 L690 12 C654 12 651 14 616 67 C527 202 459 306 426 356 C528 383 590 441 590 535 C590 664 460 750 266 750 L259 750 L152 750 L46 750 L46 749 L74 743 C85 740 92 729 92 678 L92 72 C92 21 85 10 74 7 L46 1 L46 0 L175 0 L305 0 L305 1 L277 7 C266 10 259 21 259 72 L259 332 C283 284 342 186 420 67 C462 3 473 0 690 0 L690 0 Z M259 713 C348 700 405 645 405 567 C405 438 349 380 266 380 L259 380 L259 678 L259 713 L259 713 Z " />
<glyph glyph-name="S" unicode="S" horiz-adv-x="515" d="M379 720 L378 720 C343 745 300 760 255 760 C132 760 50 672 50 540 C50 421 100 323 196 288 C292 253 341 209 341 169 C341 66 303 -2 246 -2 C231 -2 214 6 197 20 L198 20 C191 25 165 55 134 93 C119 115 105 140 92 168 L78 162 C69 174 60 186 51 197 C47 202 44 206 44 206 L44 146 L44 145 L44 83 C44 83 47 89 51 99 C51 99 82 74 128 37 L129 37 C165 9 206 -7 246 -7 C383 -7 475 84 475 220 C475 328 414 422 296 465 C220 493 181 547 181 607 C181 697 211 757 255 757 C257 757 259 757 261 757 L260 757 C261 757 262 757 263 757 C271 756 279 754 287 750 L270 755 C291 746 326 716 361 680 C372 664 382 646 391 627 L404 633 C414 621 423 610 432 599 C437 594 440 590 440 590 L440 645 L440 650 L440 700 C440 700 437 695 432 687 C432 686 410 701 378 724 L379 720 L379 720 Z M270 755 L261 757 C262 757 263 757 264 757 C266 757 268 756 270 755 L270 755 Z " />
<glyph glyph-name="T" unicode="T" horiz-adv-x="731" d="M676 709 L676 750 L661 750 C657 760 654 770 651 778 L650 778 L649 778 L654 750 L554 750 L449 750 L282 750 L178 750 L77 750 L82 778 L81 778 L80 778 C77 770 74 760 71 750 L56 750 L56 708 L56 708 C50 693 44 676 39 663 C39 662 39 662 40 662 L57 693 C62 702 81 708 162 708 L282 708 L282 67 C282 20 275 10 264 7 L236 1 L236 0 L366 0 L495 0 L495 1 L467 7 C456 10 449 20 449 67 L449 708 L569 708 C650 708 669 702 674 693 L692 662 L692 663 L693 663 C687 676 681 693 676 708 L676 709 L676 709 Z " />
<glyph glyph-name="U" unicode="U" horiz-adv-x="733" d="M655 97 L655 678 L655 750 L548 750 L442 750 L442 749 L470 743 C481 740 488 729 488 678 L488 204 C458 140 400 98 343 98 C272 98 224 143 224 211 L224 678 L224 750 L117 750 L11 750 L11 749 L39 743 C50 740 57 729 57 678 L57 211 C57 78 144 -10 276 -10 C364 -10 449 45 488 128 L488 97 L488 0 L514 0 L701 49 C662 74 655 81 655 97 L655 97 Z " />
<glyph glyph-name="V" unicode="V" horiz-adv-x="757" d="M17 745 L244 247 L361 -10 L394 -10 L686 743 L730 749 L730 750 L689 750 L640 750 L622 750 L549 750 L549 749 L606 743 C614 742 612 722 578 623 L578 623 L361 -10 L449 247 L269 623 L269 623 C224 723 219 742 224 743 L280 749 L280 750 L208 750 L134 750 L15 750 L-13 750 L-13 749 L17 745 L17 745 Z " />
<glyph glyph-name="W" unicode="W" horiz-adv-x="1026" d="M376 703 L473 500 L473 500 L407 210 L407 212 L209 732 C208 740 210 743 213 743 L265 749 L265 750 L202 750 L127 750 L17 750 L-10 750 L-10 749 L19 745 L258 212 L357 -10 L401 -10 L511 421 L595 244 L716 -10 L760 -10 L925 623 L925 623 C925 624 925 625 925 626 L956 743 L999 749 L999 750 L958 750 L908 750 L889 750 L817 750 L817 749 L874 743 C882 742 883 722 860 623 L860 623 L774 244 L563 716 C555 737 555 742 559 743 L611 749 L611 750 L548 750 L462 750 L354 750 L313 750 L313 749 L357 743 L363 729 C366 723 370 714 376 702 L376 703 L376 703 Z " />
<glyph glyph-name="X" unicode="X" horiz-adv-x="728" d="M95 0 L110 0 L191 0 L191 1 L131 7 C124 8 122 14 131 32 L195 131 C196 133 197 135 198 137 L197 137 L297 293 L398 127 L397 127 C458 27 469 8 467 7 L420 1 L420 0 L475 0 L565 0 L674 0 L710 0 L710 1 L670 6 L403 443 L663 743 L705 748 L705 749 L669 749 L620 749 L594 749 L534 749 L534 748 L584 742 C586 741 574 720 500 612 L500 612 L394 457 L237 714 C224 736 221 742 222 743 L269 749 L269 750 L215 750 L127 750 L17 750 L-15 750 L-15 749 L21 744 L77 652 C82 643 88 633 94 622 L94 622 L273 328 L73 45 C51 14 45 6 44 5 L-4 -1 L-4 -2 L41 -2 L95 0 L95 0 Z " />
<glyph glyph-name="Y" unicode="Y" horiz-adv-x="667" d="M276 623 L276 623 C275 625 274 627 273 629 L211 743 L253 749 L253 750 L207 750 L117 750 L9 750 L-19 750 L-19 749 L12 745 L261 308 L261 67 C261 20 254 10 243 7 L215 1 L215 0 L345 0 L475 0 L475 1 L446 7 C436 10 429 20 429 67 L429 336 L611 744 L650 749 L650 750 L614 750 L603 750 L601 750 L555 750 L555 749 L598 743 L566 668 C561 658 556 646 550 633 L550 633 L426 346 L276 623 L276 623 Z " />
<glyph glyph-name="Z" unicode="Z" horiz-adv-x="590" d="M207 0 L415 0 L562 0 C566 17 572 40 577 57 C581 75 586 97 591 115 L590 115 L590 116 L574 84 C566 68 549 56 497 51 L228 42 L566 715 L566 750 L402 750 L227 750 L70 750 C68 733 64 709 62 691 C59 674 56 650 53 632 C53 632 54 632 54 631 L55 631 L68 662 C78 684 100 700 179 704 L209 705 C213 705 217 705 221 705 L221 705 L381 710 L25 35 L25 0 L207 0 L207 0 Z " />
<glyph glyph-name="bracketleft" unicode="&#x5b;" horiz-adv-x="311" d="M152 706 L362 706 L362 750 L152 750 L99 750 L99 -195 L152 -195 L362 -195 L362 -151 L152 -151 L152 706 L152 706 Z " />
<glyph glyph-name="backslash" unicode="&#x5c;" horiz-adv-x="366" d="M8 770 L268 -80 L356 -80 L96 770 L8 770 L8 770 Z " />
<glyph glyph-name="bracketright" unicode="&#x5d;" horiz-adv-x="314" d="M152 706 L152 -151 L-58 -151 L-58 -195 L152 -195 L205 -195 L205 750 L152 750 L-58 750 L-58 706 L152 706 L152 706 Z " />
<glyph glyph-name="underscore" unicode="&#x5f;" horiz-adv-x="356" d="M5 -50 L5 -133 L352 -133 L352 -50 L5 -50 L5 -50 Z " />
<glyph glyph-name="a" unicode="a" horiz-adv-x="471" d="M481 147 L460 158 C454 124 432 102 405 102 C376 102 356 117 356 140 L356 349 C356 460 304 510 227 510 C120 510 48 414 48 360 C48 312 82 280 133 280 C170 280 195 313 195 337 C195 360 175 375 175 406 C175 440 194 501 221 501 C213 501 207 471 207 404 L206 262 C92 196 27 151 27 101 C27 35 65 -10 122 -10 C148 -10 179 14 217 76 C237 26 283 -5 343 -5 C409 -5 464 56 480 147 L481 147 L481 147 Z M205 255 L205 140 C205 118 208 98 214 80 C208 72 204 69 201 69 C187 69 177 88 177 116 C177 207 187 238 205 254 L205 255 L205 255 Z " />
<glyph glyph-name="b" unicode="b" horiz-adv-x="625" d="M102 0 L111 0 L176 65 C193 20 252 -10 323 -10 C477 -10 580 96 580 254 C580 405 497 505 373 505 C324 505 279 484 252 451 L252 688 L252 750 L225 750 L65 704 L65 703 L65 702 L89 703 C97 704 102 695 102 653 L102 195 L102 0 L102 0 Z M252 427 C271 447 298 459 327 459 C378 459 412 370 412 237 C412 100 378 9 328 9 C296 9 265 33 252 70 L252 195 L252 427 L252 427 Z " />
<glyph glyph-name="c" unicode="c" horiz-adv-x="501" d="M472 128 L451 137 C436 104 399 82 358 82 C256 82 187 161 187 279 C187 397 236 476 310 476 C307 476 315 448 331 405 C347 360 377 330 406 330 C467 330 497 360 481 405 C458 468 393 510 319 510 C141 510 23 400 23 234 C23 88 136 -10 305 -10 C368 -10 435 45 472 128 L472 128 Z " />
<glyph glyph-name="d" unicode="d" horiz-adv-x="512" d="M319 55 L319 -10 L346 -10 L507 30 L507 31 L507 32 L483 31 C474 32 469 47 469 128 L469 671 L469 750 L443 750 L282 704 L282 703 L282 702 L306 703 C314 703 319 693 319 636 L319 495 C288 504 251 510 212 510 C92 510 30 405 30 247 C30 96 96 -5 195 -5 C240 -5 288 19 319 55 L319 55 Z M319 401 L319 107 C296 76 272 56 257 56 C213 56 183 148 183 287 C183 394 199 465 229 465 C260 465 296 437 319 401 L319 401 Z " />
<glyph glyph-name="e" unicode="e" horiz-adv-x="475" d="M184 340 L280 340 L404 340 L446 340 C424 462 352 510 256 510 C116 510 23 396 23 225 C23 84 108 -10 235 -10 C322 -10 401 46 432 130 L414 137 C404 108 347 89 271 89 C218 89 182 168 182 286 C182 305 183 323 184 340 L184 340 Z M370 383 C381 384 392 384 404 384 L370 383 L370 383 Z M273 379 L188 376 C198 439 219 477 247 477 C251 477 259 449 272 380 L273 379 L273 379 Z " />
<glyph glyph-name="f" unicode="f" horiz-adv-x="344" d="M217 421 L335 421 L335 500 L217 500 C217 625 235 709 269 709 C327 709 334 635 383 635 C410 635 428 653 428 680 C428 725 386 755 322 755 C154 755 67 653 67 500 L-11 438 L-11 421 L67 421 L67 22 C67 13 62 10 54 7 L30 1 L30 0 L142 0 L254 0 L254 1 L230 7 C222 10 217 13 217 22 L217 421 L217 421 Z " />
<glyph glyph-name="g" unicode="g" horiz-adv-x="476" d="M209 350 C209 425 215 475 225 475 C235 475 241 425 241 350 C241 274 235 223 225 223 C215 223 209 274 209 350 L209 350 Z M158 -33 L257 -33 C300 -32 317 -53 317 -83 C317 -151 288 -196 245 -196 C192 -196 156 -143 156 -63 C156 -51 157 -41 158 -33 L158 -33 Z M103 -20 C60 -35 32 -65 32 -99 C32 -178 114 -230 237 -230 C359 -230 441 -157 441 -48 C441 50 394 116 272 117 L161 117 C144 117 133 128 133 145 C133 171 170 188 225 188 C325 188 391 253 391 350 C391 370 388 388 383 405 C396 423 410 434 422 434 C415 434 410 429 410 423 C410 391 438 370 480 370 C517 370 541 398 541 441 C541 474 518 496 484 496 C439 496 395 473 369 437 C342 483 291 511 225 511 C125 511 59 447 59 351 C59 286 89 235 139 209 C81 191 46 152 46 101 C46 44 68 1 104 -19 L103 -20 L103 -20 Z " />
<glyph glyph-name="h" unicode="h" horiz-adv-x="620" d="M387 22 C387 13 382 10 374 7 L350 1 L350 0 L462 0 L574 0 L574 1 L551 7 C542 10 537 13 537 22 L537 265 C537 412 493 510 408 510 C311 510 233 467 213 401 L213 688 L213 750 L186 750 L26 704 L26 703 L26 702 L50 703 C58 704 63 695 63 653 L63 22 C63 13 58 10 50 7 L26 1 L26 0 L138 0 L250 0 L250 1 L226 7 C218 10 213 13 213 22 L213 396 C214 401 258 404 322 404 C365 404 387 348 387 265 L387 22 L387 22 Z " />
<glyph glyph-name="i" unicode="i" horiz-adv-x="295" d="M147 615 C195 615 227 647 227 695 C227 743 195 775 147 775 C99 775 67 743 67 695 C67 647 99 615 147 615 L147 615 Z M222 22 L222 438 L222 500 L195 500 L35 454 L35 453 L35 452 L59 453 C67 454 72 445 72 403 L72 22 C72 12 68 9 61 7 L39 1 L39 0 L147 0 L255 0 L255 1 L233 7 C226 9 222 12 222 22 L222 22 Z " />
<glyph glyph-name="j" unicode="j" horiz-adv-x="301" d="M137 615 C185 615 217 647 217 695 C217 743 185 775 137 775 C89 775 57 743 57 695 C57 647 89 615 137 615 L137 615 Z M62 403 L62 88 C62 -9 36 -88 -2 -110 C-30 -110 -65 -100 -93 -100 C-120 -100 -138 -116 -138 -140 C-138 -169 -114 -187 -78 -185 C-71 -184 -29 -162 27 -130 C138 -66 212 21 212 88 L212 438 L212 500 L185 500 L25 454 L25 453 L25 452 L49 453 C57 454 62 445 62 403 L62 403 Z " />
<glyph glyph-name="k" unicode="k" horiz-adv-x="648" d="M518 0 L619 0 L642 0 L642 1 L615 5 L355 342 L561 495 L594 499 L594 500 L568 500 L518 500 L516 500 L437 500 L437 499 L496 493 C503 492 475 468 306 343 L306 343 L221 280 L221 688 L221 750 L194 750 L34 704 L34 703 L34 702 L58 703 C66 704 71 695 71 653 L71 22 C71 12 67 9 60 7 L38 1 L38 0 L146 0 L254 0 L254 1 L232 7 C225 9 221 12 221 22 L221 280 L427 6 L395 1 L395 0 L432 0 L518 0 L518 0 Z " />
<glyph glyph-name="l" unicode="l" horiz-adv-x="285" d="M212 22 L212 688 L212 750 L185 750 L25 704 L25 703 L25 702 L49 703 C57 704 62 695 62 653 L62 22 C62 12 57 9 50 7 L27 1 L27 0 L137 0 L247 0 L247 1 L224 7 C217 9 212 12 212 22 L212 22 Z " />
<glyph glyph-name="m" unicode="m" horiz-adv-x="826" d="M470 406 L470 401 C470 400 509 399 568 399 C593 399 603 345 603 265 L603 42 C603 15 598 9 592 7 L570 1 L570 0 L680 0 L790 0 L790 1 L766 7 C758 10 753 16 753 42 L753 265 C753 412 718 510 630 510 C553 510 489 469 470 406 L470 406 Z M329 42 C329 15 325 9 318 7 L296 1 L296 0 L402 0 L508 0 L508 1 L488 7 C483 9 479 15 479 42 L479 265 C479 412 445 510 356 510 C285 510 225 469 206 406 L206 438 L206 500 L179 500 L19 441 L19 440 L43 443 C51 444 56 436 56 393 L56 42 C56 16 51 10 43 7 L19 1 L19 0 L128 0 L237 0 L237 1 L216 7 C210 9 206 15 206 42 L206 401 C207 400 242 399 295 399 C319 399 329 345 329 265 L329 42 L329 42 Z " />
<glyph glyph-name="n" unicode="n" horiz-adv-x="552" d="M329 22 C329 12 324 9 317 7 L294 1 L294 0 L404 0 L514 0 L514 1 L491 7 C484 9 479 12 479 22 L479 282 C479 419 437 510 356 510 C284 510 224 470 206 410 L206 438 L206 500 L179 500 L19 441 L19 440 L43 443 C51 444 56 436 56 393 L56 22 C56 12 51 9 44 7 L21 1 L21 0 L131 0 L241 0 L241 1 L218 7 C211 9 206 12 206 22 L206 388 C216 419 259 440 316 440 C324 440 329 377 329 282 L329 22 L329 22 Z " />
<glyph glyph-name="o" unicode="o" horiz-adv-x="565" d="M271 -3 C221 -3 188 98 188 250 C188 402 221 503 271 503 C322 503 355 402 355 250 C355 98 322 -3 271 -3 L271 -3 Z M23 250 C23 94 122 -10 271 -10 C421 -10 520 94 520 250 C520 406 421 510 271 510 C122 510 23 406 23 250 L23 250 Z " />
<glyph glyph-name="p" unicode="p" horiz-adv-x="583" d="M207 450 L207 500 L180 500 L20 441 L20 440 L44 443 C52 444 57 436 57 393 L57 -175 C57 -204 52 -210 44 -213 L20 -219 L20 -220 L132 -220 L244 -220 L244 -219 L220 -213 C212 -210 207 -204 207 -175 L207 73 C242 25 291 -5 339 -5 C459 -5 538 118 538 262 C538 411 459 510 339 510 C289 510 239 487 206 450 L207 450 L207 450 Z M206 88 L206 391 C230 425 254 447 269 447 C331 447 372 354 372 215 C372 99 358 0 336 0 C290 0 241 34 206 88 L206 88 Z " />
<glyph glyph-name="q" unicode="q" horiz-adv-x="545" d="M237 65 C204 90 183 173 183 288 C183 401 202 476 239 476 C249 476 274 442 302 390 L302 118 C258 93 236 74 238 64 L237 65 L237 65 Z M452 -199 L452 389 L452 439 L452 499 L443 499 L394 439 C371 481 313 509 248 509 C103 509 28 404 28 246 C28 95 96 -6 197 -6 C180 -6 221 22 301 65 L301 -199 C301 -208 296 -211 288 -214 L264 -220 L264 -221 L376 -221 L488 -221 L488 -220 L464 -214 C456 -211 451 -208 451 -199 L452 -199 L452 -199 Z " />
<glyph glyph-name="r" unicode="r" horiz-adv-x="466" d="M212 433 L212 438 L212 500 L185 500 L25 441 L25 440 L49 443 C57 444 62 436 62 393 L62 22 C62 12 58 9 51 7 L29 1 L29 0 L139 0 L249 0 L249 1 L225 7 C217 10 212 13 212 22 L212 410 C221 429 236 440 255 440 C270 440 280 426 280 405 C280 352 315 317 369 317 C422 317 457 352 457 405 C457 468 404 510 325 510 C270 510 229 480 212 432 L212 433 L212 433 Z " />
<glyph glyph-name="s" unicode="s" horiz-adv-x="404" d="M217 505 L217 505 C218 505 219 505 220 505 L217 505 L217 505 Z M216 505 C222 504 243 483 268 455 C276 442 284 427 292 410 L303 415 C310 406 317 397 324 388 C328 384 330 381 330 381 L331 381 L331 428 L331 429 L331 478 L330 478 C330 478 328 473 324 466 C324 467 301 480 266 497 C250 506 232 511 214 511 C118 511 55 452 55 364 C55 276 87 210 148 194 C205 178 235 144 235 105 C235 40 213 -4 181 -4 C181 -4 159 24 130 59 C122 74 113 91 104 110 L93 105 C86 114 79 123 72 132 C69 137 66 140 66 140 L65 140 L65 97 L65 92 L65 55 L66 55 C66 55 69 59 72 65 C66 51 94 21 151 -1 C162 -6 173 -8 183 -8 C285 -8 353 55 353 149 C353 223 306 285 216 309 C182 318 164 360 164 417 C164 471 185 507 216 507 L216 507 L216 505 L216 505 Z " />
<glyph glyph-name="t" unicode="t" horiz-adv-x="423" d="M369 500 L240 500 L240 620 L229 620 L25 431 L25 421 L90 421 L90 217 C90 54 155 -10 251 -10 C348 -10 413 55 413 154 L394 154 C394 98 355 61 298 61 C259 61 234 95 236 184 L240 421 L369 421 L369 500 L369 500 Z " />
<glyph glyph-name="u" unicode="u" horiz-adv-x="513" d="M295 77 L295 -10 L321 -10 L482 30 L482 31 L482 32 L458 31 C450 32 445 44 445 108 L445 478 L445 500 L355 500 L266 500 L266 499 L286 493 C291 491 295 488 295 478 L295 132 C282 108 260 93 237 93 C209 93 190 117 190 152 L190 477 L190 499 L100 499 L11 499 L11 498 L31 492 C36 490 40 487 40 477 L40 152 C40 54 91 -11 167 -11 C212 -11 262 41 295 121 L295 77 L295 77 Z " />
<glyph glyph-name="v" unicode="v" horiz-adv-x="502" d="M14 494 L236 -10 L280 -10 L431 447 L432 447 C433 451 434 455 435 458 L447 494 L486 499 L486 500 L449 500 L413 500 L381 500 L339 500 L339 499 L379 493 L374 475 C373 472 372 468 370 463 L370 463 L294 194 L190 466 L179 494 L209 499 L209 500 L177 500 L96 500 L12 500 L-18 500 L-18 499 L14 494 L14 494 Z " />
<glyph glyph-name="w" unicode="w" horiz-adv-x="830" d="M304 495 L372 350 L250 -9 L294 -9 L404 282 L541 -9 L585 -9 L775 494 L814 500 L814 501 L777 501 L740 501 L707 501 L665 501 L665 500 L705 494 L541 -9 L606 192 L481 474 L481 474 C481 475 481 476 481 477 L472 497 L498 501 L498 502 L470 502 L386 502 L302 502 L274 502 L274 501 L304 495 L304 495 Z M17 475 L251 -8 L319 193 L184 475 L184 475 C183 478 182 480 181 482 L174 497 L200 501 L200 502 L171 502 L88 502 L4 502 L-24 502 L-24 501 L7 497 L17 477 C17 476 17 475 17 474 L17 475 L17 475 Z " />
<glyph glyph-name="x" unicode="x" horiz-adv-x="521" d="M27 6 L-9 1 L-9 0 L23 0 L63 0 L92 0 L135 0 L135 1 L95 7 L116 50 C116 51 116 52 116 53 L116 53 L186 191 L261 53 L261 53 C266 43 270 35 274 29 L285 8 L252 3 L252 2 L288 2 L376 2 L471 2 L499 2 L499 3 L468 7 L453 35 C451 39 448 44 445 50 L445 50 L312 295 L420 450 L420 450 C421 451 422 452 423 453 L452 495 L488 500 L488 501 L456 501 L418 501 L388 501 L348 501 L348 500 L384 495 L291 334 L228 451 L228 451 C225 456 222 461 220 465 L203 496 L235 501 L235 502 L200 502 L114 502 L17 502 L-7 502 L-7 501 L20 497 L31 476 C33 472 36 467 40 460 L41 460 L169 224 L27 6 L27 6 Z " />
<glyph glyph-name="y" unicode="y" horiz-adv-x="522" d="M15 494 L249 -10 L210 -140 C205 -155 193 -165 180 -165 C144 -165 130 -112 94 -112 C43 -112 9 -142 9 -187 C9 -242 44 -279 97 -279 C162 -279 219 -240 237 -181 L293 -10 L451 447 L451 447 C452 450 453 452 454 454 L468 493 L507 498 L507 499 L470 499 L434 499 L402 499 L360 499 L360 498 L400 492 L395 475 C394 472 393 468 392 463 L251 -12 L311 191 L181 492 L211 497 L211 498 L179 498 L98 498 L14 498 L-16 498 L-16 497 L15 494 L15 494 Z " />
<glyph glyph-name="z" unicode="z" horiz-adv-x="431" d="M70 426 L82 442 C83 444 86 446 92 448 L219 455 L40 35 L40 0 L198 0 L238 0 L386 0 C388 13 390 31 392 44 C393 53 395 63 397 73 L388 58 C387 56 384 54 379 52 L217 44 L392 465 L392 500 L239 500 L111 500 L96 500 L97 518 L96 518 C94 513 92 507 90 501 L82 501 L82 472 C81 470 80 468 79 466 C76 455 72 441 69 428 L70 426 L70 426 Z M69 428 C68 423 67 418 66 414 L63 414 L59 414 L69 428 L69 428 Z M396 76 C397 82 398 88 399 93 L403 93 L407 93 L396 76 L396 76 Z " />
<glyph glyph-name="bar" unicode="&#x7c;" horiz-adv-x="236" d="M60 800 L60 -250 L177 -250 L177 800 L60 800 L60 800 Z " />
<glyph glyph-name="exclamdown" unicode="&#xa1;" horiz-adv-x="323" d="M162 505 C114 505 82 473 82 425 C82 377 114 345 162 345 C210 345 242 377 242 425 C242 473 210 505 162 505 L162 505 Z M162 -255 C255 -255 270 -198 254 -112 L176 290 L148 290 L70 -112 C54 -198 69 -255 162 -255 L162 -255 Z " />
<glyph glyph-name="cent" unicode="&#xa2;" horiz-adv-x="501" d="M283 575 L283 508 C125 494 23 388 23 233 C23 93 126 -3 283 -11 L283 -77 L325 -77 L325 -10 C382 0 439 52 472 126 L451 135 C436 102 399 80 358 80 C347 80 336 81 325 83 L325 420 C327 415 329 410 331 404 C347 359 377 329 406 329 C467 329 497 359 481 404 C459 465 397 506 326 508 L326 573 L283 575 L283 575 Z M284 97 C225 126 188 191 188 277 C188 380 225 453 284 470 L284 97 L284 97 Z " />
<glyph glyph-name="questiondown" unicode="&#xbf;" horiz-adv-x="289" d="M165 505 C117 505 85 473 85 425 C85 377 117 345 165 345 C213 345 245 377 245 425 C245 473 213 505 165 505 L165 505 Z M160 225 L165 140 C57 140 26 113 -2 71 C-21 44 -34 -9 -34 -59 C-34 -180 38 -260 145 -260 C230 -260 286 -216 286 -149 C286 -105 254 -75 205 -75 C169 -75 127 -101 90 -101 C42 -101 10 -77 10 -41 C10 -35 18 -19 31 0 C56 36 85 60 193 60 L186 225 L160 225 L160 225 Z " />
<glyph glyph-name="Agrave" unicode="&#xc0;" horiz-adv-x="678" d="M240 993 C218 1030 201 1054 192 1054 C151 1054 117 1020 117 980 C117 970 139 950 171 925 L318 810 L337 829 L240 993 L240 993 Z M153 293 L356 293 L419 84 C437 21 439 8 436 7 L386 1 L386 0 L445 0 L524 0 L621 0 L662 0 L662 1 L619 7 L403 697 L380 770 L365 770 C340 733 288 704 235 697 L238 687 L238 687 L98 76 C84 20 78 7 74 6 L23 0 L23 -1 L81 -1 L89 -1 L92 -1 L161 -1 L161 0 L104 6 C97 7 96 25 112 104 L153 293 L153 293 Z M156 300 L241 678 L355 300 L156 300 L156 300 Z " />
<glyph glyph-name="Aacute" unicode="&#xc1;" horiz-adv-x="678" d="M328 810 L475 925 C508 951 529 971 529 980 C529 1020 495 1054 454 1054 C447 1054 429 1030 407 993 L309 829 L328 810 L328 810 Z M153 293 L356 293 L419 84 C437 21 439 8 436 7 L386 1 L386 0 L445 0 L524 0 L621 0 L662 0 L662 1 L619 7 L403 697 L380 770 L365 770 C340 733 288 704 235 697 L238 687 L238 687 L98 76 C84 20 78 7 74 6 L23 0 L23 -1 L81 -1 L89 -1 L92 -1 L161 -1 L161 0 L104 6 C97 7 96 25 112 104 L153 293 L153 293 Z M156 300 L241 678 L355 300 L156 300 L156 300 Z " />
<glyph glyph-name="Acircumflex" unicode="&#xc2;" horiz-adv-x="678" d="M318 897 L455 803 L475 820 L371 985 C361 1001 335 1039 318 1039 C301 1039 276 1002 265 986 L161 820 L181 803 L318 897 L318 897 Z M153 293 L356 293 L419 84 C437 21 439 8 436 7 L386 1 L386 0 L445 0 L524 0 L621 0 L662 0 L662 1 L619 7 L403 697 L380 770 L365 770 C340 733 288 704 235 697 L238 687 L238 687 L98 76 C84 20 78 7 74 6 L23 0 L23 -1 L81 -1 L89 -1 L92 -1 L161 -1 L161 0 L104 6 C97 7 96 25 112 104 L153 293 L153 293 Z M156 300 L241 678 L355 300 L156 300 L156 300 Z " />
<glyph glyph-name="Atilde" unicode="&#xc3;" horiz-adv-x="678" d="M206 870 C206 899 218 919 235 919 C282 919 311 854 358 854 C404 854 434 920 434 1019 L430 1019 C430 983 415 959 392 959 C345 959 317 1024 270 1024 C229 1024 202 962 202 870 L206 870 L206 870 Z M153 293 L356 293 L419 84 C437 21 439 8 436 7 L386 1 L386 0 L445 0 L524 0 L621 0 L662 0 L662 1 L619 7 L403 697 L380 770 L365 770 C340 733 288 704 235 697 L238 687 L238 687 L98 76 C84 20 78 7 74 6 L23 0 L23 -1 L81 -1 L89 -1 L92 -1 L161 -1 L161 0 L104 6 C97 7 96 25 112 104 L153 293 L153 293 Z M156 300 L241 678 L355 300 L156 300 L156 300 Z " />
<glyph glyph-name="Adieresis" unicode="&#xc4;" horiz-adv-x="678" d="M399 865 C447 865 479 897 479 945 C479 993 447 1025 399 1025 C351 1025 319 993 319 945 C319 897 351 865 399 865 L399 865 Z M237 865 C285 865 317 897 317 945 C317 993 285 1025 237 1025 C189 1025 157 993 157 945 C157 897 189 865 237 865 L237 865 Z M153 293 L356 293 L419 84 C437 21 439 8 436 7 L386 1 L386 0 L445 0 L524 0 L621 0 L662 0 L662 1 L619 7 L403 697 L380 770 L365 770 C340 733 288 704 235 697 L238 687 L238 687 L98 76 C84 20 78 7 74 6 L23 0 L23 -1 L81 -1 L89 -1 L92 -1 L161 -1 L161 0 L104 6 C97 7 96 25 112 104 L153 293 L153 293 Z M156 300 L241 678 L355 300 L156 300 L156 300 Z " />
<glyph glyph-name="Aring" unicode="&#xc5;" horiz-adv-x="678" d="M318 845 C288 845 263 873 263 905 C263 941 285 965 318 965 C351 965 373 941 373 905 C373 873 348 845 318 845 L318 845 Z M219 905 C219 854 265 810 318 810 C372 810 418 854 418 905 C418 962 378 1000 318 1000 C259 1000 219 962 219 905 L219 905 Z M153 293 L356 293 L419 84 C437 21 439 8 436 7 L386 1 L386 0 L445 0 L524 0 L621 0 L662 0 L662 1 L619 7 L403 697 L380 770 L365 770 C340 733 288 704 235 697 L238 687 L238 687 L98 76 C84 20 78 7 74 6 L23 0 L23 -1 L81 -1 L89 -1 L92 -1 L161 -1 L161 0 L104 6 C97 7 96 25 112 104 L153 293 L153 293 Z M156 300 L241 678 L355 300 L156 300 L156 300 Z " />
<glyph glyph-name="Egrave" unicode="&#xc8;" horiz-adv-x="604" d="M230 993 C209 1030 191 1054 182 1054 C142 1054 107 1020 107 980 C107 970 129 950 161 925 L309 810 L328 829 L230 993 L230 993 Z M443 0 L550 0 C551 9 553 21 555 30 C556 39 557 51 559 60 L558 60 L557 60 L547 29 C543 15 524 5 444 5 L310 5 C264 5 259 23 259 51 L259 72 L259 385 L358 385 C437 385 454 373 458 355 L464 324 L465 324 L465 385 L465 388 L465 391 L465 452 L464 452 L458 421 C454 403 437 391 358 391 L259 391 L259 678 L259 745 L418 745 C515 745 517 735 520 721 L528 690 L529 690 L530 690 C529 699 528 711 528 720 C527 729 526 741 525 750 L418 750 L259 750 L152 750 L92 750 L46 750 L46 749 L74 743 C85 740 92 729 92 678 L92 72 C92 21 85 10 74 7 L46 1 L46 0 L92 0 L152 0 L259 0 L443 0 L443 0 Z " />
<glyph glyph-name="Eacute" unicode="&#xc9;" horiz-adv-x="604" d="M318 810 L466 925 C498 951 520 971 520 980 C520 1020 485 1054 445 1054 C437 1054 419 1030 397 993 L299 829 L318 810 L318 810 Z M443 0 L550 0 C551 9 553 21 555 30 C556 39 557 51 559 60 L558 60 L557 60 L547 29 C543 15 524 5 444 5 L310 5 C264 5 259 23 259 51 L259 72 L259 385 L358 385 C437 385 454 373 458 355 L464 324 L465 324 L465 385 L465 388 L465 391 L465 452 L464 452 L458 421 C454 403 437 391 358 391 L259 391 L259 678 L259 745 L418 745 C515 745 517 735 520 721 L528 690 L529 690 L530 690 C529 699 528 711 528 720 C527 729 526 741 525 750 L418 750 L259 750 L152 750 L92 750 L46 750 L46 749 L74 743 C85 740 92 729 92 678 L92 72 C92 21 85 10 74 7 L46 1 L46 0 L92 0 L152 0 L259 0 L443 0 L443 0 Z " />
<glyph glyph-name="Ecircumflex" unicode="&#xca;" horiz-adv-x="604" d="M308 897 L445 803 L466 820 L362 985 C352 1001 326 1039 308 1039 C291 1039 266 1002 256 986 L151 820 L172 803 L308 897 L308 897 Z M443 0 L550 0 C551 9 553 21 555 30 C556 39 557 51 559 60 L558 60 L557 60 L547 29 C543 15 524 5 444 5 L310 5 C264 5 259 23 259 51 L259 72 L259 385 L358 385 C437 385 454 373 458 355 L464 324 L465 324 L465 385 L465 388 L465 391 L465 452 L464 452 L458 421 C454 403 437 391 358 391 L259 391 L259 678 L259 745 L418 745 C515 745 517 735 520 721 L528 690 L529 690 L530 690 C529 699 528 711 528 720 C527 729 526 741 525 750 L418 750 L259 750 L152 750 L92 750 L46 750 L46 749 L74 743 C85 740 92 729 92 678 L92 72 C92 21 85 10 74 7 L46 1 L46 0 L92 0 L152 0 L259 0 L443 0 L443 0 Z " />
<glyph glyph-name="Edieresis" unicode="&#xcb;" horiz-adv-x="604" d="M389 865 C437 865 469 897 469 945 C469 993 437 1025 389 1025 C341 1025 309 993 309 945 C309 897 341 865 389 865 L389 865 Z M228 865 C276 865 308 897 308 945 C308 993 276 1025 228 1025 C180 1025 148 993 148 945 C148 897 180 865 228 865 L228 865 Z M443 0 L550 0 C551 9 553 21 555 30 C556 39 557 51 559 60 L558 60 L557 60 L547 29 C543 15 524 5 444 5 L310 5 C264 5 259 23 259 51 L259 72 L259 385 L358 385 C437 385 454 373 458 355 L464 324 L465 324 L465 385 L465 388 L465 391 L465 452 L464 452 L458 421 C454 403 437 391 358 391 L259 391 L259 678 L259 745 L418 745 C515 745 517 735 520 721 L528 690 L529 690 L530 690 C529 699 528 711 528 720 C527 729 526 741 525 750 L418 750 L259 750 L152 750 L92 750 L46 750 L46 749 L74 743 C85 740 92 729 92 678 L92 72 C92 21 85 10 74 7 L46 1 L46 0 L92 0 L152 0 L259 0 L443 0 L443 0 Z " />
<glyph glyph-name="Igrave" unicode="&#xcc;" horiz-adv-x="345" d="M75 993 C54 1030 36 1054 27 1054 C-13 1054 -48 1020 -48 980 C-48 970 -26 950 6 925 L154 810 L173 829 L75 993 L75 993 Z M237 67 L237 683 C237 730 244 740 255 743 L283 749 L283 750 L153 750 L24 750 L24 749 L52 743 C63 740 70 730 70 683 L70 67 C70 20 63 10 52 7 L24 1 L24 0 L153 0 L283 0 L283 1 L255 7 C244 10 237 20 237 67 L237 67 Z " />
<glyph glyph-name="Iacute" unicode="&#xcd;" horiz-adv-x="345" d="M163 810 L311 925 C343 951 365 971 365 980 C365 1020 330 1054 290 1054 C282 1054 264 1030 242 993 L144 829 L163 810 L163 810 Z M237 67 L237 683 C237 730 244 740 255 743 L283 749 L283 750 L153 750 L24 750 L24 749 L52 743 C63 740 70 730 70 683 L70 67 C70 20 63 10 52 7 L24 1 L24 0 L153 0 L283 0 L283 1 L255 7 C244 10 237 20 237 67 L237 67 Z " />
<glyph glyph-name="Icircumflex" unicode="&#xce;" horiz-adv-x="345" d="M153 897 L290 803 L311 820 L207 985 C197 1001 171 1039 153 1039 C136 1039 111 1002 101 986 L-4 820 L17 803 L153 897 L153 897 Z M237 67 L237 683 C237 730 244 740 255 743 L283 749 L283 750 L153 750 L24 750 L24 749 L52 743 C63 740 70 730 70 683 L70 67 C70 20 63 10 52 7 L24 1 L24 0 L153 0 L283 0 L283 1 L255 7 C244 10 237 20 237 67 L237 67 Z " />
<glyph glyph-name="Idieresis" unicode="&#xcf;" horiz-adv-x="345" d="M234 865 C282 865 314 897 314 945 C314 993 282 1025 234 1025 C186 1025 154 993 154 945 C154 897 186 865 234 865 L234 865 Z M73 865 C121 865 153 897 153 945 C153 993 121 1025 73 1025 C25 1025 -7 993 -7 945 C-7 897 25 865 73 865 L73 865 Z M237 67 L237 683 C237 730 244 740 255 743 L283 749 L283 750 L153 750 L24 750 L24 749 L52 743 C63 740 70 730 70 683 L70 67 C70 20 63 10 52 7 L24 1 L24 0 L153 0 L283 0 L283 1 L255 7 C244 10 237 20 237 67 L237 67 Z " />
<glyph glyph-name="Ntilde" unicode="&#xd1;" horiz-adv-x="687" d="M225 870 C225 899 237 919 255 919 C302 919 330 854 377 854 C423 854 454 920 454 1019 L450 1019 C450 983 435 959 412 959 C365 959 336 1024 289 1024 C248 1024 221 962 221 870 L225 870 L225 870 Z M179 750 L140 750 L98 750 L61 750 L-29 750 L-56 750 L-56 749 L-25 745 L98 582 L97 138 L97 138 C97 30 95 9 92 8 L42 2 L42 1 L97 1 L122 1 L147 1 L202 1 L202 2 L153 8 C150 9 147 21 146 73 L146 127 C146 128 146 129 146 130 L146 130 L143 525 L356 241 L534 3 L568 3 L579 685 C582 733 590 744 601 746 L633 752 L633 753 L580 753 L554 753 L530 753 L476 753 L476 752 L508 746 C521 743 530 727 530 646 L531 646 L533 285 L493 338 L179 750 L179 750 Z " />
<glyph glyph-name="Ograve" unicode="&#xd2;" horiz-adv-x="879" d="M413 -3 C298 -3 221 148 221 375 C221 602 301 753 420 753 C547 753 632 602 632 375 C632 148 544 -3 413 -3 L413 -3 Z M29 375 C29 144 182 -10 412 -10 C659 -10 824 144 824 375 C824 606 663 760 422 760 C186 760 29 606 29 375 L29 375 Z M343 993 C322 1030 304 1054 295 1054 C255 1054 221 1020 221 980 C221 970 242 950 274 925 L422 810 L441 829 L343 993 L343 993 Z " />
<glyph glyph-name="Oacute" unicode="&#xd3;" horiz-adv-x="879" d="M431 810 L579 925 C611 951 633 971 633 980 C633 1020 598 1054 558 1054 C550 1054 532 1030 510 993 L413 829 L431 810 L431 810 Z M413 -3 C298 -3 221 148 221 375 C221 602 301 753 420 753 C547 753 632 602 632 375 C632 148 544 -3 413 -3 L413 -3 Z M29 375 C29 144 182 -10 412 -10 C659 -10 824 144 824 375 C824 606 663 760 422 760 C186 760 29 606 29 375 L29 375 Z " />
<glyph glyph-name="Ocircumflex" unicode="&#xd4;" horiz-adv-x="879" d="M413 -3 C298 -3 221 148 221 375 C221 602 301 753 420 753 C547 753 632 602 632 375 C632 148 544 -3 413 -3 L413 -3 Z M29 375 C29 144 182 -10 412 -10 C659 -10 824 144 824 375 C824 606 663 760 422 760 C186 760 29 606 29 375 L29 375 Z M421 897 L558 803 L579 820 L475 985 C465 1001 439 1039 422 1039 C404 1039 379 1002 369 986 L264 820 L285 803 L421 897 L421 897 Z " />
<glyph glyph-name="Otilde" unicode="&#xd5;" horiz-adv-x="879" d="M309 870 C309 899 321 919 339 919 C386 919 414 854 462 854 C507 854 538 920 538 1019 L534 1019 C534 983 519 959 496 959 C449 959 420 1024 373 1024 C332 1024 305 962 305 870 L309 870 L309 870 Z M413 -3 C298 -3 221 148 221 375 C221 602 301 753 420 753 C547 753 632 602 632 375 C632 148 544 -3 413 -3 L413 -3 Z M29 375 C29 144 182 -10 412 -10 C659 -10 824 144 824 375 C824 606 663 760 422 760 C186 760 29 606 29 375 L29 375 Z " />
<glyph glyph-name="Odieresis" unicode="&#xd6;" horiz-adv-x="879" d="M502 865 C550 865 582 897 582 945 C582 993 550 1025 502 1025 C454 1025 422 993 422 945 C422 897 454 865 502 865 L502 865 Z M341 865 C389 865 421 897 421 945 C421 993 389 1025 341 1025 C293 1025 261 993 261 945 C261 897 293 865 341 865 L341 865 Z M413 -3 C298 -3 221 148 221 375 C221 602 301 753 420 753 C547 753 632 602 632 375 C632 148 544 -3 413 -3 L413 -3 Z M29 375 C29 144 182 -10 412 -10 C659 -10 824 144 824 375 C824 606 663 760 422 760 C186 760 29 606 29 375 L29 375 Z " />
<glyph glyph-name="Oslash" unicode="&#xd8;" horiz-adv-x="879" d="M33 -14 L140 90 C207 26 300 -10 412 -10 C659 -10 824 144 824 375 C824 488 786 583 719 650 L829 756 L821 764 L711 657 C641 722 542 759 423 759 C187 759 30 605 30 374 C30 260 67 165 133 98 L26 -6 L33 -14 L33 -14 Z M414 -3 C335 -3 274 69 244 188 L615 547 C628 497 635 439 635 375 C635 148 547 -3 416 -3 L414 -3 L414 -3 Z M242 201 C230 252 224 311 224 376 C224 603 304 754 423 754 C511 754 579 681 612 561 L242 201 L242 201 Z " />
<glyph glyph-name="Ugrave" unicode="&#xd9;" horiz-adv-x="733" d="M277 993 C256 1030 239 1054 230 1054 C189 1054 155 1020 155 980 C155 970 176 950 209 925 L356 810 L375 829 L277 993 L277 993 Z M655 97 L655 678 L655 750 L548 750 L442 750 L442 749 L470 743 C481 740 488 729 488 678 L488 204 C458 140 400 98 343 98 C272 98 224 143 224 211 L224 678 L224 750 L117 750 L11 750 L11 749 L39 743 C50 740 57 729 57 678 L57 211 C57 78 144 -10 276 -10 C364 -10 449 45 488 128 L488 97 L488 0 L514 0 L701 49 C662 74 655 81 655 97 L655 97 Z " />
<glyph glyph-name="Uacute" unicode="&#xda;" horiz-adv-x="733" d="M366 810 L513 925 C545 951 567 971 567 980 C567 1020 533 1054 492 1054 C484 1054 466 1030 444 993 L347 829 L366 810 L366 810 Z M655 97 L655 678 L655 750 L548 750 L442 750 L442 749 L470 743 C481 740 488 729 488 678 L488 204 C458 140 400 98 343 98 C272 98 224 143 224 211 L224 678 L224 750 L117 750 L11 750 L11 749 L39 743 C50 740 57 729 57 678 L57 211 C57 78 144 -10 276 -10 C364 -10 449 45 488 128 L488 97 L488 0 L514 0 L701 49 C662 74 655 81 655 97 L655 97 Z " />
<glyph glyph-name="Ucircumflex" unicode="&#xdb;" horiz-adv-x="733" d="M356 897 L493 803 L513 820 L409 985 C399 1001 373 1039 356 1039 C339 1039 313 1002 303 986 L199 820 L219 803 L356 897 L356 897 Z M655 97 L655 678 L655 750 L548 750 L442 750 L442 749 L470 743 C481 740 488 729 488 678 L488 204 C458 140 400 98 343 98 C272 98 224 143 224 211 L224 678 L224 750 L117 750 L11 750 L11 749 L39 743 C50 740 57 729 57 678 L57 211 C57 78 144 -10 276 -10 C364 -10 449 45 488 128 L488 97 L488 0 L514 0 L701 49 C662 74 655 81 655 97 L655 97 Z " />
<glyph glyph-name="Udieresis" unicode="&#xdc;" horiz-adv-x="733" d="M437 865 C485 865 517 897 517 945 C517 993 485 1025 437 1025 C389 1025 357 993 357 945 C357 897 389 865 437 865 L437 865 Z M275 865 C323 865 355 897 355 945 C355 993 323 1025 275 1025 C227 1025 195 993 195 945 C195 897 227 865 275 865 L275 865 Z M655 97 L655 678 L655 750 L548 750 L442 750 L442 749 L470 743 C481 740 488 729 488 678 L488 204 C458 140 400 98 343 98 C272 98 224 143 224 211 L224 678 L224 750 L117 750 L11 750 L11 749 L39 743 C50 740 57 729 57 678 L57 211 C57 78 144 -10 276 -10 C364 -10 449 45 488 128 L488 97 L488 0 L514 0 L701 49 C662 74 655 81 655 97 L655 97 Z " />
<glyph glyph-name="Yacute" unicode="&#xdd;" horiz-adv-x="667" d="M354 810 L502 925 C534 951 556 971 556 980 C556 1020 522 1054 481 1054 C473 1054 455 1030 433 993 L336 829 L354 810 L354 810 Z M276 623 L276 623 C275 625 274 627 273 629 L211 743 L253 749 L253 750 L207 750 L117 750 L9 750 L-19 750 L-19 749 L12 745 L261 308 L261 67 C261 20 254 10 243 7 L215 1 L215 0 L345 0 L475 0 L475 1 L446 7 C436 10 429 20 429 67 L429 336 L611 744 L650 749 L650 750 L614 750 L603 750 L601 750 L555 750 L555 749 L598 743 L566 668 C561 658 556 646 550 633 L550 633 L426 346 L276 623 L276 623 Z " />
<glyph glyph-name="agrave" unicode="&#xe0;" horiz-adv-x="477" d="M111 743 C89 780 72 804 63 804 C22 804 -12 770 -12 730 C-12 720 10 700 42 675 L189 560 L208 579 L111 743 L111 743 Z M284 55 L284 -10 L311 -10 L472 30 L472 31 L472 32 L448 31 C439 32 434 47 434 128 L434 450 L434 510 L417 510 L328 470 C294 495 246 510 189 510 C84 510 30 405 30 247 C30 96 88 -5 175 -5 C212 -5 254 19 284 55 L284 55 Z M284 411 L284 107 C262 76 244 57 237 57 C205 57 183 149 183 288 C183 395 191 466 207 466 C243 466 271 444 285 412 L284 411 L284 411 Z " />
<glyph glyph-name="aacute" unicode="&#xe1;" horiz-adv-x="477" d="M199 560 L346 675 C379 701 400 721 400 730 C400 770 366 804 325 804 C318 804 300 780 278 743 L180 579 L199 560 L199 560 Z M284 55 L284 -10 L311 -10 L472 30 L472 31 L472 32 L448 31 C439 32 434 47 434 128 L434 450 L434 510 L417 510 L328 470 C294 495 246 510 189 510 C84 510 30 405 30 247 C30 96 88 -5 175 -5 C212 -5 254 19 284 55 L284 55 Z M284 411 L284 107 C262 76 244 57 237 57 C205 57 183 149 183 288 C183 395 191 466 207 466 C243 466 271 444 285 412 L284 411 L284 411 Z " />
<glyph glyph-name="acircumflex" unicode="&#xe2;" horiz-adv-x="477" d="M189 647 L326 553 L346 570 L242 735 C232 751 206 789 189 789 C172 789 146 752 136 736 L32 570 L52 553 L189 647 L189 647 Z M284 55 L284 -10 L311 -10 L472 30 L472 31 L472 32 L448 31 C439 32 434 47 434 128 L434 450 L434 510 L417 510 L328 470 C294 495 246 510 189 510 C84 510 30 405 30 247 C30 96 88 -5 175 -5 C212 -5 254 19 284 55 L284 55 Z M284 411 L284 107 C262 76 244 57 237 57 C205 57 183 149 183 288 C183 395 191 466 207 466 C243 466 271 444 285 412 L284 411 L284 411 Z " />
<glyph glyph-name="atilde" unicode="&#xe3;" horiz-adv-x="477" d="M77 620 C77 649 89 669 106 669 C153 669 182 604 229 604 C275 604 305 670 305 769 L301 769 C301 733 286 709 263 709 C216 709 188 774 141 774 C100 774 73 712 73 620 L77 620 L77 620 Z M284 55 L284 -10 L311 -10 L472 30 L472 31 L472 32 L448 31 C439 32 434 47 434 128 L434 450 L434 510 L417 510 L328 470 C294 495 246 510 189 510 C84 510 30 405 30 247 C30 96 88 -5 175 -5 C212 -5 254 19 284 55 L284 55 Z M284 411 L284 107 C262 76 244 57 237 57 C205 57 183 149 183 288 C183 395 191 466 207 466 C243 466 271 444 285 412 L284 411 L284 411 Z " />
<glyph glyph-name="adieresis" unicode="&#xe4;" horiz-adv-x="477" d="M270 615 C318 615 350 647 350 695 C350 743 318 775 270 775 C222 775 190 743 190 695 C190 647 222 615 270 615 L270 615 Z M108 615 C156 615 188 647 188 695 C188 743 156 775 108 775 C60 775 28 743 28 695 C28 647 60 615 108 615 L108 615 Z M284 55 L284 -10 L311 -10 L472 30 L472 31 L472 32 L448 31 C439 32 434 47 434 128 L434 450 L434 510 L417 510 L328 470 C294 495 246 510 189 510 C84 510 30 405 30 247 C30 96 88 -5 175 -5 C212 -5 254 19 284 55 L284 55 Z M284 411 L284 107 C262 76 244 57 237 57 C205 57 183 149 183 288 C183 395 191 466 207 466 C243 466 271 444 285 412 L284 411 L284 411 Z " />
<glyph glyph-name="aring" unicode="&#xe5;" horiz-adv-x="477" d="M189 595 C159 595 134 623 134 655 C134 691 156 715 189 715 C222 715 244 691 244 655 C244 623 219 595 189 595 L189 595 Z M90 655 C90 604 136 560 189 560 C243 560 289 604 289 655 C289 712 249 750 189 750 C130 750 90 712 90 655 L90 655 Z M284 55 L284 -10 L311 -10 L472 30 L472 31 L472 32 L448 31 C439 32 434 47 434 128 L434 450 L434 510 L417 510 L328 470 C294 495 246 510 189 510 C84 510 30 405 30 247 C30 96 88 -5 175 -5 C212 -5 254 19 284 55 L284 55 Z M284 411 L284 107 C262 76 244 57 237 57 C205 57 183 149 183 288 C183 395 191 466 207 466 C243 466 271 444 285 412 L284 411 L284 411 Z " />
<glyph glyph-name="egrave" unicode="&#xe8;" horiz-adv-x="475" d="M178 743 C156 780 139 804 130 804 C89 804 55 770 55 730 C55 720 77 700 109 675 L256 560 L275 579 L178 743 L178 743 Z M184 340 L280 340 L404 340 L446 340 C424 462 352 510 256 510 C116 510 23 396 23 225 C23 84 108 -10 235 -10 C322 -10 401 46 432 130 L414 137 C404 108 347 89 271 89 C218 89 182 168 182 286 C182 305 183 323 184 340 L184 340 Z M370 383 C381 384 392 384 404 384 L370 383 L370 383 Z M273 379 L188 376 C198 439 219 477 247 477 C251 477 259 449 272 380 L273 379 L273 379 Z " />
<glyph glyph-name="eacute" unicode="&#xe9;" horiz-adv-x="475" d="M266 560 L413 675 C445 701 467 721 467 730 C467 770 433 804 392 804 C385 804 367 780 345 743 L247 579 L266 560 L266 560 Z M184 340 L280 340 L404 340 L446 340 C424 462 352 510 256 510 C116 510 23 396 23 225 C23 84 108 -10 235 -10 C322 -10 401 46 432 130 L414 137 C404 108 347 89 271 89 C218 89 182 168 182 286 C182 305 183 323 184 340 L184 340 Z M370 383 C381 384 392 384 404 384 L370 383 L370 383 Z M273 379 L188 376 C198 439 219 477 247 477 C251 477 259 449 272 380 L273 379 L273 379 Z " />
<glyph glyph-name="ecircumflex" unicode="&#xea;" horiz-adv-x="475" d="M256 647 L393 553 L413 570 L309 735 C299 751 273 789 256 789 C239 789 213 752 203 736 L99 570 L119 553 L256 647 L256 647 Z M184 340 L280 340 L404 340 L446 340 C424 462 352 510 256 510 C116 510 23 396 23 225 C23 84 108 -10 235 -10 C322 -10 401 46 432 130 L414 137 C404 108 347 89 271 89 C218 89 182 168 182 286 C182 305 183 323 184 340 L184 340 Z M370 383 C381 384 392 384 404 384 L370 383 L370 383 Z M273 379 L188 376 C198 439 219 477 247 477 C251 477 259 449 272 380 L273 379 L273 379 Z " />
<glyph glyph-name="edieresis" unicode="&#xeb;" horiz-adv-x="475" d="M337 615 C385 615 417 647 417 695 C417 743 385 775 337 775 C289 775 257 743 257 695 C257 647 289 615 337 615 L337 615 Z M175 615 C223 615 255 647 255 695 C255 743 223 775 175 775 C127 775 95 743 95 695 C95 647 127 615 175 615 L175 615 Z M184 340 L280 340 L404 340 L446 340 C424 462 352 510 256 510 C116 510 23 396 23 225 C23 84 108 -10 235 -10 C322 -10 401 46 432 130 L414 137 C404 108 347 89 271 89 C218 89 182 168 182 286 C182 305 183 323 184 340 L184 340 Z M370 383 C381 384 392 384 404 384 L370 383 L370 383 Z M273 379 L188 376 C198 439 219 477 247 477 C251 477 259 449 272 380 L273 379 L273 379 Z " />
<glyph glyph-name="igrave" unicode="&#xec;" horiz-adv-x="321" d="M95 743 C74 780 56 804 47 804 C7 804 -28 770 -28 730 C-28 720 -6 700 26 675 L174 560 L193 579 L95 743 L95 743 Z M249 22 L249 396 L249 500 L222 500 L63 445 L63 444 C93 425 99 418 99 396 L99 22 C99 12 94 9 86 7 L63 1 L63 0 L174 0 L285 0 L285 1 L261 7 C254 10 249 13 249 22 L249 22 Z " />
<glyph glyph-name="iacute" unicode="&#xed;" horiz-adv-x="321" d="M95 743 C74 780 56 804 47 804 C7 804 -28 770 -28 730 C-28 720 -6 700 26 675 L174 560 L193 579 L95 743 L95 743 Z M249 22 L249 396 L249 500 L222 500 L63 445 L63 444 C93 425 99 418 99 396 L99 22 C99 12 94 9 86 7 L63 1 L63 0 L174 0 L285 0 L285 1 L261 7 C254 10 249 13 249 22 L249 22 Z " />
<glyph glyph-name="icircumflex" unicode="&#xee;" horiz-adv-x="321" d="M173 647 L310 553 L331 570 L227 735 C217 751 191 789 174 789 C156 789 131 752 121 736 L16 570 L37 553 L173 647 L173 647 Z M249 22 L249 396 L249 500 L222 500 L63 445 L63 444 C93 425 99 418 99 396 L99 22 C99 12 94 9 86 7 L63 1 L63 0 L174 0 L285 0 L285 1 L261 7 C254 10 249 13 249 22 L249 22 Z " />
<glyph glyph-name="idieresis" unicode="&#xef;" horiz-adv-x="321" d="M254 615 C302 615 334 647 334 695 C334 743 302 775 254 775 C206 775 174 743 174 695 C174 647 206 615 254 615 L254 615 Z M93 615 C141 615 173 647 173 695 C173 743 141 775 93 775 C45 775 13 743 13 695 C13 647 45 615 93 615 L93 615 Z M249 22 L249 396 L249 500 L222 500 L63 445 L63 444 C93 425 99 418 99 396 L99 22 C99 12 94 9 86 7 L63 1 L63 0 L174 0 L285 0 L285 1 L261 7 C254 10 249 13 249 22 L249 22 Z " />
<glyph glyph-name="ntilde" unicode="&#xf1;" horiz-adv-x="552" d="M155 620 C155 649 167 669 185 669 C232 669 260 604 308 604 C353 604 384 670 384 769 L380 769 C380 733 365 709 342 709 C295 709 266 774 219 774 C178 774 151 712 151 620 L155 620 L155 620 Z M329 22 C329 12 324 9 317 7 L294 1 L294 0 L404 0 L514 0 L514 1 L491 7 C484 9 479 12 479 22 L479 282 C479 419 437 510 356 510 C284 510 224 470 206 410 L206 438 L206 500 L179 500 L19 441 L19 440 L43 443 C51 444 56 436 56 393 L56 22 C56 12 51 9 44 7 L21 1 L21 0 L131 0 L241 0 L241 1 L218 7 C211 9 206 12 206 22 L206 388 C216 419 259 440 316 440 C324 440 329 377 329 282 L329 22 L329 22 Z " />
<glyph glyph-name="ograve" unicode="&#xf2;" horiz-adv-x="565" d="M271 -3 C221 -3 188 98 188 250 C188 402 221 503 271 503 C322 503 355 402 355 250 C355 98 322 -3 271 -3 L271 -3 Z M23 250 C23 94 122 -10 271 -10 C421 -10 520 94 520 250 C520 406 421 510 271 510 C122 510 23 406 23 250 L23 250 Z M193 743 C172 780 154 804 145 804 C105 804 70 770 70 730 C70 720 92 700 124 675 L272 560 L290 579 L193 743 L193 743 Z " />
<glyph glyph-name="oacute" unicode="&#xf3;" horiz-adv-x="565" d="M281 560 L429 675 C461 701 482 721 482 730 C482 770 448 804 408 804 C400 804 382 780 360 743 L262 579 L281 560 L281 560 Z M271 -3 C221 -3 188 98 188 250 C188 402 221 503 271 503 C322 503 355 402 355 250 C355 98 322 -3 271 -3 L271 -3 Z M23 250 C23 94 122 -10 271 -10 C421 -10 520 94 520 250 C520 406 421 510 271 510 C122 510 23 406 23 250 L23 250 Z " />
<glyph glyph-name="ocircumflex" unicode="&#xf4;" horiz-adv-x="565" d="M271 -3 C221 -3 188 98 188 250 C188 402 221 503 271 503 C322 503 355 402 355 250 C355 98 322 -3 271 -3 L271 -3 Z M23 250 C23 94 122 -10 271 -10 C421 -10 520 94 520 250 C520 406 421 510 271 510 C122 510 23 406 23 250 L23 250 Z M271 647 L408 553 L429 570 L325 735 C314 751 289 789 271 789 C254 789 229 752 219 736 L114 570 L135 553 L271 647 L271 647 Z " />
<glyph glyph-name="otilde" unicode="&#xf5;" horiz-adv-x="565" d="M159 620 C159 649 171 669 189 669 C236 669 264 604 311 604 C357 604 388 670 388 769 L384 769 C384 733 369 709 346 709 C298 709 270 774 223 774 C182 774 155 712 155 620 L159 620 L159 620 Z M271 -3 C221 -3 188 98 188 250 C188 402 221 503 271 503 C322 503 355 402 355 250 C355 98 322 -3 271 -3 L271 -3 Z M23 250 C23 94 122 -10 271 -10 C421 -10 520 94 520 250 C520 406 421 510 271 510 C122 510 23 406 23 250 L23 250 Z " />
<glyph glyph-name="odieresis" unicode="&#xf6;" horiz-adv-x="565" d="M352 615 C400 615 432 647 432 695 C432 743 400 775 352 775 C304 775 272 743 272 695 C272 647 304 615 352 615 L352 615 Z M191 615 C239 615 271 647 271 695 C271 743 239 775 191 775 C143 775 111 743 111 695 C111 647 143 615 191 615 L191 615 Z M271 -3 C221 -3 188 98 188 250 C188 402 221 503 271 503 C322 503 355 402 355 250 C355 98 322 -3 271 -3 L271 -3 Z M23 250 C23 94 122 -10 271 -10 C421 -10 520 94 520 250 C520 406 421 510 271 510 C122 510 23 406 23 250 L23 250 Z " />
<glyph glyph-name="oslash" unicode="&#xf8;" horiz-adv-x="565" d="M25 -13 L94 59 C137 15 198 -10 271 -10 C421 -10 520 94 520 250 C520 326 496 390 454 435 L522 506 L516 512 L448 441 C405 485 344 510 271 510 C122 510 23 406 23 250 C23 174 47 110 89 65 L21 -6 L25 -13 L25 -13 Z M272 -2 C232 -2 203 61 193 162 L353 329 C355 305 356 279 356 251 C356 99 323 -2 272 -2 L272 -2 Z M192 173 C190 197 189 223 189 251 C189 403 222 504 272 504 C312 504 341 441 351 340 L192 173 L192 173 Z " />
<glyph glyph-name="ugrave" unicode="&#xf9;" horiz-adv-x="513" d="M164 743 C142 780 125 804 116 804 C76 804 41 770 41 730 C41 720 63 700 95 675 L243 560 L261 579 L164 743 L164 743 Z M295 77 L295 -10 L321 -10 L482 30 L482 31 L482 32 L458 31 C450 32 445 44 445 108 L445 478 L445 500 L355 500 L266 500 L266 499 L286 493 C291 491 295 488 295 478 L295 132 C282 108 260 93 237 93 C209 93 190 117 190 152 L190 477 L190 499 L100 499 L11 499 L11 498 L31 492 C36 490 40 487 40 477 L40 152 C40 54 91 -11 167 -11 C212 -11 262 41 295 121 L295 77 L295 77 Z " />
<glyph glyph-name="uacute" unicode="&#xfa;" horiz-adv-x="513" d="M252 560 L399 675 C432 701 453 721 453 730 C453 770 419 804 379 804 C371 804 353 780 331 743 L233 579 L252 560 L252 560 Z M295 77 L295 -10 L321 -10 L482 30 L482 31 L482 32 L458 31 C450 32 445 44 445 108 L445 478 L445 500 L355 500 L266 500 L266 499 L286 493 C291 491 295 488 295 478 L295 132 C282 108 260 93 237 93 C209 93 190 117 190 152 L190 477 L190 499 L100 499 L11 499 L11 498 L31 492 C36 490 40 487 40 477 L40 152 C40 54 91 -11 167 -11 C212 -11 262 41 295 121 L295 77 L295 77 Z " />
<glyph glyph-name="ucircumflex" unicode="&#xfb;" horiz-adv-x="513" d="M242 647 L379 553 L400 570 L295 735 C285 751 260 789 242 789 C225 789 200 752 190 736 L85 570 L105 553 L242 647 L242 647 Z M295 77 L295 -10 L321 -10 L482 30 L482 31 L482 32 L458 31 C450 32 445 44 445 108 L445 478 L445 500 L355 500 L266 500 L266 499 L286 493 C291 491 295 488 295 478 L295 132 C282 108 260 93 237 93 C209 93 190 117 190 152 L190 477 L190 499 L100 499 L11 499 L11 498 L31 492 C36 490 40 487 40 477 L40 152 C40 54 91 -11 167 -11 C212 -11 262 41 295 121 L295 77 L295 77 Z " />
<glyph glyph-name="udieresis" unicode="&#xfc;" horiz-adv-x="513" d="M323 615 C371 615 403 647 403 695 C403 743 371 775 323 775 C275 775 243 743 243 695 C243 647 275 615 323 615 L323 615 Z M162 615 C210 615 242 647 242 695 C242 743 210 775 162 775 C114 775 82 743 82 695 C82 647 114 615 162 615 L162 615 Z M295 77 L295 -10 L321 -10 L482 30 L482 31 L482 32 L458 31 C450 32 445 44 445 108 L445 478 L445 500 L355 500 L266 500 L266 499 L286 493 C291 491 295 488 295 478 L295 132 C282 108 260 93 237 93 C209 93 190 117 190 152 L190 477 L190 499 L100 499 L11 499 L11 498 L31 492 C36 490 40 487 40 477 L40 152 C40 54 91 -11 167 -11 C212 -11 262 41 295 121 L295 77 L295 77 Z " />
<glyph glyph-name="ydieresis" unicode="&#xff;" horiz-adv-x="522" d="M369 615 C417 615 449 647 449 695 C449 743 417 775 369 775 C321 775 289 743 289 695 C289 647 321 615 369 615 L369 615 Z M208 615 C256 615 288 647 288 695 C288 743 256 775 208 775 C160 775 128 743 128 695 C128 647 160 615 208 615 L208 615 Z M15 494 L249 -10 L210 -140 C205 -155 193 -165 180 -165 C144 -165 130 -112 94 -112 C43 -112 9 -142 9 -187 C9 -242 44 -279 97 -279 C162 -279 219 -240 237 -181 L293 -10 L451 447 L451 447 C452 450 453 452 454 454 L468 493 L507 498 L507 499 L470 499 L434 499 L402 499 L360 499 L360 498 L400 492 L395 475 C394 472 393 468 392 463 L251 -12 L311 191 L181 492 L211 497 L211 498 L179 498 L98 498 L14 498 L-16 498 L-16 497 L15 494 L15 494 Z " />
<glyph glyph-name="Amacron" unicode="&#x100;" horiz-adv-x="678" d="M201 884 L435 884 L435 988 L201 988 L201 884 L201 884 Z M153 293 L356 293 L419 84 C437 21 439 8 436 7 L386 1 L386 0 L445 0 L524 0 L621 0 L662 0 L662 1 L619 7 L403 697 L380 770 L365 770 C340 733 288 704 235 697 L238 687 L238 687 L98 76 C84 20 78 7 74 6 L23 0 L23 -1 L81 -1 L89 -1 L92 -1 L161 -1 L161 0 L104 6 C97 7 96 25 112 104 L153 293 L153 293 Z M156 300 L241 678 L355 300 L156 300 L156 300 Z " />
<glyph glyph-name="amacron" unicode="&#x101;" horiz-adv-x="477" d="M72 634 L306 634 L306 738 L72 738 L72 634 L72 634 Z M284 55 L284 -10 L311 -10 L472 30 L472 31 L472 32 L448 31 C439 32 434 47 434 128 L434 450 L434 510 L417 510 L328 470 C294 495 246 510 189 510 C84 510 30 405 30 247 C30 96 88 -5 175 -5 C212 -5 254 19 284 55 L284 55 Z M284 411 L284 107 C262 76 244 57 237 57 C205 57 183 149 183 288 C183 395 191 466 207 466 C243 466 271 444 285 412 L284 411 L284 411 Z " />
<glyph glyph-name="Abreve" unicode="&#x102;" horiz-adv-x="678" d="M189 994 C204 899 256 836 318 836 C381 836 433 898 447 991 L416 995 C411 963 371 941 318 941 C265 941 226 964 220 998 L189 994 L189 994 Z M153 293 L356 293 L419 84 C437 21 439 8 436 7 L386 1 L386 0 L445 0 L524 0 L621 0 L662 0 L662 1 L619 7 L403 697 L380 770 L365 770 C340 733 288 704 235 697 L238 687 L238 687 L98 76 C84 20 78 7 74 6 L23 0 L23 -1 L81 -1 L89 -1 L92 -1 L161 -1 L161 0 L104 6 C97 7 96 25 112 104 L153 293 L153 293 Z M156 300 L241 678 L355 300 L156 300 L156 300 Z " />
<glyph glyph-name="abreve" unicode="&#x103;" horiz-adv-x="477" d="M60 744 C75 649 127 586 189 586 C252 586 304 648 318 741 L287 745 C281 713 242 691 189 691 C136 691 97 714 91 748 L60 744 L60 744 Z M284 55 L284 -10 L311 -10 L472 30 L472 31 L472 32 L448 31 C439 32 434 47 434 128 L434 450 L434 510 L417 510 L328 470 C294 495 246 510 189 510 C84 510 30 405 30 247 C30 96 88 -5 175 -5 C212 -5 254 19 284 55 L284 55 Z M284 411 L284 107 C262 76 244 57 237 57 C205 57 183 149 183 288 C183 395 191 466 207 466 C243 466 271 444 285 412 L284 411 L284 411 Z " />
<glyph glyph-name="Cacute" unicode="&#x106;" horiz-adv-x="740" d="M447 810 L595 925 C627 951 649 971 649 980 C649 1020 615 1054 574 1054 C566 1054 548 1030 526 993 L429 829 L447 810 L447 810 Z M613 715 C569 743 515 760 437 760 C193 760 30 606 30 375 C30 144 189 -10 428 -10 C499 -10 555 5 602 32 L604 32 C604 32 653 57 693 77 C698 79 701 74 701 64 L701 117 L701 126 L701 187 C701 187 698 183 693 178 C686 169 676 158 665 146 L660 150 C627 110 594 76 561 50 C551 42 541 35 532 29 L532 29 C498 7 464 -5 429 -5 C299 -5 213 147 213 374 C213 601 303 753 438 753 C463 753 487 747 510 735 L510 735 C525 727 543 714 562 698 C593 672 624 638 657 598 L662 602 C672 591 681 580 689 570 C694 564 697 560 697 560 L697 621 L697 631 L697 682 C697 682 694 677 689 669 C688 668 657 684 610 713 L613 715 L613 715 Z " />
<glyph glyph-name="Ccircumflex" unicode="&#x108;" horiz-adv-x="740" d="M438 897 L575 803 L595 820 L491 985 C481 1001 455 1039 438 1039 C420 1039 395 1002 385 986 L281 820 L301 803 L438 897 L438 897 Z M613 715 C569 743 515 760 437 760 C193 760 30 606 30 375 C30 144 189 -10 428 -10 C499 -10 555 5 602 32 L604 32 C604 32 653 57 693 77 C698 79 701 74 701 64 L701 117 L701 126 L701 187 C701 187 698 183 693 178 C686 169 676 158 665 146 L660 150 C627 110 594 76 561 50 C551 42 541 35 532 29 L532 29 C498 7 464 -5 429 -5 C299 -5 213 147 213 374 C213 601 303 753 438 753 C463 753 487 747 510 735 L510 735 C525 727 543 714 562 698 C593 672 624 638 657 598 L662 602 C672 591 681 580 689 570 C694 564 697 560 697 560 L697 621 L697 631 L697 682 C697 682 694 677 689 669 C688 668 657 684 610 713 L613 715 L613 715 Z " />
<glyph glyph-name="Cdot" unicode="&#x10a;" horiz-adv-x="740" d="M438 865 C486 865 518 897 518 945 C518 993 486 1025 438 1025 C390 1025 358 993 358 945 C358 897 390 865 438 865 L438 865 Z M613 715 C569 743 515 760 437 760 C193 760 30 606 30 375 C30 144 189 -10 428 -10 C499 -10 555 5 602 32 L604 32 C604 32 653 57 693 77 C698 79 701 74 701 64 L701 117 L701 126 L701 187 C701 187 698 183 693 178 C686 169 676 158 665 146 L660 150 C627 110 594 76 561 50 C551 42 541 35 532 29 L532 29 C498 7 464 -5 429 -5 C299 -5 213 147 213 374 C213 601 303 753 438 753 C463 753 487 747 510 735 L510 735 C525 727 543 714 562 698 C593 672 624 638 657 598 L662 602 C672 591 681 580 689 570 C694 564 697 560 697 560 L697 621 L697 631 L697 682 C697 682 694 677 689 669 C688 668 657 684 610 713 L613 715 L613 715 Z " />
<glyph glyph-name="cdot" unicode="&#x10b;" horiz-adv-x="501" d="M319 615 C367 615 399 647 399 695 C399 743 367 775 319 775 C271 775 239 743 239 695 C239 647 271 615 319 615 L319 615 Z M472 128 L451 137 C436 104 399 82 358 82 C256 82 187 161 187 279 C187 397 236 476 310 476 C307 476 315 448 331 405 C347 360 377 330 406 330 C467 330 497 360 481 405 C458 468 393 510 319 510 C141 510 23 400 23 234 C23 88 136 -10 305 -10 C368 -10 435 45 472 128 L472 128 Z " />
<glyph glyph-name="Ccaron" unicode="&#x10c;" horiz-adv-x="740" d="M438 953 L575 1047 L595 1030 L491 865 C481 849 455 811 438 811 C420 811 395 848 385 864 L281 1030 L301 1047 L438 953 L438 953 Z M613 715 C569 743 515 760 437 760 C193 760 30 606 30 375 C30 144 189 -10 428 -10 C499 -10 555 5 602 32 L604 32 C604 32 653 57 693 77 C698 79 701 74 701 64 L701 117 L701 126 L701 187 C701 187 698 183 693 178 C686 169 676 158 665 146 L660 150 C627 110 594 76 561 50 C551 42 541 35 532 29 L532 29 C498 7 464 -5 429 -5 C299 -5 213 147 213 374 C213 601 303 753 438 753 C463 753 487 747 510 735 L510 735 C525 727 543 714 562 698 C593 672 624 638 657 598 L662 602 C672 591 681 580 689 570 C694 564 697 560 697 560 L697 621 L697 631 L697 682 C697 682 694 677 689 669 C688 668 657 684 610 713 L613 715 L613 715 Z " />
<glyph glyph-name="ccaron" unicode="&#x10d;" horiz-adv-x="501" d="M472 128 L451 137 C436 104 399 82 358 82 C256 82 187 161 187 279 C187 397 236 476 310 476 C307 476 315 448 331 405 C347 360 377 330 406 330 C467 330 497 360 481 405 C458 468 393 510 319 510 C141 510 23 400 23 234 C23 88 136 -10 305 -10 C368 -10 435 45 472 128 L472 128 Z M319 703 L456 797 L476 780 L372 615 C362 599 336 561 319 561 C301 561 276 598 266 614 L162 780 L182 797 L319 703 L319 703 Z " />
<glyph glyph-name="Dcaron" unicode="&#x10e;" horiz-adv-x="830" d="M341 953 L478 1047 L499 1030 L394 865 C384 849 359 811 341 811 C324 811 299 848 289 864 L184 1030 L204 1047 L341 953 L341 953 Z M92 678 L92 72 C92 21 85 10 74 7 L46 1 L46 0 L92 0 L152 0 L259 0 L322 0 C594 0 776 127 776 375 C776 600 632 750 353 750 L259 750 L152 750 L92 750 L46 750 L46 749 L74 743 C85 740 92 729 92 678 L92 678 Z M259 745 L333 745 C503 745 591 597 591 375 C591 131 480 5 314 5 C265 5 259 23 259 51 L259 72 L259 678 L259 745 L259 745 Z " />
<glyph glyph-name="dcaron" unicode="&#x10f;" horiz-adv-x="512" d="M592 630 C610 663 622 704 622 734 C622 750 595 756 555 756 C525 756 515 693 515 647 L513 534 L539 529 L592 630 L592 630 Z M319 55 L319 -10 L346 -10 L507 30 L507 31 L507 32 L483 31 C474 32 469 47 469 128 L469 671 L469 750 L443 750 L282 704 L282 703 L282 702 L306 703 C314 703 319 693 319 636 L319 495 C288 504 251 510 212 510 C92 510 30 405 30 247 C30 96 96 -5 195 -5 C240 -5 288 19 319 55 L319 55 Z M319 401 L319 107 C296 76 272 56 257 56 C213 56 183 148 183 287 C183 394 199 465 229 465 C260 465 296 437 319 401 L319 401 Z " />
<glyph glyph-name="Emacron" unicode="&#x112;" horiz-adv-x="604" d="M191 884 L426 884 L426 988 L191 988 L191 884 L191 884 Z M443 0 L550 0 C551 9 553 21 555 30 C556 39 557 51 559 60 L558 60 L557 60 L547 29 C543 15 524 5 444 5 L310 5 C264 5 259 23 259 51 L259 72 L259 385 L358 385 C437 385 454 373 458 355 L464 324 L465 324 L465 385 L465 388 L465 391 L465 452 L464 452 L458 421 C454 403 437 391 358 391 L259 391 L259 678 L259 745 L418 745 C515 745 517 735 520 721 L528 690 L529 690 L530 690 C529 699 528 711 528 720 C527 729 526 741 525 750 L418 750 L259 750 L152 750 L92 750 L46 750 L46 749 L74 743 C85 740 92 729 92 678 L92 72 C92 21 85 10 74 7 L46 1 L46 0 L92 0 L152 0 L259 0 L443 0 L443 0 Z " />
<glyph glyph-name="emacron" unicode="&#x113;" horiz-adv-x="475" d="M139 634 L373 634 L373 738 L139 738 L139 634 L139 634 Z M184 340 L280 340 L404 340 L446 340 C424 462 352 510 256 510 C116 510 23 396 23 225 C23 84 108 -10 235 -10 C322 -10 401 46 432 130 L414 137 C404 108 347 89 271 89 C218 89 182 168 182 286 C182 305 183 323 184 340 L184 340 Z M370 383 C381 384 392 384 404 384 L370 383 L370 383 Z M273 379 L188 376 C198 439 219 477 247 477 C251 477 259 449 272 380 L273 379 L273 379 Z " />
<glyph glyph-name="Ebreve" unicode="&#x114;" horiz-adv-x="604" d="M179 994 C194 899 246 836 308 836 C372 836 423 898 438 991 L406 995 C401 963 362 941 308 941 C255 941 216 964 211 998 L179 994 L179 994 Z M443 0 L550 0 C551 9 553 21 555 30 C556 39 557 51 559 60 L558 60 L557 60 L547 29 C543 15 524 5 444 5 L310 5 C264 5 259 23 259 51 L259 72 L259 385 L358 385 C437 385 454 373 458 355 L464 324 L465 324 L465 385 L465 388 L465 391 L465 452 L464 452 L458 421 C454 403 437 391 358 391 L259 391 L259 678 L259 745 L418 745 C515 745 517 735 520 721 L528 690 L529 690 L530 690 C529 699 528 711 528 720 C527 729 526 741 525 750 L418 750 L259 750 L152 750 L92 750 L46 750 L46 749 L74 743 C85 740 92 729 92 678 L92 72 C92 21 85 10 74 7 L46 1 L46 0 L92 0 L152 0 L259 0 L443 0 L443 0 Z " />
<glyph glyph-name="ebreve" unicode="&#x115;" horiz-adv-x="475" d="M127 744 C142 649 194 586 256 586 C319 586 371 648 385 741 L354 745 C348 713 309 691 256 691 C203 691 164 714 158 748 L127 744 L127 744 Z M184 340 L280 340 L404 340 L446 340 C424 462 352 510 256 510 C116 510 23 396 23 225 C23 84 108 -10 235 -10 C322 -10 401 46 432 130 L414 137 C404 108 347 89 271 89 C218 89 182 168 182 286 C182 305 183 323 184 340 L184 340 Z M370 383 C381 384 392 384 404 384 L370 383 L370 383 Z M273 379 L188 376 C198 439 219 477 247 477 C251 477 259 449 272 380 L273 379 L273 379 Z " />
<glyph glyph-name="Edot" unicode="&#x116;" horiz-adv-x="604" d="M308 865 C356 865 388 897 388 945 C388 993 356 1025 308 1025 C260 1025 228 993 228 945 C228 897 260 865 308 865 L308 865 Z M443 0 L550 0 C551 9 553 21 555 30 C556 39 557 51 559 60 L558 60 L557 60 L547 29 C543 15 524 5 444 5 L310 5 C264 5 259 23 259 51 L259 72 L259 385 L358 385 C437 385 454 373 458 355 L464 324 L465 324 L465 385 L465 388 L465 391 L465 452 L464 452 L458 421 C454 403 437 391 358 391 L259 391 L259 678 L259 745 L418 745 C515 745 517 735 520 721 L528 690 L529 690 L530 690 C529 699 528 711 528 720 C527 729 526 741 525 750 L418 750 L259 750 L152 750 L92 750 L46 750 L46 749 L74 743 C85 740 92 729 92 678 L92 72 C92 21 85 10 74 7 L46 1 L46 0 L92 0 L152 0 L259 0 L443 0 L443 0 Z " />
<glyph glyph-name="edot" unicode="&#x117;" horiz-adv-x="475" d="M256 615 C304 615 336 647 336 695 C336 743 304 775 256 775 C208 775 176 743 176 695 C176 647 208 615 256 615 L256 615 Z M184 340 L280 340 L404 340 L446 340 C424 462 352 510 256 510 C116 510 23 396 23 225 C23 84 108 -10 235 -10 C322 -10 401 46 432 130 L414 137 C404 108 347 89 271 89 C218 89 182 168 182 286 C182 305 183 323 184 340 L184 340 Z M370 383 C381 384 392 384 404 384 L370 383 L370 383 Z M273 379 L188 376 C198 439 219 477 247 477 C251 477 259 449 272 380 L273 379 L273 379 Z " />
<glyph glyph-name="Ecaron" unicode="&#x11a;" horiz-adv-x="604" d="M308 953 L445 1047 L466 1030 L362 865 C352 849 326 811 308 811 C291 811 266 848 256 864 L151 1030 L172 1047 L308 953 L308 953 Z M443 0 L550 0 C551 9 553 21 555 30 C556 39 557 51 559 60 L558 60 L557 60 L547 29 C543 15 524 5 444 5 L310 5 C264 5 259 23 259 51 L259 72 L259 385 L358 385 C437 385 454 373 458 355 L464 324 L465 324 L465 385 L465 388 L465 391 L465 452 L464 452 L458 421 C454 403 437 391 358 391 L259 391 L259 678 L259 745 L418 745 C515 745 517 735 520 721 L528 690 L529 690 L530 690 C529 699 528 711 528 720 C527 729 526 741 525 750 L418 750 L259 750 L152 750 L92 750 L46 750 L46 749 L74 743 C85 740 92 729 92 678 L92 72 C92 21 85 10 74 7 L46 1 L46 0 L92 0 L152 0 L259 0 L443 0 L443 0 Z " />
<glyph glyph-name="ecaron" unicode="&#x11b;" horiz-adv-x="475" d="M256 703 L393 797 L413 780 L309 615 C299 599 273 561 256 561 C239 561 213 598 203 614 L99 780 L119 797 L256 703 L256 703 Z M184 340 L280 340 L404 340 L446 340 C424 462 352 510 256 510 C116 510 23 396 23 225 C23 84 108 -10 235 -10 C322 -10 401 46 432 130 L414 137 C404 108 347 89 271 89 C218 89 182 168 182 286 C182 305 183 323 184 340 L184 340 Z M370 383 C381 384 392 384 404 384 L370 383 L370 383 Z M273 379 L188 376 C198 439 219 477 247 477 C251 477 259 449 272 380 L273 379 L273 379 Z " />
<glyph glyph-name="Gcircumflex" unicode="&#x11c;" horiz-adv-x="791" d="M438 897 L575 803 L595 820 L491 985 C481 1001 455 1039 438 1039 C420 1039 395 1002 385 986 L281 820 L301 803 L438 897 L438 897 Z M518 258 L520 162 C518 83 495 31 461 31 C314 31 216 169 216 375 C216 602 306 754 441 754 C466 754 490 748 513 736 L513 736 C528 728 546 715 565 699 C596 673 627 639 660 599 L665 603 C675 592 684 581 692 571 C697 565 700 561 700 561 L700 622 L700 632 L700 683 C700 683 697 678 692 670 C691 669 660 685 613 714 C569 742 515 759 437 759 C193 759 30 605 30 374 C30 143 196 -11 444 -11 C469 -11 493 -10 517 -7 L522 -10 L558 -1 C586 4 613 11 639 19 L684 30 L684 35 C706 43 728 52 749 62 L747 66 C731 58 711 51 684 46 L684 258 C684 305 689 315 697 318 L721 324 L721 325 L597 325 L473 325 L473 324 L500 318 C510 315 516 305 516 258 L518 258 L518 258 Z " />
<glyph glyph-name="Gbreve" unicode="&#x11e;" horiz-adv-x="791" d="M309 994 C323 899 375 836 438 836 C501 836 553 898 567 991 L535 995 C530 963 491 941 438 941 C385 941 345 964 340 998 L309 994 L309 994 Z M518 258 L520 162 C518 83 495 31 461 31 C314 31 216 169 216 375 C216 602 306 754 441 754 C466 754 490 748 513 736 L513 736 C528 728 546 715 565 699 C596 673 627 639 660 599 L665 603 C675 592 684 581 692 571 C697 565 700 561 700 561 L700 622 L700 632 L700 683 C700 683 697 678 692 670 C691 669 660 685 613 714 C569 742 515 759 437 759 C193 759 30 605 30 374 C30 143 196 -11 444 -11 C469 -11 493 -10 517 -7 L522 -10 L558 -1 C586 4 613 11 639 19 L684 30 L684 35 C706 43 728 52 749 62 L747 66 C731 58 711 51 684 46 L684 258 C684 305 689 315 697 318 L721 324 L721 325 L597 325 L473 325 L473 324 L500 318 C510 315 516 305 516 258 L518 258 L518 258 Z " />
<glyph glyph-name="gbreve" unicode="&#x11f;" horiz-adv-x="476" d="M96 744 C110 649 162 586 225 586 C288 586 340 648 354 741 L322 745 C317 713 278 691 225 691 C172 691 132 714 127 748 L96 744 L96 744 Z M209 350 C209 425 215 475 225 475 C235 475 241 425 241 350 C241 274 235 223 225 223 C215 223 209 274 209 350 L209 350 Z M158 -33 L257 -33 C300 -32 317 -53 317 -83 C317 -151 288 -196 245 -196 C192 -196 156 -143 156 -63 C156 -51 157 -41 158 -33 L158 -33 Z M103 -20 C60 -35 32 -65 32 -99 C32 -178 114 -230 237 -230 C359 -230 441 -157 441 -48 C441 50 394 116 272 117 L161 117 C144 117 133 128 133 145 C133 171 170 188 225 188 C325 188 391 253 391 350 C391 370 388 388 383 405 C396 423 410 434 422 434 C415 434 410 429 410 423 C410 391 438 370 480 370 C517 370 541 398 541 441 C541 474 518 496 484 496 C439 496 395 473 369 437 C342 483 291 511 225 511 C125 511 59 447 59 351 C59 286 89 235 139 209 C81 191 46 152 46 101 C46 44 68 1 104 -19 L103 -20 L103 -20 Z " />
<glyph glyph-name="Gdot" unicode="&#x120;" horiz-adv-x="791" d="M438 865 C486 865 518 897 518 945 C518 993 486 1025 438 1025 C390 1025 358 993 358 945 C358 897 390 865 438 865 L438 865 Z M518 258 L520 162 C518 83 495 31 461 31 C314 31 216 169 216 375 C216 602 306 754 441 754 C466 754 490 748 513 736 L513 736 C528 728 546 715 565 699 C596 673 627 639 660 599 L665 603 C675 592 684 581 692 571 C697 565 700 561 700 561 L700 622 L700 632 L700 683 C700 683 697 678 692 670 C691 669 660 685 613 714 C569 742 515 759 437 759 C193 759 30 605 30 374 C30 143 196 -11 444 -11 C469 -11 493 -10 517 -7 L522 -10 L558 -1 C586 4 613 11 639 19 L684 30 L684 35 C706 43 728 52 749 62 L747 66 C731 58 711 51 684 46 L684 258 C684 305 689 315 697 318 L721 324 L721 325 L597 325 L473 325 L473 324 L500 318 C510 315 516 305 516 258 L518 258 L518 258 Z " />
<glyph glyph-name="gdot" unicode="&#x121;" horiz-adv-x="476" d="M225 615 C273 615 305 647 305 695 C305 743 273 775 225 775 C177 775 145 743 145 695 C145 647 177 615 225 615 L225 615 Z M209 350 C209 425 215 475 225 475 C235 475 241 425 241 350 C241 274 235 223 225 223 C215 223 209 274 209 350 L209 350 Z M158 -33 L257 -33 C300 -32 317 -53 317 -83 C317 -151 288 -196 245 -196 C192 -196 156 -143 156 -63 C156 -51 157 -41 158 -33 L158 -33 Z M103 -20 C60 -35 32 -65 32 -99 C32 -178 114 -230 237 -230 C359 -230 441 -157 441 -48 C441 50 394 116 272 117 L161 117 C144 117 133 128 133 145 C133 171 170 188 225 188 C325 188 391 253 391 350 C391 370 388 388 383 405 C396 423 410 434 422 434 C415 434 410 429 410 423 C410 391 438 370 480 370 C517 370 541 398 541 441 C541 474 518 496 484 496 C439 496 395 473 369 437 C342 483 291 511 225 511 C125 511 59 447 59 351 C59 286 89 235 139 209 C81 191 46 152 46 101 C46 44 68 1 104 -19 L103 -20 L103 -20 Z " />
<glyph glyph-name="Hcircumflex" unicode="&#x124;" horiz-adv-x="804" d="M411 897 L549 803 L569 820 L465 985 C455 1001 429 1039 412 1039 C394 1039 369 1002 359 986 L254 820 L275 803 L411 897 L411 897 Z M696 67 L696 683 C696 730 703 740 713 743 L742 749 L742 750 L612 750 L482 750 L482 749 L510 743 C521 740 528 730 528 683 L528 386 L295 386 L295 683 C295 730 302 740 313 743 L341 749 L341 750 L211 750 L82 750 L82 749 L110 743 C121 740 128 730 128 683 L128 67 C128 20 121 10 110 7 L82 1 L82 0 L211 0 L341 0 L341 1 L313 7 C302 10 295 20 295 67 L295 380 L528 380 L528 67 C528 20 521 10 510 7 L482 1 L482 0 L612 0 L742 0 L742 1 L713 7 C703 10 696 20 696 67 L696 67 Z " />
<glyph glyph-name="Itilde" unicode="&#x128;" horiz-adv-x="345" d="M41 870 C41 899 53 919 71 919 C118 919 146 854 193 854 C239 854 270 920 270 1019 L266 1019 C266 983 251 959 228 959 C181 959 152 1024 105 1024 C64 1024 37 962 37 870 L41 870 L41 870 Z M237 67 L237 683 C237 730 244 740 255 743 L283 749 L283 750 L153 750 L24 750 L24 749 L52 743 C63 740 70 730 70 683 L70 67 C70 20 63 10 52 7 L24 1 L24 0 L153 0 L283 0 L283 1 L255 7 C244 10 237 20 237 67 L237 67 Z " />
<glyph glyph-name="itilde" unicode="&#x129;" horiz-adv-x="321" d="M61 620 C61 649 73 669 91 669 C138 669 166 604 213 604 C259 604 290 670 290 769 L286 769 C286 733 271 709 248 709 C201 709 172 774 125 774 C84 774 57 712 57 620 L61 620 L61 620 Z M249 22 L249 396 L249 500 L222 500 L63 445 L63 444 C93 425 99 418 99 396 L99 22 C99 12 94 9 86 7 L63 1 L63 0 L174 0 L285 0 L285 1 L261 7 C254 10 249 13 249 22 L249 22 Z " />
<glyph glyph-name="Imacron" unicode="&#x12a;" horiz-adv-x="345" d="M36 884 L271 884 L271 988 L36 988 L36 884 L36 884 Z M237 67 L237 683 C237 730 244 740 255 743 L283 749 L283 750 L153 750 L24 750 L24 749 L52 743 C63 740 70 730 70 683 L70 67 C70 20 63 10 52 7 L24 1 L24 0 L153 0 L283 0 L283 1 L255 7 C244 10 237 20 237 67 L237 67 Z " />
<glyph glyph-name="imacron" unicode="&#x12b;" horiz-adv-x="321" d="M56 634 L291 634 L291 738 L56 738 L56 634 L56 634 Z M249 22 L249 396 L249 500 L222 500 L63 445 L63 444 C93 425 99 418 99 396 L99 22 C99 12 94 9 86 7 L63 1 L63 0 L174 0 L285 0 L285 1 L261 7 C254 10 249 13 249 22 L249 22 Z " />
<glyph glyph-name="Ibreve" unicode="&#x12c;" horiz-adv-x="345" d="M24 994 C39 899 91 836 153 836 C216 836 268 898 283 991 L251 995 C246 963 207 941 153 941 C100 941 61 964 56 998 L24 994 L24 994 Z M237 67 L237 683 C237 730 244 740 255 743 L283 749 L283 750 L153 750 L24 750 L24 749 L52 743 C63 740 70 730 70 683 L70 67 C70 20 63 10 52 7 L24 1 L24 0 L153 0 L283 0 L283 1 L255 7 C244 10 237 20 237 67 L237 67 Z " />
<glyph glyph-name="ibreve" unicode="&#x12d;" horiz-adv-x="321" d="M44 744 C59 649 111 586 173 586 C237 586 288 648 303 741 L271 745 C266 713 227 691 174 691 C120 691 81 714 76 748 L44 744 L44 744 Z M249 22 L249 396 L249 500 L222 500 L63 445 L63 444 C93 425 99 418 99 396 L99 22 C99 12 94 9 86 7 L63 1 L63 0 L174 0 L285 0 L285 1 L261 7 C254 10 249 13 249 22 L249 22 Z " />
<glyph glyph-name="Idot" unicode="&#x130;" horiz-adv-x="345" d="M153 865 C201 865 233 897 233 945 C233 993 201 1025 153 1025 C105 1025 73 993 73 945 C73 897 105 865 153 865 L153 865 Z M237 67 L237 683 C237 730 244 740 255 743 L283 749 L283 750 L153 750 L24 750 L24 749 L52 743 C63 740 70 730 70 683 L70 67 C70 20 63 10 52 7 L24 1 L24 0 L153 0 L283 0 L283 1 L255 7 C244 10 237 20 237 67 L237 67 Z " />
<glyph glyph-name="dotlessi" unicode="&#x131;" horiz-adv-x="321" d="M249 22 L249 396 L249 500 L222 500 L63 445 L63 444 C93 425 99 418 99 396 L99 22 C99 12 94 9 86 7 L63 1 L63 0 L174 0 L285 0 L285 1 L261 7 C254 10 249 13 249 22 L249 22 Z " />
<glyph glyph-name="Jcircumflex" unicode="&#x134;" horiz-adv-x="345" d="M153 897 L290 803 L311 820 L207 985 C197 1001 171 1039 153 1039 C136 1039 111 1002 101 986 L-4 820 L17 803 L153 897 L153 897 Z M70 683 L69 -136 C69 -199 6 -211 -39 -211 C-124 -211 -87 -70 -172 -70 C-219 -70 -251 -102 -251 -149 C-251 -192 -169 -220 -46 -220 C74 -220 238 -156 238 180 L237 683 C237 730 244 740 255 743 L283 749 L283 750 L153 750 L24 750 L24 749 L52 743 C63 740 70 730 70 683 L70 683 Z " />
<glyph glyph-name="Lacute" unicode="&#x139;" horiz-adv-x="556" d="M163 810 L311 925 C343 951 365 971 365 980 C365 1020 330 1054 290 1054 C282 1054 264 1030 242 993 L144 829 L163 810 L163 810 Z M518 29 L518 29 C520 36 522 43 523 49 C527 63 533 83 537 98 L536 99 C536 100 535 100 535 100 L521 69 C510 44 478 28 345 28 L288 28 C242 28 237 37 237 50 L237 71 L237 677 C237 728 244 739 255 742 L283 748 L283 749 L237 749 L153 749 L70 749 L24 749 L24 748 L52 742 C63 739 70 728 70 677 L70 71 C70 20 63 9 52 6 L24 0 L24 -1 L70 -1 L130 -1 L237 -1 L338 -1 L510 -1 L518 -1 L518 29 L518 29 Z " />
<glyph glyph-name="Lcaron" unicode="&#x13d;" horiz-adv-x="556" d="M518 29 L518 29 C520 36 522 43 523 49 C527 63 533 83 537 98 L536 99 C536 100 535 100 535 100 L521 69 C510 44 478 28 345 28 L288 28 C242 28 237 37 237 50 L237 71 L237 677 C237 728 244 739 255 742 L283 748 L283 749 L237 749 L153 749 L70 749 L24 749 L24 748 L52 742 C63 739 70 728 70 677 L70 71 C70 20 63 9 52 6 L24 0 L24 -1 L70 -1 L130 -1 L237 -1 L338 -1 L510 -1 L518 -1 L518 29 L518 29 Z M424 679 C442 712 454 753 454 783 C454 799 427 805 386 805 C356 805 347 742 346 696 L344 583 L370 578 L424 679 L424 679 Z " />
<glyph glyph-name="lcaron" unicode="&#x13e;" horiz-adv-x="285" d="M335 630 C353 663 365 704 365 734 C365 750 338 756 298 756 C267 756 258 693 257 647 L255 534 L281 529 L335 630 L335 630 Z M212 22 L212 688 L212 750 L185 750 L25 704 L25 703 L25 702 L49 703 C57 704 62 695 62 653 L62 22 C62 12 57 9 50 7 L27 1 L27 0 L137 0 L247 0 L247 1 L224 7 C217 9 212 12 212 22 L212 22 Z " />
<glyph glyph-name="Nacute" unicode="&#x143;" horiz-adv-x="687" d="M247 810 L395 925 C427 951 449 971 449 980 C449 1020 414 1054 374 1054 C366 1054 348 1030 326 993 L229 829 L247 810 L247 810 Z M179 750 L140 750 L98 750 L61 750 L-29 750 L-56 750 L-56 749 L-25 745 L98 582 L97 138 L97 138 C97 30 95 9 92 8 L42 2 L42 1 L97 1 L122 1 L147 1 L202 1 L202 2 L153 8 C150 9 147 21 146 73 L146 127 C146 128 146 129 146 130 L146 130 L143 525 L356 241 L534 3 L568 3 L579 685 C582 733 590 744 601 746 L633 752 L633 753 L580 753 L554 753 L530 753 L476 753 L476 752 L508 746 C521 743 530 727 530 646 L531 646 L533 285 L493 338 L179 750 L179 750 Z " />
<glyph glyph-name="Ncaron" unicode="&#x147;" horiz-adv-x="687" d="M337 953 L474 1047 L495 1030 L391 865 C381 849 355 811 338 811 C320 811 295 848 285 864 L180 1030 L201 1047 L337 953 L337 953 Z M179 750 L140 750 L98 750 L61 750 L-29 750 L-56 750 L-56 749 L-25 745 L98 582 L97 138 L97 138 C97 30 95 9 92 8 L42 2 L42 1 L97 1 L122 1 L147 1 L202 1 L202 2 L153 8 C150 9 147 21 146 73 L146 127 C146 128 146 129 146 130 L146 130 L143 525 L356 241 L534 3 L568 3 L579 685 C582 733 590 744 601 746 L633 752 L633 753 L580 753 L554 753 L530 753 L476 753 L476 752 L508 746 C521 743 530 727 530 646 L531 646 L533 285 L493 338 L179 750 L179 750 Z " />
<glyph glyph-name="ncaron" unicode="&#x148;" horiz-adv-x="552" d="M268 703 L405 797 L425 780 L321 615 C311 599 285 561 268 561 C250 561 225 598 215 614 L110 780 L131 797 L268 703 L268 703 Z M329 22 C329 12 324 9 317 7 L294 1 L294 0 L404 0 L514 0 L514 1 L491 7 C484 9 479 12 479 22 L479 282 C479 419 437 510 356 510 C284 510 224 470 206 410 L206 438 L206 500 L179 500 L19 441 L19 440 L43 443 C51 444 56 436 56 393 L56 22 C56 12 51 9 44 7 L21 1 L21 0 L131 0 L241 0 L241 1 L218 7 C211 9 206 12 206 22 L206 388 C216 419 259 440 316 440 C324 440 329 377 329 282 L329 22 L329 22 Z " />
<glyph glyph-name="Omacron" unicode="&#x14c;" horiz-adv-x="879" d="M304 884 L539 884 L539 988 L304 988 L304 884 L304 884 Z M413 -3 C298 -3 221 148 221 375 C221 602 301 753 420 753 C547 753 632 602 632 375 C632 148 544 -3 413 -3 L413 -3 Z M29 375 C29 144 182 -10 412 -10 C659 -10 824 144 824 375 C824 606 663 760 422 760 C186 760 29 606 29 375 L29 375 Z " />
<glyph glyph-name="omacron" unicode="&#x14d;" horiz-adv-x="565" d="M154 634 L389 634 L389 738 L154 738 L154 634 L154 634 Z M271 -3 C221 -3 188 98 188 250 C188 402 221 503 271 503 C322 503 355 402 355 250 C355 98 322 -3 271 -3 L271 -3 Z M23 250 C23 94 122 -10 271 -10 C421 -10 520 94 520 250 C520 406 421 510 271 510 C122 510 23 406 23 250 L23 250 Z " />
<glyph glyph-name="Obreve" unicode="&#x14e;" horiz-adv-x="879" d="M293 994 C307 899 359 836 422 836 C485 836 536 898 551 991 L519 995 C514 963 475 941 422 941 C368 941 329 964 324 998 L293 994 L293 994 Z M413 -3 C298 -3 221 148 221 375 C221 602 301 753 420 753 C547 753 632 602 632 375 C632 148 544 -3 413 -3 L413 -3 Z M29 375 C29 144 182 -10 412 -10 C659 -10 824 144 824 375 C824 606 663 760 422 760 C186 760 29 606 29 375 L29 375 Z " />
<glyph glyph-name="obreve" unicode="&#x14f;" horiz-adv-x="565" d="M142 744 C157 649 209 586 271 586 C334 586 386 648 400 741 L369 745 C364 713 325 691 271 691 C218 691 179 714 174 748 L142 744 L142 744 Z M271 -3 C221 -3 188 98 188 250 C188 402 221 503 271 503 C322 503 355 402 355 250 C355 98 322 -3 271 -3 L271 -3 Z M23 250 C23 94 122 -10 271 -10 C421 -10 520 94 520 250 C520 406 421 510 271 510 C122 510 23 406 23 250 L23 250 Z " />
<glyph glyph-name="Racute" unicode="&#x154;" horiz-adv-x="699" d="M258 810 L405 925 C438 951 459 971 459 980 C459 1020 425 1054 384 1054 C377 1054 359 1030 337 993 L239 829 L258 810 L258 810 Z M690 0 L690 12 C654 12 651 14 616 67 C527 202 459 306 426 356 C528 383 590 441 590 535 C590 664 460 750 266 750 L259 750 L152 750 L46 750 L46 749 L74 743 C85 740 92 729 92 678 L92 72 C92 21 85 10 74 7 L46 1 L46 0 L175 0 L305 0 L305 1 L277 7 C266 10 259 21 259 72 L259 332 C283 284 342 186 420 67 C462 3 473 0 690 0 L690 0 Z M259 713 C348 700 405 645 405 567 C405 438 349 380 266 380 L259 380 L259 678 L259 713 L259 713 Z " />
<glyph glyph-name="Rcaron" unicode="&#x158;" horiz-adv-x="699" d="M690 0 L690 12 C654 12 651 14 616 67 C527 202 459 306 426 356 C528 383 590 441 590 535 C590 664 460 750 266 750 L259 750 L152 750 L46 750 L46 749 L74 743 C85 740 92 729 92 678 L92 72 C92 21 85 10 74 7 L46 1 L46 0 L175 0 L305 0 L305 1 L277 7 C266 10 259 21 259 72 L259 332 C283 284 342 186 420 67 C462 3 473 0 690 0 L690 0 Z M248 953 L385 1047 L405 1030 L301 865 C291 849 265 811 248 811 C231 811 206 848 196 864 L91 1030 L111 1047 L248 953 L248 953 Z M259 713 C348 700 405 645 405 567 C405 438 349 380 266 380 L259 380 L259 678 L259 713 L259 713 Z " />
<glyph glyph-name="rcaron" unicode="&#x159;" horiz-adv-x="466" d="M246 703 L383 797 L403 780 L299 615 C289 599 263 561 246 561 C229 561 204 598 193 614 L89 780 L109 797 L246 703 L246 703 Z M212 433 L212 438 L212 500 L185 500 L25 441 L25 440 L49 443 C57 444 62 436 62 393 L62 22 C62 12 58 9 51 7 L29 1 L29 0 L139 0 L249 0 L249 1 L225 7 C217 10 212 13 212 22 L212 410 C221 429 236 440 255 440 C270 440 280 426 280 405 C280 352 315 317 369 317 C422 317 457 352 457 405 C457 468 404 510 325 510 C270 510 229 480 212 432 L212 433 L212 433 Z " />
<glyph glyph-name="Sacute" unicode="&#x15a;" horiz-adv-x="515" d="M261 810 L409 925 C441 951 463 971 463 980 C463 1020 428 1054 388 1054 C380 1054 362 1030 340 993 L243 829 L261 810 L261 810 Z M379 720 L378 720 C343 745 300 760 255 760 C132 760 50 672 50 540 C50 421 100 323 196 288 C292 253 341 209 341 169 C341 66 303 -2 246 -2 C231 -2 214 6 197 20 L198 20 C191 25 165 55 134 93 C119 115 105 140 92 168 L78 162 C69 174 60 186 51 197 C47 202 44 206 44 206 L44 146 L44 145 L44 83 C44 83 47 89 51 99 C51 99 82 74 128 37 L129 37 C165 9 206 -7 246 -7 C383 -7 475 84 475 220 C475 328 414 422 296 465 C220 493 181 547 181 607 C181 697 211 757 255 757 C257 757 259 757 261 757 L260 757 C261 757 262 757 263 757 C271 756 279 754 287 750 L270 755 C291 746 326 716 361 680 C372 664 382 646 391 627 L404 633 C414 621 423 610 432 599 C437 594 440 590 440 590 L440 645 L440 650 L440 700 C440 700 437 695 432 687 C432 686 410 701 378 724 L379 720 L379 720 Z M270 755 L261 757 C262 757 263 757 264 757 C266 757 268 756 270 755 L270 755 Z " />
<glyph glyph-name="Scircumflex" unicode="&#x15c;" horiz-adv-x="515" d="M379 720 L378 720 C343 745 300 760 255 760 C132 760 50 672 50 540 C50 421 100 323 196 288 C292 253 341 209 341 169 C341 66 303 -2 246 -2 C231 -2 214 6 197 20 L198 20 C191 25 165 55 134 93 C119 115 105 140 92 168 L78 162 C69 174 60 186 51 197 C47 202 44 206 44 206 L44 146 L44 145 L44 83 C44 83 47 89 51 99 C51 99 82 74 128 37 L129 37 C165 9 206 -7 246 -7 C383 -7 475 84 475 220 C475 328 414 422 296 465 C220 493 181 547 181 607 C181 697 211 757 255 757 C257 757 259 757 261 757 L260 757 C261 757 262 757 263 757 C271 756 279 754 287 750 L270 755 C291 746 326 716 361 680 C372 664 382 646 391 627 L404 633 C414 621 423 610 432 599 C437 594 440 590 440 590 L440 645 L440 650 L440 700 C440 700 437 695 432 687 C432 686 410 701 378 724 L379 720 L379 720 Z M250 901 L387 807 L408 824 L304 989 C294 1005 268 1043 251 1043 C233 1043 208 1006 198 990 L93 824 L114 807 L250 901 L250 901 Z M270 755 L261 757 C262 757 263 757 264 757 C266 757 268 756 270 755 L270 755 Z " />
<glyph glyph-name="Scaron" unicode="&#x160;" horiz-adv-x="515" d="M379 720 L378 720 C343 745 300 760 255 760 C132 760 50 672 50 540 C50 421 100 323 196 288 C292 253 341 209 341 169 C341 66 303 -2 246 -2 C231 -2 214 6 197 20 L198 20 C191 25 165 55 134 93 C119 115 105 140 92 168 L78 162 C69 174 60 186 51 197 C47 202 44 206 44 206 L44 146 L44 145 L44 83 C44 83 47 89 51 99 C51 99 82 74 128 37 L129 37 C165 9 206 -7 246 -7 C383 -7 475 84 475 220 C475 328 414 422 296 465 C220 493 181 547 181 607 C181 697 211 757 255 757 C257 757 259 757 261 757 L260 757 C261 757 262 757 263 757 C271 756 279 754 287 750 L270 755 C291 746 326 716 361 680 C372 664 382 646 391 627 L404 633 C414 621 423 610 432 599 C437 594 440 590 440 590 L440 645 L440 650 L440 700 C440 700 437 695 432 687 C432 686 410 701 378 724 L379 720 L379 720 Z M250 957 L387 1051 L408 1034 L304 869 C294 853 268 815 251 815 C233 815 208 852 198 868 L93 1034 L114 1051 L250 957 L250 957 Z M270 755 L261 757 C262 757 263 757 264 757 C266 757 268 756 270 755 L270 755 Z " />
<glyph glyph-name="scaron" unicode="&#x161;" horiz-adv-x="404" d="M184 703 L321 797 L341 780 L237 615 C227 599 201 561 184 561 C167 561 141 598 131 614 L27 780 L47 797 L184 703 L184 703 Z M217 505 L217 505 C218 505 219 505 220 505 L217 505 L217 505 Z M216 505 C222 504 243 483 268 455 C276 442 284 427 292 410 L303 415 C310 406 317 397 324 388 C328 384 330 381 330 381 L331 381 L331 428 L331 429 L331 478 L330 478 C330 478 328 473 324 466 C324 467 301 480 266 497 C250 506 232 511 214 511 C118 511 55 452 55 364 C55 276 87 210 148 194 C205 178 235 144 235 105 C235 40 213 -4 181 -4 C181 -4 159 24 130 59 C122 74 113 91 104 110 L93 105 C86 114 79 123 72 132 C69 137 66 140 66 140 L65 140 L65 97 L65 92 L65 55 L66 55 C66 55 69 59 72 65 C66 51 94 21 151 -1 C162 -6 173 -8 183 -8 C285 -8 353 55 353 149 C353 223 306 285 216 309 C182 318 164 360 164 417 C164 471 185 507 216 507 L216 507 L216 505 L216 505 Z " />
<glyph glyph-name="Tcaron" unicode="&#x164;" horiz-adv-x="731" d="M365 953 L503 1047 L523 1030 L419 865 C409 849 383 811 366 811 C348 811 323 848 313 864 L208 1030 L229 1047 L365 953 L365 953 Z M676 709 L676 750 L661 750 C657 760 654 770 651 778 L650 778 L649 778 L654 750 L554 750 L449 750 L282 750 L178 750 L77 750 L82 778 L81 778 L80 778 C77 770 74 760 71 750 L56 750 L56 708 L56 708 C50 693 44 676 39 663 C39 662 39 662 40 662 L57 693 C62 702 81 708 162 708 L282 708 L282 67 C282 20 275 10 264 7 L236 1 L236 0 L366 0 L495 0 L495 1 L467 7 C456 10 449 20 449 67 L449 708 L569 708 C650 708 669 702 674 693 L692 662 L692 663 L693 663 C687 676 681 693 676 708 L676 709 L676 709 Z " />
<glyph glyph-name="tcaron" unicode="&#x165;" horiz-adv-x="423" d="M369 500 L240 500 L240 620 L229 620 L25 431 L25 421 L90 421 L90 217 C90 54 155 -10 251 -10 C348 -10 413 55 413 154 L394 154 C394 98 355 61 298 61 C259 61 234 95 236 184 L240 421 L369 421 L369 500 L369 500 Z M506 630 C524 663 536 704 536 734 C536 750 509 756 469 756 C438 756 429 693 429 647 L427 534 L453 529 L506 630 L506 630 Z " />
<glyph glyph-name="Utilde" unicode="&#x168;" horiz-adv-x="733" d="M244 870 C244 899 256 919 273 919 C320 919 349 854 396 854 C442 854 472 920 472 1019 L468 1019 C468 983 453 959 430 959 C383 959 355 1024 307 1024 C267 1024 240 962 240 870 L244 870 L244 870 Z M655 97 L655 678 L655 750 L548 750 L442 750 L442 749 L470 743 C481 740 488 729 488 678 L488 204 C458 140 400 98 343 98 C272 98 224 143 224 211 L224 678 L224 750 L117 750 L11 750 L11 749 L39 743 C50 740 57 729 57 678 L57 211 C57 78 144 -10 276 -10 C364 -10 449 45 488 128 L488 97 L488 0 L514 0 L701 49 C662 74 655 81 655 97 L655 97 Z " />
<glyph glyph-name="utilde" unicode="&#x169;" horiz-adv-x="513" d="M130 620 C130 649 142 669 159 669 C207 669 235 604 282 604 C328 604 359 670 359 769 L355 769 C355 733 340 709 317 709 C269 709 241 774 194 774 C153 774 126 712 126 620 L130 620 L130 620 Z M295 77 L295 -10 L321 -10 L482 30 L482 31 L482 32 L458 31 C450 32 445 44 445 108 L445 478 L445 500 L355 500 L266 500 L266 499 L286 493 C291 491 295 488 295 478 L295 132 C282 108 260 93 237 93 C209 93 190 117 190 152 L190 477 L190 499 L100 499 L11 499 L11 498 L31 492 C36 490 40 487 40 477 L40 152 C40 54 91 -11 167 -11 C212 -11 262 41 295 121 L295 77 L295 77 Z " />
<glyph glyph-name="Umacron" unicode="&#x16a;" horiz-adv-x="733" d="M239 884 L473 884 L473 988 L239 988 L239 884 L239 884 Z M655 97 L655 678 L655 750 L548 750 L442 750 L442 749 L470 743 C481 740 488 729 488 678 L488 204 C458 140 400 98 343 98 C272 98 224 143 224 211 L224 678 L224 750 L117 750 L11 750 L11 749 L39 743 C50 740 57 729 57 678 L57 211 C57 78 144 -10 276 -10 C364 -10 449 45 488 128 L488 97 L488 0 L514 0 L701 49 C662 74 655 81 655 97 L655 97 Z " />
<glyph glyph-name="umacron" unicode="&#x16b;" horiz-adv-x="513" d="M125 634 L360 634 L360 738 L125 738 L125 634 L125 634 Z M295 77 L295 -10 L321 -10 L482 30 L482 31 L482 32 L458 31 C450 32 445 44 445 108 L445 478 L445 500 L355 500 L266 500 L266 499 L286 493 C291 491 295 488 295 478 L295 132 C282 108 260 93 237 93 C209 93 190 117 190 152 L190 477 L190 499 L100 499 L11 499 L11 498 L31 492 C36 490 40 487 40 477 L40 152 C40 54 91 -11 167 -11 C212 -11 262 41 295 121 L295 77 L295 77 Z " />
<glyph glyph-name="Ubreve" unicode="&#x16c;" horiz-adv-x="733" d="M227 994 C241 899 293 836 356 836 C419 836 471 898 485 991 L454 995 C448 963 409 941 356 941 C303 941 264 964 258 998 L227 994 L227 994 Z M655 97 L655 678 L655 750 L548 750 L442 750 L442 749 L470 743 C481 740 488 729 488 678 L488 204 C458 140 400 98 343 98 C272 98 224 143 224 211 L224 678 L224 750 L117 750 L11 750 L11 749 L39 743 C50 740 57 729 57 678 L57 211 C57 78 144 -10 276 -10 C364 -10 449 45 488 128 L488 97 L488 0 L514 0 L701 49 C662 74 655 81 655 97 L655 97 Z " />
<glyph glyph-name="ubreve" unicode="&#x16d;" horiz-adv-x="513" d="M113 744 C128 649 180 586 242 586 C305 586 357 648 371 741 L340 745 C335 713 296 691 242 691 C189 691 150 714 145 748 L113 744 L113 744 Z M295 77 L295 -10 L321 -10 L482 30 L482 31 L482 32 L458 31 C450 32 445 44 445 108 L445 478 L445 500 L355 500 L266 500 L266 499 L286 493 C291 491 295 488 295 478 L295 132 C282 108 260 93 237 93 C209 93 190 117 190 152 L190 477 L190 499 L100 499 L11 499 L11 498 L31 492 C36 490 40 487 40 477 L40 152 C40 54 91 -11 167 -11 C212 -11 262 41 295 121 L295 77 L295 77 Z " />
<glyph glyph-name="Uring" unicode="&#x16e;" horiz-adv-x="733" d="M356 845 C326 845 301 873 301 905 C301 941 323 965 356 965 C389 965 411 941 411 905 C411 873 386 845 356 845 L356 845 Z M256 905 C256 854 302 810 356 810 C409 810 455 854 455 905 C455 962 415 1000 356 1000 C296 1000 256 962 256 905 L256 905 Z M655 97 L655 678 L655 750 L548 750 L442 750 L442 749 L470 743 C481 740 488 729 488 678 L488 204 C458 140 400 98 343 98 C272 98 224 143 224 211 L224 678 L224 750 L117 750 L11 750 L11 749 L39 743 C50 740 57 729 57 678 L57 211 C57 78 144 -10 276 -10 C364 -10 449 45 488 128 L488 97 L488 0 L514 0 L701 49 C662 74 655 81 655 97 L655 97 Z " />
<glyph glyph-name="uring" unicode="&#x16f;" horiz-adv-x="513" d="M242 595 C212 595 187 623 187 655 C187 691 209 715 242 715 C276 715 298 691 298 655 C298 623 272 595 242 595 L242 595 Z M143 655 C143 604 189 560 242 560 C296 560 342 604 342 655 C342 712 302 750 242 750 C183 750 143 712 143 655 L143 655 Z M295 77 L295 -10 L321 -10 L482 30 L482 31 L482 32 L458 31 C450 32 445 44 445 108 L445 478 L445 500 L355 500 L266 500 L266 499 L286 493 C291 491 295 488 295 478 L295 132 C282 108 260 93 237 93 C209 93 190 117 190 152 L190 477 L190 499 L100 499 L11 499 L11 498 L31 492 C36 490 40 487 40 477 L40 152 C40 54 91 -11 167 -11 C212 -11 262 41 295 121 L295 77 L295 77 Z " />
<glyph glyph-name="Wcircumflex" unicode="&#x174;" horiz-adv-x="1026" d="M487 897 L624 803 L645 820 L541 985 C531 1001 505 1039 488 1039 C470 1039 445 1002 435 986 L330 820 L351 803 L487 897 L487 897 Z M376 703 L473 500 L473 500 L407 210 L407 212 L209 732 C208 740 210 743 213 743 L265 749 L265 750 L202 750 L127 750 L17 750 L-10 750 L-10 749 L19 745 L258 212 L357 -10 L401 -10 L511 421 L595 244 L716 -10 L760 -10 L925 623 L925 623 C925 624 925 625 925 626 L956 743 L999 749 L999 750 L958 750 L908 750 L889 750 L817 750 L817 749 L874 743 C882 742 883 722 860 623 L860 623 L774 244 L563 716 C555 737 555 742 559 743 L611 749 L611 750 L548 750 L462 750 L354 750 L313 750 L313 749 L357 743 L363 729 C366 723 370 714 376 702 L376 703 L376 703 Z " />
<glyph glyph-name="Ycircumflex" unicode="&#x176;" horiz-adv-x="667" d="M345 897 L482 803 L502 820 L398 985 C388 1001 362 1039 345 1039 C327 1039 302 1002 292 986 L188 820 L208 803 L345 897 L345 897 Z M276 623 L276 623 C275 625 274 627 273 629 L211 743 L253 749 L253 750 L207 750 L117 750 L9 750 L-19 750 L-19 749 L12 745 L261 308 L261 67 C261 20 254 10 243 7 L215 1 L215 0 L345 0 L475 0 L475 1 L446 7 C436 10 429 20 429 67 L429 336 L611 744 L650 749 L650 750 L614 750 L603 750 L601 750 L555 750 L555 749 L598 743 L566 668 C561 658 556 646 550 633 L550 633 L426 346 L276 623 L276 623 Z " />
<glyph glyph-name="Ydieresis" unicode="&#x178;" horiz-adv-x="667" d="M425 865 C473 865 505 897 505 945 C505 993 473 1025 425 1025 C377 1025 345 993 345 945 C345 897 377 865 425 865 L425 865 Z M264 865 C312 865 344 897 344 945 C344 993 312 1025 264 1025 C216 1025 184 993 184 945 C184 897 216 865 264 865 L264 865 Z M276 623 L276 623 C275 625 274 627 273 629 L211 743 L253 749 L253 750 L207 750 L117 750 L9 750 L-19 750 L-19 749 L12 745 L261 308 L261 67 C261 20 254 10 243 7 L215 1 L215 0 L345 0 L475 0 L475 1 L446 7 C436 10 429 20 429 67 L429 336 L611 744 L650 749 L650 750 L614 750 L603 750 L601 750 L555 750 L555 749 L598 743 L566 668 C561 658 556 646 550 633 L550 633 L426 346 L276 623 L276 623 Z " />
<glyph glyph-name="Zacute" unicode="&#x179;" horiz-adv-x="590" d="M328 810 L475 925 C508 951 529 971 529 980 C529 1020 495 1054 454 1054 C447 1054 429 1030 407 993 L309 829 L328 810 L328 810 Z M207 0 L415 0 L562 0 C566 17 572 40 577 57 C581 75 586 97 591 115 L590 115 L590 116 L574 84 C566 68 549 56 497 51 L228 42 L566 715 L566 750 L402 750 L227 750 L70 750 C68 733 64 709 62 691 C59 674 56 650 53 632 C53 632 54 632 54 631 L55 631 L68 662 C78 684 100 700 179 704 L209 705 C213 705 217 705 221 705 L221 705 L381 710 L25 35 L25 0 L207 0 L207 0 Z " />
<glyph glyph-name="Zdot" unicode="&#x17b;" horiz-adv-x="590" d="M318 865 C366 865 398 897 398 945 C398 993 366 1025 318 1025 C270 1025 238 993 238 945 C238 897 270 865 318 865 L318 865 Z M207 0 L415 0 L562 0 C566 17 572 40 577 57 C581 75 586 97 591 115 L590 115 L590 116 L574 84 C566 68 549 56 497 51 L228 42 L566 715 L566 750 L402 750 L227 750 L70 750 C68 733 64 709 62 691 C59 674 56 650 53 632 C53 632 54 632 54 631 L55 631 L68 662 C78 684 100 700 179 704 L209 705 C213 705 217 705 221 705 L221 705 L381 710 L25 35 L25 0 L207 0 L207 0 Z " />
<glyph glyph-name="zdot" unicode="&#x17c;" horiz-adv-x="431" d="M237 615 C285 615 317 647 317 695 C317 743 285 775 237 775 C189 775 157 743 157 695 C157 647 189 615 237 615 L237 615 Z M70 426 L82 442 C83 444 86 446 92 448 L219 455 L40 35 L40 0 L198 0 L238 0 L386 0 C388 13 390 31 392 44 C393 53 395 63 397 73 L388 58 C387 56 384 54 379 52 L217 44 L392 465 L392 500 L239 500 L111 500 L96 500 L97 518 L96 518 C94 513 92 507 90 501 L82 501 L82 472 C81 470 80 468 79 466 C76 455 72 441 69 428 L70 426 L70 426 Z M69 428 C68 423 67 418 66 414 L63 414 L59 414 L69 428 L69 428 Z M396 76 C397 82 398 88 399 93 L403 93 L407 93 L396 76 L396 76 Z " />
<glyph glyph-name="Zcaron" unicode="&#x17d;" horiz-adv-x="590" d="M318 953 L455 1047 L475 1030 L371 865 C361 849 335 811 318 811 C301 811 276 848 265 864 L161 1030 L181 1047 L318 953 L318 953 Z M207 0 L415 0 L562 0 C566 17 572 40 577 57 C581 75 586 97 591 115 L590 115 L590 116 L574 84 C566 68 549 56 497 51 L228 42 L566 715 L566 750 L402 750 L227 750 L70 750 C68 733 64 709 62 691 C59 674 56 650 53 632 C53 632 54 632 54 631 L55 631 L68 662 C78 684 100 700 179 704 L209 705 C213 705 217 705 221 705 L221 705 L381 710 L25 35 L25 0 L207 0 L207 0 Z " />
<glyph glyph-name="zcaron" unicode="&#x17e;" horiz-adv-x="431" d="M237 703 L374 797 L394 780 L290 615 C280 599 254 561 237 561 C219 561 194 598 184 614 L80 780 L100 797 L237 703 L237 703 Z M70 426 L82 442 C83 444 86 446 92 448 L219 455 L40 35 L40 0 L198 0 L238 0 L386 0 C388 13 390 31 392 44 C393 53 395 63 397 73 L388 58 C387 56 384 54 379 52 L217 44 L392 465 L392 500 L239 500 L111 500 L96 500 L97 518 L96 518 C94 513 92 507 90 501 L82 501 L82 472 C81 470 80 468 79 466 C76 455 72 441 69 428 L70 426 L70 426 Z M69 428 C68 423 67 418 66 414 L63 414 L59 414 L69 428 L69 428 Z M396 76 C397 82 398 88 399 93 L403 93 L407 93 L396 76 L396 76 Z " />
<glyph glyph-name="oogonek" unicode="&#x1eb;" horiz-adv-x="796" d="M983 -53 L981 -51 C952 -76 846 -93 718 -93 C584 -93 455 -61 368 -10 C370 -10 372 -10 374 -10 C597 -10 745 111 745 292 C745 472 601 593 384 593 C173 593 33 472 33 292 C33 206 87 134 155 82 C353 -80 571 -187 700 -187 C773 -187 886 -133 982 -53 L983 -53 L983 -53 Z M375 -4 C362 -4 345 3 327 17 C317 25 308 33 300 42 L300 42 C253 92 207 180 207 292 C207 469 278 587 384 587 C498 587 574 469 574 292 C574 114 495 -4 376 -4 L375 -4 L375 -4 Z " />
<glyph glyph-name="Adotabove" unicode="&#x226;" horiz-adv-x="678" d="M318 865 C366 865 398 897 398 945 C398 993 366 1025 318 1025 C270 1025 238 993 238 945 C238 897 270 865 318 865 L318 865 Z M153 293 L356 293 L419 84 C437 21 439 8 436 7 L386 1 L386 0 L445 0 L524 0 L621 0 L662 0 L662 1 L619 7 L403 697 L380 770 L365 770 C340 733 288 704 235 697 L238 687 L238 687 L98 76 C84 20 78 7 74 6 L23 0 L23 -1 L81 -1 L89 -1 L92 -1 L161 -1 L161 0 L104 6 C97 7 96 25 112 104 L153 293 L153 293 Z M156 300 L241 678 L355 300 L156 300 L156 300 Z " />
<glyph glyph-name="G_sc" unicode="&#x262;" horiz-adv-x="717" d="M535 569 L533 569 C499 584 456 593 396 593 C180 593 36 472 36 292 C36 111 184 -10 406 -10 C424 -10 442 -9 459 -7 L466 -13 L612 26 L612 33 C634 42 656 52 679 62 L677 65 C659 57 638 50 612 44 L612 186 C612 234 617 244 625 246 L649 252 L649 253 L649 254 L533 254 L417 254 L417 253 L417 252 L445 246 C454 244 461 234 461 186 L462 148 C461 76 444 28 419 28 C288 28 201 134 201 293 C201 470 280 589 398 589 C414 589 429 587 443 583 L442 583 C471 575 512 545 550 510 C563 496 577 480 591 463 L594 465 C604 454 613 444 621 434 C625 429 628 425 628 425 L628 484 L628 493 L628 543 C628 543 625 538 621 531 C621 530 586 544 536 568 L535 569 L535 569 Z " />
<glyph glyph-name="I_sc" unicode="&#x26a;" horiz-adv-x="337" d="M229 67 L229 516 C229 563 236 574 247 576 L275 582 L275 583 L153 583 L32 583 L32 582 L60 576 C71 574 78 563 78 516 L78 67 C78 20 71 10 60 7 L32 1 L32 0 L153 0 L275 0 L275 1 L247 7 C236 10 229 20 229 67 L229 67 Z " />
<glyph glyph-name="N_sc" unicode="&#x274;" horiz-adv-x="621" d="M172 583 L137 583 L99 583 L65 583 L-15 583 L-42 583 L-42 582 L-10 578 L20 543 L20 543 L20 543 L99 449 L98 84 C97 23 95 9 93 8 L43 2 L43 1 L98 1 L121 1 L143 1 L198 1 L198 2 L149 8 C146 9 143 21 142 77 L142 116 C142 120 142 124 142 128 L142 128 L140 400 L333 168 L473 1 L503 1 L512 477 L512 477 L512 477 L513 523 C516 564 524 574 535 576 L568 582 L568 583 L515 583 L492 583 L470 583 L416 583 L416 582 L448 576 C461 574 470 557 470 476 L471 476 L473 177 L427 239 L172 583 L172 583 Z " />
<glyph glyph-name="R_sc" unicode="&#x280;" horiz-adv-x="584" d="M574 0 L574 11 C552 11 550 13 522 52 C452 153 397 232 368 273 C460 295 515 341 515 415 C515 511 409 576 247 582 C238 582 229 582 220 582 L147 582 L49 582 L49 581 L77 575 C88 573 95 561 95 510 L95 71 C95 20 88 9 77 6 L49 0 L49 -1 L170 -1 L292 -1 L292 0 L263 6 C253 9 246 20 246 71 L246 199 C271 160 305 109 345 51 C380 1 389 -1 573 -1 L574 0 L574 0 Z M246 544 C309 529 348 492 348 443 C348 353 308 307 246 297 L246 510 L246 544 L246 544 Z " />
<glyph glyph-name="Y_sc" unicode="&#x28f;" horiz-adv-x="592" d="M268 456 L268 456 C265 460 262 464 259 468 L195 575 L237 581 L237 582 L191 582 L111 582 L13 582 L-15 582 L-15 581 L16 577 L230 235 L230 66 C230 19 223 9 213 6 L184 0 L184 -1 L306 -1 L427 -1 L427 0 L399 6 C388 9 381 19 381 66 L381 260 L535 576 L575 581 L575 582 L538 582 L528 582 L527 582 L481 582 L481 581 L524 575 L379 267 L268 456 L268 456 Z " />
<glyph glyph-name="B_sc" unicode="&#x299;" horiz-adv-x="583" d="M247 579 L284 579 C339 579 352 519 352 430 C352 352 349 301 346 301 L247 301 L247 511 L247 579 L247 579 Z M388 301 C458 316 503 370 503 445 C503 528 463 583 294 583 L248 583 L149 583 L51 583 L51 582 L79 576 C90 574 97 562 97 511 L97 72 C97 21 90 10 79 7 L51 1 L51 0 L149 0 L248 0 L368 0 C473 0 544 29 544 151 C544 241 483 301 393 301 L388 301 L388 301 Z M349 297 L378 297 C379 297 379 238 379 151 C379 32 372 4 362 4 L312 4 C274 4 248 23 248 51 L248 72 L248 297 L349 297 L349 297 Z " />
<glyph glyph-name="H_sc" unicode="&#x29c;" horiz-adv-x="732" d="M624 67 L624 516 C624 563 631 574 642 576 L670 582 L670 583 L548 583 L427 583 L427 582 L455 576 C466 574 473 563 473 516 L473 301 L283 301 L283 516 C283 563 290 574 300 576 L329 582 L329 583 L207 583 L86 583 L86 582 L114 576 C125 574 132 563 132 516 L132 67 C132 20 125 10 114 7 L86 1 L86 0 L207 0 L329 0 L329 1 L300 7 C290 10 283 20 283 67 L283 295 L473 295 L473 67 C473 20 466 10 455 7 L427 1 L427 0 L548 0 L670 0 L670 1 L642 7 C631 10 624 20 624 67 L624 67 Z " />
<glyph glyph-name="L_sc" unicode="&#x29f;" horiz-adv-x="489" d="M451 26 C453 34 455 42 457 48 C461 62 466 82 470 96 L469 97 L469 97 L454 66 C443 41 411 25 279 25 C234 25 229 35 229 50 L229 71 L229 510 C229 561 236 573 247 575 L275 581 L275 582 L229 582 L153 582 L78 582 L32 582 L32 581 L60 575 C71 573 78 561 78 510 L78 71 C78 20 71 9 60 6 L32 0 L32 -1 L78 -1 L130 -1 L229 -1 L271 -1 L444 -1 L451 26 L451 26 Z M469 97 C469 97 469 97 470 97 L469 97 L469 97 Z " />
<glyph glyph-name="A_sc" unicode="&#x1d00;" horiz-adv-x="610" d="M125 157 L125 157 L142 227 L318 227 L352 127 L352 127 C386 27 390 8 386 7 L335 1 L335 0 L395 0 L465 0 L553 0 L594 0 L594 1 L551 7 L515 110 C513 115 511 121 509 127 L509 127 L363 546 L344 603 L329 603 C310 576 263 553 212 546 L216 535 L121 157 L120 157 C89 32 79 8 74 7 L22 1 L22 0 L81 0 L87 0 L91 0 L160 0 L160 1 L103 7 C95 8 95 33 126 157 L125 157 L125 157 Z M145 233 L218 528 L317 233 L145 233 L145 233 Z " />
<glyph glyph-name="C_sc" unicode="&#x1d04;" horiz-adv-x="668" d="M535 569 L533 569 C499 584 456 593 396 593 C180 593 36 472 36 292 C36 111 177 -10 388 -10 C448 -10 495 0 533 17 C541 20 585 37 621 51 C625 53 628 48 628 38 L628 91 L628 98 L628 158 C628 158 625 154 621 149 C614 140 605 130 595 119 L592 121 C575 101 558 83 541 67 C518 47 495 29 475 18 C448 3 420 -5 390 -5 C276 -5 200 114 200 292 C200 469 279 588 397 588 C413 588 428 586 442 582 L441 582 C470 574 511 544 549 509 C562 495 576 479 590 462 L593 464 C603 453 612 443 620 433 C624 428 627 424 627 424 L627 483 L627 492 L627 542 C627 542 624 537 620 530 C620 529 585 543 535 567 L535 569 L535 569 Z " />
<glyph glyph-name="D_sc" unicode="&#x1d05;" horiz-adv-x="754" d="M96 511 L96 72 C96 21 89 10 78 7 L50 1 L50 0 L96 0 L148 0 L247 0 L290 0 C536 0 700 99 700 292 C700 466 568 583 312 583 L247 583 L148 583 L96 583 L50 583 L50 582 L78 576 C89 574 96 562 96 511 L96 511 Z M247 579 L294 579 C452 579 534 464 534 292 C534 102 434 5 284 5 C251 5 247 23 247 51 L247 72 L247 511 L247 579 L247 579 Z " />
<glyph glyph-name="E_sc" unicode="&#x1d07;" horiz-adv-x="545" d="M384 0 L491 0 C492 9 494 21 495 30 C496 39 498 51 499 60 L498 60 L488 28 C483 14 464 5 384 5 L298 5 C252 5 247 23 247 51 L247 72 L247 299 L299 299 C378 299 395 287 399 269 L405 238 L406 238 L406 299 L406 302 L406 305 L406 366 L405 366 L399 335 C395 317 378 305 299 305 L247 305 L247 511 L247 579 L359 579 C455 579 457 569 461 555 L469 524 L470 524 C470 533 469 545 468 554 C467 562 467 574 466 583 L359 583 L247 583 L148 583 L96 583 L50 583 L50 582 L78 576 C89 574 96 562 96 511 L96 72 C96 21 89 10 78 7 L50 1 L50 0 L96 0 L148 0 L247 0 L384 0 L384 0 Z " />
<glyph glyph-name="J_sc" unicode="&#x1d0a;" horiz-adv-x="337" d="M78 516 L78 -121 C78 -197 21 -212 -21 -212 C-97 -212 -64 -85 -140 -85 C-183 -85 -212 -114 -212 -156 C-212 -195 -138 -220 -27 -220 C81 -220 230 -158 229 165 L229 516 C229 563 236 574 247 576 L275 582 L275 583 L153 583 L32 583 L32 582 L60 576 C71 574 78 563 78 516 L78 516 Z " />
<glyph glyph-name="K_sc" unicode="&#x1d0b;" horiz-adv-x="649" d="M425 1 L426 0 L531 0 L601 0 L637 0 L637 1 L597 6 L350 393 L481 576 L527 582 L527 583 L486 583 L449 583 L433 583 L371 583 L371 582 L422 576 C425 575 415 556 351 456 L352 457 L247 292 L247 523 C247 564 254 574 264 576 L293 582 L293 583 L247 583 L171 583 L96 583 L50 583 L50 582 L78 576 C89 574 96 564 96 523 L96 60 C96 19 89 10 78 7 L50 1 L50 0 L96 0 L171 0 L247 0 L293 0 L293 1 L264 7 C254 10 247 19 247 60 L247 292 L382 72 L381 72 C415 17 423 4 425 1 L425 1 Z " />
<glyph glyph-name="M_sc" unicode="&#x1d0d;" horiz-adv-x="759" d="M98 565 L112 533 L92 56 C90 17 88 7 85 6 L36 0 L36 -1 L90 -1 L117 -1 L143 -1 L198 -1 L198 0 L149 6 C146 6 144 10 143 25 L145 124 C145 125 145 126 145 127 L145 127 L150 448 L255 210 L347 0 L385 0 L537 444 L548 72 L547 72 C549 21 541 10 530 7 L502 1 L502 0 L550 0 L622 0 L701 0 L743 0 L743 1 L715 7 C707 9 702 16 699 41 L682 425 C678 538 676 569 675 574 L675 575 L721 581 L721 582 L675 582 L626 582 L584 582 L532 582 L413 209 L270 582 L157 582 L151 582 L113 582 L89 582 L44 582 L44 581 L91 575 C91 575 92 573 96 564 L98 565 L98 565 Z " />
<glyph glyph-name="O_sc" unicode="&#x1d0f;" horiz-adv-x="801" d="M376 -4 C275 -4 207 114 207 292 C207 469 278 587 384 587 C498 587 574 469 574 292 C574 114 495 -4 376 -4 L376 -4 Z M34 292 C34 111 170 -10 375 -10 C598 -10 746 111 746 292 C746 472 602 593 385 593 C174 593 34 472 34 292 L34 292 Z " />
<glyph glyph-name="P_sc" unicode="&#x1d18;" horiz-adv-x="511" d="M209 0 L284 0 L330 0 L330 1 L302 7 C291 10 284 21 284 72 L284 252 L312 252 C420 252 492 303 492 416 C492 516 431 583 339 583 L284 583 L186 583 L133 583 L87 583 L87 582 L116 576 C126 574 133 562 133 511 L133 72 C133 21 126 10 116 7 L87 1 L87 0 L133 0 L209 0 L209 0 Z M284 284 L284 511 L284 558 L301 558 C330 558 350 511 350 441 C350 333 335 284 312 284 L284 284 L284 284 Z " />
<glyph glyph-name="T_sc" unicode="&#x1d1b;" horiz-adv-x="684" d="M629 547 L629 583 L615 583 C611 593 607 603 604 611 L604 612 L603 612 L608 583 L507 583 L417 583 L266 583 L175 583 L74 583 L80 612 L79 612 L78 611 C75 603 71 593 67 583 L53 583 L53 546 L53 546 C48 531 42 514 37 501 L37 500 L38 500 L55 531 C60 540 79 546 160 546 L265 546 L265 67 C265 20 258 10 247 7 L219 1 L219 0 L340 0 L462 0 L462 1 L433 7 C423 10 416 20 416 67 L416 546 L520 546 C601 546 620 540 625 531 L643 500 C643 501 643 501 644 501 C639 514 632 531 627 546 L629 547 L629 547 Z " />
<glyph glyph-name="U_sc" unicode="&#x1d1c;" horiz-adv-x="649" d="M571 97 L571 511 L571 583 L473 583 L375 583 L375 582 L403 576 C414 574 421 562 421 511 L421 184 C394 126 346 87 301 87 C248 87 212 131 212 197 L212 511 L212 583 L113 583 L15 583 L15 582 L43 576 C54 574 61 562 61 511 L61 197 C61 73 133 -10 240 -10 C313 -10 385 40 421 116 L421 97 L421 0 L444 0 L617 49 C578 74 571 81 571 97 L571 97 Z " />
<glyph glyph-name="V_sc" unicode="&#x1d20;" horiz-adv-x="679" d="M210 576 L266 582 L266 583 L194 583 L129 583 L20 583 L-8 583 L-8 582 L23 578 L41 543 C42 541 43 539 44 537 L44 537 L195 242 L324 -9 L354 -9 L556 457 L556 457 L556 457 L608 577 L652 583 L652 584 L611 584 L565 584 L550 584 L478 584 L478 583 L534 577 C541 576 541 562 518 497 L421 242 L279 457 L279 457 C228 556 215 577 211 577 L210 576 L210 576 Z " />
<glyph glyph-name="W_sc" unicode="&#x1d21;" horiz-adv-x="913" d="M338 536 L417 388 L369 189 L369 191 L247 456 L247 456 C245 459 243 462 241 465 L200 554 C194 570 195 575 198 575 L250 581 L250 582 L187 582 L122 582 L21 582 L-7 582 L-7 581 L24 577 L76 474 C79 468 82 462 85 456 L85 456 L219 191 L320 -10 L359 -10 L450 324 L506 219 L629 -10 L669 -10 L842 576 L885 582 L885 583 L844 583 L798 583 L782 583 L710 583 L710 582 L767 576 C775 575 775 556 749 456 L749 456 L688 219 L688 219 L540 486 L540 486 C500 561 494 575 498 576 L550 582 L550 583 L486 583 L410 583 L312 583 L271 583 L271 582 L316 576 L331 548 C333 545 335 541 337 537 L338 536 L338 536 Z " />
<glyph glyph-name="Z_sc" unicode="&#x1d22;" horiz-adv-x="543" d="M189 0 L368 0 L515 0 C519 16 525 38 529 55 C533 71 538 93 543 109 C542 109 542 109 542 110 L542 111 L526 79 C518 63 501 51 450 46 L212 38 L519 552 L519 583 L372 583 L227 583 L70 583 C68 566 64 544 62 527 C60 510 57 488 54 470 L55 470 L56 469 L69 500 C78 523 102 539 188 542 L201 542 C208 542 215 542 222 542 L222 542 L349 546 L25 31 L25 -1 L189 0 L189 0 Z " />
<glyph glyph-name="Wgrave" unicode="&#x1e80;" horiz-adv-x="1026" d="M409 993 C388 1030 370 1054 361 1054 C321 1054 287 1020 287 980 C287 970 308 950 340 925 L488 810 L507 829 L409 993 L409 993 Z M376 703 L473 500 L473 500 L407 210 L407 212 L209 732 C208 740 210 743 213 743 L265 749 L265 750 L202 750 L127 750 L17 750 L-10 750 L-10 749 L19 745 L258 212 L357 -10 L401 -10 L511 421 L595 244 L716 -10 L760 -10 L925 623 L925 623 C925 624 925 625 925 626 L956 743 L999 749 L999 750 L958 750 L908 750 L889 750 L817 750 L817 749 L874 743 C882 742 883 722 860 623 L860 623 L774 244 L563 716 C555 737 555 742 559 743 L611 749 L611 750 L548 750 L462 750 L354 750 L313 750 L313 749 L357 743 L363 729 C366 723 370 714 376 702 L376 703 L376 703 Z " />
<glyph glyph-name="Wacute" unicode="&#x1e82;" horiz-adv-x="1026" d="M497 810 L645 925 C677 951 699 971 699 980 C699 1020 664 1054 624 1054 C616 1054 598 1030 576 993 L479 829 L497 810 L497 810 Z M376 703 L473 500 L473 500 L407 210 L407 212 L209 732 C208 740 210 743 213 743 L265 749 L265 750 L202 750 L127 750 L17 750 L-10 750 L-10 749 L19 745 L258 212 L357 -10 L401 -10 L511 421 L595 244 L716 -10 L760 -10 L925 623 L925 623 C925 624 925 625 925 626 L956 743 L999 749 L999 750 L958 750 L908 750 L889 750 L817 750 L817 749 L874 743 C882 742 883 722 860 623 L860 623 L774 244 L563 716 C555 737 555 742 559 743 L611 749 L611 750 L548 750 L462 750 L354 750 L313 750 L313 749 L357 743 L363 729 C366 723 370 714 376 702 L376 703 L376 703 Z " />
<glyph glyph-name="Wdieresis" unicode="&#x1e84;" horiz-adv-x="1026" d="M568 865 C616 865 648 897 648 945 C648 993 616 1025 568 1025 C520 1025 488 993 488 945 C488 897 520 865 568 865 L568 865 Z M407 865 C455 865 487 897 487 945 C487 993 455 1025 407 1025 C359 1025 327 993 327 945 C327 897 359 865 407 865 L407 865 Z M376 703 L473 500 L473 500 L407 210 L407 212 L209 732 C208 740 210 743 213 743 L265 749 L265 750 L202 750 L127 750 L17 750 L-10 750 L-10 749 L19 745 L258 212 L357 -10 L401 -10 L511 421 L595 244 L716 -10 L760 -10 L925 623 L925 623 C925 624 925 625 925 626 L956 743 L999 749 L999 750 L958 750 L908 750 L889 750 L817 750 L817 749 L874 743 C882 742 883 722 860 623 L860 623 L774 244 L563 716 C555 737 555 742 559 743 L611 749 L611 750 L548 750 L462 750 L354 750 L313 750 L313 749 L357 743 L363 729 C366 723 370 714 376 702 L376 703 L376 703 Z " />
<glyph glyph-name="Etilde" unicode="&#x1ebc;" horiz-adv-x="604" d="M196 870 C196 899 208 919 226 919 C273 919 301 854 348 854 C394 854 425 920 425 1019 L421 1019 C421 983 406 959 383 959 C336 959 307 1024 260 1024 C219 1024 192 962 192 870 L196 870 L196 870 Z M443 0 L550 0 C551 9 553 21 555 30 C556 39 557 51 559 60 L558 60 L557 60 L547 29 C543 15 524 5 444 5 L310 5 C264 5 259 23 259 51 L259 72 L259 385 L358 385 C437 385 454 373 458 355 L464 324 L465 324 L465 385 L465 388 L465 391 L465 452 L464 452 L458 421 C454 403 437 391 358 391 L259 391 L259 678 L259 745 L418 745 C515 745 517 735 520 721 L528 690 L529 690 L530 690 C529 699 528 711 528 720 C527 729 526 741 525 750 L418 750 L259 750 L152 750 L92 750 L46 750 L46 749 L74 743 C85 740 92 729 92 678 L92 72 C92 21 85 10 74 7 L46 1 L46 0 L92 0 L152 0 L259 0 L443 0 L443 0 Z " />
<glyph glyph-name="Ygrave" unicode="&#x1ef2;" horiz-adv-x="667" d="M266 993 C245 1030 228 1054 219 1054 C178 1054 144 1020 144 980 C144 970 165 950 198 925 L345 810 L364 829 L266 993 L266 993 Z M276 623 L276 623 C275 625 274 627 273 629 L211 743 L253 749 L253 750 L207 750 L117 750 L9 750 L-19 750 L-19 749 L12 745 L261 308 L261 67 C261 20 254 10 243 7 L215 1 L215 0 L345 0 L475 0 L475 1 L446 7 C436 10 429 20 429 67 L429 336 L611 744 L650 749 L650 750 L614 750 L603 750 L601 750 L555 750 L555 749 L598 743 L566 668 C561 658 556 646 550 633 L550 633 L426 346 L276 623 L276 623 Z " />
<glyph glyph-name="quoteleft" unicode="&#x2018;" horiz-adv-x="581" d="" />
<glyph glyph-name="quoteright" unicode="&#x2019;" horiz-adv-x="221" d="" />
<glyph glyph-name="quotedblleft" unicode="&#x201c;" horiz-adv-x="581" d="M339 640 C321 640 306 632 296 617 L296 617 C296 682 329 734 379 748 L369 759 C298 740 251 672 251 589 C251 534 286 498 339 498 C382 498 410 526 410 568 C410 611 382 639 339 639 L339 640 L339 640 Z " />
<glyph glyph-name="quotedblright" unicode="&#x201d;" horiz-adv-x="581" d="M382 640 C379 578 336 526 273 509 L284 499 C370 522 428 591 428 673 C428 725 393 760 339 760 C297 760 269 732 269 689 C269 647 297 619 339 619 C357 619 372 627 382 641 L382 640 L382 640 Z " />
<glyph glyph-name="Euro" unicode="&#x20ac;" horiz-adv-x="790" d="M40 243 L100 243 C149 87 288 -10 478 -10 C549 -10 605 5 652 32 L654 32 C654 32 703 57 743 77 C748 79 751 74 751 64 L751 117 L751 126 L751 187 C751 187 748 183 743 178 C736 169 726 158 715 146 L710 150 C677 110 644 76 611 50 C601 42 591 35 582 29 L582 29 C548 7 514 -5 479 -5 C376 -5 301 90 274 242 L523 242 L538 349 L263 349 C263 357 263 365 263 373 C263 381 263 389 263 397 L538 397 L553 504 L274 504 C302 656 381 751 488 751 C513 751 537 745 560 733 L560 733 C575 725 593 712 612 696 C643 670 674 636 707 596 L712 600 C722 589 731 578 739 568 C744 562 747 558 747 558 L747 619 L747 629 L747 680 C747 680 744 675 739 667 C738 666 707 682 660 711 C616 739 562 756 484 756 C290 756 147 659 97 503 L66 503 L51 396 L78 396 C78 388 78 380 78 372 C78 364 78 356 78 348 L51 348 L40 243 L40 243 Z " />
<glyph glyph-name="F_sc" unicode="&#xa730;" horiz-adv-x="520" d="M396 241 L396 294 L396 297 L396 299 L396 353 L390 322 C388 308 370 299 289 299 L247 299 L247 511 L247 579 L279 579 C426 579 457 570 461 556 L470 525 L471 526 C470 534 469 546 469 555 C468 563 467 575 466 583 L359 583 L247 583 L148 583 L96 583 L50 583 L50 582 L78 576 C89 574 96 562 96 511 L96 72 C96 21 89 10 78 7 L50 1 L50 0 L96 0 L171 0 L247 0 L293 0 L293 1 L264 7 C254 10 247 21 247 72 L247 294 L359 294 C382 289 389 281 391 271 L396 241 L396 241 Z M397 241 L398 236 L397 236 L397 241 L397 241 Z M397 353 L397 358 L398 358 L397 353 L397 353 Z " />
<glyph glyph-name="S_sc" unicode="&#xa731;" horiz-adv-x="466" d="M325 570 L325 570 C298 585 266 593 233 593 C126 593 55 522 55 417 C55 321 97 243 179 213 C263 183 306 151 306 128 C306 49 273 -3 224 -3 C216 -3 207 -1 198 3 L198 3 C185 8 151 43 115 84 C106 98 97 114 89 131 L79 126 C70 137 61 148 53 158 C49 163 46 167 46 167 L46 110 L46 107 L46 46 C46 46 49 52 53 62 C53 61 85 41 134 13 L134 13 C162 -3 193 -12 224 -12 C346 -12 427 61 427 170 C427 255 373 330 269 368 C205 391 172 431 172 472 C172 540 196 586 233 586 C235 586 238 585 241 584 L233 586 C240 586 248 584 256 581 L241 584 C261 577 294 549 327 516 C334 505 341 493 347 480 L357 485 C366 474 375 463 383 453 C387 447 390 443 390 443 L390 497 L390 501 L390 551 C390 551 387 546 383 539 C383 538 359 549 325 568 L325 570 L325 570 Z " />
<glyph glyph-name="X_sc" unicode="&#xf078;" horiz-adv-x="653" d="M96 0 L109 0 L190 0 L190 1 L130 7 C123 8 121 13 128 27 L204 134 C205 135 206 136 207 137 L207 137 L270 225 L376 67 C408 19 415 8 414 7 L367 1 L367 0 L421 0 L502 0 L601 0 L637 0 L637 1 L597 6 L367 347 L444 426 L444 426 C445 427 446 428 447 429 L591 577 L633 583 L633 584 L597 584 L552 584 L529 584 L470 584 L470 583 L519 577 C522 577 511 562 457 489 L360 360 L295 457 L295 457 C227 558 215 577 216 577 L263 583 L263 584 L209 584 L131 584 L31 584 L-1 584 L-1 583 L35 578 L98 484 C103 476 109 467 115 457 L115 457 L250 256 L96 61 C62 19 53 9 51 8 L3 2 L3 1 L48 1 L96 0 L96 0 Z " />
</font>
</svg>
