<?xml version="1.0" encoding="UTF-8"?>
<svg xmlns="http://www.w3.org/2000/svg" xmlns:xlink="http://www.w3.org/1999/xlink" version="1.2" >
<font id="Jerrad Bold">
<font-face  font-family="Jerrad" units-per-em="1024" ascent="975" descent="-300" font-style="normal" font-weight="700" font-stretch="normal" cap-height="750" x-height="500" underline-position="-125" underline-thickness="50" />
<missing-glyph  horiz-adv-x="650" d="" />
<glyph glyph-name="NULL" d="" />
<glyph glyph-name="CR" unicode="&#xd;" horiz-adv-x="256" d="" />
<glyph glyph-name="space" unicode="&#x20;" horiz-adv-x="195" d="" />
<glyph glyph-name="exclam" unicode="&#x21;" horiz-adv-x="280" d="M140 -5 C188 -5 220 27 220 75 C220 123 188 155 140 155 C92 155 60 123 60 75 C60 27 92 -5 140 -5 L140 -5 Z M140 755 C72 755 60 706 70 632 L130 210 L151 210 L211 632 C221 706 209 755 140 755 L140 755 Z " />
<glyph glyph-name="quotedbl" unicode="&#x22;" horiz-adv-x="281" d="M736 750 C700 750 695 732 703 705 L743 560 L757 560 L797 705 C805 732 800 750 764 750 L736 750 L736 750 Z " />
<glyph glyph-name="numbersign" unicode="&#x23;" horiz-adv-x="488" d="M361 656 L338 504 L215 504 L238 656 L232 656 L209 504 L71 504 L59 416 L195 416 L169 244 L28 244 L16 156 L155 156 L131 0 L138 0 L162 156 L285 156 L261 0 L268 0 L292 156 L408 156 L420 244 L305 244 L331 416 L456 416 L469 504 L345 504 L368 656 L361 656 L361 656 Z M201 416 L324 416 L298 244 L175 244 L201 416 L201 416 Z " />
<glyph glyph-name="dollar" unicode="&#x24;" horiz-adv-x="510" d="M271 825 L271 759 C263 760 255 760 247 760 C242 760 237 760 232 760 L232 825 L191 825 L191 752 C110 729 59 655 59 553 C59 451 104 363 191 319 L191 21 L191 21 C183 29 142 79 99 133 C94 142 89 151 84 161 L78 158 C70 168 62 178 54 188 C50 193 47 197 47 197 L47 143 L47 138 L47 79 C47 79 50 85 54 95 C54 95 84 71 130 35 L130 35 C149 20 169 8 190 0 L190 -78 L231 -78 L231 -11 C239 -12 247 -13 255 -13 C260 -13 265 -13 270 -13 L270 -78 L311 -78 L311 -7 C408 14 470 93 470 203 C470 302 416 389 311 433 L311 718 C334 698 360 671 384 644 C388 637 391 630 394 623 L399 625 C408 615 416 605 424 595 C428 590 431 586 431 586 L431 638 L431 640 L431 691 C431 691 428 686 424 678 C423 677 404 689 376 709 C356 725 333 737 309 745 L309 820 L271 825 L271 825 Z M268 746 L266 747 C267 747 268 747 269 747 L269 449 C255 456 242 463 230 471 L230 750 C235 751 240 752 245 752 C253 752 261 751 269 749 L268 746 L268 746 Z M267 748 L258 751 C261 751 264 750 267 748 L267 748 Z M230 300 C244 294 257 288 269 282 L269 -6 C264 -7 259 -7 254 -7 C246 -7 238 -6 229 -3 L230 300 L230 300 Z M309 256 C346 228 365 196 365 165 C365 94 344 39 309 12 L309 256 L309 256 Z M188 509 C167 536 156 567 156 599 C156 652 168 695 188 722 L188 509 L188 509 Z " />
<glyph glyph-name="ampersand" unicode="&#x26;" horiz-adv-x="302" d="M344 467 C444 502 508 558 508 610 C508 700 431 760 315 760 C209 760 139 694 139 595 C139 544 171 495 221 434 C107 391 32 298 32 196 C32 73 117 -10 245 -10 C330 -10 417 34 497 111 L522 82 C569 27 640 -10 700 -10 C772 -10 828 52 839 145 L819 152 C814 111 786 84 748 84 C702 84 652 107 622 142 L574 198 C636 280 691 383 734 501 L707 501 C667 390 612 296 550 227 L361 448 C355 455 349 462 344 469 L344 467 L344 467 Z M332 484 C276 552 240 604 240 657 C240 704 270 735 315 735 C374 735 413 688 413 619 C413 561 381 509 332 484 L332 484 Z M464 151 C414 117 362 98 311 98 C215 98 152 152 152 232 C152 317 183 388 232 421 C241 410 250 399 260 388 L464 151 L464 151 Z " />
<glyph glyph-name="quotesingle" unicode="&#x27;" horiz-adv-x="183" d="" />
<glyph glyph-name="parenleft" unicode="&#x28;" horiz-adv-x="397" d="M320 760 C163 654 59 460 59 273 C59 95 161 -100 313 -214 L320 -201 C213 -120 141 70 141 273 C141 482 215 671 327 747 L320 760 L320 760 Z " />
<glyph glyph-name="parenright" unicode="&#x29;" horiz-adv-x="397" d="M23 747 C135 674 209 485 209 273 C209 58 137 -131 30 -201 L37 -214 C189 -116 291 79 291 273 C291 464 187 659 30 760 L23 747 L23 747 Z " />
<glyph glyph-name="asterisk" unicode="&#x2a;" horiz-adv-x="300" d="M150 630 L185 750 C191 771 177 785 150 785 C123 785 109 771 115 750 L150 630 L150 630 Z M150 630 L236 540 C252 524 271 529 284 552 C298 576 293 595 271 600 L150 630 L150 630 Z M150 630 L64 720 C48 736 29 731 16 707 C2 684 7 665 29 660 L150 630 L150 630 Z M150 630 L271 660 C293 665 298 684 284 707 C271 731 252 736 236 720 L150 630 L150 630 Z M150 630 L29 600 C7 595 2 576 16 552 C29 529 48 524 64 540 L150 630 L150 630 Z M150 630 L115 510 C109 489 123 475 150 475 C177 475 191 489 185 510 L150 630 L150 630 Z " />
<glyph glyph-name="plus" unicode="&#x2b;" horiz-adv-x="576" d="M243 438 L243 291 L100 291 L100 209 L243 209 L243 62 L333 62 L333 209 L476 209 L476 291 L333 291 L333 438 L243 438 L243 438 Z " />
<glyph glyph-name="comma" unicode="&#x2c;" horiz-adv-x="259" d="M170 27 C172 18 173 8 173 -3 C173 -66 129 -108 64 -108 L64 -112 C139 -112 189 -63 189 10 C189 69 166 109 131 114 C128 114 125 114 122 114 C86 114 62 90 62 54 C62 18 86 -6 122 -6 C143 -6 159 6 167 26 L170 27 L170 27 Z " />
<glyph glyph-name="hyphen" unicode="&#x2d;" horiz-adv-x="386" d="M80 240 L306 240 L306 330 L80 330 L80 240 L80 240 Z " />
<glyph glyph-name="period" unicode="&#x2e;" horiz-adv-x="195" d="M125 -5 C173 -5 205 27 205 75 C205 123 173 155 125 155 C77 155 45 123 45 75 C45 27 77 -5 125 -5 L125 -5 Z " />
<glyph glyph-name="slash" unicode="&#x2f;" horiz-adv-x="397" d="M300 770 L18 -80 L86 -80 L368 770 L300 770 L300 770 Z " />
<glyph glyph-name="zero" unicode="0" horiz-adv-x="613" d="M305 37 C192 37 96 122 96 250 C96 365 180 463 305 463 C418 463 514 378 514 250 C514 135 430 37 305 37 L305 37 Z M41 250 C41 94 162 -10 305 -10 C463 -10 569 110 569 250 C569 406 448 510 305 510 C147 510 41 390 41 250 L41 250 Z " />
<glyph glyph-name="one" unicode="1" horiz-adv-x="282" d="M199 22 L199 478 C199 487 206 490 215 493 L243 499 L243 500 L141 500 L40 500 L40 499 L67 493 C77 490 84 487 84 478 L84 22 C84 13 77 10 67 7 L40 1 L40 0 L141 0 L243 0 L243 1 L215 7 C206 10 199 13 199 22 L199 22 Z " />
<glyph glyph-name="two" unicode="2" horiz-adv-x="509" d="M66 289 C82 369 134 423 196 423 C255 423 295 382 295 320 C295 219 173 112 30 20 L30 0 L260 0 L327 0 L391 0 C394 5 397 10 400 15 L455 102 L455 102 C461 111 467 120 472 128 L472 129 L472 131 L449 102 L339 102 L182 102 C315 198 411 287 411 347 C411 445 349 510 256 510 C153 510 68 424 43 294 L66 289 L66 289 Z " />
<glyph glyph-name="three" unicode="3" horiz-adv-x="413" d="M16 -209 L20 -232 C232 -210 373 -111 373 15 C373 122 314 201 226 214 C299 263 343 321 343 387 C343 461 284 510 196 510 C112 510 41 447 19 352 L44 345 C55 395 98 429 150 429 C192 429 220 396 220 348 C220 257 173 202 104 173 L104 150 C193 137 252 70 252 -18 C252 -118 158 -195 16 -209 L16 -209 Z " />
<glyph glyph-name="four" unicode="4" horiz-adv-x="536" d="M512 86 L512 88 L407 88 L371 88 L371 308 L371 530 L356 530 L15 20 L15 0 L56 0 L256 0 L256 -220 L371 -220 L371 0 L445 0 L506 0 L507 -24 L508 -24 C509 -17 510 -9 511 -1 L511 -1 L511 0 C513 15 515 31 517 44 L527 114 L526 114 L516 83 C516 84 515 84 511 84 L512 86 L512 86 Z M112 86 L255 306 L255 86 L112 86 L112 86 Z " />
<glyph glyph-name="five" unicode="5" horiz-adv-x="398" d="M61 -235 C245 -213 368 -98 368 53 C368 192 259 285 95 285 L72 285 L85 397 L301 400 L311 461 C311 462 311 463 311 464 C314 483 319 509 323 528 L322 528 L321 528 L311 500 L210 500 L62 500 L19 182 L39 164 L81 164 C192 164 266 104 266 14 C266 -107 182 -198 57 -214 L61 -235 L61 -235 Z " />
<glyph glyph-name="six" unicode="6" horiz-adv-x="525" d="M506 750 C228 691 42 509 42 295 C42 112 131 -10 264 -10 C388 -10 471 89 471 238 C471 372 396 461 284 461 C243 461 208 444 183 414 C233 579 352 699 511 733 L506 750 L506 750 Z M157 234 C157 367 207 456 282 456 C326 456 356 371 356 245 C356 95 319 -5 263 -5 C199 -5 157 91 157 234 L157 234 Z " />
<glyph glyph-name="seven" unicode="7" horiz-adv-x="396" d="M132 500 L80 500 L79 498 C62 496 57 493 56 489 L64 520 L63 520 C53 498 41 470 31 448 C21 426 9 398 -1 377 L0 377 L1 377 L20 408 C19 406 23 405 43 405 L43 405 L68 405 L352 405 L355 411 L98 -220 L186 -220 L390 485 L390 500 L387 500 L132 500 L132 500 Z " />
<glyph glyph-name="eight" unicode="8" horiz-adv-x="497" d="M182 362 C192 356 202 351 213 346 C307 304 369 255 369 144 C369 54 319 -6 245 -6 C178 -6 133 66 133 174 C133 255 152 323 183 362 L182 362 L182 362 Z M167 372 C85 325 33 250 33 173 C33 63 118 -11 245 -11 C372 -11 457 71 457 194 C457 313 400 376 310 425 C385 468 432 532 432 597 C432 693 356 758 242 758 C132 758 58 685 58 575 C58 487 100 415 166 369 L167 372 L167 372 Z M292 432 C281 437 270 442 259 447 C194 476 150 537 150 616 C150 698 187 752 242 752 C297 752 334 685 334 584 C334 520 318 465 292 431 L292 432 L292 432 Z " />
<glyph glyph-name="nine" unicode="9" horiz-adv-x="525" d="M19 -250 C298 -191 483 -9 483 205 C483 388 395 510 262 510 C137 510 54 411 54 262 C54 128 129 39 242 39 C283 39 318 56 343 86 C293 -79 174 -199 15 -233 L19 -250 L19 -250 Z M369 266 C369 133 319 44 244 44 C199 44 169 129 169 255 C169 405 207 505 263 505 C326 505 369 409 369 266 L369 266 Z " />
<glyph glyph-name="colon" unicode="&#x3a;" horiz-adv-x="135" d="M125 385 C173 385 205 417 205 465 C205 513 173 545 125 545 C77 545 45 513 45 465 C45 417 77 385 125 385 L125 385 Z M125 -5 C173 -5 205 27 205 75 C205 123 173 155 125 155 C77 155 45 123 45 75 C45 27 77 -5 125 -5 L125 -5 Z " />
<glyph glyph-name="semicolon" unicode="&#x3b;" horiz-adv-x="259" d="M125 385 C173 385 205 417 205 465 C205 513 173 545 125 545 C77 545 45 513 45 465 C45 417 77 385 125 385 L125 385 Z M170 27 C172 18 173 8 173 -3 C173 -66 129 -108 64 -108 L64 -112 C139 -112 189 -63 189 10 C189 69 166 109 131 114 C128 114 125 114 122 114 C86 114 62 90 62 54 C62 18 86 -6 122 -6 C143 -6 159 6 167 26 L170 27 L170 27 Z " />
<glyph glyph-name="equal" unicode="&#x3d;" horiz-adv-x="494" d="M88 226 L88 174 L424 174 L424 226 L88 226 L88 226 Z M88 326 L88 274 L424 274 L424 326 L88 326 L88 326 Z " />
<glyph glyph-name="question" unicode="&#x3f;" horiz-adv-x="295" d="M125 -5 C173 -5 205 27 205 75 C205 123 173 155 125 155 C77 155 45 123 45 75 C45 27 77 -5 125 -5 L125 -5 Z M127 240 L125 360 C225 360 257 391 288 437 C307 464 319 512 319 557 C319 679 249 760 145 760 C80 760 37 726 37 675 C37 641 62 618 99 618 C127 618 159 638 187 638 C246 638 285 600 285 543 C285 532 276 512 263 492 C242 461 215 440 97 440 L107 240 L127 240 L127 240 Z " />
<glyph glyph-name="at" unicode="&#x40;" horiz-adv-x="1112" d="M973 0 C908 -140 750 -234 578 -234 C318 -234 145 -37 145 259 C145 555 310 752 556 752 C803 752 968 588 968 343 C968 143 901 10 800 10 C731 10 703 86 731 200 L801 480 L692 480 L676 417 C658 463 616 491 560 491 C383 491 265 370 265 189 C265 78 331 5 429 5 C508 5 576 41 616 100 C628 20 687 -29 781 -29 C948 -29 1059 120 1059 344 C1059 609 859 785 558 785 C258 785 58 575 58 260 C58 -55 267 -265 580 -265 C766 -265 939 -159 1014 1 L973 0 L973 0 Z M663 357 L624 201 C604 122 551 69 490 69 C432 69 393 126 393 211 C393 360 460 459 559 459 C622 459 663 418 663 357 L663 357 Z " />
<glyph glyph-name="A" unicode="A" horiz-adv-x="646" d="M124 157 L124 157 L157 294 L368 294 L416 127 L416 127 C445 27 448 8 444 7 L394 1 L394 0 L453 0 L512 0 L588 0 L629 0 L629 1 L586 7 L377 709 L359 770 L345 770 C323 739 285 715 248 709 L251 699 L118 157 L118 157 C88 32 78 8 73 7 L21 1 L21 0 L80 0 L86 0 L89 0 L158 0 L158 1 L101 7 C93 8 94 33 124 157 L124 157 Z M158 299 L253 691 L366 299 L158 299 L158 299 Z " />
<glyph glyph-name="B" unicode="B" horiz-adv-x="621" d="M230 746 L289 746 C394 746 419 671 419 557 C419 455 383 387 329 387 L230 387 L230 678 L230 746 L230 746 Z M380 387 C481 404 545 473 545 571 C545 678 498 750 295 750 L229 750 L142 750 L54 750 L54 749 L83 743 C93 740 100 729 100 678 L100 72 C100 21 93 10 83 7 L54 1 L54 0 L142 0 L229 0 L349 0 C488 0 581 37 581 193 C581 308 500 384 379 386 L380 387 L380 387 Z M330 382 L361 382 C408 382 439 306 439 192 C439 39 401 3 344 3 L294 3 C255 3 229 22 229 50 L229 71 L229 382 L330 382 L330 382 Z " />
<glyph glyph-name="C" unicode="C" horiz-adv-x="708" d="M571 720 L570 720 C529 745 479 760 410 760 C190 760 43 606 43 375 C43 144 186 -10 401 -10 C469 -10 523 6 569 33 C579 38 622 60 659 79 C663 81 666 76 666 66 L666 118 L666 124 L666 181 C666 181 663 177 659 172 C652 164 644 155 635 145 L634 146 C629 140 624 134 619 128 C587 94 549 58 520 37 C482 11 443 -4 401 -4 C270 -4 182 148 182 377 C182 605 273 757 410 757 C438 757 463 751 487 739 L487 739 C518 725 570 678 613 632 C620 624 627 616 634 608 L635 609 C643 599 651 590 658 581 C662 575 665 571 665 571 L665 628 L665 635 L665 685 C665 685 662 680 658 672 C657 671 621 690 570 723 L571 720 L571 720 Z " />
<glyph glyph-name="D" unicode="D" horiz-adv-x="790" d="M101 678 L101 72 C101 21 94 10 84 7 L55 1 L55 0 L101 0 L143 0 L230 0 L292 0 C558 0 735 127 735 375 C735 600 595 750 324 750 L230 750 L143 750 L101 750 L55 750 L55 749 L84 743 C94 740 101 729 101 678 L101 678 Z M230 746 L308 746 C497 746 594 598 594 375 C594 130 471 4 287 4 C236 4 230 23 230 51 L230 72 L230 678 L230 746 L230 746 Z " />
<glyph glyph-name="E" unicode="E" horiz-adv-x="575" d="M414 0 L521 0 C522 9 524 21 525 29 C526 38 528 50 529 59 L528 59 L518 28 C513 13 494 4 414 4 L281 4 C235 4 230 23 230 51 L230 72 L230 385 L329 385 C408 385 425 373 429 355 L435 324 L436 324 L436 385 L436 387 L436 390 L436 451 L435 451 L429 420 C425 402 408 390 329 390 L230 390 L230 678 L230 746 L389 746 C485 746 487 737 491 722 L499 691 L500 691 C500 700 499 712 498 721 C497 729 497 741 496 750 L389 750 L230 750 L143 750 L101 750 L55 750 L55 749 L84 743 C94 740 101 729 101 678 L101 72 C101 21 94 10 84 7 L55 1 L55 0 L101 0 L143 0 L230 0 L414 0 L414 0 Z " />
<glyph glyph-name="F" unicode="F" horiz-adv-x="550" d="M426 327 L426 380 L426 383 L426 385 L426 439 L420 409 C418 394 400 385 319 385 L230 385 L230 678 L230 747 L309 747 C456 747 487 737 491 723 L500 692 L500 693 L501 693 C500 701 499 713 499 722 C498 730 497 742 496 750 L389 750 L230 750 L143 750 L101 750 L55 750 L55 749 L84 743 C94 740 101 729 101 678 L101 72 C101 21 94 10 84 7 L55 1 L55 0 L101 0 L166 0 L230 0 L276 0 L276 1 L248 7 C237 10 230 21 230 72 L230 380 L389 380 C412 375 419 367 421 357 L426 327 L426 327 Z M427 327 L428 322 L427 322 L427 327 L427 327 Z M427 439 L427 444 L428 444 L427 439 L427 439 Z " />
<glyph glyph-name="G" unicode="G" horiz-adv-x="755" d="M571 720 L570 720 C529 745 479 760 410 760 C190 760 43 606 43 375 C43 144 191 -10 414 -10 C453 -10 490 -7 525 -1 L526 -1 L526 -1 L526 -1 L526 -1 L530 0 C557 5 583 11 608 19 L651 29 L651 33 C674 42 697 52 720 63 L718 66 C699 57 677 49 651 42 L651 258 C651 305 656 315 664 318 L688 324 L688 325 L584 325 L479 325 L479 324 L506 318 C516 315 523 305 523 258 L526 24 L526 24 L524 141 C524 69 484 21 425 21 C280 21 184 163 184 375 C184 603 275 755 412 755 C440 755 465 749 489 737 L489 737 C520 723 572 676 615 630 C622 622 629 614 636 606 L637 607 C645 597 653 588 660 579 C664 573 667 569 667 569 L667 626 L667 633 L667 683 C667 683 664 678 660 670 C659 669 623 688 572 721 L571 720 L571 720 Z " />
<glyph glyph-name="H" unicode="H" horiz-adv-x="765" d="M657 67 L657 683 C657 730 664 740 674 743 L703 749 L703 750 L592 750 L482 750 L482 749 L510 743 C521 740 528 730 528 683 L528 386 L266 386 L266 683 C266 730 273 740 284 743 L312 749 L312 750 L202 750 L91 750 L91 749 L120 743 C130 740 137 730 137 683 L137 67 C137 20 130 10 120 7 L91 1 L91 0 L202 0 L312 0 L312 1 L284 7 C273 10 266 20 266 67 L266 380 L528 380 L528 67 C528 20 521 10 510 7 L482 1 L482 0 L592 0 L703 0 L703 1 L674 7 C664 10 657 20 657 67 L657 67 Z " />
<glyph glyph-name="I" unicode="I" horiz-adv-x="326" d="M218 67 L218 683 C218 730 225 740 235 743 L264 749 L264 750 L153 750 L43 750 L43 749 L71 743 C82 740 89 730 89 683 L89 67 C89 20 82 10 71 7 L43 1 L43 0 L153 0 L264 0 L264 1 L235 7 C225 10 218 20 218 67 L218 67 Z " />
<glyph glyph-name="J" unicode="J" horiz-adv-x="326" d="M89 683 L89 -99 C89 -195 25 -213 -21 -213 C-86 -213 -57 -105 -123 -105 C-159 -105 -184 -129 -184 -166 C-184 -198 -121 -220 -26 -220 C77 -220 218 -162 218 143 L218 683 C218 730 225 740 235 743 L264 749 L264 750 L153 750 L43 750 L43 749 L71 743 C82 740 89 730 89 683 L89 683 Z " />
<glyph glyph-name="K" unicode="K" horiz-adv-x="682" d="M429 72 L428 72 C472 5 476 0 476 0 L573 0 L634 0 L671 0 L671 1 L630 6 L591 63 C589 66 587 69 585 72 L585 72 L320 460 L521 743 L567 749 L567 750 L526 750 L492 750 L478 750 L417 750 L417 749 L467 743 C471 742 460 723 394 623 L395 623 L231 375 L231 690 C231 731 238 740 249 743 L277 749 L277 750 L231 750 L167 750 L102 750 L56 750 L56 749 L85 743 C95 740 102 731 102 690 L102 60 C102 19 95 10 85 7 L56 1 L56 0 L102 0 L167 0 L231 0 L277 0 L277 1 L249 7 C238 10 231 19 231 60 L231 375 L429 72 L429 72 Z " />
<glyph glyph-name="L" unicode="L" horiz-adv-x="536" d="M326 22 L498 22 L498 21 C500 30 502 39 504 47 C507 61 512 79 516 94 L515 94 L515 95 L501 64 C490 39 457 23 325 23 L326 22 L326 22 Z M325 23 L268 23 C222 23 217 35 217 52 L217 73 L217 679 C217 730 224 741 234 744 L263 750 L263 751 L217 751 L152 751 L88 751 L42 751 L42 750 L70 744 C81 741 88 730 88 679 L88 73 C88 22 81 11 70 8 L42 2 L42 1 L88 1 L129 1 L217 1 L319 1 L491 1 L325 23 L325 23 Z " />
<glyph glyph-name="M" unicode="M" horiz-adv-x="797" d="M737 72 L737 72 L720 594 L721 593 C718 719 717 743 716 743 L761 749 L761 750 L715 750 L677 750 L638 750 L593 750 L425 171 L425 173 L247 750 L149 750 L148 750 L116 750 L93 750 L48 750 L48 749 L95 743 C95 743 97 740 102 726 L114 693 L97 136 L97 136 C94 28 91 7 88 6 L39 0 L39 -1 L93 -1 L116 -1 L138 -1 L193 -1 L193 0 L144 6 C141 7 139 14 139 43 L140 117 C140 120 140 123 140 126 L140 126 L147 606 L310 172 L375 -1 L407 -1 L596 614 L610 71 L610 71 C611 20 603 9 592 6 L564 0 L564 -1 L612 -1 L674 -1 L740 -1 L784 -1 L784 0 L756 6 C746 9 739 20 738 71 L737 72 L737 72 Z " />
<glyph glyph-name="N" unicode="N" horiz-adv-x="670" d="M137 127 L136 127 L134 562 L399 183 L526 0 L552 0 L561 686 C564 730 572 740 582 742 L615 748 L615 749 L562 749 L542 749 L523 749 L469 749 L469 748 L501 742 C514 739 523 723 523 642 L523 642 L525 224 L506 253 L163 749 L133 749 L100 749 L69 749 L3 749 L-24 749 L-24 748 L7 744 L100 611 L99 137 L99 137 C99 29 97 8 93 7 L44 1 L44 0 L99 0 L118 0 L137 0 L192 0 L192 1 L143 7 C139 8 136 27 137 127 L137 127 Z " />
<glyph glyph-name="O" unicode="O" horiz-adv-x="834" d="M396 -5 C271 -5 187 147 187 375 C187 603 274 755 404 755 C541 755 632 603 632 375 C632 147 538 -5 396 -5 L396 -5 Z M40 375 C40 144 182 -10 395 -10 C625 -10 779 144 779 375 C779 606 629 760 405 760 C186 760 40 606 40 375 L40 375 Z " />
<glyph glyph-name="P" unicode="P" horiz-adv-x="557" d="M197 0 L262 0 L308 0 L308 1 L279 7 C269 10 262 21 262 72 L262 338 L301 338 C443 338 538 400 538 538 C538 665 459 750 340 750 L262 750 L174 750 L133 750 L87 750 L87 749 L115 743 C126 740 133 729 133 678 L133 72 C133 21 126 10 115 7 L87 1 L87 0 L133 0 L197 0 L197 0 Z M262 365 L262 678 L262 728 L307 728 C373 728 417 660 417 559 C417 425 370 365 301 365 L262 365 L262 365 Z " />
<glyph glyph-name="Q" unicode="Q" horiz-adv-x="829" d="M1075 -53 L1073 -51 C1044 -76 929 -93 786 -93 C634 -93 484 -61 387 -10 C390 -10 393 -10 396 -10 C626 -10 780 144 780 375 C780 606 630 760 406 760 C187 760 41 606 41 375 C41 237 130 126 224 59 C420 -81 639 -174 772 -174 C867 -174 988 -126 1075 -53 L1075 -53 Z M396 -5 C333 -5 187 147 187 375 C187 603 274 755 404 755 C541 755 632 603 632 375 C632 147 538 -5 396 -5 L396 -5 Z " />
<glyph glyph-name="R" unicode="R" horiz-adv-x="659" d="M650 0 L650 9 C602 9 599 11 565 67 L391 361 C490 385 550 442 550 537 C550 665 438 750 269 750 L230 750 L143 750 L55 750 L55 749 L84 743 C94 740 101 729 101 678 L101 72 C101 21 94 10 84 7 L55 1 L55 0 L166 0 L276 0 L276 1 L248 7 C237 10 230 21 230 72 L230 348 L261 348 C279 305 337 199 415 68 C453 4 463 1 650 1 L650 0 L650 0 Z M230 725 C337 725 408 660 408 563 C408 437 352 381 269 381 L230 381 L230 679 L230 725 L230 725 Z " />
<glyph glyph-name="S" unicode="S" horiz-adv-x="510" d="M269 751 C295 739 343 694 385 647 C389 640 392 633 395 626 L400 628 C409 618 417 608 425 598 C429 593 432 589 432 589 L432 641 L432 643 L432 694 C432 694 429 689 425 681 C424 680 405 692 377 712 C341 742 294 759 246 759 C133 759 58 676 58 552 C58 440 112 345 217 307 C316 271 367 218 367 167 C367 64 323 -5 256 -5 C235 -5 212 4 189 21 C181 29 140 79 97 133 C92 142 87 151 82 161 L76 158 C68 168 60 178 52 188 C48 193 45 197 45 197 L45 143 L45 138 L45 79 C45 79 48 85 52 95 C52 95 82 71 128 35 L128 35 C166 5 210 -12 254 -12 C382 -12 468 74 468 203 C468 307 408 398 293 440 C202 472 156 533 156 600 C156 692 191 753 244 753 C258 753 273 749 288 742 L269 751 L269 751 Z M266 749 L257 752 C260 752 263 751 266 749 L266 749 Z " />
<glyph glyph-name="T" unicode="T" horiz-adv-x="731" d="M676 719 L676 750 L665 750 C661 760 657 770 654 778 L653 778 L658 750 L557 750 L430 750 L301 750 L174 750 L74 750 L79 778 L78 778 L77 778 C74 770 71 760 68 750 L56 750 L56 718 L56 718 C50 704 44 687 40 673 L40 672 L41 672 L58 703 C63 712 82 718 163 718 L302 718 L302 67 C302 20 295 10 285 7 L256 1 L256 0 L367 0 L477 0 L477 1 L449 7 C438 10 431 20 431 67 L431 718 L570 718 C651 718 670 712 675 703 L693 672 C693 673 693 673 694 673 C689 687 682 705 677 719 L676 719 L676 719 Z " />
<glyph glyph-name="U" unicode="U" horiz-adv-x="675" d="M597 97 L597 678 L597 750 L509 750 L422 750 L422 749 L450 743 C461 740 468 729 468 678 L468 191 C435 120 368 73 300 73 C237 73 195 128 195 211 L195 678 L195 750 L108 750 L20 750 L20 749 L49 743 C59 740 66 729 66 678 L66 211 C66 78 139 -10 248 -10 C340 -10 428 47 468 133 L468 97 L468 0 L488 0 L642 49 C604 74 597 81 597 97 L597 97 Z " />
<glyph glyph-name="V" unicode="V" horiz-adv-x="711" d="M46 703 L255 189 L336 -10 L362 -10 L640 743 L684 749 L684 750 L643 750 L602 750 L592 750 L520 750 L520 749 L576 743 C584 742 583 722 549 623 L549 623 L336 -10 L403 189 L226 623 L226 623 C186 722 183 742 190 743 L247 749 L247 750 L174 750 L123 750 L27 750 L-1 750 L-1 749 L29 745 L41 715 C42 712 44 708 46 704 L46 703 L46 703 Z " />
<glyph glyph-name="W" unicode="W" horiz-adv-x="981" d="M386 703 L469 500 L468 500 L374 162 L213 623 L214 623 C212 627 210 631 208 635 L178 721 C174 738 176 743 180 743 L232 749 L232 750 L168 750 L116 750 L27 750 L-1 750 L-1 749 L29 745 L258 162 L326 -10 L360 -10 L494 437 L597 187 L678 -10 L712 -10 L911 743 L954 749 L954 750 L913 750 L871 750 L860 750 L788 750 L788 749 L844 743 C852 742 853 722 829 623 L830 623 L725 186 L725 187 L526 721 C521 738 522 743 526 744 L578 750 L578 751 L515 751 L452 751 L366 751 L325 751 L325 750 L369 744 L381 715 C382 712 383 708 385 704 L386 703 L386 703 Z " />
<glyph glyph-name="X" unicode="X" horiz-adv-x="689" d="M99 0 L106 0 L187 0 L187 1 L127 7 C119 8 118 16 134 46 L184 125 C187 129 190 133 193 137 L192 137 L301 311 L409 127 L409 127 C416 115 422 104 428 94 L461 38 C475 13 478 6 477 5 L430 -1 L430 -2 L484 -2 L552 -2 L637 -2 L674 -2 L674 -1 L633 4 L382 430 L628 741 L669 746 L669 747 L633 747 L593 747 L576 747 L516 747 L516 746 L566 740 C568 739 557 718 487 610 L487 610 L376 439 L269 620 L269 620 C266 625 263 630 260 635 L216 710 C203 732 200 738 201 739 L248 745 L248 746 L194 746 L129 746 L42 746 L10 746 L10 745 L46 740 L284 335 L128 103 L128 103 C72 20 60 4 59 3 L11 -3 L11 -4 L56 -4 L99 0 L99 0 Z " />
<glyph glyph-name="Y" unicode="Y" horiz-adv-x="630" d="M176 743 L218 749 L218 750 L172 750 L106 750 L21 750 L-7 750 L-7 749 L24 745 L260 316 L260 67 C260 20 253 10 242 7 L214 1 L214 0 L324 0 L435 0 L435 1 L406 7 C396 10 389 20 389 67 L389 337 L574 744 L613 749 L613 750 L577 750 L567 750 L521 750 L521 749 L564 743 L517 638 C516 636 515 634 514 632 L514 632 L386 343 L176 743 L176 743 Z " />
<glyph glyph-name="Z" unicode="Z" horiz-adv-x="590" d="M164 0 L415 0 L562 0 L575 52 C579 67 584 88 588 103 L587 104 L587 105 L571 73 C562 56 544 44 485 39 L181 31 L566 723 L566 750 L441 750 L227 750 L70 750 C68 734 65 712 62 696 C60 680 57 658 55 643 L56 642 C56 641 57 641 57 641 L69 672 C78 694 99 709 166 714 L425 720 L26 27 L26 0 L164 0 L164 0 Z " />
<glyph glyph-name="bracketleft" unicode="&#x5b;" horiz-adv-x="302" d="M142 716 L352 716 L352 750 L142 750 L102 750 L102 -195 L142 -195 L352 -195 L352 -161 L142 -161 L142 716 L142 716 Z " />
<glyph glyph-name="backslash" unicode="&#x5c;" horiz-adv-x="355" d="M18 770 L278 -80 L346 -80 L86 770 L18 770 L18 770 Z " />
<glyph glyph-name="bracketright" unicode="&#x5d;" horiz-adv-x="305" d="M155 716 L155 -161 L-55 -161 L-55 -195 L155 -195 L195 -195 L195 750 L155 750 L-55 750 L-55 716 L155 716 L155 716 Z " />
<glyph glyph-name="underscore" unicode="&#x5f;" horiz-adv-x="356" d="M5 -50 L5 -114 L352 -114 L352 -50 L5 -50 L5 -50 Z " />
<glyph glyph-name="a" unicode="a" horiz-adv-x="470" d="M480 123 L463 131 C457 99 435 77 408 77 C377 77 356 94 356 120 L356 353 C356 461 306 510 230 510 C126 510 57 414 57 360 C57 312 86 280 129 280 C163 280 185 313 185 337 C185 357 165 375 165 399 C165 437 190 503 226 503 C235 503 241 469 241 394 L241 263 C112 189 37 140 37 95 C37 33 76 -9 133 -9 C170 -9 209 15 248 77 C263 27 305 -4 362 -4 C420 -4 468 47 481 124 L480 123 L480 123 Z M242 260 L242 121 C242 107 244 94 247 82 C231 61 213 52 196 52 C171 52 154 74 154 107 C154 194 186 227 242 261 L242 260 L242 260 Z " />
<glyph glyph-name="b" unicode="b" horiz-adv-x="588" d="M111 0 L117 0 L161 65 L161 65 C178 20 239 -10 314 -10 C452 -10 544 95 544 253 C544 404 464 505 345 505 C298 505 253 481 226 442 L226 688 L226 750 L205 750 L73 712 L73 711 L97 712 C106 712 111 704 111 661 L111 195 L111 0 L111 0 Z M226 425 C247 453 278 470 310 470 C373 470 415 378 415 240 C415 99 376 5 317 5 C276 5 240 31 226 70 L226 195 L226 425 L226 425 Z " />
<glyph glyph-name="c" unicode="c" horiz-adv-x="471" d="M441 128 L425 135 C405 90 362 60 318 60 C221 60 156 147 156 277 C156 401 207 484 284 484 C296 484 316 452 333 405 C346 371 369 348 391 348 C438 348 461 371 448 405 C425 468 362 510 290 510 C136 510 33 400 33 234 C33 88 131 -10 277 -10 C339 -10 404 45 441 128 L441 128 Z " />
<glyph glyph-name="d" unicode="d" horiz-adv-x="513" d="M355 62 L355 -10 L375 -10 L507 23 L507 24 L483 24 C475 25 470 40 470 121 L470 671 L470 750 L449 750 L317 712 L317 711 L341 712 C350 712 355 701 355 644 L355 484 C322 500 281 510 238 510 C107 510 39 406 39 249 C39 97 111 -5 219 -5 C270 -5 323 21 355 61 L355 62 L355 62 Z M355 396 L355 101 C328 66 293 43 267 43 C200 43 156 138 156 281 C156 398 189 477 252 477 C288 477 330 441 355 396 L355 396 Z " />
<glyph glyph-name="e" unicode="e" horiz-adv-x="475" d="M158 340 L318 340 L414 340 L446 340 C424 462 354 510 260 510 C124 510 33 397 33 228 C33 85 115 -10 239 -10 C324 -10 402 46 432 131 L418 136 C403 94 343 66 267 66 C199 66 154 150 154 275 C154 298 155 320 158 340 L158 340 Z M396 374 C402 374 408 374 414 374 L396 374 L396 374 Z M312 371 L162 367 C177 439 210 483 253 483 C274 483 295 451 312 370 L312 371 L312 371 Z " />
<glyph glyph-name="f" unicode="f" horiz-adv-x="318" d="M191 439 L308 439 L308 500 L191 500 C191 631 213 719 255 719 C317 719 305 635 357 635 C384 635 402 653 402 680 C402 725 360 755 296 755 C151 755 76 653 76 500 L-11 453 L-11 439 L76 439 L76 22 C76 13 71 10 62 7 L38 1 L38 0 L133 0 L228 0 L228 1 L204 7 C196 10 191 13 191 22 L191 439 L191 439 Z " />
<glyph glyph-name="g" unicode="g" horiz-adv-x="476" d="M182 350 C182 430 201 483 229 483 C257 483 276 430 276 350 C276 269 257 215 229 215 C201 215 182 269 182 350 L182 350 Z M148 -15 C152 -15 156 -15 160 -15 L263 -15 C323 -15 347 -43 347 -86 C347 -157 307 -204 248 -204 C180 -204 135 -150 135 -70 C135 -46 140 -26 149 -14 L148 -15 L148 -15 Z M116 -7 C70 -23 40 -57 40 -97 C40 -177 120 -230 241 -230 C362 -230 442 -161 442 -59 C442 36 395 99 275 99 L166 99 C138 100 119 115 119 137 C119 168 163 188 230 188 C327 188 392 253 392 350 C392 370 389 388 384 405 C401 431 422 447 439 447 C441 447 442 439 442 426 C442 402 463 386 495 386 C523 386 542 408 542 440 C542 473 520 495 487 495 C443 495 399 470 374 431 C348 481 297 511 231 511 C134 511 69 447 69 351 C69 283 101 231 154 206 C91 191 52 154 52 104 C52 50 77 10 117 -6 L116 -7 L116 -7 Z " />
<glyph glyph-name="h" unicode="h" horiz-adv-x="568" d="M370 22 C370 13 365 10 356 7 L333 1 L333 0 L427 0 L522 0 L522 1 L498 7 C490 10 485 13 485 22 L485 300 C485 426 444 510 366 510 C279 510 208 463 187 393 L187 688 L187 750 L166 750 L34 712 L34 711 L58 712 C67 712 72 704 72 661 L72 22 C72 13 67 10 58 7 L34 1 L34 0 L129 0 L224 0 L224 1 L200 7 C192 10 187 13 187 22 L187 389 C194 413 239 429 300 429 C346 429 370 377 370 300 L370 22 L370 22 Z " />
<glyph glyph-name="i" unicode="i" horiz-adv-x="269" d="M138 615 C183 615 213 645 213 689 C213 734 183 764 138 764 C94 764 64 734 64 689 C64 645 94 615 138 615 L138 615 Z M196 22 L196 438 L196 500 L175 500 L43 462 L43 461 L67 462 C76 462 81 454 81 411 L81 22 C81 12 76 9 70 7 L48 1 L48 0 L138 0 L229 0 L229 1 L207 7 C200 9 196 12 196 22 L196 22 Z " />
<glyph glyph-name="j" unicode="j" horiz-adv-x="275" d="M128 615 C173 615 203 645 203 689 C203 734 173 764 128 764 C84 764 54 734 54 689 C54 645 84 615 128 615 L128 615 Z M71 411 L71 68 C71 -22 48 -95 13 -115 C-17 -115 -54 -100 -84 -100 C-111 -100 -129 -116 -129 -140 C-129 -169 -105 -187 -69 -185 C-63 -184 -21 -162 36 -130 C126 -78 186 1 186 68 L186 438 L186 500 L165 500 L33 462 L33 461 L57 462 C66 462 71 454 71 411 L71 411 Z " />
<glyph glyph-name="k" unicode="k" horiz-adv-x="565" d="M457 0 L536 0 L559 0 L559 1 L533 5 L296 331 L492 495 L524 499 L524 500 L498 500 L460 500 L451 500 L379 500 L379 499 L438 493 C444 492 421 468 271 343 L274 345 L196 280 L196 688 L196 750 L175 750 L43 712 L43 711 L67 712 C76 712 81 704 81 661 L81 22 C81 12 76 9 70 7 L48 1 L48 0 L138 0 L229 0 L229 1 L207 7 C200 9 196 12 196 22 L196 280 L378 22 L377 22 C379 20 380 18 381 16 L388 5 L355 0 L355 -1 L392 -1 L457 0 L457 0 Z " />
<glyph glyph-name="l" unicode="l" horiz-adv-x="259" d="M186 22 L186 688 L186 750 L165 750 L33 712 L33 711 L57 712 C66 712 71 704 71 661 L71 22 C71 12 66 9 59 7 L36 1 L36 0 L128 0 L221 0 L221 1 L198 7 C191 9 186 12 186 22 L186 22 Z " />
<glyph glyph-name="m" unicode="m" horiz-adv-x="782" d="M438 398 L438 394 C443 412 485 425 543 425 C580 425 594 375 594 300 L594 42 C594 15 590 9 583 7 L561 1 L561 0 L654 0 L746 0 L746 1 L722 7 C714 10 709 16 709 42 L709 300 C709 426 676 510 590 510 C519 510 458 465 438 398 L438 398 Z M329 42 C329 15 325 9 318 7 L296 1 L296 0 L385 0 L473 0 L473 1 L453 7 C448 9 444 15 444 42 L444 300 C444 426 411 510 325 510 C258 510 200 465 180 398 L180 438 L180 500 L159 500 L27 452 L27 451 L51 453 C60 454 65 446 65 404 L65 42 C65 16 60 10 51 7 L27 1 L27 0 L119 0 L210 0 L210 1 L190 7 C184 9 180 15 180 42 L180 394 C185 412 225 425 278 425 C315 425 329 375 329 300 L329 42 L329 42 Z " />
<glyph glyph-name="n" unicode="n" horiz-adv-x="517" d="M329 22 C329 12 324 9 317 7 L294 1 L294 0 L387 0 L479 0 L479 1 L456 7 C449 9 444 12 444 22 L444 317 C444 433 404 510 325 510 C258 510 200 466 180 401 L180 438 L180 500 L159 500 L27 452 L27 451 L51 453 C60 454 65 446 65 404 L65 22 C65 12 60 9 53 7 L30 1 L30 0 L122 0 L215 0 L215 1 L192 7 C185 9 180 12 180 22 L180 384 C193 427 239 456 294 456 C317 456 329 400 329 317 L329 22 L329 22 Z " />
<glyph glyph-name="o" unicode="o" horiz-adv-x="565" d="M276 -5 C206 -5 159 97 159 250 C159 403 206 505 276 505 C346 505 393 403 393 250 C393 97 346 -5 276 -5 L276 -5 Z M32 250 C32 94 130 -10 276 -10 C422 -10 520 94 520 250 C520 406 422 510 276 510 C130 510 32 406 32 250 L32 250 Z " />
<glyph glyph-name="p" unicode="p" horiz-adv-x="547" d="M181 446 L181 500 L160 500 L28 452 L28 451 L52 453 C61 454 66 446 66 404 L66 -175 C66 -204 61 -210 52 -213 L28 -219 L28 -220 L123 -220 L218 -220 L218 -219 L194 -213 C186 -210 181 -204 181 -175 L181 81 C216 28 264 -5 309 -5 C425 -5 502 116 502 259 C502 410 425 510 309 510 C261 510 212 485 181 446 L181 446 Z M181 94 L181 401 C207 439 236 463 256 463 C328 463 376 367 376 224 C376 103 349 0 308 0 C263 0 215 37 181 95 L181 94 L181 94 Z " />
<glyph glyph-name="q" unicode="q" horiz-adv-x="545" d="M451 -198 L451 390 L451 440 L451 500 L444 500 L407 440 C377 482 318 510 258 510 C112 510 36 406 36 249 C36 97 109 -5 218 -5 C206 -5 253 24 336 68 L336 -198 C336 -207 331 -210 323 -213 L299 -219 L299 -220 L394 -220 L488 -220 L488 -219 L465 -213 C456 -210 451 -207 451 -198 L451 -198 Z M336 390 L336 108 C263 68 235 42 266 42 C199 42 155 137 155 280 C155 402 188 483 252 483 C272 483 306 445 336 389 L336 390 L336 390 Z " />
<glyph glyph-name="r" unicode="r" horiz-adv-x="409" d="M186 428 L186 438 L186 500 L165 500 L33 452 L33 451 L57 453 C66 454 71 446 71 404 L71 22 C71 12 66 9 60 7 L38 1 L38 0 L130 0 L223 0 L223 1 L199 7 C191 10 186 13 186 22 L186 411 C196 439 217 456 244 456 C256 456 263 442 263 421 C263 381 290 354 331 354 C372 354 399 381 399 421 C399 475 359 510 298 510 C242 510 201 479 185 428 L186 428 L186 428 Z " />
<glyph glyph-name="s" unicode="s" horiz-adv-x="399" d="M258 498 L257 498 C241 506 224 510 207 510 C122 510 65 455 65 372 C65 289 100 225 169 206 C230 190 261 151 261 105 C261 39 234 -6 194 -6 C193 -6 192 -6 191 -6 L195 -6 C192 -6 151 41 110 90 C107 95 104 101 101 107 L97 105 C91 113 85 121 79 128 C75 132 73 135 73 135 L72 135 L71 135 L71 95 L71 93 L71 55 L72 55 L73 55 C73 55 75 59 79 65 C71 53 98 25 153 2 C167 -5 181 -9 195 -9 C289 -9 351 50 351 139 C351 212 307 272 221 295 C172 308 147 354 147 413 C147 469 171 507 208 507 L208 507 L207 507 C210 507 213 506 216 505 L207 506 C217 503 253 467 287 428 C290 423 292 418 294 413 L298 415 C305 407 311 399 317 391 C321 387 323 384 323 384 L324 384 L324 427 L324 430 L324 477 L323 477 C323 477 321 472 317 464 C318 466 294 480 256 498 L258 498 L258 498 Z " />
<glyph glyph-name="t" unicode="t" horiz-adv-x="384" d="M335 500 L205 500 L205 620 L196 620 L25 449 L25 439 L90 439 L90 186 C90 45 147 -10 232 -10 C304 -10 361 43 374 122 L360 125 C351 76 315 44 267 44 C227 44 200 77 202 161 L205 439 L335 439 L335 500 L335 500 Z " />
<glyph glyph-name="u" unicode="u" horiz-adv-x="478" d="M295 77 L295 -10 L315 -10 L447 23 L447 24 L423 24 C415 25 410 37 410 101 L410 478 L410 500 L338 500 L266 500 L266 499 L286 493 C291 491 295 488 295 478 L295 130 C278 94 250 70 222 70 C188 70 165 103 165 153 L165 478 L165 500 L93 500 L21 500 L21 499 L41 493 C46 491 50 488 50 478 L50 153 C50 55 97 -10 168 -10 C213 -10 263 42 296 123 L295 77 L295 77 Z " />
<glyph glyph-name="v" unicode="v" horiz-adv-x="462" d="M24 494 L214 -10 L248 -10 L407 494 L445 499 L445 500 L409 500 L380 500 L356 500 L314 500 L314 499 L354 493 L258 147 L150 494 L181 499 L181 500 L148 500 L86 500 L22 500 L-8 500 L-8 499 L24 494 L24 494 Z " />
<glyph glyph-name="w" unicode="w" horiz-adv-x="761" d="M293 495 L351 349 L238 -10 L271 -10 L374 290 L493 -10 L527 -10 L706 494 L745 499 L745 500 L708 500 L678 500 L654 500 L612 500 L612 499 L652 493 L646 473 C645 471 644 469 643 466 L643 466 L542 145 L422 495 L449 499 L449 500 L420 500 L356 500 L291 500 L263 500 L263 499 L293 495 L293 495 Z M34 495 L238 -10 L286 145 L163 495 L189 499 L189 500 L161 500 L97 500 L32 500 L4 500 L4 499 L34 495 L34 495 Z " />
<glyph glyph-name="x" unicode="x" horiz-adv-x="485" d="M39 6 L3 1 L3 0 L35 0 L67 0 L88 0 L131 0 L131 1 L91 7 L112 50 C112 51 112 52 112 53 L112 53 L187 202 L291 8 L259 3 L259 2 L294 2 L361 2 L435 2 L463 2 L463 3 L432 7 L414 41 C413 44 411 47 409 50 L409 50 L277 297 L377 450 L377 450 C378 451 379 452 380 453 L407 495 L443 500 L443 501 L411 501 L381 501 L359 501 L319 501 L319 500 L355 495 L344 476 C340 470 335 462 329 452 L330 452 L260 325 L169 495 L201 500 L201 501 L166 501 L102 501 L25 501 L2 501 L2 500 L27 496 L171 226 L39 6 L39 6 Z " />
<glyph glyph-name="y" unicode="y" horiz-adv-x="482" d="M24 494 L227 -10 L189 -140 C184 -155 172 -165 159 -165 C131 -165 121 -124 93 -124 C53 -124 27 -147 27 -182 C27 -224 54 -253 95 -253 C148 -253 194 -220 210 -171 L261 -10 L427 494 L465 499 L465 500 L429 500 L400 500 L376 500 L334 500 L334 499 L374 493 L367 469 C366 467 365 465 364 463 L364 463 L226 -10 L271 146 L159 466 L159 466 C159 467 159 468 159 469 L150 494 L181 499 L181 500 L148 500 L86 500 L22 500 L-8 500 L-8 499 L24 494 L24 494 Z " />
<glyph glyph-name="z" unicode="z" horiz-adv-x="431" d="M73 436 L85 452 C87 455 91 458 101 460 L257 467 L39 27 L39 0 L160 0 L273 0 L385 0 C387 12 389 28 391 39 C392 45 393 52 394 59 L386 46 C384 43 379 41 368 39 L176 31 L390 471 L390 498 L273 498 L109 498 L94 498 L95 516 L94 516 C93 510 91 504 89 498 L81 498 L81 467 C78 458 75 446 72 435 L73 436 L73 436 Z M72 435 C71 430 70 425 69 420 L66 420 L62 420 L72 435 L72 435 Z M394 59 C395 66 396 72 397 77 L402 77 L406 77 L394 59 L394 59 Z " />
<glyph glyph-name="bar" unicode="&#x7c;" horiz-adv-x="209" d="M60 800 L60 -250 L149 -250 L149 800 L60 800 L60 800 Z " />
<glyph glyph-name="exclamdown" unicode="&#xa1;" horiz-adv-x="280" d="M140 505 C93 505 61 473 60 425 C61 377 93 345 140 345 C189 345 221 377 220 425 C221 473 189 505 140 505 L140 505 Z M140 -255 C208 -255 221 -206 211 -132 L151 290 L130 290 L70 -132 C60 -206 72 -255 140 -255 L140 -255 Z " />
<glyph glyph-name="cent" unicode="&#xa2;" horiz-adv-x="471" d="M255 575 L255 508 C121 493 33 388 33 235 C33 96 121 1 255 -8 L255 -74 L296 -74 L296 -7 C352 3 408 55 441 130 L425 137 C405 92 362 62 318 62 C310 62 303 63 296 64 L296 479 C307 467 321 441 333 407 C346 373 369 350 391 350 C438 350 461 373 448 407 C426 468 366 509 297 511 L297 576 L255 575 L255 575 Z M256 75 C195 105 157 179 157 278 C157 386 195 463 256 481 L256 75 L256 75 Z " />
<glyph glyph-name="questiondown" unicode="&#xbf;" horiz-adv-x="295" d="M170 505 C122 505 90 473 90 425 C90 377 122 345 170 345 C218 345 250 377 250 425 C250 473 218 505 170 505 L170 505 Z M168 260 L170 140 C70 140 38 109 7 63 C-12 36 -24 -12 -24 -57 C-24 -179 46 -260 150 -260 C215 -260 258 -226 258 -175 C258 -141 233 -118 196 -118 C169 -118 136 -138 108 -138 C49 -138 10 -100 10 -43 C10 -32 19 -12 32 8 C53 39 80 60 198 60 L188 260 L168 260 L168 260 Z " />
<glyph glyph-name="Agrave" unicode="&#xc0;" horiz-adv-x="646" d="M124 157 L124 157 L157 294 L368 294 L416 127 L416 127 C445 27 448 8 444 7 L394 1 L394 0 L453 0 L512 0 L588 0 L629 0 L629 1 L586 7 L377 709 L359 770 L345 770 C323 739 285 715 248 709 L251 699 L118 157 L118 157 C88 32 78 8 73 7 L21 1 L21 0 L80 0 L86 0 L89 0 L158 0 L158 1 L101 7 C93 8 94 33 124 157 L124 157 Z M222 981 C196 1020 176 1046 168 1046 C136 1046 110 1019 110 988 C110 979 134 957 169 929 L314 811 L328 826 L222 981 L222 981 Z M158 299 L253 691 L366 299 L158 299 L158 299 Z " />
<glyph glyph-name="Aacute" unicode="&#xc1;" horiz-adv-x="646" d="M321 811 L466 929 C501 958 525 981 525 988 C525 1019 499 1046 467 1046 C461 1046 440 1020 413 981 L307 826 L321 811 L321 811 Z M124 157 L124 157 L157 294 L368 294 L416 127 L416 127 C445 27 448 8 444 7 L394 1 L394 0 L453 0 L512 0 L588 0 L629 0 L629 1 L586 7 L377 709 L359 770 L345 770 C323 739 285 715 248 709 L251 699 L118 157 L118 157 C88 32 78 8 73 7 L21 1 L21 0 L80 0 L86 0 L89 0 L158 0 L158 1 L101 7 C93 8 94 33 124 157 L124 157 Z M158 299 L253 691 L366 299 L158 299 L158 299 Z " />
<glyph glyph-name="Acircumflex" unicode="&#xc2;" horiz-adv-x="646" d="M124 157 L124 157 L157 294 L368 294 L416 127 L416 127 C445 27 448 8 444 7 L394 1 L394 0 L453 0 L512 0 L588 0 L629 0 L629 1 L586 7 L377 709 L359 770 L345 770 C323 739 285 715 248 709 L251 699 L118 157 L118 157 C88 32 78 8 73 7 L21 1 L21 0 L80 0 L86 0 L89 0 L158 0 L158 1 L101 7 C93 8 94 33 124 157 L124 157 Z M313 921 L451 805 L467 818 L353 996 C345 1008 326 1037 312 1037 C299 1037 280 1009 272 996 L158 818 L174 805 L313 921 L313 921 Z M158 299 L253 691 L366 299 L158 299 L158 299 Z " />
<glyph glyph-name="Atilde" unicode="&#xc3;" horiz-adv-x="646" d="M200 870 C200 903 213 925 232 925 C280 925 312 860 360 860 C401 860 428 916 428 1001 L425 1001 C425 965 410 941 387 941 C338 941 307 1006 258 1006 C221 1006 197 952 197 870 L200 870 L200 870 Z M124 157 L124 157 L157 294 L368 294 L416 127 L416 127 C445 27 448 8 444 7 L394 1 L394 0 L453 0 L512 0 L588 0 L629 0 L629 1 L586 7 L377 709 L359 770 L345 770 C323 739 285 715 248 709 L251 699 L118 157 L118 157 C88 32 78 8 73 7 L21 1 L21 0 L80 0 L86 0 L89 0 L158 0 L158 1 L101 7 C93 8 94 33 124 157 L124 157 Z M158 299 L253 691 L366 299 L158 299 L158 299 Z " />
<glyph glyph-name="Adieresis" unicode="&#xc4;" horiz-adv-x="646" d="M388 865 C433 865 463 895 463 939 C463 984 433 1014 388 1014 C344 1014 314 984 314 939 C314 895 344 865 388 865 L388 865 Z M237 865 C281 865 311 895 311 939 C311 984 281 1014 237 1014 C192 1014 162 984 162 939 C162 895 192 865 237 865 L237 865 Z M124 157 L124 157 L157 294 L368 294 L416 127 L416 127 C445 27 448 8 444 7 L394 1 L394 0 L453 0 L512 0 L588 0 L629 0 L629 1 L586 7 L377 709 L359 770 L345 770 C323 739 285 715 248 709 L251 699 L118 157 L118 157 C88 32 78 8 73 7 L21 1 L21 0 L80 0 L86 0 L89 0 L158 0 L158 1 L101 7 C93 8 94 33 124 157 L124 157 Z M158 299 L253 691 L366 299 L158 299 L158 299 Z " />
<glyph glyph-name="Aring" unicode="&#xc5;" horiz-adv-x="646" d="M312 837 C278 837 248 868 248 905 C248 946 274 973 312 973 C351 973 377 946 377 905 C377 868 347 837 312 837 L312 837 Z M214 905 C214 854 259 810 312 810 C366 810 411 854 411 905 C411 962 372 1000 312 1000 C253 1000 214 962 214 905 L214 905 Z M124 157 L124 157 L157 294 L368 294 L416 127 L416 127 C445 27 448 8 444 7 L394 1 L394 0 L453 0 L512 0 L588 0 L629 0 L629 1 L586 7 L377 709 L359 770 L345 770 C323 739 285 715 248 709 L251 699 L118 157 L118 157 C88 32 78 8 73 7 L21 1 L21 0 L80 0 L86 0 L89 0 L158 0 L158 1 L101 7 C93 8 94 33 124 157 L124 157 Z M158 299 L253 691 L366 299 L158 299 L158 299 Z " />
<glyph glyph-name="Egrave" unicode="&#xc8;" horiz-adv-x="575" d="M208 981 C182 1020 162 1046 154 1046 C123 1046 96 1019 96 988 C96 979 120 957 156 929 L300 811 L314 826 L208 981 L208 981 Z M414 0 L521 0 C522 9 524 21 525 29 C526 38 528 50 529 59 L528 59 L518 28 C513 13 494 4 414 4 L281 4 C235 4 230 23 230 51 L230 72 L230 385 L329 385 C408 385 425 373 429 355 L435 324 L436 324 L436 385 L436 387 L436 390 L436 451 L435 451 L429 420 C425 402 408 390 329 390 L230 390 L230 678 L230 746 L389 746 C485 746 487 737 491 722 L499 691 L500 691 C500 700 499 712 498 721 C497 729 497 741 496 750 L389 750 L230 750 L143 750 L101 750 L55 750 L55 749 L84 743 C94 740 101 729 101 678 L101 72 C101 21 94 10 84 7 L55 1 L55 0 L101 0 L143 0 L230 0 L414 0 L414 0 Z " />
<glyph glyph-name="Eacute" unicode="&#xc9;" horiz-adv-x="575" d="M307 811 L452 929 C487 958 511 981 511 988 C511 1019 485 1046 454 1046 C447 1046 426 1020 399 981 L293 826 L307 811 L307 811 Z M414 0 L521 0 C522 9 524 21 525 29 C526 38 528 50 529 59 L528 59 L518 28 C513 13 494 4 414 4 L281 4 C235 4 230 23 230 51 L230 72 L230 385 L329 385 C408 385 425 373 429 355 L435 324 L436 324 L436 385 L436 387 L436 390 L436 451 L435 451 L429 420 C425 402 408 390 329 390 L230 390 L230 678 L230 746 L389 746 C485 746 487 737 491 722 L499 691 L500 691 C500 700 499 712 498 721 C497 729 497 741 496 750 L389 750 L230 750 L143 750 L101 750 L55 750 L55 749 L84 743 C94 740 101 729 101 678 L101 72 C101 21 94 10 84 7 L55 1 L55 0 L101 0 L143 0 L230 0 L414 0 L414 0 Z " />
<glyph glyph-name="Ecircumflex" unicode="&#xca;" horiz-adv-x="575" d="M299 921 L437 805 L453 818 L339 996 C332 1008 312 1037 299 1037 C285 1037 266 1009 258 996 L144 818 L160 805 L299 921 L299 921 Z M414 0 L521 0 C522 9 524 21 525 29 C526 38 528 50 529 59 L528 59 L518 28 C513 13 494 4 414 4 L281 4 C235 4 230 23 230 51 L230 72 L230 385 L329 385 C408 385 425 373 429 355 L435 324 L436 324 L436 385 L436 387 L436 390 L436 451 L435 451 L429 420 C425 402 408 390 329 390 L230 390 L230 678 L230 746 L389 746 C485 746 487 737 491 722 L499 691 L500 691 C500 700 499 712 498 721 C497 729 497 741 496 750 L389 750 L230 750 L143 750 L101 750 L55 750 L55 749 L84 743 C94 740 101 729 101 678 L101 72 C101 21 94 10 84 7 L55 1 L55 0 L101 0 L143 0 L230 0 L414 0 L414 0 Z " />
<glyph glyph-name="Edieresis" unicode="&#xcb;" horiz-adv-x="575" d="M375 865 C419 865 449 895 449 939 C449 984 419 1014 375 1014 C330 1014 300 984 300 939 C300 895 330 865 375 865 L375 865 Z M223 865 C267 865 297 895 297 939 C297 984 267 1014 223 1014 C178 1014 148 984 148 939 C148 895 178 865 223 865 L223 865 Z M414 0 L521 0 C522 9 524 21 525 29 C526 38 528 50 529 59 L528 59 L518 28 C513 13 494 4 414 4 L281 4 C235 4 230 23 230 51 L230 72 L230 385 L329 385 C408 385 425 373 429 355 L435 324 L436 324 L436 385 L436 387 L436 390 L436 451 L435 451 L429 420 C425 402 408 390 329 390 L230 390 L230 678 L230 746 L389 746 C485 746 487 737 491 722 L499 691 L500 691 C500 700 499 712 498 721 C497 729 497 741 496 750 L389 750 L230 750 L143 750 L101 750 L55 750 L55 749 L84 743 C94 740 101 729 101 678 L101 72 C101 21 94 10 84 7 L55 1 L55 0 L101 0 L143 0 L230 0 L414 0 L414 0 Z " />
<glyph glyph-name="Igrave" unicode="&#xcc;" horiz-adv-x="326" d="M63 981 C37 1020 17 1046 9 1046 C-23 1046 -49 1019 -49 988 C-49 979 -25 957 10 929 L155 811 L169 826 L63 981 L63 981 Z M218 67 L218 683 C218 730 225 740 235 743 L264 749 L264 750 L153 750 L43 750 L43 749 L71 743 C82 740 89 730 89 683 L89 67 C89 20 82 10 71 7 L43 1 L43 0 L153 0 L264 0 L264 1 L235 7 C225 10 218 20 218 67 L218 67 Z " />
<glyph glyph-name="Iacute" unicode="&#xcd;" horiz-adv-x="326" d="M162 811 L307 929 C342 958 366 981 366 988 C366 1019 340 1046 308 1046 C302 1046 281 1020 254 981 L148 826 L162 811 L162 811 Z M218 67 L218 683 C218 730 225 740 235 743 L264 749 L264 750 L153 750 L43 750 L43 749 L71 743 C82 740 89 730 89 683 L89 67 C89 20 82 10 71 7 L43 1 L43 0 L153 0 L264 0 L264 1 L235 7 C225 10 218 20 218 67 L218 67 Z " />
<glyph glyph-name="Icircumflex" unicode="&#xce;" horiz-adv-x="326" d="M154 921 L292 805 L308 818 L194 996 C186 1008 167 1037 153 1037 C140 1037 121 1009 113 996 L-1 818 L15 805 L154 921 L154 921 Z M218 67 L218 683 C218 730 225 740 235 743 L264 749 L264 750 L153 750 L43 750 L43 749 L71 743 C82 740 89 730 89 683 L89 67 C89 20 82 10 71 7 L43 1 L43 0 L153 0 L264 0 L264 1 L235 7 C225 10 218 20 218 67 L218 67 Z " />
<glyph glyph-name="Idieresis" unicode="&#xcf;" horiz-adv-x="326" d="M229 865 C274 865 304 895 304 939 C304 984 274 1014 229 1014 C185 1014 155 984 155 939 C155 895 185 865 229 865 L229 865 Z M78 865 C122 865 152 895 152 939 C152 984 122 1014 78 1014 C33 1014 3 984 3 939 C3 895 33 865 78 865 L78 865 Z M218 67 L218 683 C218 730 225 740 235 743 L264 749 L264 750 L153 750 L43 750 L43 749 L71 743 C82 740 89 730 89 683 L89 67 C89 20 82 10 71 7 L43 1 L43 0 L153 0 L264 0 L264 1 L235 7 C225 10 218 20 218 67 L218 67 Z " />
<glyph glyph-name="Ntilde" unicode="&#xd1;" horiz-adv-x="670" d="M218 870 C218 903 231 925 249 925 C298 925 329 860 378 860 C419 860 446 916 446 1001 L443 1001 C443 965 428 941 405 941 C356 941 324 1006 276 1006 C239 1006 215 952 215 870 L218 870 L218 870 Z M137 127 L136 127 L134 562 L399 183 L526 0 L552 0 L561 686 C564 730 572 740 582 742 L615 748 L615 749 L562 749 L542 749 L523 749 L469 749 L469 748 L501 742 C514 739 523 723 523 642 L523 642 L525 224 L506 253 L163 749 L133 749 L100 749 L69 749 L3 749 L-24 749 L-24 748 L7 744 L100 611 L99 137 L99 137 C99 29 97 8 93 7 L44 1 L44 0 L99 0 L118 0 L137 0 L192 0 L192 1 L143 7 C139 8 136 27 137 127 L137 127 Z " />
<glyph glyph-name="Ograve" unicode="&#xd2;" horiz-adv-x="834" d="M396 -5 C271 -5 187 147 187 375 C187 603 274 755 404 755 C541 755 632 603 632 375 C632 147 538 -5 396 -5 L396 -5 Z M40 375 C40 144 182 -10 395 -10 C625 -10 779 144 779 375 C779 606 629 760 405 760 C186 760 40 606 40 375 L40 375 Z M314 981 C288 1020 268 1046 260 1046 C229 1046 202 1019 202 988 C202 979 226 957 262 929 L406 811 L421 826 L314 981 L314 981 Z " />
<glyph glyph-name="Oacute" unicode="&#xd3;" horiz-adv-x="834" d="M413 811 L558 929 C593 958 617 981 617 988 C617 1019 591 1046 560 1046 C553 1046 532 1020 505 981 L399 826 L413 811 L413 811 Z M396 -5 C271 -5 187 147 187 375 C187 603 274 755 404 755 C541 755 632 603 632 375 C632 147 538 -5 396 -5 L396 -5 Z M40 375 C40 144 182 -10 395 -10 C625 -10 779 144 779 375 C779 606 629 760 405 760 C186 760 40 606 40 375 L40 375 Z " />
<glyph glyph-name="Ocircumflex" unicode="&#xd4;" horiz-adv-x="834" d="M396 -5 C271 -5 187 147 187 375 C187 603 274 755 404 755 C541 755 632 603 632 375 C632 147 538 -5 396 -5 L396 -5 Z M40 375 C40 144 182 -10 395 -10 C625 -10 779 144 779 375 C779 606 629 760 405 760 C186 760 40 606 40 375 L40 375 Z M405 922 L544 805 L559 818 L446 996 C438 1008 418 1037 405 1037 C391 1037 372 1009 364 996 L250 818 L266 805 L405 922 L405 922 Z " />
<glyph glyph-name="Otilde" unicode="&#xd5;" horiz-adv-x="834" d="M292 870 C292 903 305 925 324 925 C373 925 404 860 453 860 C493 860 520 916 520 1001 L517 1001 C517 965 502 941 479 941 C430 941 399 1006 350 1006 C314 1006 289 952 289 870 L292 870 L292 870 Z M396 -5 C271 -5 187 147 187 375 C187 603 274 755 404 755 C541 755 632 603 632 375 C632 147 538 -5 396 -5 L396 -5 Z M40 375 C40 144 182 -10 395 -10 C625 -10 779 144 779 375 C779 606 629 760 405 760 C186 760 40 606 40 375 L40 375 Z " />
<glyph glyph-name="Odieresis" unicode="&#xd6;" horiz-adv-x="834" d="M481 865 C525 865 555 895 555 939 C555 984 525 1014 481 1014 C436 1014 406 984 406 939 C406 895 436 865 481 865 L481 865 Z M329 865 C373 865 403 895 403 939 C403 984 373 1014 329 1014 C285 1014 255 984 255 939 C255 895 285 865 329 865 L329 865 Z M396 -5 C271 -5 187 147 187 375 C187 603 274 755 404 755 C541 755 632 603 632 375 C632 147 538 -5 396 -5 L396 -5 Z M40 375 C40 144 182 -10 395 -10 C625 -10 779 144 779 375 C779 606 629 760 405 760 C186 760 40 606 40 375 L40 375 Z " />
<glyph glyph-name="Oslash" unicode="&#xd8;" horiz-adv-x="834" d="M43 -13 L143 91 C205 27 292 -10 396 -10 C626 -10 780 144 780 375 C780 488 744 583 681 650 L784 757 L777 763 L675 656 C610 722 517 760 406 760 C187 760 41 606 41 375 C41 260 76 164 138 97 L38 -7 L43 -13 L43 -13 Z M397 -5 C316 -5 252 59 217 167 L606 571 C624 515 634 449 634 375 C634 147 540 -5 398 -5 L397 -5 L397 -5 Z M215 176 C198 232 189 299 189 374 C189 602 276 754 406 754 C496 754 566 689 604 580 L215 176 L215 176 Z " />
<glyph glyph-name="Ugrave" unicode="&#xd9;" horiz-adv-x="675" d="M241 981 C215 1020 195 1046 186 1046 C155 1046 129 1019 129 988 C129 979 153 957 188 929 L333 811 L347 826 L241 981 L241 981 Z M597 97 L597 678 L597 750 L509 750 L422 750 L422 749 L450 743 C461 740 468 729 468 678 L468 191 C435 120 368 73 300 73 C237 73 195 128 195 211 L195 678 L195 750 L108 750 L20 750 L20 749 L49 743 C59 740 66 729 66 678 L66 211 C66 78 139 -10 248 -10 C340 -10 428 47 468 133 L468 97 L468 0 L488 0 L642 49 C604 74 597 81 597 97 L597 97 Z " />
<glyph glyph-name="Uacute" unicode="&#xda;" horiz-adv-x="675" d="M340 811 L485 929 C520 958 544 981 544 988 C544 1019 517 1046 486 1046 C480 1046 459 1020 432 981 L326 826 L340 811 L340 811 Z M597 97 L597 678 L597 750 L509 750 L422 750 L422 749 L450 743 C461 740 468 729 468 678 L468 191 C435 120 368 73 300 73 C237 73 195 128 195 211 L195 678 L195 750 L108 750 L20 750 L20 749 L49 743 C59 740 66 729 66 678 L66 211 C66 78 139 -10 248 -10 C340 -10 428 47 468 133 L468 97 L468 0 L488 0 L642 49 C604 74 597 81 597 97 L597 97 Z " />
<glyph glyph-name="Ucircumflex" unicode="&#xdb;" horiz-adv-x="675" d="M332 921 L470 805 L486 818 L372 996 C364 1008 345 1037 331 1037 C318 1037 299 1009 291 996 L177 818 L193 805 L332 921 L332 921 Z M597 97 L597 678 L597 750 L509 750 L422 750 L422 749 L450 743 C461 740 468 729 468 678 L468 191 C435 120 368 73 300 73 C237 73 195 128 195 211 L195 678 L195 750 L108 750 L20 750 L20 749 L49 743 C59 740 66 729 66 678 L66 211 C66 78 139 -10 248 -10 C340 -10 428 47 468 133 L468 97 L468 0 L488 0 L642 49 C604 74 597 81 597 97 L597 97 Z " />
<glyph glyph-name="Udieresis" unicode="&#xdc;" horiz-adv-x="675" d="M407 865 C452 865 482 895 482 939 C482 984 452 1014 407 1014 C363 1014 333 984 333 939 C333 895 363 865 407 865 L407 865 Z M256 865 C300 865 330 895 330 939 C330 984 300 1014 256 1014 C211 1014 181 984 181 939 C181 895 211 865 256 865 L256 865 Z M597 97 L597 678 L597 750 L509 750 L422 750 L422 749 L450 743 C461 740 468 729 468 678 L468 191 C435 120 368 73 300 73 C237 73 195 128 195 211 L195 678 L195 750 L108 750 L20 750 L20 749 L49 743 C59 740 66 729 66 678 L66 211 C66 78 139 -10 248 -10 C340 -10 428 47 468 133 L468 97 L468 0 L488 0 L642 49 C604 74 597 81 597 97 L597 97 Z " />
<glyph glyph-name="Yacute" unicode="&#xdd;" horiz-adv-x="630" d="M333 811 L477 929 C513 958 537 981 537 988 C537 1019 510 1046 479 1046 C473 1046 452 1020 425 981 L319 826 L333 811 L333 811 Z M176 743 L218 749 L218 750 L172 750 L106 750 L21 750 L-7 750 L-7 749 L24 745 L260 316 L260 67 C260 20 253 10 242 7 L214 1 L214 0 L324 0 L435 0 L435 1 L406 7 C396 10 389 20 389 67 L389 337 L574 744 L613 749 L613 750 L577 750 L567 750 L521 750 L521 749 L564 743 L517 638 C516 636 515 634 514 632 L514 632 L386 343 L176 743 L176 743 Z " />
<glyph glyph-name="agrave" unicode="&#xe0;" horiz-adv-x="478" d="M125 731 C99 770 79 796 71 796 C40 796 13 769 13 738 C13 729 37 707 72 679 L217 561 L231 576 L125 731 L125 731 Z M320 62 L320 -10 L340 -10 L472 23 L472 24 L448 24 C440 25 435 40 435 121 L435 450 L435 510 L421 510 L349 467 C317 493 271 510 216 510 C99 510 39 406 39 249 C39 97 103 -5 199 -5 C241 -5 288 21 319 61 L320 62 L320 62 Z M319 404 L319 101 C293 66 264 43 246 43 C191 43 155 138 155 281 C155 398 180 477 228 477 C273 477 306 446 319 405 L319 404 L319 404 Z " />
<glyph glyph-name="aacute" unicode="&#xe1;" horiz-adv-x="478" d="M224 561 L369 679 C404 708 428 731 428 738 C428 769 402 796 371 796 C364 796 343 770 316 731 L210 576 L224 561 L224 561 Z M320 62 L320 -10 L340 -10 L472 23 L472 24 L448 24 C440 25 435 40 435 121 L435 450 L435 510 L421 510 L349 467 C317 493 271 510 216 510 C99 510 39 406 39 249 C39 97 103 -5 199 -5 C241 -5 288 21 319 61 L320 62 L320 62 Z M319 404 L319 101 C293 66 264 43 246 43 C191 43 155 138 155 281 C155 398 180 477 228 477 C273 477 306 446 319 405 L319 404 L319 404 Z " />
<glyph glyph-name="acircumflex" unicode="&#xe2;" horiz-adv-x="478" d="M216 671 L354 555 L370 568 L256 746 C248 758 229 787 216 787 C202 787 183 759 175 746 L61 568 L77 555 L216 671 L216 671 Z M320 62 L320 -10 L340 -10 L472 23 L472 24 L448 24 C440 25 435 40 435 121 L435 450 L435 510 L421 510 L349 467 C317 493 271 510 216 510 C99 510 39 406 39 249 C39 97 103 -5 199 -5 C241 -5 288 21 319 61 L320 62 L320 62 Z M319 404 L319 101 C293 66 264 43 246 43 C191 43 155 138 155 281 C155 398 180 477 228 477 C273 477 306 446 319 405 L319 404 L319 404 Z " />
<glyph glyph-name="atilde" unicode="&#xe3;" horiz-adv-x="478" d="M103 620 C103 653 116 675 135 675 C183 675 215 610 264 610 C304 610 331 666 331 751 L328 751 C328 715 313 691 290 691 C241 691 210 756 161 756 C124 756 100 702 100 620 L103 620 L103 620 Z M320 62 L320 -10 L340 -10 L472 23 L472 24 L448 24 C440 25 435 40 435 121 L435 450 L435 510 L421 510 L349 467 C317 493 271 510 216 510 C99 510 39 406 39 249 C39 97 103 -5 199 -5 C241 -5 288 21 319 61 L320 62 L320 62 Z M319 404 L319 101 C293 66 264 43 246 43 C191 43 155 138 155 281 C155 398 180 477 228 477 C273 477 306 446 319 405 L319 404 L319 404 Z " />
<glyph glyph-name="adieresis" unicode="&#xe4;" horiz-adv-x="478" d="M291 615 C336 615 366 645 366 689 C366 734 336 764 291 764 C247 764 217 734 217 689 C217 645 247 615 291 615 L291 615 Z M140 615 C184 615 214 645 214 689 C214 734 184 764 140 764 C95 764 65 734 65 689 C65 645 95 615 140 615 L140 615 Z M320 62 L320 -10 L340 -10 L472 23 L472 24 L448 24 C440 25 435 40 435 121 L435 450 L435 510 L421 510 L349 467 C317 493 271 510 216 510 C99 510 39 406 39 249 C39 97 103 -5 199 -5 C241 -5 288 21 319 61 L320 62 L320 62 Z M319 404 L319 101 C293 66 264 43 246 43 C191 43 155 138 155 281 C155 398 180 477 228 477 C273 477 306 446 319 405 L319 404 L319 404 Z " />
<glyph glyph-name="aring" unicode="&#xe5;" horiz-adv-x="478" d="M216 587 C181 587 151 618 151 655 C151 696 177 723 216 723 C254 723 280 696 280 655 C280 618 250 587 216 587 L216 587 Z M117 655 C117 604 162 560 216 560 C269 560 314 604 314 655 C314 712 275 750 216 750 C156 750 117 712 117 655 L117 655 Z M320 62 L320 -10 L340 -10 L472 23 L472 24 L448 24 C440 25 435 40 435 121 L435 450 L435 510 L421 510 L349 467 C317 493 271 510 216 510 C99 510 39 406 39 249 C39 97 103 -5 199 -5 C241 -5 288 21 319 61 L320 62 L320 62 Z M319 404 L319 101 C293 66 264 43 246 43 C191 43 155 138 155 281 C155 398 180 477 228 477 C273 477 306 446 319 405 L319 404 L319 404 Z " />
<glyph glyph-name="egrave" unicode="&#xe8;" horiz-adv-x="475" d="M169 731 C144 770 124 796 115 796 C84 796 58 769 58 738 C58 729 82 707 117 679 L261 561 L276 576 L169 731 L169 731 Z M158 340 L318 340 L414 340 L446 340 C424 462 354 510 260 510 C124 510 33 397 33 228 C33 85 115 -10 239 -10 C324 -10 402 46 432 131 L418 136 C403 94 343 66 267 66 C199 66 154 150 154 275 C154 298 155 320 158 340 L158 340 Z M396 374 C402 374 408 374 414 374 L396 374 L396 374 Z M312 371 L162 367 C177 439 210 483 253 483 C274 483 295 451 312 370 L312 371 L312 371 Z " />
<glyph glyph-name="eacute" unicode="&#xe9;" horiz-adv-x="475" d="M269 561 L413 679 C448 708 472 731 472 738 C472 769 446 796 415 796 C408 796 387 770 361 731 L254 576 L269 561 L269 561 Z M158 340 L318 340 L414 340 L446 340 C424 462 354 510 260 510 C124 510 33 397 33 228 C33 85 115 -10 239 -10 C324 -10 402 46 432 131 L418 136 C403 94 343 66 267 66 C199 66 154 150 154 275 C154 298 155 320 158 340 L158 340 Z M396 374 C402 374 408 374 414 374 L396 374 L396 374 Z M312 371 L162 367 C177 439 210 483 253 483 C274 483 295 451 312 370 L312 371 L312 371 Z " />
<glyph glyph-name="ecircumflex" unicode="&#xea;" horiz-adv-x="475" d="M260 672 L399 555 L414 568 L301 746 C293 758 273 787 260 787 C246 787 227 759 220 746 L106 568 L121 555 L260 672 L260 672 Z M158 340 L318 340 L414 340 L446 340 C424 462 354 510 260 510 C124 510 33 397 33 228 C33 85 115 -10 239 -10 C324 -10 402 46 432 131 L418 136 C403 94 343 66 267 66 C199 66 154 150 154 275 C154 298 155 320 158 340 L158 340 Z M396 374 C402 374 408 374 414 374 L396 374 L396 374 Z M312 371 L162 367 C177 439 210 483 253 483 C274 483 295 451 312 370 L312 371 L312 371 Z " />
<glyph glyph-name="edieresis" unicode="&#xeb;" horiz-adv-x="475" d="M336 615 C380 615 410 645 410 689 C410 734 380 764 336 764 C291 764 261 734 261 689 C261 645 291 615 336 615 L336 615 Z M184 615 C229 615 259 645 259 689 C259 734 229 764 184 764 C140 764 110 734 110 689 C110 645 140 615 184 615 L184 615 Z M158 340 L318 340 L414 340 L446 340 C424 462 354 510 260 510 C124 510 33 397 33 228 C33 85 115 -10 239 -10 C324 -10 402 46 432 131 L418 136 C403 94 343 66 267 66 C199 66 154 150 154 275 C154 298 155 320 158 340 L158 340 Z M396 374 C402 374 408 374 414 374 L396 374 L396 374 Z M312 371 L162 367 C177 439 210 483 253 483 C274 483 295 451 312 370 L312 371 L312 371 Z " />
<glyph glyph-name="igrave" unicode="&#xec;" horiz-adv-x="295" d="M74 731 C48 770 28 796 20 796 C-11 796 -38 769 -38 738 C-38 729 -14 707 22 679 L166 561 L181 576 L74 731 L74 731 Z M222 22 L222 396 L222 500 L202 500 L72 445 L72 444 C101 425 107 418 107 396 L107 22 C107 12 102 9 95 7 L72 1 L72 0 L165 0 L259 0 L259 1 L235 7 C227 10 222 13 222 22 L222 22 Z " />
<glyph glyph-name="iacute" unicode="&#xed;" horiz-adv-x="295" d="M74 731 C48 770 28 796 20 796 C-11 796 -38 769 -38 738 C-38 729 -14 707 22 679 L166 561 L181 576 L74 731 L74 731 Z M222 22 L222 396 L222 500 L202 500 L72 445 L72 444 C101 425 107 418 107 396 L107 22 C107 12 102 9 95 7 L72 1 L72 0 L165 0 L259 0 L259 1 L235 7 C227 10 222 13 222 22 L222 22 Z " />
<glyph glyph-name="icircumflex" unicode="&#xee;" horiz-adv-x="295" d="M165 672 L304 555 L319 568 L205 746 C198 758 178 787 165 787 C151 787 132 759 124 746 L10 568 L26 555 L165 672 L165 672 Z M222 22 L222 396 L222 500 L202 500 L72 445 L72 444 C101 425 107 418 107 396 L107 22 C107 12 102 9 95 7 L72 1 L72 0 L165 0 L259 0 L259 1 L235 7 C227 10 222 13 222 22 L222 22 Z " />
<glyph glyph-name="idieresis" unicode="&#xef;" horiz-adv-x="295" d="M241 615 C285 615 315 645 315 689 C315 734 285 764 241 764 C196 764 166 734 166 689 C166 645 196 615 241 615 L241 615 Z M89 615 C133 615 163 645 163 689 C163 734 133 764 89 764 C44 764 14 734 14 689 C14 645 44 615 89 615 L89 615 Z M222 22 L222 396 L222 500 L202 500 L72 445 L72 444 C101 425 107 418 107 396 L107 22 C107 12 102 9 95 7 L72 1 L72 0 L165 0 L259 0 L259 1 L235 7 C227 10 222 13 222 22 L222 22 Z " />
<glyph glyph-name="ntilde" unicode="&#xf1;" horiz-adv-x="517" d="M142 620 C142 653 155 675 174 675 C222 675 254 610 302 610 C343 610 370 666 370 751 L367 751 C367 715 352 691 329 691 C280 691 249 756 200 756 C163 756 139 702 139 620 L142 620 L142 620 Z M329 22 C329 12 324 9 317 7 L294 1 L294 0 L387 0 L479 0 L479 1 L456 7 C449 9 444 12 444 22 L444 317 C444 433 404 510 325 510 C258 510 200 466 180 401 L180 438 L180 500 L159 500 L27 452 L27 451 L51 453 C60 454 65 446 65 404 L65 22 C65 12 60 9 53 7 L30 1 L30 0 L122 0 L215 0 L215 1 L192 7 C185 9 180 12 180 22 L180 384 C193 427 239 456 294 456 C317 456 329 400 329 317 L329 22 L329 22 Z " />
<glyph glyph-name="ograve" unicode="&#xf2;" horiz-adv-x="565" d="M276 -5 C206 -5 159 97 159 250 C159 403 206 505 276 505 C346 505 393 403 393 250 C393 97 346 -5 276 -5 L276 -5 Z M32 250 C32 94 130 -10 276 -10 C422 -10 520 94 520 250 C520 406 422 510 276 510 C130 510 32 406 32 250 L32 250 Z M186 731 C160 770 140 796 131 796 C100 796 74 769 74 738 C74 729 98 707 133 679 L278 561 L292 576 L186 731 L186 731 Z " />
<glyph glyph-name="oacute" unicode="&#xf3;" horiz-adv-x="565" d="M285 561 L429 679 C465 708 489 731 489 738 C489 769 462 796 431 796 C425 796 404 770 377 731 L270 576 L285 561 L285 561 Z M276 -5 C206 -5 159 97 159 250 C159 403 206 505 276 505 C346 505 393 403 393 250 C393 97 346 -5 276 -5 L276 -5 Z M32 250 C32 94 130 -10 276 -10 C422 -10 520 94 520 250 C520 406 422 510 276 510 C130 510 32 406 32 250 L32 250 Z " />
<glyph glyph-name="ocircumflex" unicode="&#xf4;" horiz-adv-x="565" d="M276 -5 C206 -5 159 97 159 250 C159 403 206 505 276 505 C346 505 393 403 393 250 C393 97 346 -5 276 -5 L276 -5 Z M32 250 C32 94 130 -10 276 -10 C422 -10 520 94 520 250 C520 406 422 510 276 510 C130 510 32 406 32 250 L32 250 Z M276 671 L415 555 L431 568 L317 746 C309 758 290 787 276 787 C263 787 244 759 236 746 L122 568 L137 555 L276 671 L276 671 Z " />
<glyph glyph-name="otilde" unicode="&#xf5;" horiz-adv-x="565" d="M164 620 C164 653 177 675 195 675 C244 675 275 610 324 610 C365 610 392 666 392 751 L389 751 C389 715 374 691 351 691 C302 691 270 756 222 756 C185 756 161 702 161 620 L164 620 L164 620 Z M276 -5 C206 -5 159 97 159 250 C159 403 206 505 276 505 C346 505 393 403 393 250 C393 97 346 -5 276 -5 L276 -5 Z M32 250 C32 94 130 -10 276 -10 C422 -10 520 94 520 250 C520 406 422 510 276 510 C130 510 32 406 32 250 L32 250 Z " />
<glyph glyph-name="odieresis" unicode="&#xf6;" horiz-adv-x="565" d="M352 615 C397 615 427 645 427 689 C427 734 397 764 352 764 C308 764 278 734 278 689 C278 645 308 615 352 615 L352 615 Z M200 615 C245 615 275 645 275 689 C275 734 245 764 200 764 C156 764 126 734 126 689 C126 645 156 615 200 615 L200 615 Z M276 -5 C206 -5 159 97 159 250 C159 403 206 505 276 505 C346 505 393 403 393 250 C393 97 346 -5 276 -5 L276 -5 Z M32 250 C32 94 130 -10 276 -10 C422 -10 520 94 520 250 C520 406 422 510 276 510 C130 510 32 406 32 250 L32 250 Z " />
<glyph glyph-name="oslash" unicode="&#xf8;" horiz-adv-x="565" d="M34 -12 L101 60 C144 16 204 -9 276 -9 C422 -9 520 95 520 251 C520 328 496 392 454 437 L521 509 L517 513 L450 441 C407 485 347 510 275 510 C129 510 31 406 31 250 C31 173 55 109 97 64 L30 -8 L34 -12 L34 -12 Z M276 -5 C226 -5 188 47 170 133 L384 361 C390 328 393 291 393 250 C393 97 346 -5 276 -5 L276 -5 Z M169 140 C163 173 160 210 160 251 C160 404 207 506 277 506 C327 506 365 454 383 368 L169 140 L169 140 Z " />
<glyph glyph-name="ugrave" unicode="&#xf9;" horiz-adv-x="478" d="M139 731 C113 770 93 796 84 796 C53 796 27 769 27 738 C27 729 51 707 86 679 L231 561 L245 576 L139 731 L139 731 Z M295 77 L295 -10 L315 -10 L447 23 L447 24 L423 24 C415 25 410 37 410 101 L410 478 L410 500 L338 500 L266 500 L266 499 L286 493 C291 491 295 488 295 478 L295 130 C278 94 250 70 222 70 C188 70 165 103 165 153 L165 478 L165 500 L93 500 L21 500 L21 499 L41 493 C46 491 50 488 50 478 L50 153 C50 55 97 -10 168 -10 C213 -10 263 42 296 123 L295 77 L295 77 Z " />
<glyph glyph-name="uacute" unicode="&#xfa;" horiz-adv-x="478" d="M238 561 L382 679 C418 708 442 731 442 738 C442 769 415 796 384 796 C378 796 357 770 330 731 L223 576 L238 561 L238 561 Z M295 77 L295 -10 L315 -10 L447 23 L447 24 L423 24 C415 25 410 37 410 101 L410 478 L410 500 L338 500 L266 500 L266 499 L286 493 C291 491 295 488 295 478 L295 130 C278 94 250 70 222 70 C188 70 165 103 165 153 L165 478 L165 500 L93 500 L21 500 L21 499 L41 493 C46 491 50 488 50 478 L50 153 C50 55 97 -10 168 -10 C213 -10 263 42 296 123 L295 77 L295 77 Z " />
<glyph glyph-name="ucircumflex" unicode="&#xfb;" horiz-adv-x="478" d="M229 671 L368 555 L384 568 L270 746 C262 758 243 787 229 787 C216 787 197 759 189 746 L75 568 L90 555 L229 671 L229 671 Z M295 77 L295 -10 L315 -10 L447 23 L447 24 L423 24 C415 25 410 37 410 101 L410 478 L410 500 L338 500 L266 500 L266 499 L286 493 C291 491 295 488 295 478 L295 130 C278 94 250 70 222 70 C188 70 165 103 165 153 L165 478 L165 500 L93 500 L21 500 L21 499 L41 493 C46 491 50 488 50 478 L50 153 C50 55 97 -10 168 -10 C213 -10 263 42 296 123 L295 77 L295 77 Z " />
<glyph glyph-name="udieresis" unicode="&#xfc;" horiz-adv-x="478" d="M305 615 C349 615 379 645 379 689 C379 734 349 764 305 764 C261 764 231 734 231 689 C231 645 261 615 305 615 L305 615 Z M153 615 C198 615 228 645 228 689 C228 734 198 764 153 764 C109 764 79 734 79 689 C79 645 109 615 153 615 L153 615 Z M295 77 L295 -10 L315 -10 L447 23 L447 24 L423 24 C415 25 410 37 410 101 L410 478 L410 500 L338 500 L266 500 L266 499 L286 493 C291 491 295 488 295 478 L295 130 C278 94 250 70 222 70 C188 70 165 103 165 153 L165 478 L165 500 L93 500 L21 500 L21 499 L41 493 C46 491 50 488 50 478 L50 153 C50 55 97 -10 168 -10 C213 -10 263 42 296 123 L295 77 L295 77 Z " />
<glyph glyph-name="ydieresis" unicode="&#xff;" horiz-adv-x="482" d="M338 615 C382 615 412 645 412 689 C412 734 382 764 338 764 C293 764 263 734 263 689 C263 645 293 615 338 615 L338 615 Z M186 615 C230 615 260 645 260 689 C260 734 230 764 186 764 C142 764 112 734 112 689 C112 645 142 615 186 615 L186 615 Z M24 494 L227 -10 L189 -140 C184 -155 172 -165 159 -165 C131 -165 121 -124 93 -124 C53 -124 27 -147 27 -182 C27 -224 54 -253 95 -253 C148 -253 194 -220 210 -171 L261 -10 L427 494 L465 499 L465 500 L429 500 L400 500 L376 500 L334 500 L334 499 L374 493 L367 469 C366 467 365 465 364 463 L364 463 L226 -10 L271 146 L159 466 L159 466 C159 467 159 468 159 469 L150 494 L181 499 L181 500 L148 500 L86 500 L22 500 L-8 500 L-8 499 L24 494 L24 494 Z " />
<glyph glyph-name="Amacron" unicode="&#x100;" horiz-adv-x="646" d="M195 890 L430 890 L430 970 L195 970 L195 890 L195 890 Z M124 157 L124 157 L157 294 L368 294 L416 127 L416 127 C445 27 448 8 444 7 L394 1 L394 0 L453 0 L512 0 L588 0 L629 0 L629 1 L586 7 L377 709 L359 770 L345 770 C323 739 285 715 248 709 L251 699 L118 157 L118 157 C88 32 78 8 73 7 L21 1 L21 0 L80 0 L86 0 L89 0 L158 0 L158 1 L101 7 C93 8 94 33 124 157 L124 157 Z M158 299 L253 691 L366 299 L158 299 L158 299 Z " />
<glyph glyph-name="amacron" unicode="&#x101;" horiz-adv-x="478" d="M98 640 L333 640 L333 720 L98 720 L98 640 L98 640 Z M320 62 L320 -10 L340 -10 L472 23 L472 24 L448 24 C440 25 435 40 435 121 L435 450 L435 510 L421 510 L349 467 C317 493 271 510 216 510 C99 510 39 406 39 249 C39 97 103 -5 199 -5 C241 -5 288 21 319 61 L320 62 L320 62 Z M319 404 L319 101 C293 66 264 43 246 43 C191 43 155 138 155 281 C155 398 180 477 228 477 C273 477 306 446 319 405 L319 404 L319 404 Z " />
<glyph glyph-name="Abreve" unicode="&#x102;" horiz-adv-x="646" d="M193 994 C203 910 251 854 312 854 C374 854 422 909 431 992 L407 995 C403 959 365 935 312 935 C260 935 222 960 218 998 L193 994 L193 994 Z M124 157 L124 157 L157 294 L368 294 L416 127 L416 127 C445 27 448 8 444 7 L394 1 L394 0 L453 0 L512 0 L588 0 L629 0 L629 1 L586 7 L377 709 L359 770 L345 770 C323 739 285 715 248 709 L251 699 L118 157 L118 157 C88 32 78 8 73 7 L21 1 L21 0 L80 0 L86 0 L89 0 L158 0 L158 1 L101 7 C93 8 94 33 124 157 L124 157 Z M158 299 L253 691 L366 299 L158 299 L158 299 Z " />
<glyph glyph-name="abreve" unicode="&#x103;" horiz-adv-x="478" d="M97 744 C106 660 154 604 216 604 C277 604 325 659 335 742 L311 745 C306 709 268 685 216 685 C163 685 125 710 121 748 L97 744 L97 744 Z M320 62 L320 -10 L340 -10 L472 23 L472 24 L448 24 C440 25 435 40 435 121 L435 450 L435 510 L421 510 L349 467 C317 493 271 510 216 510 C99 510 39 406 39 249 C39 97 103 -5 199 -5 C241 -5 288 21 319 61 L320 62 L320 62 Z M319 404 L319 101 C293 66 264 43 246 43 C191 43 155 138 155 281 C155 398 180 477 228 477 C273 477 306 446 319 405 L319 404 L319 404 Z " />
<glyph glyph-name="Cacute" unicode="&#x106;" horiz-adv-x="708" d="M418 811 L562 929 C597 958 621 981 621 988 C621 1019 595 1046 564 1046 C557 1046 536 1020 510 981 L403 826 L418 811 L418 811 Z M571 720 L570 720 C529 745 479 760 410 760 C190 760 43 606 43 375 C43 144 186 -10 401 -10 C469 -10 523 6 569 33 C579 38 622 60 659 79 C663 81 666 76 666 66 L666 118 L666 124 L666 181 C666 181 663 177 659 172 C652 164 644 155 635 145 L634 146 C629 140 624 134 619 128 C587 94 549 58 520 37 C482 11 443 -4 401 -4 C270 -4 182 148 182 377 C182 605 273 757 410 757 C438 757 463 751 487 739 L487 739 C518 725 570 678 613 632 C620 624 627 616 634 608 L635 609 C643 599 651 590 658 581 C662 575 665 571 665 571 L665 628 L665 635 L665 685 C665 685 662 680 658 672 C657 671 621 690 570 723 L571 720 L571 720 Z " />
<glyph glyph-name="Ccircumflex" unicode="&#x108;" horiz-adv-x="708" d="M571 720 L570 720 C529 745 479 760 410 760 C190 760 43 606 43 375 C43 144 186 -10 401 -10 C469 -10 523 6 569 33 C579 38 622 60 659 79 C663 81 666 76 666 66 L666 118 L666 124 L666 181 C666 181 663 177 659 172 C652 164 644 155 635 145 L634 146 C629 140 624 134 619 128 C587 94 549 58 520 37 C482 11 443 -4 401 -4 C270 -4 182 148 182 377 C182 605 273 757 410 757 C438 757 463 751 487 739 L487 739 C518 725 570 678 613 632 C620 624 627 616 634 608 L635 609 C643 599 651 590 658 581 C662 575 665 571 665 571 L665 628 L665 635 L665 685 C665 685 662 680 658 672 C657 671 621 690 570 723 L571 720 L571 720 Z M408 925 L547 808 L562 821 L449 999 C441 1011 421 1040 408 1040 C395 1040 376 1012 368 999 L254 821 L269 808 L408 925 L408 925 Z " />
<glyph glyph-name="Cdot" unicode="&#x10a;" horiz-adv-x="708" d="M409 865 C453 865 483 895 483 939 C483 984 453 1014 409 1014 C365 1014 335 984 335 939 C335 895 365 865 409 865 L409 865 Z M571 720 L570 720 C529 745 479 760 410 760 C190 760 43 606 43 375 C43 144 186 -10 401 -10 C469 -10 523 6 569 33 C579 38 622 60 659 79 C663 81 666 76 666 66 L666 118 L666 124 L666 181 C666 181 663 177 659 172 C652 164 644 155 635 145 L634 146 C629 140 624 134 619 128 C587 94 549 58 520 37 C482 11 443 -4 401 -4 C270 -4 182 148 182 377 C182 605 273 757 410 757 C438 757 463 751 487 739 L487 739 C518 725 570 678 613 632 C620 624 627 616 634 608 L635 609 C643 599 651 590 658 581 C662 575 665 571 665 571 L665 628 L665 635 L665 685 C665 685 662 680 658 672 C657 671 621 690 570 723 L571 720 L571 720 Z " />
<glyph glyph-name="cdot" unicode="&#x10b;" horiz-adv-x="471" d="M290 615 C335 615 365 645 365 689 C365 734 335 764 290 764 C246 764 216 734 216 689 C216 645 246 615 290 615 L290 615 Z M441 128 L425 135 C405 90 362 60 318 60 C221 60 156 147 156 277 C156 401 207 484 284 484 C296 484 316 452 333 405 C346 371 369 348 391 348 C438 348 461 371 448 405 C425 468 362 510 290 510 C136 510 33 400 33 234 C33 88 131 -10 277 -10 C339 -10 404 45 441 128 L441 128 Z " />
<glyph glyph-name="Ccaron" unicode="&#x10c;" horiz-adv-x="708" d="M571 720 L570 720 C529 745 479 760 410 760 C190 760 43 606 43 375 C43 144 186 -10 401 -10 C469 -10 523 6 569 33 C579 38 622 60 659 79 C663 81 666 76 666 66 L666 118 L666 124 L666 181 C666 181 663 177 659 172 C652 164 644 155 635 145 L634 146 C629 140 624 134 619 128 C587 94 549 58 520 37 C482 11 443 -4 401 -4 C270 -4 182 148 182 377 C182 605 273 757 410 757 C438 757 463 751 487 739 L487 739 C518 725 570 678 613 632 C620 624 627 616 634 608 L635 609 C643 599 651 590 658 581 C662 575 665 571 665 571 L665 628 L665 635 L665 685 C665 685 662 680 658 672 C657 671 621 690 570 723 L571 720 L571 720 Z M408 931 L547 1048 L562 1035 L449 857 C441 845 421 816 408 816 C395 816 376 844 368 857 L254 1035 L269 1048 L408 931 L408 931 Z " />
<glyph glyph-name="ccaron" unicode="&#x10d;" horiz-adv-x="471" d="M441 128 L425 135 C405 90 362 60 318 60 C221 60 156 147 156 277 C156 401 207 484 284 484 C296 484 316 452 333 405 C346 371 369 348 391 348 C438 348 461 371 448 405 C425 468 362 510 290 510 C136 510 33 400 33 234 C33 88 131 -10 277 -10 C339 -10 404 45 441 128 L441 128 Z M291 679 L429 795 L445 782 L331 604 C323 592 304 563 290 563 C277 563 258 591 250 604 L136 782 L152 795 L291 679 L291 679 Z " />
<glyph glyph-name="Dcaron" unicode="&#x10e;" horiz-adv-x="790" d="M348 928 L487 1045 L502 1032 L388 854 C381 842 361 813 348 813 C334 813 315 841 307 854 L193 1032 L209 1045 L348 928 L348 928 Z M101 678 L101 72 C101 21 94 10 84 7 L55 1 L55 0 L101 0 L143 0 L230 0 L292 0 C558 0 735 127 735 375 C735 600 595 750 324 750 L230 750 L143 750 L101 750 L55 750 L55 749 L84 743 C94 740 101 729 101 678 L101 678 Z M230 746 L308 746 C497 746 594 598 594 375 C594 130 471 4 287 4 C236 4 230 23 230 51 L230 72 L230 678 L230 746 L230 746 Z " />
<glyph glyph-name="dcaron" unicode="&#x10f;" horiz-adv-x="513" d="M579 636 C595 671 605 713 605 740 C605 753 584 757 554 757 C530 757 521 694 520 649 L515 536 L535 533 L579 636 L579 636 Z M355 62 L355 -10 L375 -10 L507 23 L507 24 L483 24 C475 25 470 40 470 121 L470 671 L470 750 L449 750 L317 712 L317 711 L341 712 C350 712 355 701 355 644 L355 484 C322 500 281 510 238 510 C107 510 39 406 39 249 C39 97 111 -5 219 -5 C270 -5 323 21 355 61 L355 62 L355 62 Z M355 396 L355 101 C328 66 293 43 267 43 C200 43 156 138 156 281 C156 398 189 477 252 477 C288 477 330 441 355 396 L355 396 Z " />
<glyph glyph-name="Emacron" unicode="&#x112;" horiz-adv-x="575" d="M182 890 L416 890 L416 970 L182 970 L182 890 L182 890 Z M414 0 L521 0 C522 9 524 21 525 29 C526 38 528 50 529 59 L528 59 L518 28 C513 13 494 4 414 4 L281 4 C235 4 230 23 230 51 L230 72 L230 385 L329 385 C408 385 425 373 429 355 L435 324 L436 324 L436 385 L436 387 L436 390 L436 451 L435 451 L429 420 C425 402 408 390 329 390 L230 390 L230 678 L230 746 L389 746 C485 746 487 737 491 722 L499 691 L500 691 C500 700 499 712 498 721 C497 729 497 741 496 750 L389 750 L230 750 L143 750 L101 750 L55 750 L55 749 L84 743 C94 740 101 729 101 678 L101 72 C101 21 94 10 84 7 L55 1 L55 0 L101 0 L143 0 L230 0 L414 0 L414 0 Z " />
<glyph glyph-name="emacron" unicode="&#x113;" horiz-adv-x="475" d="M143 640 L377 640 L377 720 L143 720 L143 640 L143 640 Z M158 340 L318 340 L414 340 L446 340 C424 462 354 510 260 510 C124 510 33 397 33 228 C33 85 115 -10 239 -10 C324 -10 402 46 432 131 L418 136 C403 94 343 66 267 66 C199 66 154 150 154 275 C154 298 155 320 158 340 L158 340 Z M396 374 C402 374 408 374 414 374 L396 374 L396 374 Z M312 371 L162 367 C177 439 210 483 253 483 C274 483 295 451 312 370 L312 371 L312 371 Z " />
<glyph glyph-name="Ebreve" unicode="&#x114;" horiz-adv-x="575" d="M180 994 C189 910 237 854 299 854 C360 854 408 909 418 992 L394 995 C390 959 352 935 299 935 C246 935 208 960 204 998 L180 994 L180 994 Z M414 0 L521 0 C522 9 524 21 525 29 C526 38 528 50 529 59 L528 59 L518 28 C513 13 494 4 414 4 L281 4 C235 4 230 23 230 51 L230 72 L230 385 L329 385 C408 385 425 373 429 355 L435 324 L436 324 L436 385 L436 387 L436 390 L436 451 L435 451 L429 420 C425 402 408 390 329 390 L230 390 L230 678 L230 746 L389 746 C485 746 487 737 491 722 L499 691 L500 691 C500 700 499 712 498 721 C497 729 497 741 496 750 L389 750 L230 750 L143 750 L101 750 L55 750 L55 749 L84 743 C94 740 101 729 101 678 L101 72 C101 21 94 10 84 7 L55 1 L55 0 L101 0 L143 0 L230 0 L414 0 L414 0 Z " />
<glyph glyph-name="ebreve" unicode="&#x115;" horiz-adv-x="475" d="M141 744 C151 660 199 604 260 604 C322 604 369 659 379 742 L355 745 C351 709 313 685 260 685 C207 685 169 710 165 748 L141 744 L141 744 Z M158 340 L318 340 L414 340 L446 340 C424 462 354 510 260 510 C124 510 33 397 33 228 C33 85 115 -10 239 -10 C324 -10 402 46 432 131 L418 136 C403 94 343 66 267 66 C199 66 154 150 154 275 C154 298 155 320 158 340 L158 340 Z M396 374 C402 374 408 374 414 374 L396 374 L396 374 Z M312 371 L162 367 C177 439 210 483 253 483 C274 483 295 451 312 370 L312 371 L312 371 Z " />
<glyph glyph-name="Edot" unicode="&#x116;" horiz-adv-x="575" d="M299 865 C343 865 373 895 373 939 C373 984 343 1014 299 1014 C254 1014 224 984 224 939 C224 895 254 865 299 865 L299 865 Z M414 0 L521 0 C522 9 524 21 525 29 C526 38 528 50 529 59 L528 59 L518 28 C513 13 494 4 414 4 L281 4 C235 4 230 23 230 51 L230 72 L230 385 L329 385 C408 385 425 373 429 355 L435 324 L436 324 L436 385 L436 387 L436 390 L436 451 L435 451 L429 420 C425 402 408 390 329 390 L230 390 L230 678 L230 746 L389 746 C485 746 487 737 491 722 L499 691 L500 691 C500 700 499 712 498 721 C497 729 497 741 496 750 L389 750 L230 750 L143 750 L101 750 L55 750 L55 749 L84 743 C94 740 101 729 101 678 L101 72 C101 21 94 10 84 7 L55 1 L55 0 L101 0 L143 0 L230 0 L414 0 L414 0 Z " />
<glyph glyph-name="edot" unicode="&#x117;" horiz-adv-x="475" d="M260 615 C304 615 334 645 334 689 C334 734 304 764 260 764 C216 764 186 734 186 689 C186 645 216 615 260 615 L260 615 Z M158 340 L318 340 L414 340 L446 340 C424 462 354 510 260 510 C124 510 33 397 33 228 C33 85 115 -10 239 -10 C324 -10 402 46 432 131 L418 136 C403 94 343 66 267 66 C199 66 154 150 154 275 C154 298 155 320 158 340 L158 340 Z M396 374 C402 374 408 374 414 374 L396 374 L396 374 Z M312 371 L162 367 C177 439 210 483 253 483 C274 483 295 451 312 370 L312 371 L312 371 Z " />
<glyph glyph-name="Ecaron" unicode="&#x11a;" horiz-adv-x="575" d="M299 929 L437 1045 L453 1032 L339 854 C332 842 312 813 299 813 C285 813 266 841 258 854 L144 1032 L160 1045 L299 929 L299 929 Z M414 0 L521 0 C522 9 524 21 525 29 C526 38 528 50 529 59 L528 59 L518 28 C513 13 494 4 414 4 L281 4 C235 4 230 23 230 51 L230 72 L230 385 L329 385 C408 385 425 373 429 355 L435 324 L436 324 L436 385 L436 387 L436 390 L436 451 L435 451 L429 420 C425 402 408 390 329 390 L230 390 L230 678 L230 746 L389 746 C485 746 487 737 491 722 L499 691 L500 691 C500 700 499 712 498 721 C497 729 497 741 496 750 L389 750 L230 750 L143 750 L101 750 L55 750 L55 749 L84 743 C94 740 101 729 101 678 L101 72 C101 21 94 10 84 7 L55 1 L55 0 L101 0 L143 0 L230 0 L414 0 L414 0 Z " />
<glyph glyph-name="ecaron" unicode="&#x11b;" horiz-adv-x="475" d="M260 678 L399 795 L414 782 L301 604 C293 592 273 563 260 563 C246 563 227 591 220 604 L106 782 L121 795 L260 678 L260 678 Z M158 340 L318 340 L414 340 L446 340 C424 462 354 510 260 510 C124 510 33 397 33 228 C33 85 115 -10 239 -10 C324 -10 402 46 432 131 L418 136 C403 94 343 66 267 66 C199 66 154 150 154 275 C154 298 155 320 158 340 L158 340 Z M396 374 C402 374 408 374 414 374 L396 374 L396 374 Z M312 371 L162 367 C177 439 210 483 253 483 C274 483 295 451 312 370 L312 371 L312 371 Z " />
<glyph glyph-name="Gcircumflex" unicode="&#x11c;" horiz-adv-x="755" d="M571 720 L570 720 C529 745 479 760 410 760 C190 760 43 606 43 375 C43 144 191 -10 414 -10 C453 -10 490 -7 525 -1 L526 -1 L526 -1 L526 -1 L526 -1 L530 0 C557 5 583 11 608 19 L651 29 L651 33 C674 42 697 52 720 63 L718 66 C699 57 677 49 651 42 L651 258 C651 305 656 315 664 318 L688 324 L688 325 L584 325 L479 325 L479 324 L506 318 C516 315 523 305 523 258 L526 24 L526 24 L524 141 C524 69 484 21 425 21 C280 21 184 163 184 375 C184 603 275 755 412 755 C440 755 465 749 489 737 L489 737 C520 723 572 676 615 630 C622 622 629 614 636 606 L637 607 C645 597 653 588 660 579 C664 573 667 569 667 569 L667 626 L667 633 L667 683 C667 683 664 678 660 670 C659 669 623 688 572 721 L571 720 L571 720 Z M410 923 L549 806 L564 819 L451 997 C443 1009 423 1038 410 1038 C397 1038 378 1010 370 997 L256 819 L271 806 L410 923 L410 923 Z " />
<glyph glyph-name="Gbreve" unicode="&#x11e;" horiz-adv-x="755" d="M290 994 C300 910 348 854 409 854 C471 854 518 909 528 992 L504 995 C500 959 462 935 409 935 C357 935 319 960 314 998 L290 994 L290 994 Z M571 720 L570 720 C529 745 479 760 410 760 C190 760 43 606 43 375 C43 144 191 -10 414 -10 C453 -10 490 -7 525 -1 L526 -1 L526 -1 L526 -1 L526 -1 L530 0 C557 5 583 11 608 19 L651 29 L651 33 C674 42 697 52 720 63 L718 66 C699 57 677 49 651 42 L651 258 C651 305 656 315 664 318 L688 324 L688 325 L584 325 L479 325 L479 324 L506 318 C516 315 523 305 523 258 L526 24 L526 24 L524 141 C524 69 484 21 425 21 C280 21 184 163 184 375 C184 603 275 755 412 755 C440 755 465 749 489 737 L489 737 C520 723 572 676 615 630 C622 622 629 614 636 606 L637 607 C645 597 653 588 660 579 C664 573 667 569 667 569 L667 626 L667 633 L667 683 C667 683 664 678 660 670 C659 669 623 688 572 721 L571 720 L571 720 Z " />
<glyph glyph-name="gbreve" unicode="&#x11f;" horiz-adv-x="476" d="M110 744 C120 660 168 604 229 604 C291 604 339 659 348 742 L324 745 C320 709 282 685 229 685 C177 685 139 710 134 748 L110 744 L110 744 Z M182 350 C182 430 201 483 229 483 C257 483 276 430 276 350 C276 269 257 215 229 215 C201 215 182 269 182 350 L182 350 Z M148 -15 C152 -15 156 -15 160 -15 L263 -15 C323 -15 347 -43 347 -86 C347 -157 307 -204 248 -204 C180 -204 135 -150 135 -70 C135 -46 140 -26 149 -14 L148 -15 L148 -15 Z M116 -7 C70 -23 40 -57 40 -97 C40 -177 120 -230 241 -230 C362 -230 442 -161 442 -59 C442 36 395 99 275 99 L166 99 C138 100 119 115 119 137 C119 168 163 188 230 188 C327 188 392 253 392 350 C392 370 389 388 384 405 C401 431 422 447 439 447 C441 447 442 439 442 426 C442 402 463 386 495 386 C523 386 542 408 542 440 C542 473 520 495 487 495 C443 495 399 470 374 431 C348 481 297 511 231 511 C134 511 69 447 69 351 C69 283 101 231 154 206 C91 191 52 154 52 104 C52 50 77 10 117 -6 L116 -7 L116 -7 Z " />
<glyph glyph-name="Gdot" unicode="&#x120;" horiz-adv-x="755" d="M409 865 C453 865 483 895 483 939 C483 984 453 1014 409 1014 C365 1014 335 984 335 939 C335 895 365 865 409 865 L409 865 Z M571 720 L570 720 C529 745 479 760 410 760 C190 760 43 606 43 375 C43 144 191 -10 414 -10 C453 -10 490 -7 525 -1 L526 -1 L526 -1 L526 -1 L526 -1 L530 0 C557 5 583 11 608 19 L651 29 L651 33 C674 42 697 52 720 63 L718 66 C699 57 677 49 651 42 L651 258 C651 305 656 315 664 318 L688 324 L688 325 L584 325 L479 325 L479 324 L506 318 C516 315 523 305 523 258 L526 24 L526 24 L524 141 C524 69 484 21 425 21 C280 21 184 163 184 375 C184 603 275 755 412 755 C440 755 465 749 489 737 L489 737 C520 723 572 676 615 630 C622 622 629 614 636 606 L637 607 C645 597 653 588 660 579 C664 573 667 569 667 569 L667 626 L667 633 L667 683 C667 683 664 678 660 670 C659 669 623 688 572 721 L571 720 L571 720 Z " />
<glyph glyph-name="gdot" unicode="&#x121;" horiz-adv-x="476" d="M229 615 C274 615 304 645 304 689 C304 734 274 764 229 764 C185 764 155 734 155 689 C155 645 185 615 229 615 L229 615 Z M182 350 C182 430 201 483 229 483 C257 483 276 430 276 350 C276 269 257 215 229 215 C201 215 182 269 182 350 L182 350 Z M148 -15 C152 -15 156 -15 160 -15 L263 -15 C323 -15 347 -43 347 -86 C347 -157 307 -204 248 -204 C180 -204 135 -150 135 -70 C135 -46 140 -26 149 -14 L148 -15 L148 -15 Z M116 -7 C70 -23 40 -57 40 -97 C40 -177 120 -230 241 -230 C362 -230 442 -161 442 -59 C442 36 395 99 275 99 L166 99 C138 100 119 115 119 137 C119 168 163 188 230 188 C327 188 392 253 392 350 C392 370 389 388 384 405 C401 431 422 447 439 447 C441 447 442 439 442 426 C442 402 463 386 495 386 C523 386 542 408 542 440 C542 473 520 495 487 495 C443 495 399 470 374 431 C348 481 297 511 231 511 C134 511 69 447 69 351 C69 283 101 231 154 206 C91 191 52 154 52 104 C52 50 77 10 117 -6 L116 -7 L116 -7 Z " />
<glyph glyph-name="Hcircumflex" unicode="&#x124;" horiz-adv-x="765" d="M397 922 L536 805 L551 818 L438 996 C430 1008 410 1037 397 1037 C383 1037 364 1009 357 996 L243 818 L258 805 L397 922 L397 922 Z M657 67 L657 683 C657 730 664 740 674 743 L703 749 L703 750 L592 750 L482 750 L482 749 L510 743 C521 740 528 730 528 683 L528 386 L266 386 L266 683 C266 730 273 740 284 743 L312 749 L312 750 L202 750 L91 750 L91 749 L120 743 C130 740 137 730 137 683 L137 67 C137 20 130 10 120 7 L91 1 L91 0 L202 0 L312 0 L312 1 L284 7 C273 10 266 20 266 67 L266 380 L528 380 L528 67 C528 20 521 10 510 7 L482 1 L482 0 L592 0 L703 0 L703 1 L674 7 C664 10 657 20 657 67 L657 67 Z " />
<glyph glyph-name="Itilde" unicode="&#x128;" horiz-adv-x="326" d="M41 870 C41 903 54 925 73 925 C121 925 153 860 201 860 C242 860 269 916 269 1001 L266 1001 C266 965 251 941 228 941 C179 941 148 1006 99 1006 C62 1006 38 952 38 870 L41 870 L41 870 Z M218 67 L218 683 C218 730 225 740 235 743 L264 749 L264 750 L153 750 L43 750 L43 749 L71 743 C82 740 89 730 89 683 L89 67 C89 20 82 10 71 7 L43 1 L43 0 L153 0 L264 0 L264 1 L235 7 C225 10 218 20 218 67 L218 67 Z " />
<glyph glyph-name="itilde" unicode="&#x129;" horiz-adv-x="295" d="M52 620 C52 653 65 675 84 675 C133 675 164 610 213 610 C253 610 280 666 280 751 L277 751 C277 715 262 691 239 691 C190 691 159 756 110 756 C73 756 49 702 49 620 L52 620 L52 620 Z M222 22 L222 396 L222 500 L202 500 L72 445 L72 444 C101 425 107 418 107 396 L107 22 C107 12 102 9 95 7 L72 1 L72 0 L165 0 L259 0 L259 1 L235 7 C227 10 222 13 222 22 L222 22 Z " />
<glyph glyph-name="Imacron" unicode="&#x12a;" horiz-adv-x="326" d="M36 890 L271 890 L271 970 L36 970 L36 890 L36 890 Z M218 67 L218 683 C218 730 225 740 235 743 L264 749 L264 750 L153 750 L43 750 L43 749 L71 743 C82 740 89 730 89 683 L89 67 C89 20 82 10 71 7 L43 1 L43 0 L153 0 L264 0 L264 1 L235 7 C225 10 218 20 218 67 L218 67 Z " />
<glyph glyph-name="imacron" unicode="&#x12b;" horiz-adv-x="295" d="M48 640 L282 640 L282 720 L48 720 L48 640 L48 640 Z M222 22 L222 396 L222 500 L202 500 L72 445 L72 444 C101 425 107 418 107 396 L107 22 C107 12 102 9 95 7 L72 1 L72 0 L165 0 L259 0 L259 1 L235 7 C227 10 222 13 222 22 L222 22 Z " />
<glyph glyph-name="Ibreve" unicode="&#x12c;" horiz-adv-x="326" d="M34 994 C44 910 92 854 153 854 C215 854 263 909 272 992 L248 995 C244 959 206 935 153 935 C101 935 63 960 59 998 L34 994 L34 994 Z M218 67 L218 683 C218 730 225 740 235 743 L264 749 L264 750 L153 750 L43 750 L43 749 L71 743 C82 740 89 730 89 683 L89 67 C89 20 82 10 71 7 L43 1 L43 0 L153 0 L264 0 L264 1 L235 7 C225 10 218 20 218 67 L218 67 Z " />
<glyph glyph-name="ibreve" unicode="&#x12d;" horiz-adv-x="295" d="M46 744 C55 660 103 604 165 604 C226 604 274 659 284 742 L260 745 C256 709 218 685 165 685 C112 685 74 710 70 748 L46 744 L46 744 Z M222 22 L222 396 L222 500 L202 500 L72 445 L72 444 C101 425 107 418 107 396 L107 22 C107 12 102 9 95 7 L72 1 L72 0 L165 0 L259 0 L259 1 L235 7 C227 10 222 13 222 22 L222 22 Z " />
<glyph glyph-name="Idot" unicode="&#x130;" horiz-adv-x="326" d="M153 865 C198 865 228 895 228 939 C228 984 198 1014 153 1014 C109 1014 79 984 79 939 C79 895 109 865 153 865 L153 865 Z M218 67 L218 683 C218 730 225 740 235 743 L264 749 L264 750 L153 750 L43 750 L43 749 L71 743 C82 740 89 730 89 683 L89 67 C89 20 82 10 71 7 L43 1 L43 0 L153 0 L264 0 L264 1 L235 7 C225 10 218 20 218 67 L218 67 Z " />
<glyph glyph-name="dotlessi" unicode="&#x131;" horiz-adv-x="295" d="M222 22 L222 396 L222 500 L202 500 L72 445 L72 444 C101 425 107 418 107 396 L107 22 C107 12 102 9 95 7 L72 1 L72 0 L165 0 L259 0 L259 1 L235 7 C227 10 222 13 222 22 L222 22 Z " />
<glyph glyph-name="Jcircumflex" unicode="&#x134;" horiz-adv-x="326" d="M154 921 L292 805 L308 818 L194 996 C186 1008 167 1037 153 1037 C140 1037 121 1009 113 996 L-1 818 L15 805 L154 921 L154 921 Z M89 683 L89 -99 C89 -195 25 -213 -21 -213 C-86 -213 -57 -105 -123 -105 C-159 -105 -184 -129 -184 -166 C-184 -198 -121 -220 -26 -220 C77 -220 218 -162 218 143 L218 683 C218 730 225 740 235 743 L264 749 L264 750 L153 750 L43 750 L43 749 L71 743 C82 740 89 730 89 683 L89 683 Z " />
<glyph glyph-name="Lacute" unicode="&#x139;" horiz-adv-x="536" d="M162 811 L307 929 C342 958 366 981 366 988 C366 1019 340 1046 308 1046 C302 1046 281 1020 254 981 L148 826 L162 811 L162 811 Z M326 22 L498 22 L498 21 C500 30 502 39 504 47 C507 61 512 79 516 94 L515 94 L515 95 L501 64 C490 39 457 23 325 23 L326 22 L326 22 Z M325 23 L268 23 C222 23 217 35 217 52 L217 73 L217 679 C217 730 224 741 234 744 L263 750 L263 751 L217 751 L152 751 L88 751 L42 751 L42 750 L70 744 C81 741 88 730 88 679 L88 73 C88 22 81 11 70 8 L42 2 L42 1 L88 1 L129 1 L217 1 L319 1 L491 1 L325 23 L325 23 Z " />
<glyph glyph-name="Lcaron" unicode="&#x13d;" horiz-adv-x="536" d="M391 686 C406 721 417 763 417 790 C417 803 396 807 365 807 C342 807 333 744 331 699 L326 586 L346 583 L391 686 L391 686 Z M326 22 L498 22 L498 21 C500 30 502 39 504 47 C507 61 512 79 516 94 L515 94 L515 95 L501 64 C490 39 457 23 325 23 L326 22 L326 22 Z M325 23 L268 23 C222 23 217 35 217 52 L217 73 L217 679 C217 730 224 741 234 744 L263 750 L263 751 L217 751 L152 751 L88 751 L42 751 L42 750 L70 744 C81 741 88 730 88 679 L88 73 C88 22 81 11 70 8 L42 2 L42 1 L88 1 L129 1 L217 1 L319 1 L491 1 L325 23 L325 23 Z " />
<glyph glyph-name="lcaron" unicode="&#x13e;" horiz-adv-x="259" d="M295 636 C311 671 321 713 321 740 C321 753 300 757 270 757 C246 757 237 694 236 649 L231 536 L251 533 L295 636 L295 636 Z M186 22 L186 688 L186 750 L165 750 L33 712 L33 711 L57 712 C66 712 71 704 71 661 L71 22 C71 12 66 9 59 7 L36 1 L36 0 L128 0 L221 0 L221 1 L198 7 C191 9 186 12 186 22 L186 22 Z " />
<glyph glyph-name="Nacute" unicode="&#x143;" horiz-adv-x="670" d="M239 811 L383 929 C419 958 443 981 443 988 C443 1019 416 1046 385 1046 C379 1046 358 1020 331 981 L224 826 L239 811 L239 811 Z M137 127 L136 127 L134 562 L399 183 L526 0 L552 0 L561 686 C564 730 572 740 582 742 L615 748 L615 749 L562 749 L542 749 L523 749 L469 749 L469 748 L501 742 C514 739 523 723 523 642 L523 642 L525 224 L506 253 L163 749 L133 749 L100 749 L69 749 L3 749 L-24 749 L-24 748 L7 744 L100 611 L99 137 L99 137 C99 29 97 8 93 7 L44 1 L44 0 L99 0 L118 0 L137 0 L192 0 L192 1 L143 7 C139 8 136 27 137 127 L137 127 Z " />
<glyph glyph-name="Ncaron" unicode="&#x147;" horiz-adv-x="670" d="M137 127 L136 127 L134 562 L399 183 L526 0 L552 0 L561 686 C564 730 572 740 582 742 L615 748 L615 749 L562 749 L542 749 L523 749 L469 749 L469 748 L501 742 C514 739 523 723 523 642 L523 642 L525 224 L506 253 L163 749 L133 749 L100 749 L69 749 L3 749 L-24 749 L-24 748 L7 744 L100 611 L99 137 L99 137 C99 29 97 8 93 7 L44 1 L44 0 L99 0 L118 0 L137 0 L192 0 L192 1 L143 7 C139 8 136 27 137 127 L137 127 Z M330 929 L469 1045 L485 1032 L371 854 C363 842 344 813 330 813 C317 813 298 841 290 854 L176 1032 L191 1045 L330 929 L330 929 Z " />
<glyph glyph-name="ncaron" unicode="&#x148;" horiz-adv-x="517" d="M255 679 L393 795 L409 782 L295 604 C287 592 268 563 255 563 C241 563 222 591 214 604 L100 782 L116 795 L255 679 L255 679 Z M329 22 C329 12 324 9 317 7 L294 1 L294 0 L387 0 L479 0 L479 1 L456 7 C449 9 444 12 444 22 L444 317 C444 433 404 510 325 510 C258 510 200 466 180 401 L180 438 L180 500 L159 500 L27 452 L27 451 L51 453 C60 454 65 446 65 404 L65 22 C65 12 60 9 53 7 L30 1 L30 0 L122 0 L215 0 L215 1 L192 7 C185 9 180 12 180 22 L180 384 C193 427 239 456 294 456 C317 456 329 400 329 317 L329 22 L329 22 Z " />
<glyph glyph-name="Omacron" unicode="&#x14c;" horiz-adv-x="834" d="M288 890 L522 890 L522 970 L288 970 L288 890 L288 890 Z M396 -5 C271 -5 187 147 187 375 C187 603 274 755 404 755 C541 755 632 603 632 375 C632 147 538 -5 396 -5 L396 -5 Z M40 375 C40 144 182 -10 395 -10 C625 -10 779 144 779 375 C779 606 629 760 405 760 C186 760 40 606 40 375 L40 375 Z " />
<glyph glyph-name="omacron" unicode="&#x14d;" horiz-adv-x="565" d="M159 640 L393 640 L393 720 L159 720 L159 640 L159 640 Z M276 -5 C206 -5 159 97 159 250 C159 403 206 505 276 505 C346 505 393 403 393 250 C393 97 346 -5 276 -5 L276 -5 Z M32 250 C32 94 130 -10 276 -10 C422 -10 520 94 520 250 C520 406 422 510 276 510 C130 510 32 406 32 250 L32 250 Z " />
<glyph glyph-name="Obreve" unicode="&#x14e;" horiz-adv-x="834" d="M286 994 C296 910 343 854 405 854 C467 854 514 909 524 992 L500 995 C496 959 458 935 405 935 C352 935 314 960 310 998 L286 994 L286 994 Z M396 -5 C271 -5 187 147 187 375 C187 603 274 755 404 755 C541 755 632 603 632 375 C632 147 538 -5 396 -5 L396 -5 Z M40 375 C40 144 182 -10 395 -10 C625 -10 779 144 779 375 C779 606 629 760 405 760 C186 760 40 606 40 375 L40 375 Z " />
<glyph glyph-name="obreve" unicode="&#x14f;" horiz-adv-x="565" d="M157 744 C167 660 215 604 276 604 C338 604 386 659 395 742 L371 745 C367 709 329 685 276 685 C224 685 186 710 181 748 L157 744 L157 744 Z M276 -5 C206 -5 159 97 159 250 C159 403 206 505 276 505 C346 505 393 403 393 250 C393 97 346 -5 276 -5 L276 -5 Z M32 250 C32 94 130 -10 276 -10 C422 -10 520 94 520 250 C520 406 422 510 276 510 C130 510 32 406 32 250 L32 250 Z " />
<glyph glyph-name="Racute" unicode="&#x154;" horiz-adv-x="659" d="M263 811 L408 929 C443 958 467 981 467 988 C467 1019 441 1046 410 1046 C403 1046 382 1020 355 981 L249 826 L263 811 L263 811 Z M650 0 L650 9 C602 9 599 11 565 67 L391 361 C490 385 550 442 550 537 C550 665 438 750 269 750 L230 750 L143 750 L55 750 L55 749 L84 743 C94 740 101 729 101 678 L101 72 C101 21 94 10 84 7 L55 1 L55 0 L166 0 L276 0 L276 1 L248 7 C237 10 230 21 230 72 L230 348 L261 348 C279 305 337 199 415 68 C453 4 463 1 650 1 L650 0 L650 0 Z M230 725 C337 725 408 660 408 563 C408 437 352 381 269 381 L230 381 L230 679 L230 725 L230 725 Z " />
<glyph glyph-name="Rcaron" unicode="&#x158;" horiz-adv-x="659" d="M650 0 L650 9 C602 9 599 11 565 67 L391 361 C490 385 550 442 550 537 C550 665 438 750 269 750 L230 750 L143 750 L55 750 L55 749 L84 743 C94 740 101 729 101 678 L101 72 C101 21 94 10 84 7 L55 1 L55 0 L166 0 L276 0 L276 1 L248 7 C237 10 230 21 230 72 L230 348 L261 348 C279 305 337 199 415 68 C453 4 463 1 650 1 L650 0 L650 0 Z M255 930 L393 1046 L409 1033 L295 855 C287 843 268 814 255 814 C241 814 222 842 214 855 L100 1033 L116 1046 L255 930 L255 930 Z M230 725 C337 725 408 660 408 563 C408 437 352 381 269 381 L230 381 L230 679 L230 725 L230 725 Z " />
<glyph glyph-name="rcaron" unicode="&#x159;" horiz-adv-x="409" d="M225 678 L364 795 L379 782 L266 604 C258 592 238 563 225 563 C212 563 193 591 185 604 L71 782 L86 795 L225 678 L225 678 Z M186 428 L186 438 L186 500 L165 500 L33 452 L33 451 L57 453 C66 454 71 446 71 404 L71 22 C71 12 66 9 60 7 L38 1 L38 0 L130 0 L223 0 L223 1 L199 7 C191 10 186 13 186 22 L186 411 C196 439 217 456 244 456 C256 456 263 442 263 421 C263 381 290 354 331 354 C372 354 399 381 399 421 C399 475 359 510 298 510 C242 510 201 479 185 428 L186 428 L186 428 Z " />
<glyph glyph-name="Sacute" unicode="&#x15a;" horiz-adv-x="510" d="M260 811 L405 929 C440 958 464 981 464 988 C464 1019 438 1046 407 1046 C400 1046 379 1020 352 981 L246 826 L260 811 L260 811 Z M269 751 C295 739 343 694 385 647 C389 640 392 633 395 626 L400 628 C409 618 417 608 425 598 C429 593 432 589 432 589 L432 641 L432 643 L432 694 C432 694 429 689 425 681 C424 680 405 692 377 712 C341 742 294 759 246 759 C133 759 58 676 58 552 C58 440 112 345 217 307 C316 271 367 218 367 167 C367 64 323 -5 256 -5 C235 -5 212 4 189 21 C181 29 140 79 97 133 C92 142 87 151 82 161 L76 158 C68 168 60 178 52 188 C48 193 45 197 45 197 L45 143 L45 138 L45 79 C45 79 48 85 52 95 C52 95 82 71 128 35 L128 35 C166 5 210 -12 254 -12 C382 -12 468 74 468 203 C468 307 408 398 293 440 C202 472 156 533 156 600 C156 692 191 753 244 753 C258 753 273 749 288 742 L269 751 L269 751 Z M266 749 L257 752 C260 752 263 751 266 749 L266 749 Z " />
<glyph glyph-name="Scircumflex" unicode="&#x15c;" horiz-adv-x="510" d="M252 922 L391 805 L406 818 L293 996 C285 1008 265 1037 252 1037 C238 1037 219 1009 211 996 L97 818 L113 805 L252 922 L252 922 Z M269 751 C295 739 343 694 385 647 C389 640 392 633 395 626 L400 628 C409 618 417 608 425 598 C429 593 432 589 432 589 L432 641 L432 643 L432 694 C432 694 429 689 425 681 C424 680 405 692 377 712 C341 742 294 759 246 759 C133 759 58 676 58 552 C58 440 112 345 217 307 C316 271 367 218 367 167 C367 64 323 -5 256 -5 C235 -5 212 4 189 21 C181 29 140 79 97 133 C92 142 87 151 82 161 L76 158 C68 168 60 178 52 188 C48 193 45 197 45 197 L45 143 L45 138 L45 79 C45 79 48 85 52 95 C52 95 82 71 128 35 L128 35 C166 5 210 -12 254 -12 C382 -12 468 74 468 203 C468 307 408 398 293 440 C202 472 156 533 156 600 C156 692 191 753 244 753 C258 753 273 749 288 742 L269 751 L269 751 Z M266 749 L257 752 C260 752 263 751 266 749 L266 749 Z " />
<glyph glyph-name="Scaron" unicode="&#x160;" horiz-adv-x="510" d="M252 928 L391 1045 L406 1032 L293 854 C285 842 265 813 252 813 C238 813 219 841 211 854 L97 1032 L113 1045 L252 928 L252 928 Z M269 751 C295 739 343 694 385 647 C389 640 392 633 395 626 L400 628 C409 618 417 608 425 598 C429 593 432 589 432 589 L432 641 L432 643 L432 694 C432 694 429 689 425 681 C424 680 405 692 377 712 C341 742 294 759 246 759 C133 759 58 676 58 552 C58 440 112 345 217 307 C316 271 367 218 367 167 C367 64 323 -5 256 -5 C235 -5 212 4 189 21 C181 29 140 79 97 133 C92 142 87 151 82 161 L76 158 C68 168 60 178 52 188 C48 193 45 197 45 197 L45 143 L45 138 L45 79 C45 79 48 85 52 95 C52 95 82 71 128 35 L128 35 C166 5 210 -12 254 -12 C382 -12 468 74 468 203 C468 307 408 398 293 440 C202 472 156 533 156 600 C156 692 191 753 244 753 C258 753 273 749 288 742 L269 751 L269 751 Z M266 749 L257 752 C260 752 263 751 266 749 L266 749 Z " />
<glyph glyph-name="scaron" unicode="&#x161;" horiz-adv-x="399" d="M258 498 L257 498 C241 506 224 510 207 510 C122 510 65 455 65 372 C65 289 100 225 169 206 C230 190 261 151 261 105 C261 39 234 -6 194 -6 C193 -6 192 -6 191 -6 L195 -6 C192 -6 151 41 110 90 C107 95 104 101 101 107 L97 105 C91 113 85 121 79 128 C75 132 73 135 73 135 L72 135 L71 135 L71 95 L71 93 L71 55 L72 55 L73 55 C73 55 75 59 79 65 C71 53 98 25 153 2 C167 -5 181 -9 195 -9 C289 -9 351 50 351 139 C351 212 307 272 221 295 C172 308 147 354 147 413 C147 469 171 507 208 507 L208 507 L207 507 C210 507 213 506 216 505 L207 506 C217 503 253 467 287 428 C290 423 292 418 294 413 L298 415 C305 407 311 399 317 391 C321 387 323 384 323 384 L324 384 L324 427 L324 430 L324 477 L323 477 C323 477 321 472 317 464 C318 466 294 480 256 498 L258 498 L258 498 Z M193 679 L331 795 L347 782 L233 604 C225 592 206 563 192 563 C179 563 160 591 152 604 L38 782 L54 795 L193 679 L193 679 Z " />
<glyph glyph-name="Tcaron" unicode="&#x164;" horiz-adv-x="731" d="M366 929 L504 1045 L520 1032 L406 854 C398 842 379 813 366 813 C352 813 333 841 325 854 L211 1032 L227 1045 L366 929 L366 929 Z M676 719 L676 750 L665 750 C661 760 657 770 654 778 L653 778 L658 750 L557 750 L430 750 L301 750 L174 750 L74 750 L79 778 L78 778 L77 778 C74 770 71 760 68 750 L56 750 L56 718 L56 718 C50 704 44 687 40 673 L40 672 L41 672 L58 703 C63 712 82 718 163 718 L302 718 L302 67 C302 20 295 10 285 7 L256 1 L256 0 L367 0 L477 0 L477 1 L449 7 C438 10 431 20 431 67 L431 718 L570 718 C651 718 670 712 675 703 L693 672 C693 673 693 673 694 673 C689 687 682 705 677 719 L676 719 L676 719 Z " />
<glyph glyph-name="tcaron" unicode="&#x165;" horiz-adv-x="384" d="M335 500 L205 500 L205 620 L196 620 L25 449 L25 439 L90 439 L90 186 C90 45 147 -10 232 -10 C304 -10 361 43 374 122 L360 125 C351 76 315 44 267 44 C227 44 200 77 202 161 L205 439 L335 439 L335 500 L335 500 Z M454 636 C470 671 480 713 480 740 C480 753 459 757 428 757 C405 757 396 694 394 649 L389 536 L409 533 L454 636 L454 636 Z " />
<glyph glyph-name="Utilde" unicode="&#x168;" horiz-adv-x="675" d="M219 870 C219 903 232 925 251 925 C299 925 331 860 379 860 C420 860 447 916 447 1001 L444 1001 C444 965 429 941 406 941 C357 941 326 1006 277 1006 C240 1006 216 952 216 870 L219 870 L219 870 Z M597 97 L597 678 L597 750 L509 750 L422 750 L422 749 L450 743 C461 740 468 729 468 678 L468 191 C435 120 368 73 300 73 C237 73 195 128 195 211 L195 678 L195 750 L108 750 L20 750 L20 749 L49 743 C59 740 66 729 66 678 L66 211 C66 78 139 -10 248 -10 C340 -10 428 47 468 133 L468 97 L468 0 L488 0 L642 49 C604 74 597 81 597 97 L597 97 Z " />
<glyph glyph-name="utilde" unicode="&#x169;" horiz-adv-x="478" d="M117 620 C117 653 130 675 148 675 C197 675 228 610 277 610 C318 610 345 666 345 751 L342 751 C342 715 327 691 304 691 C255 691 223 756 175 756 C138 756 114 702 114 620 L117 620 L117 620 Z M295 77 L295 -10 L315 -10 L447 23 L447 24 L423 24 C415 25 410 37 410 101 L410 478 L410 500 L338 500 L266 500 L266 499 L286 493 C291 491 295 488 295 478 L295 130 C278 94 250 70 222 70 C188 70 165 103 165 153 L165 478 L165 500 L93 500 L21 500 L21 499 L41 493 C46 491 50 488 50 478 L50 153 C50 55 97 -10 168 -10 C213 -10 263 42 296 123 L295 77 L295 77 Z " />
<glyph glyph-name="Umacron" unicode="&#x16a;" horiz-adv-x="675" d="M214 890 L449 890 L449 970 L214 970 L214 890 L214 890 Z M597 97 L597 678 L597 750 L509 750 L422 750 L422 749 L450 743 C461 740 468 729 468 678 L468 191 C435 120 368 73 300 73 C237 73 195 128 195 211 L195 678 L195 750 L108 750 L20 750 L20 749 L49 743 C59 740 66 729 66 678 L66 211 C66 78 139 -10 248 -10 C340 -10 428 47 468 133 L468 97 L468 0 L488 0 L642 49 C604 74 597 81 597 97 L597 97 Z " />
<glyph glyph-name="umacron" unicode="&#x16b;" horiz-adv-x="478" d="M112 640 L346 640 L346 720 L112 720 L112 640 L112 640 Z M295 77 L295 -10 L315 -10 L447 23 L447 24 L423 24 C415 25 410 37 410 101 L410 478 L410 500 L338 500 L266 500 L266 499 L286 493 C291 491 295 488 295 478 L295 130 C278 94 250 70 222 70 C188 70 165 103 165 153 L165 478 L165 500 L93 500 L21 500 L21 499 L41 493 C46 491 50 488 50 478 L50 153 C50 55 97 -10 168 -10 C213 -10 263 42 296 123 L295 77 L295 77 Z " />
<glyph glyph-name="Ubreve" unicode="&#x16c;" horiz-adv-x="675" d="M212 994 C222 910 270 854 331 854 C393 854 441 909 450 992 L426 995 C422 959 384 935 331 935 C279 935 241 960 237 998 L212 994 L212 994 Z M597 97 L597 678 L597 750 L509 750 L422 750 L422 749 L450 743 C461 740 468 729 468 678 L468 191 C435 120 368 73 300 73 C237 73 195 128 195 211 L195 678 L195 750 L108 750 L20 750 L20 749 L49 743 C59 740 66 729 66 678 L66 211 C66 78 139 -10 248 -10 C340 -10 428 47 468 133 L468 97 L468 0 L488 0 L642 49 C604 74 597 81 597 97 L597 97 Z " />
<glyph glyph-name="ubreve" unicode="&#x16d;" horiz-adv-x="478" d="M110 744 C120 660 168 604 229 604 C291 604 338 659 348 742 L324 745 C320 709 282 685 229 685 C177 685 139 710 134 748 L110 744 L110 744 Z M295 77 L295 -10 L315 -10 L447 23 L447 24 L423 24 C415 25 410 37 410 101 L410 478 L410 500 L338 500 L266 500 L266 499 L286 493 C291 491 295 488 295 478 L295 130 C278 94 250 70 222 70 C188 70 165 103 165 153 L165 478 L165 500 L93 500 L21 500 L21 499 L41 493 C46 491 50 488 50 478 L50 153 C50 55 97 -10 168 -10 C213 -10 263 42 296 123 L295 77 L295 77 Z " />
<glyph glyph-name="Uring" unicode="&#x16e;" horiz-adv-x="675" d="M331 837 C297 837 267 868 267 905 C267 946 293 973 331 973 C370 973 396 946 396 905 C396 868 366 837 331 837 L331 837 Z M233 905 C233 854 278 810 331 810 C385 810 430 854 430 905 C430 962 391 1000 331 1000 C272 1000 233 962 233 905 L233 905 Z M597 97 L597 678 L597 750 L509 750 L422 750 L422 749 L450 743 C461 740 468 729 468 678 L468 191 C435 120 368 73 300 73 C237 73 195 128 195 211 L195 678 L195 750 L108 750 L20 750 L20 749 L49 743 C59 740 66 729 66 678 L66 211 C66 78 139 -10 248 -10 C340 -10 428 47 468 133 L468 97 L468 0 L488 0 L642 49 C604 74 597 81 597 97 L597 97 Z " />
<glyph glyph-name="uring" unicode="&#x16f;" horiz-adv-x="478" d="M229 587 C195 587 165 618 165 655 C165 696 191 723 229 723 C268 723 294 696 294 655 C294 618 264 587 229 587 L229 587 Z M131 655 C131 604 176 560 229 560 C283 560 328 604 328 655 C328 712 288 750 229 750 C170 750 131 712 131 655 L131 655 Z M295 77 L295 -10 L315 -10 L447 23 L447 24 L423 24 C415 25 410 37 410 101 L410 478 L410 500 L338 500 L266 500 L266 499 L286 493 C291 491 295 488 295 478 L295 130 C278 94 250 70 222 70 C188 70 165 103 165 153 L165 478 L165 500 L93 500 L21 500 L21 499 L41 493 C46 491 50 488 50 478 L50 153 C50 55 97 -10 168 -10 C213 -10 263 42 296 123 L295 77 L295 77 Z " />
<glyph glyph-name="Wcircumflex" unicode="&#x174;" horiz-adv-x="981" d="M471 922 L610 805 L625 818 L512 996 C504 1008 484 1037 471 1037 C457 1037 438 1009 430 996 L316 818 L332 805 L471 922 L471 922 Z M386 703 L469 500 L468 500 L374 162 L213 623 L214 623 C212 627 210 631 208 635 L178 721 C174 738 176 743 180 743 L232 749 L232 750 L168 750 L116 750 L27 750 L-1 750 L-1 749 L29 745 L258 162 L326 -10 L360 -10 L494 437 L597 187 L678 -10 L712 -10 L911 743 L954 749 L954 750 L913 750 L871 750 L860 750 L788 750 L788 749 L844 743 C852 742 853 722 829 623 L830 623 L725 186 L725 187 L526 721 C521 738 522 743 526 744 L578 750 L578 751 L515 751 L452 751 L366 751 L325 751 L325 750 L369 744 L381 715 C382 712 383 708 385 704 L386 703 L386 703 Z " />
<glyph glyph-name="Ycircumflex" unicode="&#x176;" horiz-adv-x="630" d="M325 921 L463 805 L479 818 L365 996 C357 1008 338 1037 324 1037 C311 1037 292 1009 284 996 L170 818 L186 805 L325 921 L325 921 Z M176 743 L218 749 L218 750 L172 750 L106 750 L21 750 L-7 750 L-7 749 L24 745 L260 316 L260 67 C260 20 253 10 242 7 L214 1 L214 0 L324 0 L435 0 L435 1 L406 7 C396 10 389 20 389 67 L389 337 L574 744 L613 749 L613 750 L577 750 L567 750 L521 750 L521 749 L564 743 L517 638 C516 636 515 634 514 632 L514 632 L386 343 L176 743 L176 743 Z " />
<glyph glyph-name="Ydieresis" unicode="&#x178;" horiz-adv-x="630" d="M400 865 C445 865 475 895 475 939 C475 984 445 1014 400 1014 C356 1014 326 984 326 939 C326 895 356 865 400 865 L400 865 Z M248 865 C293 865 323 895 323 939 C323 984 293 1014 248 1014 C204 1014 174 984 174 939 C174 895 204 865 248 865 L248 865 Z M176 743 L218 749 L218 750 L172 750 L106 750 L21 750 L-7 750 L-7 749 L24 745 L260 316 L260 67 C260 20 253 10 242 7 L214 1 L214 0 L324 0 L435 0 L435 1 L406 7 C396 10 389 20 389 67 L389 337 L574 744 L613 749 L613 750 L577 750 L567 750 L521 750 L521 749 L564 743 L517 638 C516 636 515 634 514 632 L514 632 L386 343 L176 743 L176 743 Z " />
<glyph glyph-name="Zacute" unicode="&#x179;" horiz-adv-x="590" d="M327 811 L471 929 C507 958 530 981 530 988 C530 1019 504 1046 473 1046 C466 1046 445 1020 419 981 L312 826 L327 811 L327 811 Z M164 0 L415 0 L562 0 L575 52 C579 67 584 88 588 103 L587 104 L587 105 L571 73 C562 56 544 44 485 39 L181 31 L566 723 L566 750 L441 750 L227 750 L70 750 C68 734 65 712 62 696 C60 680 57 658 55 643 L56 642 C56 641 57 641 57 641 L69 672 C78 694 99 709 166 714 L425 720 L26 27 L26 0 L164 0 L164 0 Z " />
<glyph glyph-name="Zdot" unicode="&#x17b;" horiz-adv-x="590" d="M318 865 C363 865 393 895 393 939 C393 984 363 1014 318 1014 C274 1014 244 984 244 939 C244 895 274 865 318 865 L318 865 Z M164 0 L415 0 L562 0 L575 52 C579 67 584 88 588 103 L587 104 L587 105 L571 73 C562 56 544 44 485 39 L181 31 L566 723 L566 750 L441 750 L227 750 L70 750 C68 734 65 712 62 696 C60 680 57 658 55 643 L56 642 C56 641 57 641 57 641 L69 672 C78 694 99 709 166 714 L425 720 L26 27 L26 0 L164 0 L164 0 Z " />
<glyph glyph-name="zdot" unicode="&#x17c;" horiz-adv-x="431" d="M237 615 C281 615 311 645 311 689 C311 734 281 764 237 764 C192 764 162 734 162 689 C162 645 192 615 237 615 L237 615 Z M73 436 L85 452 C87 455 91 458 101 460 L257 467 L39 27 L39 0 L160 0 L273 0 L385 0 C387 12 389 28 391 39 C392 45 393 52 394 59 L386 46 C384 43 379 41 368 39 L176 31 L390 471 L390 498 L273 498 L109 498 L94 498 L95 516 L94 516 C93 510 91 504 89 498 L81 498 L81 467 C78 458 75 446 72 435 L73 436 L73 436 Z M72 435 C71 430 70 425 69 420 L66 420 L62 420 L72 435 L72 435 Z M394 59 C395 66 396 72 397 77 L402 77 L406 77 L394 59 L394 59 Z " />
<glyph glyph-name="Zcaron" unicode="&#x17d;" horiz-adv-x="590" d="M318 928 L457 1045 L472 1032 L359 854 C351 842 331 813 318 813 C305 813 286 841 278 854 L164 1032 L179 1045 L318 928 L318 928 Z M164 0 L415 0 L562 0 L575 52 C579 67 584 88 588 103 L587 104 L587 105 L571 73 C562 56 544 44 485 39 L181 31 L566 723 L566 750 L441 750 L227 750 L70 750 C68 734 65 712 62 696 C60 680 57 658 55 643 L56 642 C56 641 57 641 57 641 L69 672 C78 694 99 709 166 714 L425 720 L26 27 L26 0 L164 0 L164 0 Z " />
<glyph glyph-name="zcaron" unicode="&#x17e;" horiz-adv-x="431" d="M237 678 L376 795 L391 782 L278 604 C270 592 250 563 237 563 C223 563 204 591 196 604 L82 782 L98 795 L237 678 L237 678 Z M73 436 L85 452 C87 455 91 458 101 460 L257 467 L39 27 L39 0 L160 0 L273 0 L385 0 C387 12 389 28 391 39 C392 45 393 52 394 59 L386 46 C384 43 379 41 368 39 L176 31 L390 471 L390 498 L273 498 L109 498 L94 498 L95 516 L94 516 C93 510 91 504 89 498 L81 498 L81 467 C78 458 75 446 72 435 L73 436 L73 436 Z M72 435 C71 430 70 425 69 420 L66 420 L62 420 L72 435 L72 435 Z M394 59 C395 66 396 72 397 77 L402 77 L406 77 L394 59 L394 59 Z " />
<glyph glyph-name="oogonek" unicode="&#x1eb;" horiz-adv-x="756" d="M943 -53 L942 -52 C912 -76 812 -93 692 -93 C571 -93 441 -60 349 -9 C353 -9 357 -9 360 -9 C568 -9 706 112 706 293 C706 473 572 594 370 594 C174 594 44 473 44 293 C44 191 115 108 193 55 L192 55 C387 -77 582 -165 679 -165 C757 -165 863 -120 943 -52 L943 -53 L943 -53 Z M361 -4 C305 -4 176 115 176 293 C176 471 253 590 369 590 C492 590 574 471 574 293 C574 115 489 -4 361 -4 L361 -4 Z " />
<glyph glyph-name="Adotabove" unicode="&#x226;" horiz-adv-x="646" d="M312 865 C357 865 387 895 387 939 C387 984 357 1014 312 1014 C268 1014 238 984 238 939 C238 895 268 865 312 865 L312 865 Z M124 157 L124 157 L157 294 L368 294 L416 127 L416 127 C445 27 448 8 444 7 L394 1 L394 0 L453 0 L512 0 L588 0 L629 0 L629 1 L586 7 L377 709 L359 770 L345 770 C323 739 285 715 248 709 L251 699 L118 157 L118 157 C88 32 78 8 73 7 L21 1 L21 0 L80 0 L86 0 L89 0 L158 0 L158 1 L101 7 C93 8 94 33 124 157 L124 157 Z M158 299 L253 691 L366 299 L158 299 L158 299 Z " />
<glyph glyph-name="G_sc" unicode="&#x262;" horiz-adv-x="685" d="M464 185 L467 21 L467 21 L465 123 C465 60 434 18 387 18 C258 18 172 127 172 292 C172 470 252 589 372 589 C389 589 405 587 420 583 L420 583 C463 572 545 496 589 441 C593 435 596 431 596 431 L596 487 L596 492 L596 542 C596 542 593 537 589 530 C589 529 558 543 511 565 C476 583 432 593 370 593 C175 593 45 472 45 292 C45 111 178 -10 377 -10 C405 -10 433 -7 461 -2 L468 -4 L468 -1 L468 -1 L468 -4 L579 26 L579 32 C602 41 625 51 649 62 L648 65 C627 55 605 46 579 39 L580 184 C580 232 585 242 593 244 L617 250 L617 251 L617 252 L519 252 L420 252 L420 251 L420 250 L448 244 C457 242 464 232 464 184 L464 185 L464 185 Z " />
<glyph glyph-name="I_sc" unicode="&#x26a;" horiz-adv-x="319" d="M211 67 L211 516 C211 563 218 574 229 576 L257 582 L257 583 L153 583 L50 583 L50 582 L78 576 C89 574 96 563 96 516 L96 67 C96 20 89 10 78 7 L50 1 L50 0 L153 0 L257 0 L257 1 L229 7 C218 10 211 20 211 67 L211 67 Z " />
<glyph glyph-name="N_sc" unicode="&#x274;" horiz-adv-x="605" d="M134 127 L133 127 L131 431 L366 127 L465 -1 L489 -1 L496 475 L496 475 C495 556 504 573 518 575 L550 581 L550 582 L497 582 L479 582 L463 582 L408 582 L408 581 L441 575 C454 573 463 556 463 475 L463 475 L464 143 L438 181 L156 582 L129 582 L100 582 L71 582 L13 582 L-15 582 L-15 581 L17 577 L37 551 C39 548 41 545 44 541 L44 541 L98 471 L97 137 L97 137 C97 29 95 8 91 7 L42 1 L42 0 L97 0 L114 0 L131 0 L186 0 L186 1 L137 7 C133 8 130 27 131 127 L134 127 L134 127 Z " />
<glyph glyph-name="R_sc" unicode="&#x280;" horiz-adv-x="548" d="M538 0 L538 8 C505 8 503 10 477 52 C411 158 360 239 336 277 C425 296 479 341 479 417 C479 516 377 583 224 583 L220 583 L139 583 L59 583 L59 582 L87 576 C98 574 105 562 105 511 L105 72 C105 21 98 10 87 7 L59 1 L59 0 L162 0 L266 0 L266 1 L238 7 C227 10 220 21 220 72 L220 261 C238 224 282 147 341 53 C373 3 381 1 538 1 L538 0 L538 0 Z M220 559 C299 550 351 505 351 440 C351 341 300 297 224 297 L220 297 L220 512 L220 559 L220 559 Z " />
<glyph glyph-name="Y_sc" unicode="&#x28f;" horiz-adv-x="559" d="M235 456 L235 456 C232 461 229 466 226 471 L165 577 L207 583 L207 584 L161 584 L102 584 L24 584 L-3 584 L-3 583 L27 579 L230 244 L230 68 C230 21 223 11 213 8 L185 2 L185 1 L288 1 L392 1 L392 2 L364 8 C353 11 346 21 346 68 L346 263 L443 457 L443 457 C449 468 454 478 459 487 L504 577 L544 582 L544 583 L507 583 L498 583 L452 583 L452 582 L495 576 L346 267 L235 456 L235 456 Z " />
<glyph glyph-name="B_sc" unicode="&#x299;" horiz-adv-x="538" d="M220 580 L260 580 C334 580 352 521 352 432 C352 354 339 301 319 301 L220 301 L220 511 L220 580 L220 580 Z M354 301 C423 314 467 368 467 444 C467 528 429 583 267 583 L220 583 L139 583 L59 583 L59 582 L87 576 C98 574 105 562 105 511 L105 72 C105 21 98 10 87 7 L59 1 L59 0 L139 0 L220 0 L340 0 C435 0 499 29 499 150 C499 241 445 301 365 301 L354 301 L354 301 Z M321 298 L354 298 C364 298 371 239 371 150 C371 31 357 3 336 3 L286 3 C246 3 220 22 220 51 L220 72 L220 298 L321 298 L321 298 Z " />
<glyph glyph-name="H_sc" unicode="&#x29c;" horiz-adv-x="697" d="M589 67 L589 516 C589 563 596 574 606 576 L635 582 L635 583 L531 583 L427 583 L427 582 L455 576 C466 574 473 563 473 516 L473 300 L256 300 L256 516 C256 563 263 574 274 576 L302 582 L302 583 L198 583 L95 583 L95 582 L123 576 C134 574 141 563 141 516 L141 67 C141 20 134 10 123 7 L95 1 L95 0 L198 0 L302 0 L302 1 L274 7 C263 10 256 20 256 67 L256 296 L473 296 L473 67 C473 20 466 10 455 7 L427 1 L427 0 L531 0 L635 0 L635 1 L606 7 C596 10 589 20 589 67 L589 67 Z " />
<glyph glyph-name="L_sc" unicode="&#x29f;" horiz-adv-x="471" d="M433 20 L433 20 C435 29 438 38 440 45 C444 59 448 77 452 90 L451 91 L451 92 L437 61 C426 36 393 20 262 20 C216 20 211 32 211 51 L211 72 L211 511 C211 562 218 574 229 576 L257 582 L257 583 L211 583 L153 583 L96 583 L50 583 L50 582 L78 576 C89 574 96 562 96 511 L96 72 C96 21 89 10 78 7 L50 1 L50 0 L96 0 L130 0 L211 0 L255 0 L428 0 L433 0 L433 20 L433 20 Z " />
<glyph glyph-name="A_sc" unicode="&#x1d00;" horiz-adv-x="581" d="M146 228 L329 228 L361 127 L361 127 C393 27 397 8 393 7 L343 1 L343 0 L402 0 L453 0 L523 0 L564 0 L564 1 L521 7 L340 555 L324 603 L311 603 C294 579 259 560 224 555 L227 545 L227 545 L122 157 L122 157 C89 32 79 8 73 7 L21 1 L21 0 L80 0 L85 0 L89 0 L157 0 L157 1 L101 7 C93 8 93 26 114 109 L146 228 L146 228 Z M147 233 L229 539 L327 233 L147 233 L147 233 Z " />
<glyph glyph-name="C_sc" unicode="&#x1d04;" horiz-adv-x="639" d="M443 11 L443 11 C418 0 392 -6 364 -6 C249 -6 172 113 172 292 C172 470 252 589 372 589 C389 589 405 587 420 583 L420 583 C463 572 545 496 589 441 C593 435 596 431 596 431 L596 487 L596 492 L596 542 C596 542 593 537 589 530 C589 529 558 543 511 565 C476 583 432 593 370 593 C175 593 45 472 45 292 C45 111 172 -10 362 -10 C417 -10 461 -1 497 15 L498 15 C498 15 548 35 589 52 C593 54 596 49 596 39 L596 91 L596 95 L596 152 C596 152 593 148 589 142 C552 96 482 28 443 11 L443 11 Z " />
<glyph glyph-name="D_sc" unicode="&#x1d05;" horiz-adv-x="718" d="M105 511 L105 72 C105 21 98 10 87 7 L59 1 L59 0 L105 0 L139 0 L220 0 L264 0 C504 0 664 99 664 292 C664 466 535 583 286 583 L220 583 L139 583 L105 583 L59 583 L59 582 L87 576 C98 574 105 562 105 511 L105 511 Z M220 580 L272 580 C446 580 536 465 536 292 C536 101 425 3 259 3 C224 3 220 22 220 51 L220 72 L220 511 L220 580 L220 580 Z " />
<glyph glyph-name="E_sc" unicode="&#x1d07;" horiz-adv-x="518" d="M357 0 L465 0 C466 9 468 21 469 29 C470 38 472 50 473 58 L472 58 L471 58 L461 27 C457 13 438 4 358 4 L271 4 C225 4 220 23 220 51 L220 72 L220 299 L272 299 C352 299 369 287 372 269 L378 238 L379 238 L380 238 L380 299 L380 302 L380 304 L380 365 L379 365 L378 365 L372 334 C369 316 352 304 272 304 L220 304 L220 511 L220 580 L333 580 C429 580 431 570 434 556 L442 525 L443 525 L444 525 C443 534 442 546 442 554 C441 563 440 575 440 583 L332 583 L220 583 L139 583 L105 583 L59 583 L59 582 L87 576 C98 574 105 562 105 511 L105 72 C105 21 98 10 87 7 L59 1 L59 0 L105 0 L139 0 L220 0 L357 0 L357 0 Z " />
<glyph glyph-name="J_sc" unicode="&#x1d0a;" horiz-adv-x="319" d="M96 516 L95 -87 C95 -194 37 -214 -5 -214 C-63 -214 -37 -116 -96 -116 C-129 -116 -151 -138 -151 -171 C-151 -201 -94 -220 -9 -220 C84 -220 212 -164 212 131 L211 516 C211 563 218 574 229 576 L257 582 L257 583 L153 583 L50 583 L50 582 L78 576 C89 574 96 563 96 516 L96 516 Z " />
<glyph glyph-name="K_sc" unicode="&#x1d0b;" horiz-adv-x="602" d="M371 72 L370 72 C416 5 420 0 420 0 L505 0 L554 0 L590 0 L590 1 L550 6 L516 56 C513 61 509 66 505 71 L505 71 L300 369 L383 484 L384 485 C386 489 388 492 390 495 L447 575 L447 575 L493 581 L493 582 L452 582 L422 582 L411 582 L350 582 L350 581 L401 575 C403 574 397 563 365 513 L219 292 L219 523 C219 564 226 574 237 576 L265 582 L265 583 L219 583 L161 583 L104 583 L58 583 L58 582 L86 576 C97 574 104 564 104 523 L104 60 C104 19 97 10 86 7 L58 1 L58 0 L104 0 L161 0 L219 0 L265 0 L265 1 L237 7 C226 10 219 19 219 60 L219 292 L371 72 L371 72 Z " />
<glyph glyph-name="M_sc" unicode="&#x1d0d;" horiz-adv-x="727" d="M666 72 L666 72 L651 426 L651 426 C647 552 646 576 645 576 L690 582 L690 583 L644 583 L612 583 L575 583 L534 583 L396 161 L232 583 L145 583 L140 583 L116 583 L93 583 L48 583 L48 582 L95 576 C95 576 96 574 99 568 L114 533 L95 52 C93 16 91 7 88 6 L39 0 L39 -1 L93 -1 L114 -1 L134 -1 L189 -1 L189 0 L139 6 C137 7 135 13 135 36 L143 466 L274 160 L343 -1 L372 -1 L538 474 L552 52 C551 17 544 8 534 5 L506 -1 L506 -2 L554 -2 L609 -2 L670 -2 L713 -2 L713 -1 L684 5 C675 8 669 19 667 70 L666 72 L666 72 Z " />
<glyph glyph-name="O_sc" unicode="&#x1d0f;" horiz-adv-x="761" d="M361 -5 C250 -5 176 114 176 292 C176 470 253 589 369 589 C492 589 574 470 574 292 C574 114 489 -5 361 -5 L361 -5 Z M44 292 C44 111 170 -10 360 -10 C568 -10 706 111 706 292 C706 472 572 593 370 593 C174 593 44 472 44 292 L44 292 Z " />
<glyph glyph-name="P_sc" unicode="&#x1d18;" horiz-adv-x="468" d="M249 583 L168 583 L133 583 L87 583 L87 582 L116 576 C126 574 133 562 133 511 L133 72 C133 21 126 10 116 7 L87 1 L87 0 L133 0 L191 0 L249 0 L295 0 L295 1 L267 7 C256 10 249 21 249 72 L249 259 L249 583 L249 583 Z M249 284 L249 511 L249 564 L274 564 C314 564 340 513 340 437 C340 331 315 284 276 284 L249 284 L249 284 Z " />
<glyph glyph-name="T_sc" unicode="&#x1d1b;" horiz-adv-x="684" d="M629 555 L629 583 L619 583 C616 593 613 603 610 611 C610 611 609 611 609 612 L608 612 L614 583 L513 583 L401 583 L285 583 L174 583 L73 583 L78 612 L77 611 C74 603 70 593 66 583 L56 583 L56 554 C51 540 44 523 40 509 C40 508 40 508 41 508 L58 540 C63 548 81 554 163 554 L285 554 L285 67 C285 20 278 10 268 7 L239 1 L239 0 L343 0 L447 0 L447 1 L419 7 C408 10 401 20 401 67 L401 554 L523 554 C605 554 623 548 628 540 L646 508 L646 509 L647 509 C642 523 636 540 630 554 L629 555 L629 555 Z " />
<glyph glyph-name="U_sc" unicode="&#x1d1c;" horiz-adv-x="597" d="M519 97 L519 511 L519 583 L438 583 L357 583 L357 582 L385 576 C396 574 403 562 403 511 L403 172 C373 108 316 65 262 65 C216 65 185 118 185 197 L185 511 L185 583 L104 583 L24 583 L24 582 L52 576 C63 574 70 562 70 511 L70 197 C70 73 128 -10 215 -10 C291 -10 366 42 403 120 L403 97 L403 0 L421 0 L564 49 C526 74 519 81 519 97 L519 97 Z " />
<glyph glyph-name="V_sc" unicode="&#x1d20;" horiz-adv-x="638" d="M32 578 L213 185 L302 -10 L325 -10 L567 576 L611 582 L611 583 L570 583 L531 583 L523 583 L451 583 L451 582 L508 576 C514 575 513 560 488 490 L374 185 L230 456 L230 456 C184 557 176 576 178 576 L234 582 L234 583 L162 583 L118 583 L29 583 L1 583 L1 582 L32 578 L32 578 Z " />
<glyph glyph-name="W_sc" unicode="&#x1d21;" horiz-adv-x="873" d="M327 576 L413 389 L413 389 L341 147 L212 456 L212 456 C212 457 212 458 212 459 L173 552 C167 570 168 575 172 576 L224 582 L224 583 L161 583 L115 583 L34 583 L6 583 L6 582 L36 578 L80 479 C83 472 86 465 90 457 L90 457 L227 147 L296 -9 L326 -9 L439 338 L517 169 L598 -9 L629 -9 L769 457 L769 457 C769 459 769 461 769 463 L803 578 L846 584 L846 585 L805 585 L766 585 L758 585 L685 585 L685 584 L742 578 C750 577 750 558 723 458 L723 458 L644 171 L501 489 L501 489 C467 564 463 578 469 579 L521 585 L521 586 L457 586 L402 586 L323 586 L282 586 L282 585 L327 576 L327 576 Z " />
<glyph glyph-name="Z_sc" unicode="&#x1d22;" horiz-adv-x="543" d="M151 0 L368 0 L515 0 C519 15 524 35 528 50 C531 65 536 85 540 99 L540 100 L539 101 L523 69 C514 52 496 40 436 35 L169 28 L519 559 L519 583 L406 583 L227 583 L70 583 C68 568 65 547 63 532 C61 516 58 495 55 480 C55 480 56 480 56 479 L57 478 L70 510 C79 531 99 546 166 551 L388 556 L25 24 L25 0 L151 0 L151 0 Z " />
<glyph glyph-name="Wgrave" unicode="&#x1e80;" horiz-adv-x="981" d="M380 981 C354 1020 334 1046 326 1046 C295 1046 268 1019 268 988 C268 979 292 957 328 929 L472 811 L487 826 L380 981 L380 981 Z M386 703 L469 500 L468 500 L374 162 L213 623 L214 623 C212 627 210 631 208 635 L178 721 C174 738 176 743 180 743 L232 749 L232 750 L168 750 L116 750 L27 750 L-1 750 L-1 749 L29 745 L258 162 L326 -10 L360 -10 L494 437 L597 187 L678 -10 L712 -10 L911 743 L954 749 L954 750 L913 750 L871 750 L860 750 L788 750 L788 749 L844 743 C852 742 853 722 829 623 L830 623 L725 186 L725 187 L526 721 C521 738 522 743 526 744 L578 750 L578 751 L515 751 L452 751 L366 751 L325 751 L325 750 L369 744 L381 715 C382 712 383 708 385 704 L386 703 L386 703 Z " />
<glyph glyph-name="Wacute" unicode="&#x1e82;" horiz-adv-x="981" d="M479 811 L624 929 C659 958 683 981 683 988 C683 1019 657 1046 626 1046 C619 1046 598 1020 571 981 L465 826 L479 811 L479 811 Z M386 703 L469 500 L468 500 L374 162 L213 623 L214 623 C212 627 210 631 208 635 L178 721 C174 738 176 743 180 743 L232 749 L232 750 L168 750 L116 750 L27 750 L-1 750 L-1 749 L29 745 L258 162 L326 -10 L360 -10 L494 437 L597 187 L678 -10 L712 -10 L911 743 L954 749 L954 750 L913 750 L871 750 L860 750 L788 750 L788 749 L844 743 C852 742 853 722 829 623 L830 623 L725 186 L725 187 L526 721 C521 738 522 743 526 744 L578 750 L578 751 L515 751 L452 751 L366 751 L325 751 L325 750 L369 744 L381 715 C382 712 383 708 385 704 L386 703 L386 703 Z " />
<glyph glyph-name="Wdieresis" unicode="&#x1e84;" horiz-adv-x="981" d="M547 865 C591 865 621 895 621 939 C621 984 591 1014 547 1014 C502 1014 472 984 472 939 C472 895 502 865 547 865 L547 865 Z M395 865 C439 865 469 895 469 939 C469 984 439 1014 395 1014 C351 1014 321 984 321 939 C321 895 351 865 395 865 L395 865 Z M386 703 L469 500 L468 500 L374 162 L213 623 L214 623 C212 627 210 631 208 635 L178 721 C174 738 176 743 180 743 L232 749 L232 750 L168 750 L116 750 L27 750 L-1 750 L-1 749 L29 745 L258 162 L326 -10 L360 -10 L494 437 L597 187 L678 -10 L712 -10 L911 743 L954 749 L954 750 L913 750 L871 750 L860 750 L788 750 L788 749 L844 743 C852 742 853 722 829 623 L830 623 L725 186 L725 187 L526 721 C521 738 522 743 526 744 L578 750 L578 751 L515 751 L452 751 L366 751 L325 751 L325 750 L369 744 L381 715 C382 712 383 708 385 704 L386 703 L386 703 Z " />
<glyph glyph-name="Etilde" unicode="&#x1ebc;" horiz-adv-x="575" d="M186 870 C186 903 199 925 218 925 C267 925 298 860 347 860 C387 860 414 916 414 1001 L411 1001 C411 965 396 941 373 941 C324 941 293 1006 244 1006 C207 1006 183 952 183 870 L186 870 L186 870 Z M414 0 L521 0 C522 9 524 21 525 29 C526 38 528 50 529 59 L528 59 L518 28 C513 13 494 4 414 4 L281 4 C235 4 230 23 230 51 L230 72 L230 385 L329 385 C408 385 425 373 429 355 L435 324 L436 324 L436 385 L436 387 L436 390 L436 451 L435 451 L429 420 C425 402 408 390 329 390 L230 390 L230 678 L230 746 L389 746 C485 746 487 737 491 722 L499 691 L500 691 C500 700 499 712 498 721 C497 729 497 741 496 750 L389 750 L230 750 L143 750 L101 750 L55 750 L55 749 L84 743 C94 740 101 729 101 678 L101 72 C101 21 94 10 84 7 L55 1 L55 0 L101 0 L143 0 L230 0 L414 0 L414 0 Z " />
<glyph glyph-name="Ygrave" unicode="&#x1ef2;" horiz-adv-x="630" d="M234 981 C208 1020 188 1046 179 1046 C148 1046 122 1019 122 988 C122 979 146 957 181 929 L326 811 L340 826 L234 981 L234 981 Z M176 743 L218 749 L218 750 L172 750 L106 750 L21 750 L-7 750 L-7 749 L24 745 L260 316 L260 67 C260 20 253 10 242 7 L214 1 L214 0 L324 0 L435 0 L435 1 L406 7 C396 10 389 20 389 67 L389 337 L574 744 L613 749 L613 750 L577 750 L567 750 L521 750 L521 749 L564 743 L517 638 C516 636 515 634 514 632 L514 632 L386 343 L176 743 L176 743 Z " />
<glyph glyph-name="quoteleft" unicode="&#x2018;" horiz-adv-x="511" d="" />
<glyph glyph-name="quoteright" unicode="&#x2019;" horiz-adv-x="151" d="" />
<glyph glyph-name="quotedblleft" unicode="&#x201c;" horiz-adv-x="511" d="M273 640 C260 640 249 634 241 624 C241 687 270 737 313 749 L303 760 C245 744 206 682 206 603 C206 560 233 532 273 532 C306 532 328 554 328 586 C328 618 306 640 273 640 L273 640 Z " />
<glyph glyph-name="quotedblright" unicode="&#x201d;" horiz-adv-x="511" d="M306 668 C304 604 271 554 223 541 L233 531 C297 548 340 612 340 692 C340 732 313 759 272 759 C240 759 218 737 218 705 C218 673 240 651 272 651 C286 651 297 657 305 667 L306 668 L306 668 Z " />
<glyph glyph-name="Euro" unicode="&#x20ac;" horiz-adv-x="758" d="M621 720 L620 720 C579 745 529 760 460 760 C276 760 143 652 104 482 L67 482 L55 400 L93 400 C93 392 93 384 93 376 C93 368 93 360 93 352 L55 352 L43 270 L103 270 C141 100 270 -8 450 -8 C518 -8 572 8 618 35 C628 40 671 62 708 81 C712 83 715 78 715 68 L715 120 L715 126 L715 183 C715 183 712 179 708 174 C701 166 693 157 684 147 L683 148 C678 142 673 136 668 130 C636 96 598 60 569 39 C531 13 492 -2 450 -2 C341 -2 262 104 239 272 L498 272 L509 354 L232 354 C232 362 232 370 232 378 C232 386 232 394 232 402 L509 402 L521 484 L239 484 C263 651 345 757 459 757 C487 757 512 751 536 739 L536 739 C567 725 619 678 662 632 C669 624 676 616 683 608 L684 609 C692 599 700 590 707 581 C711 575 714 571 714 571 L714 628 L714 635 L714 685 C714 685 711 680 707 672 C706 671 670 690 619 723 L621 720 L621 720 Z " />
<glyph glyph-name="F_sc" unicode="&#xa730;" horiz-adv-x="493" d="M327 295 C354 290 362 282 364 271 L370 236 L370 295 L370 297 L370 299 L370 359 L364 323 C361 309 344 299 262 299 L220 299 L220 511 L220 580 L253 580 C400 580 431 571 435 557 L443 526 L444 526 C444 527 445 527 445 527 C444 535 443 547 442 555 C442 563 441 575 440 583 L332 583 L220 583 L139 583 L105 583 L59 583 L59 582 L87 576 C98 574 105 562 105 511 L105 72 C105 21 98 10 87 7 L59 1 L59 0 L105 0 L162 0 L220 0 L266 0 L266 1 L238 7 C227 10 220 21 220 72 L220 295 L327 295 L327 295 Z " />
<glyph glyph-name="S_sc" unicode="&#xa731;" horiz-adv-x="462" d="M319 569 L318 569 C291 584 259 593 225 593 C127 593 62 527 62 428 C62 340 109 264 199 232 C286 200 331 161 331 127 C331 48 292 -4 234 -4 C220 -4 206 0 192 7 C176 17 130 68 88 118 C86 121 84 124 82 128 L79 127 C71 137 63 147 56 156 C52 162 49 166 49 166 L49 113 L49 107 L49 49 C49 49 52 55 56 65 C56 65 87 45 136 17 L136 17 C166 0 199 -10 233 -10 C346 -10 422 58 422 161 C422 242 369 315 268 352 C191 380 152 425 152 472 C152 542 181 589 224 589 C227 589 231 588 235 586 L224 588 C236 588 248 585 260 580 L235 585 C262 575 308 534 346 491 C347 489 348 487 349 485 L351 486 C360 476 368 466 375 457 C379 452 382 448 382 448 L382 499 L382 501 L382 551 C382 551 379 546 375 538 C375 537 352 549 318 568 L319 569 L319 569 Z " />
<glyph glyph-name="X_sc" unicode="&#xf078;" horiz-adv-x="618" d="M100 0 L105 0 L186 0 L186 1 L126 7 C119 8 117 14 129 35 L193 127 C195 130 197 133 200 136 L199 136 L271 239 L391 54 C415 16 420 7 419 6 L372 0 L372 -1 L426 -1 L486 -1 L564 -1 L600 -1 L600 0 L560 5 L344 337 L422 425 L422 425 C423 426 424 427 425 428 L555 576 L597 582 L597 583 L561 583 L524 583 L509 583 L450 583 L450 582 L500 576 C502 576 489 555 411 446 L411 446 L340 346 L269 456 L269 456 C203 557 192 576 193 576 L241 582 L241 583 L186 583 L129 583 L50 583 L18 583 L18 582 L54 577 L111 489 C117 479 124 468 132 456 L132 456 L257 263 L105 61 C72 18 64 8 62 7 L14 1 L14 0 L59 0 L100 0 L100 0 Z " />
</font>
</svg>
