<?xml version="1.0" encoding="UTF-8"?>
<svg xmlns="http://www.w3.org/2000/svg" xmlns:xlink="http://www.w3.org/1999/xlink" version="1.2" >
<font id="Jerrad Light">
<font-face  font-family="Jerrad" units-per-em="1024" ascent="975" descent="-300" font-style="normal" font-weight="300" font-stretch="normal" cap-height="750" x-height="500" underline-position="-125" underline-thickness="50" />
<missing-glyph  horiz-adv-x="650" d="" />
<glyph glyph-name="NULL" d="" />
<glyph glyph-name="CR" unicode="&#xd;" horiz-adv-x="256" d="" />
<glyph glyph-name="space" unicode="&#x20;" horiz-adv-x="195" d="" />
<glyph glyph-name="exclam" unicode="&#x21;" horiz-adv-x="201" d="M101 -5 C122 -5 136 9 136 30 C136 52 122 66 101 66 C79 66 65 52 65 30 C65 9 79 -5 101 -5 L101 -5 Z M101 755 C73 755 67 721 70 671 L96 210 L105 210 L131 671 C134 721 128 755 101 755 L101 755 Z " />
<glyph glyph-name="quotedbl" unicode="&#x22;" horiz-adv-x="281" d="M744 750 C728 750 726 732 729 705 L747 560 L753 560 L771 705 C774 732 772 750 756 750 L744 750 L744 750 Z " />
<glyph glyph-name="numbersign" unicode="&#x23;" horiz-adv-x="469" d="M351 681 L322 479 L193 479 L222 681 L219 681 L190 479 L64 479 L59 441 L185 441 L153 219 L25 219 L19 181 L148 181 L122 0 L125 0 L151 181 L280 181 L254 0 L257 0 L283 181 L399 181 L404 219 L288 219 L320 441 L444 441 L449 479 L325 479 L354 681 L351 681 L351 681 Z M188 441 L317 441 L285 219 L156 219 L188 441 L188 441 Z " />
<glyph glyph-name="dollar" unicode="&#x24;" horiz-adv-x="501" d="M283 825 L283 753 C266 758 248 760 230 760 C227 760 224 760 221 760 L221 825 L203 825 L203 758 C124 746 73 677 73 577 C73 505 117 432 203 377 L203 11 C194 15 185 20 176 26 C169 36 110 117 60 184 C56 189 53 193 53 193 L53 148 L53 139 L53 85 C53 85 56 91 60 100 C61 101 91 78 136 42 L136 42 C157 26 180 13 203 4 L203 -75 L221 -75 L221 -2 C239 -7 257 -10 275 -10 C277 -10 279 -10 281 -10 L281 -75 L299 -75 L299 -9 C396 2 459 76 459 181 C459 266 405 348 299 400 L299 726 C332 696 376 647 408 605 C412 600 415 596 415 596 L415 641 L415 644 L415 691 C415 691 412 686 408 679 C408 677 386 692 354 716 L353 716 C336 729 317 739 297 746 L297 824 L283 825 L283 825 Z M297 738 L297 740 C301 738 305 736 309 733 L297 738 L297 738 Z M278 745 L264 751 C268 749 273 746 278 742 L278 409 C255 420 234 432 216 445 L216 758 C219 758 222 758 225 758 C243 758 261 755 279 749 L278 745 L278 745 Z M265 752 L257 755 C259 755 262 754 265 753 L265 752 L265 752 Z M217 368 C229 361 242 354 255 348 C263 344 271 340 279 336 L279 -5 C277 -5 275 -5 273 -5 C255 -5 237 -1 219 6 L217 368 L217 368 Z M299 326 C375 280 415 222 415 167 C415 74 370 9 299 -3 L299 326 L299 326 Z M201 460 C144 504 115 554 115 601 C115 684 149 743 201 758 L201 460 L201 460 Z " />
<glyph glyph-name="ampersand" unicode="&#x26;" horiz-adv-x="294" d="M311 471 L316 466 C407 493 468 552 468 613 C468 701 407 760 315 760 C218 760 153 697 153 603 C153 565 207 499 289 404 L504 152 C430 78 350 36 273 36 C169 36 100 108 100 216 C100 321 162 410 255 438 L246 441 C127 404 48 308 48 201 C48 74 126 -10 244 -10 C335 -10 430 44 516 138 L550 98 C606 33 666 -11 700 -11 C767 -11 819 52 831 147 L822 150 C813 78 773 30 721 30 C693 30 643 68 594 124 L549 176 C616 261 677 371 724 499 L712 499 C667 374 607 268 540 189 L334 429 C252 524 198 590 198 629 C198 700 245 747 316 747 C383 747 428 694 428 615 C428 549 381 492 312 470 L311 471 L311 471 Z " />
<glyph glyph-name="quotesingle" unicode="&#x27;" horiz-adv-x="183" d="" />
<glyph glyph-name="parenleft" unicode="&#x28;" horiz-adv-x="332" d="M320 760 C177 664 82 469 82 273 C82 85 174 -110 313 -214 L316 -209 C197 -119 118 74 118 273 C118 479 200 671 323 754 L320 760 L320 760 Z " />
<glyph glyph-name="parenright" unicode="&#x29;" horiz-adv-x="332" d="M27 754 C150 674 232 482 232 273 C232 61 153 -131 34 -209 L37 -214 C176 -125 268 70 268 273 C268 473 173 668 30 760 L27 754 L27 754 Z " />
<glyph glyph-name="asterisk" unicode="&#x2a;" horiz-adv-x="268" d="M150 630 L165 750 C167 761 161 769 150 769 C139 769 133 761 135 750 L150 630 L150 630 Z M150 630 L246 557 C255 550 265 551 271 560 C276 570 272 579 262 583 L150 630 L150 630 Z M150 630 L54 703 C45 710 35 709 29 700 C24 690 28 681 38 677 L150 630 L150 630 Z M150 630 L262 677 C272 681 276 690 271 700 C265 709 255 710 246 703 L150 630 L150 630 Z M150 630 L38 583 C28 579 24 570 29 560 C35 551 45 550 54 557 L150 630 L150 630 Z M150 630 L135 510 C133 499 139 491 150 491 C161 491 167 499 165 510 L150 630 L150 630 Z " />
<glyph glyph-name="plus" unicode="&#x2b;" horiz-adv-x="576" d="M269 438 L269 268 L100 268 L100 232 L269 232 L269 62 L308 62 L308 232 L476 232 L476 268 L308 268 L308 438 L269 438 L269 438 Z " />
<glyph glyph-name="comma" unicode="&#x2c;" horiz-adv-x="257" d="M175 48 C179 35 181 20 181 3 C181 -65 135 -110 65 -110 L65 -111 C139 -111 188 -63 188 8 C188 50 177 83 159 100 C150 109 138 114 124 114 C88 114 64 90 64 54 C64 18 88 -6 124 -6 C152 -6 171 15 173 47 L175 48 L175 48 Z " />
<glyph glyph-name="hyphen" unicode="&#x2d;" horiz-adv-x="386" d="M80 265 L306 265 L306 305 L80 305 L80 265 L80 265 Z " />
<glyph glyph-name="period" unicode="&#x2e;" horiz-adv-x="195" d="M125 -5 C146 -5 160 9 160 30 C160 52 146 66 125 66 C104 66 90 52 90 30 C90 9 104 -5 125 -5 L125 -5 Z " />
<glyph glyph-name="slash" unicode="&#x2f;" horiz-adv-x="378" d="M319 770 L37 -80 L67 -80 L349 770 L319 770 L319 770 Z " />
<glyph glyph-name="zero" unicode="0" horiz-adv-x="605" d="M305 11 C180 11 73 107 73 250 C73 379 166 489 305 489 C430 489 537 393 537 250 C537 121 444 11 305 11 L305 11 Z M49 250 C49 94 167 -10 305 -10 C459 -10 561 110 561 250 C561 406 443 510 305 510 C151 510 49 390 49 250 L49 250 Z " />
<glyph glyph-name="one" unicode="1" horiz-adv-x="217" d="M134 22 L134 478 C134 487 141 490 150 493 L178 499 L178 500 L109 500 L40 500 L40 499 L67 493 C77 490 84 487 84 478 L84 22 C84 13 77 10 67 7 L40 1 L40 0 L109 0 L178 0 L178 1 L150 7 C141 10 134 13 134 22 L134 22 Z " />
<glyph glyph-name="two" unicode="2" horiz-adv-x="483" d="M56 291 C77 400 139 472 210 472 C285 472 334 416 334 331 C334 231 194 114 30 9 L30 0 L286 0 L353 0 L381 0 C385 6 389 12 393 18 L410 44 L410 44 C416 53 422 63 426 70 L426 71 L426 73 L403 44 L292 44 L98 44 C258 153 384 263 384 343 C384 443 325 510 237 510 C148 510 71 423 46 294 L56 291 L56 291 Z " />
<glyph glyph-name="three" unicode="3" horiz-adv-x="365" d="M18 -222 L20 -232 C203 -213 325 -121 325 -2 C325 94 256 169 151 183 C260 238 329 305 329 384 C329 460 274 510 190 510 C112 510 44 446 22 351 L33 348 C50 424 105 475 170 475 C234 475 276 432 276 367 C276 278 203 213 93 166 L93 156 C200 141 272 72 272 -17 C272 -124 171 -206 18 -222 L18 -222 Z " />
<glyph glyph-name="four" unicode="4" horiz-adv-x="536" d="M512 2 C513 9 514 16 515 22 C517 36 519 54 521 68 L520 68 L511 39 L400 39 L371 39 L371 436 L371 531 L365 531 L15 10 L15 1 L33 1 L321 1 L321 -219 L371 -219 L371 1 L445 1 L506 1 L507 -23 L508 -23 C509 -16 510 -8 511 0 L511 0 L512 2 L512 2 Z M57 38 L320 435 L320 38 L57 38 L57 38 Z " />
<glyph glyph-name="five" unicode="5" horiz-adv-x="384" d="M60 -232 C237 -211 354 -99 354 47 C354 180 250 268 93 268 L81 268 L109 455 L297 457 L302 487 C302 489 302 491 302 493 C304 503 306 517 308 528 L307 528 L296 500 L196 500 L99 500 L56 223 L65 215 L87 215 C220 215 309 141 309 30 C309 -103 209 -204 58 -223 L60 -232 L60 -232 Z " />
<glyph glyph-name="six" unicode="6" horiz-adv-x="523" d="M506 750 C238 693 59 508 59 287 C59 109 144 -10 272 -10 C391 -10 471 90 471 239 C471 372 388 461 262 461 C197 461 146 428 120 373 C162 559 307 701 508 744 L506 750 L506 750 Z M108 261 C108 380 169 459 262 459 C357 459 421 373 421 243 C421 93 361 -7 271 -7 C173 -7 108 100 108 261 L108 261 Z " />
<glyph glyph-name="seven" unicode="7" horiz-adv-x="393" d="M132 500 L80 500 L80 499 L85 520 L84 520 L83 520 C77 506 69 488 63 475 C57 462 49 444 43 430 L44 430 L45 430 L64 460 L64 459 L113 459 L372 459 L384 477 L111 -220 L150 -220 L389 485 L389 500 L388 500 L132 500 L132 500 Z " />
<glyph glyph-name="eight" unicode="8" horiz-adv-x="498" d="M212 387 C219 383 226 379 234 376 C346 325 421 272 421 165 C421 61 354 -8 253 -8 C156 -8 91 65 91 174 C91 268 139 350 212 387 L212 387 Z M209 389 C110 346 46 263 46 175 C46 65 128 -9 252 -9 C375 -9 458 70 458 189 C458 299 388 359 281 410 C372 451 431 524 431 598 C431 696 358 761 250 761 C142 761 71 690 71 584 C71 504 125 435 208 390 L209 389 L209 389 Z M277 412 C269 416 261 420 253 424 C167 463 110 528 110 605 C110 699 165 761 249 761 C332 761 387 695 387 596 C387 516 344 446 277 413 L277 412 L277 412 Z " />
<glyph glyph-name="nine" unicode="9" horiz-adv-x="523" d="M17 -250 C285 -193 464 -8 465 213 C464 391 379 510 252 510 C132 510 52 410 52 261 C52 128 136 39 261 39 C326 39 377 72 403 127 C361 -59 216 -201 15 -244 L17 -250 L17 -250 Z M415 239 C415 120 354 41 262 41 C166 41 102 127 102 257 C102 407 162 507 252 507 C350 507 415 400 415 239 L415 239 Z " />
<glyph glyph-name="colon" unicode="&#x3a;" horiz-adv-x="135" d="M125 385 C146 385 160 399 160 420 C160 442 146 456 125 456 C104 456 90 442 90 420 C90 399 104 385 125 385 L125 385 Z M125 -5 C146 -5 160 9 160 30 C160 52 146 66 125 66 C104 66 90 52 90 30 C90 9 104 -5 125 -5 L125 -5 Z " />
<glyph glyph-name="semicolon" unicode="&#x3b;" horiz-adv-x="257" d="M125 385 C146 385 160 399 160 420 C160 442 146 456 125 456 C104 456 90 442 90 420 C90 399 104 385 125 385 L125 385 Z M175 48 C179 35 181 20 181 3 C181 -65 135 -110 65 -110 L65 -111 C139 -111 188 -63 188 8 C188 50 177 83 159 100 C150 109 138 114 124 114 C88 114 64 90 64 54 C64 18 88 -6 124 -6 C152 -6 171 15 173 47 L175 48 L175 48 Z " />
<glyph glyph-name="equal" unicode="&#x3d;" horiz-adv-x="484" d="M78 211 L78 189 L414 189 L414 211 L78 211 L78 211 Z M78 311 L78 289 L414 289 L414 311 L78 311 L78 311 Z " />
<glyph glyph-name="question" unicode="&#x3f;" horiz-adv-x="304" d="M125 -5 C146 -5 160 9 160 30 C160 52 146 66 125 66 C104 66 90 52 90 30 C90 9 104 -5 125 -5 L125 -5 Z M121 175 L125 360 C210 360 244 397 281 453 C298 478 309 518 309 553 C309 677 243 760 145 760 C117 760 98 745 98 723 C98 708 109 698 125 698 C137 698 151 707 163 707 C242 707 295 643 295 547 C295 527 285 498 270 476 C243 437 213 410 108 410 L113 175 L121 175 L121 175 Z " />
<glyph glyph-name="at" unicode="&#x40;" horiz-adv-x="1073" d="M978 0 C912 -143 738 -239 545 -239 C274 -239 94 -40 94 259 C94 558 271 757 537 757 C803 757 980 591 980 343 C980 140 906 4 794 4 C679 4 621 82 651 200 L721 480 L673 480 L650 390 C640 451 599 490 541 490 C385 490 281 373 281 197 C281 87 343 13 436 13 C502 13 561 60 595 134 C600 44 670 -12 785 -12 C925 -12 1019 130 1019 344 C1019 600 826 771 537 771 C248 771 55 567 55 260 C55 -47 251 -251 545 -251 C744 -251 924 -150 995 1 L978 0 L978 0 Z M642 357 L603 201 C579 106 522 42 462 42 C386 42 336 108 336 208 C336 369 417 477 540 477 C601 477 642 429 642 357 L642 357 Z " />
<glyph glyph-name="A" unicode="A" horiz-adv-x="586" d="M126 157 L125 157 L163 296 L391 296 L442 106 C464 25 465 9 461 8 L411 2 L411 1 L470 1 L490 1 L528 1 L570 1 L570 2 L526 8 L516 44 C511 62 504 89 493 128 L493 128 L329 733 L319 771 L313 771 C298 749 282 734 273 733 L276 722 L161 300 L161 300 L161 299 L123 158 L122 158 C88 33 78 9 73 8 L21 2 L21 1 L80 1 L82 1 L88 1 L154 1 L154 2 L98 8 C89 9 91 34 125 158 L126 157 L126 157 Z M163 300 L277 721 L390 300 L163 300 L163 300 Z " />
<glyph glyph-name="B" unicode="B" horiz-adv-x="529" d="M175 748 L238 748 C384 748 418 674 418 563 C418 457 361 386 275 386 L175 386 L175 678 L175 748 L175 748 Z M309 386 C409 398 474 468 474 568 C474 677 430 749 242 749 L175 749 L124 749 L74 749 L74 748 L102 742 C112 739 119 728 119 677 L119 71 C119 20 112 9 102 6 L74 0 L74 -1 L124 -1 L175 -1 L295 -1 C412 -1 489 36 489 192 C489 308 422 385 320 385 L309 386 L309 386 Z M276 383 L315 383 C383 383 428 307 428 192 C428 37 374 1 293 1 L243 1 C202 1 175 21 175 50 L175 71 L175 383 L276 383 L276 383 Z " />
<glyph glyph-name="C" unicode="C" horiz-adv-x="648" d="M513 714 C471 743 422 760 355 760 C178 760 61 606 61 375 C61 144 175 -10 345 -10 C405 -10 455 5 498 31 L499 31 C499 31 551 60 593 83 C598 85 601 80 601 70 L601 120 L601 122 L601 170 C601 170 598 166 593 161 C555 113 496 47 470 28 C432 5 391 -8 345 -8 C211 -8 121 145 121 375 C121 605 214 758 355 758 C390 758 420 751 448 738 C480 718 549 644 592 589 C597 583 600 579 600 579 L600 628 L600 629 L600 678 C600 678 597 673 592 666 C592 664 560 683 512 713 L513 714 L513 714 Z " />
<glyph glyph-name="D" unicode="D" horiz-adv-x="716" d="M119 678 L119 72 C119 21 112 10 102 7 L74 1 L74 0 L119 0 L124 0 L175 0 L238 0 C492 0 661 127 661 375 C661 600 528 750 269 750 L175 750 L124 750 L119 750 L74 750 L74 749 L102 743 C112 740 119 729 119 678 L119 678 Z M175 748 L262 748 C485 748 600 599 600 375 C600 129 454 2 235 2 C181 2 175 22 175 51 L175 72 L175 678 L175 748 L175 748 Z " />
<glyph glyph-name="E" unicode="E" horiz-adv-x="520" d="M359 0 L467 0 C468 8 470 20 471 28 C472 37 474 48 475 57 L474 57 L473 57 L463 25 C458 11 440 2 360 2 L226 2 C180 2 175 22 175 51 L175 72 L175 385 L274 385 C354 385 371 373 374 355 L380 324 L381 324 L382 324 L382 385 L382 386 L382 387 L382 448 L381 448 L380 448 L374 417 C371 399 354 387 274 387 L175 387 L175 678 L175 748 L334 748 C431 748 433 739 436 725 L444 693 L445 693 L446 693 C445 702 444 713 444 722 C443 730 442 742 442 750 L334 750 L175 750 L124 750 L119 750 L74 750 L74 749 L102 743 C112 740 119 729 119 678 L119 72 C119 21 112 10 102 7 L74 1 L74 0 L119 0 L124 0 L175 0 L359 0 L359 0 Z " />
<glyph glyph-name="F" unicode="F" horiz-adv-x="495" d="M314 383 C353 379 363 370 365 357 L371 322 L371 383 L371 384 L371 385 L371 446 L365 411 C362 395 345 385 263 385 L174 385 L174 678 L174 749 L253 749 C401 749 432 739 435 725 L444 694 L445 694 C445 695 446 695 445 695 C445 703 444 714 443 722 C443 731 442 742 441 750 L333 750 L174 750 L123 750 L118 750 L73 750 L73 749 L101 743 C111 740 118 729 118 678 L118 72 C118 21 111 10 101 7 L73 1 L73 0 L118 0 L146 0 L174 0 L220 0 L220 1 L192 7 C181 10 174 21 174 72 L174 383 L314 383 L314 383 Z " />
<glyph glyph-name="G" unicode="G" horiz-adv-x="689" d="M528 258 L529 72 C525 40 482 16 415 8 L470 11 C436 7 399 5 358 5 L415 8 C397 6 378 5 357 5 C216 5 122 153 122 376 C122 606 215 759 356 759 C391 759 421 752 449 739 C481 719 550 645 593 590 C598 584 601 580 601 580 L601 629 L601 630 L601 679 C601 679 598 674 593 667 C593 665 561 684 513 714 C471 743 422 760 355 760 C178 760 61 606 61 375 C61 144 177 -10 352 -10 C418 -10 477 -1 533 15 L583 27 L583 31 C609 40 634 51 659 63 L658 64 C635 53 610 43 583 35 L584 258 C584 305 589 315 597 318 L621 324 L621 325 L552 325 L484 325 L484 324 L511 318 C521 315 528 305 528 258 L528 258 Z " />
<glyph glyph-name="H" unicode="H" horiz-adv-x="692" d="M584 67 L584 683 C584 730 591 740 602 743 L630 749 L630 750 L556 750 L482 750 L482 749 L510 743 C521 740 528 730 528 683 L528 384 L211 384 L211 683 C211 730 218 740 229 743 L257 749 L257 750 L183 750 L110 750 L110 749 L138 743 C148 740 155 730 155 683 L155 67 C155 20 148 10 138 7 L110 1 L110 0 L183 0 L257 0 L257 1 L229 7 C218 10 211 20 211 67 L211 382 L528 382 L528 67 C528 20 521 10 510 7 L482 1 L482 0 L556 0 L630 0 L630 1 L602 7 C591 10 584 20 584 67 L584 67 Z " />
<glyph glyph-name="I" unicode="I" horiz-adv-x="289" d="M181 67 L181 683 C181 730 188 740 199 743 L227 749 L227 750 L153 750 L80 750 L80 749 L108 743 C119 740 126 730 126 683 L126 67 C126 20 119 10 108 7 L80 1 L80 0 L153 0 L227 0 L227 1 L199 7 C188 10 181 20 181 67 L181 67 Z " />
<glyph glyph-name="J" unicode="J" horiz-adv-x="289" d="M126 683 L125 -31 C125 -187 60 -217 12 -217 C-16 -217 -4 -170 -32 -170 C-47 -170 -58 -181 -58 -196 C-58 -211 -31 -220 10 -220 C82 -220 182 -173 182 75 L181 683 C181 730 188 740 199 743 L227 749 L227 750 L153 750 L80 750 L80 749 L108 743 C119 740 126 730 126 683 L126 683 Z " />
<glyph glyph-name="K" unicode="K" horiz-adv-x="583" d="M410 72 L410 72 C462 5 466 0 466 0 L519 0 L535 0 L571 0 L571 1 L530 6 L214 412 L451 743 L451 743 L497 749 L497 750 L456 750 L435 750 L374 750 L374 749 L424 743 C427 742 423 733 397 695 L174 375 L174 690 C174 731 181 740 192 743 L220 749 L220 750 L174 750 L146 750 L118 750 L73 750 L73 749 L101 743 C111 740 118 731 118 690 L118 60 C118 19 111 10 101 7 L73 1 L73 0 L118 0 L146 0 L174 0 L220 0 L220 1 L192 7 C181 10 174 19 174 60 L174 375 L410 72 L410 72 Z " />
<glyph glyph-name="L" unicode="L" horiz-adv-x="500" d="M462 10 C465 20 468 31 470 40 C473 52 478 68 481 80 L480 81 L480 81 L465 50 C454 25 422 9 289 9 L232 9 C186 9 181 25 181 50 L181 71 L181 677 C181 728 188 739 199 742 L227 748 L227 749 L181 749 L153 749 L126 749 L80 749 L80 748 L108 742 C119 739 126 728 126 677 L126 71 C126 20 119 9 108 6 L80 0 L80 -1 L126 -1 L130 -1 L181 -1 L287 -1 L459 -1 L462 10 L462 10 Z M480 81 C480 81 480 81 481 81 L480 81 L480 81 Z " />
<glyph glyph-name="M" unicode="M" horiz-adv-x="732" d="M669 72 L669 72 L654 594 L654 593 C651 719 650 743 650 743 L695 749 L695 750 L649 750 L645 750 L616 750 L596 750 L390 75 L166 750 L134 750 L120 750 L109 750 L99 750 L53 750 L53 749 L100 743 C101 743 104 735 118 694 L102 137 L101 137 C99 29 96 8 92 7 L43 1 L43 0 L98 0 L107 0 L117 0 L172 0 L172 1 L123 7 C119 8 117 27 120 127 L120 127 L131 657 L339 75 L366 0 L380 0 L596 691 L612 72 L612 72 C614 21 606 10 595 7 L566 1 L566 0 L614 0 L640 0 L670 0 L714 0 L714 1 L686 7 C676 10 670 21 668 72 L669 72 L669 72 Z " />
<glyph glyph-name="N" unicode="N" horiz-adv-x="637" d="M121 127 L121 127 L120 656 L467 79 L515 0 L526 0 L530 675 C532 728 540 740 552 743 L584 749 L584 750 L530 750 L521 750 L513 750 L459 750 L459 749 L491 743 C504 740 513 724 513 643 L513 643 L514 108 L132 750 L119 750 L105 750 L84 750 L63 750 L35 750 L35 749 L66 745 L81 719 C83 716 85 712 87 708 L87 708 L104 680 L103 137 L103 137 C103 29 101 8 98 7 L49 1 L49 0 L103 0 L112 0 L120 0 L175 0 L175 1 L125 7 C122 8 120 27 120 127 L121 127 L121 127 Z " />
<glyph glyph-name="O" unicode="O" horiz-adv-x="751" d="M364 -8 C221 -8 125 145 125 375 C125 605 224 758 373 758 C528 758 632 605 632 375 C632 145 525 -8 364 -8 L364 -8 Z M61 375 C61 144 182 -10 364 -10 C563 -10 696 144 696 375 C696 606 567 760 374 760 C186 760 61 606 61 375 L61 375 Z " />
<glyph glyph-name="P" unicode="P" horiz-adv-x="468" d="M161 0 L189 0 L235 0 L235 1 L207 7 C196 10 189 21 189 72 L189 353 L228 353 C361 353 449 411 449 541 C449 666 376 750 267 750 L189 750 L138 750 L133 750 L87 750 L87 749 L116 743 C126 740 133 729 133 678 L133 72 C133 21 126 10 116 7 L87 1 L87 0 L133 0 L161 0 L161 0 Z M189 365 L189 678 L189 741 C208 741 234 740 253 740 C339 740 396 664 396 550 C396 422 329 365 228 365 L189 365 L189 365 Z " />
<glyph glyph-name="Q" unicode="Q" horiz-adv-x="746" d="M992 -54 L991 -53 C962 -78 858 -94 733 -94 C580 -94 428 -60 347 -8 C353 -9 359 -10 364 -10 C563 -10 696 144 696 375 C696 606 567 760 374 760 C186 760 61 606 61 375 C61 187 201 50 302 5 L301 5 C417 -76 588 -130 727 -130 C832 -130 938 -100 992 -55 L992 -54 L992 -54 Z M364 -9 C357 -9 349 -7 340 -4 L340 -4 L338 -4 C258 25 126 169 126 374 C126 604 225 757 374 757 C529 757 633 604 633 374 C633 144 526 -9 365 -9 L364 -9 L364 -9 Z " />
<glyph glyph-name="R" unicode="R" horiz-adv-x="585" d="M575 0 L575 4 C504 4 500 7 471 67 C398 221 345 333 327 370 C418 384 475 438 475 539 C475 665 395 749 274 749 L175 749 L124 749 L74 749 L74 748 L102 742 C112 739 119 728 119 677 L119 71 C119 20 112 9 102 6 L74 0 L74 -1 L147 -1 L221 -1 L221 0 L193 6 C182 9 175 20 175 71 L175 365 L271 365 C282 332 334 217 406 65 C437 1 443 -2 575 -2 L575 0 L575 0 Z M175 737 L258 737 C352 737 414 662 414 549 C414 431 358 378 274 378 L175 378 L175 676 L175 737 L175 737 Z " />
<glyph glyph-name="S" unicode="S" horiz-adv-x="501" d="M357 717 L356 717 C320 744 275 760 229 760 C135 760 73 687 73 577 C73 491 136 403 259 346 C363 297 417 229 417 165 C417 62 361 -7 276 -7 C242 -7 208 5 176 26 C169 36 110 117 60 184 C56 189 53 193 53 193 L53 148 L53 139 L53 85 C53 85 56 91 60 100 C61 101 91 78 136 42 L136 42 C178 9 227 -10 276 -10 C387 -10 461 67 461 181 C461 268 404 352 293 404 C177 458 117 531 117 598 C117 694 162 758 229 758 C258 758 287 749 314 733 L268 751 C298 735 365 663 410 605 C414 600 417 596 417 596 L417 641 L417 644 L417 691 C417 691 414 686 410 679 C410 677 388 692 356 716 L357 717 L357 717 Z M268 750 L260 753 C262 753 265 752 268 751 L268 750 L268 750 Z " />
<glyph glyph-name="T" unicode="T" horiz-adv-x="731" d="M676 737 L676 750 L671 750 C668 760 664 770 661 778 L660 778 L659 778 L664 750 L564 750 L394 750 L338 750 L167 750 L67 750 L72 778 L71 778 L70 778 C67 770 63 760 60 750 L55 750 L55 737 C55 736 55 735 55 734 C51 722 44 704 40 691 C40 690 40 690 41 690 L58 721 C63 730 82 736 163 736 L339 736 L339 67 C339 20 332 10 321 7 L293 1 L293 0 L367 0 L441 0 L441 1 L412 7 C402 10 395 20 395 67 L395 736 L570 736 C651 736 670 730 675 721 L693 690 L693 691 L694 691 C689 704 682 722 678 734 C678 735 678 736 678 737 L676 737 L676 737 Z " />
<glyph glyph-name="U" unicode="U" horiz-adv-x="566" d="M488 97 L488 678 L488 750 L437 750 L386 750 L386 749 L414 743 C425 740 432 729 432 678 L432 166 C392 82 308 26 220 26 C172 26 140 100 140 211 L140 678 L140 750 L89 750 L39 750 L39 749 L67 743 C77 740 84 729 84 678 L84 211 C84 78 129 -10 197 -10 C296 -10 389 50 432 141 L432 97 L432 0 L441 0 L533 49 C495 74 488 81 488 97 L488 97 Z " />
<glyph glyph-name="V" unicode="V" horiz-adv-x="627" d="M49 745 L262 82 L292 -10 L303 -10 L557 743 L600 749 L600 750 L559 750 L536 750 L532 750 L464 750 L464 749 L521 743 C529 742 528 722 495 623 L495 623 L292 -10 L321 82 L152 623 L152 623 C120 722 119 742 127 743 L184 749 L184 750 L112 750 L102 750 L47 750 L19 750 L19 749 L49 745 L49 745 Z " />
<glyph glyph-name="W" unicode="W" horiz-adv-x="899" d="M393 743 L463 499 L302 69 L302 71 L146 623 L146 623 C144 629 142 635 140 641 L136 655 C116 728 115 743 120 744 L172 750 L172 751 L109 751 L96 751 L47 751 L19 751 L19 750 L49 746 L247 72 L271 -9 L286 -9 L470 472 L582 82 L608 -9 L623 -9 L795 624 L796 624 C800 639 803 652 806 664 L828 744 L871 750 L871 751 L830 751 L807 751 L803 751 L735 751 L735 750 L792 744 C799 743 800 728 783 660 L632 82 L481 654 L481 654 C480 659 479 663 478 667 L467 709 C461 737 463 744 468 745 L520 751 L520 752 L457 752 L436 752 L392 752 L351 752 L351 751 L393 743 L393 743 Z " />
<glyph glyph-name="X" unicode="X" horiz-adv-x="617" d="M181 137 L180 136 L306 348 L428 127 L428 127 C483 27 493 8 491 7 L443 1 L443 0 L498 0 L522 0 L564 0 L601 0 L601 1 L560 6 L340 405 L557 743 L598 748 L598 749 L561 749 L537 749 L536 749 L477 749 L477 748 L527 742 C530 741 520 720 456 612 L456 611 L338 407 L220 621 L220 621 C165 721 155 740 157 741 L205 747 L205 748 L150 748 L129 748 L84 748 L52 748 L52 747 L87 742 L298 359 L136 95 C89 21 79 6 78 5 L31 -1 L31 -2 L76 -2 L98 -2 L105 -2 L179 -2 L179 -1 L119 5 C108 6 114 28 180 135 L181 137 L181 137 Z " />
<glyph glyph-name="Y" unicode="Y" horiz-adv-x="561" d="M502 743 L503 743 C503 743 503 743 503 742 C503 743 503 743 503 743 L502 743 L502 743 Z M174 623 L174 623 C171 628 168 633 166 638 L113 743 L156 749 L156 750 L110 750 L86 750 L44 750 L16 750 L16 749 L47 745 L97 647 C101 640 105 632 109 624 L109 624 L260 330 L260 68 C260 21 253 11 243 8 L214 2 L214 1 L288 1 L362 1 L362 2 L334 8 C323 11 316 21 316 68 L316 340 L507 745 L547 750 L547 751 L510 751 L506 751 L504 751 L460 751 L460 750 L503 744 L472 678 C466 666 459 652 451 635 L451 634 L316 343 L174 623 L174 623 Z " />
<glyph glyph-name="Z" unicode="Z" horiz-adv-x="590" d="M86 0 L415 0 L562 0 C565 13 569 29 573 41 C575 54 580 70 583 83 L582 83 L582 84 L566 52 C557 33 535 20 462 17 L95 13 L567 738 L567 750 L513 750 L228 750 L71 750 C69 737 67 719 65 706 C63 693 60 675 59 662 L59 661 L60 661 L73 692 C84 718 113 735 226 735 L226 735 L505 737 L26 12 L26 0 L86 0 L86 0 Z " />
<glyph glyph-name="bracketleft" unicode="&#x5b;" horiz-adv-x="285" d="M125 735 L335 735 L335 750 L125 750 L108 750 L108 -195 L125 -195 L335 -195 L335 -180 L125 -180 L125 735 L125 735 Z " />
<glyph glyph-name="backslash" unicode="&#x5c;" horiz-adv-x="336" d="M37 770 L297 -80 L327 -80 L67 770 L37 770 L37 770 Z " />
<glyph glyph-name="bracketright" unicode="&#x5d;" horiz-adv-x="288" d="M161 735 L161 -180 L-49 -180 L-49 -195 L161 -195 L178 -195 L178 750 L161 750 L-49 750 L-49 735 L161 735 L161 735 Z " />
<glyph glyph-name="underscore" unicode="&#x5f;" horiz-adv-x="356" d="M5 -50 L5 -78 L352 -78 L352 -50 L5 -50 L5 -50 Z " />
<glyph glyph-name="a" unicode="a" horiz-adv-x="468" d="M479 77 L468 83 C463 52 441 31 413 31 C379 31 356 51 356 81 L356 358 C356 463 309 510 237 510 C139 510 73 414 73 360 C73 339 83 325 99 325 C119 325 132 339 132 350 C132 366 112 380 112 392 C112 434 161 508 235 508 C277 508 306 467 306 377 L306 265 C146 173 53 115 53 80 C53 26 93 -10 153 -10 C209 -10 264 16 306 82 L306 81 C306 30 341 -5 392 -5 C435 -5 470 28 479 77 L479 77 Z M306 263 L306 84 C274 36 229 17 179 17 C134 17 104 44 104 86 C104 140 178 189 306 262 L306 263 L306 263 Z " />
<glyph glyph-name="b" unicode="b" horiz-adv-x="521" d="M127 0 L130 0 L145 65 C183 20 243 -10 296 -10 C405 -10 477 95 477 251 C477 404 404 505 293 505 C249 505 204 472 178 420 L178 688 L178 750 L169 750 L91 728 L91 727 L91 726 L115 727 C123 727 128 719 128 676 L128 195 L127 0 L127 0 Z M178 413 C202 460 241 490 279 490 C365 490 422 392 422 246 C422 96 373 -4 299 -4 C260 -4 212 26 178 70 L178 195 L178 413 L178 413 Z " />
<glyph glyph-name="c" unicode="c" horiz-adv-x="416" d="M387 128 L380 131 C351 65 296 21 245 21 C159 21 102 118 102 264 C102 405 156 499 238 499 C279 499 320 461 340 405 C345 390 355 380 365 380 C385 380 395 390 390 405 C367 468 308 510 241 510 C127 510 51 401 51 239 C51 89 121 -10 227 -10 C286 -10 350 45 387 128 L387 128 Z " />
<glyph glyph-name="d" unicode="d" horiz-adv-x="513" d="M420 89 C388 45 335 16 286 16 C179 16 107 117 107 267 C107 404 171 495 294 495 C338 495 391 447 421 391 L421 97 L420 89 L420 89 Z M421 72 L421 -10 L430 -10 L508 10 L508 11 L484 11 C476 11 471 27 471 108 L471 671 L471 750 L462 750 L384 728 L384 727 L384 726 L408 727 C416 727 421 716 421 660 L421 445 C387 483 337 510 289 510 C135 510 56 407 56 254 C56 98 140 -5 265 -5 C324 -5 386 25 421 72 L421 72 Z " />
<glyph glyph-name="e" unicode="e" horiz-adv-x="474" d="M111 340 L389 340 L431 340 L445 340 C423 462 356 510 267 510 C137 510 50 400 50 235 C50 88 129 -10 247 -10 C327 -10 402 47 433 133 L427 136 C403 68 335 23 259 23 C166 23 103 116 103 255 C103 286 106 314 111 340 L111 340 Z M428 355 C429 355 430 355 431 355 L428 355 L428 355 Z M386 355 L114 353 C136 444 191 500 264 500 C319 500 364 459 385 356 L386 355 L386 355 Z " />
<glyph glyph-name="f" unicode="f" horiz-adv-x="269" d="M142 474 L260 474 L260 500 L142 500 C142 644 172 740 230 740 C308 740 243 635 308 635 C335 635 353 653 353 680 C353 725 311 755 247 755 C145 755 92 653 92 500 L-11 479 L-11 474 L92 474 L92 22 C92 13 87 10 79 7 L55 1 L55 0 L117 0 L179 0 L179 1 L155 7 C147 10 142 13 142 22 L142 474 L142 474 Z " />
<glyph glyph-name="g" unicode="g" horiz-adv-x="476" d="M134 350 C134 439 175 498 237 498 C300 498 341 439 341 350 C341 260 300 200 237 200 C175 200 134 260 134 350 L134 350 Z M156 18 C161 18 166 18 171 18 L272 18 C365 18 401 -25 401 -89 C401 -167 341 -218 251 -218 C157 -218 95 -163 95 -80 C95 -35 119 3 156 19 L156 18 L156 18 Z M145 20 C90 2 54 -41 54 -92 C54 -174 132 -229 248 -229 C364 -229 442 -168 442 -78 C442 10 396 68 277 68 L173 68 C123 68 90 90 90 123 C90 163 149 189 238 189 C331 189 392 254 392 351 C392 365 391 378 389 390 C406 441 438 475 470 475 C487 475 499 459 499 435 C499 424 508 417 522 417 C534 417 542 427 542 441 C542 474 522 496 491 496 C446 496 405 460 385 405 C366 471 312 512 238 512 C146 512 85 448 85 352 C85 274 124 217 187 198 C109 189 60 156 60 110 C60 63 93 30 145 22 L145 20 L145 20 Z " />
<glyph glyph-name="h" unicode="h" horiz-adv-x="470" d="M337 22 C337 13 332 10 324 7 L300 1 L300 0 L362 0 L424 0 L424 1 L401 7 C392 10 387 13 387 22 L387 365 C387 452 353 510 288 510 C222 510 163 457 138 376 L138 688 L138 750 L129 750 L51 728 L51 727 L51 726 L75 727 C83 727 88 719 88 676 L88 22 C88 13 83 10 75 7 L51 1 L51 0 L113 0 L175 0 L175 1 L151 7 C143 10 138 13 138 22 L138 375 C156 435 204 475 259 475 C310 475 337 431 337 365 L337 22 L337 22 Z " />
<glyph glyph-name="i" unicode="i" horiz-adv-x="220" d="M122 615 C141 615 154 628 154 647 C154 667 141 680 122 680 C103 680 90 667 90 647 C90 628 103 615 122 615 L122 615 Z M147 22 L147 438 L147 500 L138 500 L60 478 L60 477 L60 476 L84 477 C92 477 97 469 97 426 L97 22 C97 12 93 9 86 7 L64 1 L64 0 L122 0 L180 0 L180 1 L158 7 C151 9 147 12 147 22 L147 22 Z " />
<glyph glyph-name="j" unicode="j" horiz-adv-x="226" d="M112 615 C131 615 144 628 144 647 C144 667 131 680 112 680 C93 680 80 667 80 647 C80 628 93 615 112 615 L112 615 Z M87 426 L87 29 C87 -47 69 -108 42 -123 C8 -123 -33 -100 -68 -100 C-95 -100 -113 -116 -113 -140 C-113 -169 -89 -187 -53 -185 C-46 -184 -4 -162 52 -130 C103 -101 137 -37 137 29 L137 438 L137 500 L128 500 L50 478 L50 477 L50 476 L74 477 C82 477 87 469 87 426 L87 426 Z " />
<glyph glyph-name="k" unicode="k" horiz-adv-x="411" d="M343 0 L382 0 L405 0 L405 1 L379 5 L187 305 L345 478 L346 479 C349 482 351 484 352 486 L361 495 L393 499 L393 500 L366 500 L349 500 L331 500 L268 500 L268 499 L328 493 C336 492 320 467 205 343 L209 347 L148 280 L148 688 L148 750 L139 750 L61 728 L61 727 L61 726 L85 727 C93 727 98 719 98 676 L98 22 C98 12 94 9 87 7 L65 1 L65 0 L123 0 L181 0 L181 1 L159 7 C152 9 148 12 148 22 L148 280 L316 6 L283 1 L283 0 L320 0 L343 0 L343 0 Z " />
<glyph glyph-name="l" unicode="l" horiz-adv-x="210" d="M137 22 L137 688 L137 750 L128 750 L50 728 L50 727 L50 726 L74 727 C82 727 87 719 87 676 L87 22 C87 12 82 9 75 7 L52 1 L52 0 L112 0 L172 0 L172 1 L149 7 C142 9 137 12 137 22 L137 22 Z " />
<glyph glyph-name="m" unicode="m" horiz-adv-x="701" d="M578 42 C578 15 573 9 567 7 L545 1 L545 0 L605 0 L665 0 L665 1 L641 7 C633 10 628 16 628 42 L628 365 C628 452 597 510 516 510 C457 510 403 462 378 388 C373 462 341 510 268 510 C209 510 154 459 131 381 L131 438 L131 500 L122 500 L44 471 L44 470 L68 473 C76 474 81 466 81 423 L81 42 C81 16 76 10 68 7 L44 1 L44 0 L103 0 L162 0 L162 1 L141 7 C135 9 131 15 131 42 L131 380 C148 436 194 473 247 473 C306 473 329 430 329 365 L329 42 C329 15 325 9 318 7 L296 1 L296 0 L352 0 L408 0 L408 1 L388 7 C383 9 379 15 379 42 L379 365 C379 372 379 379 379 386 C398 438 443 472 495 472 C555 472 578 429 578 364 L578 42 L578 42 Z " />
<glyph glyph-name="n" unicode="n" horiz-adv-x="452" d="M329 22 C329 12 324 9 317 7 L294 1 L294 0 L354 0 L414 0 L414 1 L391 7 C384 9 379 12 379 22 L379 382 C379 459 341 510 268 510 C208 510 154 460 131 385 L131 438 L131 500 L122 500 L44 471 L44 470 L68 473 C76 474 81 466 81 423 L81 22 C81 12 76 9 69 7 L46 1 L46 0 L106 0 L166 0 L166 1 L143 7 C136 9 131 12 131 22 L131 377 C151 443 200 487 254 487 C303 487 329 445 329 382 L329 22 L329 22 Z " />
<glyph glyph-name="o" unicode="o" horiz-adv-x="565" d="M285 -8 C177 -8 105 95 105 250 C105 405 177 508 285 508 C393 508 465 405 465 250 C465 95 393 -8 285 -8 L285 -8 Z M50 250 C50 94 144 -10 285 -10 C426 -10 520 94 520 250 C520 406 426 510 285 510 C144 510 50 406 50 250 L50 250 Z " />
<glyph glyph-name="p" unicode="p" horiz-adv-x="480" d="M82 -175 C82 -204 77 -210 69 -213 L45 -219 L45 -220 L107 -220 L169 -220 L169 -219 L145 -213 C137 -210 132 -204 132 -175 L132 102 C166 37 213 -5 253 -5 C363 -5 436 114 436 254 C436 408 363 510 253 510 C209 510 162 480 132 435 L132 438 L132 500 L123 500 L45 471 L45 470 L69 473 C77 474 82 466 82 423 L82 -175 L82 -175 Z M132 108 L132 414 C161 459 200 489 231 489 C322 489 382 389 382 238 C382 108 331 -3 254 -3 C214 -3 167 41 132 108 L132 108 Z " />
<glyph glyph-name="q" unicode="q" horiz-adv-x="546" d="M452 -198 L452 411 L452 440 L452 500 L449 500 L432 440 C392 482 331 510 281 510 C130 510 53 407 53 254 C53 98 135 -5 259 -5 C256 -5 313 26 402 72 L402 -198 C402 -207 397 -210 389 -213 L365 -219 L365 -220 L427 -220 L489 -220 L489 -219 L465 -213 C457 -210 452 -207 452 -198 L452 -198 Z M402 411 L402 90 C318 46 269 16 281 16 C176 16 106 117 106 267 C106 406 165 499 279 499 C325 499 375 464 403 411 L402 411 L402 411 Z " />
<glyph glyph-name="r" unicode="r" horiz-adv-x="303" d="M137 410 L137 438 L137 500 L128 500 L50 471 L50 470 L74 473 C82 474 87 466 87 423 L87 22 C87 12 83 9 76 7 L54 1 L54 0 L114 0 L174 0 L174 1 L150 7 C142 10 137 13 137 22 L137 404 C147 455 180 487 227 487 C232 487 235 473 235 452 C235 434 247 422 264 422 C282 422 294 434 294 452 C294 487 276 510 250 510 C190 510 148 471 137 410 L137 410 Z " />
<glyph glyph-name="s" unicode="s" horiz-adv-x="391" d="M246 496 L245 496 C227 505 208 510 188 510 C121 510 76 461 76 389 C76 322 119 261 203 231 C269 207 303 160 303 107 C303 38 267 -8 214 -8 C209 -8 204 -8 199 -7 C187 -2 126 66 80 122 C76 126 74 129 74 129 L73 129 L73 95 L73 93 L73 57 L74 57 C74 57 76 61 80 67 C73 57 101 30 154 5 C173 -5 193 -10 213 -10 C290 -10 341 43 341 121 C341 185 301 241 224 269 C149 296 111 348 111 406 C111 467 141 508 187 508 C188 508 189 508 190 507 L186 508 C197 508 208 506 219 502 L189 508 C209 501 265 445 304 398 C307 394 309 391 309 391 L310 391 L311 391 L311 426 L311 433 L311 476 L310 476 L309 476 C309 476 307 471 304 463 C304 464 280 478 243 497 L246 496 L246 496 Z " />
<glyph glyph-name="t" unicode="t" horiz-adv-x="311" d="M271 500 L140 500 L140 620 L136 620 L25 500 L25 490 L90 490 L90 129 C90 29 132 -10 196 -10 C230 -10 273 21 302 68 L296 71 C275 37 240 14 211 14 C167 14 138 43 138 118 L140 474 L271 474 L271 500 L271 500 Z " />
<glyph glyph-name="u" unicode="u" horiz-adv-x="413" d="M295 77 L295 -10 L304 -10 L382 10 L382 11 L358 11 C350 11 345 24 345 88 L345 478 L345 500 L305 500 L266 500 L266 499 L286 493 C291 491 295 488 295 478 L295 127 C269 65 228 25 190 25 C145 25 115 76 115 153 L115 478 L115 500 L75 500 L36 500 L36 499 L56 493 C61 491 65 488 65 478 L65 153 C65 55 106 -10 167 -10 C211 -10 261 43 294 124 L295 77 L295 77 Z " />
<glyph glyph-name="v" unicode="v" horiz-adv-x="386" d="M41 494 L173 -10 L188 -10 L318 447 L318 447 C318 448 318 449 318 450 L331 494 L370 499 L370 500 L333 500 L319 500 L310 500 L268 500 L268 499 L308 493 L301 467 C301 466 301 464 301 462 L301 462 L193 59 L103 466 L103 466 C102 470 101 473 100 476 L96 495 L128 500 L128 501 L95 501 L69 501 L41 501 L11 501 L11 500 L41 494 L41 494 Z " />
<glyph glyph-name="w" unicode="w" horiz-adv-x="632" d="M274 495 L312 350 L215 -10 L230 -10 L321 314 L405 -10 L419 -10 L577 494 L616 499 L616 500 L579 500 L565 500 L555 500 L514 500 L514 499 L553 493 L545 466 L425 58 L335 473 L335 473 C335 474 335 475 335 476 L331 496 L359 500 L359 501 L330 501 L302 501 L274 501 L246 501 L246 500 L274 495 L274 495 Z M95 474 L216 -9 L234 59 L149 474 L149 474 C148 477 147 479 146 481 L143 495 L171 499 L171 500 L142 500 L115 500 L87 500 L58 500 L58 499 L88 495 L91 483 C91 480 92 477 93 473 L95 474 L95 474 Z " />
<glyph glyph-name="x" unicode="x" horiz-adv-x="418" d="M60 6 L25 1 L25 0 L57 0 L75 0 L80 0 L124 0 L124 1 L83 7 L104 49 C104 50 104 51 104 52 L104 52 L191 224 L280 52 L280 52 C286 40 291 31 295 25 L305 7 L273 2 L273 1 L308 1 L335 1 L369 1 L397 1 L397 2 L366 6 L224 279 L305 450 L305 450 C306 452 307 454 308 456 L326 494 L361 499 L361 500 L329 500 L314 500 L306 500 L267 500 L267 499 L303 494 L289 461 C288 458 287 455 285 451 L285 451 L217 291 L135 449 L136 449 C130 461 125 470 121 476 L111 494 L143 499 L143 500 L108 500 L84 500 L47 500 L24 500 L24 499 L49 495 L185 233 L60 6 L60 6 Z " />
<glyph glyph-name="y" unicode="y" horiz-adv-x="406" d="M50 466 L186 -10 L149 -140 C145 -155 133 -165 119 -165 C108 -165 103 -147 91 -147 C74 -147 62 -157 62 -172 C62 -191 74 -203 92 -203 C123 -203 150 -183 159 -154 L201 -10 L351 494 L390 499 L390 500 L353 500 L339 500 L330 500 L288 500 L288 499 L328 493 L186 -10 L205 58 L103 466 L103 466 C102 469 101 472 100 474 L95 494 L127 499 L127 500 L94 500 L68 500 L40 500 L10 500 L10 499 L42 494 L46 481 C47 477 48 472 50 466 L50 466 Z " />
<glyph glyph-name="z" unicode="z" horiz-adv-x="431" d="M78 454 L90 472 C93 477 102 481 130 483 L332 487 L40 12 L40 0 L93 0 L340 0 L386 0 C387 9 389 21 390 29 C390 33 391 37 392 41 L383 27 C380 22 369 18 334 16 L101 12 L391 487 L391 499 L340 499 L110 499 L95 499 L96 517 L95 517 C94 511 92 505 90 499 L82 499 L82 481 L85 481 C85 480 85 479 85 478 C83 471 81 462 79 454 L78 454 L78 454 Z M79 454 C78 449 77 444 76 440 L73 440 L70 440 L79 454 L79 454 Z M394 41 C395 47 396 53 397 58 L401 58 L405 58 L394 41 L394 41 Z " />
<glyph glyph-name="bar" unicode="&#x7c;" horiz-adv-x="158" d="M60 800 L60 -250 L99 -250 L99 800 L60 800 L60 800 Z " />
<glyph glyph-name="exclamdown" unicode="&#xa1;" horiz-adv-x="201" d="M101 505 C79 505 65 491 65 470 C65 448 79 434 101 434 C122 434 136 448 136 470 C136 491 122 505 101 505 L101 505 Z M101 -255 C128 -255 134 -221 131 -171 L105 290 L96 290 L70 -171 C67 -221 73 -255 101 -255 L101 -255 Z " />
<glyph glyph-name="cent" unicode="&#xa2;" horiz-adv-x="416" d="M217 575 L217 508 C116 494 51 389 51 239 C51 94 117 -3 217 -9 L217 -74 L235 -74 L235 -9 C292 -4 352 50 387 129 L380 132 C351 66 296 22 245 22 C242 22 239 22 236 22 L236 500 C237 500 238 500 239 500 C280 500 321 462 341 406 C346 391 356 381 366 381 C386 381 396 391 391 406 C368 469 309 511 242 511 C240 511 238 511 236 511 L236 576 L217 575 L217 575 Z M218 26 C148 45 103 136 103 266 C103 395 148 484 218 499 L218 26 L218 26 Z " />
<glyph glyph-name="questiondown" unicode="&#xbf;" horiz-adv-x="304" d="M180 505 C159 505 145 491 144 470 C145 448 159 434 180 434 C201 434 215 448 215 470 C215 491 201 505 180 505 L180 505 Z M183 325 L180 140 C95 140 61 103 24 47 C7 22 -5 -18 -5 -53 C-5 -177 61 -260 160 -260 C188 -260 207 -245 207 -223 C207 -208 196 -198 180 -198 C168 -198 154 -207 141 -207 C62 -207 10 -143 10 -47 C10 -27 20 2 35 24 C62 63 91 90 197 90 L192 325 L183 325 L183 325 Z " />
<glyph glyph-name="Agrave" unicode="&#xc0;" horiz-adv-x="586" d="M126 157 L125 157 L163 296 L391 296 L442 106 C464 25 465 9 461 8 L411 2 L411 1 L470 1 L490 1 L528 1 L570 1 L570 2 L526 8 L516 44 C511 62 504 89 493 128 L493 128 L329 733 L319 771 L313 771 C298 749 282 734 273 733 L276 722 L161 300 L161 300 L161 299 L123 158 L122 158 C88 33 78 9 73 8 L21 2 L21 1 L80 1 L82 1 L88 1 L154 1 L154 2 L98 8 C89 9 91 34 125 158 L126 157 L126 157 Z M188 960 C152 1002 126 1030 120 1030 C107 1030 95 1019 95 1006 C95 1000 123 974 165 937 L304 814 L311 821 L188 960 L188 960 Z M163 300 L277 721 L390 300 L163 300 L163 300 Z " />
<glyph glyph-name="Aacute" unicode="&#xc1;" horiz-adv-x="586" d="M309 813 L448 936 C490 974 518 1001 518 1005 C518 1018 506 1029 493 1029 C489 1029 463 1001 425 959 L302 820 L309 813 L309 813 Z M126 157 L125 157 L163 296 L391 296 L442 106 C464 25 465 9 461 8 L411 2 L411 1 L470 1 L490 1 L528 1 L570 1 L570 2 L526 8 L516 44 C511 62 504 89 493 128 L493 128 L329 733 L319 771 L313 771 C298 749 282 734 273 733 L276 722 L161 300 L161 300 L161 299 L123 158 L122 158 C88 33 78 9 73 8 L21 2 L21 1 L80 1 L82 1 L88 1 L154 1 L154 2 L98 8 C89 9 91 34 125 158 L126 157 L126 157 Z M163 300 L277 721 L390 300 L163 300 L163 300 Z " />
<glyph glyph-name="Acircumflex" unicode="&#xc2;" horiz-adv-x="586" d="M126 157 L125 157 L163 296 L391 296 L442 106 C464 25 465 9 461 8 L411 2 L411 1 L470 1 L490 1 L528 1 L570 1 L570 2 L526 8 L516 44 C511 62 504 89 493 128 L493 128 L329 733 L319 771 L313 771 C298 749 282 734 273 733 L276 722 L161 300 L161 300 L161 299 L123 158 L122 158 C88 33 78 9 73 8 L21 2 L21 1 L80 1 L82 1 L88 1 L154 1 L154 2 L98 8 C89 9 91 34 125 158 L126 157 L126 157 Z M301 978 L443 809 L450 814 L319 1016 C315 1021 306 1034 301 1034 C296 1034 287 1022 283 1016 L152 814 L159 809 L301 978 L301 978 Z M163 300 L277 721 L390 300 L163 300 L163 300 Z " />
<glyph glyph-name="Atilde" unicode="&#xc3;" horiz-adv-x="586" d="M189 870 C189 910 203 936 225 936 C276 936 314 871 365 871 C396 871 416 909 416 966 L415 966 C415 930 400 906 376 906 C325 906 287 971 236 971 C207 971 188 931 188 870 L189 870 L189 870 Z M126 157 L125 157 L163 296 L391 296 L442 106 C464 25 465 9 461 8 L411 2 L411 1 L470 1 L490 1 L528 1 L570 1 L570 2 L526 8 L516 44 C511 62 504 89 493 128 L493 128 L329 733 L319 771 L313 771 C298 749 282 734 273 733 L276 722 L161 300 L161 300 L161 299 L123 158 L122 158 C88 33 78 9 73 8 L21 2 L21 1 L80 1 L82 1 L88 1 L154 1 L154 2 L98 8 C89 9 91 34 125 158 L126 157 L126 157 Z M163 300 L277 721 L390 300 L163 300 L163 300 Z " />
<glyph glyph-name="Adieresis" unicode="&#xc4;" horiz-adv-x="586" d="M369 865 C388 865 401 878 401 897 C401 917 388 930 369 930 C350 930 337 917 337 897 C337 878 350 865 369 865 L369 865 Z M235 865 C254 865 267 878 267 897 C267 917 254 930 235 930 C216 930 203 917 203 897 C203 878 216 865 235 865 L235 865 Z M126 157 L125 157 L163 296 L391 296 L442 106 C464 25 465 9 461 8 L411 2 L411 1 L470 1 L490 1 L528 1 L570 1 L570 2 L526 8 L516 44 C511 62 504 89 493 128 L493 128 L329 733 L319 771 L313 771 C298 749 282 734 273 733 L276 722 L161 300 L161 300 L161 299 L123 158 L122 158 C88 33 78 9 73 8 L21 2 L21 1 L80 1 L82 1 L88 1 L154 1 L154 2 L98 8 C89 9 91 34 125 158 L126 157 L126 157 Z M163 300 L277 721 L390 300 L163 300 L163 300 Z " />
<glyph glyph-name="Aring" unicode="&#xc5;" horiz-adv-x="586" d="M302 822 C258 822 220 860 220 905 C220 955 253 988 302 988 C351 988 384 955 384 905 C384 860 346 822 302 822 L302 822 Z M205 905 C205 854 250 810 302 810 C354 810 398 854 398 905 C398 962 360 1000 302 1000 C244 1000 205 962 205 905 L205 905 Z M126 157 L125 157 L163 296 L391 296 L442 106 C464 25 465 9 461 8 L411 2 L411 1 L470 1 L490 1 L528 1 L570 1 L570 2 L526 8 L516 44 C511 62 504 89 493 128 L493 128 L329 733 L319 771 L313 771 C298 749 282 734 273 733 L276 722 L161 300 L161 300 L161 299 L123 158 L122 158 C88 33 78 9 73 8 L21 2 L21 1 L80 1 L82 1 L88 1 L154 1 L154 2 L98 8 C89 9 91 34 125 158 L126 157 L126 157 Z M163 300 L277 721 L390 300 L163 300 L163 300 Z " />
<glyph glyph-name="Egrave" unicode="&#xc8;" horiz-adv-x="520" d="M168 959 C131 1001 105 1029 100 1029 C86 1029 75 1018 75 1005 C75 999 103 973 145 936 L284 813 L290 820 L168 959 L168 959 Z M359 0 L467 0 C468 8 470 20 471 28 C472 37 474 48 475 57 L474 57 L473 57 L463 25 C458 11 440 2 360 2 L226 2 C180 2 175 22 175 51 L175 72 L175 385 L274 385 C354 385 371 373 374 355 L380 324 L381 324 L382 324 L382 385 L382 386 L382 387 L382 448 L381 448 L380 448 L374 417 C371 399 354 387 274 387 L175 387 L175 678 L175 748 L334 748 C431 748 433 739 436 725 L444 693 L445 693 L446 693 C445 702 444 713 444 722 C443 730 442 742 442 750 L334 750 L175 750 L124 750 L119 750 L74 750 L74 749 L102 743 C112 740 119 729 119 678 L119 72 C119 21 112 10 102 7 L74 1 L74 0 L119 0 L124 0 L175 0 L359 0 L359 0 Z " />
<glyph glyph-name="Eacute" unicode="&#xc9;" horiz-adv-x="520" d="M287 813 L426 936 C468 974 496 1001 496 1005 C496 1018 485 1029 471 1029 C468 1029 441 1001 403 959 L281 820 L287 813 L287 813 Z M359 0 L467 0 C468 8 470 20 471 28 C472 37 474 48 475 57 L474 57 L473 57 L463 25 C458 11 440 2 360 2 L226 2 C180 2 175 22 175 51 L175 72 L175 385 L274 385 C354 385 371 373 374 355 L380 324 L381 324 L382 324 L382 385 L382 386 L382 387 L382 448 L381 448 L380 448 L374 417 C371 399 354 387 274 387 L175 387 L175 678 L175 748 L334 748 C431 748 433 739 436 725 L444 693 L445 693 L446 693 C445 702 444 713 444 722 C443 730 442 742 442 750 L334 750 L175 750 L124 750 L119 750 L74 750 L74 749 L102 743 C112 740 119 729 119 678 L119 72 C119 21 112 10 102 7 L74 1 L74 0 L119 0 L124 0 L175 0 L359 0 L359 0 Z " />
<glyph glyph-name="Ecircumflex" unicode="&#xca;" horiz-adv-x="520" d="M281 977 L424 808 L431 813 L299 1015 C296 1020 287 1033 282 1033 C276 1033 267 1021 264 1015 L132 813 L139 808 L281 977 L281 977 Z M360 0 L468 0 C469 8 471 20 472 28 C473 37 475 48 476 57 L475 57 L474 57 L464 25 C459 11 441 2 361 2 L227 2 C181 2 176 22 176 51 L176 72 L176 385 L275 385 C355 385 372 373 375 355 L381 324 L382 324 L383 324 L383 385 L383 386 L383 387 L383 448 L382 448 L381 448 L375 417 C372 399 355 387 275 387 L176 387 L176 678 L176 748 L335 748 C432 748 434 739 437 725 L445 693 L446 693 L447 693 C446 702 445 713 445 722 C444 730 443 742 443 750 L335 750 L176 750 L125 750 L120 750 L75 750 L75 749 L103 743 C113 740 120 729 120 678 L120 72 C120 21 113 10 103 7 L75 1 L75 0 L120 0 L125 0 L176 0 L360 0 L360 0 Z " />
<glyph glyph-name="Edieresis" unicode="&#xcb;" horiz-adv-x="520" d="M347 865 C367 865 380 878 380 897 C380 917 367 930 347 930 C328 930 315 917 315 897 C315 878 328 865 347 865 L347 865 Z M214 865 C233 865 246 878 246 897 C246 917 233 930 214 930 C194 930 181 917 181 897 C181 878 194 865 214 865 L214 865 Z M359 0 L467 0 C468 8 470 20 471 28 C472 37 474 48 475 57 L474 57 L473 57 L463 25 C458 11 440 2 360 2 L226 2 C180 2 175 22 175 51 L175 72 L175 385 L274 385 C354 385 371 373 374 355 L380 324 L381 324 L382 324 L382 385 L382 386 L382 387 L382 448 L381 448 L380 448 L374 417 C371 399 354 387 274 387 L175 387 L175 678 L175 748 L334 748 C431 748 433 739 436 725 L444 693 L445 693 L446 693 C445 702 444 713 444 722 C443 730 442 742 442 750 L334 750 L175 750 L124 750 L119 750 L74 750 L74 749 L102 743 C112 740 119 729 119 678 L119 72 C119 21 112 10 102 7 L74 1 L74 0 L119 0 L124 0 L175 0 L359 0 L359 0 Z " />
<glyph glyph-name="Igrave" unicode="&#xcc;" horiz-adv-x="289" d="M41 959 C4 1001 -22 1029 -27 1029 C-41 1029 -52 1018 -52 1005 C-52 999 -24 973 18 936 L157 813 L163 820 L41 959 L41 959 Z M181 67 L181 683 C181 730 188 740 199 743 L227 749 L227 750 L153 750 L80 750 L80 749 L108 743 C119 740 126 730 126 683 L126 67 C126 20 119 10 108 7 L80 1 L80 0 L153 0 L227 0 L227 1 L199 7 C188 10 181 20 181 67 L181 67 Z " />
<glyph glyph-name="Iacute" unicode="&#xcd;" horiz-adv-x="289" d="M160 813 L299 936 C341 974 369 1001 369 1005 C369 1018 358 1029 344 1029 C341 1029 314 1001 276 959 L154 820 L160 813 L160 813 Z M181 67 L181 683 C181 730 188 740 199 743 L227 749 L227 750 L153 750 L80 750 L80 749 L108 743 C119 740 126 730 126 683 L126 67 C126 20 119 10 108 7 L80 1 L80 0 L153 0 L227 0 L227 1 L199 7 C188 10 181 20 181 67 L181 67 Z " />
<glyph glyph-name="Icircumflex" unicode="&#xce;" horiz-adv-x="289" d="M154 977 L297 808 L304 813 L172 1015 C169 1020 159 1033 154 1033 C149 1033 140 1021 137 1015 L5 813 L12 808 L154 977 L154 977 Z M182 67 L182 683 C182 730 189 740 200 743 L228 749 L228 750 L154 750 L81 750 L81 749 L109 743 C120 740 127 730 127 683 L127 67 C127 20 120 10 109 7 L81 1 L81 0 L154 0 L228 0 L228 1 L200 7 C189 10 182 20 182 67 L182 67 Z " />
<glyph glyph-name="Idieresis" unicode="&#xcf;" horiz-adv-x="289" d="M220 865 C240 865 253 878 253 897 C253 917 240 930 220 930 C201 930 188 917 188 897 C188 878 201 865 220 865 L220 865 Z M87 865 C106 865 119 878 119 897 C119 917 106 930 87 930 C67 930 54 917 54 897 C54 878 67 865 87 865 L87 865 Z M181 67 L181 683 C181 730 188 740 199 743 L227 749 L227 750 L153 750 L80 750 L80 749 L108 743 C119 740 126 730 126 683 L126 67 C126 20 119 10 108 7 L80 1 L80 0 L153 0 L227 0 L227 1 L199 7 C188 10 181 20 181 67 L181 67 Z " />
<glyph glyph-name="Ntilde" unicode="&#xd1;" horiz-adv-x="637" d="M204 870 C204 910 218 936 239 936 C291 936 328 871 379 871 C410 871 431 909 431 966 L430 966 C430 930 414 906 391 906 C340 906 302 971 251 971 C222 971 202 931 202 870 L204 870 L204 870 Z M121 127 L121 127 L120 656 L467 79 L515 0 L526 0 L530 675 C532 728 540 740 552 743 L584 749 L584 750 L530 750 L521 750 L513 750 L459 750 L459 749 L491 743 C504 740 513 724 513 643 L513 643 L514 108 L132 750 L119 750 L105 750 L84 750 L63 750 L35 750 L35 749 L66 745 L81 719 C83 716 85 712 87 708 L87 708 L104 680 L103 137 L103 137 C103 29 101 8 98 7 L49 1 L49 0 L103 0 L112 0 L120 0 L175 0 L175 1 L125 7 C122 8 120 27 120 127 L121 127 L121 127 Z " />
<glyph glyph-name="Ograve" unicode="&#xd2;" horiz-adv-x="751" d="M364 -8 C221 -8 125 145 125 375 C125 605 224 758 373 758 C528 758 632 605 632 375 C632 145 525 -8 364 -8 L364 -8 Z M61 375 C61 144 182 -10 364 -10 C563 -10 696 144 696 375 C696 606 567 760 374 760 C186 760 61 606 61 375 L61 375 Z M261 959 C224 1001 198 1029 193 1029 C179 1029 168 1018 168 1005 C168 999 196 973 238 936 L377 813 L383 820 L261 959 L261 959 Z " />
<glyph glyph-name="Oacute" unicode="&#xd3;" horiz-adv-x="751" d="M380 813 L519 936 C561 974 589 1001 589 1005 C589 1018 578 1029 565 1029 C561 1029 534 1001 496 959 L374 820 L380 813 L380 813 Z M364 -8 C221 -8 125 145 125 375 C125 605 224 758 373 758 C528 758 632 605 632 375 C632 145 525 -8 364 -8 L364 -8 Z M61 375 C61 144 182 -10 364 -10 C563 -10 696 144 696 375 C696 606 567 760 374 760 C186 760 61 606 61 375 L61 375 Z " />
<glyph glyph-name="Ocircumflex" unicode="&#xd4;" horiz-adv-x="751" d="M364 -8 C221 -8 125 145 125 375 C125 605 224 758 373 758 C528 758 632 605 632 375 C632 145 525 -8 364 -8 L364 -8 Z M61 375 C61 144 182 -10 364 -10 C563 -10 696 144 696 375 C696 606 567 760 374 760 C186 760 61 606 61 375 L61 375 Z M374 977 L517 808 L524 813 L392 1015 C389 1020 380 1033 375 1033 C370 1033 361 1021 357 1015 L226 813 L232 808 L374 977 L374 977 Z " />
<glyph glyph-name="Otilde" unicode="&#xd5;" horiz-adv-x="751" d="M261 870 C261 910 275 936 296 936 C348 936 385 871 436 871 C467 871 488 909 488 966 L487 966 C487 930 471 906 448 906 C397 906 359 971 308 971 C279 971 259 931 259 870 L261 870 L261 870 Z M364 -8 C221 -8 125 145 125 375 C125 605 224 758 373 758 C528 758 632 605 632 375 C632 145 525 -8 364 -8 L364 -8 Z M61 375 C61 144 182 -10 364 -10 C563 -10 696 144 696 375 C696 606 567 760 374 760 C186 760 61 606 61 375 L61 375 Z " />
<glyph glyph-name="Odieresis" unicode="&#xd6;" horiz-adv-x="751" d="M441 865 C460 865 473 878 473 897 C473 917 460 930 441 930 C421 930 408 917 408 897 C408 878 421 865 441 865 L441 865 Z M307 865 C326 865 339 878 339 897 C339 917 326 930 307 930 C287 930 274 917 274 897 C274 878 287 865 307 865 L307 865 Z M364 -8 C221 -8 125 145 125 375 C125 605 224 758 373 758 C528 758 632 605 632 375 C632 145 525 -8 364 -8 L364 -8 Z M61 375 C61 144 182 -10 364 -10 C563 -10 696 144 696 375 C696 606 567 760 374 760 C186 760 61 606 61 375 L61 375 Z " />
<glyph glyph-name="Oslash" unicode="&#xd8;" horiz-adv-x="751" d="M62 -11 L147 92 C200 27 275 -10 364 -10 C563 -10 696 144 696 375 C696 489 665 584 610 651 L699 758 L696 760 L608 653 C552 720 472 758 376 758 C188 758 63 604 63 373 C63 257 94 160 148 93 L63 -10 L62 -11 L62 -11 Z M367 -9 C286 -9 220 40 178 125 L584 617 C617 553 635 470 635 374 C635 144 528 -9 367 -9 L367 -9 Z M177 128 C146 192 129 276 129 374 C129 604 228 757 377 757 C466 757 538 707 583 620 L177 128 L177 128 Z " />
<glyph glyph-name="Ugrave" unicode="&#xd9;" horiz-adv-x="566" d="M173 959 C137 1001 111 1029 105 1029 C92 1029 80 1018 80 1005 C80 999 108 973 150 936 L289 813 L296 820 L173 959 L173 959 Z M488 97 L488 678 L488 750 L437 750 L386 750 L386 749 L414 743 C425 740 432 729 432 678 L432 166 C392 82 308 26 220 26 C172 26 140 100 140 211 L140 678 L140 750 L89 750 L39 750 L39 749 L67 743 C77 740 84 729 84 678 L84 211 C84 78 129 -10 197 -10 C296 -10 389 50 432 141 L432 97 L432 0 L441 0 L533 49 C495 74 488 81 488 97 L488 97 Z " />
<glyph glyph-name="Uacute" unicode="&#xda;" horiz-adv-x="566" d="M293 813 L432 936 C474 974 502 1001 502 1005 C502 1018 490 1029 477 1029 C473 1029 447 1001 409 959 L286 820 L293 813 L293 813 Z M488 97 L488 678 L488 750 L437 750 L386 750 L386 749 L414 743 C425 740 432 729 432 678 L432 166 C392 82 308 26 220 26 C172 26 140 100 140 211 L140 678 L140 750 L89 750 L39 750 L39 749 L67 743 C77 740 84 729 84 678 L84 211 C84 78 129 -10 197 -10 C296 -10 389 50 432 141 L432 97 L432 0 L441 0 L533 49 C495 74 488 81 488 97 L488 97 Z " />
<glyph glyph-name="Ucircumflex" unicode="&#xdb;" horiz-adv-x="566" d="M286 977 L428 808 L435 813 L304 1015 C300 1020 291 1033 286 1033 C281 1033 272 1021 268 1015 L137 813 L144 808 L286 977 L286 977 Z M488 97 L488 678 L488 750 L437 750 L386 750 L386 749 L414 743 C425 740 432 729 432 678 L432 166 C392 82 308 26 220 26 C172 26 140 100 140 211 L140 678 L140 750 L89 750 L39 750 L39 749 L67 743 C77 740 84 729 84 678 L84 211 C84 78 129 -10 197 -10 C296 -10 389 50 432 141 L432 97 L432 0 L441 0 L533 49 C495 74 488 81 488 97 L488 97 Z " />
<glyph glyph-name="Udieresis" unicode="&#xdc;" horiz-adv-x="566" d="M353 865 C372 865 385 878 385 897 C385 917 372 930 353 930 C334 930 321 917 321 897 C321 878 334 865 353 865 L353 865 Z M219 865 C238 865 251 878 251 897 C251 917 238 930 219 930 C200 930 187 917 187 897 C187 878 200 865 219 865 L219 865 Z M488 97 L488 678 L488 750 L437 750 L386 750 L386 749 L414 743 C425 740 432 729 432 678 L432 166 C392 82 308 26 220 26 C172 26 140 100 140 211 L140 678 L140 750 L89 750 L39 750 L39 749 L67 743 C77 740 84 729 84 678 L84 211 C84 78 129 -10 197 -10 C296 -10 389 50 432 141 L432 97 L432 0 L441 0 L533 49 C495 74 488 81 488 97 L488 97 Z " />
<glyph glyph-name="Yacute" unicode="&#xdd;" horiz-adv-x="561" d="M293 813 L432 936 C474 974 502 1001 502 1005 C502 1018 491 1029 477 1029 C473 1029 447 1001 409 959 L287 820 L293 813 L293 813 Z M502 743 L503 743 C503 743 503 743 503 742 C503 743 503 743 503 743 L502 743 L502 743 Z M174 623 L174 623 C171 628 168 633 166 638 L113 743 L156 749 L156 750 L110 750 L86 750 L44 750 L16 750 L16 749 L47 745 L97 647 C101 640 105 632 109 624 L109 624 L260 330 L260 68 C260 21 253 11 243 8 L214 2 L214 1 L288 1 L362 1 L362 2 L334 8 C323 11 316 21 316 68 L316 340 L507 745 L547 750 L547 751 L510 751 L506 751 L504 751 L460 751 L460 750 L503 744 L472 678 C466 666 459 652 451 635 L451 634 L316 343 L174 623 L174 623 Z " />
<glyph glyph-name="agrave" unicode="&#xe0;" horiz-adv-x="478" d="M152 709 C115 751 89 779 84 779 C70 779 59 768 59 755 C59 749 87 723 129 686 L268 563 L275 570 L152 709 L152 709 Z M385 89 C353 45 306 16 265 16 C170 16 106 117 106 267 C106 404 162 495 271 495 C331 495 374 451 385 395 L385 97 L385 89 L385 89 Z M385 72 L385 -10 L394 -10 L472 10 L472 11 L448 11 C440 11 435 27 435 108 L435 450 L435 510 L429 510 L388 454 C361 488 318 510 265 510 C126 510 55 407 55 254 C55 98 131 -5 245 -5 C295 -5 351 25 385 72 L385 72 Z " />
<glyph glyph-name="aacute" unicode="&#xe1;" horiz-adv-x="478" d="M271 563 L411 686 C453 724 481 751 481 755 C481 768 469 779 456 779 C452 779 426 751 388 709 L265 570 L271 563 L271 563 Z M385 89 C353 45 306 16 265 16 C170 16 106 117 106 267 C106 404 162 495 271 495 C331 495 374 451 385 395 L385 97 L385 89 L385 89 Z M385 72 L385 -10 L394 -10 L472 10 L472 11 L448 11 C440 11 435 27 435 108 L435 450 L435 510 L429 510 L388 454 C361 488 318 510 265 510 C126 510 55 407 55 254 C55 98 131 -5 245 -5 C295 -5 351 25 385 72 L385 72 Z " />
<glyph glyph-name="acircumflex" unicode="&#xe2;" horiz-adv-x="478" d="M265 727 L407 558 L414 563 L283 765 C279 770 270 783 265 783 C260 783 251 771 247 765 L116 563 L123 558 L265 727 L265 727 Z M385 89 C353 45 306 16 265 16 C170 16 106 117 106 267 C106 404 162 495 271 495 C331 495 374 451 385 395 L385 97 L385 89 L385 89 Z M385 72 L385 -10 L394 -10 L472 10 L472 11 L448 11 C440 11 435 27 435 108 L435 450 L435 510 L429 510 L388 454 C361 488 318 510 265 510 C126 510 55 407 55 254 C55 98 131 -5 245 -5 C295 -5 351 25 385 72 L385 72 Z " />
<glyph glyph-name="atilde" unicode="&#xe3;" horiz-adv-x="478" d="M152 620 C152 660 166 686 188 686 C239 686 277 621 328 621 C358 621 379 659 379 716 L378 716 C378 680 362 656 339 656 C288 656 250 721 199 721 C170 721 150 681 150 620 L152 620 L152 620 Z M385 89 C353 45 306 16 265 16 C170 16 106 117 106 267 C106 404 162 495 271 495 C331 495 374 451 385 395 L385 97 L385 89 L385 89 Z M385 72 L385 -10 L394 -10 L472 10 L472 11 L448 11 C440 11 435 27 435 108 L435 450 L435 510 L429 510 L388 454 C361 488 318 510 265 510 C126 510 55 407 55 254 C55 98 131 -5 245 -5 C295 -5 351 25 385 72 L385 72 Z " />
<glyph glyph-name="adieresis" unicode="&#xe4;" horiz-adv-x="478" d="M332 615 C351 615 364 628 364 647 C364 667 351 680 332 680 C312 680 299 667 299 647 C299 628 312 615 332 615 L332 615 Z M198 615 C217 615 230 628 230 647 C230 667 217 680 198 680 C179 680 166 667 166 647 C166 628 179 615 198 615 L198 615 Z M385 89 C353 45 306 16 265 16 C170 16 106 117 106 267 C106 404 162 495 271 495 C331 495 374 451 385 395 L385 97 L385 89 L385 89 Z M385 72 L385 -10 L394 -10 L472 10 L472 11 L448 11 C440 11 435 27 435 108 L435 450 L435 510 L429 510 L388 454 C361 488 318 510 265 510 C126 510 55 407 55 254 C55 98 131 -5 245 -5 C295 -5 351 25 385 72 L385 72 Z " />
<glyph glyph-name="aring" unicode="&#xe5;" horiz-adv-x="478" d="M265 572 C221 572 183 610 183 655 C183 705 216 738 265 738 C314 738 347 705 347 655 C347 610 309 572 265 572 L265 572 Z M168 655 C168 604 213 560 265 560 C317 560 361 604 361 655 C361 712 323 750 265 750 C207 750 168 712 168 655 L168 655 Z M385 89 C353 45 306 16 265 16 C170 16 106 117 106 267 C106 404 162 495 271 495 C331 495 374 451 385 395 L385 97 L385 89 L385 89 Z M385 72 L385 -10 L394 -10 L472 10 L472 11 L448 11 C440 11 435 27 435 108 L435 450 L435 510 L429 510 L388 454 C361 488 318 510 265 510 C126 510 55 407 55 254 C55 98 131 -5 245 -5 C295 -5 351 25 385 72 L385 72 Z " />
<glyph glyph-name="egrave" unicode="&#xe8;" horiz-adv-x="474" d="M154 709 C118 751 92 779 86 779 C73 779 61 768 61 755 C61 749 89 723 131 686 L271 563 L277 570 L154 709 L154 709 Z M111 340 L389 340 L431 340 L445 340 C423 462 356 510 267 510 C137 510 50 400 50 235 C50 88 129 -10 247 -10 C327 -10 402 47 433 133 L427 136 C403 68 335 23 259 23 C166 23 103 116 103 255 C103 286 106 314 111 340 L111 340 Z M428 355 C429 355 430 355 431 355 L428 355 L428 355 Z M386 355 L114 353 C136 444 191 500 264 500 C319 500 364 459 385 356 L386 355 L386 355 Z " />
<glyph glyph-name="eacute" unicode="&#xe9;" horiz-adv-x="474" d="M274 563 L413 686 C455 724 483 751 483 755 C483 768 472 779 458 779 C454 779 428 751 390 709 L268 570 L274 563 L274 563 Z M111 340 L389 340 L431 340 L445 340 C423 462 356 510 267 510 C137 510 50 400 50 235 C50 88 129 -10 247 -10 C327 -10 402 47 433 133 L427 136 C403 68 335 23 259 23 C166 23 103 116 103 255 C103 286 106 314 111 340 L111 340 Z M428 355 C429 355 430 355 431 355 L428 355 L428 355 Z M386 355 L114 353 C136 444 191 500 264 500 C319 500 364 459 385 356 L386 355 L386 355 Z " />
<glyph glyph-name="ecircumflex" unicode="&#xea;" horiz-adv-x="474" d="M268 727 L411 558 L417 563 L286 765 C282 770 273 783 268 783 C263 783 254 771 251 765 L119 563 L126 558 L268 727 L268 727 Z M112 340 L390 340 L432 340 L446 340 C424 462 357 510 268 510 C138 510 51 400 51 235 C51 88 130 -10 248 -10 C328 -10 403 47 434 133 L428 136 C404 68 336 23 260 23 C167 23 104 116 104 255 C104 286 107 314 112 340 L112 340 Z M429 355 C430 355 431 355 432 355 L429 355 L429 355 Z M387 355 L115 353 C137 444 192 500 265 500 C320 500 365 459 386 356 L387 355 L387 355 Z " />
<glyph glyph-name="edieresis" unicode="&#xeb;" horiz-adv-x="474" d="M334 615 C353 615 366 628 366 647 C366 667 353 680 334 680 C315 680 302 667 302 647 C302 628 315 615 334 615 L334 615 Z M200 615 C220 615 233 628 233 647 C233 667 220 680 200 680 C181 680 168 667 168 647 C168 628 181 615 200 615 L200 615 Z M111 340 L389 340 L431 340 L445 340 C423 462 356 510 267 510 C137 510 50 400 50 235 C50 88 129 -10 247 -10 C327 -10 402 47 433 133 L427 136 C403 68 335 23 259 23 C166 23 103 116 103 255 C103 286 106 314 111 340 L111 340 Z M428 355 C429 355 430 355 431 355 L428 355 L428 355 Z M386 355 L114 353 C136 444 191 500 264 500 C319 500 364 459 385 356 L386 355 L386 355 Z " />
<glyph glyph-name="igrave" unicode="&#xec;" horiz-adv-x="246" d="M36 709 C-1 751 -27 779 -32 779 C-46 779 -57 768 -57 755 C-57 749 -29 723 13 686 L152 563 L158 570 L36 709 L36 709 Z M174 22 L174 396 L174 500 L165 500 L88 445 L88 444 C118 425 124 418 124 396 L124 22 C124 12 119 9 111 7 L88 1 L88 0 L149 0 L210 0 L210 1 L186 7 C179 10 174 13 174 22 L174 22 Z " />
<glyph glyph-name="iacute" unicode="&#xed;" horiz-adv-x="246" d="M36 709 C-1 751 -27 779 -32 779 C-46 779 -57 768 -57 755 C-57 749 -29 723 13 686 L152 563 L158 570 L36 709 L36 709 Z M174 22 L174 396 L174 500 L165 500 L88 445 L88 444 C118 425 124 418 124 396 L124 22 C124 12 119 9 111 7 L88 1 L88 0 L149 0 L210 0 L210 1 L186 7 C179 10 174 13 174 22 L174 22 Z " />
<glyph glyph-name="icircumflex" unicode="&#xee;" horiz-adv-x="246" d="M149 727 L292 558 L299 563 L167 765 C164 770 155 783 150 783 C144 783 135 771 132 765 L0 563 L7 558 L149 727 L149 727 Z M175 22 L175 396 L175 500 L166 500 L89 445 L89 444 C119 425 125 418 125 396 L125 22 C125 12 120 9 112 7 L89 1 L89 0 L150 0 L211 0 L211 1 L187 7 C180 10 175 13 175 22 L175 22 Z " />
<glyph glyph-name="idieresis" unicode="&#xef;" horiz-adv-x="246" d="M215 615 C235 615 248 628 248 647 C248 667 235 680 215 680 C196 680 183 667 183 647 C183 628 196 615 215 615 L215 615 Z M82 615 C101 615 114 628 114 647 C114 667 101 680 82 680 C62 680 49 667 49 647 C49 628 62 615 82 615 L82 615 Z M174 22 L174 396 L174 500 L165 500 L88 445 L88 444 C118 425 124 418 124 396 L124 22 C124 12 119 9 111 7 L88 1 L88 0 L149 0 L210 0 L210 1 L186 7 C179 10 174 13 174 22 L174 22 Z " />
<glyph glyph-name="ntilde" unicode="&#xf1;" horiz-adv-x="452" d="M117 620 C117 660 131 686 153 686 C204 686 242 621 293 621 C324 621 344 659 344 716 L343 716 C343 680 328 656 304 656 C253 656 216 721 164 721 C135 721 116 681 116 620 L117 620 L117 620 Z M329 22 C329 12 324 9 317 7 L294 1 L294 0 L354 0 L414 0 L414 1 L391 7 C384 9 379 12 379 22 L379 382 C379 459 341 510 268 510 C208 510 154 460 131 385 L131 438 L131 500 L122 500 L44 471 L44 470 L68 473 C76 474 81 466 81 423 L81 22 C81 12 76 9 69 7 L46 1 L46 0 L106 0 L166 0 L166 1 L143 7 C136 9 131 12 131 22 L131 377 C151 443 200 487 254 487 C303 487 329 445 329 382 L329 22 L329 22 Z " />
<glyph glyph-name="ograve" unicode="&#xf2;" horiz-adv-x="565" d="M285 -8 C177 -8 105 95 105 250 C105 405 177 508 285 508 C393 508 465 405 465 250 C465 95 393 -8 285 -8 L285 -8 Z M50 250 C50 94 144 -10 285 -10 C426 -10 520 94 520 250 C520 406 426 510 285 510 C144 510 50 406 50 250 L50 250 Z M172 709 C136 751 110 779 104 779 C91 779 79 768 79 755 C79 749 107 723 149 686 L289 563 L295 570 L172 709 L172 709 Z " />
<glyph glyph-name="oacute" unicode="&#xf3;" horiz-adv-x="565" d="M292 563 L431 686 C473 724 501 751 501 755 C501 768 490 779 476 779 C472 779 446 751 408 709 L286 570 L292 563 L292 563 Z M285 -8 C177 -8 105 95 105 250 C105 405 177 508 285 508 C393 508 465 405 465 250 C465 95 393 -8 285 -8 L285 -8 Z M50 250 C50 94 144 -10 285 -10 C426 -10 520 94 520 250 C520 406 426 510 285 510 C144 510 50 406 50 250 L50 250 Z " />
<glyph glyph-name="ocircumflex" unicode="&#xf4;" horiz-adv-x="565" d="M285 -8 C177 -8 105 95 105 250 C105 405 177 508 285 508 C393 508 465 405 465 250 C465 95 393 -8 285 -8 L285 -8 Z M50 250 C50 94 144 -10 285 -10 C426 -10 520 94 520 250 C520 406 426 510 285 510 C144 510 50 406 50 250 L50 250 Z M285 727 L428 558 L434 563 L303 765 C299 770 290 783 285 783 C280 783 271 771 268 765 L136 563 L143 558 L285 727 L285 727 Z " />
<glyph glyph-name="otilde" unicode="&#xf5;" horiz-adv-x="565" d="M172 620 C172 660 186 686 208 686 C259 686 297 621 348 621 C379 621 400 659 400 716 L398 716 C398 680 383 656 360 656 C308 656 271 721 219 721 C190 721 171 681 171 620 L172 620 L172 620 Z M285 -8 C177 -8 105 95 105 250 C105 405 177 508 285 508 C393 508 465 405 465 250 C465 95 393 -8 285 -8 L285 -8 Z M50 250 C50 94 144 -10 285 -10 C426 -10 520 94 520 250 C520 406 426 510 285 510 C144 510 50 406 50 250 L50 250 Z " />
<glyph glyph-name="odieresis" unicode="&#xf6;" horiz-adv-x="565" d="M352 615 C371 615 384 628 384 647 C384 667 371 680 352 680 C333 680 320 667 320 647 C320 628 333 615 352 615 L352 615 Z M218 615 C238 615 251 628 251 647 C251 667 238 680 218 680 C199 680 186 667 186 647 C186 628 199 615 218 615 L218 615 Z M285 -8 C177 -8 105 95 105 250 C105 405 177 508 285 508 C393 508 465 405 465 250 C465 95 393 -8 285 -8 L285 -8 Z M50 250 C50 94 144 -10 285 -10 C426 -10 520 94 520 250 C520 406 426 510 285 510 C144 510 50 406 50 250 L50 250 Z " />
<glyph glyph-name="oslash" unicode="&#xf8;" horiz-adv-x="565" d="M51 -11 L116 60 C157 15 215 -11 285 -11 C426 -11 520 93 520 249 C520 326 497 391 456 436 L521 508 L519 510 L454 439 C413 484 355 510 285 510 C144 510 50 406 50 250 C50 173 73 108 114 63 L49 -9 L51 -11 L51 -11 Z M285 -8 C222 -8 171 27 140 87 L432 410 C453 368 465 313 465 250 C465 95 393 -8 285 -8 L285 -8 Z M138 90 C117 132 105 187 105 250 C105 405 177 508 285 508 C348 508 399 473 430 413 L138 90 L138 90 Z " />
<glyph glyph-name="ugrave" unicode="&#xf9;" horiz-adv-x="413" d="M92 709 C55 751 29 779 24 779 C10 779 -1 768 -1 755 C-1 749 27 723 69 686 L208 563 L215 570 L92 709 L92 709 Z M295 77 L295 -10 L304 -10 L382 10 L382 11 L358 11 C350 11 345 24 345 88 L345 478 L345 500 L305 500 L266 500 L266 499 L286 493 C291 491 295 488 295 478 L295 127 C269 65 228 25 190 25 C145 25 115 76 115 153 L115 478 L115 500 L75 500 L36 500 L36 499 L56 493 C61 491 65 488 65 478 L65 153 C65 55 106 -10 167 -10 C211 -10 261 43 294 124 L295 77 L295 77 Z " />
<glyph glyph-name="uacute" unicode="&#xfa;" horiz-adv-x="413" d="M211 563 L351 686 C393 724 421 751 421 755 C421 768 409 779 396 779 C392 779 366 751 328 709 L205 570 L211 563 L211 563 Z M295 77 L295 -10 L304 -10 L382 10 L382 11 L358 11 C350 11 345 24 345 88 L345 478 L345 500 L305 500 L266 500 L266 499 L286 493 C291 491 295 488 295 478 L295 127 C269 65 228 25 190 25 C145 25 115 76 115 153 L115 478 L115 500 L75 500 L36 500 L36 499 L56 493 C61 491 65 488 65 478 L65 153 C65 55 106 -10 167 -10 C211 -10 261 43 294 124 L295 77 L295 77 Z " />
<glyph glyph-name="ucircumflex" unicode="&#xfb;" horiz-adv-x="413" d="M205 727 L347 558 L354 563 L223 765 C219 770 210 783 205 783 C200 783 191 771 187 765 L56 563 L63 558 L205 727 L205 727 Z M295 77 L295 -10 L304 -10 L382 10 L382 11 L358 11 C350 11 345 24 345 88 L345 478 L345 500 L305 500 L266 500 L266 499 L286 493 C291 491 295 488 295 478 L295 127 C269 65 228 25 190 25 C145 25 115 76 115 153 L115 478 L115 500 L75 500 L36 500 L36 499 L56 493 C61 491 65 488 65 478 L65 153 C65 55 106 -10 167 -10 C211 -10 261 43 294 124 L295 77 L295 77 Z " />
<glyph glyph-name="udieresis" unicode="&#xfc;" horiz-adv-x="413" d="M272 615 C291 615 304 628 304 647 C304 667 291 680 272 680 C252 680 239 667 239 647 C239 628 252 615 272 615 L272 615 Z M138 615 C157 615 170 628 170 647 C170 667 157 680 138 680 C119 680 106 667 106 647 C106 628 119 615 138 615 L138 615 Z M295 77 L295 -10 L304 -10 L382 10 L382 11 L358 11 C350 11 345 24 345 88 L345 478 L345 500 L305 500 L266 500 L266 499 L286 493 C291 491 295 488 295 478 L295 127 C269 65 228 25 190 25 C145 25 115 76 115 153 L115 478 L115 500 L75 500 L36 500 L36 499 L56 493 C61 491 65 488 65 478 L65 153 C65 55 106 -10 167 -10 C211 -10 261 43 294 124 L295 77 L295 77 Z " />
<glyph glyph-name="ydieresis" unicode="&#xff;" horiz-adv-x="406" d="M279 615 C299 615 312 628 312 647 C312 667 299 680 279 680 C260 680 247 667 247 647 C247 628 260 615 279 615 L279 615 Z M145 615 C165 615 178 628 178 647 C178 667 165 680 145 680 C126 680 113 667 113 647 C113 628 126 615 145 615 L145 615 Z M50 466 L186 -10 L149 -140 C145 -155 133 -165 119 -165 C108 -165 103 -147 91 -147 C74 -147 62 -157 62 -172 C62 -191 74 -203 92 -203 C123 -203 150 -183 159 -154 L201 -10 L351 494 L390 499 L390 500 L353 500 L339 500 L330 500 L288 500 L288 499 L328 493 L186 -10 L205 58 L103 466 L103 466 C102 469 101 472 100 474 L95 494 L127 499 L127 500 L94 500 L68 500 L40 500 L10 500 L10 499 L42 494 L46 481 C47 477 48 472 50 466 L50 466 Z " />
<glyph glyph-name="Amacron" unicode="&#x100;" horiz-adv-x="586" d="M185 901 L419 901 L419 936 L185 936 L185 901 L185 901 Z M126 157 L125 157 L163 296 L391 296 L442 106 C464 25 465 9 461 8 L411 2 L411 1 L470 1 L490 1 L528 1 L570 1 L570 2 L526 8 L516 44 C511 62 504 89 493 128 L493 128 L329 733 L319 771 L313 771 C298 749 282 734 273 733 L276 722 L161 300 L161 300 L161 299 L123 158 L122 158 C88 33 78 9 73 8 L21 2 L21 1 L80 1 L82 1 L88 1 L154 1 L154 2 L98 8 C89 9 91 34 125 158 L126 157 L126 157 Z M163 300 L277 721 L390 300 L163 300 L163 300 Z " />
<glyph glyph-name="amacron" unicode="&#x101;" horiz-adv-x="478" d="M148 651 L382 651 L382 686 L148 686 L148 651 L148 651 Z M385 89 C353 45 306 16 265 16 C170 16 106 117 106 267 C106 404 162 495 271 495 C331 495 374 451 385 395 L385 97 L385 89 L385 89 Z M385 72 L385 -10 L394 -10 L472 10 L472 11 L448 11 C440 11 435 27 435 108 L435 450 L435 510 L429 510 L388 454 C361 488 318 510 265 510 C126 510 55 407 55 254 C55 98 131 -5 245 -5 C295 -5 351 25 385 72 L385 72 Z " />
<glyph glyph-name="Abreve" unicode="&#x102;" horiz-adv-x="586" d="M202 995 C205 931 245 889 302 889 C359 889 399 931 402 994 L392 995 C390 952 354 924 302 924 C250 924 214 953 212 996 L202 995 L202 995 Z M126 157 L125 157 L163 296 L391 296 L442 106 C464 25 465 9 461 8 L411 2 L411 1 L470 1 L490 1 L528 1 L570 1 L570 2 L526 8 L516 44 C511 62 504 89 493 128 L493 128 L329 733 L319 771 L313 771 C298 749 282 734 273 733 L276 722 L161 300 L161 300 L161 299 L123 158 L122 158 C88 33 78 9 73 8 L21 2 L21 1 L80 1 L82 1 L88 1 L154 1 L154 2 L98 8 C89 9 91 34 125 158 L126 157 L126 157 Z M163 300 L277 721 L390 300 L163 300 L163 300 Z " />
<glyph glyph-name="abreve" unicode="&#x103;" horiz-adv-x="478" d="M165 745 C168 681 208 639 265 639 C322 639 362 681 365 744 L355 745 C352 702 317 674 265 674 C213 674 177 703 175 746 L165 745 L165 745 Z M385 89 C353 45 306 16 265 16 C170 16 106 117 106 267 C106 404 162 495 271 495 C331 495 374 451 385 395 L385 97 L385 89 L385 89 Z M385 72 L385 -10 L394 -10 L472 10 L472 11 L448 11 C440 11 435 27 435 108 L435 450 L435 510 L429 510 L388 454 C361 488 318 510 265 510 C126 510 55 407 55 254 C55 98 131 -5 245 -5 C295 -5 351 25 385 72 L385 72 Z " />
<glyph glyph-name="Cacute" unicode="&#x106;" horiz-adv-x="648" d="M362 813 L501 936 C544 974 572 1001 572 1005 C572 1018 560 1029 547 1029 C543 1029 517 1001 479 959 L356 820 L362 813 L362 813 Z M513 714 C471 743 422 760 355 760 C178 760 61 606 61 375 C61 144 175 -10 345 -10 C405 -10 455 5 498 31 L499 31 C499 31 551 60 593 83 C598 85 601 80 601 70 L601 120 L601 122 L601 170 C601 170 598 166 593 161 C555 113 496 47 470 28 C432 5 391 -8 345 -8 C211 -8 121 145 121 375 C121 605 214 758 355 758 C390 758 420 751 448 738 C480 718 549 644 592 589 C597 583 600 579 600 579 L600 628 L600 629 L600 678 C600 678 597 673 592 666 C592 664 560 683 512 713 L513 714 L513 714 Z " />
<glyph glyph-name="Ccircumflex" unicode="&#x108;" horiz-adv-x="648" d="M356 977 L499 808 L506 813 L374 1015 C371 1020 362 1033 357 1033 C352 1033 343 1021 339 1015 L208 813 L214 808 L356 977 L356 977 Z M514 714 C472 743 423 760 356 760 C179 760 62 606 62 375 C62 144 176 -10 346 -10 C406 -10 456 5 499 31 L500 31 C500 31 552 60 594 83 C599 85 602 80 602 70 L602 120 L602 122 L602 170 C602 170 599 166 594 161 C556 113 497 47 471 28 C433 5 392 -8 346 -8 C212 -8 122 145 122 375 C122 605 215 758 356 758 C391 758 421 751 449 738 C481 718 550 644 593 589 C598 583 601 579 601 579 L601 628 L601 629 L601 678 C601 678 598 673 593 666 C593 664 561 683 513 713 L514 714 L514 714 Z " />
<glyph glyph-name="Cdot" unicode="&#x10a;" horiz-adv-x="648" d="M356 865 C375 865 388 878 388 897 C388 917 375 930 356 930 C336 930 323 917 323 897 C323 878 336 865 356 865 L356 865 Z M513 714 C471 743 422 760 355 760 C178 760 61 606 61 375 C61 144 175 -10 345 -10 C405 -10 455 5 498 31 L499 31 C499 31 551 60 593 83 C598 85 601 80 601 70 L601 120 L601 122 L601 170 C601 170 598 166 593 161 C555 113 496 47 470 28 C432 5 391 -8 345 -8 C211 -8 121 145 121 375 C121 605 214 758 355 758 C390 758 420 751 448 738 C480 718 549 644 592 589 C597 583 600 579 600 579 L600 628 L600 629 L600 678 C600 678 597 673 592 666 C592 664 560 683 512 713 L513 714 L513 714 Z " />
<glyph glyph-name="cdot" unicode="&#x10b;" horiz-adv-x="416" d="M241 615 C260 615 273 628 273 647 C273 667 260 680 241 680 C221 680 208 667 208 647 C208 628 221 615 241 615 L241 615 Z M387 128 L380 131 C351 65 296 21 245 21 C159 21 102 118 102 264 C102 405 156 499 238 499 C279 499 320 461 340 405 C345 390 355 380 365 380 C385 380 395 390 390 405 C367 468 308 510 241 510 C127 510 51 401 51 239 C51 89 121 -10 227 -10 C286 -10 350 45 387 128 L387 128 Z " />
<glyph glyph-name="Ccaron" unicode="&#x10c;" horiz-adv-x="648" d="M356 873 L499 1042 L506 1037 L374 835 C371 830 362 817 357 817 C352 817 343 829 339 835 L208 1037 L214 1042 L356 873 L356 873 Z M514 714 C472 743 423 760 356 760 C179 760 62 606 62 375 C62 144 176 -10 346 -10 C406 -10 456 5 499 31 L500 31 C500 31 552 60 594 83 C599 85 602 80 602 70 L602 120 L602 122 L602 170 C602 170 599 166 594 161 C556 113 497 47 471 28 C433 5 392 -8 346 -8 C212 -8 122 145 122 375 C122 605 215 758 356 758 C391 758 421 751 449 738 C481 718 550 644 593 589 C598 583 601 579 601 579 L601 628 L601 629 L601 678 C601 678 598 673 593 666 C593 664 561 683 513 713 L514 714 L514 714 Z " />
<glyph glyph-name="ccaron" unicode="&#x10d;" horiz-adv-x="416" d="M387 128 L380 131 C351 65 296 21 245 21 C159 21 102 118 102 264 C102 405 156 499 238 499 C279 499 320 461 340 405 C345 390 355 380 365 380 C385 380 395 390 390 405 C367 468 308 510 241 510 C127 510 51 401 51 239 C51 89 121 -10 227 -10 C286 -10 350 45 387 128 L387 128 Z M241 623 L383 792 L390 787 L259 585 C255 580 246 567 241 567 C236 567 227 579 223 585 L92 787 L99 792 L241 623 L241 623 Z " />
<glyph glyph-name="Dcaron" unicode="&#x10e;" horiz-adv-x="716" d="M360 873 L503 1042 L510 1037 L378 835 C375 830 366 817 361 817 C355 817 346 829 343 835 L211 1037 L218 1042 L360 873 L360 873 Z M120 678 L120 72 C120 21 113 10 103 7 L75 1 L75 0 L120 0 L125 0 L176 0 L239 0 C493 0 662 127 662 375 C662 600 529 750 270 750 L176 750 L125 750 L120 750 L75 750 L75 749 L103 743 C113 740 120 729 120 678 L120 678 Z M176 748 L263 748 C486 748 601 599 601 375 C601 129 455 2 236 2 C182 2 176 22 176 51 L176 72 L176 678 L176 748 L176 748 Z " />
<glyph glyph-name="dcaron" unicode="&#x10f;" horiz-adv-x="513" d="M554 647 C565 689 573 731 573 751 C573 757 564 759 551 759 C540 759 532 697 528 652 L518 541 L526 540 L554 647 L554 647 Z M420 89 C388 45 335 16 286 16 C179 16 107 117 107 267 C107 404 171 495 294 495 C338 495 391 447 421 391 L421 97 L420 89 L420 89 Z M421 72 L421 -10 L430 -10 L508 10 L508 11 L484 11 C476 11 471 27 471 108 L471 671 L471 750 L462 750 L384 728 L384 727 L384 726 L408 727 C416 727 421 716 421 660 L421 445 C387 483 337 510 289 510 C135 510 56 407 56 254 C56 98 140 -5 265 -5 C324 -5 386 25 421 72 L421 72 Z " />
<glyph glyph-name="Emacron" unicode="&#x112;" horiz-adv-x="520" d="M163 901 L398 901 L398 936 L163 936 L163 901 L163 901 Z M359 0 L467 0 C468 8 470 20 471 28 C472 37 474 48 475 57 L474 57 L473 57 L463 25 C458 11 440 2 360 2 L226 2 C180 2 175 22 175 51 L175 72 L175 385 L274 385 C354 385 371 373 374 355 L380 324 L381 324 L382 324 L382 385 L382 386 L382 387 L382 448 L381 448 L380 448 L374 417 C371 399 354 387 274 387 L175 387 L175 678 L175 748 L334 748 C431 748 433 739 436 725 L444 693 L445 693 L446 693 C445 702 444 713 444 722 C443 730 442 742 442 750 L334 750 L175 750 L124 750 L119 750 L74 750 L74 749 L102 743 C112 740 119 729 119 678 L119 72 C119 21 112 10 102 7 L74 1 L74 0 L119 0 L124 0 L175 0 L359 0 L359 0 Z " />
<glyph glyph-name="emacron" unicode="&#x113;" horiz-adv-x="474" d="M150 651 L384 651 L384 686 L150 686 L150 651 L150 651 Z M111 340 L389 340 L431 340 L445 340 C423 462 356 510 267 510 C137 510 50 400 50 235 C50 88 129 -10 247 -10 C327 -10 402 47 433 133 L427 136 C403 68 335 23 259 23 C166 23 103 116 103 255 C103 286 106 314 111 340 L111 340 Z M428 355 C429 355 430 355 431 355 L428 355 L428 355 Z M386 355 L114 353 C136 444 191 500 264 500 C319 500 364 459 385 356 L386 355 L386 355 Z " />
<glyph glyph-name="Ebreve" unicode="&#x114;" horiz-adv-x="520" d="M180 995 C184 931 224 889 281 889 C337 889 377 931 381 994 L370 995 C368 952 332 924 281 924 C229 924 193 953 191 996 L180 995 L180 995 Z M359 0 L467 0 C468 8 470 20 471 28 C472 37 474 48 475 57 L474 57 L473 57 L463 25 C458 11 440 2 360 2 L226 2 C180 2 175 22 175 51 L175 72 L175 385 L274 385 C354 385 371 373 374 355 L380 324 L381 324 L382 324 L382 385 L382 386 L382 387 L382 448 L381 448 L380 448 L374 417 C371 399 354 387 274 387 L175 387 L175 678 L175 748 L334 748 C431 748 433 739 436 725 L444 693 L445 693 L446 693 C445 702 444 713 444 722 C443 730 442 742 442 750 L334 750 L175 750 L124 750 L119 750 L74 750 L74 749 L102 743 C112 740 119 729 119 678 L119 72 C119 21 112 10 102 7 L74 1 L74 0 L119 0 L124 0 L175 0 L359 0 L359 0 Z " />
<glyph glyph-name="ebreve" unicode="&#x115;" horiz-adv-x="474" d="M167 745 C170 681 210 639 267 639 C324 639 364 681 368 744 L357 745 C355 702 319 674 267 674 C215 674 180 703 177 746 L167 745 L167 745 Z M111 340 L389 340 L431 340 L445 340 C423 462 356 510 267 510 C137 510 50 400 50 235 C50 88 129 -10 247 -10 C327 -10 402 47 433 133 L427 136 C403 68 335 23 259 23 C166 23 103 116 103 255 C103 286 106 314 111 340 L111 340 Z M428 355 C429 355 430 355 431 355 L428 355 L428 355 Z M386 355 L114 353 C136 444 191 500 264 500 C319 500 364 459 385 356 L386 355 L386 355 Z " />
<glyph glyph-name="Edot" unicode="&#x116;" horiz-adv-x="520" d="M281 865 C300 865 313 878 313 897 C313 917 300 930 281 930 C261 930 248 917 248 897 C248 878 261 865 281 865 L281 865 Z M359 0 L467 0 C468 8 470 20 471 28 C472 37 474 48 475 57 L474 57 L473 57 L463 25 C458 11 440 2 360 2 L226 2 C180 2 175 22 175 51 L175 72 L175 385 L274 385 C354 385 371 373 374 355 L380 324 L381 324 L382 324 L382 385 L382 386 L382 387 L382 448 L381 448 L380 448 L374 417 C371 399 354 387 274 387 L175 387 L175 678 L175 748 L334 748 C431 748 433 739 436 725 L444 693 L445 693 L446 693 C445 702 444 713 444 722 C443 730 442 742 442 750 L334 750 L175 750 L124 750 L119 750 L74 750 L74 749 L102 743 C112 740 119 729 119 678 L119 72 C119 21 112 10 102 7 L74 1 L74 0 L119 0 L124 0 L175 0 L359 0 L359 0 Z " />
<glyph glyph-name="edot" unicode="&#x117;" horiz-adv-x="474" d="M267 615 C287 615 300 628 300 647 C300 667 287 680 267 680 C248 680 235 667 235 647 C235 628 248 615 267 615 L267 615 Z M111 340 L389 340 L431 340 L445 340 C423 462 356 510 267 510 C137 510 50 400 50 235 C50 88 129 -10 247 -10 C327 -10 402 47 433 133 L427 136 C403 68 335 23 259 23 C166 23 103 116 103 255 C103 286 106 314 111 340 L111 340 Z M428 355 C429 355 430 355 431 355 L428 355 L428 355 Z M386 355 L114 353 C136 444 191 500 264 500 C319 500 364 459 385 356 L386 355 L386 355 Z " />
<glyph glyph-name="Ecaron" unicode="&#x11a;" horiz-adv-x="520" d="M281 873 L424 1042 L431 1037 L299 835 C296 830 287 817 282 817 C276 817 267 829 264 835 L132 1037 L139 1042 L281 873 L281 873 Z M360 0 L468 0 C469 8 471 20 472 28 C473 37 475 48 476 57 L475 57 L474 57 L464 25 C459 11 441 2 361 2 L227 2 C181 2 176 22 176 51 L176 72 L176 385 L275 385 C355 385 372 373 375 355 L381 324 L382 324 L383 324 L383 385 L383 386 L383 387 L383 448 L382 448 L381 448 L375 417 C372 399 355 387 275 387 L176 387 L176 678 L176 748 L335 748 C432 748 434 739 437 725 L445 693 L446 693 L447 693 C446 702 445 713 445 722 C444 730 443 742 443 750 L335 750 L176 750 L125 750 L120 750 L75 750 L75 749 L103 743 C113 740 120 729 120 678 L120 72 C120 21 113 10 103 7 L75 1 L75 0 L120 0 L125 0 L176 0 L360 0 L360 0 Z " />
<glyph glyph-name="ecaron" unicode="&#x11b;" horiz-adv-x="474" d="M268 623 L411 792 L417 787 L286 585 C282 580 273 567 268 567 C263 567 254 579 251 585 L119 787 L126 792 L268 623 L268 623 Z M112 340 L390 340 L432 340 L446 340 C424 462 357 510 268 510 C138 510 51 400 51 235 C51 88 130 -10 248 -10 C328 -10 403 47 434 133 L428 136 C404 68 336 23 260 23 C167 23 104 116 104 255 C104 286 107 314 112 340 L112 340 Z M429 355 C430 355 431 355 432 355 L429 355 L429 355 Z M387 355 L115 353 C137 444 192 500 265 500 C320 500 365 459 386 356 L387 355 L387 355 Z " />
<glyph glyph-name="Gcircumflex" unicode="&#x11c;" horiz-adv-x="689" d="M356 977 L499 808 L506 813 L374 1015 C371 1020 362 1033 357 1033 C352 1033 343 1021 339 1015 L208 813 L214 808 L356 977 L356 977 Z M529 258 L530 72 C526 40 483 16 416 8 L471 11 C437 7 400 5 359 5 L416 8 C398 6 379 5 358 5 C217 5 123 153 123 376 C123 606 216 759 357 759 C392 759 422 752 450 739 C482 719 551 645 594 590 C599 584 602 580 602 580 L602 629 L602 630 L602 679 C602 679 599 674 594 667 C594 665 562 684 514 714 C472 743 423 760 356 760 C179 760 62 606 62 375 C62 144 178 -10 353 -10 C419 -10 478 -1 534 15 L584 27 L584 31 C610 40 635 51 660 63 L659 64 C636 53 611 43 584 35 L585 258 C585 305 590 315 598 318 L622 324 L622 325 L553 325 L485 325 L485 324 L512 318 C522 315 529 305 529 258 L529 258 Z " />
<glyph glyph-name="Gbreve" unicode="&#x11e;" horiz-adv-x="689" d="M255 995 C259 931 299 889 356 889 C413 889 453 931 456 994 L446 995 C443 952 407 924 356 924 C304 924 268 953 266 996 L255 995 L255 995 Z M528 258 L529 72 C525 40 482 16 415 8 L470 11 C436 7 399 5 358 5 L415 8 C397 6 378 5 357 5 C216 5 122 153 122 376 C122 606 215 759 356 759 C391 759 421 752 449 739 C481 719 550 645 593 590 C598 584 601 580 601 580 L601 629 L601 630 L601 679 C601 679 598 674 593 667 C593 665 561 684 513 714 C471 743 422 760 355 760 C178 760 61 606 61 375 C61 144 177 -10 352 -10 C418 -10 477 -1 533 15 L583 27 L583 31 C609 40 634 51 659 63 L658 64 C635 53 610 43 583 35 L584 258 C584 305 589 315 597 318 L621 324 L621 325 L552 325 L484 325 L484 324 L511 318 C521 315 528 305 528 258 L528 258 Z " />
<glyph glyph-name="gbreve" unicode="&#x11f;" horiz-adv-x="476" d="M137 745 C141 681 181 639 237 639 C294 639 334 681 338 744 L327 745 C325 702 289 674 237 674 C186 674 150 703 148 746 L137 745 L137 745 Z M134 350 C134 439 175 498 237 498 C300 498 341 439 341 350 C341 260 300 200 237 200 C175 200 134 260 134 350 L134 350 Z M156 18 C161 18 166 18 171 18 L272 18 C365 18 401 -25 401 -89 C401 -167 341 -218 251 -218 C157 -218 95 -163 95 -80 C95 -35 119 3 156 19 L156 18 L156 18 Z M145 20 C90 2 54 -41 54 -92 C54 -174 132 -229 248 -229 C364 -229 442 -168 442 -78 C442 10 396 68 277 68 L173 68 C123 68 90 90 90 123 C90 163 149 189 238 189 C331 189 392 254 392 351 C392 365 391 378 389 390 C406 441 438 475 470 475 C487 475 499 459 499 435 C499 424 508 417 522 417 C534 417 542 427 542 441 C542 474 522 496 491 496 C446 496 405 460 385 405 C366 471 312 512 238 512 C146 512 85 448 85 352 C85 274 124 217 187 198 C109 189 60 156 60 110 C60 63 93 30 145 22 L145 20 L145 20 Z " />
<glyph glyph-name="Gdot" unicode="&#x120;" horiz-adv-x="689" d="M356 865 C375 865 388 878 388 897 C388 917 375 930 356 930 C336 930 323 917 323 897 C323 878 336 865 356 865 L356 865 Z M528 258 L529 72 C525 40 482 16 415 8 L470 11 C436 7 399 5 358 5 L415 8 C397 6 378 5 357 5 C216 5 122 153 122 376 C122 606 215 759 356 759 C391 759 421 752 449 739 C481 719 550 645 593 590 C598 584 601 580 601 580 L601 629 L601 630 L601 679 C601 679 598 674 593 667 C593 665 561 684 513 714 C471 743 422 760 355 760 C178 760 61 606 61 375 C61 144 177 -10 352 -10 C418 -10 477 -1 533 15 L583 27 L583 31 C609 40 634 51 659 63 L658 64 C635 53 610 43 583 35 L584 258 C584 305 589 315 597 318 L621 324 L621 325 L552 325 L484 325 L484 324 L511 318 C521 315 528 305 528 258 L528 258 Z " />
<glyph glyph-name="gdot" unicode="&#x121;" horiz-adv-x="476" d="M237 615 C257 615 270 628 270 647 C270 667 257 680 237 680 C218 680 205 667 205 647 C205 628 218 615 237 615 L237 615 Z M134 350 C134 439 175 498 237 498 C300 498 341 439 341 350 C341 260 300 200 237 200 C175 200 134 260 134 350 L134 350 Z M156 18 C161 18 166 18 171 18 L272 18 C365 18 401 -25 401 -89 C401 -167 341 -218 251 -218 C157 -218 95 -163 95 -80 C95 -35 119 3 156 19 L156 18 L156 18 Z M145 20 C90 2 54 -41 54 -92 C54 -174 132 -229 248 -229 C364 -229 442 -168 442 -78 C442 10 396 68 277 68 L173 68 C123 68 90 90 90 123 C90 163 149 189 238 189 C331 189 392 254 392 351 C392 365 391 378 389 390 C406 441 438 475 470 475 C487 475 499 459 499 435 C499 424 508 417 522 417 C534 417 542 427 542 441 C542 474 522 496 491 496 C446 496 405 460 385 405 C366 471 312 512 238 512 C146 512 85 448 85 352 C85 274 124 217 187 198 C109 189 60 156 60 110 C60 63 93 30 145 22 L145 20 L145 20 Z " />
<glyph glyph-name="Hcircumflex" unicode="&#x124;" horiz-adv-x="692" d="M370 977 L513 808 L520 813 L388 1015 C385 1020 376 1033 371 1033 C366 1033 357 1021 353 1015 L222 813 L228 808 L370 977 L370 977 Z M585 67 L585 683 C585 730 592 740 603 743 L631 749 L631 750 L557 750 L483 750 L483 749 L511 743 C522 740 529 730 529 683 L529 384 L212 384 L212 683 C212 730 219 740 230 743 L258 749 L258 750 L184 750 L111 750 L111 749 L139 743 C149 740 156 730 156 683 L156 67 C156 20 149 10 139 7 L111 1 L111 0 L184 0 L258 0 L258 1 L230 7 C219 10 212 20 212 67 L212 382 L529 382 L529 67 C529 20 522 10 511 7 L483 1 L483 0 L557 0 L631 0 L631 1 L603 7 C592 10 585 20 585 67 L585 67 Z " />
<glyph glyph-name="Itilde" unicode="&#x128;" horiz-adv-x="289" d="M40 870 C40 910 55 936 76 936 C127 936 165 871 216 871 C247 871 268 909 268 966 L266 966 C266 930 251 906 228 906 C177 906 139 971 88 971 C58 971 39 931 39 870 L40 870 L40 870 Z M181 67 L181 683 C181 730 188 740 199 743 L227 749 L227 750 L153 750 L80 750 L80 749 L108 743 C119 740 126 730 126 683 L126 67 C126 20 119 10 108 7 L80 1 L80 0 L153 0 L227 0 L227 1 L199 7 C188 10 181 20 181 67 L181 67 Z " />
<glyph glyph-name="itilde" unicode="&#x129;" horiz-adv-x="246" d="M35 620 C35 660 50 686 71 686 C122 686 160 621 211 621 C242 621 263 659 263 716 L262 716 C262 680 246 656 223 656 C172 656 134 721 83 721 C54 721 34 681 34 620 L35 620 L35 620 Z M174 22 L174 396 L174 500 L165 500 L88 445 L88 444 C118 425 124 418 124 396 L124 22 C124 12 119 9 111 7 L88 1 L88 0 L149 0 L210 0 L210 1 L186 7 C179 10 174 13 174 22 L174 22 Z " />
<glyph glyph-name="Imacron" unicode="&#x12a;" horiz-adv-x="289" d="M36 901 L271 901 L271 936 L36 936 L36 901 L36 901 Z M181 67 L181 683 C181 730 188 740 199 743 L227 749 L227 750 L153 750 L80 750 L80 749 L108 743 C119 740 126 730 126 683 L126 67 C126 20 119 10 108 7 L80 1 L80 0 L153 0 L227 0 L227 1 L199 7 C188 10 181 20 181 67 L181 67 Z " />
<glyph glyph-name="imacron" unicode="&#x12b;" horiz-adv-x="246" d="M31 651 L266 651 L266 686 L31 686 L31 651 L31 651 Z M174 22 L174 396 L174 500 L165 500 L88 445 L88 444 C118 425 124 418 124 396 L124 22 C124 12 119 9 111 7 L88 1 L88 0 L149 0 L210 0 L210 1 L186 7 C179 10 174 13 174 22 L174 22 Z " />
<glyph glyph-name="Ibreve" unicode="&#x12c;" horiz-adv-x="289" d="M53 995 C57 931 97 889 153 889 C210 889 250 931 254 994 L243 995 C241 952 205 924 153 924 C102 924 66 953 64 996 L53 995 L53 995 Z M181 67 L181 683 C181 730 188 740 199 743 L227 749 L227 750 L153 750 L80 750 L80 749 L108 743 C119 740 126 730 126 683 L126 67 C126 20 119 10 108 7 L80 1 L80 0 L153 0 L227 0 L227 1 L199 7 C188 10 181 20 181 67 L181 67 Z " />
<glyph glyph-name="ibreve" unicode="&#x12d;" horiz-adv-x="246" d="M48 745 C52 681 92 639 149 639 C205 639 245 681 249 744 L238 745 C236 702 200 674 149 674 C97 674 61 703 59 746 L48 745 L48 745 Z M174 22 L174 396 L174 500 L165 500 L88 445 L88 444 C118 425 124 418 124 396 L124 22 C124 12 119 9 111 7 L88 1 L88 0 L149 0 L210 0 L210 1 L186 7 C179 10 174 13 174 22 L174 22 Z " />
<glyph glyph-name="Idot" unicode="&#x130;" horiz-adv-x="289" d="M153 865 C173 865 186 878 186 897 C186 917 173 930 153 930 C134 930 121 917 121 897 C121 878 134 865 153 865 L153 865 Z M181 67 L181 683 C181 730 188 740 199 743 L227 749 L227 750 L153 750 L80 750 L80 749 L108 743 C119 740 126 730 126 683 L126 67 C126 20 119 10 108 7 L80 1 L80 0 L153 0 L227 0 L227 1 L199 7 C188 10 181 20 181 67 L181 67 Z " />
<glyph glyph-name="dotlessi" unicode="&#x131;" horiz-adv-x="246" d="M174 22 L174 396 L174 500 L165 500 L88 445 L88 444 C118 425 124 418 124 396 L124 22 C124 12 119 9 111 7 L88 1 L88 0 L149 0 L210 0 L210 1 L186 7 C179 10 174 13 174 22 L174 22 Z " />
<glyph glyph-name="Jcircumflex" unicode="&#x134;" horiz-adv-x="289" d="M154 977 L297 808 L304 813 L172 1015 C169 1020 159 1033 154 1033 C149 1033 140 1021 137 1015 L5 813 L12 808 L154 977 L154 977 Z M127 683 L126 -31 C126 -187 61 -217 13 -217 C-15 -217 -3 -170 -31 -170 C-46 -170 -57 -181 -57 -196 C-57 -211 -30 -220 11 -220 C83 -220 183 -173 183 75 L182 683 C182 730 189 740 200 743 L228 749 L228 750 L154 750 L81 750 L81 749 L109 743 C120 740 127 730 127 683 L127 683 Z " />
<glyph glyph-name="Lacute" unicode="&#x139;" horiz-adv-x="500" d="M160 813 L299 936 C341 974 369 1001 369 1005 C369 1018 358 1029 344 1029 C341 1029 314 1001 276 959 L154 820 L160 813 L160 813 Z M462 10 C465 20 468 31 470 40 C473 52 478 68 481 80 L480 81 L480 81 L465 50 C454 25 422 9 289 9 L232 9 C186 9 181 25 181 50 L181 71 L181 677 C181 728 188 739 199 742 L227 748 L227 749 L181 749 L153 749 L126 749 L80 749 L80 748 L108 742 C119 739 126 728 126 677 L126 71 C126 20 119 9 108 6 L80 0 L80 -1 L126 -1 L130 -1 L181 -1 L287 -1 L459 -1 L462 10 L462 10 Z M480 81 C480 81 480 81 481 81 L480 81 L480 81 Z " />
<glyph glyph-name="Lcaron" unicode="&#x13d;" horiz-adv-x="500" d="M329 697 C340 739 348 781 348 801 C348 807 339 809 326 809 C315 809 307 747 303 702 L293 591 L301 590 L329 697 L329 697 Z M462 10 C465 20 468 31 470 40 C473 52 478 68 481 80 L480 81 L480 81 L465 50 C454 25 422 9 289 9 L232 9 C186 9 181 25 181 50 L181 71 L181 677 C181 728 188 739 199 742 L227 748 L227 749 L181 749 L153 749 L126 749 L80 749 L80 748 L108 742 C119 739 126 728 126 677 L126 71 C126 20 119 9 108 6 L80 0 L80 -1 L126 -1 L130 -1 L181 -1 L287 -1 L459 -1 L462 10 L462 10 Z M480 81 C480 81 480 81 481 81 L480 81 L480 81 Z " />
<glyph glyph-name="lcaron" unicode="&#x13e;" horiz-adv-x="210" d="M221 647 C232 689 240 731 240 751 C240 757 231 759 218 759 C207 759 199 697 195 652 L185 541 L193 540 L221 647 L221 647 Z M137 22 L137 688 L137 750 L128 750 L50 728 L50 727 L50 726 L74 727 C82 727 87 719 87 676 L87 22 C87 12 82 9 75 7 L52 1 L52 0 L112 0 L172 0 L172 1 L149 7 C142 9 137 12 137 22 L137 22 Z " />
<glyph glyph-name="Nacute" unicode="&#x143;" horiz-adv-x="637" d="M223 813 L362 936 C404 974 432 1001 432 1005 C432 1018 421 1029 407 1029 C404 1029 377 1001 339 959 L217 820 L223 813 L223 813 Z M121 127 L121 127 L120 656 L467 79 L515 0 L526 0 L530 675 C532 728 540 740 552 743 L584 749 L584 750 L530 750 L521 750 L513 750 L459 750 L459 749 L491 743 C504 740 513 724 513 643 L513 643 L514 108 L132 750 L119 750 L105 750 L84 750 L63 750 L35 750 L35 749 L66 745 L81 719 C83 716 85 712 87 708 L87 708 L104 680 L103 137 L103 137 C103 29 101 8 98 7 L49 1 L49 0 L103 0 L112 0 L120 0 L175 0 L175 1 L125 7 C122 8 120 27 120 127 L121 127 L121 127 Z " />
<glyph glyph-name="Ncaron" unicode="&#x147;" horiz-adv-x="637" d="M121 127 L121 127 L120 656 L467 79 L515 0 L526 0 L530 675 C532 728 540 740 552 743 L584 749 L584 750 L530 750 L521 750 L513 750 L459 750 L459 749 L491 743 C504 740 513 724 513 643 L513 643 L514 108 L132 750 L119 750 L105 750 L84 750 L63 750 L35 750 L35 749 L66 745 L81 719 C83 716 85 712 87 708 L87 708 L104 680 L103 137 L103 137 C103 29 101 8 98 7 L49 1 L49 0 L103 0 L112 0 L120 0 L175 0 L175 1 L125 7 C122 8 120 27 120 127 L121 127 L121 127 Z M316 873 L459 1042 L466 1037 L334 835 C331 830 322 817 317 817 C312 817 303 829 299 835 L168 1037 L174 1042 L316 873 L316 873 Z " />
<glyph glyph-name="ncaron" unicode="&#x148;" horiz-adv-x="452" d="M230 623 L372 792 L379 787 L248 585 C244 580 235 567 230 567 C225 567 216 579 213 585 L81 787 L88 792 L230 623 L230 623 Z M329 22 C329 12 324 9 317 7 L294 1 L294 0 L354 0 L414 0 L414 1 L391 7 C384 9 379 12 379 22 L379 382 C379 459 341 510 268 510 C208 510 154 460 131 385 L131 438 L131 500 L122 500 L44 471 L44 470 L68 473 C76 474 81 466 81 423 L81 22 C81 12 76 9 69 7 L46 1 L46 0 L106 0 L166 0 L166 1 L143 7 C136 9 131 12 131 22 L131 377 C151 443 200 487 254 487 C303 487 329 445 329 382 L329 22 L329 22 Z " />
<glyph glyph-name="Omacron" unicode="&#x14c;" horiz-adv-x="751" d="M256 901 L491 901 L491 936 L256 936 L256 901 L256 901 Z M364 -8 C221 -8 125 145 125 375 C125 605 224 758 373 758 C528 758 632 605 632 375 C632 145 525 -8 364 -8 L364 -8 Z M61 375 C61 144 182 -10 364 -10 C563 -10 696 144 696 375 C696 606 567 760 374 760 C186 760 61 606 61 375 L61 375 Z " />
<glyph glyph-name="omacron" unicode="&#x14d;" horiz-adv-x="565" d="M168 651 L402 651 L402 686 L168 686 L168 651 L168 651 Z M285 -8 C177 -8 105 95 105 250 C105 405 177 508 285 508 C393 508 465 405 465 250 C465 95 393 -8 285 -8 L285 -8 Z M50 250 C50 94 144 -10 285 -10 C426 -10 520 94 520 250 C520 406 426 510 285 510 C144 510 50 406 50 250 L50 250 Z " />
<glyph glyph-name="Obreve" unicode="&#x14e;" horiz-adv-x="751" d="M273 995 C277 931 317 889 374 889 C431 889 471 931 474 994 L463 995 C461 952 425 924 374 924 C322 924 286 953 284 996 L273 995 L273 995 Z M364 -8 C221 -8 125 145 125 375 C125 605 224 758 373 758 C528 758 632 605 632 375 C632 145 525 -8 364 -8 L364 -8 Z M61 375 C61 144 182 -10 364 -10 C563 -10 696 144 696 375 C696 606 567 760 374 760 C186 760 61 606 61 375 L61 375 Z " />
<glyph glyph-name="obreve" unicode="&#x14f;" horiz-adv-x="565" d="M185 745 C188 681 228 639 285 639 C342 639 382 681 386 744 L375 745 C373 702 337 674 285 674 C233 674 198 703 195 746 L185 745 L185 745 Z M285 -8 C177 -8 105 95 105 250 C105 405 177 508 285 508 C393 508 465 405 465 250 C465 95 393 -8 285 -8 L285 -8 Z M50 250 C50 94 144 -10 285 -10 C426 -10 520 94 520 250 C520 406 426 510 285 510 C144 510 50 406 50 250 L50 250 Z " />
<glyph glyph-name="Racute" unicode="&#x154;" horiz-adv-x="585" d="M273 813 L412 936 C454 974 482 1001 482 1005 C482 1018 471 1029 457 1029 C454 1029 427 1001 389 959 L267 820 L273 813 L273 813 Z M575 0 L575 4 C504 4 500 7 471 67 C398 221 345 333 327 370 C418 384 475 438 475 539 C475 665 395 749 274 749 L175 749 L124 749 L74 749 L74 748 L102 742 C112 739 119 728 119 677 L119 71 C119 20 112 9 102 6 L74 0 L74 -1 L147 -1 L221 -1 L221 0 L193 6 C182 9 175 20 175 71 L175 365 L271 365 C282 332 334 217 406 65 C437 1 443 -2 575 -2 L575 0 L575 0 Z M175 737 L258 737 C352 737 414 662 414 549 C414 431 358 378 274 378 L175 378 L175 676 L175 737 L175 737 Z " />
<glyph glyph-name="Rcaron" unicode="&#x158;" horiz-adv-x="585" d="M575 0 L575 4 C504 4 500 7 471 67 C398 221 345 333 327 370 C418 384 475 438 475 539 C475 665 395 749 274 749 L175 749 L124 749 L74 749 L74 748 L102 742 C112 739 119 728 119 677 L119 71 C119 20 112 9 102 6 L74 0 L74 -1 L147 -1 L221 -1 L221 0 L193 6 C182 9 175 20 175 71 L175 365 L271 365 C282 332 334 217 406 65 C437 1 443 -2 575 -2 L575 0 L575 0 Z M267 871 L410 1040 L417 1035 L285 833 C282 828 273 815 268 815 C262 815 253 827 250 833 L118 1035 L125 1040 L267 871 L267 871 Z M176 737 L259 737 C353 737 415 662 415 549 C415 431 359 378 275 378 L176 378 L176 676 L176 737 L176 737 Z " />
<glyph glyph-name="rcaron" unicode="&#x159;" horiz-adv-x="303" d="M186 623 L328 792 L335 787 L204 585 C200 580 191 567 186 567 C181 567 172 579 168 585 L37 787 L44 792 L186 623 L186 623 Z M137 410 L137 438 L137 500 L128 500 L50 471 L50 470 L74 473 C82 474 87 466 87 423 L87 22 C87 12 83 9 76 7 L54 1 L54 0 L114 0 L174 0 L174 1 L150 7 C142 10 137 13 137 22 L137 404 C147 455 180 487 227 487 C232 487 235 473 235 452 C235 434 247 422 264 422 C282 422 294 434 294 452 C294 487 276 510 250 510 C190 510 148 471 137 410 L137 410 Z " />
<glyph glyph-name="Sacute" unicode="&#x15a;" horiz-adv-x="501" d="M259 813 L398 936 C440 974 468 1001 468 1005 C468 1018 457 1029 443 1029 C439 1029 413 1001 375 959 L253 820 L259 813 L259 813 Z M357 717 L356 717 C320 744 275 760 229 760 C135 760 73 687 73 577 C73 491 136 403 259 346 C363 297 417 229 417 165 C417 62 361 -7 276 -7 C242 -7 208 5 176 26 C169 36 110 117 60 184 C56 189 53 193 53 193 L53 148 L53 139 L53 85 C53 85 56 91 60 100 C61 101 91 78 136 42 L136 42 C178 9 227 -10 276 -10 C387 -10 461 67 461 181 C461 268 404 352 293 404 C177 458 117 531 117 598 C117 694 162 758 229 758 C258 758 287 749 314 733 L268 751 C298 735 365 663 410 605 C414 600 417 596 417 596 L417 641 L417 644 L417 691 C417 691 414 686 410 679 C410 677 388 692 356 716 L357 717 L357 717 Z M268 750 L260 753 C262 753 265 752 268 751 L268 750 L268 750 Z " />
<glyph glyph-name="Scircumflex" unicode="&#x15c;" horiz-adv-x="501" d="M357 717 L356 717 C320 744 275 760 229 760 C135 760 73 687 73 577 C73 491 136 403 259 346 C363 297 417 229 417 165 C417 62 361 -7 276 -7 C242 -7 208 5 176 26 C169 36 110 117 60 184 C56 189 53 193 53 193 L53 148 L53 139 L53 85 C53 85 56 91 60 100 C61 101 91 78 136 42 L136 42 C178 9 227 -10 276 -10 C387 -10 461 67 461 181 C461 268 404 352 293 404 C177 458 117 531 117 598 C117 694 162 758 229 758 C258 758 287 749 314 733 L268 751 C298 735 365 663 410 605 C414 600 417 596 417 596 L417 641 L417 644 L417 691 C417 691 414 686 410 679 C410 677 388 692 356 716 L357 717 L357 717 Z M251 976 L393 807 L400 812 L269 1014 C265 1019 256 1032 251 1032 C246 1032 237 1020 234 1014 L102 812 L109 807 L251 976 L251 976 Z M268 750 L260 753 C262 753 265 752 268 751 L268 750 L268 750 Z " />
<glyph glyph-name="Scaron" unicode="&#x160;" horiz-adv-x="501" d="M357 717 L356 717 C320 744 275 760 229 760 C135 760 73 687 73 577 C73 491 136 403 259 346 C363 297 417 229 417 165 C417 62 361 -7 276 -7 C242 -7 208 5 176 26 C169 36 110 117 60 184 C56 189 53 193 53 193 L53 148 L53 139 L53 85 C53 85 56 91 60 100 C61 101 91 78 136 42 L136 42 C178 9 227 -10 276 -10 C387 -10 461 67 461 181 C461 268 404 352 293 404 C177 458 117 531 117 598 C117 694 162 758 229 758 C258 758 287 749 314 733 L268 751 C298 735 365 663 410 605 C414 600 417 596 417 596 L417 641 L417 644 L417 691 C417 691 414 686 410 679 C410 677 388 692 356 716 L357 717 L357 717 Z M251 872 L393 1041 L400 1036 L269 834 C265 829 256 816 251 816 C246 816 237 828 234 834 L102 1036 L109 1041 L251 872 L251 872 Z M268 750 L260 753 C262 753 265 752 268 751 L268 750 L268 750 Z " />
<glyph glyph-name="scaron" unicode="&#x161;" horiz-adv-x="391" d="M246 496 L245 496 C227 505 208 510 188 510 C121 510 76 461 76 389 C76 322 119 261 203 231 C269 207 303 160 303 107 C303 38 267 -8 214 -8 C209 -8 204 -8 199 -7 C187 -2 126 66 80 122 C76 126 74 129 74 129 L73 129 L73 95 L73 93 L73 57 L74 57 C74 57 76 61 80 67 C73 57 101 30 154 5 C173 -5 193 -10 213 -10 C290 -10 341 43 341 121 C341 185 301 241 224 269 C149 296 111 348 111 406 C111 467 141 508 187 508 C188 508 189 508 190 507 L186 508 C197 508 208 506 219 502 L189 508 C209 501 265 445 304 398 C307 394 309 391 309 391 L310 391 L311 391 L311 426 L311 433 L311 476 L310 476 L309 476 C309 476 307 471 304 463 C304 464 280 478 243 497 L246 496 L246 496 Z M211 624 L354 793 L361 788 L229 586 C226 581 217 568 212 568 C207 568 198 580 194 586 L63 788 L69 793 L211 624 L211 624 Z " />
<glyph glyph-name="Tcaron" unicode="&#x164;" horiz-adv-x="731" d="M366 873 L509 1042 L516 1037 L384 835 C381 830 372 817 367 817 C362 817 353 829 349 835 L218 1037 L224 1042 L366 873 L366 873 Z M677 737 L677 750 L672 750 C669 760 665 770 662 778 L661 778 L660 778 L665 750 L565 750 L395 750 L339 750 L168 750 L68 750 L73 778 L72 778 L71 778 C68 770 64 760 61 750 L56 750 L56 737 C56 736 56 735 56 734 C52 722 45 704 41 691 C41 690 41 690 42 690 L59 721 C64 730 83 736 164 736 L340 736 L340 67 C340 20 333 10 322 7 L294 1 L294 0 L368 0 L442 0 L442 1 L413 7 C403 10 396 20 396 67 L396 736 L571 736 C652 736 671 730 676 721 L694 690 L694 691 L695 691 C690 704 683 722 679 734 C679 735 679 736 679 737 L677 737 L677 737 Z " />
<glyph glyph-name="tcaron" unicode="&#x165;" horiz-adv-x="311" d="M271 500 L140 500 L140 620 L136 620 L25 500 L25 490 L90 490 L90 129 C90 29 132 -10 196 -10 C230 -10 273 21 302 68 L296 71 C275 37 240 14 211 14 C167 14 138 43 138 118 L140 474 L271 474 L271 500 L271 500 Z M356 647 C367 689 375 731 375 751 C375 757 366 759 353 759 C342 759 334 697 330 652 L320 541 L328 540 L356 647 L356 647 Z " />
<glyph glyph-name="Utilde" unicode="&#x168;" horiz-adv-x="566" d="M173 870 C173 910 187 936 209 936 C260 936 298 871 349 871 C380 871 400 909 400 966 L399 966 C399 930 384 906 360 906 C309 906 271 971 220 971 C191 971 172 931 172 870 L173 870 L173 870 Z M488 97 L488 678 L488 750 L437 750 L386 750 L386 749 L414 743 C425 740 432 729 432 678 L432 166 C392 82 308 26 220 26 C172 26 140 100 140 211 L140 678 L140 750 L89 750 L39 750 L39 749 L67 743 C77 740 84 729 84 678 L84 211 C84 78 129 -10 197 -10 C296 -10 389 50 432 141 L432 97 L432 0 L441 0 L533 49 C495 74 488 81 488 97 L488 97 Z " />
<glyph glyph-name="utilde" unicode="&#x169;" horiz-adv-x="413" d="M92 620 C92 660 106 686 128 686 C179 686 217 621 268 621 C298 621 319 659 319 716 L318 716 C318 680 302 656 279 656 C228 656 190 721 139 721 C110 721 90 681 90 620 L92 620 L92 620 Z M295 77 L295 -10 L304 -10 L382 10 L382 11 L358 11 C350 11 345 24 345 88 L345 478 L345 500 L305 500 L266 500 L266 499 L286 493 C291 491 295 488 295 478 L295 127 C269 65 228 25 190 25 C145 25 115 76 115 153 L115 478 L115 500 L75 500 L36 500 L36 499 L56 493 C61 491 65 488 65 478 L65 153 C65 55 106 -10 167 -10 C211 -10 261 43 294 124 L295 77 L295 77 Z " />
<glyph glyph-name="Umacron" unicode="&#x16a;" horiz-adv-x="566" d="M169 901 L403 901 L403 936 L169 936 L169 901 L169 901 Z M488 97 L488 678 L488 750 L437 750 L386 750 L386 749 L414 743 C425 740 432 729 432 678 L432 166 C392 82 308 26 220 26 C172 26 140 100 140 211 L140 678 L140 750 L89 750 L39 750 L39 749 L67 743 C77 740 84 729 84 678 L84 211 C84 78 129 -10 197 -10 C296 -10 389 50 432 141 L432 97 L432 0 L441 0 L533 49 C495 74 488 81 488 97 L488 97 Z " />
<glyph glyph-name="umacron" unicode="&#x16b;" horiz-adv-x="413" d="M88 651 L322 651 L322 686 L88 686 L88 651 L88 651 Z M295 77 L295 -10 L304 -10 L382 10 L382 11 L358 11 C350 11 345 24 345 88 L345 478 L345 500 L305 500 L266 500 L266 499 L286 493 C291 491 295 488 295 478 L295 127 C269 65 228 25 190 25 C145 25 115 76 115 153 L115 478 L115 500 L75 500 L36 500 L36 499 L56 493 C61 491 65 488 65 478 L65 153 C65 55 106 -10 167 -10 C211 -10 261 43 294 124 L295 77 L295 77 Z " />
<glyph glyph-name="Ubreve" unicode="&#x16c;" horiz-adv-x="566" d="M186 995 C189 931 229 889 286 889 C343 889 383 931 386 994 L376 995 C374 952 338 924 286 924 C234 924 198 953 196 996 L186 995 L186 995 Z M488 97 L488 678 L488 750 L437 750 L386 750 L386 749 L414 743 C425 740 432 729 432 678 L432 166 C392 82 308 26 220 26 C172 26 140 100 140 211 L140 678 L140 750 L89 750 L39 750 L39 749 L67 743 C77 740 84 729 84 678 L84 211 C84 78 129 -10 197 -10 C296 -10 389 50 432 141 L432 97 L432 0 L441 0 L533 49 C495 74 488 81 488 97 L488 97 Z " />
<glyph glyph-name="ubreve" unicode="&#x16d;" horiz-adv-x="413" d="M105 745 C108 681 148 639 205 639 C262 639 302 681 305 744 L295 745 C292 702 257 674 205 674 C153 674 117 703 115 746 L105 745 L105 745 Z M295 77 L295 -10 L304 -10 L382 10 L382 11 L358 11 C350 11 345 24 345 88 L345 478 L345 500 L305 500 L266 500 L266 499 L286 493 C291 491 295 488 295 478 L295 127 C269 65 228 25 190 25 C145 25 115 76 115 153 L115 478 L115 500 L75 500 L36 500 L36 499 L56 493 C61 491 65 488 65 478 L65 153 C65 55 106 -10 167 -10 C211 -10 261 43 294 124 L295 77 L295 77 Z " />
<glyph glyph-name="Uring" unicode="&#x16e;" horiz-adv-x="566" d="M286 822 C242 822 204 860 204 905 C204 955 237 988 286 988 C335 988 368 955 368 905 C368 860 330 822 286 822 L286 822 Z M190 905 C190 854 234 810 286 810 C338 810 383 854 383 905 C383 962 344 1000 286 1000 C228 1000 190 962 190 905 L190 905 Z M488 97 L488 678 L488 750 L437 750 L386 750 L386 749 L414 743 C425 740 432 729 432 678 L432 166 C392 82 308 26 220 26 C172 26 140 100 140 211 L140 678 L140 750 L89 750 L39 750 L39 749 L67 743 C77 740 84 729 84 678 L84 211 C84 78 129 -10 197 -10 C296 -10 389 50 432 141 L432 97 L432 0 L441 0 L533 49 C495 74 488 81 488 97 L488 97 Z " />
<glyph glyph-name="uring" unicode="&#x16f;" horiz-adv-x="413" d="M205 572 C161 572 123 610 123 655 C123 705 156 738 205 738 C254 738 287 705 287 655 C287 610 249 572 205 572 L205 572 Z M108 655 C108 604 153 560 205 560 C257 560 301 604 301 655 C301 712 263 750 205 750 C147 750 108 712 108 655 L108 655 Z M295 77 L295 -10 L304 -10 L382 10 L382 11 L358 11 C350 11 345 24 345 88 L345 478 L345 500 L305 500 L266 500 L266 499 L286 493 C291 491 295 488 295 478 L295 127 C269 65 228 25 190 25 C145 25 115 76 115 153 L115 478 L115 500 L75 500 L36 500 L36 499 L56 493 C61 491 65 488 65 478 L65 153 C65 55 106 -10 167 -10 C211 -10 261 43 294 124 L295 77 L295 77 Z " />
<glyph glyph-name="Wcircumflex" unicode="&#x174;" horiz-adv-x="899" d="M440 977 L583 808 L590 813 L458 1015 C455 1020 446 1033 441 1033 C436 1033 427 1021 423 1015 L292 813 L298 808 L440 977 L440 977 Z M394 743 L464 499 L303 69 L303 71 L147 623 L147 623 C145 629 143 635 141 641 L137 655 C117 728 116 743 121 744 L173 750 L173 751 L110 751 L97 751 L48 751 L20 751 L20 750 L50 746 L248 72 L272 -9 L287 -9 L471 472 L583 82 L609 -9 L624 -9 L796 624 L797 624 C801 639 804 652 807 664 L829 744 L872 750 L872 751 L831 751 L808 751 L804 751 L736 751 L736 750 L793 744 C800 743 801 728 784 660 L633 82 L482 654 L482 654 C481 659 480 663 479 667 L468 709 C462 737 464 744 469 745 L521 751 L521 752 L458 752 L437 752 L393 752 L352 752 L352 751 L394 743 L394 743 Z " />
<glyph glyph-name="Ycircumflex" unicode="&#x176;" horiz-adv-x="561" d="M287 977 L430 808 L436 813 L305 1015 C301 1020 292 1033 287 1033 C282 1033 273 1021 270 1015 L138 813 L145 808 L287 977 L287 977 Z M503 743 L504 743 C504 743 504 743 504 742 C504 743 504 743 504 743 L503 743 L503 743 Z M175 623 L175 623 C172 628 169 633 167 638 L114 743 L157 749 L157 750 L111 750 L87 750 L45 750 L17 750 L17 749 L48 745 L98 647 C102 640 106 632 110 624 L110 624 L261 330 L261 68 C261 21 254 11 244 8 L215 2 L215 1 L289 1 L363 1 L363 2 L335 8 C324 11 317 21 317 68 L317 340 L508 745 L548 750 L548 751 L511 751 L507 751 L505 751 L461 751 L461 750 L504 744 L473 678 C467 666 460 652 452 635 L452 634 L317 343 L175 623 L175 623 Z " />
<glyph glyph-name="Ydieresis" unicode="&#x178;" horiz-adv-x="561" d="M353 865 C373 865 386 878 386 897 C386 917 373 930 353 930 C334 930 321 917 321 897 C321 878 334 865 353 865 L353 865 Z M219 865 C239 865 252 878 252 897 C252 917 239 930 219 930 C200 930 187 917 187 897 C187 878 200 865 219 865 L219 865 Z M502 743 L503 743 C503 743 503 743 503 742 C503 743 503 743 503 743 L502 743 L502 743 Z M174 623 L174 623 C171 628 168 633 166 638 L113 743 L156 749 L156 750 L110 750 L86 750 L44 750 L16 750 L16 749 L47 745 L97 647 C101 640 105 632 109 624 L109 624 L260 330 L260 68 C260 21 253 11 243 8 L214 2 L214 1 L288 1 L362 1 L362 2 L334 8 C323 11 316 21 316 68 L316 340 L507 745 L547 750 L547 751 L510 751 L506 751 L504 751 L460 751 L460 750 L503 744 L472 678 C466 666 459 652 451 635 L451 634 L316 343 L174 623 L174 623 Z " />
<glyph glyph-name="Zacute" unicode="&#x179;" horiz-adv-x="590" d="M325 813 L464 936 C506 974 534 1001 534 1005 C534 1018 523 1029 509 1029 C505 1029 479 1001 441 959 L318 820 L325 813 L325 813 Z M86 0 L415 0 L562 0 C565 13 569 29 573 41 C575 54 580 70 583 83 L582 83 L582 84 L566 52 C557 33 535 20 462 17 L95 13 L567 738 L567 750 L513 750 L228 750 L71 750 C69 737 67 719 65 706 C63 693 60 675 59 662 L59 661 L60 661 L73 692 C84 718 113 735 226 735 L226 735 L505 737 L26 12 L26 0 L86 0 L86 0 Z " />
<glyph glyph-name="Zdot" unicode="&#x17b;" horiz-adv-x="590" d="M318 865 C337 865 350 878 350 897 C350 917 337 930 318 930 C299 930 286 917 286 897 C286 878 299 865 318 865 L318 865 Z M86 0 L415 0 L562 0 C565 13 569 29 573 41 C575 54 580 70 583 83 L582 83 L582 84 L566 52 C557 33 535 20 462 17 L95 13 L567 738 L567 750 L513 750 L228 750 L71 750 C69 737 67 719 65 706 C63 693 60 675 59 662 L59 661 L60 661 L73 692 C84 718 113 735 226 735 L226 735 L505 737 L26 12 L26 0 L86 0 L86 0 Z " />
<glyph glyph-name="zdot" unicode="&#x17c;" horiz-adv-x="431" d="M237 615 C256 615 269 628 269 647 C269 667 256 680 237 680 C217 680 204 667 204 647 C204 628 217 615 237 615 L237 615 Z M78 454 L90 472 C93 477 102 481 130 483 L332 487 L40 12 L40 0 L93 0 L340 0 L386 0 C387 9 389 21 390 29 C390 33 391 37 392 41 L383 27 C380 22 369 18 334 16 L101 12 L391 487 L391 499 L340 499 L110 499 L95 499 L96 517 L95 517 C94 511 92 505 90 499 L82 499 L82 481 L85 481 C85 480 85 479 85 478 C83 471 81 462 79 454 L78 454 L78 454 Z M79 454 C78 449 77 444 76 440 L73 440 L70 440 L79 454 L79 454 Z M394 41 C395 47 396 53 397 58 L401 58 L405 58 L394 41 L394 41 Z " />
<glyph glyph-name="Zcaron" unicode="&#x17d;" horiz-adv-x="590" d="M318 873 L460 1042 L467 1037 L336 835 C332 830 323 817 318 817 C313 817 304 829 301 835 L169 1037 L176 1042 L318 873 L318 873 Z M86 0 L415 0 L562 0 C565 13 569 29 573 41 C575 54 580 70 583 83 L582 83 L582 84 L566 52 C557 33 535 20 462 17 L95 13 L567 738 L567 750 L513 750 L228 750 L71 750 C69 737 67 719 65 706 C63 693 60 675 59 662 L59 661 L60 661 L73 692 C84 718 113 735 226 735 L226 735 L505 737 L26 12 L26 0 L86 0 L86 0 Z " />
<glyph glyph-name="zcaron" unicode="&#x17e;" horiz-adv-x="431" d="M237 623 L380 792 L387 787 L255 585 C252 580 243 567 238 567 C233 567 224 579 220 585 L89 787 L95 792 L237 623 L237 623 Z M79 454 L91 472 C94 477 103 481 131 483 L333 487 L41 12 L41 0 L94 0 L341 0 L387 0 C388 9 390 21 391 29 C391 33 392 37 393 41 L384 27 C381 22 370 18 335 16 L102 12 L392 487 L392 499 L341 499 L111 499 L96 499 L97 517 L96 517 C95 511 93 505 91 499 L83 499 L83 481 L86 481 C86 480 86 479 86 478 C84 471 82 462 80 454 L79 454 L79 454 Z M80 454 C79 449 78 444 77 440 L74 440 L71 440 L80 454 L80 454 Z M395 41 C396 47 397 53 398 58 L402 58 L406 58 L395 41 L395 41 Z " />
<glyph glyph-name="oogonek" unicode="&#x1eb;" horiz-adv-x="681" d="M868 -54 L867 -54 C838 -78 750 -94 646 -94 C530 -94 399 -61 316 -9 C321 -10 326 -10 331 -10 C510 -10 630 111 630 292 C630 472 514 593 341 593 C174 593 62 472 62 292 C62 148 181 42 270 5 C389 -74 537 -126 640 -126 C725 -126 816 -97 867 -54 L868 -54 L868 -54 Z M331 -8 C324 -8 316 -7 308 -4 C307 -4 306 -4 305 -4 L301 -3 C230 23 117 134 117 291 C117 470 206 590 339 590 C478 590 571 470 571 291 C571 111 474 -9 329 -9 L331 -8 L331 -8 Z " />
<glyph glyph-name="Adotabove" unicode="&#x226;" horiz-adv-x="586" d="M302 865 C321 865 334 878 334 897 C334 917 321 930 302 930 C283 930 270 917 270 897 C270 878 283 865 302 865 L302 865 Z M126 157 L125 157 L163 296 L391 296 L442 106 C464 25 465 9 461 8 L411 2 L411 1 L470 1 L490 1 L528 1 L570 1 L570 2 L526 8 L516 44 C511 62 504 89 493 128 L493 128 L329 733 L319 771 L313 771 C298 749 282 734 273 733 L276 722 L161 300 L161 300 L161 299 L123 158 L122 158 C88 33 78 9 73 8 L21 2 L21 1 L80 1 L82 1 L88 1 L154 1 L154 2 L98 8 C89 9 91 34 125 158 L126 157 L126 157 Z M163 300 L277 721 L390 300 L163 300 L163 300 Z " />
<glyph glyph-name="G_sc" unicode="&#x262;" horiz-adv-x="625" d="M441 570 L440 570 C409 584 371 592 322 592 C167 592 63 471 63 291 C63 110 167 -11 323 -11 C369 -11 414 -4 459 9 L471 10 L520 23 L520 30 C545 39 570 50 595 62 L595 63 C571 52 546 42 520 33 L520 185 C520 233 525 243 533 245 L557 251 L557 252 L557 253 L491 253 L426 253 L426 252 L426 251 L453 245 C463 243 470 233 470 185 L471 61 C467 33 431 12 375 5 L406 7 C381 4 355 2 327 2 C201 2 117 118 117 292 C117 471 199 591 322 591 C344 591 364 588 382 583 C418 571 489 503 530 451 C534 445 537 441 537 441 L537 489 L537 490 L537 539 C537 539 534 534 530 526 C530 527 494 544 440 570 L441 570 L441 570 Z M375 5 C360 3 344 2 327 2 L375 5 L375 5 Z " />
<glyph glyph-name="I_sc" unicode="&#x26a;" horiz-adv-x="287" d="M179 67 L179 516 C179 563 186 574 196 576 L225 582 L225 583 L153 583 L82 583 L82 582 L111 576 C121 574 128 563 128 516 L128 67 C128 20 121 10 111 7 L82 1 L82 0 L153 0 L225 0 L225 1 L196 7 C186 10 179 20 179 67 L179 67 Z " />
<glyph glyph-name="N_sc" unicode="&#x274;" horiz-adv-x="576" d="M130 583 L118 583 L105 583 L85 583 L67 583 L40 583 L40 582 L70 578 L105 526 L105 137 C105 29 103 8 99 7 L50 1 L50 0 L105 0 L112 0 L120 0 L175 0 L175 1 L125 7 C123 8 121 16 120 46 L118 506 L417 56 L454 0 L464 0 L467 505 C469 561 477 574 488 576 L521 582 L521 583 L467 583 L459 583 L452 583 L397 583 L397 582 L430 576 C443 574 452 557 452 476 L452 476 L453 70 L449 77 L130 583 L130 583 Z " />
<glyph glyph-name="R_sc" unicode="&#x280;" horiz-adv-x="481" d="M471 0 L471 4 C418 4 415 6 392 52 C334 170 292 256 277 286 C360 297 412 339 412 419 C412 517 339 582 229 582 L171 582 L123 582 L75 582 L75 581 L103 575 C114 573 121 561 121 510 L121 71 C121 20 114 9 103 6 L75 0 L75 -1 L146 -1 L217 -1 L217 0 L189 6 C178 9 171 20 171 71 L171 282 L226 282 C235 256 277 167 333 51 C358 1 363 -1 471 -1 L471 0 L471 0 Z M171 572 L214 572 C300 572 357 515 357 429 C357 336 306 295 229 295 L171 295 L171 510 L171 572 L171 572 Z " />
<glyph glyph-name="Y_sc" unicode="&#x28f;" horiz-adv-x="497" d="M437 576 L437 576 L437 576 L437 576 L437 576 Z M437 576 L437 576 L437 576 Z M438 576 L438 576 C438 576 438 575 437 573 C438 574 438 575 438 575 L393 486 C390 480 386 473 382 466 L382 465 L280 265 L108 576 L150 582 L150 583 L104 583 L83 583 L45 583 L17 583 L17 582 L48 578 L91 502 C98 489 106 474 116 456 L117 456 L230 255 L230 67 C230 20 223 10 212 7 L184 1 L184 0 L255 0 L326 0 L326 1 L298 7 C287 10 280 20 280 67 L280 263 L443 577 L482 582 L482 583 L446 583 L442 583 L439 583 L396 583 L396 582 L438 576 L438 576 L438 576 L438 576 Z " />
<glyph glyph-name="B_sc" unicode="&#x299;" horiz-adv-x="455" d="M171 582 L215 582 C326 582 352 524 352 437 C352 355 320 300 271 300 L171 300 L171 511 L171 582 L171 582 Z M290 300 C358 308 402 363 402 443 C402 527 367 583 218 583 L171 583 L123 583 L75 583 L75 582 L103 576 C114 574 121 562 121 511 L121 72 C121 21 114 10 103 7 L75 1 L75 0 L123 0 L171 0 L291 0 C365 0 415 29 415 150 C415 240 375 300 316 300 L290 300 L290 300 Z M272 299 L311 299 C341 299 360 239 360 150 C360 29 332 1 289 1 L239 1 C198 1 171 21 171 51 L171 72 L171 299 L272 299 L272 299 Z " />
<glyph glyph-name="H_sc" unicode="&#x29c;" horiz-adv-x="631" d="M523 67 L523 516 C523 563 530 574 541 576 L569 582 L569 583 L498 583 L427 583 L427 582 L455 576 C466 574 473 563 473 516 L473 299 L207 299 L207 516 C207 563 214 574 225 576 L253 582 L253 583 L182 583 L111 583 L111 582 L139 576 C150 574 157 563 157 516 L157 67 C157 20 150 10 139 7 L111 1 L111 0 L182 0 L253 0 L253 1 L225 7 C214 10 207 20 207 67 L207 297 L473 297 L473 67 C473 20 466 10 455 7 L427 1 L427 0 L498 0 L569 0 L569 1 L541 7 C530 10 523 20 523 67 L523 67 Z " />
<glyph glyph-name="L_sc" unicode="&#x29f;" horiz-adv-x="438" d="M398 0 C399 3 400 6 401 9 C404 20 407 32 410 41 C413 53 417 69 420 80 L420 81 C420 82 419 82 419 82 L405 51 C394 26 361 10 230 10 C184 10 179 27 179 52 L179 73 L179 512 C179 563 186 575 196 577 L225 583 L225 584 L179 584 L153 584 L128 584 L82 584 L82 583 L111 577 C121 575 128 563 128 512 L128 73 C128 22 121 11 111 8 L82 2 L82 1 L128 1 L130 1 L179 1 L226 1 L398 0 L398 0 Z " />
<glyph glyph-name="A_sc" unicode="&#x1d00;" horiz-adv-x="527" d="M152 230 L348 230 L379 127 L379 127 C408 27 412 8 408 7 L357 1 L357 0 L417 0 L434 0 L469 0 L511 0 L511 1 L467 7 L445 80 C441 93 436 109 431 127 L431 127 L297 571 L288 603 L282 603 C270 585 255 572 247 571 L250 561 L128 157 L128 157 C90 32 79 8 74 7 L22 1 L22 0 L81 0 L83 0 L89 0 L155 0 L155 1 L99 7 C92 8 92 24 112 96 L152 230 L152 230 Z M153 232 L251 558 L348 232 L153 232 L153 232 Z " />
<glyph glyph-name="C_sc" unicode="&#x1d04;" horiz-adv-x="585" d="M441 570 L440 570 C409 584 371 592 322 592 C167 592 63 471 63 291 C63 110 163 -11 314 -11 C366 -11 408 -1 444 17 C460 24 498 40 530 54 C534 57 537 51 537 41 L537 91 L537 94 L537 141 C537 141 534 137 530 132 C492 84 429 18 402 8 L404 8 C377 -3 347 -9 314 -9 C196 -9 117 111 117 291 C117 470 199 590 322 590 C344 590 364 587 382 582 C418 570 489 502 530 450 C534 444 537 440 537 440 L537 488 L537 489 L537 538 C537 538 534 533 530 525 C530 526 494 543 440 569 L441 570 L441 570 Z " />
<glyph glyph-name="D_sc" unicode="&#x1d05;" horiz-adv-x="651" d="M121 511 L121 72 C121 21 114 10 103 7 L75 1 L75 0 L121 0 L123 0 L171 0 L215 0 C444 0 597 99 597 292 C597 466 475 583 237 583 L171 583 L123 583 L121 583 L75 583 L75 582 L103 576 C114 574 121 562 121 511 L121 511 Z M171 582 L231 582 C436 582 541 466 541 292 C541 100 410 2 213 2 C175 2 171 22 171 51 L171 72 L171 511 L171 582 L171 582 Z " />
<glyph glyph-name="E_sc" unicode="&#x1d07;" horiz-adv-x="469" d="M308 0 L416 0 C417 8 419 20 420 28 C421 36 423 48 423 56 L422 56 L412 25 C407 11 389 2 308 2 L222 2 C176 2 171 22 171 51 L171 72 L171 299 L223 299 C303 299 320 287 323 269 L329 238 L330 238 L331 238 L331 299 L331 300 L331 301 L331 363 L330 363 L329 363 L323 331 C320 313 303 301 223 301 L171 301 L171 511 L171 582 L283 582 C380 582 381 572 385 558 L393 527 L394 527 C394 535 393 547 393 555 C392 563 391 575 391 583 L283 583 L171 583 L123 583 L121 583 L75 583 L75 582 L103 576 C114 574 121 562 121 511 L121 72 C121 21 114 10 103 7 L75 1 L75 0 L121 0 L123 0 L171 0 L308 0 L308 0 Z " />
<glyph glyph-name="J_sc" unicode="&#x1d0a;" horiz-adv-x="287" d="M128 516 L128 -26 C128 -186 69 -217 26 -217 C0 -217 11 -175 -14 -175 C-28 -175 -38 -185 -38 -199 C-38 -212 -13 -220 24 -220 C89 -220 179 -174 179 70 L179 516 C179 563 186 574 196 576 L225 582 L225 583 L153 583 L82 583 L82 582 L111 576 C121 574 128 563 128 516 L128 516 Z " />
<glyph glyph-name="K_sc" unicode="&#x1d0b;" horiz-adv-x="515" d="M350 72 L350 72 C404 5 409 0 409 0 L456 0 L467 0 L503 0 L503 1 L462 6 L206 326 L388 576 L433 582 L433 583 L393 583 L375 583 L374 583 L314 583 L314 582 L364 576 C367 575 357 558 296 470 L171 292 L171 523 C171 564 178 574 189 576 L217 582 L217 583 L171 583 L146 583 L121 583 L75 583 L75 582 L103 576 C114 574 121 564 121 523 L121 60 C121 19 114 10 103 7 L75 1 L75 0 L121 0 L146 0 L171 0 L217 0 L217 1 L189 7 C178 10 171 19 171 60 L171 292 L350 72 L350 72 Z " />
<glyph glyph-name="M_sc" unicode="&#x1d0d;" horiz-adv-x="668" d="M605 72 L604 72 L591 426 L591 426 C587 552 586 576 586 576 L631 582 L631 583 L585 583 L555 583 L538 583 L361 69 L361 70 L159 583 L133 583 L120 583 L107 583 L99 583 L54 583 L54 582 L100 576 C101 576 104 571 113 551 L119 535 L104 112 C100 25 97 7 94 6 L44 0 L44 -1 L99 -1 L108 -1 L117 -1 L171 -1 L171 0 L122 6 C119 7 118 15 118 46 L131 505 L308 70 L337 0 L349 0 L539 539 L555 53 C554 18 547 9 537 6 L509 0 L509 -1 L557 -1 L580 -1 L607 -1 L651 -1 L651 0 L622 6 C613 9 607 20 605 71 L605 72 L605 72 Z " />
<glyph glyph-name="O_sc" unicode="&#x1d0f;" horiz-adv-x="686" d="M332 -8 C205 -8 120 112 120 292 C120 471 209 591 342 591 C481 591 574 471 574 292 C574 112 477 -8 332 -8 L332 -8 Z M63 292 C63 111 171 -10 332 -10 C511 -10 631 111 631 292 C631 472 515 593 342 593 C175 593 63 472 63 292 L63 292 Z " />
<glyph glyph-name="P_sc" unicode="&#x1d18;" horiz-adv-x="387" d="M184 583 L136 583 L133 583 L87 583 L87 582 L116 576 C126 574 133 562 133 511 L133 72 C133 21 126 10 116 7 L87 1 L87 0 L133 0 L159 0 L184 0 L230 0 L230 1 L202 7 C191 10 184 21 184 72 L184 273 L184 583 L184 583 Z M184 284 L184 511 L184 575 L226 575 C283 575 321 516 321 429 C321 329 277 284 211 284 L184 284 L184 284 Z " />
<glyph glyph-name="T_sc" unicode="&#x1d1b;" horiz-adv-x="684" d="M618 583 L517 583 L367 583 L317 583 L167 583 L66 583 L71 612 L70 611 C67 603 63 593 59 583 L54 583 L54 571 L54 571 C54 570 54 569 54 568 C49 556 43 538 39 526 L39 525 L40 525 L57 556 C62 565 81 571 162 571 L317 571 L317 67 C317 20 310 10 299 7 L271 1 L271 0 L342 0 L413 0 L413 1 L385 7 C374 10 367 20 367 67 L367 571 L522 571 C603 571 622 565 627 556 L645 525 C645 526 645 526 646 526 C641 538 635 556 630 568 C630 569 630 570 630 571 L630 571 L630 583 L625 583 C622 593 619 603 616 611 C615 611 615 611 615 612 L614 612 L618 583 L618 583 Z " />
<glyph glyph-name="U_sc" unicode="&#x1d1c;" horiz-adv-x="499" d="M421 97 L421 511 L421 583 L372 583 L324 583 L324 582 L353 576 C363 574 370 562 370 511 L370 150 C335 73 262 22 188 22 C157 22 136 92 136 197 L136 511 L136 583 L88 583 L40 583 L40 582 L68 576 C79 574 86 562 86 511 L86 197 C86 73 119 -10 168 -10 C251 -10 332 45 370 127 L370 97 L370 0 L378 0 L466 49 C428 74 421 81 421 97 L421 97 Z " />
<glyph glyph-name="V_sc" unicode="&#x1d20;" horiz-adv-x="562" d="M51 578 L229 80 L262 -10 L272 -10 L491 576 L535 582 L535 583 L494 583 L474 583 L468 583 L401 583 L401 582 L458 576 C465 575 463 556 428 456 L429 456 L262 -10 L294 80 L151 465 C119 557 116 575 123 576 L179 582 L179 583 L107 583 L100 583 L49 583 L21 583 L21 582 L51 578 L51 578 Z " />
<glyph glyph-name="W_sc" unicode="&#x1d21;" horiz-adv-x="799" d="M348 576 L407 388 L273 62 L273 64 L127 511 C111 563 111 575 115 576 L167 582 L167 583 L104 583 L94 583 L49 583 L21 583 L21 582 L51 578 L75 504 C79 491 84 475 90 456 L91 456 L219 64 L243 -10 L257 -10 L414 365 L506 73 L533 -10 L546 -10 L691 456 L691 456 C693 462 695 468 697 474 L729 576 L772 582 L772 583 L731 583 L711 583 L705 583 L638 583 L638 582 L695 576 C703 575 702 556 673 456 L673 456 L557 68 L558 73 L433 487 L434 486 C410 561 410 575 415 576 L468 582 L468 583 L404 583 L386 583 L346 583 L305 583 L305 582 L348 576 L348 576 Z " />
<glyph glyph-name="Z_sc" unicode="&#x1d22;" horiz-adv-x="543" d="M80 0 L368 0 L515 0 L525 40 C528 53 532 69 536 81 L535 81 C535 82 534 82 534 82 L518 50 C510 32 489 18 416 14 L89 11 L519 572 L519 582 L470 582 L227 582 L70 582 C68 570 66 552 64 539 C62 526 60 509 58 496 L59 495 L60 495 L72 526 C83 552 112 569 225 569 L225 569 L462 571 L25 10 L25 -1 L80 0 L80 0 Z " />
<glyph glyph-name="Wgrave" unicode="&#x1e80;" horiz-adv-x="899" d="M327 959 C290 1001 264 1029 259 1029 C245 1029 234 1018 234 1005 C234 999 262 973 304 936 L443 813 L449 820 L327 959 L327 959 Z M393 743 L463 499 L302 69 L302 71 L146 623 L146 623 C144 629 142 635 140 641 L136 655 C116 728 115 743 120 744 L172 750 L172 751 L109 751 L96 751 L47 751 L19 751 L19 750 L49 746 L247 72 L271 -9 L286 -9 L470 472 L582 82 L608 -9 L623 -9 L795 624 L796 624 C800 639 803 652 806 664 L828 744 L871 750 L871 751 L830 751 L807 751 L803 751 L735 751 L735 750 L792 744 C799 743 800 728 783 660 L632 82 L481 654 L481 654 C480 659 479 663 478 667 L467 709 C461 737 463 744 468 745 L520 751 L520 752 L457 752 L436 752 L392 752 L351 752 L351 751 L393 743 L393 743 Z " />
<glyph glyph-name="Wacute" unicode="&#x1e82;" horiz-adv-x="899" d="M446 813 L585 936 C628 974 656 1001 656 1005 C656 1018 644 1029 631 1029 C627 1029 601 1001 563 959 L440 820 L446 813 L446 813 Z M393 743 L463 499 L302 69 L302 71 L146 623 L146 623 C144 629 142 635 140 641 L136 655 C116 728 115 743 120 744 L172 750 L172 751 L109 751 L96 751 L47 751 L19 751 L19 750 L49 746 L247 72 L271 -9 L286 -9 L470 472 L582 82 L608 -9 L623 -9 L795 624 L796 624 C800 639 803 652 806 664 L828 744 L871 750 L871 751 L830 751 L807 751 L803 751 L735 751 L735 750 L792 744 C799 743 800 728 783 660 L632 82 L481 654 L481 654 C480 659 479 663 478 667 L467 709 C461 737 463 744 468 745 L520 751 L520 752 L457 752 L436 752 L392 752 L351 752 L351 751 L393 743 L393 743 Z " />
<glyph glyph-name="Wdieresis" unicode="&#x1e84;" horiz-adv-x="899" d="M507 865 C526 865 539 878 539 897 C539 917 526 930 507 930 C487 930 474 917 474 897 C474 878 487 865 507 865 L507 865 Z M373 865 C392 865 405 878 405 897 C405 917 392 930 373 930 C353 930 340 917 340 897 C340 878 353 865 373 865 L373 865 Z M393 743 L463 499 L302 69 L302 71 L146 623 L146 623 C144 629 142 635 140 641 L136 655 C116 728 115 743 120 744 L172 750 L172 751 L109 751 L96 751 L47 751 L19 751 L19 750 L49 746 L247 72 L271 -9 L286 -9 L470 472 L582 82 L608 -9 L623 -9 L795 624 L796 624 C800 639 803 652 806 664 L828 744 L871 750 L871 751 L830 751 L807 751 L803 751 L735 751 L735 750 L792 744 C799 743 800 728 783 660 L632 82 L481 654 L481 654 C480 659 479 663 478 667 L467 709 C461 737 463 744 468 745 L520 751 L520 752 L457 752 L436 752 L392 752 L351 752 L351 751 L393 743 L393 743 Z " />
<glyph glyph-name="Etilde" unicode="&#x1ebc;" horiz-adv-x="520" d="M168 870 C168 910 182 936 203 936 C254 936 292 871 343 871 C374 871 395 909 395 966 L394 966 C394 930 378 906 355 906 C304 906 266 971 215 971 C186 971 166 931 166 870 L168 870 L168 870 Z M359 0 L467 0 C468 8 470 20 471 28 C472 37 474 48 475 57 L474 57 L473 57 L463 25 C458 11 440 2 360 2 L226 2 C180 2 175 22 175 51 L175 72 L175 385 L274 385 C354 385 371 373 374 355 L380 324 L381 324 L382 324 L382 385 L382 386 L382 387 L382 448 L381 448 L380 448 L374 417 C371 399 354 387 274 387 L175 387 L175 678 L175 748 L334 748 C431 748 433 739 436 725 L444 693 L445 693 L446 693 C445 702 444 713 444 722 C443 730 442 742 442 750 L334 750 L175 750 L124 750 L119 750 L74 750 L74 749 L102 743 C112 740 119 729 119 678 L119 72 C119 21 112 10 102 7 L74 1 L74 0 L119 0 L124 0 L175 0 L359 0 L359 0 Z " />
<glyph glyph-name="Ygrave" unicode="&#x1ef2;" horiz-adv-x="561" d="M173 959 C137 1001 111 1029 105 1029 C92 1029 80 1018 80 1005 C80 999 108 973 151 936 L290 813 L296 820 L173 959 L173 959 Z M502 743 L503 743 C503 743 503 743 503 742 C503 743 503 743 503 743 L502 743 L502 743 Z M174 623 L174 623 C171 628 168 633 166 638 L113 743 L156 749 L156 750 L110 750 L86 750 L44 750 L16 750 L16 749 L47 745 L97 647 C101 640 105 632 109 624 L109 624 L260 330 L260 68 C260 21 253 11 243 8 L214 2 L214 1 L288 1 L362 1 L362 2 L334 8 C323 11 316 21 316 68 L316 340 L507 745 L547 750 L547 751 L510 751 L506 751 L504 751 L460 751 L460 750 L503 744 L472 678 C466 666 459 652 451 635 L451 634 L316 343 L174 623 L174 623 Z " />
<glyph glyph-name="quoteleft" unicode="&#x2018;" horiz-adv-x="381" d="" />
<glyph glyph-name="quoteright" unicode="&#x2019;" horiz-adv-x="21" d="" />
<glyph glyph-name="quotedblleft" unicode="&#x201c;" horiz-adv-x="381" d="M151 640 C145 640 140 638 137 634 C137 635 137 636 137 637 C137 677 159 722 191 750 L181 761 C146 731 122 678 122 628 C122 607 134 594 151 594 C165 594 175 603 175 617 C175 632 165 641 151 641 L151 640 L151 640 Z " />
<glyph glyph-name="quotedblright" unicode="&#x201d;" horiz-adv-x="381" d="M165 720 C165 667 152 621 132 604 L143 593 C166 612 181 667 181 731 C181 748 169 760 151 760 C137 760 128 751 128 736 C128 722 137 713 151 713 C157 713 162 715 165 719 L165 720 L165 720 Z " />
<glyph glyph-name="Euro" unicode="&#x20ac;" horiz-adv-x="698" d="M50 314 L115 314 C133 117 241 -10 396 -10 C456 -10 506 5 549 31 L550 31 C550 31 602 60 644 83 C649 85 652 80 652 70 L652 120 L652 122 L652 170 C652 170 649 166 644 161 C606 113 547 47 521 28 C483 5 442 -8 396 -8 C274 -8 189 118 174 314 L449 314 L454 350 L172 350 C172 358 172 366 172 374 C172 382 172 390 172 398 L454 398 L459 434 L174 434 C189 630 277 756 405 756 C440 756 470 749 498 736 C530 716 599 642 642 587 C647 581 650 577 650 577 L650 626 L650 627 L650 676 C650 676 647 671 642 664 C642 662 610 681 562 711 C520 740 471 757 404 757 C243 757 132 630 113 433 L58 433 L53 397 L110 397 C110 389 110 381 110 373 C110 365 110 357 110 349 L53 349 L50 314 L50 314 Z " />
<glyph glyph-name="F_sc" unicode="&#xa730;" horiz-adv-x="444" d="M251 298 C301 295 313 285 315 271 L321 236 L321 298 L321 299 L321 361 L315 326 C312 310 295 299 213 299 L171 299 L171 511 L171 582 L203 582 C351 582 382 573 385 558 L394 527 L395 528 C395 537 394 548 393 556 C392 564 392 575 391 583 L283 583 L171 583 L123 583 L121 583 L75 583 L75 582 L103 576 C114 574 121 562 121 511 L121 72 C121 21 114 10 103 7 L75 1 L75 0 L121 0 L146 0 L171 0 L217 0 L217 1 L189 7 C178 10 171 21 171 72 L171 298 L251 298 L251 298 Z " />
<glyph glyph-name="S_sc" unicode="&#xa731;" horiz-adv-x="453" d="M226 587 L208 591 C232 591 256 585 278 574 L226 587 L226 587 Z M227 587 C265 571 326 514 363 466 C367 460 370 456 370 456 L370 500 L370 504 L370 551 C370 551 367 546 363 538 C363 537 344 547 315 563 C285 583 248 594 208 594 C128 594 74 537 74 451 C74 383 129 314 235 267 C327 225 374 173 374 126 C374 46 324 -7 250 -7 C226 -7 202 -1 179 10 C166 22 107 94 62 152 C57 157 54 161 54 161 L54 117 L54 107 L54 53 C54 53 57 60 62 69 C62 70 93 51 140 23 L141 23 C174 3 212 -8 251 -8 C349 -8 415 52 415 141 C415 208 364 276 266 320 C166 364 114 421 114 471 C114 544 152 593 209 593 C214 593 220 591 227 588 L227 587 L227 587 Z " />
<glyph glyph-name="X_sc" unicode="&#xf078;" horiz-adv-x="553" d="M169 106 C175 115 182 125 190 136 L188 135 L277 269 L363 126 L362 126 C423 26 434 7 432 6 L384 0 L384 -1 L439 -1 L460 -1 L499 -1 L535 -1 L535 0 L495 5 L307 316 L493 575 L534 580 L534 581 L498 581 L475 581 L416 581 L416 580 L465 574 C468 573 457 552 387 444 L387 444 L306 318 L224 454 L224 454 C163 555 153 574 154 574 L202 580 L202 581 L147 581 L129 581 L88 581 L56 581 L56 580 L92 575 L135 504 C143 490 153 473 165 453 L165 453 L271 277 L103 34 C87 11 82 5 81 4 L33 -2 L33 -3 L78 -3 L98 -3 L106 -3 L180 -3 L180 -2 L119 4 C111 5 113 18 146 70 L169 106 L169 106 Z " />
</font>
</svg>
