<?xml version="1.0" encoding="UTF-8"?>
<svg xmlns="http://www.w3.org/2000/svg" xmlns:xlink="http://www.w3.org/1999/xlink" version="1.2" >
<font id="Jerrad Regular">
<font-face  font-family="Jerrad" units-per-em="1024" ascent="975" descent="-300" font-style="normal" font-weight="400" font-stretch="normal" cap-height="750" x-height="500" underline-position="-125" underline-thickness="50" />
<missing-glyph  horiz-adv-x="650" d="" />
<glyph glyph-name="NULL" d="" />
<glyph glyph-name="CR" unicode="&#xd;" horiz-adv-x="256" d="" />
<glyph glyph-name="space" unicode="&#x20;" horiz-adv-x="195" d="" />
<glyph glyph-name="exclam" unicode="&#x21;" horiz-adv-x="226" d="M113 -5 C144 -5 164 15 164 45 C164 75 144 95 113 95 C83 95 63 75 63 45 C63 15 83 -5 113 -5 L113 -5 Z M113 755 C73 755 65 716 70 658 L107 210 L120 210 L157 658 C162 716 154 755 113 755 L113 755 Z " />
<glyph glyph-name="quotedbl" unicode="&#x22;" horiz-adv-x="281" d="M742 750 C719 750 716 732 721 705 L746 560 L754 560 L779 705 C784 732 781 750 758 750 L742 750 L742 750 Z " />
<glyph glyph-name="numbersign" unicode="&#x23;" horiz-adv-x="472" d="M351 673 L324 487 L197 487 L224 673 L220 673 L193 487 L66 487 L59 433 L185 433 L155 227 L26 227 L18 173 L147 173 L122 0 L126 0 L151 173 L278 173 L253 0 L257 0 L282 173 L398 173 L406 227 L290 227 L320 433 L444 433 L452 487 L328 487 L355 673 L351 673 L351 673 Z M189 433 L316 433 L286 227 L159 227 L189 433 L189 433 Z " />
<glyph glyph-name="dollar" unicode="&#x24;" horiz-adv-x="504" d="M280 825 L280 755 C265 758 250 760 234 760 C231 760 228 760 225 760 L225 825 L200 825 L200 757 C120 741 68 670 68 569 C68 486 112 408 200 357 L200 14 C194 17 188 21 182 25 C176 33 112 117 60 187 C55 193 52 197 52 196 L52 148 L52 141 L52 85 L60 101 C60 101 90 78 135 42 L135 42 C155 26 177 13 200 4 L200 -74 L225 -74 L225 -4 C240 -8 255 -10 270 -10 C273 -10 276 -10 279 -10 L279 -75 L304 -75 L304 -7 C400 8 463 83 463 190 C463 281 409 365 304 412 L304 725 C339 695 383 647 415 606 C419 601 422 597 422 597 L422 645 L422 646 L422 695 C422 695 419 690 415 682 C414 681 394 695 365 716 C347 731 326 743 304 751 L304 828 L280 825 L280 825 Z M304 741 L304 741 L304 741 L304 741 Z M279 750 L267 754 C271 752 275 750 279 747 L279 425 C259 434 241 444 225 455 L225 759 C228 759 231 759 234 759 C249 759 264 756 279 751 L279 750 L279 750 Z M267 753 L259 756 C261 756 264 755 267 753 L267 753 Z M224 345 C231 342 238 339 245 336 C257 331 268 326 279 320 L279 -4 C276 -4 273 -4 270 -4 C255 -4 240 -1 225 4 L224 345 L224 345 Z M305 306 C368 266 401 216 401 167 C401 80 363 17 305 -1 L305 306 L305 306 Z M200 471 C154 509 131 554 131 599 C131 675 157 731 200 750 L200 471 L200 471 Z " />
<glyph glyph-name="ampersand" unicode="&#x26;" horiz-adv-x="296" d="M318 464 C416 493 481 553 481 612 C481 701 415 760 315 760 C215 760 148 696 148 601 C148 562 185 511 244 441 C123 404 43 307 43 201 C43 75 124 -9 245 -9 C334 -9 426 42 510 131 L541 95 C594 33 657 -8 700 -8 C768 -8 822 55 834 149 L821 153 C813 91 777 50 730 50 C696 50 646 83 603 133 L558 186 C624 270 683 378 729 502 L712 502 C668 382 609 280 543 204 L342 438 C334 448 326 457 318 466 L318 464 L318 464 Z M311 474 C250 547 211 599 211 640 C211 703 253 745 315 745 C379 745 422 694 422 618 C422 552 377 494 311 474 L311 474 Z M492 152 C426 92 355 58 286 58 C185 58 118 124 118 223 C118 323 170 406 250 435 C260 424 270 412 281 400 L492 152 L492 152 Z " />
<glyph glyph-name="quotesingle" unicode="&#x27;" horiz-adv-x="183" d="" />
<glyph glyph-name="parenleft" unicode="&#x28;" horiz-adv-x="353" d="M320 760 C173 661 75 466 75 273 C75 88 170 -107 313 -214 L317 -206 C202 -119 125 73 125 273 C125 479 205 671 324 752 L320 760 L320 760 Z " />
<glyph glyph-name="parenright" unicode="&#x29;" horiz-adv-x="353" d="M26 752 C145 675 225 483 225 273 C225 61 148 -131 33 -206 L37 -214 C180 -122 275 73 275 273 C275 470 177 665 30 760 L26 752 L26 752 Z " />
<glyph glyph-name="asterisk" unicode="&#x2a;" horiz-adv-x="285" d="M150 630 L172 750 C175 767 166 778 150 778 C134 778 125 767 128 750 L150 630 L150 630 Z M150 630 L243 551 C256 540 270 542 278 556 C286 570 281 583 265 589 L150 630 L150 630 Z M150 630 L57 709 C44 720 30 718 22 704 C14 690 19 677 35 671 L150 630 L150 630 Z M150 630 L265 671 C281 677 286 690 278 704 C270 718 256 720 243 709 L150 630 L150 630 Z M150 630 L35 589 C19 583 14 570 22 556 C30 542 44 540 57 551 L150 630 L150 630 Z M150 630 L128 510 C125 493 134 482 150 482 C166 482 175 493 172 510 L150 630 L150 630 Z " />
<glyph glyph-name="plus" unicode="&#x2b;" horiz-adv-x="576" d="M261 438 L261 275 L100 275 L100 225 L261 225 L261 62 L316 62 L316 225 L476 225 L476 275 L316 275 L316 438 L261 438 L261 438 Z " />
<glyph glyph-name="comma" unicode="&#x2c;" horiz-adv-x="258" d="M174 41 C177 30 179 17 179 3 C179 -63 133 -107 65 -107 L65 -110 C139 -110 188 -62 188 11 C188 53 177 86 159 103 C150 112 139 117 125 117 C89 117 65 93 65 57 C65 21 89 -3 125 -3 C151 -3 169 15 174 43 L174 41 L174 41 Z " />
<glyph glyph-name="hyphen" unicode="&#x2d;" horiz-adv-x="386" d="M80 257 L306 257 L306 313 L80 313 L80 257 L80 257 Z " />
<glyph glyph-name="period" unicode="&#x2e;" horiz-adv-x="195" d="M125 -5 C155 -5 175 15 175 45 C175 75 155 95 125 95 C95 95 75 75 75 45 C75 15 95 -5 125 -5 L125 -5 Z " />
<glyph glyph-name="slash" unicode="&#x2f;" horiz-adv-x="384" d="M313 770 L31 -80 L73 -80 L355 770 L313 770 L313 770 Z " />
<glyph glyph-name="zero" unicode="0" horiz-adv-x="608" d="M305 19 C184 19 80 111 80 250 C80 375 170 481 305 481 C427 481 530 389 530 250 C530 125 440 19 305 19 L305 19 Z M47 250 C47 94 166 -10 305 -10 C460 -10 563 110 563 250 C563 406 444 510 305 510 C150 510 47 390 47 250 L47 250 Z " />
<glyph glyph-name="one" unicode="1" horiz-adv-x="238" d="M155 22 L155 478 C155 487 162 490 171 493 L199 499 L199 500 L119 500 L40 500 L40 499 L67 493 C77 490 84 487 84 478 L84 22 C84 13 77 10 67 7 L40 1 L40 0 L119 0 L199 0 L199 1 L171 7 C162 10 155 13 155 22 L155 22 Z " />
<glyph glyph-name="two" unicode="2" horiz-adv-x="491" d="M59 291 C78 390 137 456 206 456 C275 456 321 405 321 328 C321 227 187 113 30 13 L30 0 L278 0 L345 0 L384 0 C393 13 404 31 412 44 C415 49 419 55 423 61 L424 63 L424 63 C430 72 436 81 441 89 L441 90 L441 92 L418 63 L307 63 L126 63 C277 168 393 272 393 344 C393 444 333 510 243 510 C149 510 70 424 45 294 L59 291 L59 291 Z " />
<glyph glyph-name="three" unicode="3" horiz-adv-x="380" d="M18 -218 L20 -232 C213 -212 341 -118 341 3 C341 103 275 179 177 193 L176 193 C272 246 332 310 332 385 C332 460 276 510 191 510 C111 510 42 446 20 351 L35 347 C51 415 102 460 162 460 C219 460 257 420 257 360 C257 272 192 209 95 168 L95 154 C197 140 265 71 265 -17 C265 -122 166 -202 17 -218 L18 -218 L18 -218 Z " />
<glyph glyph-name="four" unicode="4" horiz-adv-x="536" d="M512 52 L512 54 L402 54 L371 54 L371 394 L371 530 L362 530 L15 13 L15 0 L40 0 L300 0 L300 -220 L371 -220 L371 0 L445 0 L506 0 L507 -24 L508 -24 C509 -17 510 -9 511 -1 L511 -1 L511 -1 C513 9 514 19 515 27 C517 43 520 65 522 81 L521 81 L512 52 L512 52 Z M73 51 L299 393 L299 392 L299 52 L75 52 L73 51 L73 51 Z " />
<glyph glyph-name="five" unicode="5" horiz-adv-x="388" d="M60 -233 C240 -212 359 -99 359 49 C359 183 253 273 94 273 L76 273 L98 436 L298 438 L303 465 C304 471 305 477 306 482 L306 482 L309 499 L309 499 C311 509 313 519 314 527 L313 527 L312 527 L302 499 L202 499 L85 499 L42 209 L55 197 L86 197 C212 197 296 128 296 24 C296 -106 201 -204 59 -221 L60 -233 L60 -233 Z " />
<glyph glyph-name="six" unicode="6" horiz-adv-x="523" d="M506 750 C234 692 53 508 53 289 C53 110 139 -10 269 -10 C390 -10 471 90 471 239 C471 372 390 461 269 461 C213 461 168 435 141 390 C187 567 323 700 508 739 L506 750 L506 750 Z M123 252 C123 376 181 458 267 458 C346 458 399 372 399 243 C399 93 346 -7 267 -7 C181 -7 123 97 123 252 L123 252 Z " />
<glyph glyph-name="seven" unicode="7" horiz-adv-x="394" d="M132 500 L80 500 L78 495 C73 493 71 491 70 489 L78 520 L77 520 C70 504 60 482 53 466 C46 451 36 429 29 413 L30 413 L31 413 L50 444 C50 443 52 442 59 442 L59 441 L100 441 L367 441 L377 459 L109 -220 L163 -220 L391 485 L391 500 L389 500 L132 500 L132 500 Z " />
<glyph glyph-name="eight" unicode="8" horiz-adv-x="498" d="M199 381 C208 376 218 371 228 367 C333 320 404 267 404 160 C404 60 342 -6 250 -6 C162 -6 104 66 104 175 C104 266 141 344 199 381 L199 381 Z M195 383 C103 338 44 258 44 174 C44 64 127 -10 251 -10 C376 -10 459 70 459 190 C459 304 393 364 292 415 C378 457 433 527 433 599 C433 696 359 761 249 761 C141 761 69 690 69 582 C69 499 119 429 196 384 L195 383 L195 383 Z M288 418 C278 423 268 428 258 433 C179 468 126 532 126 610 C126 699 175 759 249 759 C323 759 373 693 373 593 C373 519 340 453 287 419 L288 418 L288 418 Z " />
<glyph glyph-name="nine" unicode="9" horiz-adv-x="523" d="M18 -250 C290 -192 471 -8 471 211 C471 390 384 510 255 510 C134 510 53 410 53 261 C53 128 134 39 255 39 C311 39 356 65 383 110 C337 -67 201 -200 16 -239 L18 -250 L18 -250 Z M401 248 C401 124 343 42 257 42 C178 42 125 128 125 257 C125 407 178 507 256 507 C343 507 401 403 401 248 L401 248 Z " />
<glyph glyph-name="colon" unicode="&#x3a;" horiz-adv-x="135" d="M125 385 C155 385 175 405 175 435 C175 465 155 485 125 485 C95 485 75 465 75 435 C75 405 95 385 125 385 L125 385 Z M125 -5 C155 -5 175 15 175 45 C175 75 155 95 125 95 C95 95 75 75 75 45 C75 15 95 -5 125 -5 L125 -5 Z " />
<glyph glyph-name="semicolon" unicode="&#x3b;" horiz-adv-x="258" d="M125 385 C155 385 175 405 175 435 C175 465 155 485 125 485 C95 485 75 465 75 435 C75 405 95 385 125 385 L125 385 Z M174 41 C177 30 179 17 179 3 C179 -63 133 -107 65 -107 L65 -110 C139 -110 188 -62 188 11 C188 53 177 86 159 103 C150 112 139 117 125 117 C89 117 65 93 65 57 C65 21 89 -3 125 -3 C151 -3 169 15 174 43 L174 41 L174 41 Z " />
<glyph glyph-name="equal" unicode="&#x3d;" horiz-adv-x="487" d="M81 216 L81 184 L417 184 L417 216 L81 216 L81 216 Z M81 316 L81 284 L417 284 L417 316 L81 316 L81 316 Z " />
<glyph glyph-name="question" unicode="&#x3f;" horiz-adv-x="301" d="M125 -5 C155 -5 175 15 175 45 C175 75 155 95 125 95 C95 95 75 75 75 45 C75 15 95 -5 125 -5 L125 -5 Z M123 196 L125 360 C214 360 248 395 283 447 C301 474 312 516 312 554 C312 678 245 760 145 760 C105 760 78 739 78 707 C78 686 93 672 117 672 C134 672 154 685 171 685 C244 685 292 629 292 546 C292 529 282 503 268 482 C247 451 221 431 101 431 L111 196 L123 196 L123 196 Z " />
<glyph glyph-name="at" unicode="&#x40;" horiz-adv-x="1086" d="M977 0 C910 -142 742 -237 556 -237 C289 -237 111 -39 111 259 C111 557 284 755 543 755 C803 755 976 590 976 343 C976 141 904 6 796 6 C695 6 647 84 677 200 L747 480 L679 480 L659 399 C646 455 605 490 548 490 C385 490 277 372 277 194 C277 84 340 10 435 10 C505 10 567 53 603 122 C611 36 677 -17 784 -17 C933 -17 1032 127 1032 344 C1032 603 837 776 544 776 C251 776 56 570 56 260 C56 -50 256 -256 557 -256 C752 -256 930 -153 1001 1 L977 0 L977 0 Z M649 357 L610 201 C588 110 532 50 471 50 C402 50 355 113 355 209 C355 366 432 471 546 471 C608 471 649 425 649 357 L649 357 Z " />
<glyph glyph-name="A" unicode="A" horiz-adv-x="606" d="M161 296 L383 296 L429 127 L429 127 C457 27 459 8 456 7 L405 1 L405 0 L464 0 L497 0 L548 0 L589 0 L589 1 L546 7 L345 725 L332 770 L324 770 C307 745 283 727 266 725 L269 715 L268 715 L102 82 C85 22 78 8 73 7 L22 1 L22 0 L80 0 L84 0 L89 0 L156 0 L156 1 L99 7 C92 8 92 27 114 115 L161 296 L161 296 Z M162 298 L270 710 L382 298 L162 298 L162 298 Z " />
<glyph glyph-name="B" unicode="B" horiz-adv-x="559" d="M193 748 L255 748 C387 748 418 673 418 561 C418 456 368 386 292 386 L193 386 L193 678 L193 748 L193 748 Z M328 386 C431 399 497 469 497 570 C497 678 452 750 259 750 L193 750 L130 750 L68 750 L68 749 L96 743 C107 740 114 729 114 678 L114 72 C114 21 107 10 96 7 L68 1 L68 0 L130 0 L193 0 L313 0 C437 0 519 37 519 193 C519 309 447 386 338 386 L328 386 L328 386 Z M294 384 L330 384 C391 384 432 308 432 193 C432 38 383 2 310 2 L260 2 C220 2 193 22 193 51 L193 72 L193 384 L294 384 L294 384 Z " />
<glyph glyph-name="C" unicode="C" horiz-adv-x="667" d="M538 712 C495 742 444 760 373 760 C182 760 55 606 55 375 C55 144 178 -10 364 -10 C430 -10 483 7 529 36 C544 44 582 64 615 82 C619 84 622 79 622 69 L622 120 L622 120 L621 121 L621 173 C621 173 618 169 614 164 C577 116 515 50 483 28 C446 5 406 -8 363 -8 C229 -8 140 145 140 374 C140 603 233 756 372 756 C406 756 436 749 463 736 C499 714 570 640 613 585 C618 580 621 576 621 576 L621 628 L621 629 L621 679 C621 679 618 674 613 667 C613 666 583 683 536 712 L538 712 L538 712 Z " />
<glyph glyph-name="D" unicode="D" horiz-adv-x="740" d="M114 678 L114 72 C114 21 107 10 96 7 L68 1 L68 0 L114 0 L130 0 L193 0 L255 0 C513 0 685 127 685 375 C685 600 550 750 287 750 L193 750 L130 750 L114 750 L68 750 L68 749 L96 743 C107 740 114 729 114 678 L114 678 Z M193 748 L277 748 C489 748 598 599 598 375 C598 129 460 2 252 2 C199 2 193 22 193 51 L193 72 L193 678 L193 748 L193 748 Z " />
<glyph glyph-name="E" unicode="E" horiz-adv-x="538" d="M377 0 L484 0 C485 8 487 20 488 29 C489 37 491 49 492 57 L491 57 L481 26 C476 12 457 3 377 3 L244 3 C198 3 193 22 193 51 L193 72 L193 385 L292 385 C371 385 388 373 392 355 L398 324 L399 324 L399 385 L399 386 L399 388 L399 449 L398 449 L392 418 C388 400 371 388 292 388 L193 388 L193 678 L193 747 L352 747 C448 747 450 738 454 724 L462 693 L463 693 C462 701 462 713 461 721 C460 730 460 742 459 750 L352 750 L193 750 L130 750 L114 750 L68 750 L68 749 L96 743 C107 740 114 729 114 678 L114 72 C114 21 107 10 96 7 L68 1 L68 0 L114 0 L130 0 L193 0 L377 0 L377 0 Z " />
<glyph glyph-name="F" unicode="F" horiz-adv-x="513" d="M389 327 L389 382 L389 384 L389 385 L389 441 L383 410 C381 395 363 385 282 385 L193 385 L193 678 L193 748 L272 748 C419 748 450 739 454 724 L463 693 L463 694 L464 694 C463 703 462 714 462 722 C461 730 460 742 459 750 L352 750 L193 750 L130 750 L114 750 L68 750 L68 749 L96 743 C107 740 114 729 114 678 L114 72 C114 21 107 10 96 7 L68 1 L68 0 L114 0 L153 0 L193 0 L239 0 L239 1 L211 7 C200 10 193 21 193 72 L193 382 L340 382 C372 378 381 369 383 357 L389 327 L389 327 Z M389 327 L390 322 L389 322 L389 327 L389 327 Z M389 441 L389 446 L390 446 L389 441 L389 441 Z " />
<glyph glyph-name="G" unicode="G" horiz-adv-x="710" d="M526 258 L528 19 L528 19 L527 97 C527 44 468 9 379 9 C237 9 142 155 142 375 C142 604 235 757 374 757 C408 757 438 750 465 737 C501 715 572 641 615 586 C620 581 623 577 623 577 L623 629 L623 630 L623 680 C623 680 620 675 615 668 C615 667 585 684 538 713 C495 743 444 761 373 761 C182 761 55 607 55 376 C55 145 182 -9 372 -9 C437 -9 496 0 551 16 L605 29 L605 33 C630 42 654 52 678 63 L677 64 C655 54 631 45 605 37 L605 258 C605 305 610 315 618 318 L642 324 L642 325 L562 325 L482 325 L482 324 L509 318 C519 315 526 305 526 258 L526 258 Z " />
<glyph glyph-name="H" unicode="H" horiz-adv-x="715" d="M607 67 L607 683 C607 730 614 740 625 743 L653 749 L653 750 L568 750 L482 750 L482 749 L510 743 C521 740 528 730 528 683 L528 385 L229 385 L229 683 C229 730 236 740 247 743 L275 749 L275 750 L189 750 L104 750 L104 749 L132 743 C143 740 150 730 150 683 L150 67 C150 20 143 10 132 7 L104 1 L104 0 L189 0 L275 0 L275 1 L247 7 C236 10 229 20 229 67 L229 381 L528 381 L528 67 C528 20 521 10 510 7 L482 1 L482 0 L568 0 L653 0 L653 1 L625 7 C614 10 607 20 607 67 L607 67 Z " />
<glyph glyph-name="I" unicode="I" horiz-adv-x="301" d="M193 67 L193 683 C193 730 200 740 211 743 L239 749 L239 750 L153 750 L68 750 L68 749 L96 743 C107 740 114 730 114 683 L114 67 C114 20 107 10 96 7 L68 1 L68 0 L153 0 L239 0 L239 1 L211 7 C200 10 193 20 193 67 L193 67 Z " />
<glyph glyph-name="J" unicode="J" horiz-adv-x="301" d="M114 683 L114 -53 C114 -190 49 -216 2 -216 C-38 -216 -21 -149 -61 -149 C-84 -149 -99 -164 -99 -187 C-99 -207 -60 -220 -1 -220 C80 -220 193 -169 193 97 L193 683 C193 730 200 740 211 743 L239 749 L239 750 L153 750 L68 750 L68 749 L96 743 C107 740 114 730 114 683 L114 683 Z " />
<glyph glyph-name="K" unicode="K" horiz-adv-x="615" d="M416 72 L416 72 C465 5 469 0 469 0 L536 0 L567 0 L603 0 L603 1 L562 6 L248 428 L409 653 L410 653 C412 656 414 659 416 662 L473 742 L473 742 L519 748 L519 749 L478 749 L453 749 L448 749 L387 749 L387 748 L437 742 C441 741 430 722 361 622 L362 622 L192 374 L192 689 C192 730 199 739 210 742 L238 748 L238 749 L192 749 L152 749 L113 749 L67 749 L67 748 L95 742 C106 739 113 730 113 689 L113 59 C113 18 106 9 95 6 L67 0 L67 -1 L113 -1 L152 -1 L192 -1 L238 -1 L238 0 L210 6 C199 9 192 18 192 59 L192 374 L416 72 L416 72 Z " />
<glyph glyph-name="L" unicode="L" horiz-adv-x="511" d="M301 13 L473 13 L473 13 C475 23 478 33 481 42 C484 55 489 72 492 84 L492 85 C492 86 491 86 491 86 L477 55 C466 30 433 13 301 13 L301 13 Z M301 13 L244 13 C198 13 193 28 193 51 L193 72 L193 678 C193 729 200 740 211 743 L239 749 L239 750 L193 750 L153 750 L114 750 L68 750 L68 749 L96 743 C107 740 114 729 114 678 L114 72 C114 21 107 10 96 7 L68 1 L68 0 L114 0 L130 0 L193 0 L298 0 L470 0 L301 13 L301 13 Z " />
<glyph glyph-name="M" unicode="M" horiz-adv-x="753" d="M691 72 L691 72 L675 593 L675 593 C672 719 671 743 671 743 L716 749 L716 750 L670 750 L655 750 L623 750 L595 750 L401 106 L401 107 L192 750 L138 750 L121 750 L119 750 L97 750 L51 750 L51 749 L98 743 C99 743 102 735 117 694 L101 137 L101 137 C98 29 95 8 91 7 L42 1 L42 0 L97 0 L110 0 L124 0 L179 0 L179 1 L130 7 C126 8 124 27 127 127 L126 127 L136 642 L330 107 L369 0 L389 0 L597 667 L612 72 L612 72 C614 21 606 10 594 7 L566 1 L566 0 L614 0 L651 0 L693 0 L737 0 L737 1 L709 7 C699 10 693 21 691 72 L691 72 Z " />
<glyph glyph-name="N" unicode="N" horiz-adv-x="647" d="M126 127 L125 127 L123 623 L445 113 L517 0 L533 0 L537 643 L538 643 C537 724 546 740 560 743 L592 749 L592 750 L538 750 L526 750 L515 750 L460 750 L460 749 L493 743 C506 740 515 724 515 643 L515 643 L516 149 L512 154 L140 750 L121 750 L102 750 L77 750 L41 750 L14 750 L14 749 L44 745 L102 654 L101 137 L101 137 C101 29 99 8 95 7 L46 1 L46 0 L101 0 L112 0 L124 0 L179 0 L179 1 L130 7 C126 8 124 27 124 127 L126 127 L126 127 Z " />
<glyph glyph-name="O" unicode="O" horiz-adv-x="778" d="M374 -7 C237 -7 145 146 145 375 C145 604 240 757 383 757 C532 757 632 604 632 375 C632 146 529 -7 374 -7 L374 -7 Z M54 375 C54 144 182 -10 374 -10 C583 -10 723 144 723 375 C723 606 587 760 384 760 C186 760 54 606 54 375 L54 375 Z " />
<glyph glyph-name="P" unicode="P" horiz-adv-x="497" d="M173 0 L213 0 L259 0 L259 1 L231 7 C220 10 213 21 213 72 L213 348 L252 348 C387 348 477 407 477 540 C477 666 403 750 291 750 L213 750 L150 750 L133 750 L87 750 L87 749 L116 743 C126 740 133 729 133 678 L133 72 C133 21 126 10 116 7 L87 1 L87 0 L133 0 L173 0 L173 0 Z M213 365 L213 678 L213 737 C230 737 254 736 271 736 C350 736 403 663 403 553 C403 423 343 365 252 365 L213 365 L213 365 Z " />
<glyph glyph-name="Q" unicode="Q" horiz-adv-x="773" d="M1018 -54 L1018 -53 C988 -78 881 -94 750 -94 C600 -94 446 -60 356 -8 C362 -9 368 -9 373 -9 C582 -9 722 145 722 376 C722 607 586 761 383 761 C185 761 53 607 53 376 C53 204 177 75 280 20 C426 -78 610 -143 740 -143 C842 -143 953 -107 1017 -53 L1018 -54 L1018 -54 Z M373 -6 C305 -6 144 147 144 376 C144 605 239 758 382 758 C531 758 631 605 631 376 C631 147 528 -6 373 -6 L373 -6 Z " />
<glyph glyph-name="R" unicode="R" horiz-adv-x="609" d="M599 0 L599 6 C536 6 532 8 502 67 C425 216 368 326 347 367 C440 385 499 441 499 540 C499 667 408 751 273 751 L193 751 L130 751 L68 751 L68 750 L96 744 C107 741 114 730 114 679 L114 73 C114 22 107 11 96 8 L68 2 L68 1 L153 1 L239 1 L239 2 L211 8 C200 11 193 22 193 73 L193 361 L267 361 C280 323 334 211 408 68 C441 4 448 1 598 1 L599 0 L599 0 Z M192 735 L248 735 C346 735 411 663 411 556 C411 435 355 381 272 381 L192 381 L192 679 L192 735 L192 735 Z " />
<glyph glyph-name="S" unicode="S" horiz-adv-x="504" d="M268 751 C300 735 370 662 416 604 C420 599 423 595 423 595 L423 643 L423 644 L423 693 C423 693 420 688 416 680 C415 679 395 693 366 714 C329 743 282 760 233 760 C134 760 67 684 67 569 C67 472 127 382 245 334 C347 292 400 228 400 166 C400 63 347 -6 269 -6 C240 -6 210 5 181 25 C175 33 111 117 59 187 C54 193 51 197 51 196 L51 148 L51 141 L51 85 L59 101 C59 101 89 78 134 42 L134 42 C175 10 223 -9 270 -9 C386 -9 464 71 464 190 C464 284 406 371 294 417 C186 461 131 531 131 601 C131 695 172 758 234 758 C258 758 282 751 305 739 L268 751 L268 751 Z M268 752 L260 755 C262 755 265 754 268 752 L268 752 Z " />
<glyph glyph-name="T" unicode="T" horiz-adv-x="731" d="M676 731 L676 750 L669 750 C665 760 662 770 659 778 L658 778 L657 778 L662 750 L562 750 L405 750 L326 750 L170 750 L69 750 L74 778 L73 778 L72 778 C69 770 66 760 62 750 L55 750 L55 731 C50 717 44 699 39 685 C39 684 39 684 40 684 L57 715 C62 724 81 730 162 730 L326 730 L326 67 C326 20 319 10 308 7 L280 1 L280 0 L366 0 L451 0 L451 1 L423 7 C412 10 405 20 405 67 L405 730 L569 730 C651 730 669 724 674 715 L692 684 L692 685 L693 685 C687 699 681 717 676 731 L676 731 Z " />
<glyph glyph-name="U" unicode="U" horiz-adv-x="601" d="M523 97 L523 678 L523 750 L460 750 L397 750 L397 749 L426 743 C436 740 443 729 443 678 L443 174 C406 94 327 41 246 41 C193 41 158 109 158 211 L158 678 L158 750 L95 750 L33 750 L33 749 L61 743 C72 740 79 729 79 678 L79 211 C79 78 133 -10 214 -10 C310 -10 402 49 443 138 L443 97 L443 0 L456 0 L568 49 C530 74 523 81 523 97 L523 97 Z " />
<glyph glyph-name="V" unicode="V" horiz-adv-x="654" d="M58 703 L262 117 L306 -10 L322 -10 L542 623 L542 623 C543 625 544 627 545 629 L585 744 L628 750 L628 751 L587 751 L556 751 L555 751 L483 751 L483 750 L540 744 C546 743 546 728 526 662 L307 -9 L348 118 L164 660 C142 728 142 743 150 744 L206 750 L206 751 L134 751 L110 751 L43 751 L15 751 L15 750 L45 746 L54 721 C55 716 57 710 59 703 L58 703 L58 703 Z " />
<glyph glyph-name="W" unicode="W" horiz-adv-x="926" d="M385 743 L465 500 L328 101 L168 624 L168 624 C167 626 167 627 167 628 L142 710 C135 736 136 743 140 744 L192 750 L192 751 L129 751 L103 751 L42 751 L14 751 L14 750 L44 746 L64 685 C69 669 75 649 83 624 L83 624 L254 101 L290 -9 L311 -9 L478 460 L591 116 L632 -9 L653 -9 L856 744 L899 750 L899 751 L858 751 L826 751 L825 751 L753 751 L753 750 L810 744 C817 743 818 727 801 655 L664 116 L504 654 L504 654 C503 656 502 658 501 660 L485 713 C479 738 480 745 485 746 L538 752 L538 753 L474 753 L439 753 L382 753 L341 753 L341 752 L385 743 L385 743 Z " />
<glyph glyph-name="X" unicode="X" horiz-adv-x="640" d="M182 134 C183 135 184 136 185 137 L185 137 L305 336 L422 127 L421 127 C478 27 488 8 486 7 L438 1 L438 0 L493 0 L531 0 L588 0 L624 0 L624 1 L584 6 L353 415 L580 743 L620 748 L620 749 L584 749 L555 749 L548 749 L489 749 L489 748 L539 742 C542 741 531 720 465 612 L465 612 L349 420 L235 622 L235 622 C178 722 168 741 170 742 L218 748 L218 749 L163 749 L127 749 L69 749 L37 749 L37 748 L72 743 L292 352 L130 97 C81 21 71 6 70 5 L23 -1 L23 -2 L68 -2 L99 -2 L102 -2 L180 -2 L180 -1 L120 5 C112 6 112 17 137 61 L182 134 L182 134 Z " />
<glyph glyph-name="Y" unicode="Y" horiz-adv-x="583" d="M194 623 L194 623 C191 629 188 635 185 641 L133 744 L176 750 L176 751 L130 751 L92 751 L36 751 L8 751 L8 750 L39 746 L260 326 L260 68 C260 21 253 11 242 8 L214 2 L214 1 L300 1 L385 1 L385 2 L357 8 C346 11 339 21 339 68 L339 339 L472 624 L472 624 C480 641 487 656 493 669 L528 744 L568 749 L568 750 L531 750 L526 750 L524 750 L480 750 L480 749 L523 743 L477 644 C475 641 473 637 471 633 L471 633 L337 342 L194 623 L194 623 Z " />
<glyph glyph-name="Z" unicode="Z" horiz-adv-x="590" d="M111 0 L415 0 L562 0 C565 13 570 31 573 45 C577 58 581 76 584 89 L584 90 C584 91 584 91 583 91 L567 59 C558 39 534 26 446 24 L431 24 C428 24 425 24 422 24 L422 24 L123 20 L567 735 L567 752 L490 752 L228 752 L71 752 C69 738 66 719 64 705 C62 691 60 672 58 658 L59 657 L59 656 L72 688 C82 711 106 727 193 730 L479 733 L26 18 L26 1 L111 0 L111 0 Z " />
<glyph glyph-name="bracketleft" unicode="&#x5b;" horiz-adv-x="290" d="M131 729 L341 729 L341 750 L131 750 L106 750 L106 -195 L131 -195 L341 -195 L341 -174 L131 -174 L131 729 L131 729 Z " />
<glyph glyph-name="backslash" unicode="&#x5c;" horiz-adv-x="342" d="M31 770 L291 -80 L333 -80 L73 770 L31 770 L31 770 Z " />
<glyph glyph-name="bracketright" unicode="&#x5d;" horiz-adv-x="293" d="M159 729 L159 -174 L-51 -174 L-51 -195 L159 -195 L184 -195 L184 750 L159 750 L-51 750 L-51 729 L159 729 L159 729 Z " />
<glyph glyph-name="underscore" unicode="&#x5f;" horiz-adv-x="356" d="M5 -50 L5 -89 L352 -89 L352 -50 L5 -50 L5 -50 Z " />
<glyph glyph-name="a" unicode="a" horiz-adv-x="469" d="M479 92 L466 98 C461 67 439 46 411 46 C378 46 356 65 356 94 L356 357 C356 462 308 510 235 510 C135 510 68 414 68 360 C68 330 83 310 105 310 C129 310 144 331 144 346 C144 365 124 386 124 404 C124 441 167 507 231 507 C264 507 285 468 285 382 L285 264 C135 178 48 123 48 85 C48 28 87 -10 146 -10 C196 -10 245 15 286 79 C292 29 329 -4 382 -4 C430 -4 469 35 479 93 L479 92 L479 92 Z M285 263 L285 95 C285 91 285 87 285 83 C258 44 222 29 184 29 C146 29 120 55 120 93 C120 159 180 203 285 264 L285 263 L285 263 Z " />
<glyph glyph-name="b" unicode="b" horiz-adv-x="543" d="M122 0 L126 0 L149 65 C180 20 241 -10 302 -10 C420 -10 499 95 499 252 C499 404 423 505 310 505 C265 505 220 475 193 428 L193 688 L193 750 L180 750 L84 723 L84 722 L84 721 L108 722 C117 722 122 714 122 671 L122 195 L122 0 L122 0 Z M193 418 C216 458 252 483 288 483 C367 483 419 387 419 244 C419 97 373 -1 304 -1 C254 -1 210 27 193 70 L193 195 L193 418 L193 418 Z " />
<glyph glyph-name="c" unicode="c" horiz-adv-x="433" d="M404 128 L394 132 C368 73 317 33 268 33 C178 33 119 128 119 270 C119 404 172 494 252 494 C284 494 318 458 337 405 C345 383 359 369 373 369 C402 369 416 383 408 405 C385 468 325 510 256 510 C130 510 46 401 46 237 C46 89 125 -10 243 -10 C303 -10 367 45 404 128 L404 128 Z " />
<glyph glyph-name="d" unicode="d" horiz-adv-x="513" d="M399 94 C368 53 320 25 279 25 C185 25 122 124 122 272 C122 402 176 489 280 489 C321 489 370 445 399 392 L399 96 L399 94 L399 94 Z M399 67 L399 -11 L411 -11 L507 13 L507 14 L483 14 C475 14 470 30 470 111 L470 670 L470 749 L457 749 L362 722 L362 721 L362 720 L386 721 C394 721 399 710 399 654 L399 460 C365 489 318 509 271 509 C124 509 49 406 49 251 C49 97 129 -6 249 -6 C306 -6 365 23 399 68 L399 67 L399 67 Z " />
<glyph glyph-name="e" unicode="e" horiz-adv-x="474" d="M126 340 L366 340 L425 340 L445 340 C423 462 355 510 265 510 C132 510 44 399 44 233 C44 87 124 -10 245 -10 C326 -10 402 47 433 133 L424 136 C403 77 338 37 262 37 C176 37 119 127 119 262 C119 290 121 316 125 340 L126 340 L126 340 Z M418 361 C420 361 422 361 424 361 L418 361 L418 361 Z M361 360 L128 357 C148 442 196 494 260 494 C304 494 341 456 361 360 L361 360 Z " />
<glyph glyph-name="f" unicode="f" horiz-adv-x="285" d="M158 462 L275 462 L275 500 L158 500 C158 640 185 733 238 733 C309 733 264 635 324 635 C351 635 369 653 369 680 C369 725 327 755 263 755 C147 755 87 653 87 500 L-11 471 L-11 462 L87 462 L87 22 C87 13 82 10 73 7 L49 1 L49 0 L122 0 L195 0 L195 1 L171 7 C163 10 158 13 158 22 L158 462 L158 462 Z " />
<glyph glyph-name="g" unicode="g" horiz-adv-x="476" d="M149 350 C149 436 183 493 235 493 C286 493 320 436 320 350 C320 263 286 205 235 205 C183 205 149 263 149 350 L149 350 Z M151 8 C156 8 161 8 166 8 L268 8 C351 8 383 -30 383 -88 C383 -163 329 -213 249 -213 C164 -213 107 -158 107 -76 C107 -38 124 -6 151 9 L151 8 L151 8 Z M134 12 C81 -5 48 -45 48 -92 C48 -174 127 -228 245 -228 C363 -228 441 -165 441 -70 C441 19 395 79 275 79 L170 79 C127 80 98 100 98 129 C98 166 153 190 235 190 C328 190 391 255 391 352 C391 369 389 385 385 400 C407 440 436 467 459 467 C471 467 479 454 479 433 C479 419 492 409 512 409 C530 409 541 422 541 442 C541 475 520 497 489 497 C450 497 407 465 380 416 C358 475 305 512 235 512 C141 512 78 448 78 352 C78 278 115 223 174 201 C102 189 57 155 57 108 C57 59 87 23 134 12 L134 12 Z " />
<glyph glyph-name="h" unicode="h" horiz-adv-x="502" d="M348 22 C348 13 343 10 334 7 L311 1 L311 0 L383 0 L456 0 L456 1 L432 7 C424 10 419 13 419 22 L419 344 C419 444 383 510 313 510 C241 510 177 459 154 382 L154 688 L154 750 L141 750 L45 723 L45 722 L45 721 L69 722 C78 722 83 714 83 671 L83 22 C83 13 78 10 69 7 L45 1 L45 0 L118 0 L191 0 L191 1 L167 7 C159 10 154 13 154 22 L154 379 C168 428 216 460 272 460 C322 460 348 414 348 344 L348 22 L348 22 Z " />
<glyph glyph-name="i" unicode="i" horiz-adv-x="236" d="M127 615 C155 615 173 633 173 661 C173 689 155 707 127 707 C99 707 81 689 81 661 C81 633 99 615 127 615 L127 615 Z M163 22 L163 438 L163 500 L150 500 L54 473 L54 472 L54 471 L78 472 C87 472 92 464 92 421 L92 22 C92 12 87 9 81 7 L59 1 L59 0 L127 0 L196 0 L196 1 L174 7 C167 9 163 12 163 22 L163 22 Z " />
<glyph glyph-name="j" unicode="j" horiz-adv-x="242" d="M117 615 C145 615 163 633 163 661 C163 689 145 707 117 707 C89 707 71 689 71 661 C71 633 89 615 117 615 L117 615 Z M82 421 L82 42 C82 -38 62 -103 33 -121 C0 -121 -40 -100 -73 -100 C-100 -100 -118 -116 -118 -140 C-118 -169 -94 -187 -58 -185 C-52 -184 -10 -162 47 -130 C110 -93 153 -25 153 42 L153 438 L153 500 L140 500 L44 473 L44 472 L44 471 L68 472 C77 472 82 464 82 421 L82 421 Z " />
<glyph glyph-name="k" unicode="k" horiz-adv-x="460" d="M380 0 L431 0 L455 0 L455 1 L428 5 L221 314 L403 494 L435 498 L435 499 L408 499 L384 499 L369 499 L303 499 L303 498 L363 492 C371 491 352 466 226 342 L228 344 L163 279 L163 687 L163 749 L150 749 L54 722 L54 721 L54 720 L78 721 C87 721 92 713 92 670 L92 21 C92 11 87 8 81 6 L59 0 L59 -1 L127 -1 L196 -1 L196 0 L174 6 C167 8 163 11 163 21 L163 279 L339 5 L306 0 L306 -1 L343 -1 L380 0 L380 0 Z " />
<glyph glyph-name="l" unicode="l" horiz-adv-x="226" d="M153 22 L153 688 L153 750 L140 750 L44 723 L44 722 L44 721 L68 722 C77 722 82 714 82 671 L82 22 C82 12 77 9 70 7 L47 1 L47 0 L117 0 L188 0 L188 1 L165 7 C158 9 153 12 153 22 L153 22 Z " />
<glyph glyph-name="m" unicode="m" horiz-adv-x="727" d="M583 42 C583 15 579 9 572 7 L550 1 L550 0 L621 0 L691 0 L691 1 L667 7 C659 10 654 16 654 42 L654 344 C654 444 622 510 540 510 C477 510 421 463 397 391 C388 464 354 510 286 510 C225 510 169 461 147 387 L147 438 L147 500 L134 500 L38 465 L38 464 L62 467 C71 467 76 460 76 417 L76 42 C76 16 71 10 62 7 L38 1 L38 0 L108 0 L177 0 L177 1 L157 7 C151 9 147 15 147 42 L147 384 C160 428 204 457 257 457 C309 457 329 412 329 344 L329 42 C329 15 325 9 318 7 L296 1 L296 0 L363 0 L429 0 L429 1 L409 7 C404 9 400 15 400 42 L400 344 C400 360 399 375 397 389 C412 430 457 457 511 457 C563 457 583 412 583 344 L583 42 L583 42 Z " />
<glyph glyph-name="n" unicode="n" horiz-adv-x="473" d="M329 22 C329 12 324 9 317 7 L294 1 L294 0 L365 0 L435 0 L435 1 L413 7 C405 9 400 12 400 22 L400 361 C400 450 361 510 286 510 C224 510 168 462 147 390 L147 438 L147 500 L134 500 L38 465 L38 464 L62 467 C71 467 76 460 76 417 L76 22 C76 12 71 9 64 7 L41 1 L41 0 L111 0 L182 0 L182 1 L159 7 C152 9 147 12 147 22 L147 380 C164 438 212 477 267 477 C308 477 329 431 329 361 L329 22 L329 22 Z " />
<glyph glyph-name="o" unicode="o" horiz-adv-x="565" d="M282 -7 C187 -7 123 96 123 250 C123 404 187 507 282 507 C378 507 442 404 442 250 C442 96 378 -7 282 -7 L282 -7 Z M44 250 C44 94 139 -10 282 -10 C425 -10 520 94 520 250 C520 406 425 510 282 510 C139 510 44 406 44 250 L44 250 Z " />
<glyph glyph-name="p" unicode="p" horiz-adv-x="502" d="M148 439 L148 500 L135 500 L39 465 L39 464 L63 467 C72 467 77 460 77 417 L77 -175 C77 -204 72 -210 63 -213 L39 -219 L39 -220 L112 -220 L185 -220 L185 -219 L161 -213 C153 -210 148 -204 148 -175 L148 94 C182 34 229 -5 271 -5 C383 -5 457 115 457 256 C457 408 383 510 271 510 C226 510 179 482 148 439 L148 439 Z M148 102 L148 410 C177 452 212 480 240 480 C324 480 380 381 380 233 C380 106 337 -2 271 -2 C231 -2 183 39 149 102 L148 102 L148 102 Z " />
<glyph glyph-name="q" unicode="q" horiz-adv-x="546" d="M452 -198 L452 398 L452 440 L452 500 L447 500 L424 440 C384 482 324 510 273 510 C125 510 48 407 48 252 C48 98 127 -5 246 -5 C240 -5 294 25 381 71 L381 -198 C381 -207 376 -210 367 -213 L343 -219 L343 -220 L416 -220 L489 -220 L489 -219 L465 -213 C457 -210 452 -207 452 -198 L452 -198 Z M381 398 L381 96 C300 53 257 25 274 25 C182 25 120 124 120 272 C120 405 170 494 268 494 C305 494 349 456 380 398 L381 398 L381 398 Z " />
<glyph glyph-name="r" unicode="r" horiz-adv-x="337" d="M149 376 L149 376 L149 371 C149 373 149 375 149 377 L149 376 L149 376 Z M153 418 L153 439 L153 501 L140 501 L44 466 L44 465 L68 468 C77 468 82 461 82 418 L82 23 C82 13 77 10 71 8 L49 2 L49 1 L119 1 L190 1 L190 2 L166 8 C158 11 153 14 153 23 L153 410 C163 452 193 478 233 478 C240 478 244 464 244 443 C244 418 261 401 286 401 C311 401 328 418 328 443 C328 484 303 511 266 511 C208 511 166 475 153 418 L153 418 Z " />
<glyph glyph-name="s" unicode="s" horiz-adv-x="394" d="M249 497 L247 497 C230 505 212 510 194 510 C121 510 72 459 72 383 C72 309 113 247 192 223 C256 203 289 158 289 107 C289 38 256 -7 207 -7 C205 -7 203 -7 201 -7 C188 -1 126 68 81 124 C77 128 75 131 75 131 L74 131 L73 131 L73 94 L73 57 L74 57 L75 57 C75 57 77 61 81 66 C74 55 105 25 165 -1 L167 -1 C181 -7 195 -10 209 -10 C291 -10 346 45 346 127 C346 195 305 253 225 277 C159 298 125 348 125 408 C125 467 153 507 196 507 C197 507 198 507 199 507 L197 507 C205 507 213 506 221 503 L200 507 C218 501 275 443 315 395 C318 391 321 388 321 388 L322 388 L322 425 L322 432 L322 476 L321 476 C321 476 318 471 315 463 C315 464 291 478 253 497 L249 497 L249 497 Z " />
<glyph glyph-name="t" unicode="t" horiz-adv-x="335" d="M292 500 L161 500 L161 620 L156 620 L25 480 L25 470 L90 470 L90 148 C90 34 137 -10 207 -10 C252 -10 299 28 325 85 L317 88 C299 50 264 24 229 24 C186 24 158 54 159 132 L161 462 L292 462 L292 500 L292 500 Z " />
<glyph glyph-name="u" unicode="u" horiz-adv-x="434" d="M295 77 L295 -10 L307 -10 L403 14 L403 15 L379 15 C371 15 366 28 366 92 L366 478 L366 500 L316 500 L266 500 L266 499 L286 493 C291 491 295 488 295 478 L295 127 C271 73 234 38 199 38 C158 38 130 84 130 152 L130 477 L130 499 L80 499 L30 499 L30 498 L50 492 C55 490 59 487 59 477 L59 152 C59 54 102 -11 166 -11 C210 -11 260 42 293 123 L295 77 L295 77 Z " />
<glyph glyph-name="v" unicode="v" horiz-adv-x="410" d="M44 466 L187 -10 L207 -10 L341 447 L342 447 C343 452 344 457 345 461 L354 493 L393 498 L393 499 L356 499 L338 499 L324 499 L282 499 L282 498 L322 492 L186 -11 L212 86 L112 493 L144 498 L144 499 L111 499 L73 499 L33 499 L3 499 L3 498 L35 493 L41 472 C42 470 43 468 44 465 L44 466 L44 466 Z " />
<glyph glyph-name="w" unicode="w" horiz-adv-x="674" d="M287 473 L324 350 L324 350 L250 88 L155 473 L155 473 C154 475 153 477 152 479 L148 495 L176 499 L176 500 L147 500 L108 500 L68 500 L40 500 L40 499 L70 495 L76 476 C76 475 76 474 76 473 L76 473 L221 -10 L242 -10 L337 304 L432 -10 L453 -10 L618 494 L656 499 L656 500 L620 500 L601 500 L586 500 L545 500 L545 499 L584 493 L461 86 L364 473 L364 473 C364 475 364 476 364 477 L360 494 L388 498 L388 499 L359 499 L320 499 L280 499 L251 499 L251 498 L282 494 L287 476 C287 475 287 474 287 473 L287 473 Z " />
<glyph glyph-name="x" unicode="x" horiz-adv-x="439" d="M53 6 L18 1 L18 0 L50 0 L72 0 L83 0 L126 0 L126 1 L86 7 L107 48 C108 49 109 50 110 51 L110 51 L193 216 L279 51 L279 51 C284 40 288 32 292 26 L302 6 L270 1 L270 0 L305 0 L344 0 L391 0 L419 0 L419 1 L388 5 L376 28 C374 34 371 41 366 50 L365 50 L239 291 L354 495 L389 500 L389 501 L357 501 L337 501 L324 501 L285 501 L285 500 L321 495 L229 309 L132 495 L164 500 L164 501 L129 501 L91 501 L42 501 L18 501 L18 500 L44 496 L59 468 C60 465 62 462 64 459 L64 459 L183 232 L53 6 L53 6 Z " />
<glyph glyph-name="y" unicode="y" horiz-adv-x="430" d="M45 466 L199 -10 L162 -140 C158 -155 146 -165 132 -165 C115 -165 109 -140 92 -140 C67 -140 51 -154 51 -175 C51 -201 68 -219 93 -219 C131 -219 164 -195 175 -159 L220 -10 L361 447 L361 447 C362 451 363 455 364 458 L375 494 L414 499 L414 500 L377 500 L359 500 L345 500 L303 500 L303 499 L343 493 L337 474 C336 471 335 467 334 463 L334 463 L226 87 L113 494 L144 499 L144 500 L111 500 L73 500 L33 500 L3 500 L3 499 L35 494 L43 470 C43 469 43 468 43 467 L45 466 L45 466 Z " />
<glyph glyph-name="z" unicode="z" horiz-adv-x="431" d="M76 450 L88 466 C92 471 102 475 134 477 L198 479 C200 479 202 479 204 479 L203 479 L308 482 L40 18 L40 1 L115 1 L319 1 L386 1 C387 11 389 24 391 34 C391 38 392 43 393 48 L384 34 C381 30 373 27 349 25 L127 20 L392 484 L392 501 L320 501 L111 501 L96 501 L97 519 L96 519 C94 513 92 507 90 501 L82 501 L82 476 L84 476 C82 468 80 459 78 451 L76 450 L76 450 Z M78 451 C77 446 76 441 75 437 L72 437 L69 437 L78 451 L78 451 Z M396 50 C397 56 398 62 399 67 L404 67 L408 67 L396 50 L396 50 Z " />
<glyph glyph-name="bar" unicode="&#x7c;" horiz-adv-x="175" d="M60 800 L60 -250 L115 -250 L115 800 L60 800 L60 800 Z " />
<glyph glyph-name="exclamdown" unicode="&#xa1;" horiz-adv-x="226" d="M113 505 C83 505 63 485 63 455 C63 425 83 405 113 405 C144 405 164 425 164 455 C164 485 144 505 113 505 L113 505 Z M113 -255 C154 -255 162 -216 157 -158 L120 290 L107 290 L70 -158 C65 -216 73 -255 113 -255 L113 -255 Z " />
<glyph glyph-name="cent" unicode="&#xa2;" horiz-adv-x="433" d="M229 575 L229 508 C118 493 46 388 46 236 C46 94 119 -3 229 -11 L229 -76 L254 -76 L254 -10 C311 -4 370 49 405 127 L395 131 C369 72 318 32 269 32 C264 32 259 32 254 33 L254 493 C285 492 318 456 337 404 C345 382 359 368 373 368 C402 368 416 382 408 404 C385 467 325 509 256 509 C255 509 254 509 253 509 L253 574 L229 575 L229 575 Z M228 38 C160 62 118 149 118 269 C118 390 161 475 228 491 L228 38 L228 38 Z " />
<glyph glyph-name="questiondown" unicode="&#xbf;" horiz-adv-x="301" d="M177 505 C147 505 126 485 126 455 C126 425 147 405 177 405 C207 405 227 425 227 455 C227 485 207 505 177 505 L177 505 Z M178 304 L177 140 C87 140 54 105 18 53 C1 26 -11 -16 -11 -54 C-11 -178 56 -260 157 -260 C197 -260 223 -239 223 -207 C223 -186 208 -172 185 -172 C168 -172 148 -185 131 -185 C58 -185 10 -129 10 -46 C10 -29 19 -3 34 18 C54 49 81 69 201 69 L191 304 L178 304 L178 304 Z " />
<glyph glyph-name="Agrave" unicode="&#xc0;" horiz-adv-x="606" d="M200 966 C167 1008 143 1035 136 1035 C117 1035 101 1019 101 999 C101 993 127 968 167 934 L308 813 L317 822 L200 966 L200 966 Z M161 296 L383 296 L429 127 L429 127 C457 27 459 8 456 7 L405 1 L405 0 L464 0 L497 0 L548 0 L589 0 L589 1 L546 7 L345 725 L332 770 L324 770 C307 745 283 727 266 725 L269 715 L268 715 L102 82 C85 22 78 8 73 7 L22 1 L22 0 L80 0 L84 0 L89 0 L156 0 L156 1 L99 7 C92 8 92 27 114 115 L161 296 L161 296 Z M162 298 L270 710 L382 298 L162 298 L162 298 Z " />
<glyph glyph-name="Aacute" unicode="&#xc1;" horiz-adv-x="606" d="M313 813 L453 934 C493 969 520 994 520 999 C520 1019 504 1035 484 1035 C480 1035 455 1008 421 966 L304 822 L313 813 L313 813 Z M161 296 L383 296 L429 127 L429 127 C457 27 459 8 456 7 L405 1 L405 0 L464 0 L497 0 L548 0 L589 0 L589 1 L546 7 L345 725 L332 770 L324 770 C307 745 283 727 266 725 L269 715 L268 715 L102 82 C85 22 78 8 73 7 L22 1 L22 0 L80 0 L84 0 L89 0 L156 0 L156 1 L99 7 C92 8 92 27 114 115 L161 296 L161 296 Z M162 298 L270 710 L382 298 L162 298 L162 298 Z " />
<glyph glyph-name="Acircumflex" unicode="&#xc2;" horiz-adv-x="606" d="M305 957 L447 807 L456 815 L331 1009 C326 1016 313 1034 305 1034 C298 1034 285 1017 280 1009 L155 815 L164 807 L305 957 L305 957 Z M161 296 L383 296 L429 127 L429 127 C457 27 459 8 456 7 L405 1 L405 0 L464 0 L497 0 L548 0 L589 0 L589 1 L546 7 L345 725 L332 770 L324 770 C307 745 283 727 266 725 L269 715 L268 715 L102 82 C85 22 78 8 73 7 L22 1 L22 0 L80 0 L84 0 L89 0 L156 0 L156 1 L99 7 C92 8 92 27 114 115 L161 296 L161 296 Z M162 298 L270 710 L382 298 L162 298 L162 298 Z " />
<glyph glyph-name="Atilde" unicode="&#xc3;" horiz-adv-x="606" d="M192 870 C192 907 206 932 227 932 C277 932 313 867 363 867 C397 867 420 911 420 978 L418 978 C418 942 403 918 380 918 C329 918 294 983 243 983 C212 983 191 938 191 870 L192 870 L192 870 Z M161 296 L383 296 L429 127 L429 127 C457 27 459 8 456 7 L405 1 L405 0 L464 0 L497 0 L548 0 L589 0 L589 1 L546 7 L345 725 L332 770 L324 770 C307 745 283 727 266 725 L269 715 L268 715 L102 82 C85 22 78 8 73 7 L22 1 L22 0 L80 0 L84 0 L89 0 L156 0 L156 1 L99 7 C92 8 92 27 114 115 L161 296 L161 296 Z M162 298 L270 710 L382 298 L162 298 L162 298 Z " />
<glyph glyph-name="Adieresis" unicode="&#xc4;" horiz-adv-x="606" d="M375 865 C403 865 421 883 421 911 C421 939 403 957 375 957 C347 957 329 939 329 911 C329 883 347 865 375 865 L375 865 Z M236 865 C263 865 282 883 282 911 C282 939 263 957 236 957 C208 957 190 939 190 911 C190 883 208 865 236 865 L236 865 Z M161 296 L383 296 L429 127 L429 127 C457 27 459 8 456 7 L405 1 L405 0 L464 0 L497 0 L548 0 L589 0 L589 1 L546 7 L345 725 L332 770 L324 770 C307 745 283 727 266 725 L269 715 L268 715 L102 82 C85 22 78 8 73 7 L22 1 L22 0 L80 0 L84 0 L89 0 L156 0 L156 1 L99 7 C92 8 92 27 114 115 L161 296 L161 296 Z M162 298 L270 710 L382 298 L162 298 L162 298 Z " />
<glyph glyph-name="Aring" unicode="&#xc5;" horiz-adv-x="606" d="M305 827 C264 827 229 863 229 905 C229 952 260 983 305 983 C351 983 382 952 382 905 C382 863 347 827 305 827 L305 827 Z M208 905 C208 854 253 810 305 810 C358 810 402 854 402 905 C402 962 363 1000 305 1000 C247 1000 208 962 208 905 L208 905 Z M161 296 L383 296 L429 127 L429 127 C457 27 459 8 456 7 L405 1 L405 0 L464 0 L497 0 L548 0 L589 0 L589 1 L546 7 L345 725 L332 770 L324 770 C307 745 283 727 266 725 L269 715 L268 715 L102 82 C85 22 78 8 73 7 L22 1 L22 0 L80 0 L84 0 L89 0 L156 0 L156 1 L99 7 C92 8 92 27 114 115 L161 296 L161 296 Z M162 298 L270 710 L382 298 L162 298 L162 298 Z " />
<glyph glyph-name="Egrave" unicode="&#xc8;" horiz-adv-x="538" d="M181 966 C149 1008 124 1035 117 1035 C98 1035 82 1019 82 999 C82 993 109 968 148 934 L289 813 L298 822 L181 966 L181 966 Z M377 0 L484 0 C485 8 487 20 488 29 C489 37 491 49 492 57 L491 57 L481 26 C476 12 457 3 377 3 L244 3 C198 3 193 22 193 51 L193 72 L193 385 L292 385 C371 385 388 373 392 355 L398 324 L399 324 L399 385 L399 386 L399 388 L399 449 L398 449 L392 418 C388 400 371 388 292 388 L193 388 L193 678 L193 747 L352 747 C448 747 450 738 454 724 L462 693 L463 693 C462 701 462 713 461 721 C460 730 460 742 459 750 L352 750 L193 750 L130 750 L114 750 L68 750 L68 749 L96 743 C107 740 114 729 114 678 L114 72 C114 21 107 10 96 7 L68 1 L68 0 L114 0 L130 0 L193 0 L377 0 L377 0 Z " />
<glyph glyph-name="Eacute" unicode="&#xc9;" horiz-adv-x="538" d="M294 813 L435 934 C474 969 501 994 501 999 C501 1019 485 1035 466 1035 C461 1035 436 1008 402 966 L285 822 L294 813 L294 813 Z M377 0 L484 0 C485 8 487 20 488 29 C489 37 491 49 492 57 L491 57 L481 26 C476 12 457 3 377 3 L244 3 C198 3 193 22 193 51 L193 72 L193 385 L292 385 C371 385 388 373 392 355 L398 324 L399 324 L399 385 L399 386 L399 388 L399 449 L398 449 L392 418 C388 400 371 388 292 388 L193 388 L193 678 L193 747 L352 747 C448 747 450 738 454 724 L462 693 L463 693 C462 701 462 713 461 721 C460 730 460 742 459 750 L352 750 L193 750 L130 750 L114 750 L68 750 L68 749 L96 743 C107 740 114 729 114 678 L114 72 C114 21 107 10 96 7 L68 1 L68 0 L114 0 L130 0 L193 0 L377 0 L377 0 Z " />
<glyph glyph-name="Ecircumflex" unicode="&#xca;" horiz-adv-x="538" d="M286 957 L428 807 L437 815 L312 1009 C307 1016 294 1034 286 1034 C279 1034 266 1017 261 1009 L136 815 L145 807 L286 957 L286 957 Z M377 0 L484 0 C485 8 487 20 488 29 C489 37 491 49 492 57 L491 57 L481 26 C476 12 457 3 377 3 L244 3 C198 3 193 22 193 51 L193 72 L193 385 L292 385 C371 385 388 373 392 355 L398 324 L399 324 L399 385 L399 386 L399 388 L399 449 L398 449 L392 418 C388 400 371 388 292 388 L193 388 L193 678 L193 747 L352 747 C448 747 450 738 454 724 L462 693 L463 693 C462 701 462 713 461 721 C460 730 460 742 459 750 L352 750 L193 750 L130 750 L114 750 L68 750 L68 749 L96 743 C107 740 114 729 114 678 L114 72 C114 21 107 10 96 7 L68 1 L68 0 L114 0 L130 0 L193 0 L377 0 L377 0 Z " />
<glyph glyph-name="Edieresis" unicode="&#xcb;" horiz-adv-x="538" d="M356 865 C384 865 402 883 402 911 C402 939 384 957 356 957 C328 957 310 939 310 911 C310 883 328 865 356 865 L356 865 Z M217 865 C244 865 263 883 263 911 C263 939 244 957 217 957 C189 957 171 939 171 911 C171 883 189 865 217 865 L217 865 Z M377 0 L484 0 C485 8 487 20 488 29 C489 37 491 49 492 57 L491 57 L481 26 C476 12 457 3 377 3 L244 3 C198 3 193 22 193 51 L193 72 L193 385 L292 385 C371 385 388 373 392 355 L398 324 L399 324 L399 385 L399 386 L399 388 L399 449 L398 449 L392 418 C388 400 371 388 292 388 L193 388 L193 678 L193 747 L352 747 C448 747 450 738 454 724 L462 693 L463 693 C462 701 462 713 461 721 C460 730 460 742 459 750 L352 750 L193 750 L130 750 L114 750 L68 750 L68 749 L96 743 C107 740 114 729 114 678 L114 72 C114 21 107 10 96 7 L68 1 L68 0 L114 0 L130 0 L193 0 L377 0 L377 0 Z " />
<glyph glyph-name="Igrave" unicode="&#xcc;" horiz-adv-x="301" d="M48 966 C16 1008 -9 1035 -16 1035 C-35 1035 -51 1019 -51 999 C-51 993 -24 968 15 934 L156 813 L165 822 L48 966 L48 966 Z M193 67 L193 683 C193 730 200 740 211 743 L239 749 L239 750 L153 750 L68 750 L68 749 L96 743 C107 740 114 730 114 683 L114 67 C114 20 107 10 96 7 L68 1 L68 0 L153 0 L239 0 L239 1 L211 7 C200 10 193 20 193 67 L193 67 Z " />
<glyph glyph-name="Iacute" unicode="&#xcd;" horiz-adv-x="301" d="M161 813 L302 934 C341 969 368 994 368 999 C368 1019 352 1035 333 1035 C328 1035 303 1008 269 966 L152 822 L161 813 L161 813 Z M193 67 L193 683 C193 730 200 740 211 743 L239 749 L239 750 L153 750 L68 750 L68 749 L96 743 C107 740 114 730 114 683 L114 67 C114 20 107 10 96 7 L68 1 L68 0 L153 0 L239 0 L239 1 L211 7 C200 10 193 20 193 67 L193 67 Z " />
<glyph glyph-name="Icircumflex" unicode="&#xce;" horiz-adv-x="301" d="M153 957 L295 807 L304 815 L179 1009 C174 1016 161 1034 153 1034 C146 1034 133 1017 129 1009 L3 815 L12 807 L153 957 L153 957 Z M193 67 L193 683 C193 730 200 740 211 743 L239 749 L239 750 L153 750 L68 750 L68 749 L96 743 C107 740 114 730 114 683 L114 67 C114 20 107 10 96 7 L68 1 L68 0 L153 0 L239 0 L239 1 L211 7 C200 10 193 20 193 67 L193 67 Z " />
<glyph glyph-name="Idieresis" unicode="&#xcf;" horiz-adv-x="301" d="M223 865 C251 865 269 883 269 911 C269 939 251 957 223 957 C196 957 177 939 177 911 C177 883 196 865 223 865 L223 865 Z M84 865 C111 865 130 883 130 911 C130 939 111 957 84 957 C56 957 38 939 38 911 C38 883 56 865 84 865 L84 865 Z M193 67 L193 683 C193 730 200 740 211 743 L239 749 L239 750 L153 750 L68 750 L68 749 L96 743 C107 740 114 730 114 683 L114 67 C114 20 107 10 96 7 L68 1 L68 0 L153 0 L239 0 L239 1 L211 7 C200 10 193 20 193 67 L193 67 Z " />
<glyph glyph-name="Ntilde" unicode="&#xd1;" horiz-adv-x="647" d="M208 870 C208 907 222 932 243 932 C293 932 329 867 379 867 C413 867 436 911 436 978 L434 978 C434 942 419 918 395 918 C345 918 309 983 259 983 C227 983 206 938 206 870 L208 870 L208 870 Z M126 127 L125 127 L123 623 L445 113 L517 0 L533 0 L537 643 L538 643 C537 724 546 740 560 743 L592 749 L592 750 L538 750 L526 750 L515 750 L460 750 L460 749 L493 743 C506 740 515 724 515 643 L515 643 L516 149 L512 154 L140 750 L121 750 L102 750 L77 750 L41 750 L14 750 L14 749 L44 745 L102 654 L101 137 L101 137 C101 29 99 8 95 7 L46 1 L46 0 L101 0 L112 0 L124 0 L179 0 L179 1 L130 7 C126 8 124 27 124 127 L126 127 L126 127 Z " />
<glyph glyph-name="Ograve" unicode="&#xd2;" horiz-adv-x="778" d="M374 -7 C237 -7 145 146 145 375 C145 604 240 757 383 757 C532 757 632 604 632 375 C632 146 529 -7 374 -7 L374 -7 Z M54 375 C54 144 182 -10 374 -10 C583 -10 723 144 723 375 C723 606 587 760 384 760 C186 760 54 606 54 375 L54 375 Z M278 966 C246 1008 221 1035 215 1035 C195 1035 179 1019 179 999 C179 993 206 968 246 934 L386 813 L395 822 L278 966 L278 966 Z " />
<glyph glyph-name="Oacute" unicode="&#xd3;" horiz-adv-x="778" d="M391 813 L532 934 C572 969 598 994 598 999 C598 1019 582 1035 563 1035 C558 1035 533 1008 499 966 L382 822 L391 813 L391 813 Z M374 -7 C237 -7 145 146 145 375 C145 604 240 757 383 757 C532 757 632 604 632 375 C632 146 529 -7 374 -7 L374 -7 Z M54 375 C54 144 182 -10 374 -10 C583 -10 723 144 723 375 C723 606 587 760 384 760 C186 760 54 606 54 375 L54 375 Z " />
<glyph glyph-name="Ocircumflex" unicode="&#xd4;" horiz-adv-x="778" d="M374 -7 C237 -7 145 146 145 375 C145 604 240 757 383 757 C532 757 632 604 632 375 C632 146 529 -7 374 -7 L374 -7 Z M54 375 C54 144 182 -10 374 -10 C583 -10 723 144 723 375 C723 606 587 760 384 760 C186 760 54 606 54 375 L54 375 Z M384 957 L525 807 L534 815 L409 1009 C404 1016 391 1034 384 1034 C376 1034 364 1017 359 1009 L233 815 L243 807 L384 957 L384 957 Z " />
<glyph glyph-name="Otilde" unicode="&#xd5;" horiz-adv-x="778" d="M271 870 C271 907 285 932 305 932 C356 932 391 867 442 867 C475 867 498 911 498 978 L497 978 C497 942 481 918 458 918 C408 918 372 983 322 983 C290 983 269 938 269 870 L271 870 L271 870 Z M374 -7 C237 -7 145 146 145 375 C145 604 240 757 383 757 C532 757 632 604 632 375 C632 146 529 -7 374 -7 L374 -7 Z M54 375 C54 144 182 -10 374 -10 C583 -10 723 144 723 375 C723 606 587 760 384 760 C186 760 54 606 54 375 L54 375 Z " />
<glyph glyph-name="Odieresis" unicode="&#xd6;" horiz-adv-x="778" d="M453 865 C481 865 499 883 499 911 C499 939 481 957 453 957 C426 957 408 939 408 911 C408 883 426 865 453 865 L453 865 Z M314 865 C342 865 360 883 360 911 C360 939 342 957 314 957 C286 957 268 939 268 911 C268 883 286 865 314 865 L314 865 Z M374 -7 C237 -7 145 146 145 375 C145 604 240 757 383 757 C532 757 632 604 632 375 C632 146 529 -7 374 -7 L374 -7 Z M54 375 C54 144 182 -10 374 -10 C583 -10 723 144 723 375 C723 606 587 760 384 760 C186 760 54 606 54 375 L54 375 Z " />
<glyph glyph-name="Oslash" unicode="&#xd8;" horiz-adv-x="778" d="M56 -12 L146 91 C202 26 281 -11 375 -11 C584 -11 724 143 724 374 C724 488 691 583 633 650 L726 757 L722 761 L629 654 C570 721 486 759 385 759 C187 759 55 605 55 374 C55 258 87 162 143 95 L53 -9 L56 -12 L56 -12 Z M375 -8 C294 -8 228 46 188 138 L591 601 C618 540 633 463 633 374 C633 145 530 -8 375 -8 L375 -8 Z M186 144 C160 206 146 284 146 374 C146 603 241 756 384 756 C473 756 545 701 588 607 L186 144 L186 144 Z " />
<glyph glyph-name="Ugrave" unicode="&#xd9;" horiz-adv-x="601" d="M195 966 C163 1008 138 1035 132 1035 C112 1035 96 1019 96 999 C96 993 123 968 163 934 L303 813 L312 822 L195 966 L195 966 Z M523 97 L523 678 L523 750 L460 750 L397 750 L397 749 L426 743 C436 740 443 729 443 678 L443 174 C406 94 327 41 246 41 C193 41 158 109 158 211 L158 678 L158 750 L95 750 L33 750 L33 749 L61 743 C72 740 79 729 79 678 L79 211 C79 78 133 -10 214 -10 C310 -10 402 49 443 138 L443 97 L443 0 L456 0 L568 49 C530 74 523 81 523 97 L523 97 Z " />
<glyph glyph-name="Uacute" unicode="&#xda;" horiz-adv-x="601" d="M308 813 L449 934 C489 969 515 994 515 999 C515 1019 499 1035 480 1035 C475 1035 450 1008 416 966 L299 822 L308 813 L308 813 Z M523 97 L523 678 L523 750 L460 750 L397 750 L397 749 L426 743 C436 740 443 729 443 678 L443 174 C406 94 327 41 246 41 C193 41 158 109 158 211 L158 678 L158 750 L95 750 L33 750 L33 749 L61 743 C72 740 79 729 79 678 L79 211 C79 78 133 -10 214 -10 C310 -10 402 49 443 138 L443 97 L443 0 L456 0 L568 49 C530 74 523 81 523 97 L523 97 Z " />
<glyph glyph-name="Ucircumflex" unicode="&#xdb;" horiz-adv-x="601" d="M301 957 L442 807 L451 815 L326 1009 C321 1016 308 1034 301 1034 C293 1034 281 1017 276 1009 L150 815 L160 807 L301 957 L301 957 Z M523 97 L523 678 L523 750 L460 750 L397 750 L397 749 L426 743 C436 740 443 729 443 678 L443 174 C406 94 327 41 246 41 C193 41 158 109 158 211 L158 678 L158 750 L95 750 L33 750 L33 749 L61 743 C72 740 79 729 79 678 L79 211 C79 78 133 -10 214 -10 C310 -10 402 49 443 138 L443 97 L443 0 L456 0 L568 49 C530 74 523 81 523 97 L523 97 Z " />
<glyph glyph-name="Udieresis" unicode="&#xdc;" horiz-adv-x="601" d="M371 865 C398 865 416 883 416 911 C416 939 398 957 371 957 C343 957 325 939 325 911 C325 883 343 865 371 865 L371 865 Z M231 865 C259 865 277 883 277 911 C277 939 259 957 231 957 C203 957 185 939 185 911 C185 883 203 865 231 865 L231 865 Z M523 97 L523 678 L523 750 L460 750 L397 750 L397 749 L426 743 C436 740 443 729 443 678 L443 174 C406 94 327 41 246 41 C193 41 158 109 158 211 L158 678 L158 750 L95 750 L33 750 L33 749 L61 743 C72 740 79 729 79 678 L79 211 C79 78 133 -10 214 -10 C310 -10 402 49 443 138 L443 97 L443 0 L456 0 L568 49 C530 74 523 81 523 97 L523 97 Z " />
<glyph glyph-name="Yacute" unicode="&#xdd;" horiz-adv-x="583" d="M306 813 L447 934 C487 969 513 994 513 999 C513 1019 497 1035 478 1035 C473 1035 448 1008 414 966 L297 822 L306 813 L306 813 Z M194 623 L194 623 C191 629 188 635 185 641 L133 744 L176 750 L176 751 L130 751 L92 751 L36 751 L8 751 L8 750 L39 746 L260 326 L260 68 C260 21 253 11 242 8 L214 2 L214 1 L300 1 L385 1 L385 2 L357 8 C346 11 339 21 339 68 L339 339 L472 624 L472 624 C480 641 487 656 493 669 L528 744 L568 749 L568 750 L531 750 L526 750 L524 750 L480 750 L480 749 L523 743 L477 644 C475 641 473 637 471 633 L471 633 L337 342 L194 623 L194 623 Z " />
<glyph glyph-name="agrave" unicode="&#xe0;" horiz-adv-x="478" d="M143 716 C111 758 86 785 80 785 C60 785 44 769 44 749 C44 743 71 718 111 684 L252 563 L261 572 L143 716 L143 716 Z M364 93 C333 52 291 24 258 24 C176 24 121 123 121 271 C121 401 167 488 256 488 C311 488 351 449 363 398 L363 96 L364 93 L364 93 Z M363 67 L363 -11 L375 -11 L471 13 L471 14 L447 14 C439 14 434 30 434 111 L434 449 L434 509 L425 509 L373 459 C344 489 300 509 247 509 C116 509 48 406 48 251 C48 97 120 -6 228 -6 C276 -6 329 23 362 68 L363 67 L363 67 Z " />
<glyph glyph-name="aacute" unicode="&#xe1;" horiz-adv-x="478" d="M256 563 L397 684 C437 719 463 744 463 749 C463 769 447 785 428 785 C423 785 398 758 365 716 L247 572 L256 563 L256 563 Z M364 93 C333 52 291 24 258 24 C176 24 121 123 121 271 C121 401 167 488 256 488 C311 488 351 449 363 398 L363 96 L364 93 L364 93 Z M363 67 L363 -11 L375 -11 L471 13 L471 14 L447 14 C439 14 434 30 434 111 L434 449 L434 509 L425 509 L373 459 C344 489 300 509 247 509 C116 509 48 406 48 251 C48 97 120 -6 228 -6 C276 -6 329 23 362 68 L363 67 L363 67 Z " />
<glyph glyph-name="acircumflex" unicode="&#xe2;" horiz-adv-x="478" d="M249 707 L390 557 L400 565 L274 759 C269 766 257 784 249 784 C241 784 229 767 224 759 L98 565 L108 557 L249 707 L249 707 Z M364 93 C333 52 291 24 258 24 C176 24 121 123 121 271 C121 401 167 488 256 488 C311 488 351 449 363 398 L363 96 L364 93 L364 93 Z M363 67 L363 -11 L375 -11 L471 13 L471 14 L447 14 C439 14 434 30 434 111 L434 449 L434 509 L425 509 L373 459 C344 489 300 509 247 509 C116 509 48 406 48 251 C48 97 120 -6 228 -6 C276 -6 329 23 362 68 L363 67 L363 67 Z " />
<glyph glyph-name="atilde" unicode="&#xe3;" horiz-adv-x="478" d="M136 620 C136 657 150 682 171 682 C221 682 257 617 307 617 C341 617 364 661 364 728 L362 728 C362 692 346 668 323 668 C273 668 237 733 187 733 C155 733 134 688 134 620 L136 620 L136 620 Z M364 93 C333 52 291 24 258 24 C176 24 121 123 121 271 C121 401 167 488 256 488 C311 488 351 449 363 398 L363 96 L364 93 L364 93 Z M363 67 L363 -11 L375 -11 L471 13 L471 14 L447 14 C439 14 434 30 434 111 L434 449 L434 509 L425 509 L373 459 C344 489 300 509 247 509 C116 509 48 406 48 251 C48 97 120 -6 228 -6 C276 -6 329 23 362 68 L363 67 L363 67 Z " />
<glyph glyph-name="adieresis" unicode="&#xe4;" horiz-adv-x="478" d="M319 615 C346 615 365 633 365 661 C365 689 346 707 319 707 C291 707 273 689 273 661 C273 633 291 615 319 615 L319 615 Z M179 615 C207 615 225 633 225 661 C225 689 207 707 179 707 C151 707 133 689 133 661 C133 633 151 615 179 615 L179 615 Z M364 93 C333 52 291 24 258 24 C176 24 121 123 121 271 C121 401 167 488 256 488 C311 488 351 449 363 398 L363 96 L364 93 L364 93 Z M363 67 L363 -11 L375 -11 L471 13 L471 14 L447 14 C439 14 434 30 434 111 L434 449 L434 509 L425 509 L373 459 C344 489 300 509 247 509 C116 509 48 406 48 251 C48 97 120 -6 228 -6 C276 -6 329 23 362 68 L363 67 L363 67 Z " />
<glyph glyph-name="aring" unicode="&#xe5;" horiz-adv-x="478" d="M249 577 C208 577 173 613 173 655 C173 702 203 733 249 733 C295 733 325 702 325 655 C325 613 290 577 249 577 L249 577 Z M152 655 C152 604 197 560 249 560 C301 560 346 604 346 655 C346 712 307 750 249 750 C191 750 152 712 152 655 L152 655 Z M364 93 C333 52 291 24 258 24 C176 24 121 123 121 271 C121 401 167 488 256 488 C311 488 351 449 363 398 L363 96 L364 93 L364 93 Z M363 67 L363 -11 L375 -11 L471 13 L471 14 L447 14 C439 14 434 30 434 111 L434 449 L434 509 L425 509 L373 459 C344 489 300 509 247 509 C116 509 48 406 48 251 C48 97 120 -6 228 -6 C276 -6 329 23 362 68 L363 67 L363 67 Z " />
<glyph glyph-name="egrave" unicode="&#xe8;" horiz-adv-x="474" d="M159 716 C127 758 102 785 96 785 C76 785 60 769 60 749 C60 743 87 718 127 684 L268 563 L277 572 L159 716 L159 716 Z M126 340 L366 340 L425 340 L445 340 C423 462 355 510 265 510 C132 510 44 399 44 233 C44 87 124 -10 245 -10 C326 -10 402 47 433 133 L424 136 C403 77 338 37 262 37 C176 37 119 127 119 262 C119 290 121 316 125 340 L126 340 L126 340 Z M418 361 C420 361 422 361 424 361 L418 361 L418 361 Z M361 360 L128 357 C148 442 196 494 260 494 C304 494 341 456 361 360 L361 360 Z " />
<glyph glyph-name="eacute" unicode="&#xe9;" horiz-adv-x="474" d="M272 563 L413 684 C453 719 479 744 479 749 C479 769 463 785 444 785 C439 785 414 758 381 716 L263 572 L272 563 L272 563 Z M126 340 L366 340 L425 340 L445 340 C423 462 355 510 265 510 C132 510 44 399 44 233 C44 87 124 -10 245 -10 C326 -10 402 47 433 133 L424 136 C403 77 338 37 262 37 C176 37 119 127 119 262 C119 290 121 316 125 340 L126 340 L126 340 Z M418 361 C420 361 422 361 424 361 L418 361 L418 361 Z M361 360 L128 357 C148 442 196 494 260 494 C304 494 341 456 361 360 L361 360 Z " />
<glyph glyph-name="ecircumflex" unicode="&#xea;" horiz-adv-x="474" d="M265 707 L406 557 L416 565 L290 759 C285 766 273 784 265 784 C257 784 245 767 240 759 L114 565 L124 557 L265 707 L265 707 Z M126 340 L366 340 L425 340 L445 340 C423 462 355 510 265 510 C132 510 44 399 44 233 C44 87 124 -10 245 -10 C326 -10 402 47 433 133 L424 136 C403 77 338 37 262 37 C176 37 119 127 119 262 C119 290 121 316 125 340 L126 340 L126 340 Z M418 361 C420 361 422 361 424 361 L418 361 L418 361 Z M361 360 L128 357 C148 442 196 494 260 494 C304 494 341 456 361 360 L361 360 Z " />
<glyph glyph-name="edieresis" unicode="&#xeb;" horiz-adv-x="474" d="M335 615 C362 615 381 633 381 661 C381 689 362 707 335 707 C307 707 289 689 289 661 C289 633 307 615 335 615 L335 615 Z M195 615 C223 615 241 633 241 661 C241 689 223 707 195 707 C167 707 149 689 149 661 C149 633 167 615 195 615 L195 615 Z M126 340 L366 340 L425 340 L445 340 C423 462 355 510 265 510 C132 510 44 399 44 233 C44 87 124 -10 245 -10 C326 -10 402 47 433 133 L424 136 C403 77 338 37 262 37 C176 37 119 127 119 262 C119 290 121 316 125 340 L126 340 L126 340 Z M418 361 C420 361 422 361 424 361 L418 361 L418 361 Z M361 360 L128 357 C148 442 196 494 260 494 C304 494 341 456 361 360 L361 360 Z " />
<glyph glyph-name="igrave" unicode="&#xec;" horiz-adv-x="262" d="M48 716 C16 758 -9 785 -15 785 C-35 785 -51 769 -51 749 C-51 743 -24 718 16 684 L157 563 L165 572 L48 716 L48 716 Z M189 22 L189 396 L189 500 L177 500 L83 445 L83 444 C112 425 118 418 118 396 L118 22 C118 12 113 9 106 7 L83 1 L83 0 L154 0 L226 0 L226 1 L202 7 C194 10 189 13 189 22 L189 22 Z " />
<glyph glyph-name="iacute" unicode="&#xed;" horiz-adv-x="262" d="M48 716 C16 758 -9 785 -15 785 C-35 785 -51 769 -51 749 C-51 743 -24 718 16 684 L157 563 L165 572 L48 716 L48 716 Z M189 22 L189 396 L189 500 L177 500 L83 445 L83 444 C112 425 118 418 118 396 L118 22 C118 12 113 9 106 7 L83 1 L83 0 L154 0 L226 0 L226 1 L202 7 C194 10 189 13 189 22 L189 22 Z " />
<glyph glyph-name="icircumflex" unicode="&#xee;" horiz-adv-x="262" d="M154 707 L295 557 L305 565 L179 759 C174 766 161 784 154 784 C146 784 134 767 129 759 L3 565 L13 557 L154 707 L154 707 Z M189 22 L189 396 L189 500 L177 500 L83 445 L83 444 C112 425 118 418 118 396 L118 22 C118 12 113 9 106 7 L83 1 L83 0 L154 0 L226 0 L226 1 L202 7 C194 10 189 13 189 22 L189 22 Z " />
<glyph glyph-name="idieresis" unicode="&#xef;" horiz-adv-x="262" d="M224 615 C251 615 269 633 269 661 C269 689 251 707 224 707 C196 707 178 689 178 661 C178 633 196 615 224 615 L224 615 Z M84 615 C112 615 130 633 130 661 C130 689 112 707 84 707 C56 707 38 689 38 661 C38 633 56 615 84 615 L84 615 Z M189 22 L189 396 L189 500 L177 500 L83 445 L83 444 C112 425 118 418 118 396 L118 22 C118 12 113 9 106 7 L83 1 L83 0 L154 0 L226 0 L226 1 L202 7 C194 10 189 13 189 22 L189 22 Z " />
<glyph glyph-name="ntilde" unicode="&#xf1;" horiz-adv-x="473" d="M125 620 C125 657 139 682 160 682 C210 682 246 617 296 617 C330 617 353 661 353 728 L351 728 C351 692 336 668 312 668 C262 668 226 733 176 733 C144 733 123 688 123 620 L125 620 L125 620 Z M329 22 C329 12 324 9 317 7 L294 1 L294 0 L365 0 L435 0 L435 1 L413 7 C405 9 400 12 400 22 L400 361 C400 450 361 510 286 510 C224 510 168 462 147 390 L147 438 L147 500 L134 500 L38 465 L38 464 L62 467 C71 467 76 460 76 417 L76 22 C76 12 71 9 64 7 L41 1 L41 0 L111 0 L182 0 L182 1 L159 7 C152 9 147 12 147 22 L147 380 C164 438 212 477 267 477 C308 477 329 431 329 361 L329 22 L329 22 Z " />
<glyph glyph-name="ograve" unicode="&#xf2;" horiz-adv-x="565" d="M282 -7 C187 -7 123 96 123 250 C123 404 187 507 282 507 C378 507 442 404 442 250 C442 96 378 -7 282 -7 L282 -7 Z M44 250 C44 94 139 -10 282 -10 C425 -10 520 94 520 250 C520 406 425 510 282 510 C139 510 44 406 44 250 L44 250 Z M177 716 C144 758 120 785 113 785 C94 785 78 769 78 749 C78 743 104 718 144 684 L285 563 L294 572 L177 716 L177 716 Z " />
<glyph glyph-name="oacute" unicode="&#xf3;" horiz-adv-x="565" d="M290 563 L430 684 C470 719 497 744 497 749 C497 769 481 785 461 785 C456 785 432 758 398 716 L281 572 L290 563 L290 563 Z M282 -7 C187 -7 123 96 123 250 C123 404 187 507 282 507 C378 507 442 404 442 250 C442 96 378 -7 282 -7 L282 -7 Z M44 250 C44 94 139 -10 282 -10 C425 -10 520 94 520 250 C520 406 425 510 282 510 C139 510 44 406 44 250 L44 250 Z " />
<glyph glyph-name="ocircumflex" unicode="&#xf4;" horiz-adv-x="565" d="M282 -7 C187 -7 123 96 123 250 C123 404 187 507 282 507 C378 507 442 404 442 250 C442 96 378 -7 282 -7 L282 -7 Z M44 250 C44 94 139 -10 282 -10 C425 -10 520 94 520 250 C520 406 425 510 282 510 C139 510 44 406 44 250 L44 250 Z M282 707 L423 557 L433 565 L307 759 C303 766 290 784 282 784 C275 784 262 767 257 759 L132 565 L141 557 L282 707 L282 707 Z " />
<glyph glyph-name="otilde" unicode="&#xf5;" horiz-adv-x="565" d="M169 620 C169 657 183 682 204 682 C254 682 290 617 340 617 C374 617 397 661 397 728 L395 728 C395 692 380 668 357 668 C306 668 270 733 220 733 C189 733 168 688 168 620 L169 620 L169 620 Z M282 -7 C187 -7 123 96 123 250 C123 404 187 507 282 507 C378 507 442 404 442 250 C442 96 378 -7 282 -7 L282 -7 Z M44 250 C44 94 139 -10 282 -10 C425 -10 520 94 520 250 C520 406 425 510 282 510 C139 510 44 406 44 250 L44 250 Z " />
<glyph glyph-name="odieresis" unicode="&#xf6;" horiz-adv-x="565" d="M352 615 C380 615 398 633 398 661 C398 689 380 707 352 707 C324 707 306 689 306 661 C306 633 324 615 352 615 L352 615 Z M213 615 C240 615 258 633 258 661 C258 689 240 707 213 707 C185 707 167 689 167 661 C167 633 185 615 213 615 L213 615 Z M282 -7 C187 -7 123 96 123 250 C123 404 187 507 282 507 C378 507 442 404 442 250 C442 96 378 -7 282 -7 L282 -7 Z M44 250 C44 94 139 -10 282 -10 C425 -10 520 94 520 250 C520 406 425 510 282 510 C139 510 44 406 44 250 L44 250 Z " />
<glyph glyph-name="oslash" unicode="&#xf8;" horiz-adv-x="565" d="M46 -11 L111 60 C153 16 212 -9 283 -9 C426 -9 521 95 521 251 C521 328 498 392 457 437 L523 509 L520 511 L455 440 C413 485 354 511 283 511 C140 511 45 407 45 251 C45 174 68 109 109 64 L44 -8 L46 -11 L46 -11 Z M283 -6 C224 -6 177 34 150 102 L420 397 C435 357 443 308 443 252 C443 98 379 -5 283 -5 L283 -6 L283 -6 Z M148 106 C133 146 125 195 125 251 C125 405 189 508 284 508 C344 508 391 468 418 400 L148 106 L148 106 Z " />
<glyph glyph-name="ugrave" unicode="&#xf9;" horiz-adv-x="434" d="M107 716 C75 758 50 785 44 785 C24 785 8 769 8 749 C8 743 35 718 75 684 L216 563 L224 572 L107 716 L107 716 Z M295 77 L295 -10 L307 -10 L403 14 L403 15 L379 15 C371 15 366 28 366 92 L366 478 L366 500 L316 500 L266 500 L266 499 L286 493 C291 491 295 488 295 478 L295 127 C271 73 234 38 199 38 C158 38 130 84 130 152 L130 477 L130 499 L80 499 L30 499 L30 498 L50 492 C55 490 59 487 59 477 L59 152 C59 54 102 -11 166 -11 C210 -11 260 42 293 123 L295 77 L295 77 Z " />
<glyph glyph-name="uacute" unicode="&#xfa;" horiz-adv-x="434" d="M220 563 L361 684 C401 719 427 744 427 749 C427 769 411 785 392 785 C387 785 362 758 328 716 L211 572 L220 563 L220 563 Z M295 77 L295 -10 L307 -10 L403 14 L403 15 L379 15 C371 15 366 28 366 92 L366 478 L366 500 L316 500 L266 500 L266 499 L286 493 C291 491 295 488 295 478 L295 127 C271 73 234 38 199 38 C158 38 130 84 130 152 L130 477 L130 499 L80 499 L30 499 L30 498 L50 492 C55 490 59 487 59 477 L59 152 C59 54 102 -11 166 -11 C210 -11 260 42 293 123 L295 77 L295 77 Z " />
<glyph glyph-name="ucircumflex" unicode="&#xfb;" horiz-adv-x="434" d="M213 707 L354 557 L363 565 L238 759 C233 766 220 784 213 784 C205 784 193 767 188 759 L62 565 L72 557 L213 707 L213 707 Z M295 77 L295 -10 L307 -10 L403 14 L403 15 L379 15 C371 15 366 28 366 92 L366 478 L366 500 L316 500 L266 500 L266 499 L286 493 C291 491 295 488 295 478 L295 127 C271 73 234 38 199 38 C158 38 130 84 130 152 L130 477 L130 499 L80 499 L30 499 L30 498 L50 492 C55 490 59 487 59 477 L59 152 C59 54 102 -11 166 -11 C210 -11 260 42 293 123 L295 77 L295 77 Z " />
<glyph glyph-name="udieresis" unicode="&#xfc;" horiz-adv-x="434" d="M283 615 C310 615 328 633 328 661 C328 689 310 707 283 707 C255 707 237 689 237 661 C237 633 255 615 283 615 L283 615 Z M143 615 C171 615 189 633 189 661 C189 689 171 707 143 707 C115 707 97 689 97 661 C97 633 115 615 143 615 L143 615 Z M295 77 L295 -10 L307 -10 L403 14 L403 15 L379 15 C371 15 366 28 366 92 L366 478 L366 500 L316 500 L266 500 L266 499 L286 493 C291 491 295 488 295 478 L295 127 C271 73 234 38 199 38 C158 38 130 84 130 152 L130 477 L130 499 L80 499 L30 499 L30 498 L50 492 C55 490 59 487 59 477 L59 152 C59 54 102 -11 166 -11 C210 -11 260 42 293 123 L295 77 L295 77 Z " />
<glyph glyph-name="ydieresis" unicode="&#xff;" horiz-adv-x="430" d="M298 615 C326 615 344 633 344 661 C344 689 326 707 298 707 C270 707 252 689 252 661 C252 633 270 615 298 615 L298 615 Z M159 615 C186 615 204 633 204 661 C204 689 186 707 159 707 C131 707 113 689 113 661 C113 633 131 615 159 615 L159 615 Z M45 466 L199 -10 L162 -140 C158 -155 146 -165 132 -165 C115 -165 109 -140 92 -140 C67 -140 51 -154 51 -175 C51 -201 68 -219 93 -219 C131 -219 164 -195 175 -159 L220 -10 L361 447 L361 447 C362 451 363 455 364 458 L375 494 L414 499 L414 500 L377 500 L359 500 L345 500 L303 500 L303 499 L343 493 L337 474 C336 471 335 467 334 463 L334 463 L226 87 L113 494 L144 499 L144 500 L111 500 L73 500 L33 500 L3 500 L3 499 L35 494 L43 470 C43 469 43 468 43 467 L45 466 L45 466 Z " />
<glyph glyph-name="Amacron" unicode="&#x100;" horiz-adv-x="606" d="M188 898 L423 898 L423 947 L188 947 L188 898 L188 898 Z M161 296 L383 296 L429 127 L429 127 C457 27 459 8 456 7 L405 1 L405 0 L464 0 L497 0 L548 0 L589 0 L589 1 L546 7 L345 725 L332 770 L324 770 C307 745 283 727 266 725 L269 715 L268 715 L102 82 C85 22 78 8 73 7 L22 1 L22 0 L80 0 L84 0 L89 0 L156 0 L156 1 L99 7 C92 8 92 27 114 115 L161 296 L161 296 Z M162 298 L270 710 L382 298 L162 298 L162 298 Z " />
<glyph glyph-name="amacron" unicode="&#x101;" horiz-adv-x="478" d="M132 648 L366 648 L366 697 L132 697 L132 648 L132 648 Z M364 93 C333 52 291 24 258 24 C176 24 121 123 121 271 C121 401 167 488 256 488 C311 488 351 449 363 398 L363 96 L364 93 L364 93 Z M363 67 L363 -11 L375 -11 L471 13 L471 14 L447 14 C439 14 434 30 434 111 L434 449 L434 509 L425 509 L373 459 C344 489 300 509 247 509 C116 509 48 406 48 251 C48 97 120 -6 228 -6 C276 -6 329 23 362 68 L363 67 L363 67 Z " />
<glyph glyph-name="Abreve" unicode="&#x102;" horiz-adv-x="606" d="M199 994 C204 924 247 877 305 877 C364 877 406 923 412 993 L397 995 C394 955 357 928 305 928 C254 928 217 955 214 997 L199 994 L199 994 Z M161 296 L383 296 L429 127 L429 127 C457 27 459 8 456 7 L405 1 L405 0 L464 0 L497 0 L548 0 L589 0 L589 1 L546 7 L345 725 L332 770 L324 770 C307 745 283 727 266 725 L269 715 L268 715 L102 82 C85 22 78 8 73 7 L22 1 L22 0 L80 0 L84 0 L89 0 L156 0 L156 1 L99 7 C92 8 92 27 114 115 L161 296 L161 296 Z M162 298 L270 710 L382 298 L162 298 L162 298 Z " />
<glyph glyph-name="abreve" unicode="&#x103;" horiz-adv-x="478" d="M143 744 C148 674 190 627 249 627 C308 627 350 673 355 743 L340 745 C337 705 301 678 249 678 C197 678 160 705 157 747 L143 744 L143 744 Z M364 93 C333 52 291 24 258 24 C176 24 121 123 121 271 C121 401 167 488 256 488 C311 488 351 449 363 398 L363 96 L364 93 L364 93 Z M363 67 L363 -11 L375 -11 L471 13 L471 14 L447 14 C439 14 434 30 434 111 L434 449 L434 509 L425 509 L373 459 C344 489 300 509 247 509 C116 509 48 406 48 251 C48 97 120 -6 228 -6 C276 -6 329 23 362 68 L363 67 L363 67 Z " />
<glyph glyph-name="Cacute" unicode="&#x106;" horiz-adv-x="667" d="M380 813 L521 934 C561 969 587 994 587 999 C587 1019 571 1035 552 1035 C547 1035 522 1008 489 966 L371 822 L380 813 L380 813 Z M538 712 C495 742 444 760 373 760 C182 760 55 606 55 375 C55 144 178 -10 364 -10 C430 -10 483 7 529 36 C544 44 582 64 615 82 C619 84 622 79 622 69 L622 120 L622 120 L621 121 L621 173 C621 173 618 169 614 164 C577 116 515 50 483 28 C446 5 406 -8 363 -8 C229 -8 140 145 140 374 C140 603 233 756 372 756 C406 756 436 749 463 736 C499 714 570 640 613 585 C618 580 621 576 621 576 L621 628 L621 629 L621 679 C621 679 618 674 613 667 C613 666 583 683 536 712 L538 712 L538 712 Z " />
<glyph glyph-name="Ccircumflex" unicode="&#x108;" horiz-adv-x="667" d="M373 957 L514 807 L524 815 L398 1009 C393 1016 381 1034 373 1034 C365 1034 353 1017 348 1009 L222 815 L232 807 L373 957 L373 957 Z M538 712 C495 742 444 760 373 760 C182 760 55 606 55 375 C55 144 178 -10 364 -10 C430 -10 483 7 529 36 C544 44 582 64 615 82 C619 84 622 79 622 69 L622 120 L622 120 L621 121 L621 173 C621 173 618 169 614 164 C577 116 515 50 483 28 C446 5 406 -8 363 -8 C229 -8 140 145 140 374 C140 603 233 756 372 756 C406 756 436 749 463 736 C499 714 570 640 613 585 C618 580 621 576 621 576 L621 628 L621 629 L621 679 C621 679 618 674 613 667 C613 666 583 683 536 712 L538 712 L538 712 Z " />
<glyph glyph-name="Cdot" unicode="&#x10a;" horiz-adv-x="667" d="M373 865 C401 865 419 883 419 911 C419 939 401 957 373 957 C345 957 327 939 327 911 C327 883 345 865 373 865 L373 865 Z M538 712 C495 742 444 760 373 760 C182 760 55 606 55 375 C55 144 178 -10 364 -10 C430 -10 483 7 529 36 C544 44 582 64 615 82 C619 84 622 79 622 69 L622 120 L622 120 L621 121 L621 173 C621 173 618 169 614 164 C577 116 515 50 483 28 C446 5 406 -8 363 -8 C229 -8 140 145 140 374 C140 603 233 756 372 756 C406 756 436 749 463 736 C499 714 570 640 613 585 C618 580 621 576 621 576 L621 628 L621 629 L621 679 C621 679 618 674 613 667 C613 666 583 683 536 712 L538 712 L538 712 Z " />
<glyph glyph-name="cdot" unicode="&#x10b;" horiz-adv-x="433" d="M256 615 C284 615 302 633 302 661 C302 689 284 707 256 707 C229 707 210 689 210 661 C210 633 229 615 256 615 L256 615 Z M404 128 L394 132 C368 73 317 33 268 33 C178 33 119 128 119 270 C119 404 172 494 252 494 C284 494 318 458 337 405 C345 383 359 369 373 369 C402 369 416 383 408 405 C385 468 325 510 256 510 C130 510 46 401 46 237 C46 89 125 -10 243 -10 C303 -10 367 45 404 128 L404 128 Z " />
<glyph glyph-name="Ccaron" unicode="&#x10c;" horiz-adv-x="667" d="M373 893 L514 1043 L524 1035 L398 841 C393 834 381 816 373 816 C365 816 353 833 348 841 L222 1035 L232 1043 L373 893 L373 893 Z M538 712 C495 742 444 760 373 760 C182 760 55 606 55 375 C55 144 178 -10 364 -10 C430 -10 483 7 529 36 C544 44 582 64 615 82 C619 84 622 79 622 69 L622 120 L622 120 L621 121 L621 173 C621 173 618 169 614 164 C577 116 515 50 483 28 C446 5 406 -8 363 -8 C229 -8 140 145 140 374 C140 603 233 756 372 756 C406 756 436 749 463 736 C499 714 570 640 613 585 C618 580 621 576 621 576 L621 628 L621 629 L621 679 C621 679 618 674 613 667 C613 666 583 683 536 712 L538 712 L538 712 Z " />
<glyph glyph-name="ccaron" unicode="&#x10d;" horiz-adv-x="433" d="M404 128 L394 132 C368 73 317 33 268 33 C178 33 119 128 119 270 C119 404 172 494 252 494 C284 494 318 458 337 405 C345 383 359 369 373 369 C402 369 416 383 408 405 C385 468 325 510 256 510 C130 510 46 401 46 237 C46 89 125 -10 243 -10 C303 -10 367 45 404 128 L404 128 Z M256 643 L398 793 L407 785 L282 591 C277 584 264 566 256 566 C249 566 236 583 231 591 L106 785 L115 793 L256 643 L256 643 Z " />
<glyph glyph-name="Dcaron" unicode="&#x10e;" horiz-adv-x="740" d="M356 893 L497 1043 L506 1035 L381 841 C376 834 363 816 356 816 C348 816 336 833 331 841 L205 1035 L215 1043 L356 893 L356 893 Z M114 678 L114 72 C114 21 107 10 96 7 L68 1 L68 0 L114 0 L130 0 L193 0 L255 0 C513 0 685 127 685 375 C685 600 550 750 287 750 L193 750 L130 750 L114 750 L68 750 L68 749 L96 743 C107 740 114 729 114 678 L114 678 Z M193 748 L277 748 C489 748 598 599 598 375 C598 129 460 2 252 2 C199 2 193 22 193 51 L193 72 L193 678 L193 748 L193 748 Z " />
<glyph glyph-name="dcaron" unicode="&#x10f;" horiz-adv-x="513" d="M562 643 C575 683 584 725 584 748 C584 755 571 758 552 758 C537 758 529 696 525 651 L517 540 L529 537 L562 643 L562 643 Z M399 94 C368 53 320 25 279 25 C185 25 122 124 122 272 C122 402 176 489 280 489 C321 489 370 445 399 392 L399 96 L399 94 L399 94 Z M399 67 L399 -11 L411 -11 L507 13 L507 14 L483 14 C475 14 470 30 470 111 L470 670 L470 749 L457 749 L362 722 L362 721 L362 720 L386 721 C394 721 399 710 399 654 L399 460 C365 489 318 509 271 509 C124 509 49 406 49 251 C49 97 129 -6 249 -6 C306 -6 365 23 399 68 L399 67 L399 67 Z " />
<glyph glyph-name="Emacron" unicode="&#x112;" horiz-adv-x="538" d="M169 898 L404 898 L404 947 L169 947 L169 898 L169 898 Z M377 0 L484 0 C485 8 487 20 488 29 C489 37 491 49 492 57 L491 57 L481 26 C476 12 457 3 377 3 L244 3 C198 3 193 22 193 51 L193 72 L193 385 L292 385 C371 385 388 373 392 355 L398 324 L399 324 L399 385 L399 386 L399 388 L399 449 L398 449 L392 418 C388 400 371 388 292 388 L193 388 L193 678 L193 747 L352 747 C448 747 450 738 454 724 L462 693 L463 693 C462 701 462 713 461 721 C460 730 460 742 459 750 L352 750 L193 750 L130 750 L114 750 L68 750 L68 749 L96 743 C107 740 114 729 114 678 L114 72 C114 21 107 10 96 7 L68 1 L68 0 L114 0 L130 0 L193 0 L377 0 L377 0 Z " />
<glyph glyph-name="emacron" unicode="&#x113;" horiz-adv-x="474" d="M148 648 L382 648 L382 697 L148 697 L148 648 L148 648 Z M126 340 L366 340 L425 340 L445 340 C423 462 355 510 265 510 C132 510 44 399 44 233 C44 87 124 -10 245 -10 C326 -10 402 47 433 133 L424 136 C403 77 338 37 262 37 C176 37 119 127 119 262 C119 290 121 316 125 340 L126 340 L126 340 Z M418 361 C420 361 422 361 424 361 L418 361 L418 361 Z M361 360 L128 357 C148 442 196 494 260 494 C304 494 341 456 361 360 L361 360 Z " />
<glyph glyph-name="Ebreve" unicode="&#x114;" horiz-adv-x="538" d="M180 994 C185 924 228 877 286 877 C345 877 388 923 393 993 L378 995 C375 955 338 928 286 928 C235 928 198 955 195 997 L180 994 L180 994 Z M377 0 L484 0 C485 8 487 20 488 29 C489 37 491 49 492 57 L491 57 L481 26 C476 12 457 3 377 3 L244 3 C198 3 193 22 193 51 L193 72 L193 385 L292 385 C371 385 388 373 392 355 L398 324 L399 324 L399 385 L399 386 L399 388 L399 449 L398 449 L392 418 C388 400 371 388 292 388 L193 388 L193 678 L193 747 L352 747 C448 747 450 738 454 724 L462 693 L463 693 C462 701 462 713 461 721 C460 730 460 742 459 750 L352 750 L193 750 L130 750 L114 750 L68 750 L68 749 L96 743 C107 740 114 729 114 678 L114 72 C114 21 107 10 96 7 L68 1 L68 0 L114 0 L130 0 L193 0 L377 0 L377 0 Z " />
<glyph glyph-name="ebreve" unicode="&#x115;" horiz-adv-x="474" d="M159 744 C164 674 206 627 265 627 C324 627 366 673 371 743 L356 745 C353 705 317 678 265 678 C213 678 176 705 173 747 L159 744 L159 744 Z M126 340 L366 340 L425 340 L445 340 C423 462 355 510 265 510 C132 510 44 399 44 233 C44 87 124 -10 245 -10 C326 -10 402 47 433 133 L424 136 C403 77 338 37 262 37 C176 37 119 127 119 262 C119 290 121 316 125 340 L126 340 L126 340 Z M418 361 C420 361 422 361 424 361 L418 361 L418 361 Z M361 360 L128 357 C148 442 196 494 260 494 C304 494 341 456 361 360 L361 360 Z " />
<glyph glyph-name="Edot" unicode="&#x116;" horiz-adv-x="538" d="M286 865 C314 865 332 883 332 911 C332 939 314 957 286 957 C259 957 240 939 240 911 C240 883 259 865 286 865 L286 865 Z M377 0 L484 0 C485 8 487 20 488 29 C489 37 491 49 492 57 L491 57 L481 26 C476 12 457 3 377 3 L244 3 C198 3 193 22 193 51 L193 72 L193 385 L292 385 C371 385 388 373 392 355 L398 324 L399 324 L399 385 L399 386 L399 388 L399 449 L398 449 L392 418 C388 400 371 388 292 388 L193 388 L193 678 L193 747 L352 747 C448 747 450 738 454 724 L462 693 L463 693 C462 701 462 713 461 721 C460 730 460 742 459 750 L352 750 L193 750 L130 750 L114 750 L68 750 L68 749 L96 743 C107 740 114 729 114 678 L114 72 C114 21 107 10 96 7 L68 1 L68 0 L114 0 L130 0 L193 0 L377 0 L377 0 Z " />
<glyph glyph-name="edot" unicode="&#x117;" horiz-adv-x="474" d="M265 615 C293 615 311 633 311 661 C311 689 293 707 265 707 C237 707 219 689 219 661 C219 633 237 615 265 615 L265 615 Z M126 340 L366 340 L425 340 L445 340 C423 462 355 510 265 510 C132 510 44 399 44 233 C44 87 124 -10 245 -10 C326 -10 402 47 433 133 L424 136 C403 77 338 37 262 37 C176 37 119 127 119 262 C119 290 121 316 125 340 L126 340 L126 340 Z M418 361 C420 361 422 361 424 361 L418 361 L418 361 Z M361 360 L128 357 C148 442 196 494 260 494 C304 494 341 456 361 360 L361 360 Z " />
<glyph glyph-name="Ecaron" unicode="&#x11a;" horiz-adv-x="538" d="M286 893 L428 1043 L437 1035 L312 841 C307 834 294 816 286 816 C279 816 266 833 261 841 L136 1035 L145 1043 L286 893 L286 893 Z M377 0 L484 0 C485 8 487 20 488 29 C489 37 491 49 492 57 L491 57 L481 26 C476 12 457 3 377 3 L244 3 C198 3 193 22 193 51 L193 72 L193 385 L292 385 C371 385 388 373 392 355 L398 324 L399 324 L399 385 L399 386 L399 388 L399 449 L398 449 L392 418 C388 400 371 388 292 388 L193 388 L193 678 L193 747 L352 747 C448 747 450 738 454 724 L462 693 L463 693 C462 701 462 713 461 721 C460 730 460 742 459 750 L352 750 L193 750 L130 750 L114 750 L68 750 L68 749 L96 743 C107 740 114 729 114 678 L114 72 C114 21 107 10 96 7 L68 1 L68 0 L114 0 L130 0 L193 0 L377 0 L377 0 Z " />
<glyph glyph-name="ecaron" unicode="&#x11b;" horiz-adv-x="474" d="M265 643 L406 793 L416 785 L290 591 C285 584 273 566 265 566 C257 566 245 583 240 591 L114 785 L124 793 L265 643 L265 643 Z M126 340 L366 340 L425 340 L445 340 C423 462 355 510 265 510 C132 510 44 399 44 233 C44 87 124 -10 245 -10 C326 -10 402 47 433 133 L424 136 C403 77 338 37 262 37 C176 37 119 127 119 262 C119 290 121 316 125 340 L126 340 L126 340 Z M418 361 C420 361 422 361 424 361 L418 361 L418 361 Z M361 360 L128 357 C148 442 196 494 260 494 C304 494 341 456 361 360 L361 360 Z " />
<glyph glyph-name="Gcircumflex" unicode="&#x11c;" horiz-adv-x="710" d="M373 957 L514 807 L524 815 L398 1009 C393 1016 381 1034 373 1034 C365 1034 353 1017 348 1009 L222 815 L232 807 L373 957 L373 957 Z M526 258 L528 19 L528 19 L527 97 C527 44 468 9 379 9 C237 9 142 155 142 375 C142 604 235 757 374 757 C408 757 438 750 465 737 C501 715 572 641 615 586 C620 581 623 577 623 577 L623 629 L623 630 L623 680 C623 680 620 675 615 668 C615 667 585 684 538 713 C495 743 444 761 373 761 C182 761 55 607 55 376 C55 145 182 -9 372 -9 C437 -9 496 0 551 16 L605 29 L605 33 C630 42 654 52 678 63 L677 64 C655 54 631 45 605 37 L605 258 C605 305 610 315 618 318 L642 324 L642 325 L562 325 L482 325 L482 324 L509 318 C519 315 526 305 526 258 L526 258 Z " />
<glyph glyph-name="Gbreve" unicode="&#x11e;" horiz-adv-x="710" d="M267 994 C272 924 314 877 373 877 C432 877 474 923 479 993 L464 995 C461 955 425 928 373 928 C321 928 285 955 281 997 L267 994 L267 994 Z M526 258 L528 19 L528 19 L527 97 C527 44 468 9 379 9 C237 9 142 155 142 375 C142 604 235 757 374 757 C408 757 438 750 465 737 C501 715 572 641 615 586 C620 581 623 577 623 577 L623 629 L623 630 L623 680 C623 680 620 675 615 668 C615 667 585 684 538 713 C495 743 444 761 373 761 C182 761 55 607 55 376 C55 145 182 -9 372 -9 C437 -9 496 0 551 16 L605 29 L605 33 C630 42 654 52 678 63 L677 64 C655 54 631 45 605 37 L605 258 C605 305 610 315 618 318 L642 324 L642 325 L562 325 L482 325 L482 324 L509 318 C519 315 526 305 526 258 L526 258 Z " />
<glyph glyph-name="gbreve" unicode="&#x11f;" horiz-adv-x="476" d="M128 744 C134 674 176 627 235 627 C294 627 336 673 341 743 L326 745 C323 705 286 678 235 678 C183 678 146 705 143 747 L128 744 L128 744 Z M149 350 C149 436 183 493 235 493 C286 493 320 436 320 350 C320 263 286 205 235 205 C183 205 149 263 149 350 L149 350 Z M151 8 C156 8 161 8 166 8 L268 8 C351 8 383 -30 383 -88 C383 -163 329 -213 249 -213 C164 -213 107 -158 107 -76 C107 -38 124 -6 151 9 L151 8 L151 8 Z M134 12 C81 -5 48 -45 48 -92 C48 -174 127 -228 245 -228 C363 -228 441 -165 441 -70 C441 19 395 79 275 79 L170 79 C127 80 98 100 98 129 C98 166 153 190 235 190 C328 190 391 255 391 352 C391 369 389 385 385 400 C407 440 436 467 459 467 C471 467 479 454 479 433 C479 419 492 409 512 409 C530 409 541 422 541 442 C541 475 520 497 489 497 C450 497 407 465 380 416 C358 475 305 512 235 512 C141 512 78 448 78 352 C78 278 115 223 174 201 C102 189 57 155 57 108 C57 59 87 23 134 12 L134 12 Z " />
<glyph glyph-name="Gdot" unicode="&#x120;" horiz-adv-x="710" d="M373 865 C401 865 419 883 419 911 C419 939 401 957 373 957 C345 957 327 939 327 911 C327 883 345 865 373 865 L373 865 Z M526 258 L528 19 L528 19 L527 97 C527 44 468 9 379 9 C237 9 142 155 142 375 C142 604 235 757 374 757 C408 757 438 750 465 737 C501 715 572 641 615 586 C620 581 623 577 623 577 L623 629 L623 630 L623 680 C623 680 620 675 615 668 C615 667 585 684 538 713 C495 743 444 761 373 761 C182 761 55 607 55 376 C55 145 182 -9 372 -9 C437 -9 496 0 551 16 L605 29 L605 33 C630 42 654 52 678 63 L677 64 C655 54 631 45 605 37 L605 258 C605 305 610 315 618 318 L642 324 L642 325 L562 325 L482 325 L482 324 L509 318 C519 315 526 305 526 258 L526 258 Z " />
<glyph glyph-name="gdot" unicode="&#x121;" horiz-adv-x="476" d="M235 615 C262 615 281 633 281 661 C281 689 262 707 235 707 C207 707 189 689 189 661 C189 633 207 615 235 615 L235 615 Z M149 350 C149 436 183 493 235 493 C286 493 320 436 320 350 C320 263 286 205 235 205 C183 205 149 263 149 350 L149 350 Z M151 8 C156 8 161 8 166 8 L268 8 C351 8 383 -30 383 -88 C383 -163 329 -213 249 -213 C164 -213 107 -158 107 -76 C107 -38 124 -6 151 9 L151 8 L151 8 Z M134 12 C81 -5 48 -45 48 -92 C48 -174 127 -228 245 -228 C363 -228 441 -165 441 -70 C441 19 395 79 275 79 L170 79 C127 80 98 100 98 129 C98 166 153 190 235 190 C328 190 391 255 391 352 C391 369 389 385 385 400 C407 440 436 467 459 467 C471 467 479 454 479 433 C479 419 492 409 512 409 C530 409 541 422 541 442 C541 475 520 497 489 497 C450 497 407 465 380 416 C358 475 305 512 235 512 C141 512 78 448 78 352 C78 278 115 223 174 201 C102 189 57 155 57 108 C57 59 87 23 134 12 L134 12 Z " />
<glyph glyph-name="Hcircumflex" unicode="&#x124;" horiz-adv-x="715" d="M378 957 L520 807 L529 815 L404 1009 C399 1016 386 1034 379 1034 C371 1034 359 1017 354 1009 L228 815 L237 807 L378 957 L378 957 Z M607 67 L607 683 C607 730 614 740 625 743 L653 749 L653 750 L568 750 L482 750 L482 749 L510 743 C521 740 528 730 528 683 L528 385 L229 385 L229 683 C229 730 236 740 247 743 L275 749 L275 750 L189 750 L104 750 L104 749 L132 743 C143 740 150 730 150 683 L150 67 C150 20 143 10 132 7 L104 1 L104 0 L189 0 L275 0 L275 1 L247 7 C236 10 229 20 229 67 L229 381 L528 381 L528 67 C528 20 521 10 510 7 L482 1 L482 0 L568 0 L653 0 L653 1 L625 7 C614 10 607 20 607 67 L607 67 Z " />
<glyph glyph-name="Itilde" unicode="&#x128;" horiz-adv-x="301" d="M41 870 C41 907 55 932 75 932 C125 932 161 867 212 867 C245 867 268 911 268 978 L266 978 C266 942 251 918 228 918 C178 918 142 983 91 983 C60 983 39 938 39 870 L41 870 L41 870 Z M193 67 L193 683 C193 730 200 740 211 743 L239 749 L239 750 L153 750 L68 750 L68 749 L96 743 C107 740 114 730 114 683 L114 67 C114 20 107 10 96 7 L68 1 L68 0 L153 0 L239 0 L239 1 L211 7 C200 10 193 20 193 67 L193 67 Z " />
<glyph glyph-name="itilde" unicode="&#x129;" horiz-adv-x="262" d="M41 620 C41 657 55 682 75 682 C126 682 162 617 212 617 C246 617 269 661 269 728 L267 728 C267 692 251 668 228 668 C178 668 142 733 92 733 C60 733 39 688 39 620 L41 620 L41 620 Z M189 22 L189 396 L189 500 L177 500 L83 445 L83 444 C112 425 118 418 118 396 L118 22 C118 12 113 9 106 7 L83 1 L83 0 L154 0 L226 0 L226 1 L202 7 C194 10 189 13 189 22 L189 22 Z " />
<glyph glyph-name="Imacron" unicode="&#x12a;" horiz-adv-x="301" d="M36 898 L271 898 L271 947 L36 947 L36 898 L36 898 Z M193 67 L193 683 C193 730 200 740 211 743 L239 749 L239 750 L153 750 L68 750 L68 749 L96 743 C107 740 114 730 114 683 L114 67 C114 20 107 10 96 7 L68 1 L68 0 L153 0 L239 0 L239 1 L211 7 C200 10 193 20 193 67 L193 67 Z " />
<glyph glyph-name="imacron" unicode="&#x12b;" horiz-adv-x="262" d="M37 648 L271 648 L271 697 L37 697 L37 648 L37 648 Z M189 22 L189 396 L189 500 L177 500 L83 445 L83 444 C112 425 118 418 118 396 L118 22 C118 12 113 9 106 7 L83 1 L83 0 L154 0 L226 0 L226 1 L202 7 C194 10 189 13 189 22 L189 22 Z " />
<glyph glyph-name="Ibreve" unicode="&#x12c;" horiz-adv-x="301" d="M47 994 C52 924 95 877 153 877 C212 877 255 923 260 993 L245 995 C242 955 205 928 153 928 C102 928 65 955 62 997 L47 994 L47 994 Z M193 67 L193 683 C193 730 200 740 211 743 L239 749 L239 750 L153 750 L68 750 L68 749 L96 743 C107 740 114 730 114 683 L114 67 C114 20 107 10 96 7 L68 1 L68 0 L153 0 L239 0 L239 1 L211 7 C200 10 193 20 193 67 L193 67 Z " />
<glyph glyph-name="ibreve" unicode="&#x12d;" horiz-adv-x="262" d="M47 744 C53 674 95 627 154 627 C213 627 255 673 260 743 L245 745 C242 705 206 678 154 678 C102 678 65 705 62 747 L47 744 L47 744 Z M189 22 L189 396 L189 500 L177 500 L83 445 L83 444 C112 425 118 418 118 396 L118 22 C118 12 113 9 106 7 L83 1 L83 0 L154 0 L226 0 L226 1 L202 7 C194 10 189 13 189 22 L189 22 Z " />
<glyph glyph-name="Idot" unicode="&#x130;" horiz-adv-x="301" d="M153 865 C181 865 199 883 199 911 C199 939 181 957 153 957 C126 957 108 939 108 911 C108 883 126 865 153 865 L153 865 Z M193 67 L193 683 C193 730 200 740 211 743 L239 749 L239 750 L153 750 L68 750 L68 749 L96 743 C107 740 114 730 114 683 L114 67 C114 20 107 10 96 7 L68 1 L68 0 L153 0 L239 0 L239 1 L211 7 C200 10 193 20 193 67 L193 67 Z " />
<glyph glyph-name="dotlessi" unicode="&#x131;" horiz-adv-x="262" d="M189 22 L189 396 L189 500 L177 500 L83 445 L83 444 C112 425 118 418 118 396 L118 22 C118 12 113 9 106 7 L83 1 L83 0 L154 0 L226 0 L226 1 L202 7 C194 10 189 13 189 22 L189 22 Z " />
<glyph glyph-name="Jcircumflex" unicode="&#x134;" horiz-adv-x="301" d="M153 957 L295 807 L304 815 L179 1009 C174 1016 161 1034 153 1034 C146 1034 133 1017 129 1009 L3 815 L12 807 L153 957 L153 957 Z M114 683 L114 -53 C114 -190 49 -216 2 -216 C-38 -216 -21 -149 -61 -149 C-84 -149 -99 -164 -99 -187 C-99 -207 -60 -220 -1 -220 C80 -220 193 -169 193 97 L193 683 C193 730 200 740 211 743 L239 749 L239 750 L153 750 L68 750 L68 749 L96 743 C107 740 114 730 114 683 L114 683 Z " />
<glyph glyph-name="Lacute" unicode="&#x139;" horiz-adv-x="511" d="M161 813 L302 934 C341 969 368 994 368 999 C368 1019 352 1035 333 1035 C328 1035 303 1008 269 966 L152 822 L161 813 L161 813 Z M301 13 L473 13 L473 13 C475 23 478 33 481 42 C484 55 489 72 492 84 L492 85 C492 86 491 86 491 86 L477 55 C466 30 433 13 301 13 L301 13 Z M301 13 L244 13 C198 13 193 28 193 51 L193 72 L193 678 C193 729 200 740 211 743 L239 749 L239 750 L193 750 L153 750 L114 750 L68 750 L68 749 L96 743 C107 740 114 729 114 678 L114 72 C114 21 107 10 96 7 L68 1 L68 0 L114 0 L130 0 L193 0 L298 0 L470 0 L301 13 L301 13 Z " />
<glyph glyph-name="Lcaron" unicode="&#x13d;" horiz-adv-x="511" d="M349 693 C362 733 370 775 370 798 C370 805 357 808 339 808 C324 808 315 746 312 701 L304 590 L316 587 L349 693 L349 693 Z M301 13 L473 13 L473 13 C475 23 478 33 481 42 C484 55 489 72 492 84 L492 85 C492 86 491 86 491 86 L477 55 C466 30 433 13 301 13 L301 13 Z M301 13 L244 13 C198 13 193 28 193 51 L193 72 L193 678 C193 729 200 740 211 743 L239 749 L239 750 L193 750 L153 750 L114 750 L68 750 L68 749 L96 743 C107 740 114 729 114 678 L114 72 C114 21 107 10 96 7 L68 1 L68 0 L114 0 L130 0 L193 0 L298 0 L470 0 L301 13 L301 13 Z " />
<glyph glyph-name="lcaron" unicode="&#x13e;" horiz-adv-x="226" d="M245 643 C258 683 266 725 266 748 C266 755 253 758 235 758 C220 758 212 696 208 651 L200 540 L212 537 L245 643 L245 643 Z M153 22 L153 688 L153 750 L140 750 L44 723 L44 722 L44 721 L68 722 C77 722 82 714 82 671 L82 22 C82 12 77 9 70 7 L47 1 L47 0 L117 0 L188 0 L188 1 L165 7 C158 9 153 12 153 22 L153 22 Z " />
<glyph glyph-name="Nacute" unicode="&#x143;" horiz-adv-x="647" d="M228 813 L369 934 C409 969 436 994 436 999 C436 1019 419 1035 400 1035 C395 1035 370 1008 337 966 L219 822 L228 813 L228 813 Z M126 127 L125 127 L123 623 L445 113 L517 0 L533 0 L537 643 L538 643 C537 724 546 740 560 743 L592 749 L592 750 L538 750 L526 750 L515 750 L460 750 L460 749 L493 743 C506 740 515 724 515 643 L515 643 L516 149 L512 154 L140 750 L121 750 L102 750 L77 750 L41 750 L14 750 L14 749 L44 745 L102 654 L101 137 L101 137 C101 29 99 8 95 7 L46 1 L46 0 L101 0 L112 0 L124 0 L179 0 L179 1 L130 7 C126 8 124 27 124 127 L126 127 L126 127 Z " />
<glyph glyph-name="Ncaron" unicode="&#x147;" horiz-adv-x="647" d="M126 127 L125 127 L123 623 L445 113 L517 0 L533 0 L537 643 L538 643 C537 724 546 740 560 743 L592 749 L592 750 L538 750 L526 750 L515 750 L460 750 L460 749 L493 743 C506 740 515 724 515 643 L515 643 L516 149 L512 154 L140 750 L121 750 L102 750 L77 750 L41 750 L14 750 L14 749 L44 745 L102 654 L101 137 L101 137 C101 29 99 8 95 7 L46 1 L46 0 L101 0 L112 0 L124 0 L179 0 L179 1 L130 7 C126 8 124 27 124 127 L126 127 L126 127 Z M319 893 L460 1043 L470 1035 L344 841 C339 834 327 816 319 816 C311 816 299 833 294 841 L168 1035 L178 1043 L319 893 L319 893 Z " />
<glyph glyph-name="ncaron" unicode="&#x148;" horiz-adv-x="473" d="M238 643 L379 793 L389 785 L263 591 C258 584 246 566 238 566 C230 566 218 583 213 591 L87 785 L97 793 L238 643 L238 643 Z M329 22 C329 12 324 9 317 7 L294 1 L294 0 L365 0 L435 0 L435 1 L413 7 C405 9 400 12 400 22 L400 361 C400 450 361 510 286 510 C224 510 168 462 147 390 L147 438 L147 500 L134 500 L38 465 L38 464 L62 467 C71 467 76 460 76 417 L76 22 C76 12 71 9 64 7 L41 1 L41 0 L111 0 L182 0 L182 1 L159 7 C152 9 147 12 147 22 L147 380 C164 438 212 477 267 477 C308 477 329 431 329 361 L329 22 L329 22 Z " />
<glyph glyph-name="Omacron" unicode="&#x14c;" horiz-adv-x="778" d="M267 898 L501 898 L501 947 L267 947 L267 898 L267 898 Z M374 -7 C237 -7 145 146 145 375 C145 604 240 757 383 757 C532 757 632 604 632 375 C632 146 529 -7 374 -7 L374 -7 Z M54 375 C54 144 182 -10 374 -10 C583 -10 723 144 723 375 C723 606 587 760 384 760 C186 760 54 606 54 375 L54 375 Z " />
<glyph glyph-name="omacron" unicode="&#x14d;" horiz-adv-x="565" d="M165 648 L399 648 L399 697 L165 697 L165 648 L165 648 Z M282 -7 C187 -7 123 96 123 250 C123 404 187 507 282 507 C378 507 442 404 442 250 C442 96 378 -7 282 -7 L282 -7 Z M44 250 C44 94 139 -10 282 -10 C425 -10 520 94 520 250 C520 406 425 510 282 510 C139 510 44 406 44 250 L44 250 Z " />
<glyph glyph-name="Obreve" unicode="&#x14e;" horiz-adv-x="778" d="M277 994 C283 924 325 877 384 877 C443 877 485 923 490 993 L475 995 C472 955 435 928 384 928 C332 928 295 955 292 997 L277 994 L277 994 Z M374 -7 C237 -7 145 146 145 375 C145 604 240 757 383 757 C532 757 632 604 632 375 C632 146 529 -7 374 -7 L374 -7 Z M54 375 C54 144 182 -10 374 -10 C583 -10 723 144 723 375 C723 606 587 760 384 760 C186 760 54 606 54 375 L54 375 Z " />
<glyph glyph-name="obreve" unicode="&#x14f;" horiz-adv-x="565" d="M176 744 C181 674 224 627 282 627 C341 627 383 673 389 743 L374 745 C371 705 334 678 282 678 C231 678 194 705 191 747 L176 744 L176 744 Z M282 -7 C187 -7 123 96 123 250 C123 404 187 507 282 507 C378 507 442 404 442 250 C442 96 378 -7 282 -7 L282 -7 Z M44 250 C44 94 139 -10 282 -10 C425 -10 520 94 520 250 C520 406 425 510 282 510 C139 510 44 406 44 250 L44 250 Z " />
<glyph glyph-name="Racute" unicode="&#x154;" horiz-adv-x="609" d="M270 813 L411 934 C451 969 477 994 477 999 C477 1019 461 1035 442 1035 C437 1035 412 1008 378 966 L261 822 L270 813 L270 813 Z M599 0 L599 6 C536 6 532 8 502 67 C425 216 368 326 347 367 C440 385 499 441 499 540 C499 667 408 751 273 751 L193 751 L130 751 L68 751 L68 750 L96 744 C107 741 114 730 114 679 L114 73 C114 22 107 11 96 8 L68 2 L68 1 L153 1 L239 1 L239 2 L211 8 C200 11 193 22 193 73 L193 361 L267 361 C280 323 334 211 408 68 C441 4 448 1 598 1 L599 0 L599 0 Z M192 735 L248 735 C346 735 411 663 411 556 C411 435 355 381 272 381 L192 381 L192 679 L192 735 L192 735 Z " />
<glyph glyph-name="Rcaron" unicode="&#x158;" horiz-adv-x="609" d="M599 0 L599 6 C536 6 532 8 502 67 C425 216 368 326 347 367 C440 385 499 441 499 540 C499 667 408 751 273 751 L193 751 L130 751 L68 751 L68 750 L96 744 C107 741 114 730 114 679 L114 73 C114 22 107 11 96 8 L68 2 L68 1 L153 1 L239 1 L239 2 L211 8 C200 11 193 22 193 73 L193 361 L267 361 C280 323 334 211 408 68 C441 4 448 1 598 1 L599 0 L599 0 Z M262 894 L403 1044 L412 1036 L287 842 C282 835 269 817 262 817 C254 817 242 834 237 842 L111 1036 L121 1044 L262 894 L262 894 Z M192 735 L248 735 C346 735 411 663 411 556 C411 435 355 381 272 381 L192 381 L192 679 L192 735 L192 735 Z " />
<glyph glyph-name="rcaron" unicode="&#x159;" horiz-adv-x="337" d="M198 643 L340 793 L349 785 L224 591 C219 584 206 566 199 566 C191 566 179 583 174 591 L48 785 L57 793 L198 643 L198 643 Z M149 376 L149 376 L149 371 C149 373 149 375 149 377 L149 376 L149 376 Z M153 418 L153 439 L153 501 L140 501 L44 466 L44 465 L68 468 C77 468 82 461 82 418 L82 23 C82 13 77 10 71 8 L49 2 L49 1 L119 1 L190 1 L190 2 L166 8 C158 11 153 14 153 23 L153 410 C163 452 193 478 233 478 C240 478 244 464 244 443 C244 418 261 401 286 401 C311 401 328 418 328 443 C328 484 303 511 266 511 C208 511 166 475 153 418 L153 418 Z " />
<glyph glyph-name="Sacute" unicode="&#x15a;" horiz-adv-x="504" d="M259 813 L400 934 C440 969 467 994 467 999 C467 1019 451 1035 431 1035 C426 1035 401 1008 368 966 L250 822 L259 813 L259 813 Z M268 751 C300 735 370 662 416 604 C420 599 423 595 423 595 L423 643 L423 644 L423 693 C423 693 420 688 416 680 C415 679 395 693 366 714 C329 743 282 760 233 760 C134 760 67 684 67 569 C67 472 127 382 245 334 C347 292 400 228 400 166 C400 63 347 -6 269 -6 C240 -6 210 5 181 25 C175 33 111 117 59 187 C54 193 51 197 51 196 L51 148 L51 141 L51 85 L59 101 C59 101 89 78 134 42 L134 42 C175 10 223 -9 270 -9 C386 -9 464 71 464 190 C464 284 406 371 294 417 C186 461 131 531 131 601 C131 695 172 758 234 758 C258 758 282 751 305 739 L268 751 L268 751 Z M268 752 L260 755 C262 755 265 754 268 752 L268 752 Z " />
<glyph glyph-name="Scircumflex" unicode="&#x15c;" horiz-adv-x="504" d="M252 957 L393 807 L403 815 L277 1009 C272 1016 260 1034 252 1034 C244 1034 232 1017 227 1009 L101 815 L111 807 L252 957 L252 957 Z M268 751 C300 735 370 662 416 604 C420 599 423 595 423 595 L423 643 L423 644 L423 693 C423 693 420 688 416 680 C415 679 395 693 366 714 C329 743 282 760 233 760 C134 760 67 684 67 569 C67 472 127 382 245 334 C347 292 400 228 400 166 C400 63 347 -6 269 -6 C240 -6 210 5 181 25 C175 33 111 117 59 187 C54 193 51 197 51 196 L51 148 L51 141 L51 85 L59 101 C59 101 89 78 134 42 L134 42 C175 10 223 -9 270 -9 C386 -9 464 71 464 190 C464 284 406 371 294 417 C186 461 131 531 131 601 C131 695 172 758 234 758 C258 758 282 751 305 739 L268 751 L268 751 Z M268 752 L260 755 C262 755 265 754 268 752 L268 752 Z " />
<glyph glyph-name="Scaron" unicode="&#x160;" horiz-adv-x="504" d="M252 893 L393 1043 L403 1035 L277 841 C272 834 260 816 252 816 C244 816 232 833 227 841 L101 1035 L111 1043 L252 893 L252 893 Z M268 751 C300 735 370 662 416 604 C420 599 423 595 423 595 L423 643 L423 644 L423 693 C423 693 420 688 416 680 C415 679 395 693 366 714 C329 743 282 760 233 760 C134 760 67 684 67 569 C67 472 127 382 245 334 C347 292 400 228 400 166 C400 63 347 -6 269 -6 C240 -6 210 5 181 25 C175 33 111 117 59 187 C54 193 51 197 51 196 L51 148 L51 141 L51 85 L59 101 C59 101 89 78 134 42 L134 42 C175 10 223 -9 270 -9 C386 -9 464 71 464 190 C464 284 406 371 294 417 C186 461 131 531 131 601 C131 695 172 758 234 758 C258 758 282 751 305 739 L268 751 L268 751 Z M268 752 L260 755 C262 755 265 754 268 752 L268 752 Z " />
<glyph glyph-name="scaron" unicode="&#x161;" horiz-adv-x="394" d="M249 497 L247 497 C230 505 212 510 194 510 C121 510 72 459 72 383 C72 309 113 247 192 223 C256 203 289 158 289 107 C289 38 256 -7 207 -7 C205 -7 203 -7 201 -7 C188 -1 126 68 81 124 C77 128 75 131 75 131 L74 131 L73 131 L73 94 L73 57 L74 57 L75 57 C75 57 77 61 81 66 C74 55 105 25 165 -1 L167 -1 C181 -7 195 -10 209 -10 C291 -10 346 45 346 127 C346 195 305 253 225 277 C159 298 125 348 125 408 C125 467 153 507 196 507 C197 507 198 507 199 507 L197 507 C205 507 213 506 221 503 L200 507 C218 501 275 443 315 395 C318 391 321 388 321 388 L322 388 L322 425 L322 432 L322 476 L321 476 C321 476 318 471 315 463 C315 464 291 478 253 497 L249 497 L249 497 Z M211 643 L353 793 L362 785 L237 591 C232 584 219 566 211 566 C204 566 191 583 187 591 L61 785 L70 793 L211 643 L211 643 Z " />
<glyph glyph-name="Tcaron" unicode="&#x164;" horiz-adv-x="731" d="M366 893 L508 1043 L517 1035 L392 841 C387 834 374 816 367 816 C359 816 347 833 342 841 L216 1035 L225 1043 L366 893 L366 893 Z M677 731 L677 750 L670 750 C666 760 663 770 660 778 L659 778 L658 778 L663 750 L563 750 L406 750 L327 750 L171 750 L70 750 L75 778 L74 778 L73 778 C70 770 67 760 63 750 L56 750 L56 731 C51 717 45 699 40 685 C40 684 40 684 41 684 L58 715 C63 724 82 730 163 730 L327 730 L327 67 C327 20 320 10 309 7 L281 1 L281 0 L367 0 L452 0 L452 1 L424 7 C413 10 406 20 406 67 L406 730 L570 730 C652 730 670 724 675 715 L693 684 L693 685 L694 685 C688 699 682 717 677 731 L677 731 Z " />
<glyph glyph-name="tcaron" unicode="&#x165;" horiz-adv-x="335" d="M292 500 L161 500 L161 620 L156 620 L25 480 L25 470 L90 470 L90 148 C90 34 137 -10 207 -10 C252 -10 299 28 325 85 L317 88 C299 50 264 24 229 24 C186 24 158 54 159 132 L161 462 L292 462 L292 500 L292 500 Z M388 643 C400 683 409 725 409 748 C409 755 396 758 377 758 C362 758 354 696 351 651 L342 540 L354 537 L388 643 L388 643 Z " />
<glyph glyph-name="Utilde" unicode="&#x168;" horiz-adv-x="601" d="M188 870 C188 907 202 932 222 932 C273 932 309 867 359 867 C393 867 415 911 415 978 L414 978 C414 942 398 918 375 918 C325 918 289 983 239 983 C207 983 186 938 186 870 L188 870 L188 870 Z M523 97 L523 678 L523 750 L460 750 L397 750 L397 749 L426 743 C436 740 443 729 443 678 L443 174 C406 94 327 41 246 41 C193 41 158 109 158 211 L158 678 L158 750 L95 750 L33 750 L33 749 L61 743 C72 740 79 729 79 678 L79 211 C79 78 133 -10 214 -10 C310 -10 402 49 443 138 L443 97 L443 0 L456 0 L568 49 C530 74 523 81 523 97 L523 97 Z " />
<glyph glyph-name="utilde" unicode="&#x169;" horiz-adv-x="434" d="M100 620 C100 657 114 682 134 682 C185 682 221 617 271 617 C305 617 327 661 327 728 L326 728 C326 692 310 668 287 668 C237 668 201 733 151 733 C119 733 98 688 98 620 L100 620 L100 620 Z M295 77 L295 -10 L307 -10 L403 14 L403 15 L379 15 C371 15 366 28 366 92 L366 478 L366 500 L316 500 L266 500 L266 499 L286 493 C291 491 295 488 295 478 L295 127 C271 73 234 38 199 38 C158 38 130 84 130 152 L130 477 L130 499 L80 499 L30 499 L30 498 L50 492 C55 490 59 487 59 477 L59 152 C59 54 102 -11 166 -11 C210 -11 260 42 293 123 L295 77 L295 77 Z " />
<glyph glyph-name="Umacron" unicode="&#x16a;" horiz-adv-x="601" d="M184 898 L418 898 L418 947 L184 947 L184 898 L184 898 Z M523 97 L523 678 L523 750 L460 750 L397 750 L397 749 L426 743 C436 740 443 729 443 678 L443 174 C406 94 327 41 246 41 C193 41 158 109 158 211 L158 678 L158 750 L95 750 L33 750 L33 749 L61 743 C72 740 79 729 79 678 L79 211 C79 78 133 -10 214 -10 C310 -10 402 49 443 138 L443 97 L443 0 L456 0 L568 49 C530 74 523 81 523 97 L523 97 Z " />
<glyph glyph-name="umacron" unicode="&#x16b;" horiz-adv-x="434" d="M96 648 L330 648 L330 697 L96 697 L96 648 L96 648 Z M295 77 L295 -10 L307 -10 L403 14 L403 15 L379 15 C371 15 366 28 366 92 L366 478 L366 500 L316 500 L266 500 L266 499 L286 493 C291 491 295 488 295 478 L295 127 C271 73 234 38 199 38 C158 38 130 84 130 152 L130 477 L130 499 L80 499 L30 499 L30 498 L50 492 C55 490 59 487 59 477 L59 152 C59 54 102 -11 166 -11 C210 -11 260 42 293 123 L295 77 L295 77 Z " />
<glyph glyph-name="Ubreve" unicode="&#x16c;" horiz-adv-x="601" d="M194 994 C200 924 242 877 301 877 C360 877 402 923 407 993 L392 995 C389 955 352 928 301 928 C249 928 212 955 209 997 L194 994 L194 994 Z M523 97 L523 678 L523 750 L460 750 L397 750 L397 749 L426 743 C436 740 443 729 443 678 L443 174 C406 94 327 41 246 41 C193 41 158 109 158 211 L158 678 L158 750 L95 750 L33 750 L33 749 L61 743 C72 740 79 729 79 678 L79 211 C79 78 133 -10 214 -10 C310 -10 402 49 443 138 L443 97 L443 0 L456 0 L568 49 C530 74 523 81 523 97 L523 97 Z " />
<glyph glyph-name="ubreve" unicode="&#x16d;" horiz-adv-x="434" d="M106 744 C112 674 154 627 213 627 C272 627 314 673 319 743 L304 745 C301 705 264 678 213 678 C161 678 124 705 121 747 L106 744 L106 744 Z M295 77 L295 -10 L307 -10 L403 14 L403 15 L379 15 C371 15 366 28 366 92 L366 478 L366 500 L316 500 L266 500 L266 499 L286 493 C291 491 295 488 295 478 L295 127 C271 73 234 38 199 38 C158 38 130 84 130 152 L130 477 L130 499 L80 499 L30 499 L30 498 L50 492 C55 490 59 487 59 477 L59 152 C59 54 102 -11 166 -11 C210 -11 260 42 293 123 L295 77 L295 77 Z " />
<glyph glyph-name="Uring" unicode="&#x16e;" horiz-adv-x="601" d="M301 827 C260 827 225 863 225 905 C225 952 255 983 301 983 C346 983 377 952 377 905 C377 863 342 827 301 827 L301 827 Z M204 905 C204 854 248 810 301 810 C353 810 398 854 398 905 C398 962 359 1000 301 1000 C243 1000 204 962 204 905 L204 905 Z M523 97 L523 678 L523 750 L460 750 L397 750 L397 749 L426 743 C436 740 443 729 443 678 L443 174 C406 94 327 41 246 41 C193 41 158 109 158 211 L158 678 L158 750 L95 750 L33 750 L33 749 L61 743 C72 740 79 729 79 678 L79 211 C79 78 133 -10 214 -10 C310 -10 402 49 443 138 L443 97 L443 0 L456 0 L568 49 C530 74 523 81 523 97 L523 97 Z " />
<glyph glyph-name="uring" unicode="&#x16f;" horiz-adv-x="434" d="M213 577 C172 577 137 613 137 655 C137 702 167 733 213 733 C258 733 289 702 289 655 C289 613 254 577 213 577 L213 577 Z M116 655 C116 604 160 560 213 560 C265 560 310 604 310 655 C310 712 271 750 213 750 C155 750 116 712 116 655 L116 655 Z M295 77 L295 -10 L307 -10 L403 14 L403 15 L379 15 C371 15 366 28 366 92 L366 478 L366 500 L316 500 L266 500 L266 499 L286 493 C291 491 295 488 295 478 L295 127 C271 73 234 38 199 38 C158 38 130 84 130 152 L130 477 L130 499 L80 499 L30 499 L30 498 L50 492 C55 490 59 487 59 477 L59 152 C59 54 102 -11 166 -11 C210 -11 260 42 293 123 L295 77 L295 77 Z " />
<glyph glyph-name="Wcircumflex" unicode="&#x174;" horiz-adv-x="926" d="M450 957 L591 807 L600 815 L475 1009 C470 1016 457 1034 450 1034 C442 1034 430 1017 425 1009 L299 815 L309 807 L450 957 L450 957 Z M385 743 L465 500 L328 101 L168 624 L168 624 C167 626 167 627 167 628 L142 710 C135 736 136 743 140 744 L192 750 L192 751 L129 751 L103 751 L42 751 L14 751 L14 750 L44 746 L64 685 C69 669 75 649 83 624 L83 624 L254 101 L290 -9 L311 -9 L478 460 L591 116 L632 -9 L653 -9 L856 744 L899 750 L899 751 L858 751 L826 751 L825 751 L753 751 L753 750 L810 744 C817 743 818 727 801 655 L664 116 L504 654 L504 654 C503 656 502 658 501 660 L485 713 C479 738 480 745 485 746 L538 752 L538 753 L474 753 L439 753 L382 753 L341 753 L341 752 L385 743 L385 743 Z " />
<glyph glyph-name="Ycircumflex" unicode="&#x176;" horiz-adv-x="583" d="M299 957 L441 807 L450 815 L325 1009 C320 1016 307 1034 300 1034 C292 1034 280 1017 275 1009 L149 815 L158 807 L299 957 L299 957 Z M195 623 L195 623 C192 629 189 635 186 641 L134 744 L177 750 L177 751 L131 751 L93 751 L37 751 L9 751 L9 750 L40 746 L261 326 L261 68 C261 21 254 11 243 8 L215 2 L215 1 L301 1 L386 1 L386 2 L358 8 C347 11 340 21 340 68 L340 339 L473 624 L473 624 C481 641 488 656 494 669 L529 744 L569 749 L569 750 L532 750 L527 750 L525 750 L481 750 L481 749 L524 743 L478 644 C476 641 474 637 472 633 L472 633 L338 342 L195 623 L195 623 Z " />
<glyph glyph-name="Ydieresis" unicode="&#x178;" horiz-adv-x="583" d="M368 865 C396 865 414 883 414 911 C414 939 396 957 368 957 C341 957 322 939 322 911 C322 883 341 865 368 865 L368 865 Z M229 865 C257 865 275 883 275 911 C275 939 257 957 229 957 C201 957 183 939 183 911 C183 883 201 865 229 865 L229 865 Z M194 623 L194 623 C191 629 188 635 185 641 L133 744 L176 750 L176 751 L130 751 L92 751 L36 751 L8 751 L8 750 L39 746 L260 326 L260 68 C260 21 253 11 242 8 L214 2 L214 1 L300 1 L385 1 L385 2 L357 8 C346 11 339 21 339 68 L339 339 L472 624 L472 624 C480 641 487 656 493 669 L528 744 L568 749 L568 750 L531 750 L526 750 L524 750 L480 750 L480 749 L523 743 L477 644 C475 641 473 637 471 633 L471 633 L337 342 L194 623 L194 623 Z " />
<glyph glyph-name="Zacute" unicode="&#x179;" horiz-adv-x="590" d="M325 813 L466 934 C506 969 533 994 533 999 C533 1019 517 1035 497 1035 C492 1035 467 1008 434 966 L316 822 L325 813 L325 813 Z M111 0 L415 0 L562 0 C565 13 570 31 573 45 C577 58 581 76 584 89 L584 90 C584 91 584 91 583 91 L567 59 C558 39 534 26 446 24 L431 24 C428 24 425 24 422 24 L422 24 L123 20 L567 735 L567 752 L490 752 L228 752 L71 752 C69 738 66 719 64 705 C62 691 60 672 58 658 L59 657 L59 656 L72 688 C82 711 106 727 193 730 L479 733 L26 18 L26 1 L111 0 L111 0 Z " />
<glyph glyph-name="Zdot" unicode="&#x17b;" horiz-adv-x="590" d="M318 865 C346 865 364 883 364 911 C364 939 346 957 318 957 C290 957 272 939 272 911 C272 883 290 865 318 865 L318 865 Z M111 0 L415 0 L562 0 C565 13 570 31 573 45 C577 58 581 76 584 89 L584 90 C584 91 584 91 583 91 L567 59 C558 39 534 26 446 24 L431 24 C428 24 425 24 422 24 L422 24 L123 20 L567 735 L567 752 L490 752 L228 752 L71 752 C69 738 66 719 64 705 C62 691 60 672 58 658 L59 657 L59 656 L72 688 C82 711 106 727 193 730 L479 733 L26 18 L26 1 L111 0 L111 0 Z " />
<glyph glyph-name="zdot" unicode="&#x17c;" horiz-adv-x="431" d="M237 615 C265 615 283 633 283 661 C283 689 265 707 237 707 C209 707 191 689 191 661 C191 633 209 615 237 615 L237 615 Z M76 450 L88 466 C92 471 102 475 134 477 L198 479 C200 479 202 479 204 479 L203 479 L308 482 L40 18 L40 1 L115 1 L319 1 L386 1 C387 11 389 24 391 34 C391 38 392 43 393 48 L384 34 C381 30 373 27 349 25 L127 20 L392 484 L392 501 L320 501 L111 501 L96 501 L97 519 L96 519 C94 513 92 507 90 501 L82 501 L82 476 L84 476 C82 468 80 459 78 451 L76 450 L76 450 Z M78 451 C77 446 76 441 75 437 L72 437 L69 437 L78 451 L78 451 Z M396 50 C397 56 398 62 399 67 L404 67 L408 67 L396 50 L396 50 Z " />
<glyph glyph-name="Zcaron" unicode="&#x17d;" horiz-adv-x="590" d="M318 893 L459 1043 L469 1035 L343 841 C338 834 326 816 318 816 C310 816 298 833 293 841 L167 1035 L177 1043 L318 893 L318 893 Z M111 0 L415 0 L562 0 C565 13 570 31 573 45 C577 58 581 76 584 89 L584 90 C584 91 584 91 583 91 L567 59 C558 39 534 26 446 24 L431 24 C428 24 425 24 422 24 L422 24 L123 20 L567 735 L567 752 L490 752 L228 752 L71 752 C69 738 66 719 64 705 C62 691 60 672 58 658 L59 657 L59 656 L72 688 C82 711 106 727 193 730 L479 733 L26 18 L26 1 L111 0 L111 0 Z " />
<glyph glyph-name="zcaron" unicode="&#x17e;" horiz-adv-x="431" d="M237 643 L378 793 L388 785 L262 591 C257 584 244 566 237 566 C229 566 217 583 212 591 L86 785 L96 793 L237 643 L237 643 Z M76 450 L88 466 C92 471 102 475 134 477 L198 479 C200 479 202 479 204 479 L203 479 L308 482 L40 18 L40 1 L115 1 L319 1 L386 1 C387 11 389 24 391 34 C391 38 392 43 393 48 L384 34 C381 30 373 27 349 25 L127 20 L392 484 L392 501 L320 501 L111 501 L96 501 L97 519 L96 519 C94 513 92 507 90 501 L82 501 L82 476 L84 476 C82 468 80 459 78 451 L76 450 L76 450 Z M78 451 C77 446 76 441 75 437 L72 437 L69 437 L78 451 L78 451 Z M396 50 C397 56 398 62 399 67 L404 67 L408 67 L396 50 L396 50 Z " />
<glyph glyph-name="oogonek" unicode="&#x1eb;" horiz-adv-x="705" d="M892 -54 L891 -53 C862 -78 770 -94 661 -94 C547 -94 414 -60 324 -9 C330 -10 336 -10 341 -10 C529 -10 655 111 655 292 C655 472 533 593 351 593 C175 593 57 472 57 292 C57 162 159 63 248 17 C395 -77 557 -140 653 -140 C736 -140 831 -106 892 -55 L892 -54 L892 -54 Z M342 -8 C280 -8 138 111 138 291 C138 470 223 589 351 589 C485 589 574 470 574 291 C574 111 481 -8 342 -8 L342 -8 Z " />
<glyph glyph-name="Adotabove" unicode="&#x226;" horiz-adv-x="606" d="M305 865 C333 865 351 883 351 911 C351 939 333 957 305 957 C278 957 259 939 259 911 C259 883 278 865 305 865 L305 865 Z M161 296 L383 296 L429 127 L429 127 C457 27 459 8 456 7 L405 1 L405 0 L464 0 L497 0 L548 0 L589 0 L589 1 L546 7 L345 725 L332 770 L324 770 C307 745 283 727 266 725 L269 715 L268 715 L102 82 C85 22 78 8 73 7 L22 1 L22 0 L80 0 L84 0 L89 0 L156 0 L156 1 L99 7 C92 8 92 27 114 115 L161 296 L161 296 Z M162 298 L270 710 L382 298 L162 298 L162 298 Z " />
<glyph glyph-name="G_sc" unicode="&#x262;" horiz-adv-x="644" d="M461 570 L460 570 C428 585 389 593 338 593 C169 593 57 472 57 292 C57 111 170 -10 341 -10 C381 -10 421 -4 461 6 L470 6 L470 8 L470 8 L470 6 L539 24 L539 31 C563 40 588 51 613 63 L612 64 C589 53 565 43 539 35 L539 185 C539 233 544 243 553 245 L576 251 L576 252 L576 253 L500 253 L424 253 L424 252 L424 251 L451 245 C461 243 468 233 468 185 L470 18 L470 18 L469 85 C469 38 420 7 347 7 C220 7 136 121 136 292 C136 471 217 591 339 591 C359 591 377 589 394 585 C432 573 507 502 549 447 C553 442 556 438 556 438 L556 489 L556 490 L556 540 C556 540 553 535 549 527 C549 528 513 545 460 570 L461 570 L461 570 Z " />
<glyph glyph-name="I_sc" unicode="&#x26a;" horiz-adv-x="297" d="M189 67 L189 516 C189 563 196 574 207 576 L235 582 L235 583 L153 583 L72 583 L72 582 L100 576 C111 574 118 563 118 516 L118 67 C118 20 111 10 100 7 L72 1 L72 0 L153 0 L235 0 L235 1 L207 7 C196 10 189 20 189 67 L189 67 Z " />
<glyph glyph-name="N_sc" unicode="&#x274;" horiz-adv-x="585" d="M139 583 L122 583 L104 583 L81 583 L50 583 L23 583 L23 582 L54 578 L104 506 L103 137 L103 137 C103 29 101 8 98 7 L48 1 L48 0 L103 0 L114 0 L125 0 L179 0 L179 1 L130 7 C127 8 125 16 124 49 L122 480 L401 80 L457 1 L471 1 L475 500 C477 561 486 575 499 577 L531 583 L531 584 L477 584 L466 584 L456 584 L401 584 L401 583 L434 577 C447 575 456 558 456 477 L456 477 L457 97 L447 111 L139 583 L139 583 Z " />
<glyph glyph-name="R_sc" unicode="&#x280;" horiz-adv-x="502" d="M493 0 L493 5 C446 5 443 7 419 52 C359 165 314 249 296 283 C381 297 434 341 434 419 C434 517 351 583 228 583 L187 583 L128 583 L70 583 L70 582 L98 576 C109 574 116 562 116 511 L116 72 C116 21 109 10 98 7 L70 1 L70 0 L151 0 L233 0 L233 1 L205 7 C194 10 187 21 187 72 L187 278 L223 278 C235 247 278 161 337 52 C364 2 370 0 494 0 L493 0 L493 0 Z M188 569 L207 569 C297 569 356 515 356 433 C356 338 305 296 229 296 L188 296 L188 511 L188 569 L188 569 Z " />
<glyph glyph-name="Y_sc" unicode="&#x28f;" horiz-adv-x="517" d="M126 576 L168 582 L168 583 L122 583 L89 583 L37 583 L10 583 L10 582 L40 578 L229 251 L229 67 C229 20 222 10 212 7 L183 1 L183 0 L265 0 L347 0 L347 1 L319 7 C308 10 301 20 301 67 L301 263 L461 577 L501 582 L501 583 L464 583 L459 583 L457 583 L413 583 L413 582 L456 576 L418 501 C413 491 407 479 400 466 L400 465 L300 266 L126 576 L126 576 Z " />
<glyph glyph-name="B_sc" unicode="&#x299;" horiz-adv-x="482" d="M187 581 L229 581 C329 581 352 523 352 436 C352 354 326 300 287 300 L187 300 L187 511 L187 581 L187 581 Z M306 300 C377 308 423 364 423 443 C423 527 387 583 234 583 L187 583 L128 583 L70 583 L70 582 L98 576 C109 574 116 562 116 511 L116 72 C116 21 109 10 98 7 L70 1 L70 0 L128 0 L187 0 L307 0 C388 0 442 29 442 150 C442 240 398 300 332 300 L306 300 L306 300 Z M288 299 L325 299 C348 299 364 239 364 150 C364 30 340 2 304 2 L254 2 C214 2 187 22 187 51 L187 72 L187 299 L288 299 L288 299 Z " />
<glyph glyph-name="H_sc" unicode="&#x29c;" horiz-adv-x="652" d="M544 67 L544 516 C544 563 551 574 562 576 L590 582 L590 583 L509 583 L427 583 L427 582 L455 576 C466 574 473 563 473 516 L473 299 L223 299 L223 516 C223 563 230 574 241 576 L269 582 L269 583 L187 583 L106 583 L106 582 L134 576 C145 574 152 563 152 516 L152 67 C152 20 145 10 134 7 L106 1 L106 0 L187 0 L269 0 L269 1 L241 7 C230 10 223 20 223 67 L223 296 L473 296 L473 67 C473 20 466 10 455 7 L427 1 L427 0 L509 0 L590 0 L590 1 L562 7 C551 10 544 20 544 67 L544 67 Z " />
<glyph glyph-name="L_sc" unicode="&#x29f;" horiz-adv-x="449" d="M408 0 C409 4 410 8 411 12 C414 22 417 33 419 42 C422 55 427 71 430 84 L429 85 L415 54 C403 29 371 13 240 13 C194 13 189 29 189 52 L189 73 L189 512 C189 563 196 575 207 577 L235 583 L235 584 L189 584 L153 584 L118 584 L72 584 L72 583 L100 577 C111 575 118 563 118 512 L118 73 C118 22 111 11 100 8 L72 2 L72 1 L118 1 L130 1 L189 1 L235 1 L408 0 L408 0 Z " />
<glyph glyph-name="A_sc" unicode="&#x1d00;" horiz-adv-x="545" d="M151 230 L343 230 L374 127 L374 127 C404 27 408 8 404 7 L354 1 L354 0 L413 0 L441 0 L488 0 L529 0 L529 1 L486 7 L312 566 L300 603 L293 603 C279 583 258 568 241 566 L244 556 L244 556 L127 157 L127 157 C126 155 125 153 124 151 L113 113 C87 26 78 8 74 7 L22 1 L22 0 L80 0 L84 0 L89 0 L156 0 L156 1 L99 7 C92 8 92 25 112 99 L151 230 L151 230 Z M151 232 L244 553 L341 232 L151 232 L151 232 Z " />
<glyph glyph-name="C_sc" unicode="&#x1d04;" horiz-adv-x="602" d="M461 570 L460 570 C428 585 389 593 338 593 C169 593 57 472 57 292 C57 111 166 -10 330 -10 C385 -10 429 0 466 18 C482 25 519 41 550 54 C555 56 558 51 558 41 L558 93 L558 94 L558 145 C558 145 555 141 550 136 C513 88 447 22 418 9 L418 9 C392 -2 364 -8 333 -8 C216 -8 138 112 138 292 C138 471 219 591 341 591 C361 591 379 589 396 585 C434 573 509 502 551 447 C555 442 558 438 558 438 L558 489 L558 490 L558 540 C558 540 555 535 551 527 C551 528 515 545 462 570 L461 570 L461 570 Z " />
<glyph glyph-name="D_sc" unicode="&#x1d05;" horiz-adv-x="673" d="M116 511 L116 72 C116 21 109 10 98 7 L70 1 L70 0 L116 0 L128 0 L187 0 L231 0 C463 0 618 99 618 292 C618 466 494 583 253 583 L187 583 L128 583 L116 583 L70 583 L70 582 L98 576 C109 574 116 562 116 511 L116 511 Z M187 581 L244 581 C439 581 540 465 540 292 C540 100 415 2 228 2 C191 2 187 22 187 51 L187 72 L187 511 L187 581 L187 581 Z " />
<glyph glyph-name="E_sc" unicode="&#x1d07;" horiz-adv-x="485" d="M324 0 L431 0 C432 8 434 20 435 29 C436 37 438 49 439 57 L438 57 L428 26 C423 12 405 2 324 2 L238 2 C192 2 187 22 187 51 L187 72 L187 299 L239 299 C318 299 335 287 339 269 L345 238 L346 238 L346 299 L346 301 L346 302 L346 363 L345 363 L339 332 C335 314 318 302 239 302 L187 302 L187 511 L187 581 L299 581 C396 581 397 572 401 557 L409 526 L410 526 C410 535 409 547 408 555 C408 563 407 575 406 583 L299 583 L187 583 L128 583 L116 583 L70 583 L70 582 L98 576 C109 574 116 562 116 511 L116 72 C116 21 109 10 98 7 L70 1 L70 0 L116 0 L128 0 L187 0 L324 0 L324 0 Z " />
<glyph glyph-name="J_sc" unicode="&#x1d0a;" horiz-adv-x="297" d="M118 516 L118 -45 C118 -189 59 -216 16 -216 C-20 -216 -4 -156 -41 -156 C-61 -156 -74 -170 -74 -190 C-74 -208 -39 -220 13 -220 C87 -220 189 -170 189 89 L189 516 C189 563 196 574 207 576 L235 582 L235 583 L153 583 L72 583 L72 582 L100 576 C111 574 118 563 118 516 L118 516 Z " />
<glyph glyph-name="K_sc" unicode="&#x1d0b;" horiz-adv-x="543" d="M357 72 L356 72 C408 5 412 0 412 0 L472 0 L495 0 L531 0 L531 1 L490 6 L237 341 L342 486 L407 576 L407 576 L453 582 L453 583 L412 583 L389 583 L387 583 L326 583 L326 582 L376 576 C379 575 374 565 344 520 L187 292 L187 523 C187 564 194 574 205 576 L233 582 L233 583 L187 583 L151 583 L116 583 L70 583 L70 582 L98 576 C109 574 116 564 116 523 L116 60 C116 19 109 10 98 7 L70 1 L70 0 L116 0 L151 0 L187 0 L233 0 L233 1 L205 7 C194 10 187 19 187 60 L187 292 L357 72 L357 72 Z " />
<glyph glyph-name="M_sc" unicode="&#x1d0d;" horiz-adv-x="687" d="M97 583 L52 583 L52 582 L99 576 C99 576 103 569 118 534 L103 137 L103 137 C103 130 103 123 103 117 L101 66 C99 19 97 8 94 7 L45 1 L45 0 L99 0 L112 0 L124 0 L179 0 L179 1 L130 7 C127 8 125 18 125 62 L136 492 L299 99 L340 0 L358 0 L540 518 L555 72 L554 72 C556 21 548 10 537 7 L508 1 L508 0 L557 0 L590 0 L628 0 L671 0 L671 1 L643 7 C634 10 628 19 625 58 L610 428 L611 426 C607 552 606 576 605 576 L650 582 L650 583 L604 583 L594 583 L562 583 L537 583 L373 100 L183 583 L137 583 L119 583 L117 583 L97 583 L97 583 Z " />
<glyph glyph-name="O_sc" unicode="&#x1d0f;" horiz-adv-x="710" d="M342 -7 C219 -7 138 112 138 292 C138 471 223 590 351 590 C485 590 574 471 574 292 C574 112 481 -7 342 -7 L342 -7 Z M57 292 C57 111 171 -10 341 -10 C529 -10 655 111 655 292 C655 472 533 593 351 593 C175 593 57 472 57 292 L57 292 Z " />
<glyph glyph-name="P_sc" unicode="&#x1d18;" horiz-adv-x="413" d="M205 583 L146 583 L133 583 L87 583 L87 582 L116 576 C126 574 133 562 133 511 L133 72 C133 21 126 10 116 7 L87 1 L87 0 L133 0 L169 0 L205 0 L251 0 L251 1 L223 7 C212 10 205 21 205 72 L205 269 L205 583 L205 583 Z M205 284 L205 511 L205 571 L241 571 C293 571 327 515 327 431 C327 330 289 284 232 284 L205 284 L205 284 Z " />
<glyph glyph-name="T_sc" unicode="&#x1d1b;" horiz-adv-x="684" d="M629 566 L629 583 L623 583 C619 593 615 603 613 611 C613 611 612 611 612 612 L611 612 L617 583 L516 583 L378 583 L306 583 L169 583 L68 583 L73 612 L72 612 L72 611 C69 603 65 593 61 583 L55 583 L55 566 C50 552 44 534 39 520 C39 519 39 519 40 519 L57 551 C62 559 80 565 162 565 L306 565 L306 67 C306 20 299 10 289 7 L260 1 L260 0 L342 0 L424 0 L424 1 L396 7 C385 10 378 20 378 67 L378 565 L522 565 C604 565 622 559 627 551 L645 519 L645 520 L646 520 C641 534 634 552 629 566 L629 566 Z " />
<glyph glyph-name="U_sc" unicode="&#x1d1c;" horiz-adv-x="530" d="M452 97 L452 511 L452 583 L394 583 L335 583 L335 582 L363 576 C374 574 381 562 381 511 L381 157 C347 84 279 36 212 36 C176 36 152 100 152 197 L152 511 L152 583 L93 583 L35 583 L35 582 L63 576 C74 574 81 562 81 511 L81 197 C81 73 122 -10 183 -10 C264 -10 343 44 381 125 L381 97 L381 0 L392 0 L498 49 C459 74 452 81 452 97 L452 97 Z " />
<glyph glyph-name="V_sc" unicode="&#x1d20;" horiz-adv-x="586" d="M61 536 L226 114 L275 -10 L289 -10 L469 456 L469 456 L469 456 L515 575 L559 581 L559 582 L518 582 L490 582 L488 582 L417 582 L417 581 L474 575 C482 574 480 556 448 465 L320 113 L178 455 L178 455 C139 555 135 574 141 575 L197 581 L197 582 L125 582 L106 582 L43 582 L15 582 L15 581 L45 577 L57 546 C58 543 59 540 60 536 L61 536 L61 536 Z " />
<glyph glyph-name="W_sc" unicode="&#x1d21;" horiz-adv-x="823" d="M356 536 L409 389 L409 389 L298 91 L168 456 L169 456 C132 556 129 575 135 576 L187 582 L187 583 L123 583 L102 583 L45 583 L17 583 L17 582 L47 578 L77 495 C81 484 86 471 91 457 L91 457 L225 91 L261 -9 L280 -9 L422 357 L514 105 L555 -9 L574 -9 L754 577 L797 583 L797 584 L756 584 L727 584 L726 584 L655 584 L655 583 L711 577 C719 576 719 557 690 457 L690 457 L588 105 L588 105 L437 544 C429 570 430 576 434 577 L486 583 L486 584 L423 584 L393 584 L340 584 L299 584 L299 583 L342 577 L354 544 C355 542 356 540 357 538 L356 536 L356 536 Z " />
<glyph glyph-name="Z_sc" unicode="&#x1d22;" horiz-adv-x="543" d="M103 0 L368 0 L515 0 C518 13 523 31 526 43 C529 56 534 74 537 87 L536 87 L536 88 L520 56 C511 39 491 26 426 22 L115 17 L519 569 L519 584 L450 584 L227 584 L70 584 C68 570 65 552 64 538 C62 524 59 506 57 492 L58 492 L59 491 L72 522 C81 546 107 562 204 564 L218 564 C220 564 222 564 224 564 L224 564 L437 567 L24 15 L24 0 L103 0 L103 0 Z " />
<glyph glyph-name="Wgrave" unicode="&#x1e80;" horiz-adv-x="926" d="M344 966 C312 1008 287 1035 281 1035 C261 1035 245 1019 245 999 C245 993 272 968 312 934 L453 813 L461 822 L344 966 L344 966 Z M385 743 L465 500 L328 101 L168 624 L168 624 C167 626 167 627 167 628 L142 710 C135 736 136 743 140 744 L192 750 L192 751 L129 751 L103 751 L42 751 L14 751 L14 750 L44 746 L64 685 C69 669 75 649 83 624 L83 624 L254 101 L290 -9 L311 -9 L478 460 L591 116 L632 -9 L653 -9 L856 744 L899 750 L899 751 L858 751 L826 751 L825 751 L753 751 L753 750 L810 744 C817 743 818 727 801 655 L664 116 L504 654 L504 654 C503 656 502 658 501 660 L485 713 C479 738 480 745 485 746 L538 752 L538 753 L474 753 L439 753 L382 753 L341 753 L341 752 L385 743 L385 743 Z " />
<glyph glyph-name="Wacute" unicode="&#x1e82;" horiz-adv-x="926" d="M457 813 L598 934 C638 969 664 994 664 999 C664 1019 648 1035 629 1035 C624 1035 599 1008 565 966 L448 822 L457 813 L457 813 Z M385 743 L465 500 L328 101 L168 624 L168 624 C167 626 167 627 167 628 L142 710 C135 736 136 743 140 744 L192 750 L192 751 L129 751 L103 751 L42 751 L14 751 L14 750 L44 746 L64 685 C69 669 75 649 83 624 L83 624 L254 101 L290 -9 L311 -9 L478 460 L591 116 L632 -9 L653 -9 L856 744 L899 750 L899 751 L858 751 L826 751 L825 751 L753 751 L753 750 L810 744 C817 743 818 727 801 655 L664 116 L504 654 L504 654 C503 656 502 658 501 660 L485 713 C479 738 480 745 485 746 L538 752 L538 753 L474 753 L439 753 L382 753 L341 753 L341 752 L385 743 L385 743 Z " />
<glyph glyph-name="Wdieresis" unicode="&#x1e84;" horiz-adv-x="926" d="M520 865 C547 865 565 883 565 911 C565 939 547 957 520 957 C492 957 474 939 474 911 C474 883 492 865 520 865 L520 865 Z M380 865 C408 865 426 883 426 911 C426 939 408 957 380 957 C352 957 334 939 334 911 C334 883 352 865 380 865 L380 865 Z M385 743 L465 500 L328 101 L168 624 L168 624 C167 626 167 627 167 628 L142 710 C135 736 136 743 140 744 L192 750 L192 751 L129 751 L103 751 L42 751 L14 751 L14 750 L44 746 L64 685 C69 669 75 649 83 624 L83 624 L254 101 L290 -9 L311 -9 L478 460 L591 116 L632 -9 L653 -9 L856 744 L899 750 L899 751 L858 751 L826 751 L825 751 L753 751 L753 750 L810 744 C817 743 818 727 801 655 L664 116 L504 654 L504 654 C503 656 502 658 501 660 L485 713 C479 738 480 745 485 746 L538 752 L538 753 L474 753 L439 753 L382 753 L341 753 L341 752 L385 743 L385 743 Z " />
<glyph glyph-name="Etilde" unicode="&#x1ebc;" horiz-adv-x="538" d="M174 870 C174 907 188 932 208 932 C258 932 294 867 344 867 C378 867 401 911 401 978 L399 978 C399 942 384 918 361 918 C310 918 275 983 224 983 C193 983 172 938 172 870 L174 870 L174 870 Z M377 0 L484 0 C485 8 487 20 488 29 C489 37 491 49 492 57 L491 57 L481 26 C476 12 457 3 377 3 L244 3 C198 3 193 22 193 51 L193 72 L193 385 L292 385 C371 385 388 373 392 355 L398 324 L399 324 L399 385 L399 386 L399 388 L399 449 L398 449 L392 418 C388 400 371 388 292 388 L193 388 L193 678 L193 747 L352 747 C448 747 450 738 454 724 L462 693 L463 693 C462 701 462 713 461 721 C460 730 460 742 459 750 L352 750 L193 750 L130 750 L114 750 L68 750 L68 749 L96 743 C107 740 114 729 114 678 L114 72 C114 21 107 10 96 7 L68 1 L68 0 L114 0 L130 0 L193 0 L377 0 L377 0 Z " />
<glyph glyph-name="Ygrave" unicode="&#x1ef2;" horiz-adv-x="583" d="M193 966 C161 1008 136 1035 130 1035 C110 1035 94 1019 94 999 C94 993 121 968 161 934 L301 813 L310 822 L193 966 L193 966 Z M194 623 L194 623 C191 629 188 635 185 641 L133 744 L176 750 L176 751 L130 751 L92 751 L36 751 L8 751 L8 750 L39 746 L260 326 L260 68 C260 21 253 11 242 8 L214 2 L214 1 L300 1 L385 1 L385 2 L357 8 C346 11 339 21 339 68 L339 339 L472 624 L472 624 C480 641 487 656 493 669 L528 744 L568 749 L568 750 L531 750 L526 750 L524 750 L480 750 L480 749 L523 743 L477 644 C475 641 473 637 471 633 L471 633 L337 342 L194 623 L194 623 Z " />
<glyph glyph-name="quoteleft" unicode="&#x2018;" horiz-adv-x="423" d="" />
<glyph glyph-name="quoteright" unicode="&#x2019;" horiz-adv-x="63" d="" />
<glyph glyph-name="quotedblleft" unicode="&#x201c;" horiz-adv-x="423" d="M191 640 C182 640 175 636 170 629 C170 630 170 631 170 632 C170 672 194 718 230 749 L221 760 C178 724 149 668 149 619 C149 591 166 573 191 573 C211 573 224 586 224 607 C224 627 211 640 191 640 L191 640 Z " />
<glyph glyph-name="quotedblright" unicode="&#x201d;" horiz-adv-x="423" d="M211 704 C210 656 190 609 161 584 L171 573 C207 604 231 662 231 719 C231 744 214 760 190 760 C169 760 156 747 156 727 C156 706 169 693 190 693 C198 693 205 697 210 704 L211 704 L211 704 Z " />
<glyph glyph-name="Euro" unicode="&#x20ac;" horiz-adv-x="717" d="M48 299 L110 299 C134 111 249 -10 414 -10 C480 -10 533 7 579 36 C594 44 632 64 665 82 C669 84 672 79 672 69 L672 120 L672 120 L671 121 L671 173 C671 173 668 169 664 164 C627 116 565 50 533 28 C496 5 456 -8 413 -8 C294 -8 211 112 193 298 L464 298 L471 349 L190 349 C190 357 190 365 190 373 C190 381 190 389 190 397 L471 397 L478 448 L194 448 C212 634 299 754 422 754 C456 754 486 747 513 734 C549 712 620 638 663 583 C668 578 671 574 671 574 L671 626 L671 627 L671 677 C671 677 668 672 663 665 C663 664 633 681 586 710 C543 740 492 758 421 758 C252 758 133 637 108 449 L60 449 L53 398 L104 398 C104 390 104 382 104 374 C104 366 104 358 104 350 L54 350 L48 299 L48 299 Z " />
<glyph glyph-name="F_sc" unicode="&#xa730;" horiz-adv-x="460" d="M336 242 L336 297 L336 298 L336 299 L336 354 L331 325 C328 309 310 299 229 299 L187 299 L187 511 L187 582 L219 582 C367 582 398 572 401 558 L410 527 L411 527 L411 528 C410 536 409 547 409 556 C408 564 407 575 406 583 L299 583 L187 583 L128 583 L116 583 L70 583 L70 582 L98 576 C109 574 116 562 116 511 L116 72 C116 21 109 10 98 7 L70 1 L70 0 L116 0 L151 0 L187 0 L233 0 L233 1 L205 7 C194 10 187 21 187 72 L187 297 L279 297 C318 293 328 284 331 271 L336 242 L336 242 Z M336 242 L337 236 L336 236 L336 242 L336 242 Z M336 354 L336 360 L337 360 L336 354 L336 354 Z " />
<glyph glyph-name="S_sc" unicode="&#xa731;" horiz-adv-x="456" d="M310 568 L309 568 C281 584 248 593 213 593 C127 593 70 533 70 443 C70 367 122 296 223 255 C313 217 359 169 359 126 C359 46 313 -7 244 -7 C224 -7 203 -2 183 7 C168 18 105 93 58 152 C54 157 51 161 51 161 L51 114 L51 106 L51 51 C51 51 54 57 58 67 C58 67 89 49 135 22 C168 2 206 -9 244 -9 C347 -9 416 54 416 147 C416 220 365 289 266 330 C173 368 126 421 126 471 C126 544 161 592 213 592 C217 592 222 591 228 589 L212 593 C232 593 252 588 271 579 L228 589 C265 574 327 514 366 465 C371 459 374 455 374 455 L374 502 L374 504 L374 553 C374 553 371 548 366 540 C366 539 343 551 309 570 L310 568 L310 568 Z " />
<glyph glyph-name="X_sc" unicode="&#xf078;" horiz-adv-x="574" d="M134 49 L276 260 L358 127 L357 127 C419 27 430 8 429 7 L381 1 L381 0 L436 0 L469 0 L521 0 L557 0 L557 1 L517 6 L320 324 L514 576 L555 581 L555 582 L519 582 L491 582 L487 582 L428 582 L428 581 L477 575 C480 574 468 553 395 445 L395 444 L317 327 L238 455 L238 455 C176 556 165 575 166 575 L214 581 L214 582 L159 582 L129 582 L75 582 L43 582 L43 581 L79 576 L266 273 L143 99 C87 22 76 7 75 6 L27 0 L27 -1 L72 -1 L101 -1 L104 -1 L182 -1 L182 0 L122 6 C115 7 115 16 134 48 L134 49 L134 49 Z " />
</font>
</svg>
