<?xml version="1.0" encoding="UTF-8"?>
<svg xmlns="http://www.w3.org/2000/svg" xmlns:xlink="http://www.w3.org/1999/xlink" version="1.2" >
<font id="Jerrick Bold">
<font-face  font-family="Jerrick" units-per-em="1024" ascent="1105" descent="-300" font-style="normal" font-weight="700" font-stretch="normal" cap-height="850" x-height="669" underline-position="-125" underline-thickness="50" />
<missing-glyph  horiz-adv-x="650" d="" />
<glyph glyph-name="NULL" d="" />
<glyph glyph-name="CR" unicode="&#xd;" horiz-adv-x="256" d="" />
<glyph glyph-name="space" unicode="&#x20;" horiz-adv-x="250" d="" />
<glyph glyph-name="exclam" unicode="&#x21;" horiz-adv-x="282" d="M149 -10 C197 -10 229 22 229 70 C229 118 197 150 149 150 C101 150 69 118 69 70 C69 22 101 -10 149 -10 L149 -10 Z M80 850 L141 253 L157 253 L218 850 L80 850 L80 850 Z " />
<glyph glyph-name="quotedbl" unicode="&#x22;" horiz-adv-x="528" d="M319 930 L370 680 L398 680 L449 930 L319 930 L319 930 Z M80 930 L130 680 L159 680 L209 930 L80 930 L80 930 Z " />
<glyph glyph-name="numbersign" unicode="&#x23;" horiz-adv-x="498" d="M143 450 L58 450 L58 434 L0 434 L0 366 L124 366 L41 0 L80 0 L163 366 L292 366 L209 0 L248 0 L331 366 L440 366 L440 382 L498 382 L498 450 L350 450 L440 850 L401 850 L311 450 L182 450 L272 850 L233 850 L143 450 L143 450 Z " />
<glyph glyph-name="dollar" unicode="&#x24;" horiz-adv-x="508" d="M283 930 L283 860 C278 860 273 860 268 860 C261 860 254 860 247 859 L247 930 L188 930 L188 846 C104 815 52 735 52 626 C52 528 98 458 188 398 L188 46 C166 66 153 99 153 140 L153 167 L148 171 L88 171 C65 171 49 159 49 140 C49 65 102 11 188 -5 L188 -80 L247 -80 L247 -10 C260 -10 272 -9 284 -7 L284 -80 L343 -80 L343 12 C416 49 461 128 461 233 C461 312 421 393 343 457 L343 706 L348 702 L407 702 C431 702 446 714 446 732 C446 789 407 832 343 850 L343 930 L283 930 L283 930 Z M247 528 L247 821 C252 822 257 823 262 823 C270 823 277 822 284 820 L284 498 C270 508 258 518 247 528 L247 528 Z M188 617 C183 634 180 652 180 672 C180 698 183 722 188 742 L188 617 L188 617 Z M247 356 C261 345 273 334 284 322 L284 36 C273 30 261 26 248 25 L247 356 L247 356 Z M344 226 C347 214 349 202 349 191 C349 171 347 152 344 135 L344 226 L344 226 Z " />
<glyph glyph-name="ampersand" unicode="&#x26;" horiz-adv-x="696" d="M546 555 L559 605 L453 605 C452 605 451 604 450 602 C444 593 439 588 439 588 L546 555 L546 555 Z M651 55 L651 55 L511 221 C552 311 585 424 619 554 L703 587 C702 587 700 592 696 601 C695 603 694 604 694 604 L632 604 L596 604 L560 604 C527 477 497 366 462 277 L286 487 C376 554 432 633 432 698 C432 794 366 858 267 858 C153 858 77 776 77 654 C77 553 106 504 178 416 C46 332 20 258 20 172 C20 62 96 -11 210 -11 C312 -11 385 30 442 103 L529 -1 L613 -1 L696 -1 L729 -1 C729 -1 730 1 731 5 C733 13 735 18 735 18 L651 55 L651 55 Z M197 393 C200 389 203 385 206 381 L397 154 C350 85 291 47 209 47 C174 47 151 111 151 207 C151 288 159 351 196 393 L197 393 L197 393 Z M258 519 C218 569 201 600 201 679 C201 769 224 828 260 828 C289 828 308 774 308 692 C308 627 289 565 257 519 L258 519 L258 519 Z " />
<glyph glyph-name="quotesingle" unicode="&#x27;" horiz-adv-x="289" d="M80 930 L130 680 L159 680 L209 930 L80 930 L80 930 Z " />
<glyph glyph-name="parenleft" unicode="&#x28;" horiz-adv-x="286" d="M262 930 C137 815 53 661 53 390 C53 119 137 -35 262 -150 L281 -150 C202 -77 149 63 149 390 C149 717 202 857 281 930 L262 930 L262 930 Z " />
<glyph glyph-name="parenright" unicode="&#x29;" horiz-adv-x="286" d="M55 -150 C180 -35 264 119 264 390 C264 661 180 815 55 930 L36 930 C115 857 168 717 168 390 C168 63 115 -77 36 -150 L55 -150 L55 -150 Z " />
<glyph glyph-name="plus" unicode="&#x2b;" horiz-adv-x="510" d="M218 482 L218 308 L40 308 L40 236 L218 236 L218 52 L292 52 L292 236 L470 236 L470 308 L292 308 L292 482 L218 482 L218 482 Z " />
<glyph glyph-name="comma" unicode="&#x2c;" horiz-adv-x="243" d="M143 113 C129 120 117 125 111 125 C102 125 90 114 80 97 L44 35 L48 22 L90 0 C129 -18 155 -51 155 -83 C155 -124 117 -168 60 -195 L60 -210 C140 -173 194 -110 194 -51 C194 34 174 99 143 113 L143 113 Z " />
<glyph glyph-name="hyphen" unicode="&#x2d;" horiz-adv-x="375" d="M50 202 L325 202 L325 302 L50 302 L50 202 L50 202 Z " />
<glyph glyph-name="period" unicode="&#x2e;" horiz-adv-x="290" d="M145 -10 C193 -10 225 22 225 70 C225 118 193 150 145 150 C97 150 65 118 65 70 C65 22 97 -10 145 -10 L145 -10 Z " />
<glyph glyph-name="slash" unicode="&#x2f;" horiz-adv-x="271" d="M0 -120 L72 -120 L272 940 L200 940 L0 -120 L0 -120 Z " />
<glyph glyph-name="zero" unicode="0" horiz-adv-x="536" d="M280 27 C214 27 170 203 170 466 C170 681 204 824 255 824 C327 824 375 649 375 387 C375 171 337 27 280 27 L280 27 Z M33 422 C33 163 127 -10 268 -10 C409 -10 503 167 503 434 C503 689 409 860 268 860 C127 860 33 685 33 422 L33 422 Z " />
<glyph glyph-name="one" unicode="1" horiz-adv-x="536" d="M305 0 L366 0 L438 0 C438 0 438 1 439 3 C444 12 447 18 446 18 L366 50 L366 754 L366 850 L338 850 L70 696 L70 670 L245 755 L244 754 L244 50 L154 18 C154 18 157 12 162 3 C163 1 164 0 164 0 L244 0 L305 0 L305 0 Z " />
<glyph glyph-name="two" unicode="2" horiz-adv-x="480" d="M452 59 L460 207 C460 207 459 208 456 209 C446 214 440 218 440 218 L395 118 L142 118 C368 460 458 593 458 654 C458 777 386 859 277 859 C135 859 41 772 41 641 C41 605 64 581 98 581 L166 581 L171 586 L171 664 C171 759 204 823 254 823 C293 823 319 754 319 651 C319 401 244 329 50 35 L50 -1 L64 -1 L141 -1 L399 -1 L431 -1 L440 -1 L449 -1 L450 -1 L450 19 L452 59 L452 59 Z " />
<glyph glyph-name="three" unicode="3" horiz-adv-x="509" d="M173 461 C166 461 159 461 152 461 L152 445 L152 427 C283 436 350 368 350 226 C350 106 309 26 248 26 C197 26 163 78 163 156 L163 194 L151 206 L84 206 C53 206 33 186 33 156 C33 57 119 -9 248 -9 C392 -9 488 85 488 226 C488 362 415 440 271 458 C393 490 455 574 455 687 C455 791 381 861 270 861 C140 861 53 787 53 676 C53 645 76 625 110 625 L170 625 L182 637 L182 692 C182 772 211 826 253 826 C291 826 316 765 316 675 C316 555 267 473 172 462 L173 461 L173 461 Z " />
<glyph glyph-name="four" unicode="4" horiz-adv-x="501" d="M350 850 L256 691 L29 304 L8 268 L8 253 L29 253 L256 253 L256 50 L166 18 C166 18 169 12 174 3 C175 1 176 0 176 0 L256 0 L317 0 L379 0 L450 0 C450 0 451 1 451 3 C455 12 458 18 459 18 L379 50 L379 253 L488 253 L488 304 L379 304 L379 691 L379 850 L350 850 L350 850 Z M256 570 L256 304 L111 304 L256 570 L256 570 Z " />
<glyph glyph-name="five" unicode="5" horiz-adv-x="509" d="M415 850 L123 850 L104 850 L86 850 L86 478 C107 484 146 488 185 488 C292 488 363 389 363 241 C363 113 310 28 230 28 C184 28 138 49 116 80 L102 105 L87 105 L73 73 C67 58 62 49 59 46 C61 44 63 41 65 38 C86 9 139 -10 199 -10 C358 -10 465 114 465 300 C465 449 357 549 195 549 C165 549 137 547 123 544 L123 739 L415 739 L415 850 L415 850 Z M59 46 C56 44 54 46 54 53 C54 52 56 50 59 46 L59 46 Z " />
<glyph glyph-name="six" unicode="6" horiz-adv-x="512" d="M432 860 C196 796 38 572 38 299 C38 114 128 -10 263 -10 C394 -10 482 75 482 204 C482 381 420 500 328 500 C267 500 211 454 177 380 C192 620 290 800 432 838 L432 860 L432 860 Z M174 304 C194 391 244 449 298 449 C330 449 351 339 351 174 C351 85 316 26 263 26 C211 26 175 137 174 305 L174 304 L174 304 Z " />
<glyph glyph-name="seven" unicode="7" horiz-adv-x="500" d="M50 850 L50 739 L401 739 C208 331 84 42 84 0 L245 0 C245 231 331 565 460 835 L460 850 L460 864 C458 859 456 854 454 849 L404 849 L50 850 L50 850 Z " />
<glyph glyph-name="eight" unicode="8" horiz-adv-x="517" d="M326 477 C317 482 307 487 297 492 C218 529 187 600 187 685 C187 769 213 825 252 825 C334 825 388 751 388 640 C388 568 365 511 326 478 L326 477 L326 477 Z M358 457 C419 490 456 557 456 645 C456 774 378 860 261 860 C141 860 61 772 61 641 C61 552 93 472 172 412 C101 375 58 294 58 187 C58 68 142 -11 268 -11 C395 -11 479 82 479 222 C479 312 439 397 360 455 L358 457 L358 457 Z M201 392 C214 384 228 377 243 370 C321 334 361 260 361 178 C361 85 326 22 274 22 C186 22 128 96 128 206 C128 291 155 357 201 393 L201 392 L201 392 Z " />
<glyph glyph-name="nine" unicode="9" horiz-adv-x="509" d="M80 -10 C317 54 474 278 474 550 C474 736 384 860 250 860 C118 860 30 770 30 596 C30 450 95 352 192 352 C246 352 300 400 337 477 C323 234 224 51 80 13 L80 -10 L80 -10 Z M338 547 C312 460 266 403 222 403 C189 403 167 480 167 596 C167 747 200 825 250 825 C302 825 337 714 338 547 L338 547 Z " />
<glyph glyph-name="colon" unicode="&#x3a;" horiz-adv-x="290" d="M145 290 C193 290 225 322 225 370 C225 418 193 450 145 450 C97 450 65 418 65 370 C65 322 97 290 145 290 L145 290 Z M145 -10 C193 -10 225 22 225 70 C225 118 193 150 145 150 C97 150 65 118 65 70 C65 22 97 -10 145 -10 L145 -10 Z " />
<glyph glyph-name="semicolon" unicode="&#x3b;" horiz-adv-x="243" d="M133 290 C181 290 213 322 213 370 C213 418 181 450 133 450 C85 450 53 418 53 370 C53 322 85 290 133 290 L133 290 Z M143 113 C129 120 117 125 111 125 C102 125 90 114 80 97 L44 35 L48 22 L90 0 C129 -18 155 -51 155 -83 C155 -124 117 -168 60 -195 L60 -210 C140 -173 194 -110 194 -51 C194 34 174 99 143 113 L143 113 Z " />
<glyph glyph-name="equal" unicode="&#x3d;" horiz-adv-x="500" d="M40 195 L40 123 L460 123 L460 195 L40 195 L40 195 Z M40 421 L40 349 L460 349 L460 421 L40 421 L40 421 Z " />
<glyph glyph-name="question" unicode="&#x3f;" horiz-adv-x="488" d="M238 -5 C286 -5 318 27 318 75 C318 123 286 155 238 155 C190 155 158 123 158 75 C158 27 190 -5 238 -5 L238 -5 Z M180 444 L231 253 L246 253 L257 345 C364 400 433 521 433 660 C433 781 361 861 252 861 C125 861 40 778 40 655 C40 620 62 597 95 597 L154 597 L166 611 L166 668 C166 763 191 827 228 827 C272 827 301 760 301 660 C301 556 253 470 180 445 L180 444 L180 444 Z " />
<glyph glyph-name="A" unicode="A" horiz-adv-x="757" d="M450 319 L450 321 L529 50 L528 50 L434 18 L444 3 C445 1 446 0 446 0 L543 0 L610 0 L678 0 L719 0 C719 0 720 1 720 4 C723 11 725 16 725 16 L664 45 L432 809 L419 855 L343 855 L318 776 L318 776 L86 35 L31 12 C31 12 33 8 35 3 C36 1 36 0 36 0 L75 0 L101 0 L127 0 L216 0 C216 0 217 1 218 3 C223 12 227 18 227 18 L142 50 L224 319 L224 319 L450 319 L450 319 Z M438 361 L236 361 L339 700 L438 361 L438 361 Z " />
<glyph glyph-name="B" unicode="B" horiz-adv-x="665" d="M306 452 L274 452 L274 808 L330 808 C392 808 424 731 424 615 C424 523 378 460 307 452 L306 452 L306 452 Z M416 445 C506 481 560 554 560 649 C560 769 488 849 348 849 L275 849 L210 849 L145 849 L74 849 C74 849 73 848 72 845 C68 836 65 830 65 830 L145 794 L145 54 L65 18 C65 18 68 12 72 3 C73 0 74 -1 74 -1 L145 -1 L210 -1 L275 -1 L345 -1 C508 -1 617 94 617 237 C617 344 549 421 416 444 L416 445 L416 445 Z M275 41 L275 408 L352 408 C438 408 482 335 482 226 C482 115 427 41 345 41 L275 41 L275 41 Z " />
<glyph glyph-name="C" unicode="C" horiz-adv-x="708" d="M533 35 L533 35 C492 31 444 29 396 29 C281 29 204 194 204 441 C204 670 287 823 410 823 C448 823 487 821 522 817 L522 817 C530 816 537 810 541 802 C554 767 572 721 586 687 C588 689 592 691 595 693 C597 694 601 696 604 698 L613 858 L611 829 L611 829 L613 858 C605 860 524 862 410 862 C206 862 70 677 70 398 C70 155 200 -8 396 -8 C518 -8 607 -6 618 -3 L617 20 L617 20 C633 23 634 25 617 25 L617 51 C616 51 615 51 614 51 L610 141 C608 143 604 145 602 146 C600 148 596 150 594 152 C581 122 563 83 550 53 C546 45 539 40 531 39 L533 35 L533 35 Z " />
<glyph glyph-name="D" unicode="D" horiz-adv-x="785" d="M238 0 L274 0 L381 0 C581 7 715 167 715 467 C715 720 572 850 357 850 L274 850 L209 850 L144 850 L73 850 C73 850 72 849 71 846 C67 837 64 831 64 831 L144 795 L144 55 L64 19 C64 19 67 13 71 4 C72 1 73 0 73 0 L144 0 L209 0 L238 0 L238 0 Z M274 42 L274 808 L337 808 C483 808 580 675 580 418 C580 174 500 46 379 42 L274 42 L274 42 Z " />
<glyph glyph-name="E" unicode="E" horiz-adv-x="658" d="M582 42 C578 78 574 120 571 152 L569 154 C559 162 553 166 552 166 L507 41 L274 41 L274 416 L413 416 L455 336 C455 336 462 339 474 343 L478 345 L478 416 L478 437 L478 458 L478 529 L474 531 C462 535 455 538 455 538 L413 458 L274 458 L274 807 L482 807 L528 692 C529 692 535 696 544 703 C546 704 547 705 547 705 C550 735 553 774 556 807 L562 807 L562 849 L560 849 L552 849 L543 849 L510 849 L273 849 L208 849 L176 849 L143 849 L72 849 C72 849 71 848 70 845 C66 836 63 830 63 830 L143 794 L143 54 L63 18 C63 18 66 12 70 3 C71 0 72 -1 72 -1 L143 -1 L176 -1 L208 -1 L273 -1 L535 -1 L568 -1 L577 -1 L585 -1 L587 -1 L587 41 L582 42 L582 42 Z " />
<glyph glyph-name="F" unicode="F" horiz-adv-x="623" d="M413 417 L455 337 C455 337 462 340 474 344 L478 346 L478 417 L478 438 L478 459 L478 530 L474 532 C462 536 455 539 455 539 L413 459 L274 459 L274 808 L472 808 L518 693 C519 693 525 697 534 704 C536 705 537 706 537 706 C540 736 543 775 546 808 L552 808 L552 850 L550 850 L542 850 L533 850 L500 850 L273 850 L208 850 L176 850 L143 850 L72 850 C72 850 71 849 70 846 C66 837 63 831 63 831 L143 795 L143 55 L63 19 C63 19 66 13 70 4 C71 1 72 0 72 0 L143 0 L208 0 L273 0 L357 0 C357 0 358 1 359 4 C364 13 367 19 368 19 L273 55 L273 417 L413 417 L413 417 Z " />
<glyph glyph-name="G" unicode="G" horiz-adv-x="766" d="M646 318 L721 354 C722 354 719 360 715 370 C714 372 713 374 713 373 C674 374 621 374 582 373 C540 374 484 374 442 373 C442 373 441 372 440 370 L432 354 L517 318 L517 52 C479 41 444 35 418 35 C289 35 203 197 203 440 C203 669 290 822 420 822 C461 822 504 819 542 814 C549 812 555 806 559 799 C572 764 590 718 604 684 C606 686 610 688 613 690 C615 691 619 693 622 695 L631 855 L629 826 L629 826 L631 855 C623 857 538 859 419 859 C208 859 68 674 68 395 C68 152 199 -11 396 -11 C461 -11 560 14 644 52 L646 318 L646 318 Z " />
<glyph glyph-name="H" unicode="H" horiz-adv-x="819" d="M610 0 L675 0 L746 0 C745 0 746 1 747 4 C752 13 754 19 755 19 L675 55 L675 795 L755 831 C754 831 752 837 747 846 C746 849 745 850 746 850 L675 850 L610 850 L545 850 L474 850 C474 850 473 849 472 846 C468 837 465 831 465 831 L545 795 L545 459 L274 459 L274 795 L354 831 C353 831 351 837 346 846 C345 849 344 850 345 850 L274 850 L209 850 L144 850 L73 850 C73 850 72 849 71 846 C67 837 64 831 64 831 L144 795 L144 55 L64 19 C64 19 67 13 71 4 C72 1 73 0 73 0 L144 0 L209 0 L274 0 L345 0 C344 0 345 1 346 4 C351 13 353 19 354 19 L274 55 L274 417 L545 417 L545 55 L465 19 C465 19 468 13 472 4 C473 1 474 0 474 0 L545 0 L610 0 L610 0 Z " />
<glyph glyph-name="I" unicode="I" horiz-adv-x="429" d="M215 0 L279 0 L350 0 C351 0 351 1 352 4 C357 13 360 19 359 19 L279 55 L279 795 L359 831 C360 831 357 837 352 846 C351 849 351 850 350 850 L279 850 L215 850 L150 850 L79 850 C79 850 78 849 77 846 C73 837 70 831 70 831 L150 795 L150 55 L70 19 C70 19 73 13 77 4 C78 1 79 0 79 0 L150 0 L215 0 L215 0 Z " />
<glyph glyph-name="J" unicode="J" horiz-adv-x="429" d="M150 795 L150 64 C150 -44 120 -117 76 -117 C73 -117 52 -112 23 -104 L17 -104 C9 -104 3 -151 3 -153 C3 -165 22 -173 50 -173 C187 -173 279 -7 279 243 L279 795 L359 831 C360 831 357 837 352 846 C351 849 351 850 350 850 L279 850 L215 850 L150 850 L79 850 C79 850 78 849 77 846 C73 837 70 831 70 831 L150 795 L150 795 Z " />
<glyph glyph-name="K" unicode="K" horiz-adv-x="765" d="M683 40 L682 40 L370 492 L640 810 L702 836 C703 836 701 840 699 846 C698 848 698 850 698 850 L674 850 L642 850 L609 850 L503 850 L500 847 C494 839 490 833 489 833 L569 800 L347 525 L347 525 L275 435 L555 0 L632 0 L709 0 L735 0 C735 0 736 2 736 4 C739 10 740 14 740 14 L683 40 L683 40 Z M489 833 L489 833 L489 833 Z M209 0 L274 0 L345 0 C345 0 346 1 347 4 C351 13 354 19 354 19 L274 55 L274 795 L354 831 C354 831 351 837 347 846 C346 849 345 850 345 850 L274 850 L209 850 L145 850 L74 850 C74 850 73 849 72 846 C68 837 65 831 65 831 L145 795 L145 55 L65 19 C65 19 68 13 72 4 C73 1 74 0 74 0 L145 0 L209 0 L209 0 Z " />
<glyph glyph-name="L" unicode="L" horiz-adv-x="642" d="M567 42 C562 89 557 145 553 189 C553 189 552 190 550 191 C540 201 533 207 533 207 L487 42 L275 42 L275 795 L360 831 C359 831 356 837 352 846 C351 849 350 850 350 850 L275 850 L210 850 L145 850 L74 850 C74 850 73 849 72 846 C68 837 65 831 65 831 L145 795 L145 55 L65 19 C65 19 68 13 72 4 C73 1 74 0 74 0 L145 0 L178 0 L210 0 L275 0 L522 0 L554 0 L563 0 L572 0 L573 0 L573 42 L567 42 L567 42 Z " />
<glyph glyph-name="M" unicode="M" horiz-adv-x="982" d="M791 0 L853 0 L914 0 L916 4 C919 13 922 19 922 19 L851 55 L829 795 L916 831 C916 831 913 837 908 846 L906 850 L827 850 L765 850 L704 850 L523 155 L310 850 L216 850 L195 850 L173 850 L93 850 C94 850 93 849 92 846 C87 837 84 831 83 831 L171 795 L150 55 L69 19 C69 19 72 13 76 4 L78 0 L148 0 L171 0 L194 0 L270 0 C270 0 271 1 272 4 C276 13 279 19 279 19 L195 55 L212 725 L444 -5 L509 -5 L534 85 L541 92 L538 100 L707 706 L726 55 L648 19 C648 19 651 13 656 4 C656 1 657 0 657 0 L728 0 L791 0 L791 0 Z " />
<glyph glyph-name="N" unicode="N" horiz-adv-x="811" d="M672 795 L747 831 C746 831 744 837 740 846 C739 849 738 850 738 850 L672 850 L645 850 L618 850 L529 850 C529 850 528 849 527 846 C521 837 518 831 518 831 L618 795 L618 220 L207 850 L180 850 L153 850 L86 850 C86 850 86 849 85 846 C81 837 78 831 78 831 L153 795 L153 764 L153 55 L73 19 C73 19 76 13 80 4 C81 1 82 0 82 0 L153 0 L180 0 L207 0 L296 0 C296 0 297 1 298 4 C303 13 307 19 307 19 L207 55 L207 676 L603 27 L622 -5 L672 -5 L672 137 L672 795 L672 795 Z " />
<glyph glyph-name="O" unicode="O" horiz-adv-x="817" d="M424 28 C295 28 208 205 208 470 C208 681 283 822 395 822 C524 822 610 642 610 373 C610 166 536 28 424 28 L424 28 Z M70 419 C70 162 206 -10 409 -10 C612 -10 748 163 748 423 C748 685 612 860 409 860 C206 860 70 684 70 419 L70 419 Z " />
<glyph glyph-name="P" unicode="P" horiz-adv-x="666" d="M209 0 L274 0 L358 0 C358 0 359 1 360 4 C365 13 368 19 369 19 L274 55 L274 379 L337 379 C492 379 596 475 596 619 C596 758 502 850 362 850 L274 850 L209 850 L144 850 L73 850 C73 850 72 849 71 846 C67 837 64 831 64 831 L144 795 L144 55 L64 19 C64 19 67 13 71 4 C72 1 73 0 73 0 L144 0 L209 0 L209 0 Z M274 422 L274 808 L345 807 C412 807 457 727 457 607 C457 495 415 421 352 421 L274 422 L274 422 Z " />
<glyph glyph-name="Q" unicode="Q" horiz-adv-x="817" d="M846 -115 L846 -104 C839 -107 806 -110 764 -110 C665 -110 555 -67 482 -2 C644 35 748 196 748 423 C748 685 612 860 409 860 C206 860 70 684 70 419 C70 172 196 3 386 -10 C482 -100 595 -159 675 -159 C733 -159 802 -142 846 -116 L846 -115 L846 -115 Z M424 27 C295 27 208 204 208 469 C208 680 283 821 395 821 C524 821 610 641 610 372 C610 165 536 27 424 27 L424 27 Z " />
<glyph glyph-name="R" unicode="R" horiz-adv-x="692" d="M571 0 L643 0 L676 0 C676 0 677 2 678 5 C680 13 682 17 682 17 L612 50 L389 412 C478 436 573 519 573 634 C573 764 485 850 352 850 L273 850 L208 850 L143 850 L72 850 C72 850 71 849 70 846 C66 837 63 831 63 831 L143 795 L143 55 L63 19 C63 19 66 13 70 4 C71 1 72 0 72 0 L143 0 L208 0 L273 0 L339 0 C339 0 340 1 341 4 C345 13 347 19 348 19 L273 55 L273 404 L305 404 L498 0 L571 0 L571 0 Z M273 446 L273 807 L335 807 C394 807 433 733 433 622 C433 516 363 446 312 446 L273 446 L273 446 Z " />
<glyph glyph-name="S" unicode="S" horiz-adv-x="546" d="M76 23 L74 -6 C82 -8 166 -10 283 -10 C408 -10 491 90 491 240 C491 339 437 416 333 489 C252 545 211 602 211 673 C211 763 238 823 279 823 C310 823 340 821 367 818 C381 815 394 804 399 789 C407 767 417 739 425 718 C428 719 432 721 435 722 C439 723 443 725 446 726 L449 803 C450 803 451 803 452 803 L452 829 L452 829 L453 856 C447 859 380 861 288 861 C166 861 85 768 85 627 C85 534 134 464 229 397 C322 333 369 274 369 207 C369 99 335 27 285 27 C242 27 195 31 153 37 L153 37 C145 38 138 45 135 53 C127 82 115 122 106 152 C103 150 99 148 95 147 C92 145 88 143 85 142 L80 52 C79 52 78 52 77 52 L77 23 C78 23 79 23 80 23 L76 23 L76 23 Z " />
<glyph glyph-name="T" unicode="T" horiz-adv-x="683" d="M342 0 L407 0 L495 0 C495 0 496 1 498 4 C503 13 506 19 507 19 L407 55 L407 808 L553 808 L600 663 C600 663 607 668 617 677 C619 678 620 679 620 679 C624 717 629 766 633 808 L639 808 L639 850 L637 850 L628 850 L619 850 L587 850 L407 850 L277 850 L97 850 L64 850 L56 850 L47 850 L45 850 L45 808 L51 808 L64 679 L66 677 C77 668 83 663 84 663 L131 808 L277 808 L277 55 L177 19 C177 19 181 13 186 4 C187 1 188 0 188 0 L277 0 L342 0 L342 0 Z " />
<glyph glyph-name="U" unicode="U" horiz-adv-x="796" d="M135 795 L135 301 C135 115 238 -10 393 -10 C548 -10 651 115 651 301 L651 795 L731 831 C731 831 728 837 724 846 C723 849 722 850 722 850 L651 850 L624 850 L597 850 L508 850 C508 850 507 849 506 846 C501 837 497 831 497 831 L597 795 L597 285 C597 133 526 31 421 31 C326 31 263 148 263 324 L264 795 L264 795 L344 831 C344 831 341 837 337 846 C336 849 335 850 335 850 L264 850 L199 850 L135 850 L64 850 C64 850 63 849 62 846 C58 837 55 831 55 831 L135 795 L135 795 Z " />
<glyph glyph-name="V" unicode="V" horiz-adv-x="730" d="M590 795 L393 162 L228 795 L324 831 L314 846 C313 849 312 850 312 850 L214 850 L147 850 L80 850 L37 850 L35 846 C32 838 31 833 31 833 L96 800 L345 7 L348 -5 L385 -5 L646 810 L699 836 C700 836 698 840 696 847 C695 849 695 850 694 850 L659 850 L633 850 L607 850 L519 850 C519 850 518 849 516 846 C511 837 508 831 507 831 L590 795 L590 795 Z " />
<glyph glyph-name="W" unicode="W" horiz-adv-x="975" d="M840 795 L840 795 L705 203 L516 807 L501 855 L477 855 L469 824 L313 206 L210 795 L210 795 L310 831 L300 846 C299 849 298 850 298 850 L200 850 L133 850 L66 850 L22 850 L20 846 C17 838 15 832 16 833 L78 800 L268 29 L277 -5 L303 -5 L310 19 L476 656 L664 29 L674 -5 L699 -5 L705 19 L893 810 L894 810 L955 836 C955 836 953 840 950 847 C949 849 948 850 949 850 L903 850 L877 850 L851 850 L762 850 C762 850 761 849 760 846 C754 837 751 831 751 831 L840 795 L840 795 Z " />
<glyph glyph-name="X" unicode="X" horiz-adv-x="753" d="M565 795 L566 795 L407 506 L245 795 L245 795 L334 831 C334 831 330 837 323 846 C322 849 321 850 321 850 L214 850 L139 850 L63 850 L37 850 C37 850 37 848 36 845 L33 833 L90 800 L90 800 L296 420 L78 49 L14 17 C14 17 16 12 18 4 C19 1 19 -1 19 -1 L49 -1 L99 -1 L150 -1 L265 -1 C265 -1 266 0 268 3 C275 12 280 18 280 18 L179 54 L335 347 L494 54 L494 54 L414 18 L424 3 C425 0 426 -1 426 -1 L524 -1 L606 -1 L689 -1 L716 -1 C716 -1 716 1 717 3 C719 10 720 15 720 15 L664 44 L664 44 L446 433 L662 804 L662 804 L719 833 C719 833 718 838 716 845 L714 849 L688 849 L641 849 L595 849 L488 849 C488 849 487 848 485 845 C479 836 474 830 475 830 L565 795 L565 795 Z " />
<glyph glyph-name="Y" unicode="Y" horiz-adv-x="713" d="M296 55 L206 19 C206 19 209 13 214 4 C215 1 216 0 216 0 L296 0 L361 0 L426 0 L506 0 C505 0 506 1 508 4 C512 13 515 19 516 19 L426 55 L426 423 L628 810 L682 836 C682 836 680 840 678 846 C677 849 677 850 677 850 L649 850 L623 850 L597 850 L495 850 C495 850 494 849 493 846 C487 837 483 831 482 831 L569 795 L391 449 L219 795 L302 831 L292 846 C291 849 290 850 290 850 L192 850 L125 850 L58 850 L32 850 C32 850 32 848 31 845 C29 837 27 832 28 833 L84 800 L296 402 L296 55 L296 55 Z " />
<glyph glyph-name="Z" unicode="Z" horiz-adv-x="646" d="M403 808 L108 42 L99 19 L99 0 L108 0 L215 0 L504 0 L537 0 L545 0 L554 0 L556 0 L556 42 L550 42 L538 162 C538 162 537 163 535 164 C525 172 519 177 518 177 L470 42 L231 42 L526 808 L541 847 L541 850 L526 850 L419 850 L163 850 L130 850 L122 850 L113 850 L111 850 L111 808 L117 808 C121 772 125 730 128 698 C128 698 129 697 131 696 C141 689 148 684 148 684 L197 809 L403 808 L403 808 Z " />
<glyph glyph-name="bracketleft" unicode="&#x5b;" horiz-adv-x="277" d="M156 920 L272 920 L272 953 L156 953 L67 953 L67 -150 L156 -150 L272 -150 L272 -117 L156 -117 L156 920 L156 920 Z " />
<glyph glyph-name="backslash" unicode="&#x5c;" horiz-adv-x="293" d="M222 -120 L294 -120 L72 940 L0 940 L222 -120 L222 -120 Z " />
<glyph glyph-name="bracketright" unicode="&#x5d;" horiz-adv-x="272" d="M118 920 L118 -117 L5 -117 L5 -150 L118 -150 L207 -150 L207 953 L118 953 L5 953 L5 920 L118 920 L118 920 Z " />
<glyph glyph-name="underscore" unicode="&#x5f;" horiz-adv-x="500" d="M25 -86 L25 -157 L475 -157 L475 -86 L25 -86 L25 -86 Z " />
<glyph glyph-name="a" unicode="a" horiz-adv-x="513" d="M292 254 C125 217 39 156 39 92 C39 31 84 -9 151 -9 C209 -9 264 12 301 52 C317 15 352 -8 398 -8 C444 -8 487 25 506 74 L504 78 C500 68 493 62 485 62 C438 62 406 74 406 92 L407 355 C407 419 355 462 254 462 C164 462 83 444 66 419 C63 414 68 405 80 398 L116 387 L121 387 C137 409 186 426 234 426 C272 426 292 385 292 324 L292 254 L292 254 Z M292 227 L292 102 C292 90 293 79 296 69 C279 55 260 48 242 48 C187 48 150 77 150 120 C150 163 197 203 291 227 L292 227 L292 227 Z " />
<glyph glyph-name="b" unicode="b" horiz-adv-x="569" d="M100 -10 L109 -10 L180 59 C210 17 262 -10 315 -10 C438 -10 520 96 520 255 C520 378 458 460 365 460 C302 460 243 443 215 416 L215 665 L215 712 L215 750 L192 750 L42 689 L42 688 C38 683 35 680 35 680 L100 624 L100 93 L100 -10 L100 -10 Z M215 115 L215 388 C226 400 269 408 322 408 C372 408 405 334 405 224 C405 106 377 27 335 27 C293 27 245 62 215 115 L215 115 Z " />
<glyph glyph-name="c" unicode="c" horiz-adv-x="477" d="M367 320 L374 320 L418 352 C426 360 432 372 432 381 C432 385 426 397 418 412 C401 441 347 460 282 460 C143 460 50 356 50 200 C50 74 134 -10 261 -10 C330 -10 399 36 433 105 L435 113 C434 112 433 111 432 110 L432 114 L428 114 C393 74 339 48 293 48 C215 48 163 135 163 266 C163 361 201 425 259 425 C287 425 319 402 339 367 L367 320 L367 320 Z " />
<glyph glyph-name="d" unicode="d" horiz-adv-x="583" d="M415 0 L465 0 L527 0 C527 0 528 1 529 3 C533 12 535 18 535 18 L465 50 L465 60 L465 685 L465 722 L465 760 L442 760 L292 699 L292 698 L285 691 L350 644 L350 456 C330 459 309 461 287 461 C144 461 48 353 48 192 C48 71 113 -9 211 -9 C266 -9 320 14 353 50 L365 0 L415 0 L415 0 Z M350 401 L350 75 C327 54 292 41 256 41 C200 41 163 115 163 227 C163 344 209 422 278 422 C295 422 321 414 350 400 L350 401 L350 401 Z " />
<glyph glyph-name="e" unicode="e" horiz-adv-x="483" d="M261 279 L164 279 C167 367 201 425 251 425 C293 425 322 368 328 279 L261 279 L261 279 Z M260 243 L380 243 L432 247 C432 375 363 460 260 460 C133 460 49 356 49 200 C49 74 133 -10 260 -10 C329 -10 398 36 432 105 L434 113 C433 112 432 111 431 110 L431 114 L427 114 C392 74 338 48 292 48 C218 48 168 125 162 244 L260 243 L260 243 Z " />
<glyph glyph-name="f" unicode="f" horiz-adv-x="393" d="M169 0 L226 0 L288 0 C288 0 289 1 290 3 C294 12 296 18 296 18 L226 50 L227 414 L358 414 L358 450 L227 450 L228 629 C228 656 259 686 307 686 C322 686 340 682 353 676 L380 665 L387 665 L400 694 C403 699 404 707 404 712 C404 721 393 732 376 740 C364 746 350 750 341 750 C231 750 111 615 111 490 L111 450 L40 450 L40 414 L111 414 L111 50 L46 18 C46 18 48 12 52 3 C53 1 54 0 54 0 L111 0 L169 0 L169 0 Z " />
<glyph glyph-name="g" unicode="g" horiz-adv-x="554" d="M185 151 L185 151 C208 143 234 139 262 139 C383 139 446 204 446 302 C446 344 432 379 407 406 L506 408 L506 450 L374 432 C344 450 306 460 262 460 C141 460 79 396 79 300 C79 236 111 186 164 160 C109 140 74 107 74 75 C74 20 110 -18 166 -25 C98 -53 54 -97 54 -136 C54 -199 130 -241 243 -241 C374 -241 462 -170 462 -64 C462 19 425 74 331 74 L221 74 C166 74 130 84 130 100 C130 121 152 141 186 150 L185 151 L185 151 Z M272 169 C228 169 198 223 198 303 C198 379 218 429 258 429 C300 429 328 376 328 297 C328 220 309 169 272 169 L272 169 Z M185 -26 L273 -26 C369 -26 406 -48 406 -80 C406 -163 344 -219 251 -219 C195 -219 157 -179 157 -120 C157 -70 168 -32 185 -26 L185 -26 Z " />
<glyph glyph-name="h" unicode="h" horiz-adv-x="598" d="M436 0 L494 0 L552 0 L553 3 C556 12 559 18 559 18 L494 50 L494 343 C494 413 443 460 367 460 C321 460 275 430 230 384 L230 665 L230 712 L230 750 L207 750 L57 689 L57 688 C53 683 50 680 50 680 L115 624 L115 50 L50 18 C50 18 52 12 56 3 C57 1 57 0 57 0 L115 0 L173 0 L230 0 L292 0 C292 0 293 1 294 3 C297 12 300 18 300 18 L230 50 L230 360 C259 388 293 406 334 406 C362 406 380 354 380 277 L380 50 L310 18 C310 18 312 12 316 3 C317 1 318 0 318 0 L380 0 L436 0 L436 0 Z " />
<glyph glyph-name="i" unicode="i" horiz-adv-x="352" d="M170 610 C218 610 250 642 250 690 C250 738 218 770 170 770 C122 770 90 738 90 690 C90 642 122 610 170 610 L170 610 Z M177 0 L234 0 L296 0 C296 0 297 1 298 3 C301 12 304 18 304 18 L234 50 L234 375 L234 422 L234 460 L211 460 L61 399 L61 398 C57 393 54 390 54 390 L119 334 L119 50 L54 18 C54 18 56 12 60 3 C61 1 61 0 61 0 L119 0 L177 0 L177 0 Z " />
<glyph glyph-name="j" unicode="j" horiz-adv-x="351" d="M177 610 C225 610 257 642 257 690 C257 738 225 770 177 770 C129 770 97 738 97 690 C97 642 129 610 177 610 L177 610 Z M56 -220 L56 -233 C206 -140 234 -72 234 2 L234 375 L234 422 L234 460 L211 460 L61 399 L61 398 C57 393 54 390 54 390 L119 334 L119 -14 C119 -114 109 -186 56 -220 L56 -220 Z " />
<glyph glyph-name="k" unicode="k" horiz-adv-x="588" d="M504 50 L504 50 L320 303 L437 400 L437 400 L501 433 C501 433 500 436 500 442 C499 447 499 450 498 450 L497 450 L474 450 L450 450 L339 450 C340 450 339 448 337 446 C330 436 326 429 325 429 L383 390 L230 255 L230 675 L230 722 L230 760 L207 760 L57 699 L57 698 C53 693 50 690 50 690 L115 634 L115 50 L50 18 C50 18 52 12 56 3 C57 1 57 0 57 0 L115 0 L173 0 L230 0 L292 0 C292 0 293 1 294 3 C297 12 300 18 300 18 L230 50 L230 243 L392 0 L466 0 L540 0 L558 0 C558 0 559 2 560 5 C561 13 562 17 562 17 L504 50 L504 50 Z " />
<glyph glyph-name="l" unicode="l" horiz-adv-x="333" d="M167 0 L224 0 L286 0 C286 0 287 1 288 3 C291 12 294 18 294 18 L224 50 L224 675 L224 722 L224 760 L201 760 L51 699 L51 698 C47 693 44 690 44 690 L109 634 L109 50 L44 18 C44 18 46 12 50 3 C51 1 51 0 51 0 L109 0 L167 0 L167 0 Z " />
<glyph glyph-name="m" unicode="m" horiz-adv-x="845" d="M683 0 L741 0 L798 0 C798 0 799 1 800 3 C803 12 805 18 806 18 L741 50 L741 343 C741 413 692 460 618 460 C573 460 525 427 476 376 C463 428 419 461 358 461 C314 461 270 431 225 384 L220 461 L197 461 L53 400 L53 399 C49 395 46 391 46 391 L111 335 L111 51 L46 19 C46 19 48 13 52 4 C53 2 53 1 53 1 L111 1 L169 1 L226 1 L284 1 C284 1 284 2 285 4 C289 13 291 19 291 19 L226 51 L226 361 C254 389 286 407 324 407 C349 407 365 355 365 278 L365 51 L295 19 C295 19 297 13 301 4 C302 2 303 1 303 1 L365 1 L422 1 L480 1 L542 1 C542 1 542 2 543 4 C547 13 550 19 550 19 L480 51 L480 344 C480 348 480 352 480 356 C512 387 546 407 585 407 C610 407 627 355 627 278 L627 51 L557 19 C557 19 559 13 563 4 C564 2 564 1 564 1 L627 1 L683 0 L683 0 Z " />
<glyph glyph-name="n" unicode="n" horiz-adv-x="598" d="M436 0 L494 0 L552 0 L553 3 C556 12 559 18 559 18 L494 50 L494 343 C494 413 443 460 367 460 C321 460 275 430 230 383 L225 460 L202 460 L58 399 L58 398 C54 394 51 390 51 390 L116 334 L116 50 L51 18 C51 18 53 12 57 3 C58 1 58 0 58 0 L116 0 L174 0 L231 0 L293 0 C293 0 294 1 295 3 C298 12 301 18 301 18 L231 50 L231 360 C260 388 294 406 335 406 C363 406 381 354 381 277 L381 50 L311 18 C311 18 313 12 317 3 C318 1 319 0 319 0 L381 0 L436 0 L436 0 Z " />
<glyph glyph-name="o" unicode="o" horiz-adv-x="548" d="M284 22 C223 22 182 103 182 225 C182 347 210 428 264 428 C325 428 366 347 366 225 C366 103 338 22 284 22 L284 22 Z M50 225 C50 84 140 -10 274 -10 C422 -10 498 84 498 225 C498 366 408 460 274 460 C126 460 50 366 50 225 L50 225 Z " />
<glyph glyph-name="p" unicode="p" horiz-adv-x="581" d="M229 396 L224 460 L201 460 L57 399 L57 398 C53 394 50 391 50 390 L115 334 L115 -180 L50 -212 C50 -212 52 -218 56 -227 C57 -229 57 -230 57 -230 L115 -230 L173 -230 L230 -230 L292 -230 C292 -230 293 -229 294 -227 C297 -218 300 -212 300 -212 L230 -180 L230 0 C248 -6 270 -10 293 -10 C436 -10 531 96 531 254 C531 378 468 460 373 460 C331 460 275 435 229 396 L229 396 Z M230 69 L230 373 C259 395 297 409 329 409 C382 409 418 327 418 203 C418 98 376 28 312 28 C292 28 259 45 229 70 L230 69 L230 69 Z " />
<glyph glyph-name="q" unicode="q" horiz-adv-x="589" d="M427 -230 L485 -230 L542 -230 C542 -230 543 -229 544 -227 C547 -218 549 -212 550 -212 L485 -180 L485 410 L485 460 L476 460 L436 441 C406 453 356 460 300 460 C150 460 50 352 50 191 C50 70 119 -10 222 -10 C262 -10 320 15 370 54 L370 -180 L300 -212 C300 -212 302 -218 306 -227 C307 -229 307 -230 307 -230 L370 -230 L427 -230 L427 -230 Z M370 405 L370 81 C336 57 296 42 265 42 C204 42 163 116 163 228 C163 345 213 423 289 423 C314 423 342 416 369 405 L370 405 L370 405 Z " />
<glyph glyph-name="r" unicode="r" horiz-adv-x="418" d="M265 383 C271 368 304 347 334 334 C357 322 372 314 372 313 L379 313 C403 362 419 401 419 409 C419 418 415 428 407 437 C403 443 398 448 392 451 C384 454 355 461 336 461 C308 461 272 426 231 372 L231 376 L231 377 L231 377 L225 461 L202 461 L58 400 L58 399 C54 394 51 391 51 391 L116 335 L116 51 L51 19 C51 19 53 13 57 4 C58 2 58 1 58 1 L116 1 L174 1 L231 1 L293 1 C293 1 294 2 295 4 C298 13 301 19 301 19 L231 51 L231 345 C243 361 255 374 266 384 L265 383 L265 383 Z " />
<glyph glyph-name="s" unicode="s" horiz-adv-x="442" d="M62 39 L60 21 C100 2 163 -10 216 -10 C310 -10 373 45 373 128 C373 216 334 261 259 282 C205 297 177 323 177 370 C177 406 194 430 220 430 C225 430 230 430 235 429 L235 429 C275 424 310 393 324 352 C326 346 328 338 330 333 C333 333 337 334 339 335 C342 336 346 336 348 337 L353 387 C354 386 355 385 356 384 L357 423 L356 404 L356 404 L358 422 C320 444 264 458 217 458 C132 458 76 405 76 325 C76 243 111 201 180 181 C241 164 272 137 272 89 C272 45 249 15 213 15 C203 15 191 16 178 18 L178 18 C147 23 118 47 104 77 C99 90 91 107 85 120 C83 119 80 118 78 117 C76 116 73 115 70 114 L65 56 C64 56 63 56 62 56 L61 36 L61 36 L62 39 L62 39 Z M60 37 L60 18 L60 37 L60 37 L60 37 Z " />
<glyph glyph-name="t" unicode="t" horiz-adv-x="393" d="M364 53 L361 61 C358 55 332 51 297 51 C251 51 220 88 220 144 L219 414 L351 414 L351 450 L219 450 L219 573 L211 573 L104 450 L18 418 L18 414 L104 414 L104 120 C104 42 154 -10 230 -10 C292 -10 345 15 364 53 L364 53 Z " />
<glyph glyph-name="u" unicode="u" horiz-adv-x="560" d="M355 400 L355 94 C320 63 282 47 250 47 C224 47 206 99 206 177 L206 451 L149 451 L91 451 L33 451 C33 451 33 450 32 448 C28 439 26 434 26 434 L91 401 L91 108 C91 38 141 -9 215 -9 C250 -9 301 17 356 70 L356 1 L413 1 L471 1 L533 1 C533 1 533 2 534 4 C538 13 541 19 541 19 L471 51 L471 451 L413 451 L356 451 L294 451 C294 451 293 450 292 448 C288 439 286 434 286 434 L355 400 L355 400 Z " />
<glyph glyph-name="v" unicode="v" horiz-adv-x="553" d="M282 433 C281 433 277 439 272 447 L269 450 L172 450 L108 450 L45 450 L4 450 C4 450 3 448 3 446 C0 438 -2 433 -2 433 L68 400 L247 9 L251 0 L266 0 L448 395 L524 431 C524 431 522 437 519 445 C518 448 517 450 517 450 L473 450 L453 450 L434 450 L345 450 C345 450 344 449 343 446 C338 437 334 431 334 431 L411 395 L308 152 L195 400 L282 433 L282 433 Z M282 433 L282 433 L282 433 L282 433 Z " />
<glyph glyph-name="w" unicode="w" horiz-adv-x="838" d="M682 395 L682 395 L530 8 L534 0 L550 0 L720 395 L794 431 C794 431 792 437 789 445 C789 448 788 450 788 450 L743 450 L723 450 L704 450 L615 450 C615 450 614 449 613 446 C608 437 604 431 604 431 L682 395 L682 395 Z M4 433 L71 400 L72 400 L217 8 L220 0 L238 0 L368 296 L530 8 L590 162 L424 423 L410 450 L402 450 L397 438 L281 160 L194 400 L286 433 C286 433 282 438 276 447 L273 450 L176 450 L114 450 L53 450 L11 450 L9 446 C7 439 5 433 4 433 L4 433 Z M4 433 L4 433 L4 433 Z " />
<glyph glyph-name="x" unicode="x" horiz-adv-x="711" d="M502 614 L502 614 L369 405 L237 614 L237 614 L322 650 C322 650 317 656 311 665 C310 668 309 669 308 669 L202 669 L134 669 L66 669 L41 669 C41 669 41 667 40 664 L37 652 L96 619 L275 326 L91 50 L91 50 L25 18 C25 18 26 13 28 5 C29 2 30 0 30 0 L58 0 L96 0 L134 0 L249 0 C249 0 250 1 252 4 C259 13 264 19 264 19 L169 55 L169 55 L308 274 L442 55 L442 55 L366 19 L376 4 C377 1 378 0 378 0 L476 0 L550 0 L624 0 L650 0 C650 0 651 2 651 4 C654 11 655 16 655 16 L596 45 L596 45 L402 354 L578 624 L578 624 L637 653 C637 653 636 658 634 665 L632 669 L607 669 L572 669 L537 669 L430 669 C430 669 429 668 428 665 C421 656 417 650 417 650 L502 614 L502 614 Z " />
<glyph glyph-name="y" unicode="y" horiz-adv-x="530" d="M67 400 L68 400 L249 14 L217 -59 C199 -103 173 -120 125 -120 L59 -120 L55 -124 L55 -198 C55 -228 69 -240 104 -240 C156 -240 196 -193 246 -71 L447 395 L522 431 C522 431 520 437 517 445 C516 448 515 450 516 450 L471 450 L454 450 L437 450 L349 450 C349 450 348 449 346 446 C341 437 338 431 337 431 L413 395 L309 155 L194 399 L194 399 L280 432 C280 432 276 437 270 446 C269 448 268 449 268 449 L170 449 L106 449 L43 449 L2 449 C2 449 2 447 1 445 C-2 437 -4 432 -4 432 L67 400 L67 400 Z " />
<glyph glyph-name="z" unicode="z" horiz-adv-x="488" d="M88 433 C86 401 83 359 82 327 C81 327 83 326 85 324 C93 319 99 315 99 315 L137 415 L262 415 L88 35 L79 14 L79 0 L88 0 L198 0 L414 0 L414 17 L414 35 L414 128 C414 128 413 129 410 130 C402 136 396 139 396 140 L364 35 L214 35 L388 415 L406 450 L388 450 L278 450 L139 450 L99 460 C99 460 95 460 90 459 L89 459 C88 451 88 441 88 433 L88 433 Z " />
<glyph glyph-name="bar" unicode="&#x7c;" horiz-adv-x="235" d="M64 -260 L136 -260 L136 760 L64 760 L64 -260 L64 -260 Z " />
<glyph glyph-name="exclamdown" unicode="&#xa1;" horiz-adv-x="282" d="M149 460 C197 460 229 428 229 380 C229 332 197 300 149 300 C101 300 69 332 69 380 C69 428 101 460 149 460 L149 460 Z M80 -400 L141 197 L157 197 L218 -400 L80 -400 L80 -400 Z " />
<glyph glyph-name="guillemotleft" unicode="&#xab;" horiz-adv-x="424" d="M396 425 L196 248 L396 70 L404 70 L339 248 L404 425 L396 425 L396 425 Z M213 425 L13 248 L213 70 L221 70 L157 248 L221 425 L213 425 L213 425 Z " />
<glyph glyph-name="periodcentered" unicode="&#xb7;" horiz-adv-x="290" d="M145 210 C193 210 225 242 225 290 C225 338 193 370 145 370 C97 370 65 338 65 290 C65 242 97 210 145 210 L145 210 Z " />
<glyph glyph-name="guillemotright" unicode="&#xbb;" horiz-adv-x="451" d="M211 425 L288 248 L211 70 L219 70 L432 248 L219 425 L211 425 L211 425 Z M20 425 L97 248 L20 70 L28 70 L241 248 L28 425 L20 425 L20 425 Z " />
<glyph glyph-name="questiondown" unicode="&#xbf;" horiz-adv-x="488" d="M250 455 C202 455 170 423 170 375 C170 327 202 295 250 295 C298 295 330 327 330 375 C330 423 298 455 250 455 L250 455 Z M308 6 L258 197 L242 197 L231 105 C124 50 55 -70 55 -208 C55 -329 128 -409 236 -409 C363 -409 448 -326 448 -203 C448 -168 426 -145 393 -145 L334 -145 L322 -159 L322 -216 C322 -311 297 -375 260 -375 C216 -375 187 -308 187 -208 C187 -104 236 -18 308 7 L308 6 L308 6 Z " />
<glyph glyph-name="Agrave" unicode="&#xc0;" horiz-adv-x="757" d="M383 895 L296 1054 L181 1054 C181 1031 186 1012 193 1008 L374 895 L383 895 L383 895 Z M429 392 L246 392 L340 700 L429 392 L429 392 Z M441 351 L529 49 L528 49 L434 17 L444 2 C445 0 446 -1 446 -1 L543 -1 L610 -1 L678 -1 L719 -1 C719 -1 720 0 720 3 C723 10 725 15 725 15 L664 44 L432 808 L419 854 L343 854 L318 775 L318 775 L86 34 L31 11 C31 11 33 7 35 2 C36 0 36 -1 36 -1 L75 -1 L101 -1 L127 -1 L216 -1 C216 -1 217 0 218 2 C223 11 227 17 227 17 L142 49 L233 349 L441 349 L441 351 L441 351 Z " />
<glyph glyph-name="Aacute" unicode="&#xc1;" horiz-adv-x="757" d="M378 895 L387 895 L568 1008 C575 1012 580 1031 580 1054 L465 1054 L378 895 L378 895 Z M429 392 L246 392 L340 700 L429 392 L429 392 Z M441 351 L529 49 L528 49 L434 17 L444 2 C445 0 446 -1 446 -1 L543 -1 L610 -1 L678 -1 L719 -1 C719 -1 720 0 720 3 C723 10 725 15 725 15 L664 44 L432 808 L419 854 L343 854 L318 775 L318 775 L86 34 L31 11 C31 11 33 7 35 2 C36 0 36 -1 36 -1 L75 -1 L101 -1 L127 -1 L216 -1 C216 -1 217 0 218 2 C223 11 227 17 227 17 L142 49 L233 349 L441 349 L441 351 L441 351 Z " />
<glyph glyph-name="Acircumflex" unicode="&#xc2;" horiz-adv-x="757" d="M539 895 L394 1052 L371 1052 L231 895 L241 895 L384 966 L529 895 L539 895 L539 895 Z M429 392 L246 392 L340 700 L429 392 L429 392 Z M441 351 L529 49 L528 49 L434 17 L444 2 C445 0 446 -1 446 -1 L543 -1 L610 -1 L678 -1 L719 -1 C719 -1 720 0 720 3 C723 10 725 15 725 15 L664 44 L432 808 L419 854 L343 854 L318 775 L318 775 L86 34 L31 11 C31 11 33 7 35 2 C36 0 36 -1 36 -1 L75 -1 L101 -1 L127 -1 L216 -1 C216 -1 217 0 218 2 C223 11 227 17 227 17 L142 49 L233 349 L441 349 L441 351 L441 351 Z " />
<glyph glyph-name="Atilde" unicode="&#xc3;" horiz-adv-x="757" d="M246 918 C256 945 266 962 297 962 C349 962 392 908 444 908 C490 908 513 957 539 1030 L529 1030 C519 1002 509 983 478 984 C426 983 383 1038 331 1038 C284 1038 262 990 236 918 L246 918 L246 918 Z M429 392 L246 392 L340 700 L429 392 L429 392 Z M441 351 L529 49 L528 49 L434 17 L444 2 C445 0 446 -1 446 -1 L543 -1 L610 -1 L678 -1 L719 -1 C719 -1 720 0 720 3 C723 10 725 15 725 15 L664 44 L432 808 L419 854 L343 854 L318 775 L318 775 L86 34 L31 11 C31 11 33 7 35 2 C36 0 36 -1 36 -1 L75 -1 L101 -1 L127 -1 L216 -1 C216 -1 217 0 218 2 C223 11 227 17 227 17 L142 49 L233 349 L441 349 L441 351 L441 351 Z " />
<glyph glyph-name="Adieresis" unicode="&#xc4;" horiz-adv-x="757" d="M490 925 C533 925 562 954 562 997 C562 1040 533 1069 490 1069 C447 1069 418 1040 418 997 C418 954 447 925 490 925 L490 925 Z M275 925 C318 925 347 954 347 997 C347 1040 318 1069 275 1069 C232 1069 203 1040 203 997 C203 954 232 925 275 925 L275 925 Z M429 392 L246 392 L340 700 L429 392 L429 392 Z M441 351 L529 49 L528 49 L434 17 L444 2 C445 0 446 -1 446 -1 L543 -1 L610 -1 L678 -1 L719 -1 C719 -1 720 0 720 3 C723 10 725 15 725 15 L664 44 L432 808 L419 854 L343 854 L318 775 L318 775 L86 34 L31 11 C31 11 33 7 35 2 C36 0 36 -1 36 -1 L75 -1 L101 -1 L127 -1 L216 -1 C216 -1 217 0 218 2 C223 11 227 17 227 17 L142 49 L233 349 L441 349 L441 351 L441 351 Z " />
<glyph glyph-name="Aring" unicode="&#xc5;" horiz-adv-x="757" d="M386 918 C373 918 363 955 363 999 C363 1035 370 1059 381 1059 C394 1059 402 1027 402 980 C402 946 395 918 386 918 L386 918 Z M292 989 C292 941 334 900 383 900 C431 900 473 942 473 992 C473 1043 437 1077 383 1077 C328 1077 292 1042 292 989 L292 989 Z M429 392 L246 392 L340 700 L429 392 L429 392 Z M441 351 L529 49 L528 49 L434 17 L444 2 C445 0 446 -1 446 -1 L543 -1 L610 -1 L678 -1 L719 -1 C719 -1 720 0 720 3 C723 10 725 15 725 15 L664 44 L432 808 L419 854 L343 854 L318 775 L318 775 L86 34 L31 11 C31 11 33 7 35 2 C36 0 36 -1 36 -1 L75 -1 L101 -1 L127 -1 L216 -1 C216 -1 217 0 218 2 C223 11 227 17 227 17 L142 49 L233 349 L441 349 L441 351 L441 351 Z " />
<glyph glyph-name="Ccedilla" unicode="&#xc7;" horiz-adv-x="708" d="M533 35 L533 35 C492 31 444 29 396 29 C281 29 204 194 204 441 C204 670 287 823 410 823 C448 823 487 821 522 817 L522 817 C530 816 537 810 541 802 C554 767 572 721 586 687 C588 689 592 691 595 693 C597 694 601 696 604 698 L613 858 L611 829 L611 829 L613 858 C605 860 524 862 410 862 C206 862 70 677 70 398 C70 158 196 -4 387 -9 L331 -129 L353 -139 C377 -142 393 -154 393 -171 C393 -199 389 -218 384 -218 C350 -218 321 -213 311 -204 L311 -213 C331 -228 365 -239 395 -239 C445 -239 479 -203 479 -148 C479 -99 446 -62 395 -50 L414 -9 C526 -9 607 -7 617 -4 L616 19 L616 19 C632 22 633 24 616 24 L616 50 C615 50 614 50 613 50 L609 140 C607 142 603 144 601 145 C599 147 595 149 593 151 C580 121 562 82 549 52 C545 44 538 39 530 38 L533 35 L533 35 Z " />
<glyph glyph-name="Egrave" unicode="&#xc8;" horiz-adv-x="658" d="M344 895 L257 1054 L142 1054 C142 1031 147 1012 154 1008 L335 895 L344 895 L344 895 Z M582 42 C578 78 574 120 571 152 L569 154 C559 162 553 166 552 166 L507 41 L274 41 L274 416 L413 416 L455 336 C455 336 462 339 474 343 L478 345 L478 416 L478 437 L478 458 L478 529 L474 531 C462 535 455 538 455 538 L413 458 L274 458 L274 807 L482 807 L528 692 C529 692 535 696 544 703 C546 704 547 705 547 705 C550 735 553 774 556 807 L562 807 L562 849 L560 849 L552 849 L543 849 L510 849 L273 849 L208 849 L176 849 L143 849 L72 849 C72 849 71 848 70 845 C66 836 63 830 63 830 L143 794 L143 54 L63 18 C63 18 66 12 70 3 C71 0 72 -1 72 -1 L143 -1 L176 -1 L208 -1 L273 -1 L535 -1 L568 -1 L577 -1 L585 -1 L587 -1 L587 41 L582 42 L582 42 Z " />
<glyph glyph-name="Eacute" unicode="&#xc9;" horiz-adv-x="658" d="M339 895 L349 895 L529 1008 C536 1012 541 1031 541 1054 L426 1054 L339 895 L339 895 Z M582 42 C578 78 574 120 571 152 L569 154 C559 162 553 166 552 166 L507 41 L274 41 L274 416 L413 416 L455 336 C455 336 462 339 474 343 L478 345 L478 416 L478 437 L478 458 L478 529 L474 531 C462 535 455 538 455 538 L413 458 L274 458 L274 807 L482 807 L528 692 C529 692 535 696 544 703 C546 704 547 705 547 705 C550 735 553 774 556 807 L562 807 L562 849 L560 849 L552 849 L543 849 L510 849 L273 849 L208 849 L176 849 L143 849 L72 849 C72 849 71 848 70 845 C66 836 63 830 63 830 L143 794 L143 54 L63 18 C63 18 66 12 70 3 C71 0 72 -1 72 -1 L143 -1 L176 -1 L208 -1 L273 -1 L535 -1 L568 -1 L577 -1 L585 -1 L587 -1 L587 41 L582 42 L582 42 Z " />
<glyph glyph-name="Ecircumflex" unicode="&#xca;" horiz-adv-x="658" d="M495 895 L350 1052 L327 1052 L188 895 L197 895 L340 966 L485 895 L495 895 L495 895 Z M582 42 C578 78 574 120 571 152 L569 154 C559 162 553 166 552 166 L507 41 L274 41 L274 416 L413 416 L455 336 C455 336 462 339 474 343 L478 345 L478 416 L478 437 L478 458 L478 529 L474 531 C462 535 455 538 455 538 L413 458 L274 458 L274 807 L482 807 L528 692 C529 692 535 696 544 703 C546 704 547 705 547 705 C550 735 553 774 556 807 L562 807 L562 849 L560 849 L552 849 L543 849 L510 849 L273 849 L208 849 L176 849 L143 849 L72 849 C72 849 71 848 70 845 C66 836 63 830 63 830 L143 794 L143 54 L63 18 C63 18 66 12 70 3 C71 0 72 -1 72 -1 L143 -1 L176 -1 L208 -1 L273 -1 L535 -1 L568 -1 L577 -1 L585 -1 L587 -1 L587 41 L582 42 L582 42 Z " />
<glyph glyph-name="Edieresis" unicode="&#xcb;" horiz-adv-x="658" d="M446 925 C489 925 518 954 518 997 C518 1040 489 1069 446 1069 C403 1069 374 1040 374 997 C374 954 403 925 446 925 L446 925 Z M231 925 C274 925 303 954 303 997 C303 1040 274 1069 231 1069 C188 1069 159 1040 159 997 C159 954 188 925 231 925 L231 925 Z M582 42 C578 78 574 120 571 152 L569 154 C559 162 553 166 552 166 L507 41 L274 41 L274 416 L413 416 L455 336 C455 336 462 339 474 343 L478 345 L478 416 L478 437 L478 458 L478 529 L474 531 C462 535 455 538 455 538 L413 458 L274 458 L274 807 L482 807 L528 692 C529 692 535 696 544 703 C546 704 547 705 547 705 C550 735 553 774 556 807 L562 807 L562 849 L560 849 L552 849 L543 849 L510 849 L273 849 L208 849 L176 849 L143 849 L72 849 C72 849 71 848 70 845 C66 836 63 830 63 830 L143 794 L143 54 L63 18 C63 18 66 12 70 3 C71 0 72 -1 72 -1 L143 -1 L176 -1 L208 -1 L273 -1 L535 -1 L568 -1 L577 -1 L585 -1 L587 -1 L587 41 L582 42 L582 42 Z " />
<glyph glyph-name="Igrave" unicode="&#xcc;" horiz-adv-x="429" d="M220 895 L133 1054 L18 1054 C18 1031 23 1012 30 1008 L211 895 L220 895 L220 895 Z M215 0 L279 0 L350 0 C351 0 351 1 352 4 C357 13 360 19 359 19 L279 55 L279 795 L359 831 C360 831 357 837 352 846 C351 849 351 850 350 850 L279 850 L215 850 L150 850 L79 850 C79 850 78 849 77 846 C73 837 70 831 70 831 L150 795 L150 55 L70 19 C70 19 73 13 77 4 C78 1 79 0 79 0 L150 0 L215 0 L215 0 Z " />
<glyph glyph-name="Iacute" unicode="&#xcd;" horiz-adv-x="429" d="M215 895 L225 895 L405 1008 C412 1012 417 1031 417 1054 L302 1054 L215 895 L215 895 Z M215 0 L279 0 L350 0 C351 0 351 1 352 4 C357 13 360 19 359 19 L279 55 L279 795 L359 831 C360 831 357 837 352 846 C351 849 351 850 350 850 L279 850 L215 850 L150 850 L79 850 C79 850 78 849 77 846 C73 837 70 831 70 831 L150 795 L150 55 L70 19 C70 19 73 13 77 4 C78 1 79 0 79 0 L150 0 L215 0 L215 0 Z " />
<glyph glyph-name="Icircumflex" unicode="&#xce;" horiz-adv-x="429" d="M371 895 L226 1052 L203 1052 L64 895 L73 895 L216 966 L362 895 L371 895 L371 895 Z M215 0 L279 0 L350 0 C351 0 351 1 352 4 C357 13 360 19 359 19 L279 55 L279 795 L359 831 C360 831 357 837 352 846 C351 849 351 850 350 850 L279 850 L215 850 L150 850 L79 850 C79 850 78 849 77 846 C73 837 70 831 70 831 L150 795 L150 55 L70 19 C70 19 73 13 77 4 C78 1 79 0 79 0 L150 0 L215 0 L215 0 Z " />
<glyph glyph-name="Idieresis" unicode="&#xcf;" horiz-adv-x="429" d="M322 925 C365 925 394 954 394 997 C394 1040 365 1069 322 1069 C279 1069 250 1040 250 997 C250 954 279 925 322 925 L322 925 Z M107 925 C150 925 179 954 179 997 C179 1040 150 1069 107 1069 C64 1069 35 1040 35 997 C35 954 64 925 107 925 L107 925 Z M215 0 L279 0 L350 0 C351 0 351 1 352 4 C357 13 360 19 359 19 L279 55 L279 795 L359 831 C360 831 357 837 352 846 C351 849 351 850 350 850 L279 850 L215 850 L150 850 L79 850 C79 850 78 849 77 846 C73 837 70 831 70 831 L150 795 L150 55 L70 19 C70 19 73 13 77 4 C78 1 79 0 79 0 L150 0 L215 0 L215 0 Z " />
<glyph glyph-name="Ntilde" unicode="&#xd1;" horiz-adv-x="811" d="M286 918 C296 945 305 962 337 962 C389 962 432 908 484 908 C530 908 553 957 579 1030 L569 1030 C559 1002 549 983 518 984 C466 983 423 1038 371 1038 C324 1038 302 990 276 918 L286 918 L286 918 Z M672 795 L747 831 C746 831 744 837 740 846 C739 849 738 850 738 850 L672 850 L645 850 L618 850 L529 850 C529 850 528 849 527 846 C521 837 518 831 518 831 L618 795 L618 220 L207 850 L180 850 L153 850 L86 850 C86 850 86 849 85 846 C81 837 78 831 78 831 L153 795 L153 764 L153 55 L73 19 C73 19 76 13 80 4 C81 1 82 0 82 0 L153 0 L180 0 L207 0 L296 0 C296 0 297 1 298 4 C303 13 307 19 307 19 L207 55 L207 676 L603 27 L622 -5 L672 -5 L672 137 L672 795 L672 795 Z " />
<glyph glyph-name="Ograve" unicode="&#xd2;" horiz-adv-x="817" d="M399 895 L312 1054 L197 1054 C197 1031 202 1012 209 1008 L390 895 L399 895 L399 895 Z M424 28 C295 28 208 205 208 470 C208 681 283 822 395 822 C524 822 610 642 610 373 C610 166 536 28 424 28 L424 28 Z M70 419 C70 162 206 -10 409 -10 C612 -10 748 163 748 423 C748 685 612 860 409 860 C206 860 70 684 70 419 L70 419 Z " />
<glyph glyph-name="Oacute" unicode="&#xd3;" horiz-adv-x="817" d="M394 895 L404 895 L584 1008 C591 1012 596 1031 596 1054 L481 1054 L394 895 L394 895 Z M424 28 C295 28 208 205 208 470 C208 681 283 822 395 822 C524 822 610 642 610 373 C610 166 536 28 424 28 L424 28 Z M70 419 C70 162 206 -10 409 -10 C612 -10 748 163 748 423 C748 685 612 860 409 860 C206 860 70 684 70 419 L70 419 Z " />
<glyph glyph-name="Ocircumflex" unicode="&#xd4;" horiz-adv-x="817" d="M550 895 L405 1052 L382 1052 L243 895 L252 895 L395 966 L541 895 L550 895 L550 895 Z M424 28 C295 28 208 205 208 470 C208 681 283 822 395 822 C524 822 610 642 610 373 C610 166 536 28 424 28 L424 28 Z M70 419 C70 162 206 -10 409 -10 C612 -10 748 163 748 423 C748 685 612 860 409 860 C206 860 70 684 70 419 L70 419 Z " />
<glyph glyph-name="Otilde" unicode="&#xd5;" horiz-adv-x="817" d="M252 918 C262 945 272 962 303 962 C355 962 399 908 450 908 C496 908 519 957 545 1030 L535 1030 C526 1002 516 983 484 984 C432 983 389 1038 337 1038 C291 1038 269 990 242 918 L252 918 L252 918 Z M424 28 C295 28 208 205 208 470 C208 681 283 822 395 822 C524 822 610 642 610 373 C610 166 536 28 424 28 L424 28 Z M70 419 C70 162 206 -10 409 -10 C612 -10 748 163 748 423 C748 685 612 860 409 860 C206 860 70 684 70 419 L70 419 Z " />
<glyph glyph-name="Odieresis" unicode="&#xd6;" horiz-adv-x="817" d="M501 925 C544 925 573 954 573 997 C573 1040 544 1069 501 1069 C458 1069 429 1040 429 997 C429 954 458 925 501 925 L501 925 Z M286 925 C329 925 358 954 358 997 C358 1040 329 1069 286 1069 C243 1069 214 1040 214 997 C214 954 243 925 286 925 L286 925 Z M424 28 C295 28 208 205 208 470 C208 681 283 822 395 822 C524 822 610 642 610 373 C610 166 536 28 424 28 L424 28 Z M70 419 C70 162 206 -10 409 -10 C612 -10 748 163 748 423 C748 685 612 860 409 860 C206 860 70 684 70 419 L70 419 Z " />
<glyph glyph-name="Oslash" unicode="&#xd8;" horiz-adv-x="817" d="M424 28 C361 28 308 70 270 143 L581 611 C599 544 609 463 609 372 C609 165 535 27 423 27 L424 28 L424 28 Z M69 418 C69 295 100 192 154 118 L69 -11 L168 -11 L213 56 C266 13 332 -11 408 -11 C611 -11 747 162 747 422 C747 548 716 654 661 730 L747 860 L647 860 L602 793 C549 836 483 860 408 860 C205 860 69 684 69 419 L69 418 L69 418 Z M234 239 C216 304 206 382 206 470 C206 681 281 822 393 822 C455 822 507 780 544 707 L234 239 L234 239 Z " />
<glyph glyph-name="Ugrave" unicode="&#xd9;" horiz-adv-x="796" d="M408 895 L321 1054 L206 1054 C206 1031 211 1012 218 1008 L399 895 L408 895 L408 895 Z M135 795 L135 301 C135 115 238 -10 393 -10 C548 -10 651 115 651 301 L651 795 L731 831 C731 831 728 837 724 846 C723 849 722 850 722 850 L651 850 L624 850 L597 850 L508 850 C508 850 507 849 506 846 C501 837 497 831 497 831 L597 795 L597 285 C597 133 526 31 421 31 C326 31 263 148 263 324 L264 795 L264 795 L344 831 C344 831 341 837 337 846 C336 849 335 850 335 850 L264 850 L199 850 L135 850 L64 850 C64 850 63 849 62 846 C58 837 55 831 55 831 L135 795 L135 795 Z " />
<glyph glyph-name="Uacute" unicode="&#xda;" horiz-adv-x="796" d="M394 895 L403 895 L583 1008 C591 1012 596 1031 596 1054 L481 1054 L394 895 L394 895 Z M135 795 L135 301 C135 115 238 -10 393 -10 C548 -10 651 115 651 301 L651 795 L731 831 C731 831 728 837 724 846 C723 849 722 850 722 850 L651 850 L624 850 L597 850 L508 850 C508 850 507 849 506 846 C501 837 497 831 497 831 L597 795 L597 285 C597 133 526 31 421 31 C326 31 263 148 263 324 L264 795 L264 795 L344 831 C344 831 341 837 337 846 C336 849 335 850 335 850 L264 850 L199 850 L135 850 L64 850 C64 850 63 849 62 846 C58 837 55 831 55 831 L135 795 L135 795 Z " />
<glyph glyph-name="Ucircumflex" unicode="&#xdb;" horiz-adv-x="796" d="M559 895 L414 1052 L391 1052 L252 895 L261 895 L404 967 L550 895 L559 895 L559 895 Z M135 795 L135 301 C135 115 238 -10 393 -10 C548 -10 651 115 651 301 L651 795 L731 831 C731 831 728 837 724 846 C723 849 722 850 722 850 L651 850 L624 850 L597 850 L508 850 C508 850 507 849 506 846 C501 837 497 831 497 831 L597 795 L597 285 C597 133 526 31 421 31 C326 31 263 148 263 324 L264 795 L264 795 L344 831 C344 831 341 837 337 846 C336 849 335 850 335 850 L264 850 L199 850 L135 850 L64 850 C64 850 63 849 62 846 C58 837 55 831 55 831 L135 795 L135 795 Z " />
<glyph glyph-name="Udieresis" unicode="&#xdc;" horiz-adv-x="796" d="M510 925 C553 925 582 954 582 997 C582 1040 553 1069 510 1069 C468 1069 439 1040 439 997 C439 954 468 925 510 925 L510 925 Z M295 925 C338 925 367 954 367 997 C367 1040 338 1069 295 1069 C253 1069 224 1040 224 997 C224 954 253 925 295 925 L295 925 Z M135 795 L135 301 C135 115 238 -10 393 -10 C548 -10 651 115 651 301 L651 795 L731 831 C731 831 728 837 724 846 C723 849 722 850 722 850 L651 850 L624 850 L597 850 L508 850 C508 850 507 849 506 846 C501 837 497 831 497 831 L597 795 L597 285 C597 133 526 31 421 31 C326 31 263 148 263 324 L264 795 L264 795 L344 831 C344 831 341 837 337 846 C336 849 335 850 335 850 L264 850 L199 850 L135 850 L64 850 C64 850 63 849 62 846 C58 837 55 831 55 831 L135 795 L135 795 Z " />
<glyph glyph-name="Yacute" unicode="&#xdd;" horiz-adv-x="713" d="M354 895 L363 895 L544 1008 C551 1012 556 1031 556 1054 L441 1054 L354 895 L354 895 Z M306 55 L216 19 C216 19 219 13 224 4 C225 1 226 0 226 0 L306 0 L370 0 L435 0 L515 0 C515 0 516 1 517 4 C522 13 525 19 525 19 L435 55 L435 427 L629 810 L629 810 L682 836 C682 836 680 840 678 846 C678 849 678 850 677 850 L649 850 L623 850 L597 850 L495 850 C495 850 494 849 493 846 C487 837 483 831 482 831 L570 795 L399 450 L221 795 L303 831 L293 846 C292 849 291 850 291 850 L193 850 L126 850 L59 850 L33 850 C33 850 33 848 32 845 L29 833 L86 800 L307 400 L306 55 L306 55 Z " />
<glyph glyph-name="agrave" unicode="&#xe0;" horiz-adv-x="513" d="M259 530 L172 707 L57 707 C57 681 62 661 70 655 L250 530 L259 530 L259 530 Z M292 254 C125 217 39 156 39 92 C39 31 84 -9 151 -9 C209 -9 264 12 301 52 C317 15 352 -8 398 -8 C444 -8 487 25 506 74 L504 78 C491 45 465 24 438 24 C419 24 406 51 406 92 L407 355 C407 419 355 462 254 462 C155 462 74 454 66 443 C63 437 68 428 80 421 L116 410 L121 410 C128 419 177 426 234 426 C272 426 292 385 292 324 L292 254 L292 254 Z M292 227 L292 102 C292 90 293 79 296 69 C279 55 260 48 242 48 C187 48 150 77 150 120 C150 163 197 203 291 227 L292 227 L292 227 Z " />
<glyph glyph-name="aacute" unicode="&#xe1;" horiz-adv-x="513" d="M255 530 L264 530 L445 655 C452 661 457 681 457 707 L342 707 L255 530 L255 530 Z M292 254 C125 217 39 156 39 92 C39 31 84 -9 151 -9 C209 -9 264 12 301 52 C317 15 352 -8 398 -8 C444 -8 487 25 506 74 L504 78 C491 45 465 24 438 24 C419 24 406 51 406 92 L407 355 C407 419 355 462 254 462 C155 462 74 454 66 443 C63 437 68 428 80 421 L116 410 L121 410 C128 419 177 426 234 426 C272 426 292 385 292 324 L292 254 L292 254 Z M292 227 L292 102 C292 90 293 79 296 69 C279 55 260 48 242 48 C187 48 150 77 150 120 C150 163 197 203 291 227 L292 227 L292 227 Z " />
<glyph glyph-name="acircumflex" unicode="&#xe2;" horiz-adv-x="513" d="M410 530 L266 705 L243 705 L103 530 L112 530 L254 609 L401 530 L410 530 L410 530 Z M292 254 C125 217 39 156 39 92 C39 31 84 -9 151 -9 C209 -9 264 12 301 52 C317 15 352 -8 398 -8 C444 -8 487 25 506 74 L504 78 C491 45 465 24 438 24 C419 24 406 51 406 92 L407 355 C407 419 355 462 254 462 C155 462 74 454 66 443 C63 437 68 428 80 421 L116 410 L121 410 C128 419 177 426 234 426 C272 426 292 385 292 324 L292 254 L292 254 Z M292 227 L292 102 C292 90 293 79 296 69 C279 55 260 48 242 48 C187 48 150 77 150 120 C150 163 197 203 291 227 L292 227 L292 227 Z " />
<glyph glyph-name="atilde" unicode="&#xe3;" horiz-adv-x="513" d="M98 555 C107 585 117 605 149 605 C200 605 244 544 296 544 C342 544 364 598 391 680 L381 680 C371 649 361 628 330 628 C278 628 234 689 183 689 C136 689 114 635 88 555 L98 555 L98 555 Z M292 254 C125 217 39 156 39 92 C39 31 84 -9 151 -9 C209 -9 264 12 301 52 C317 15 352 -8 398 -8 C444 -8 487 25 506 74 L504 78 C491 45 465 24 438 24 C419 24 406 51 406 92 L407 355 C407 419 355 462 254 462 C155 462 74 454 66 443 C63 437 68 428 80 421 L116 410 L121 410 C128 419 177 426 234 426 C272 426 292 385 292 324 L292 254 L292 254 Z M292 227 L292 102 C292 90 293 79 296 69 C279 55 260 48 242 48 C187 48 150 77 150 120 C150 163 197 203 291 227 L292 227 L292 227 Z " />
<glyph glyph-name="adieresis" unicode="&#xe4;" horiz-adv-x="513" d="M347 570 C389 570 418 599 418 642 C418 685 389 714 347 714 C304 714 275 685 275 642 C275 599 304 570 347 570 L347 570 Z M132 570 C174 570 203 599 203 642 C203 685 174 714 132 714 C89 714 60 685 60 642 C60 599 89 570 132 570 L132 570 Z M292 254 C125 217 39 156 39 92 C39 31 84 -9 151 -9 C209 -9 264 12 301 52 C317 15 352 -8 398 -8 C444 -8 487 25 506 74 L504 78 C491 45 465 24 438 24 C419 24 406 51 406 92 L407 355 C407 419 355 462 254 462 C155 462 74 454 66 443 C63 437 68 428 80 421 L116 410 L121 410 C128 419 177 426 234 426 C272 426 292 385 292 324 L292 254 L292 254 Z M292 227 L292 102 C292 90 293 79 296 69 C279 55 260 48 242 48 C187 48 150 77 150 120 C150 163 197 203 291 227 L292 227 L292 227 Z " />
<glyph glyph-name="aring" unicode="&#xe5;" horiz-adv-x="513" d="M247 553 C235 553 224 590 224 634 C224 670 231 694 243 694 C255 694 264 662 264 615 C264 581 256 553 247 553 L247 553 Z M153 624 C153 576 195 535 244 535 C293 535 335 577 335 627 C335 678 299 712 244 712 C189 712 153 677 153 624 L153 624 Z M292 254 C125 217 39 156 39 92 C39 31 84 -9 151 -9 C209 -9 264 12 301 52 C317 15 352 -8 398 -8 C444 -8 487 25 506 74 L504 78 C491 45 465 24 438 24 C419 24 406 51 406 92 L407 355 C407 419 355 462 254 462 C155 462 74 454 66 443 C63 437 68 428 80 421 L116 410 L121 410 C128 419 177 426 234 426 C272 426 292 385 292 324 L292 254 L292 254 Z M292 227 L292 102 C292 90 293 79 296 69 C279 55 260 48 242 48 C187 48 150 77 150 120 C150 163 197 203 291 227 L292 227 L292 227 Z " />
<glyph glyph-name="ccedilla" unicode="&#xe7;" horiz-adv-x="477" d="M260 -49 L278 -9 C341 -2 401 42 432 105 L434 113 C433 112 432 111 431 110 L431 114 L427 114 C392 74 338 48 292 48 C214 48 162 135 162 266 C162 361 200 425 258 425 C286 425 318 402 338 367 L365 321 L372 321 L416 353 C424 361 430 373 430 382 C430 386 424 398 416 413 C399 442 345 461 280 461 C141 461 48 357 48 201 C48 78 128 -5 250 -9 L196 -126 L219 -137 C242 -139 258 -153 258 -170 C258 -199 255 -218 249 -218 C216 -218 186 -213 176 -204 L176 -213 C197 -228 231 -239 260 -239 C310 -239 344 -202 344 -147 C344 -98 311 -60 260 -48 L260 -49 L260 -49 Z " />
<glyph glyph-name="egrave" unicode="&#xe8;" horiz-adv-x="483" d="M257 530 L170 707 L55 707 C55 681 60 661 67 655 L248 530 L257 530 L257 530 Z M261 279 L164 279 C167 367 201 425 251 425 C293 425 322 368 328 279 L261 279 L261 279 Z M260 243 L380 243 L432 247 C432 375 363 460 260 460 C133 460 49 356 49 200 C49 74 133 -10 260 -10 C329 -10 398 36 432 105 L434 113 C433 112 432 111 431 110 L431 114 L427 114 C392 74 338 48 292 48 C218 48 168 125 162 244 L260 243 L260 243 Z " />
<glyph glyph-name="eacute" unicode="&#xe9;" horiz-adv-x="483" d="M253 530 L262 530 L442 655 C450 661 455 681 455 707 L340 707 L253 530 L253 530 Z M261 279 L164 279 C167 367 201 425 251 425 C293 425 322 368 328 279 L261 279 L261 279 Z M260 243 L380 243 L432 247 C432 375 363 460 260 460 C133 460 49 356 49 200 C49 74 133 -10 260 -10 C329 -10 398 36 432 105 L434 113 C433 112 432 111 431 110 L431 114 L427 114 C392 74 338 48 292 48 C218 48 168 125 162 244 L260 243 L260 243 Z " />
<glyph glyph-name="ecircumflex" unicode="&#xea;" horiz-adv-x="483" d="M408 530 L263 705 L240 705 L101 530 L110 530 L252 609 L399 530 L408 530 L408 530 Z M261 279 L164 279 C167 367 201 425 251 425 C293 425 322 368 328 279 L261 279 L261 279 Z M260 243 L380 243 L432 247 C432 375 363 460 260 460 C133 460 49 356 49 200 C49 74 133 -10 260 -10 C329 -10 398 36 432 105 L434 113 C433 112 432 111 431 110 L431 114 L427 114 C392 74 338 48 292 48 C218 48 168 125 162 244 L260 243 L260 243 Z " />
<glyph glyph-name="edieresis" unicode="&#xeb;" horiz-adv-x="483" d="M359 570 C402 570 431 599 431 642 C431 685 402 714 359 714 C316 714 287 685 287 642 C287 599 316 570 359 570 L359 570 Z M144 570 C187 570 216 599 216 642 C216 685 187 714 144 714 C101 714 72 685 72 642 C72 599 101 570 144 570 L144 570 Z M261 279 L164 279 C167 367 201 425 251 425 C293 425 322 368 328 279 L261 279 L261 279 Z M260 243 L380 243 L432 247 C432 375 363 460 260 460 C133 460 49 356 49 200 C49 74 133 -10 260 -10 C329 -10 398 36 432 105 L434 113 C433 112 432 111 431 110 L431 114 L427 114 C392 74 338 48 292 48 C218 48 168 125 162 244 L260 243 L260 243 Z " />
<glyph glyph-name="igrave" unicode="&#xec;" horiz-adv-x="352" d="M177 530 L90 707 L-25 707 C-25 681 -20 661 -13 655 L168 530 L177 530 L177 530 Z M177 0 L234 0 L296 0 C296 0 297 1 298 3 C301 12 304 18 304 18 L234 50 L234 375 L234 422 L234 460 L211 460 L61 399 L61 398 C57 393 54 390 54 390 L119 334 L119 50 L54 18 C54 18 56 12 60 3 C61 1 61 0 61 0 L119 0 L177 0 L177 0 Z " />
<glyph glyph-name="iacute" unicode="&#xed;" horiz-adv-x="352" d="M172 530 L181 530 L362 655 C369 661 374 681 374 707 L259 707 L172 530 L172 530 Z M177 0 L234 0 L296 0 C296 0 297 1 298 3 C301 12 304 18 304 18 L234 50 L234 375 L234 422 L234 460 L211 460 L61 399 L61 398 C57 393 54 390 54 390 L119 334 L119 50 L54 18 C54 18 56 12 60 3 C61 1 61 0 61 0 L119 0 L177 0 L177 0 Z " />
<glyph glyph-name="icircumflex" unicode="&#xee;" horiz-adv-x="352" d="M328 530 L183 705 L160 705 L20 530 L30 530 L172 609 L318 530 L328 530 L328 530 Z M177 0 L234 0 L296 0 C296 0 297 1 298 3 C301 12 304 18 304 18 L234 50 L234 375 L234 422 L234 460 L211 460 L61 399 L61 398 C57 393 54 390 54 390 L119 334 L119 50 L54 18 C54 18 56 12 60 3 C61 1 61 0 61 0 L119 0 L177 0 L177 0 Z " />
<glyph glyph-name="idieresis" unicode="&#xef;" horiz-adv-x="352" d="M279 570 C322 570 351 599 351 642 C351 685 322 714 279 714 C236 714 207 685 207 642 C207 599 236 570 279 570 L279 570 Z M64 570 C107 570 136 599 136 642 C136 685 107 714 64 714 C21 714 -8 685 -8 642 C-8 599 21 570 64 570 L64 570 Z M177 0 L234 0 L296 0 C296 0 297 1 298 3 C301 12 304 18 304 18 L234 50 L234 375 L234 422 L234 460 L211 460 L61 399 L61 398 C57 393 54 390 54 390 L119 334 L119 50 L54 18 C54 18 56 12 60 3 C61 1 61 0 61 0 L119 0 L177 0 L177 0 Z " />
<glyph glyph-name="ntilde" unicode="&#xf1;" horiz-adv-x="598" d="M163 555 C173 585 182 605 214 605 C266 605 309 544 361 544 C407 544 430 598 456 680 L446 680 C436 649 426 628 395 628 C343 628 300 689 248 689 C201 689 179 635 153 555 L163 555 L163 555 Z M436 0 L494 0 L552 0 L553 3 C556 12 559 18 559 18 L494 50 L494 343 C494 413 443 460 367 460 C321 460 275 430 230 383 L225 460 L202 460 L58 399 L58 398 C54 394 51 390 51 390 L116 334 L116 50 L51 18 C51 18 53 12 57 3 C58 1 58 0 58 0 L116 0 L174 0 L231 0 L293 0 C293 0 294 1 295 3 C298 12 301 18 301 18 L231 50 L231 360 C260 388 294 406 335 406 C363 406 381 354 381 277 L381 50 L311 18 C311 18 313 12 317 3 C318 1 319 0 319 0 L381 0 L436 0 L436 0 Z " />
<glyph glyph-name="ograve" unicode="&#xf2;" horiz-adv-x="548" d="M279 530 L192 707 L77 707 C77 681 82 661 90 655 L270 530 L279 530 L279 530 Z M284 22 C223 22 182 103 182 225 C182 347 210 428 264 428 C325 428 366 347 366 225 C366 103 338 22 284 22 L284 22 Z M50 225 C50 84 140 -10 274 -10 C422 -10 498 84 498 225 C498 366 408 460 274 460 C126 460 50 366 50 225 L50 225 Z " />
<glyph glyph-name="oacute" unicode="&#xf3;" horiz-adv-x="548" d="M275 530 L284 530 L464 655 C472 661 477 681 477 707 L362 707 L275 530 L275 530 Z M284 22 C223 22 182 103 182 225 C182 347 210 428 264 428 C325 428 366 347 366 225 C366 103 338 22 284 22 L284 22 Z M50 225 C50 84 140 -10 274 -10 C422 -10 498 84 498 225 C498 366 408 460 274 460 C126 460 50 366 50 225 L50 225 Z " />
<glyph glyph-name="ocircumflex" unicode="&#xf4;" horiz-adv-x="548" d="M430 530 L286 705 L262 705 L123 530 L132 530 L274 609 L421 530 L430 530 L430 530 Z M284 22 C223 22 182 103 182 225 C182 347 210 428 264 428 C325 428 366 347 366 225 C366 103 338 22 284 22 L284 22 Z M50 225 C50 84 140 -10 274 -10 C422 -10 498 84 498 225 C498 366 408 460 274 460 C126 460 50 366 50 225 L50 225 Z " />
<glyph glyph-name="otilde" unicode="&#xf5;" horiz-adv-x="548" d="M133 555 C142 585 152 605 184 605 C235 605 279 544 331 544 C376 544 399 598 426 680 L416 680 C406 649 396 628 364 628 C313 628 269 689 218 689 C171 689 149 635 123 555 L133 555 L133 555 Z M284 22 C223 22 182 103 182 225 C182 347 210 428 264 428 C325 428 366 347 366 225 C366 103 338 22 284 22 L284 22 Z M50 225 C50 84 140 -10 274 -10 C422 -10 498 84 498 225 C498 366 408 460 274 460 C126 460 50 366 50 225 L50 225 Z " />
<glyph glyph-name="odieresis" unicode="&#xf6;" horiz-adv-x="548" d="M382 570 C424 570 453 599 453 642 C453 685 424 714 382 714 C339 714 310 685 310 642 C310 599 339 570 382 570 L382 570 Z M167 570 C209 570 238 599 238 642 C238 685 209 714 167 714 C124 714 95 685 95 642 C95 599 124 570 167 570 L167 570 Z M284 22 C223 22 182 103 182 225 C182 347 210 428 264 428 C325 428 366 347 366 225 C366 103 338 22 284 22 L284 22 Z M50 225 C50 84 140 -10 274 -10 C422 -10 498 84 498 225 C498 366 408 460 274 460 C126 460 50 366 50 225 L50 225 Z " />
<glyph glyph-name="oslash" unicode="&#xf8;" horiz-adv-x="548" d="M284 22 C254 22 229 42 211 77 L364 280 C366 263 367 245 367 226 C367 104 339 23 285 23 L284 22 L284 22 Z M51 226 C51 160 71 104 106 63 L51 -10 L146 -10 L165 15 C197 -1 234 -10 275 -10 C423 -10 499 84 499 225 C499 291 479 347 444 388 L499 461 L404 461 L385 436 C353 452 316 461 275 461 C127 461 51 367 51 226 L51 226 Z M186 171 C184 188 183 206 183 225 C183 347 211 428 265 428 C295 428 320 408 338 373 L186 171 L186 171 Z " />
<glyph glyph-name="ugrave" unicode="&#xf9;" horiz-adv-x="560" d="M281 530 L194 707 L79 707 C79 681 84 661 91 655 L271 530 L281 530 L281 530 Z M355 400 L355 94 C320 63 282 47 250 47 C224 47 206 99 206 177 L206 451 L149 451 L91 451 L33 451 C33 451 33 450 32 448 C28 439 26 434 26 434 L91 401 L91 108 C91 38 141 -9 215 -9 C250 -9 301 17 356 70 L356 1 L413 1 L471 1 L533 1 C533 1 533 2 534 4 C538 13 541 19 541 19 L471 51 L471 451 L413 451 L356 451 L294 451 C294 451 293 450 292 448 C288 439 286 434 286 434 L355 400 L355 400 Z " />
<glyph glyph-name="uacute" unicode="&#xfa;" horiz-adv-x="560" d="M276 530 L285 530 L466 655 C473 661 478 681 478 707 L363 707 L276 530 L276 530 Z M355 400 L355 94 C320 63 282 47 250 47 C224 47 206 99 206 177 L206 451 L149 451 L91 451 L33 451 C33 451 33 450 32 448 C28 439 26 434 26 434 L91 401 L91 108 C91 38 141 -9 215 -9 C250 -9 301 17 356 70 L356 1 L413 1 L471 1 L533 1 C533 1 533 2 534 4 C538 13 541 19 541 19 L471 51 L471 451 L413 451 L356 451 L294 451 C294 451 293 450 292 448 C288 439 286 434 286 434 L355 400 L355 400 Z " />
<glyph glyph-name="ucircumflex" unicode="&#xfb;" horiz-adv-x="560" d="M431 530 L287 705 L264 705 L124 530 L134 530 L276 609 L422 530 L431 530 L431 530 Z M355 400 L355 94 C320 63 282 47 250 47 C224 47 206 99 206 177 L206 451 L149 451 L91 451 L33 451 C33 451 33 450 32 448 C28 439 26 434 26 434 L91 401 L91 108 C91 38 141 -9 215 -9 C250 -9 301 17 356 70 L356 1 L413 1 L471 1 L533 1 C533 1 533 2 534 4 C538 13 541 19 541 19 L471 51 L471 451 L413 451 L356 451 L294 451 C294 451 293 450 292 448 C288 439 286 434 286 434 L355 400 L355 400 Z " />
<glyph glyph-name="udieresis" unicode="&#xfc;" horiz-adv-x="560" d="M383 570 C426 570 455 599 455 642 C455 685 426 714 383 714 C340 714 311 685 311 642 C311 599 340 570 383 570 L383 570 Z M168 570 C211 570 240 599 240 642 C240 685 211 714 168 714 C125 714 96 685 96 642 C96 599 125 570 168 570 L168 570 Z M355 400 L355 94 C320 63 282 47 250 47 C224 47 206 99 206 177 L206 451 L149 451 L91 451 L33 451 C33 451 33 450 32 448 C28 439 26 434 26 434 L91 401 L91 108 C91 38 141 -9 215 -9 C250 -9 301 17 356 70 L356 1 L413 1 L471 1 L533 1 C533 1 533 2 534 4 C538 13 541 19 541 19 L471 51 L471 451 L413 451 L356 451 L294 451 C294 451 293 450 292 448 C288 439 286 434 286 434 L355 400 L355 400 Z " />
<glyph glyph-name="yacute" unicode="&#xfd;" horiz-adv-x="475" d="M284 530 L293 530 L474 655 C481 661 486 681 486 707 L371 707 L284 530 L284 530 Z M258 433 C257 433 254 439 248 447 L245 450 L148 450 L85 450 L22 450 L-19 450 C-19 450 -20 448 -20 446 C-23 438 -25 433 -25 433 L44 400 L211 15 L176 -59 C157 -103 136 -120 103 -120 L37 -120 L33 -124 L33 -198 C33 -228 47 -240 82 -240 C115 -240 149 -193 204 -71 L423 395 L500 431 C499 431 497 437 494 445 C494 448 493 450 493 450 L449 450 L432 450 L415 450 L327 450 C327 450 326 449 324 446 C319 437 316 431 315 431 L389 395 L275 153 L169 400 L258 433 L258 433 Z M257 433 L257 433 L257 433 L257 433 Z " />
<glyph glyph-name="ydieresis" unicode="&#xff;" horiz-adv-x="475" d="M391 570 C433 570 462 599 462 642 C462 685 433 714 391 714 C348 714 319 685 319 642 C319 599 348 570 391 570 L391 570 Z M176 570 C218 570 247 599 247 642 C247 685 218 714 176 714 C133 714 104 685 104 642 C104 599 133 570 176 570 L176 570 Z M258 433 C257 433 254 439 248 447 L245 450 L148 450 L85 450 L22 450 L-19 450 C-19 450 -20 448 -20 446 C-23 438 -25 433 -25 433 L44 400 L211 15 L176 -59 C157 -103 136 -120 103 -120 L37 -120 L33 -124 L33 -198 C33 -228 47 -240 82 -240 C115 -240 149 -193 204 -71 L423 395 L500 431 C499 431 497 437 494 445 C494 448 493 450 493 450 L449 450 L432 450 L415 450 L327 450 C327 450 326 449 324 446 C319 437 316 431 315 431 L389 395 L275 153 L169 400 L258 433 L258 433 Z M257 433 L257 433 L257 433 L257 433 Z " />
<glyph glyph-name="Amacron" unicode="&#x100;" horiz-adv-x="757" d="M250 953 L516 953 L516 1025 L250 1025 L250 953 L250 953 Z M429 392 L246 392 L340 700 L429 392 L429 392 Z M441 351 L529 49 L528 49 L434 17 L444 2 C445 0 446 -1 446 -1 L543 -1 L610 -1 L678 -1 L719 -1 C719 -1 720 0 720 3 C723 10 725 15 725 15 L664 44 L432 808 L419 854 L343 854 L318 775 L318 775 L86 34 L31 11 C31 11 33 7 35 2 C36 0 36 -1 36 -1 L75 -1 L101 -1 L127 -1 L216 -1 C216 -1 217 0 218 2 C223 11 227 17 227 17 L142 49 L233 349 L441 349 L441 351 L441 351 Z " />
<glyph glyph-name="amacron" unicode="&#x101;" horiz-adv-x="513" d="M111 593 L377 593 L377 665 L111 665 L111 593 L111 593 Z M292 254 C125 217 39 156 39 92 C39 31 84 -9 151 -9 C209 -9 264 12 301 52 C317 15 352 -8 398 -8 C444 -8 487 25 506 74 L504 78 C491 45 465 24 438 24 C419 24 406 51 406 92 L407 355 C407 419 355 462 254 462 C155 462 74 454 66 443 C63 437 68 428 80 421 L116 410 L121 410 C128 419 177 426 234 426 C272 426 292 385 292 324 L292 254 L292 254 Z M292 227 L292 102 C292 90 293 79 296 69 C279 55 260 48 242 48 C187 48 150 77 150 120 C150 163 197 203 291 227 L292 227 L292 227 Z " />
<glyph glyph-name="Abreve" unicode="&#x102;" horiz-adv-x="757" d="M236 1058 L225 1058 C265 947 309 904 383 904 C456 904 500 947 540 1058 L529 1058 C512 1009 471 990 383 991 C294 990 253 1009 236 1058 L236 1058 Z M429 392 L246 392 L340 700 L429 392 L429 392 Z M441 351 L529 49 L528 49 L434 17 L444 2 C445 0 446 -1 446 -1 L543 -1 L610 -1 L678 -1 L719 -1 C719 -1 720 0 720 3 C723 10 725 15 725 15 L664 44 L432 808 L419 854 L343 854 L318 775 L318 775 L86 34 L31 11 C31 11 33 7 35 2 C36 0 36 -1 36 -1 L75 -1 L101 -1 L127 -1 L216 -1 C216 -1 217 0 218 2 C223 11 227 17 227 17 L142 49 L233 349 L441 349 L441 351 L441 351 Z " />
<glyph glyph-name="abreve" unicode="&#x103;" horiz-adv-x="513" d="M97 711 L87 711 C127 588 171 540 244 540 C317 540 362 588 402 711 L391 711 C373 657 332 636 244 636 C156 636 115 657 97 711 L97 711 Z M292 254 C125 217 39 156 39 92 C39 31 84 -9 151 -9 C209 -9 264 12 301 52 C317 15 352 -8 398 -8 C444 -8 487 25 506 74 L504 78 C491 45 465 24 438 24 C419 24 406 51 406 92 L407 355 C407 419 355 462 254 462 C155 462 74 454 66 443 C63 437 68 428 80 421 L116 410 L121 410 C128 419 177 426 234 426 C272 426 292 385 292 324 L292 254 L292 254 Z M292 227 L292 102 C292 90 293 79 296 69 C279 55 260 48 242 48 C187 48 150 77 150 120 C150 163 197 203 291 227 L292 227 L292 227 Z " />
<glyph glyph-name="Cacute" unicode="&#x106;" horiz-adv-x="708" d="M367 895 L376 895 L556 1008 C564 1012 569 1031 569 1054 L454 1054 L367 895 L367 895 Z M533 35 L533 35 C492 31 444 29 396 29 C281 29 204 194 204 441 C204 670 287 823 410 823 C448 823 487 821 522 817 L522 817 C530 816 537 810 541 802 C554 767 572 721 586 687 C588 689 592 691 595 693 C597 694 601 696 604 698 L613 858 L611 829 L611 829 L613 858 C605 860 524 862 410 862 C206 862 70 677 70 398 C70 155 200 -8 396 -8 C518 -8 607 -6 618 -3 L617 20 L617 20 C633 23 634 25 617 25 L617 51 C616 51 615 51 614 51 L610 141 C608 143 604 145 602 146 C600 148 596 150 594 152 C581 122 563 83 550 53 C546 45 539 40 531 39 L533 35 L533 35 Z " />
<glyph glyph-name="cacute" unicode="&#x107;" horiz-adv-x="477" d="M260 530 L269 530 L450 655 C457 661 462 681 462 707 L347 707 L260 530 L260 530 Z M367 320 L374 320 L418 352 C426 360 432 372 432 381 C432 385 426 397 418 412 C401 441 347 460 282 460 C143 460 50 356 50 200 C50 74 134 -10 261 -10 C330 -10 399 36 433 105 L435 113 C434 112 433 111 432 110 L432 114 L428 114 C393 74 339 48 293 48 C215 48 163 135 163 266 C163 361 201 425 259 425 C287 425 319 402 339 367 L367 320 L367 320 Z " />
<glyph glyph-name="Ccaron" unicode="&#x10c;" horiz-adv-x="708" d="M542 1057 L397 900 L374 900 L235 1057 L244 1057 L387 985 L533 1057 L542 1057 L542 1057 Z M533 35 L533 35 C492 31 444 29 396 29 C281 29 204 194 204 441 C204 670 287 823 410 823 C448 823 487 821 522 817 L522 817 C530 816 537 810 541 802 C554 767 572 721 586 687 C588 689 592 691 595 693 C597 694 601 696 604 698 L613 858 L611 829 L611 829 L613 858 C605 860 524 862 410 862 C206 862 70 677 70 398 C70 155 200 -8 396 -8 C518 -8 607 -6 618 -3 L617 20 L617 20 C633 23 634 25 617 25 L617 51 C616 51 615 51 614 51 L610 141 C608 143 604 145 602 146 C600 148 596 150 594 152 C581 122 563 83 550 53 C546 45 539 40 531 39 L533 35 L533 35 Z " />
<glyph glyph-name="ccaron" unicode="&#x10d;" horiz-adv-x="477" d="M415 710 L271 535 L248 535 L108 710 L117 710 L260 631 L406 710 L415 710 L415 710 Z M367 320 L374 320 L418 352 C426 360 432 372 432 381 C432 385 426 397 418 412 C401 441 347 460 282 460 C143 460 50 356 50 200 C50 74 134 -10 261 -10 C330 -10 399 36 433 105 L435 113 C434 112 433 111 432 110 L432 114 L428 114 C393 74 339 48 293 48 C215 48 163 135 163 266 C163 361 201 425 259 425 C287 425 319 402 339 367 L367 320 L367 320 Z " />
<glyph glyph-name="Dcaron" unicode="&#x10e;" horiz-adv-x="785" d="M596 1057 L451 900 L428 900 L289 1057 L298 1057 L441 986 L586 1057 L596 1057 L596 1057 Z M238 0 L274 0 L381 0 C581 7 715 167 715 467 C715 720 572 850 357 850 L274 850 L209 850 L144 850 L73 850 C73 850 72 849 71 846 C67 837 64 831 64 831 L144 795 L144 55 L64 19 C64 19 67 13 71 4 C72 1 73 0 73 0 L144 0 L209 0 L238 0 L238 0 Z M274 42 L274 808 L337 808 C483 808 580 675 580 418 C580 174 500 46 379 42 L274 42 L274 42 Z " />
<glyph glyph-name="dcaron" unicode="&#x10f;" horiz-adv-x="583" d="M663 750 L555 750 L532 563 L541 563 L653 705 C659 713 663 731 663 750 L663 750 Z M415 0 L465 0 L527 0 C527 0 528 1 529 3 C533 12 535 18 535 18 L465 50 L465 60 L465 685 L465 722 L465 760 L442 760 L292 699 L292 698 L285 691 L350 644 L350 456 C330 459 309 461 287 461 C144 461 48 353 48 192 C48 71 113 -9 211 -9 C266 -9 320 14 353 50 L365 0 L415 0 L415 0 Z M350 401 L350 75 C327 54 292 41 256 41 C200 41 163 115 163 227 C163 344 209 422 278 422 C295 422 321 414 350 400 L350 401 L350 401 Z " />
<glyph glyph-name="Emacron" unicode="&#x112;" horiz-adv-x="658" d="M206 953 L472 953 L472 1025 L206 1025 L206 953 L206 953 Z M582 42 C578 78 574 120 571 152 L569 154 C559 162 553 166 552 166 L507 41 L274 41 L274 416 L413 416 L455 336 C455 336 462 339 474 343 L478 345 L478 416 L478 437 L478 458 L478 529 L474 531 C462 535 455 538 455 538 L413 458 L274 458 L274 807 L482 807 L528 692 C529 692 535 696 544 703 C546 704 547 705 547 705 C550 735 553 774 556 807 L562 807 L562 849 L560 849 L552 849 L543 849 L510 849 L273 849 L208 849 L176 849 L143 849 L72 849 C72 849 71 848 70 845 C66 836 63 830 63 830 L143 794 L143 54 L63 18 C63 18 66 12 70 3 C71 0 72 -1 72 -1 L143 -1 L176 -1 L208 -1 L273 -1 L535 -1 L568 -1 L577 -1 L585 -1 L587 -1 L587 41 L582 42 L582 42 Z " />
<glyph glyph-name="emacron" unicode="&#x113;" horiz-adv-x="483" d="M124 593 L390 593 L390 665 L124 665 L124 593 L124 593 Z M261 279 L164 279 C167 367 201 425 251 425 C293 425 322 368 328 279 L261 279 L261 279 Z M260 243 L380 243 L432 247 C432 375 363 460 260 460 C133 460 49 356 49 200 C49 74 133 -10 260 -10 C329 -10 398 36 432 105 L434 113 C433 112 432 111 431 110 L431 114 L427 114 C392 74 338 48 292 48 C218 48 168 125 162 244 L260 243 L260 243 Z " />
<glyph glyph-name="Edot" unicode="&#x116;" horiz-adv-x="658" d="M344 915 C392 915 424 947 424 995 C424 1043 392 1075 344 1075 C296 1075 264 1043 264 995 C264 947 296 915 344 915 L344 915 Z M582 42 C578 78 574 120 571 152 L569 154 C559 162 553 166 552 166 L507 41 L274 41 L274 416 L413 416 L455 336 C455 336 462 339 474 343 L478 345 L478 416 L478 437 L478 458 L478 529 L474 531 C462 535 455 538 455 538 L413 458 L274 458 L274 807 L482 807 L528 692 C529 692 535 696 544 703 C546 704 547 705 547 705 C550 735 553 774 556 807 L562 807 L562 849 L560 849 L552 849 L543 849 L510 849 L273 849 L208 849 L176 849 L143 849 L72 849 C72 849 71 848 70 845 C66 836 63 830 63 830 L143 794 L143 54 L63 18 C63 18 66 12 70 3 C71 0 72 -1 72 -1 L143 -1 L176 -1 L208 -1 L273 -1 L535 -1 L568 -1 L577 -1 L585 -1 L587 -1 L587 41 L582 42 L582 42 Z " />
<glyph glyph-name="edot" unicode="&#x117;" horiz-adv-x="483" d="M262 583 C310 583 342 615 342 663 C342 711 310 743 262 743 C214 743 182 711 182 663 C182 615 214 583 262 583 L262 583 Z M261 279 L164 279 C167 367 201 425 251 425 C293 425 322 368 328 279 L261 279 L261 279 Z M260 243 L380 243 L432 247 C432 375 363 460 260 460 C133 460 49 356 49 200 C49 74 133 -10 260 -10 C329 -10 398 36 432 105 L434 113 C433 112 432 111 431 110 L431 114 L427 114 C392 74 338 48 292 48 C218 48 168 125 162 244 L260 243 L260 243 Z " />
<glyph glyph-name="Ecaron" unicode="&#x11a;" horiz-adv-x="658" d="M495 1057 L350 900 L327 900 L188 1057 L197 1057 L340 986 L485 1057 L495 1057 L495 1057 Z M582 42 C578 78 574 120 571 152 L569 154 C559 162 553 166 552 166 L507 41 L274 41 L274 416 L413 416 L455 336 C455 336 462 339 474 343 L478 345 L478 416 L478 437 L478 458 L478 529 L474 531 C462 535 455 538 455 538 L413 458 L274 458 L274 807 L482 807 L528 692 C529 692 535 696 544 703 C546 704 547 705 547 705 C550 735 553 774 556 807 L562 807 L562 849 L560 849 L552 849 L543 849 L510 849 L273 849 L208 849 L176 849 L143 849 L72 849 C72 849 71 848 70 845 C66 836 63 830 63 830 L143 794 L143 54 L63 18 C63 18 66 12 70 3 C71 0 72 -1 72 -1 L143 -1 L176 -1 L208 -1 L273 -1 L535 -1 L568 -1 L577 -1 L585 -1 L587 -1 L587 41 L582 42 L582 42 Z " />
<glyph glyph-name="ecaron" unicode="&#x11b;" horiz-adv-x="483" d="M408 710 L263 535 L240 535 L101 710 L110 710 L252 631 L399 710 L408 710 L408 710 Z M261 279 L164 279 C167 367 201 425 251 425 C293 425 322 368 328 279 L261 279 L261 279 Z M260 243 L380 243 L432 247 C432 375 363 460 260 460 C133 460 49 356 49 200 C49 74 133 -10 260 -10 C329 -10 398 36 432 105 L434 113 C433 112 432 111 431 110 L431 114 L427 114 C392 74 338 48 292 48 C218 48 168 125 162 244 L260 243 L260 243 Z " />
<glyph glyph-name="Gbreve" unicode="&#x11e;" horiz-adv-x="766" d="M249 1058 L238 1058 C278 947 323 904 396 904 C469 904 514 947 553 1058 L543 1058 C525 1009 484 990 396 991 C308 990 267 1009 249 1058 L249 1058 Z M646 318 L721 354 C722 354 719 360 715 370 C714 372 713 374 713 373 C674 374 621 374 582 373 C540 374 484 374 442 373 C442 373 441 372 440 370 L432 354 L517 318 L517 39 C486 36 452 34 418 34 C289 34 203 196 203 439 C203 668 290 821 420 821 C461 821 504 818 542 813 C549 811 555 805 559 798 C572 763 590 717 604 683 C606 685 610 687 613 689 C615 690 619 692 622 694 L631 854 L629 825 L629 825 L631 854 C623 856 538 858 419 858 C208 858 68 673 68 394 C68 151 199 -12 396 -12 C483 -12 582 1 644 19 L646 318 L646 318 Z " />
<glyph glyph-name="gbreve" unicode="&#x11f;" horiz-adv-x="554" d="M120 711 L110 711 C149 588 194 540 267 540 C340 540 385 588 424 711 L414 711 C396 657 355 636 267 636 C179 636 138 657 120 711 L120 711 Z M185 151 L185 151 C208 143 234 139 262 139 C383 139 446 204 446 302 C446 344 432 379 407 406 L506 408 L506 450 L374 432 C344 450 306 460 262 460 C141 460 79 396 79 300 C79 236 111 186 164 160 C109 140 74 107 74 75 C74 20 110 -18 166 -25 C98 -53 54 -97 54 -136 C54 -199 130 -241 243 -241 C374 -241 462 -170 462 -64 C462 19 425 74 331 74 L221 74 C166 74 130 84 130 100 C130 121 152 141 186 150 L185 151 L185 151 Z M272 169 C228 169 198 223 198 303 C198 379 218 429 258 429 C300 429 328 376 328 297 C328 220 309 169 272 169 L272 169 Z M185 -26 L273 -26 C369 -26 406 -48 406 -80 C406 -163 344 -219 251 -219 C195 -219 157 -179 157 -120 C157 -70 168 -32 185 -26 L185 -26 Z " />
<glyph glyph-name="Itilde" unicode="&#x128;" horiz-adv-x="429" d="M73 895 C83 925 93 945 124 945 C176 945 219 884 271 884 C317 884 340 938 366 1020 L356 1020 C346 989 336 968 305 968 C253 968 210 1029 158 1029 C112 1029 89 975 63 895 L73 895 L73 895 Z M215 0 L279 0 L350 0 C351 0 351 1 352 4 C357 13 360 19 359 19 L279 55 L279 795 L359 831 C360 831 357 837 352 846 C351 849 351 850 350 850 L279 850 L215 850 L150 850 L79 850 C79 850 78 849 77 846 C73 837 70 831 70 831 L150 795 L150 55 L70 19 C70 19 73 13 77 4 C78 1 79 0 79 0 L150 0 L215 0 L215 0 Z " />
<glyph glyph-name="itilde" unicode="&#x129;" horiz-adv-x="352" d="M35 530 C45 560 55 580 86 580 C138 580 181 519 233 519 C279 519 302 573 328 655 L318 655 C308 624 298 603 267 603 C215 603 172 664 120 664 C73 664 51 610 25 530 L35 530 L35 530 Z M177 0 L234 0 L296 0 C296 0 297 1 298 3 C301 12 304 18 304 18 L234 50 L234 375 L234 422 L234 460 L211 460 L61 399 L61 398 C57 393 54 390 54 390 L119 334 L119 50 L54 18 C54 18 56 12 60 3 C61 1 61 0 61 0 L119 0 L177 0 L177 0 Z " />
<glyph glyph-name="Imacron" unicode="&#x12a;" horiz-adv-x="429" d="M82 953 L348 953 L348 1025 L82 1025 L82 953 L82 953 Z M215 0 L279 0 L350 0 C351 0 351 1 352 4 C357 13 360 19 359 19 L279 55 L279 795 L359 831 C360 831 357 837 352 846 C351 849 351 850 350 850 L279 850 L215 850 L150 850 L79 850 C79 850 78 849 77 846 C73 837 70 831 70 831 L150 795 L150 55 L70 19 C70 19 73 13 77 4 C78 1 79 0 79 0 L150 0 L215 0 L215 0 Z " />
<glyph glyph-name="imacron" unicode="&#x12b;" horiz-adv-x="352" d="M39 593 L305 593 L305 665 L39 665 L39 593 L39 593 Z M177 0 L234 0 L296 0 C296 0 297 1 298 3 C301 12 304 18 304 18 L234 50 L234 375 L234 422 L234 460 L211 460 L61 399 L61 398 C57 393 54 390 54 390 L119 334 L119 50 L54 18 C54 18 56 12 60 3 C61 1 61 0 61 0 L119 0 L177 0 L177 0 Z " />
<glyph glyph-name="Idot" unicode="&#x130;" horiz-adv-x="429" d="M215 915 C263 915 295 947 295 995 C295 1043 263 1075 215 1075 C167 1075 135 1043 135 995 C135 947 167 915 215 915 L215 915 Z M215 0 L279 0 L350 0 C351 0 351 1 352 4 C357 13 360 19 359 19 L279 55 L279 795 L359 831 C360 831 357 837 352 846 C351 849 351 850 350 850 L279 850 L215 850 L150 850 L79 850 C79 850 78 849 77 846 C73 837 70 831 70 831 L150 795 L150 55 L70 19 C70 19 73 13 77 4 C78 1 79 0 79 0 L150 0 L215 0 L215 0 Z " />
<glyph glyph-name="dotlessi" unicode="&#x131;" horiz-adv-x="352" d="M177 0 L234 0 L296 0 C296 0 297 1 298 3 C301 12 304 18 304 18 L234 50 L234 375 L234 422 L234 460 L211 460 L61 399 L61 398 C57 393 54 390 54 390 L119 334 L119 50 L54 18 C54 18 56 12 60 3 C61 1 61 0 61 0 L119 0 L177 0 L177 0 Z " />
<glyph glyph-name="Lacute" unicode="&#x139;" horiz-adv-x="642" d="M195 895 L204 895 L384 1008 C392 1012 397 1031 397 1054 L282 1054 L195 895 L195 895 Z M567 42 C562 89 557 145 553 189 C553 189 552 190 550 191 C540 201 533 207 533 207 L487 42 L275 42 L275 795 L360 831 C359 831 356 837 352 846 C351 849 350 850 350 850 L275 850 L210 850 L145 850 L74 850 C74 850 73 849 72 846 C68 837 65 831 65 831 L145 795 L145 55 L65 19 C65 19 68 13 72 4 C73 1 74 0 74 0 L145 0 L178 0 L210 0 L275 0 L522 0 L554 0 L563 0 L572 0 L573 0 L573 42 L567 42 L567 42 Z " />
<glyph glyph-name="lacute" unicode="&#x13a;" horiz-adv-x="333" d="M151 765 L161 765 L351 878 C358 882 363 901 364 924 L243 924 L151 765 L151 765 Z M167 0 L224 0 L286 0 C286 0 287 1 288 3 C291 12 294 18 294 18 L224 50 L224 675 L224 722 L224 760 L201 760 L51 699 L51 698 C47 693 44 690 44 690 L109 634 L109 50 L44 18 C44 18 46 12 50 3 C51 1 51 0 51 0 L109 0 L167 0 L167 0 Z " />
<glyph glyph-name="Lcaron" unicode="&#x13d;" horiz-adv-x="642" d="M520 850 L413 850 L389 663 L399 663 L511 805 C516 813 520 831 520 850 L520 850 Z M567 42 C562 89 557 145 553 189 C553 189 552 190 550 191 C540 201 533 207 533 207 L487 42 L275 42 L275 795 L360 831 C359 831 356 837 352 846 C351 849 350 850 350 850 L275 850 L210 850 L145 850 L74 850 C74 850 73 849 72 846 C68 837 65 831 65 831 L145 795 L145 55 L65 19 C65 19 68 13 72 4 C73 1 74 0 74 0 L145 0 L178 0 L210 0 L275 0 L522 0 L554 0 L563 0 L572 0 L573 0 L573 42 L567 42 L567 42 Z " />
<glyph glyph-name="lcaron" unicode="&#x13e;" horiz-adv-x="333" d="M422 750 L314 750 L291 563 L300 563 L412 705 C418 713 422 731 422 750 L422 750 Z M167 0 L224 0 L286 0 C286 0 287 1 288 3 C291 12 294 18 294 18 L224 50 L224 675 L224 722 L224 760 L201 760 L51 699 L51 698 C47 693 44 690 44 690 L109 634 L109 50 L44 18 C44 18 46 12 50 3 C51 1 51 0 51 0 L109 0 L167 0 L167 0 Z " />
<glyph glyph-name="Nacute" unicode="&#x143;" horiz-adv-x="811" d="M423 895 L432 895 L613 1008 C620 1012 625 1031 625 1054 L510 1054 L423 895 L423 895 Z M672 795 L747 831 C746 831 744 837 740 846 C739 849 738 850 738 850 L672 850 L645 850 L618 850 L529 850 C529 850 528 849 527 846 C521 837 518 831 518 831 L618 795 L618 220 L207 850 L180 850 L153 850 L86 850 C86 850 86 849 85 846 C81 837 78 831 78 831 L153 795 L153 764 L153 55 L73 19 C73 19 76 13 80 4 C81 1 82 0 82 0 L153 0 L180 0 L207 0 L296 0 C296 0 297 1 298 4 C303 13 307 19 307 19 L207 55 L207 676 L603 27 L622 -5 L672 -5 L672 137 L672 795 L672 795 Z " />
<glyph glyph-name="nacute" unicode="&#x144;" horiz-adv-x="598" d="M305 530 L314 530 L495 655 C502 661 507 681 507 707 L392 707 L305 530 L305 530 Z M436 0 L494 0 L552 0 L553 3 C556 12 559 18 559 18 L494 50 L494 343 C494 413 443 460 367 460 C321 460 275 430 230 383 L225 460 L202 460 L58 399 L58 398 C54 394 51 390 51 390 L116 334 L116 50 L51 18 C51 18 53 12 57 3 C58 1 58 0 58 0 L116 0 L174 0 L231 0 L293 0 C293 0 294 1 295 3 C298 12 301 18 301 18 L231 50 L231 360 C260 388 294 406 335 406 C363 406 381 354 381 277 L381 50 L311 18 C311 18 313 12 317 3 C318 1 319 0 319 0 L381 0 L436 0 L436 0 Z " />
<glyph glyph-name="Ncaron" unicode="&#x147;" horiz-adv-x="811" d="M578 1057 L434 900 L411 900 L271 1057 L281 1057 L424 986 L569 1057 L578 1057 L578 1057 Z M672 795 L747 831 C746 831 744 837 740 846 C739 849 738 850 738 850 L672 850 L645 850 L618 850 L529 850 C529 850 528 849 527 846 C521 837 518 831 518 831 L618 795 L618 220 L207 850 L180 850 L153 850 L86 850 C86 850 86 849 85 846 C81 837 78 831 78 831 L153 795 L153 764 L153 55 L73 19 C73 19 76 13 80 4 C81 1 82 0 82 0 L153 0 L180 0 L207 0 L296 0 C296 0 297 1 298 4 C303 13 307 19 307 19 L207 55 L207 676 L603 27 L622 -5 L672 -5 L672 137 L672 795 L672 795 Z " />
<glyph glyph-name="ncaron" unicode="&#x148;" horiz-adv-x="598" d="M460 710 L316 535 L293 535 L153 710 L163 710 L305 631 L451 710 L460 710 L460 710 Z M436 0 L494 0 L552 0 L553 3 C556 12 559 18 559 18 L494 50 L494 343 C494 413 443 460 367 460 C321 460 275 430 230 383 L225 460 L202 460 L58 399 L58 398 C54 394 51 390 51 390 L116 334 L116 50 L51 18 C51 18 53 12 57 3 C58 1 58 0 58 0 L116 0 L174 0 L231 0 L293 0 C293 0 294 1 295 3 C298 12 301 18 301 18 L231 50 L231 360 C260 388 294 406 335 406 C363 406 381 354 381 277 L381 50 L311 18 C311 18 313 12 317 3 C318 1 319 0 319 0 L381 0 L436 0 L436 0 Z " />
<glyph glyph-name="Omacron" unicode="&#x14c;" horiz-adv-x="817" d="M261 953 L527 953 L527 1025 L261 1025 L261 953 L261 953 Z M424 28 C295 28 208 205 208 470 C208 681 283 822 395 822 C524 822 610 642 610 373 C610 166 536 28 424 28 L424 28 Z M70 419 C70 162 206 -10 409 -10 C612 -10 748 163 748 423 C748 685 612 860 409 860 C206 860 70 684 70 419 L70 419 Z " />
<glyph glyph-name="omacron" unicode="&#x14d;" horiz-adv-x="548" d="M141 593 L407 593 L407 665 L141 665 L141 593 L141 593 Z M284 22 C223 22 182 103 182 225 C182 347 210 428 264 428 C325 428 366 347 366 225 C366 103 338 22 284 22 L284 22 Z M50 225 C50 84 140 -10 274 -10 C422 -10 498 84 498 225 C498 366 408 460 274 460 C126 460 50 366 50 225 L50 225 Z " />
<glyph glyph-name="Racute" unicode="&#x154;" horiz-adv-x="692" d="M295 895 L304 895 L485 1008 C492 1012 497 1031 497 1054 L382 1054 L295 895 L295 895 Z M571 0 L643 0 L679 0 C679 0 679 2 680 4 C682 13 684 17 684 17 L618 50 L430 426 C505 461 574 536 574 634 C574 764 486 850 353 850 L274 850 L209 850 L144 850 L73 850 C73 850 72 849 71 846 C67 837 64 831 64 831 L144 795 L144 55 L64 19 C64 19 67 13 71 4 C72 1 73 0 73 0 L144 0 L209 0 L274 0 L340 0 C340 0 341 1 342 4 C346 13 348 19 349 19 L274 55 L274 404 L303 404 L499 0 L571 0 L571 0 Z M274 446 L274 807 L336 807 C395 807 434 733 434 622 C434 516 364 446 313 446 L274 446 L274 446 Z " />
<glyph glyph-name="racute" unicode="&#x155;" horiz-adv-x="418" d="M263 530 L272 530 L452 655 C460 661 465 681 465 707 L350 707 L263 530 L263 530 Z M265 383 C271 368 304 347 334 334 C357 322 372 314 372 313 L379 313 C403 362 419 401 419 409 C419 418 415 428 407 437 C403 443 398 448 392 451 C384 454 355 461 336 461 C308 461 272 426 231 372 L231 376 L231 377 L231 377 L225 461 L202 461 L58 400 L58 399 C54 394 51 391 51 391 L116 335 L116 51 L51 19 C51 19 53 13 57 4 C58 2 58 1 58 1 L116 1 L174 1 L231 1 L293 1 C293 1 294 2 295 4 C298 13 301 19 301 19 L231 51 L231 345 C243 361 255 374 266 384 L265 383 L265 383 Z " />
<glyph glyph-name="Rcaron" unicode="&#x158;" horiz-adv-x="692" d="M460 1057 L316 900 L293 900 L153 1057 L162 1057 L305 986 L451 1057 L460 1057 L460 1057 Z M571 0 L643 0 L679 0 C679 0 679 2 680 4 C682 13 684 17 684 17 L618 50 L430 426 C505 461 574 536 574 634 C574 764 486 850 353 850 L274 850 L209 850 L144 850 L73 850 C73 850 72 849 71 846 C67 837 64 831 64 831 L144 795 L144 55 L64 19 C64 19 67 13 71 4 C72 1 73 0 73 0 L144 0 L209 0 L274 0 L340 0 C340 0 341 1 342 4 C346 13 348 19 349 19 L274 55 L274 404 L303 404 L499 0 L571 0 L571 0 Z M274 446 L274 807 L336 807 C395 807 434 733 434 622 C434 516 364 446 313 446 L274 446 L274 446 Z " />
<glyph glyph-name="rcaron" unicode="&#x159;" horiz-adv-x="418" d="M418 710 L273 535 L250 535 L111 710 L120 710 L262 631 L409 710 L418 710 L418 710 Z M265 383 C271 368 304 347 334 334 C357 322 372 314 372 313 L379 313 C403 362 419 401 419 409 C419 418 415 428 407 437 C403 443 398 448 392 451 C384 454 355 461 336 461 C308 461 272 426 231 372 L231 376 L231 377 L231 377 L225 461 L202 461 L58 400 L58 399 C54 394 51 391 51 391 L116 335 L116 51 L51 19 C51 19 53 13 57 4 C58 2 58 1 58 1 L116 1 L174 1 L231 1 L293 1 C293 1 294 2 295 4 C298 13 301 19 301 19 L231 51 L231 345 C243 361 255 374 266 384 L265 383 L265 383 Z " />
<glyph glyph-name="Sacute" unicode="&#x15a;" horiz-adv-x="546" d="M263 895 L273 895 L453 1008 C460 1012 465 1031 465 1054 L350 1054 L263 895 L263 895 Z M76 23 L74 -6 C82 -8 166 -10 283 -10 C408 -10 491 90 491 240 C491 339 437 416 333 489 C252 545 211 602 211 673 C211 763 238 823 279 823 C310 823 340 821 367 818 C381 815 394 804 399 789 C407 767 417 739 425 718 C428 719 432 721 435 722 C439 723 443 725 446 726 L449 803 C450 803 451 803 452 803 L452 829 L452 829 L453 856 C447 859 380 861 288 861 C166 861 85 768 85 627 C85 534 134 464 229 397 C322 333 369 274 369 207 C369 99 335 27 285 27 C242 27 195 31 153 37 L153 37 C145 38 138 45 135 53 C127 82 115 122 106 152 C103 150 99 148 95 147 C92 145 88 143 85 142 L80 52 C79 52 78 52 77 52 L77 23 C78 23 79 23 80 23 L76 23 L76 23 Z " />
<glyph glyph-name="sacute" unicode="&#x15b;" horiz-adv-x="442" d="M216 530 L225 530 L405 655 C413 661 418 681 418 707 L303 707 L216 530 L216 530 Z M62 39 L60 21 C100 2 163 -10 216 -10 C310 -10 373 45 373 128 C373 216 334 261 259 282 C205 297 177 323 177 370 C177 406 194 430 220 430 C225 430 230 430 235 429 L235 429 C275 424 310 393 324 352 C326 346 328 338 330 333 C333 333 337 334 339 335 C342 336 346 336 348 337 L353 387 C354 386 355 385 356 384 L357 423 L356 404 L356 404 L358 422 C320 444 264 458 217 458 C132 458 76 405 76 325 C76 243 111 201 180 181 C241 164 272 137 272 89 C272 45 249 15 213 15 C203 15 191 16 178 18 L178 18 C147 23 118 47 104 77 C99 90 91 107 85 120 C83 119 80 118 78 117 C76 116 73 115 70 114 L65 56 C64 56 63 56 62 56 L61 36 L61 36 L62 39 L62 39 Z M60 37 L60 18 L60 37 L60 37 L60 37 Z " />
<glyph glyph-name="Scedilla" unicode="&#x15e;" horiz-adv-x="546" d="M282 -51 L301 -9 C415 1 490 98 490 240 C490 339 436 416 332 489 C251 545 210 602 210 673 C210 763 237 823 278 823 C309 823 339 821 366 818 C380 815 393 804 398 789 C406 767 416 739 424 718 C427 719 431 721 434 722 C438 723 442 725 445 726 L448 803 C449 803 450 803 451 803 L451 829 L451 829 L452 856 C446 859 379 861 287 861 C165 861 84 768 84 627 C84 534 133 464 228 397 C321 333 368 274 368 207 C368 99 334 27 284 27 C241 27 194 31 152 37 L152 37 C144 38 137 45 134 53 C126 82 114 122 105 152 C102 150 98 148 94 147 C91 145 87 143 84 142 L79 52 C78 52 77 52 76 52 L76 23 C77 23 78 23 79 23 L77 -6 C85 -8 165 -10 278 -10 L222 -130 L244 -140 C268 -143 284 -155 284 -172 C284 -200 280 -219 275 -219 C241 -219 212 -214 202 -205 L202 -214 C222 -229 256 -240 286 -240 C336 -240 370 -204 370 -149 C370 -100 337 -63 286 -51 L282 -51 L282 -51 Z " />
<glyph glyph-name="scedilla" unicode="&#x15f;" horiz-adv-x="442" d="M216 -51 L236 -9 C319 -2 373 51 373 128 C373 216 334 261 259 282 C205 297 177 323 177 370 C177 406 194 430 220 430 C225 430 230 430 235 429 L235 429 C275 424 310 393 324 352 C326 346 328 338 330 333 C333 333 337 334 339 335 C342 336 346 336 348 337 L353 387 C354 386 355 385 356 384 L357 423 L356 404 L356 404 L358 422 C320 444 264 458 217 458 C132 458 76 405 76 325 C76 243 111 201 180 181 C241 164 272 137 272 89 C272 45 249 15 213 15 C203 15 191 16 178 18 L178 18 C147 23 118 47 104 77 C99 90 91 107 85 120 C83 119 80 118 78 117 C76 116 73 115 70 114 L65 56 C64 56 63 56 62 56 L61 36 L61 36 L59 18 C97 0 156 -12 207 -13 L151 -133 L173 -143 C196 -146 212 -158 212 -175 C212 -203 209 -222 204 -222 C170 -222 141 -217 131 -208 L131 -217 C151 -232 185 -243 215 -243 C265 -243 298 -207 298 -152 C298 -103 266 -66 215 -54 L216 -51 L216 -51 Z M59 37 L59 18 L59 37 L59 37 L59 37 Z " />
<glyph glyph-name="Scaron" unicode="&#x160;" horiz-adv-x="546" d="M434 1057 L289 900 L266 900 L127 1057 L136 1057 L279 986 L425 1057 L434 1057 L434 1057 Z M76 23 L74 -6 C82 -8 166 -10 283 -10 C408 -10 491 90 491 240 C491 339 437 416 333 489 C252 545 211 602 211 673 C211 763 238 823 279 823 C310 823 340 821 367 818 C381 815 394 804 399 789 C407 767 417 739 425 718 C428 719 432 721 435 722 C439 723 443 725 446 726 L449 803 C450 803 451 803 452 803 L452 829 L452 829 L453 856 C447 859 380 861 288 861 C166 861 85 768 85 627 C85 534 134 464 229 397 C322 333 369 274 369 207 C369 99 335 27 285 27 C242 27 195 31 153 37 L153 37 C145 38 138 45 135 53 C127 82 115 122 106 152 C103 150 99 148 95 147 C92 145 88 143 85 142 L80 52 C79 52 78 52 77 52 L77 23 C78 23 79 23 80 23 L76 23 L76 23 Z " />
<glyph glyph-name="scaron" unicode="&#x161;" horiz-adv-x="442" d="M371 710 L226 535 L203 535 L64 710 L73 710 L215 631 L362 710 L371 710 L371 710 Z M62 39 L60 21 C100 2 163 -10 216 -10 C310 -10 373 45 373 128 C373 216 334 261 259 282 C205 297 177 323 177 370 C177 406 194 430 220 430 C225 430 230 430 235 429 L235 429 C275 424 310 393 324 352 C326 346 328 338 330 333 C333 333 337 334 339 335 C342 336 346 336 348 337 L353 387 C354 386 355 385 356 384 L357 423 L356 404 L356 404 L358 422 C320 444 264 458 217 458 C132 458 76 405 76 325 C76 243 111 201 180 181 C241 164 272 137 272 89 C272 45 249 15 213 15 C203 15 191 16 178 18 L178 18 C147 23 118 47 104 77 C99 90 91 107 85 120 C83 119 80 118 78 117 C76 116 73 115 70 114 L65 56 C64 56 63 56 62 56 L61 36 L61 36 L62 39 L62 39 Z M60 37 L60 18 L60 37 L60 37 L60 37 Z " />
<glyph glyph-name="Tcaron" unicode="&#x164;" horiz-adv-x="683" d="M498 1057 L353 900 L330 900 L191 1057 L200 1057 L343 985 L489 1057 L498 1057 L498 1057 Z M342 0 L407 0 L495 0 C495 0 496 1 498 4 C503 13 506 19 507 19 L407 55 L407 808 L553 808 L600 663 C600 663 607 668 617 677 C619 678 620 679 620 679 C624 717 629 766 633 808 L639 808 L639 850 L637 850 L628 850 L619 850 L587 850 L407 850 L277 850 L97 850 L64 850 L56 850 L47 850 L45 850 L45 808 L51 808 L64 679 L66 677 C77 668 83 663 84 663 L131 808 L277 808 L277 55 L177 19 C177 19 181 13 186 4 C187 1 188 0 188 0 L277 0 L342 0 L342 0 Z " />
<glyph glyph-name="tcaron" unicode="&#x165;" horiz-adv-x="393" d="M417 750 L310 750 L286 563 L296 563 L408 705 C413 713 417 731 417 750 L417 750 Z M364 53 L361 61 C358 55 332 51 297 51 C251 51 220 88 220 144 L219 414 L351 414 L351 450 L219 450 L219 573 L211 573 L104 450 L18 418 L18 414 L104 414 L104 120 C104 42 154 -10 230 -10 C292 -10 345 15 364 53 L364 53 Z " />
<glyph glyph-name="Utilde" unicode="&#x168;" horiz-adv-x="796" d="M251 895 C261 925 271 945 302 945 C354 945 398 884 449 884 C495 884 518 938 544 1020 L534 1020 C525 989 515 968 483 968 C432 968 388 1029 336 1029 C290 1029 268 975 241 895 L251 895 L251 895 Z M135 795 L135 301 C135 115 238 -10 393 -10 C548 -10 651 115 651 301 L651 795 L731 831 C731 831 728 837 724 846 C723 849 722 850 722 850 L651 850 L624 850 L597 850 L508 850 C508 850 507 849 506 846 C501 837 497 831 497 831 L597 795 L597 285 C597 133 526 31 421 31 C326 31 263 148 263 324 L264 795 L264 795 L344 831 C344 831 341 837 337 846 C336 849 335 850 335 850 L264 850 L199 850 L135 850 L64 850 C64 850 63 849 62 846 C58 837 55 831 55 831 L135 795 L135 795 Z " />
<glyph glyph-name="utilde" unicode="&#x169;" horiz-adv-x="560" d="M134 535 C144 565 153 585 185 585 C237 585 280 524 332 524 C378 524 401 578 427 660 L417 660 C407 629 397 608 366 608 C314 608 271 669 219 669 C172 669 150 615 124 535 L134 535 L134 535 Z M355 400 L355 94 C320 63 282 47 250 47 C224 47 206 99 206 177 L206 451 L149 451 L91 451 L33 451 C33 451 33 450 32 448 C28 439 26 434 26 434 L91 401 L91 108 C91 38 141 -9 215 -9 C250 -9 301 17 356 70 L356 1 L413 1 L471 1 L533 1 C533 1 533 2 534 4 C538 13 541 19 541 19 L471 51 L471 451 L413 451 L356 451 L294 451 C294 451 293 450 292 448 C288 439 286 434 286 434 L355 400 L355 400 Z " />
<glyph glyph-name="Umacron" unicode="&#x16a;" horiz-adv-x="796" d="M270 953 L536 953 L536 1025 L270 1025 L270 953 L270 953 Z M135 795 L135 301 C135 115 238 -10 393 -10 C548 -10 651 115 651 301 L651 795 L731 831 C731 831 728 837 724 846 C723 849 722 850 722 850 L651 850 L624 850 L597 850 L508 850 C508 850 507 849 506 846 C501 837 497 831 497 831 L597 795 L597 285 C597 133 526 31 421 31 C326 31 263 148 263 324 L264 795 L264 795 L344 831 C344 831 341 837 337 846 C336 849 335 850 335 850 L264 850 L199 850 L135 850 L64 850 C64 850 63 849 62 846 C58 837 55 831 55 831 L135 795 L135 795 Z " />
<glyph glyph-name="umacron" unicode="&#x16b;" horiz-adv-x="560" d="M142 593 L408 593 L408 665 L142 665 L142 593 L142 593 Z M355 400 L355 94 C320 63 282 47 250 47 C224 47 206 99 206 177 L206 451 L149 451 L91 451 L33 451 C33 451 33 450 32 448 C28 439 26 434 26 434 L91 401 L91 108 C91 38 141 -9 215 -9 C250 -9 301 17 356 70 L356 1 L413 1 L471 1 L533 1 C533 1 533 2 534 4 C538 13 541 19 541 19 L471 51 L471 451 L413 451 L356 451 L294 451 C294 451 293 450 292 448 C288 439 286 434 286 434 L355 400 L355 400 Z " />
<glyph glyph-name="Uring" unicode="&#x16e;" horiz-adv-x="796" d="M401 918 C389 918 378 955 378 999 C378 1035 385 1059 396 1059 C409 1059 418 1027 418 980 C418 946 410 918 401 918 L401 918 Z M307 989 C307 941 349 900 398 900 C447 900 489 942 489 992 C489 1043 453 1077 398 1077 C343 1077 307 1042 307 989 L307 989 Z M135 795 L135 301 C135 115 238 -10 393 -10 C548 -10 651 115 651 301 L651 795 L731 831 C731 831 728 837 724 846 C723 849 722 850 722 850 L651 850 L624 850 L597 850 L508 850 C508 850 507 849 506 846 C501 837 497 831 497 831 L597 795 L597 285 C597 133 526 31 421 31 C326 31 263 148 263 324 L264 795 L264 795 L344 831 C344 831 341 837 337 846 C336 849 335 850 335 850 L264 850 L199 850 L135 850 L64 850 C64 850 63 849 62 846 C58 837 55 831 55 831 L135 795 L135 795 Z " />
<glyph glyph-name="uring" unicode="&#x16f;" horiz-adv-x="560" d="M279 553 C266 553 256 590 256 634 C256 670 263 694 274 694 C287 694 295 662 295 615 C295 581 287 553 279 553 L279 553 Z M185 624 C185 576 227 535 275 535 C324 535 366 577 366 627 C366 678 330 712 275 712 C221 712 185 677 185 624 L185 624 Z M355 400 L355 94 C320 63 282 47 250 47 C224 47 206 99 206 177 L206 451 L149 451 L91 451 L33 451 C33 451 33 450 32 448 C28 439 26 434 26 434 L91 401 L91 108 C91 38 141 -9 215 -9 C250 -9 301 17 356 70 L356 1 L413 1 L471 1 L533 1 C533 1 533 2 534 4 C538 13 541 19 541 19 L471 51 L471 451 L413 451 L356 451 L294 451 C294 451 293 450 292 448 C288 439 286 434 286 434 L355 400 L355 400 Z " />
<glyph glyph-name="Ydieresis" unicode="&#x178;" horiz-adv-x="713" d="M471 925 C514 925 543 954 543 997 C543 1040 514 1069 471 1069 C428 1069 399 1040 399 997 C399 954 428 925 471 925 L471 925 Z M256 925 C299 925 328 954 328 997 C328 1040 299 1069 256 1069 C213 1069 184 1040 184 997 C184 954 213 925 256 925 L256 925 Z M306 55 L216 19 C216 19 219 13 224 4 C225 1 226 0 226 0 L306 0 L370 0 L435 0 L515 0 C515 0 516 1 517 4 C522 13 525 19 525 19 L435 55 L435 427 L629 810 L629 810 L682 836 C682 836 680 840 678 846 C678 849 678 850 677 850 L649 850 L623 850 L597 850 L495 850 C495 850 494 849 493 846 C487 837 483 831 482 831 L570 795 L399 450 L221 795 L303 831 L293 846 C292 849 291 850 291 850 L193 850 L126 850 L59 850 L33 850 C33 850 33 848 32 845 L29 833 L86 800 L307 400 L306 55 L306 55 Z " />
<glyph glyph-name="Zacute" unicode="&#x179;" horiz-adv-x="646" d="M328 895 L337 895 L518 1008 C525 1012 530 1031 530 1054 L415 1054 L328 895 L328 895 Z M403 808 L108 42 L99 19 L99 0 L108 0 L215 0 L504 0 L537 0 L545 0 L554 0 L556 0 L556 42 L550 42 L538 162 C538 162 537 163 535 164 C525 172 519 177 518 177 L470 42 L231 42 L526 808 L541 847 L541 850 L526 850 L419 850 L163 850 L130 850 L122 850 L113 850 L111 850 L111 808 L117 808 C121 772 125 730 128 698 C128 698 129 697 131 696 C141 689 148 684 148 684 L197 809 L403 808 L403 808 Z " />
<glyph glyph-name="zacute" unicode="&#x17a;" horiz-adv-x="488" d="M248 530 L257 530 L438 655 C445 661 450 681 450 707 L335 707 L248 530 L248 530 Z M88 433 C86 401 83 359 82 327 C81 327 83 326 85 324 C93 319 99 315 99 315 L137 415 L262 415 L88 35 L79 14 L79 0 L88 0 L198 0 L414 0 L414 17 L414 35 L414 128 C414 128 413 129 410 130 C402 136 396 139 396 140 L364 35 L214 35 L388 415 L406 450 L388 450 L278 450 L139 450 L99 460 C99 460 95 460 90 459 L89 459 C88 451 88 441 88 433 L88 433 Z " />
<glyph glyph-name="Zdot" unicode="&#x17b;" horiz-adv-x="646" d="M338 915 C386 915 418 947 418 995 C418 1043 386 1075 338 1075 C290 1075 258 1043 258 995 C258 947 290 915 338 915 L338 915 Z M403 808 L108 42 L99 19 L99 0 L108 0 L215 0 L504 0 L537 0 L545 0 L554 0 L556 0 L556 42 L550 42 L538 162 C538 162 537 163 535 164 C525 172 519 177 518 177 L470 42 L231 42 L526 808 L541 847 L541 850 L526 850 L419 850 L163 850 L130 850 L122 850 L113 850 L111 850 L111 808 L117 808 C121 772 125 730 128 698 C128 698 129 697 131 696 C141 689 148 684 148 684 L197 809 L403 808 L403 808 Z " />
<glyph glyph-name="zdot" unicode="&#x17c;" horiz-adv-x="488" d="M252 583 C300 583 332 615 332 663 C332 711 300 743 252 743 C204 743 172 711 172 663 C172 615 204 583 252 583 L252 583 Z M88 433 C86 401 83 359 82 327 C81 327 83 326 85 324 C93 319 99 315 99 315 L137 415 L262 415 L88 35 L79 14 L79 0 L88 0 L198 0 L414 0 L414 17 L414 35 L414 128 C414 128 413 129 410 130 C402 136 396 139 396 140 L364 35 L214 35 L388 415 L406 450 L388 450 L278 450 L139 450 L99 460 C99 460 95 460 90 459 L89 459 C88 451 88 441 88 433 L88 433 Z " />
<glyph glyph-name="Zcaron" unicode="&#x17d;" horiz-adv-x="646" d="M499 1057 L354 900 L331 900 L192 1057 L201 1057 L344 986 L489 1057 L499 1057 L499 1057 Z M403 808 L108 42 L99 19 L99 0 L108 0 L215 0 L504 0 L537 0 L545 0 L554 0 L556 0 L556 42 L550 42 L538 162 C538 162 537 163 535 164 C525 172 519 177 518 177 L470 42 L231 42 L526 808 L541 847 L541 850 L526 850 L419 850 L163 850 L130 850 L122 850 L113 850 L111 850 L111 808 L117 808 C121 772 125 730 128 698 C128 698 129 697 131 696 C141 689 148 684 148 684 L197 809 L403 808 L403 808 Z " />
<glyph glyph-name="zcaron" unicode="&#x17e;" horiz-adv-x="488" d="M403 710 L259 535 L236 535 L96 710 L105 710 L247 631 L394 710 L403 710 L403 710 Z M88 433 C86 401 83 359 82 327 C81 327 83 326 85 324 C93 319 99 315 99 315 L137 415 L262 415 L88 35 L79 14 L79 0 L88 0 L198 0 L414 0 L414 17 L414 35 L414 128 C414 128 413 129 410 130 C402 136 396 139 396 140 L364 35 L214 35 L388 415 L406 450 L388 450 L278 450 L139 450 L99 460 C99 460 95 460 90 459 L89 459 C88 451 88 441 88 433 L88 433 Z " />
<glyph glyph-name="oogonek" unicode="&#x1eb;" horiz-adv-x="754" d="M772 -116 L772 -106 C765 -110 735 -112 696 -112 C614 -112 515 -69 444 -4 C590 25 684 152 684 332 C684 539 561 678 377 678 C193 678 70 538 70 329 C70 133 184 0 357 -10 C450 -98 551 -156 616 -156 C669 -156 732 -141 772 -117 L772 -116 L772 -116 Z M391 24 C273 24 194 164 194 374 C194 536 262 644 365 644 C482 644 560 501 560 286 C560 129 492 24 391 24 L391 24 Z " />
<glyph glyph-name="G_sc" unicode="&#x262;" horiz-adv-x="706" d="M586 239 L661 275 C661 275 658 281 654 290 C654 292 653 294 653 294 L586 294 L528 294 L470 294 L394 294 L392 290 C388 281 385 275 385 275 L470 239 L470 35 C442 33 412 32 382 32 C267 32 190 160 190 353 C190 528 267 645 383 645 C416 645 451 643 483 639 L483 639 C491 639 498 633 500 626 C514 591 532 545 546 510 C548 512 552 514 555 516 C557 518 561 520 564 522 L573 675 L571 649 L571 649 L573 675 C563 678 487 680 383 680 C195 680 70 533 70 313 C70 120 187 -9 363 -9 C441 -9 530 3 586 20 L586 239 L586 239 Z " />
<glyph glyph-name="I_sc" unicode="&#x26a;" horiz-adv-x="416" d="M208 0 L266 0 L338 0 C338 0 338 1 339 4 C344 13 347 19 346 19 L266 55 L266 614 L346 650 C347 650 344 656 339 665 C338 668 338 669 338 669 L266 669 L208 669 L150 669 L79 669 C79 669 78 668 77 665 C73 656 70 650 70 650 L150 614 L150 55 L70 19 C70 19 73 13 77 4 C78 1 79 0 79 0 L150 0 L208 0 L208 0 Z " />
<glyph glyph-name="N_sc" unicode="&#x274;" horiz-adv-x="749" d="M609 614 L684 650 C685 650 682 656 678 665 C677 668 676 669 676 669 L609 669 L585 669 L561 669 L472 669 C472 669 471 668 470 665 C465 656 461 650 461 650 L561 614 L561 187 L201 669 L177 669 L152 669 L86 669 C86 669 85 668 84 665 C80 656 77 650 77 650 L152 614 L152 591 L152 55 L72 19 C72 19 75 13 79 4 C80 1 81 0 81 0 L152 0 L177 0 L201 0 L290 0 C290 0 291 1 292 4 C297 13 301 19 301 19 L201 55 L201 521 L548 24 L568 -5 L609 -5 L609 123 L609 614 L609 614 Z " />
<glyph glyph-name="R_sc" unicode="&#x280;" horiz-adv-x="627" d="M551 50 L551 50 L400 339 C458 369 508 425 508 497 C508 599 434 668 323 668 L261 668 L203 668 L144 668 L73 668 C73 668 72 667 72 664 C67 655 64 649 64 649 L144 613 L144 54 L64 18 C64 18 67 12 72 3 C72 0 73 -1 73 -1 L144 -1 L203 -1 L261 -1 L327 -1 C328 -1 328 0 329 3 C333 12 336 18 336 18 L261 54 L261 314 L285 314 L446 -1 L512 -1 L577 -1 L612 -1 L614 3 C616 12 618 16 618 16 L551 50 L551 50 Z M261 353 L261 630 L307 630 C352 630 381 572 381 486 C381 406 326 353 285 353 L261 353 L261 353 Z " />
<glyph glyph-name="Y_sc" unicode="&#x28f;" horiz-adv-x="652" d="M29 652 L89 619 L280 318 L280 55 L190 19 C190 19 193 13 198 4 C199 1 200 0 200 0 L280 0 L338 0 L396 0 L476 0 C476 0 477 1 478 4 C483 13 486 19 486 19 L396 55 L396 340 L565 629 L619 655 C619 655 618 659 616 665 C616 668 615 669 615 669 L588 669 L564 669 L541 669 L439 669 C439 669 438 668 437 665 C431 656 426 650 426 650 L509 614 L368 370 L213 614 L213 614 L288 650 L278 665 C276 668 275 669 275 669 L178 669 L118 669 L57 669 L33 669 C33 669 32 667 32 664 C30 657 29 652 28 652 L29 652 L29 652 Z M28 652 L28 652 L28 652 Z " />
<glyph glyph-name="B_sc" unicode="&#x299;" horiz-adv-x="602" d="M281 364 L261 364 L261 631 L303 631 C350 631 374 571 374 482 C374 415 337 370 281 364 L281 364 Z M380 358 C452 387 495 442 495 514 C495 607 435 669 317 669 L260 669 L202 669 L143 669 L72 669 C72 669 71 668 71 665 C66 656 63 650 63 650 L143 614 L143 55 L63 19 C63 19 66 13 71 4 C71 1 72 0 72 0 L143 0 L202 0 L260 0 L317 0 C458 0 552 77 552 192 C552 277 494 339 380 358 L380 358 Z M261 38 L261 325 L325 325 C395 325 431 268 431 182 C431 95 386 38 318 38 L261 38 L261 38 Z " />
<glyph glyph-name="H_sc" unicode="&#x29c;" horiz-adv-x="756" d="M553 0 L611 0 L683 0 C683 0 683 1 684 4 C689 13 692 19 691 19 L611 55 L611 614 L691 650 C692 650 689 656 684 665 C683 668 683 669 683 669 L611 669 L553 669 L495 669 L424 669 C424 669 423 668 422 665 C418 656 415 650 415 650 L495 614 L495 364 L261 364 L261 614 L341 650 C341 650 338 656 334 665 C332 668 332 669 332 669 L261 669 L203 669 L144 669 L73 669 C73 669 72 668 72 665 C67 656 64 650 64 650 L144 614 L144 55 L64 19 C64 19 67 13 72 4 C72 1 73 0 73 0 L144 0 L203 0 L261 0 L332 0 C332 0 332 1 334 4 C338 13 341 19 341 19 L261 55 L261 326 L495 326 L495 55 L415 19 C415 19 418 13 422 4 C423 1 424 0 424 0 L495 0 L553 0 L553 0 Z " />
<glyph glyph-name="L_sc" unicode="&#x29f;" horiz-adv-x="578" d="M503 38 C498 85 492 141 488 185 L486 187 C475 197 468 203 468 203 L423 38 L261 38 L261 614 L346 650 C346 650 343 656 338 665 C337 668 336 669 336 669 L261 669 L203 669 L144 669 L73 669 C73 669 72 668 72 665 C67 656 64 650 64 650 L144 614 L144 55 L64 19 C64 19 67 13 72 4 C72 1 73 0 73 0 L144 0 L173 0 L203 0 L261 0 L457 0 L489 0 L498 0 L507 0 L508 0 L508 38 L503 38 L503 38 Z " />
<glyph glyph-name="A_sc" unicode="&#x1d00;" horiz-adv-x="694" d="M599 45 L598 45 L391 637 L378 674 L314 674 L87 35 L87 35 L32 12 C32 12 34 8 36 3 C37 1 37 0 37 0 L75 0 L99 0 L122 0 L211 0 C211 0 212 1 213 3 C218 12 222 18 222 18 L139 50 L216 273 L216 272 L401 272 L476 50 L476 50 L384 18 L394 3 L397 0 L493 0 L554 0 L614 0 L655 0 C655 0 656 1 656 4 C659 11 661 16 661 16 L599 45 L599 45 Z M388 311 L229 311 L309 543 L388 311 L388 311 Z " />
<glyph glyph-name="C_sc" unicode="&#x1d04;" horiz-adv-x="648" d="M557 15 L557 15 C573 17 574 18 557 18 L557 43 C556 43 555 43 554 43 L550 132 C548 134 544 136 542 138 C540 139 536 141 534 143 C521 113 503 73 490 43 C486 37 480 32 475 30 C439 26 398 24 358 24 C256 24 188 155 188 351 C188 526 261 643 371 643 C402 643 434 641 464 637 C471 635 476 630 478 623 C492 588 510 542 524 507 C526 509 530 511 533 513 C535 515 539 517 542 519 L551 672 L549 646 L549 646 L551 672 C542 675 470 677 371 677 C189 677 68 530 68 310 C68 117 184 -12 358 -12 C465 -12 545 -10 556 -7 L557 15 L557 15 Z " />
<glyph glyph-name="D_sc" unicode="&#x1d05;" horiz-adv-x="721" d="M228 0 L261 0 L355 0 C533 6 652 131 652 367 C652 566 525 669 334 669 L261 669 L203 669 L144 669 L73 669 C73 669 72 668 72 665 C67 656 64 650 64 650 L144 614 L144 55 L64 19 C64 19 67 13 72 4 C72 1 73 0 73 0 L144 0 L203 0 L228 0 L228 0 Z M261 38 L261 631 L316 631 C444 631 530 526 530 323 C530 139 460 42 354 38 L261 38 L261 38 Z " />
<glyph glyph-name="E_sc" unicode="&#x1d07;" horiz-adv-x="595" d="M520 38 C516 74 512 116 509 149 C509 149 508 150 506 151 C497 158 490 163 490 163 L445 38 L261 38 L261 326 L350 326 L392 246 C392 246 400 249 411 253 L415 255 L415 326 L415 345 L415 364 L415 435 C415 435 413 435 411 436 C400 441 392 444 392 444 L350 364 L261 364 L261 631 L420 631 L466 516 C466 516 473 520 482 527 C484 528 485 529 485 529 C488 559 492 597 496 630 L501 630 L501 668 L500 668 L491 668 L482 668 L450 668 L262 668 L204 668 L174 668 L145 668 L74 668 C74 668 73 667 73 664 C68 655 65 649 65 649 L145 613 L145 54 L65 18 C65 18 68 12 73 3 C73 0 74 -1 74 -1 L145 -1 L174 -1 L204 -1 L262 -1 L475 -1 L507 -1 L516 -1 L525 -1 L526 -1 L526 37 L520 38 L520 38 Z " />
<glyph glyph-name="J_sc" unicode="&#x1d0a;" horiz-adv-x="416" d="M150 614 L150 51 C150 -54 125 -123 88 -123 C86 -123 67 -118 41 -111 L35 -111 C27 -111 22 -153 22 -155 C22 -166 39 -173 65 -173 C186 -173 266 -10 266 235 L266 614 L346 650 C347 650 344 656 339 665 C338 668 338 669 338 669 L266 669 L208 669 L150 669 L79 669 C79 669 78 668 77 665 C73 656 70 650 70 650 L150 614 L150 614 Z " />
<glyph glyph-name="K_sc" unicode="&#x1d0b;" horiz-adv-x="711" d="M626 40 L626 40 L349 396 L564 629 L628 655 C628 655 627 659 625 665 C624 667 624 669 624 669 L601 669 L571 669 L541 669 L435 669 L432 666 C426 658 422 652 421 652 L498 619 L262 343 L278 320 L278 320 L512 0 L584 0 L656 0 L680 0 L682 4 C684 10 685 14 685 14 L626 40 L626 40 Z M420 652 L420 652 L420 652 Z M203 0 L261 0 L332 0 C332 0 333 1 334 4 C338 13 341 19 341 19 L261 55 L261 614 L341 650 C341 650 338 656 334 665 C333 668 332 669 332 669 L261 669 L203 669 L145 669 L74 669 C74 669 73 668 72 665 C68 656 65 650 65 650 L145 614 L145 55 L65 19 C65 19 68 13 72 4 C73 1 74 0 74 0 L145 0 L203 0 L203 0 Z " />
<glyph glyph-name="M_sc" unicode="&#x1d0d;" horiz-adv-x="918" d="M172 614 L173 614 L151 55 L151 55 L70 19 C70 19 73 13 77 4 L79 0 L149 0 L170 0 L191 0 L266 0 C266 0 267 1 268 4 C273 13 276 19 276 19 L193 55 L210 573 L419 -5 L477 -5 L462 38 L462 38 L477 -5 L504 80 L506 82 L505 84 L658 561 L677 56 L676 56 L599 20 C599 20 602 14 606 5 C607 2 607 1 607 1 L679 1 L734 1 L789 1 L850 1 L852 5 C855 14 858 20 858 20 L787 56 L766 616 L853 652 C853 652 850 658 845 667 C844 670 843 671 843 671 L764 671 L709 671 L654 671 L489 133 L297 671 L213 671 L194 671 L175 671 L95 671 C95 671 94 670 93 667 C87 658 84 652 85 652 L172 614 L172 614 Z " />
<glyph glyph-name="O_sc" unicode="&#x1d0f;" horiz-adv-x="754" d="M391 25 C273 25 194 165 194 375 C194 537 262 645 365 645 C482 645 560 502 560 287 C560 130 492 25 391 25 L391 25 Z M70 330 C70 126 193 -10 377 -10 C561 -10 684 127 684 333 C684 540 561 679 377 679 C193 679 70 539 70 330 L70 330 Z " />
<glyph glyph-name="P_sc" unicode="&#x1d18;" horiz-adv-x="602" d="M203 0 L261 0 L345 0 C345 0 346 1 347 4 C352 13 356 19 356 19 L261 55 L261 302 L308 302 C443 302 533 376 533 488 C533 597 453 669 333 669 L261 669 L203 669 L144 669 L73 669 C73 669 72 668 72 665 C67 656 64 650 64 650 L144 614 L144 55 L64 19 C64 19 67 13 72 4 C72 1 73 0 73 0 L144 0 L203 0 L203 0 Z M261 340 L261 631 L317 631 C372 631 408 570 408 477 C408 395 373 340 322 340 L261 340 L261 340 Z " />
<glyph glyph-name="T_sc" unicode="&#x1d1b;" horiz-adv-x="620" d="M310 0 L369 0 L458 0 C457 0 458 1 460 4 C465 13 468 19 469 19 L369 55 L369 631 L491 631 L538 486 C538 486 544 492 555 500 C557 501 558 502 558 502 C561 540 566 590 570 631 L576 631 L576 669 L574 669 L566 669 L557 669 L524 669 L369 669 L252 669 L97 669 L64 669 L55 669 L47 669 L45 669 L45 631 L50 631 L63 502 C63 502 64 501 66 500 C76 492 83 486 83 486 L130 631 L252 631 L252 55 L152 19 C152 19 156 13 161 4 C162 1 163 0 163 0 L252 0 L310 0 L310 0 Z " />
<glyph glyph-name="U_sc" unicode="&#x1d1c;" horiz-adv-x="737" d="M138 614 L138 237 C138 89 229 -10 365 -10 C502 -10 593 89 593 237 L593 614 L673 650 C673 650 670 656 666 665 C665 668 664 669 664 669 L593 669 L569 669 L545 669 L456 669 C456 669 455 668 454 665 C448 656 445 650 445 650 L545 614 L545 222 C545 105 483 27 390 27 C309 27 254 119 254 258 L254 614 L334 650 C335 650 332 656 327 665 C326 668 326 669 325 669 L254 669 L196 669 L138 669 L67 669 C67 669 66 668 65 665 C61 656 58 650 58 650 L138 614 L138 614 Z " />
<glyph glyph-name="V_sc" unicode="&#x1d20;" horiz-adv-x="669" d="M530 614 L530 614 L353 150 L217 614 L311 650 L301 665 C299 668 298 669 298 669 L201 669 L141 669 L80 669 L37 669 C38 669 37 667 36 665 C33 657 31 652 31 652 L96 619 L299 8 L304 -5 L335 -5 L582 629 L637 655 C637 655 636 659 633 666 C633 668 632 669 632 669 L598 669 L574 669 L551 669 L462 669 C462 669 462 668 460 665 C455 656 451 650 451 650 L530 614 L530 614 Z " />
<glyph glyph-name="W_sc" unicode="&#x1d21;" horiz-adv-x="913" d="M782 614 L782 614 L667 185 L484 633 L467 674 L449 674 L441 649 L429 608 L380 586 L405 528 L304 187 L202 614 L299 650 L289 665 C287 668 286 669 286 669 L189 669 L129 669 L68 669 L25 669 C25 669 24 668 23 665 C21 657 19 652 19 652 L83 619 L257 25 L266 -5 L288 -5 L294 15 L432 465 L624 25 L637 -5 L655 -5 L661 15 L833 629 L833 629 L895 655 C895 655 893 659 890 666 C889 668 889 669 889 669 L844 669 L820 669 L797 669 L708 669 C708 669 707 668 706 665 C700 656 697 650 697 650 L782 614 L782 614 Z " />
<glyph glyph-name="Z_sc" unicode="&#x1d22;" horiz-adv-x="586" d="M354 631 L108 38 L99 17 L99 0 L108 0 L204 0 L444 0 L477 0 L486 0 L494 0 L496 0 L496 38 L491 38 L479 158 C479 158 478 159 476 160 C466 168 459 173 459 173 L411 38 L220 38 L466 631 L481 667 L481 669 L466 669 L370 669 L163 669 L130 669 L122 669 L113 669 L111 669 L111 631 L117 631 C121 595 125 553 128 520 L130 518 C141 511 148 506 148 506 L197 631 L354 631 L354 631 Z " />
<glyph glyph-name="Etilde" unicode="&#x1ebc;" horiz-adv-x="658" d="M212 895 C222 925 232 945 263 945 C315 945 358 884 410 884 C456 884 479 938 505 1020 L495 1020 C485 989 475 968 444 968 C392 968 349 1029 297 1029 C251 1029 228 975 202 895 L212 895 L212 895 Z M582 42 C578 78 574 120 571 152 L569 154 C559 162 553 166 552 166 L507 41 L274 41 L274 416 L413 416 L455 336 C455 336 462 339 474 343 L478 345 L478 416 L478 437 L478 458 L478 529 L474 531 C462 535 455 538 455 538 L413 458 L274 458 L274 807 L482 807 L528 692 C529 692 535 696 544 703 C546 704 547 705 547 705 C550 735 553 774 556 807 L562 807 L562 849 L560 849 L552 849 L543 849 L510 849 L273 849 L208 849 L176 849 L143 849 L72 849 C72 849 71 848 70 845 C66 836 63 830 63 830 L143 794 L143 54 L63 18 C63 18 66 12 70 3 C71 0 72 -1 72 -1 L143 -1 L176 -1 L208 -1 L273 -1 L535 -1 L568 -1 L577 -1 L585 -1 L587 -1 L587 41 L582 42 L582 42 Z " />
<glyph glyph-name="endash" unicode="&#x2013;" horiz-adv-x="500" d="M50 231 L450 231 L450 303 L50 303 L50 231 L50 231 Z " />
<glyph glyph-name="emdash" unicode="&#x2014;" horiz-adv-x="1000" d="M50 231 L950 231 L950 303 L50 303 L50 231 L50 231 Z " />
<glyph glyph-name="quoteleft" unicode="&#x2018;" horiz-adv-x="237" d="M105 490 C120 485 132 481 139 481 C153 481 165 492 172 509 L194 568 L194 583 L148 607 C112 621 87 649 87 677 C87 706 126 729 185 735 L185 750 C102 742 47 701 47 647 C47 565 70 503 105 490 L105 490 Z " />
<glyph glyph-name="quoteright" unicode="&#x2019;" horiz-adv-x="237" d="M127 750 C113 755 100 759 93 759 C80 759 67 748 61 731 L38 672 L38 657 L84 633 C121 619 145 591 145 563 C145 534 106 511 47 505 L47 490 C130 498 185 539 185 593 C185 675 162 737 127 750 L127 750 Z " />
<glyph glyph-name="quotedblleft" unicode="&#x201c;" horiz-adv-x="420" d="M105 490 C120 485 132 481 139 481 C153 481 165 492 172 509 L194 568 L194 583 L148 607 C112 621 87 649 87 677 C87 706 126 729 185 735 L185 750 C102 742 47 701 47 647 C47 565 70 503 105 490 L105 490 Z M288 490 C303 485 315 481 323 481 C336 481 348 492 355 509 L377 568 L377 583 L331 607 C295 621 270 649 270 677 C270 706 309 729 368 735 L368 750 C285 742 230 701 230 647 C230 565 254 503 288 490 L288 490 Z " />
<glyph glyph-name="quotedblright" unicode="&#x201d;" horiz-adv-x="420" d="M310 750 C296 755 283 759 276 759 C263 759 250 748 244 731 L221 672 L221 657 L267 633 C304 619 328 591 328 563 C328 534 289 511 230 505 L230 490 C313 498 368 539 368 593 C368 675 345 737 310 750 L310 750 Z M127 750 C113 755 100 759 93 759 C80 759 67 748 61 731 L38 672 L38 657 L84 633 C121 619 145 591 145 563 C145 534 106 511 47 505 L47 490 C130 498 185 539 185 593 C185 675 162 737 127 750 L127 750 Z " />
<glyph glyph-name="bullet" unicode="&#x2022;" horiz-adv-x="580" d="M290 128 C386 128 450 192 450 288 C450 384 386 448 290 448 C194 448 130 384 130 288 C130 192 194 128 290 128 L290 128 Z " />
<glyph glyph-name="ellipsis" unicode="&#x2026;" horiz-adv-x="730" d="M585 -10 C633 -10 665 22 665 70 C665 118 633 150 585 150 C537 150 505 118 505 70 C505 22 537 -10 585 -10 L585 -10 Z M365 -10 C413 -10 445 22 445 70 C445 118 413 150 365 150 C317 150 285 118 285 70 C285 22 317 -10 365 -10 L365 -10 Z M145 -10 C193 -10 225 22 225 70 C225 118 193 150 145 150 C97 150 65 118 65 70 C65 22 97 -10 145 -10 L145 -10 Z " />
<glyph glyph-name="guilsinglleft" unicode="&#x2039;" horiz-adv-x="241" d="M213 425 L13 248 L213 70 L221 70 L157 248 L221 425 L213 425 L213 425 Z " />
<glyph glyph-name="guilsinglright" unicode="&#x203a;" horiz-adv-x="260" d="M20 425 L97 248 L20 70 L28 70 L241 248 L28 425 L20 425 L20 425 Z " />
<glyph glyph-name="Euro" unicode="&#x20ac;" horiz-adv-x="520" d="M224 359 C222 392 221 427 221 463 C221 476 221 489 221 502 L374 502 L374 535 L223 535 C231 715 270 831 325 831 C321 831 349 808 394 774 L425 729 L432 729 L487 774 C493 779 496 793 496 809 C496 829 491 847 484 852 C478 857 422 860 346 860 C214 860 119 734 92 535 L10 535 L10 502 L88 502 C85 473 84 443 84 412 C84 394 84 376 85 359 L10 359 L10 325 L87 325 C102 121 172 -10 324 -10 C420 -10 491 -7 499 -2 L505 16 L499 16 L499 14 C483 11 439 9 382 9 C288 9 241 131 227 325 L375 325 L375 359 L224 359 L224 359 Z " />
<glyph glyph-name="F_sc" unicode="&#xa730;" horiz-adv-x="560" d="M350 326 L392 246 C392 246 400 249 411 253 L415 255 L415 326 L415 345 L415 364 L415 435 C415 435 413 435 411 436 C400 441 392 444 392 444 L350 364 L261 364 L261 631 L410 631 L456 516 C456 516 463 520 472 527 C474 528 475 529 475 529 C478 559 482 597 486 630 L491 630 L491 668 L490 668 L481 668 L472 668 L440 668 L262 668 L204 668 L174 668 L145 668 L74 668 C74 668 73 667 73 664 C68 655 65 649 65 649 L145 613 L145 54 L65 18 C65 18 68 12 73 3 C73 0 74 -1 74 -1 L145 -1 L204 -1 L262 -1 L346 -1 C346 -1 347 0 348 3 C353 12 357 18 357 18 L262 54 L262 325 L350 326 L350 326 Z " />
<glyph glyph-name="S_sc" unicode="&#xa731;" horiz-adv-x="480" d="M75 21 L74 -5 C83 -8 153 -10 250 -10 C355 -10 425 71 425 192 C425 271 381 333 294 394 C231 438 199 482 199 534 C199 601 217 646 244 646 C262 646 281 645 299 643 L299 643 C314 642 327 631 332 616 C341 594 351 564 359 541 C362 543 366 545 369 546 C373 547 377 549 380 550 L383 626 C384 626 385 626 386 626 L386 651 L386 651 L387 675 C380 678 326 680 251 680 C152 680 85 605 85 493 C85 420 126 362 205 307 C277 256 315 211 315 163 C315 80 290 24 252 24 C218 24 181 27 147 32 C142 34 138 39 136 46 C128 76 116 116 107 146 C103 145 99 143 96 141 C93 140 89 138 85 136 L81 47 C80 47 79 47 78 47 L78 21 L78 21 L75 21 L75 21 Z " />
</font>
</svg>
