<?xml version="1.0" encoding="UTF-8"?>
<svg xmlns="http://www.w3.org/2000/svg" xmlns:xlink="http://www.w3.org/1999/xlink" version="1.2" >
<font id="Jerrick Bold Italic">
<font-face  font-family="Jerrick" units-per-em="1024" ascent="1105" descent="-300" font-style="italic" font-weight="700" font-stretch="normal" cap-height="850" x-height="669" underline-position="-125" underline-thickness="50" />
<missing-glyph  horiz-adv-x="650" d="" />
<glyph glyph-name="NULL" d="" />
<glyph glyph-name="CR" unicode="&#xd;" horiz-adv-x="256" d="" />
<glyph glyph-name="space" unicode="&#x20;" horiz-adv-x="250" d="" />
<glyph glyph-name="exclam" unicode="&#x21;" horiz-adv-x="282" d="M147 -10 C195 -10 233 22 241 70 C250 118 223 150 176 150 C127 150 90 118 81 70 C73 22 99 -10 147 -10 L147 -10 Z M230 850 L186 253 L201 253 L368 850 L230 850 L230 850 Z " />
<glyph glyph-name="quotedbl" unicode="&#x22;" horiz-adv-x="528" d="M483 930 L490 680 L518 680 L613 930 L483 930 L483 930 Z M244 930 L250 680 L279 680 L373 930 L244 930 L244 930 Z " />
<glyph glyph-name="numbersign" unicode="&#x23;" horiz-adv-x="498" d="M222 450 L137 450 L134 434 L76 434 L65 366 L188 366 L41 0 L80 0 L227 366 L356 366 L209 0 L248 0 L395 366 L505 366 L508 382 L565 382 L577 450 L429 450 L590 850 L551 850 L390 450 L261 450 L422 850 L383 850 L222 450 L222 450 Z " />
<glyph glyph-name="dollar" unicode="&#x24;" horiz-adv-x="508" d="M447 930 L435 860 C430 860 425 860 420 860 C413 860 406 860 399 859 L411 930 L352 930 L337 847 C247 816 181 735 162 626 C145 528 179 458 259 398 L197 45 C178 65 171 98 178 139 L183 166 L179 170 L119 170 C96 170 78 158 75 139 C62 64 106 10 188 -6 L175 -81 L234 -81 L246 -11 C259 -11 272 -10 284 -8 L271 -81 L330 -81 L346 11 C426 48 485 127 503 231 C517 309 491 390 424 454 L468 703 L473 699 L532 699 C555 699 573 711 576 729 C586 786 554 829 493 847 L507 927 L447 930 L447 930 Z M340 525 L392 818 C397 819 402 820 407 820 C415 820 422 819 429 817 L372 495 C360 505 349 515 340 525 L340 525 Z M297 615 C295 632 296 650 300 670 C305 696 312 719 321 739 L297 615 L297 615 Z M312 354 C324 343 334 332 343 321 L293 35 C281 29 268 25 254 24 L312 354 L312 354 Z M385 225 C386 213 386 201 384 190 C380 170 375 151 369 134 L385 225 L385 225 Z " />
<glyph glyph-name="ampersand" unicode="&#x26;" horiz-adv-x="696" d="M644 555 L666 605 L559 605 L556 602 C548 593 543 588 543 588 L644 555 L644 555 Z M661 55 L660 55 L550 221 C607 311 660 424 717 555 L806 588 C806 588 804 593 802 602 C801 604 801 605 801 605 L739 605 L703 605 L667 605 C612 478 563 367 512 278 L372 488 C474 555 544 634 555 699 C572 795 518 859 419 859 C305 859 214 777 193 655 C175 554 195 505 251 417 C105 334 66 265 52 187 C31 68 93 -11 207 -11 C310 -11 390 30 460 103 L529 0 L613 0 L696 0 L729 0 L732 6 C736 14 738 19 739 19 L661 55 L661 55 Z M266 394 C269 390 272 386 275 382 L426 155 C366 86 300 47 218 47 C184 47 173 117 191 223 C205 295 223 353 267 393 L266 394 L266 394 Z M351 519 C320 569 309 600 323 679 C339 769 373 828 408 828 C437 828 447 774 432 692 C420 627 390 565 350 519 L351 519 L351 519 Z " />
<glyph glyph-name="quotesingle" unicode="&#x27;" horiz-adv-x="289" d="M80 930 L130 680 L159 680 L209 930 L80 930 L80 930 Z " />
<glyph glyph-name="parenleft" unicode="&#x28;" horiz-adv-x="286" d="M426 930 C280 815 170 661 121 390 C74 119 130 -35 236 -150 L255 -150 C188 -77 160 63 218 390 C275 717 353 857 445 930 L426 930 L426 930 Z " />
<glyph glyph-name="parenright" unicode="&#x29;" horiz-adv-x="286" d="M29 -150 C174 -35 285 119 333 390 C381 661 324 815 219 930 L200 930 C266 857 294 717 237 390 C179 63 102 -77 9 -150 L29 -150 L29 -150 Z " />
<glyph glyph-name="plus" unicode="&#x2b;" horiz-adv-x="510" d="M303 482 L272 308 L94 308 L82 236 L260 236 L227 52 L302 52 L334 236 L512 236 L524 308 L347 308 L377 482 L303 482 L303 482 Z " />
<glyph glyph-name="comma" unicode="&#x2c;" horiz-adv-x="243" d="M163 113 C150 120 139 125 133 125 C124 125 110 114 97 97 L50 35 L51 22 L90 0 C126 -18 146 -51 141 -83 C133 -124 87 -168 26 -195 L23 -210 C110 -173 175 -110 185 -51 C200 34 191 99 163 113 L163 113 Z " />
<glyph glyph-name="hyphen" unicode="&#x2d;" horiz-adv-x="375" d="M86 202 L361 202 L378 302 L103 302 L86 202 L86 202 Z " />
<glyph glyph-name="period" unicode="&#x2e;" horiz-adv-x="290" d="M143 -10 C191 -10 229 22 237 70 C246 118 219 150 171 150 C123 150 86 118 77 70 C69 22 95 -10 143 -10 L143 -10 Z " />
<glyph glyph-name="slash" unicode="&#x2f;" horiz-adv-x="271" d="M-21 -120 L51 -120 L438 940 L366 940 L-21 -120 L-21 -120 Z " />
<glyph glyph-name="zero" unicode="0" horiz-adv-x="536" d="M285 27 C219 27 206 203 252 466 C290 681 349 824 400 824 C472 824 489 649 443 387 C405 171 342 27 285 27 L285 27 Z M108 422 C62 163 125 -10 267 -10 C407 -10 533 167 580 434 C625 689 561 860 420 860 C279 860 154 685 108 422 L108 422 Z " />
<glyph glyph-name="one" unicode="1" horiz-adv-x="536" d="M375 50 L375 50 L500 754 L516 850 L488 850 L193 696 L188 670 L378 755 L377 754 L253 50 L157 18 C157 18 159 12 163 3 C164 1 164 0 164 0 L244 0 L305 0 L366 0 L438 0 C438 0 439 1 440 3 L450 18 L375 50 L375 50 Z " />
<glyph glyph-name="two" unicode="2" horiz-adv-x="480" d="M462 59 L497 207 L493 209 C484 214 478 218 478 218 L416 118 L162 118 C448 460 562 593 574 654 C595 777 537 859 429 859 C287 859 177 772 154 641 C148 605 167 581 201 581 L268 581 L274 586 L288 664 C305 759 349 823 399 823 C438 823 452 754 434 651 C390 401 302 329 56 35 L50 -1 L64 -1 L141 -1 L399 -1 L431 -1 L440 -1 L449 -1 L450 -1 L454 23 L462 59 L462 59 Z " />
<glyph glyph-name="three" unicode="3" horiz-adv-x="509" d="M254 461 C247 461 240 461 233 461 L230 445 L230 445 L227 427 C359 436 415 368 389 226 C368 106 313 26 252 26 C201 26 176 78 190 156 L197 194 L187 206 L120 206 C89 206 66 186 61 156 C43 57 117 -9 246 -9 C390 -9 503 85 527 226 C552 362 493 440 352 458 C480 490 557 574 577 687 C595 791 533 861 422 861 C292 861 193 787 173 676 C168 645 187 625 221 625 L281 625 L295 637 L304 692 C319 772 357 826 400 826 C437 826 452 765 436 675 C415 555 352 473 255 462 L254 461 L254 461 Z " />
<glyph glyph-name="four" unicode="4" horiz-adv-x="501" d="M500 850 L378 691 L83 304 L55 268 L53 253 L74 253 L301 253 L265 50 L169 18 C169 18 172 12 175 3 C176 1 176 0 176 0 L256 0 L317 0 L379 0 L450 0 C450 0 451 1 452 3 C458 12 461 18 462 18 L388 50 L424 253 L534 253 L543 304 L433 304 L501 691 L529 850 L500 850 L500 850 Z M358 570 L311 304 L165 304 L358 570 L358 570 Z " />
<glyph glyph-name="five" unicode="5" horiz-adv-x="509" d="M565 850 L273 850 L254 850 L236 850 L170 478 C192 484 233 488 271 488 C378 488 432 389 405 241 C383 113 315 28 235 28 C189 28 147 49 130 80 L120 105 L106 105 L86 73 C77 58 70 49 66 46 C67 44 69 41 71 38 C86 9 136 -10 196 -10 C356 -10 484 114 517 300 C543 449 453 549 291 549 C261 549 233 547 218 544 L252 739 L544 739 L565 850 L565 850 Z M66 46 C63 44 62 46 63 53 C63 52 64 50 66 46 L66 46 Z " />
<glyph glyph-name="six" unicode="6" horiz-adv-x="512" d="M584 860 C336 796 139 572 91 299 C58 114 126 -10 261 -10 C393 -10 495 75 518 204 C549 381 509 500 416 500 C355 500 291 454 243 380 C301 620 432 800 581 838 L584 860 L584 860 Z M228 304 L229 304 C264 391 324 449 378 449 C410 449 411 339 382 174 C367 85 321 26 268 26 C216 26 201 137 229 305 L228 304 L228 304 Z " />
<glyph glyph-name="seven" unicode="7" horiz-adv-x="500" d="M200 850 L180 739 L515 739 C261 333 91 43 84 0 L245 0 C283 217 428 551 607 835 L610 850 L585 850 L552 850 L200 850 L200 850 Z " />
<glyph glyph-name="eight" unicode="8" horiz-adv-x="517" d="M410 477 C402 482 393 487 384 492 C311 529 293 600 308 685 C323 769 359 825 398 825 C479 825 521 751 501 640 C488 568 455 511 410 478 L410 477 L410 477 Z M438 457 C505 490 554 557 570 645 C592 774 530 860 413 860 C293 860 197 772 174 641 C158 552 176 472 244 412 C166 375 108 294 89 187 C68 68 138 -11 265 -11 C391 -11 492 82 517 222 C532 312 506 397 437 455 L438 457 L438 457 Z M268 392 C279 384 291 377 305 370 C376 334 403 260 389 178 C372 85 326 22 274 22 C186 22 141 96 161 206 C176 291 215 357 267 393 L268 392 L268 392 Z " />
<glyph glyph-name="nine" unicode="9" horiz-adv-x="509" d="M79 -10 C326 54 523 278 571 550 C604 736 536 860 401 860 C270 860 166 770 135 596 C109 450 157 352 254 352 C308 352 370 401 421 479 C365 235 234 51 84 13 L79 -10 L79 -10 Z M436 547 C395 460 338 403 294 403 C261 403 253 480 273 596 C300 747 347 825 396 825 C448 825 463 714 435 547 L436 547 L436 547 Z " />
<glyph glyph-name="colon" unicode="&#x3a;" horiz-adv-x="290" d="M196 290 C244 290 282 322 290 370 C299 418 272 450 224 450 C176 450 139 418 130 370 C122 322 148 290 196 290 L196 290 Z M143 -10 C191 -10 229 22 237 70 C246 118 219 150 171 150 C123 150 86 118 77 70 C69 22 95 -10 143 -10 L143 -10 Z " />
<glyph glyph-name="semicolon" unicode="&#x3b;" horiz-adv-x="243" d="M184 290 C232 290 270 322 278 370 C287 418 260 450 212 450 C164 450 127 418 118 370 C110 322 136 290 184 290 L184 290 Z M163 113 C150 120 139 125 133 125 C124 125 110 114 97 97 L50 35 L51 22 L90 0 C126 -18 146 -51 141 -83 C133 -124 87 -168 26 -195 L23 -210 C110 -173 175 -110 185 -51 C200 34 191 99 163 113 L163 113 Z " />
<glyph glyph-name="equal" unicode="&#x3d;" horiz-adv-x="500" d="M74 195 L62 123 L482 123 L494 195 L74 195 L74 195 Z M114 421 L102 349 L522 349 L534 421 L114 421 L114 421 Z " />
<glyph glyph-name="question" unicode="&#x3f;" horiz-adv-x="488" d="M237 -5 C285 -5 323 27 331 75 C340 123 313 155 266 155 C217 155 180 123 171 75 C163 27 189 -5 237 -5 L237 -5 Z M258 444 L275 253 L291 253 L318 345 C435 399 524 516 548 649 C570 776 512 860 404 860 C277 860 177 777 155 654 C149 619 167 596 200 596 L260 596 L274 610 L284 667 C300 762 337 826 374 826 C418 826 434 755 415 649 C398 551 335 469 258 444 L258 444 Z " />
<glyph glyph-name="A" unicode="A" horiz-adv-x="757" d="M151 50 L151 50 L280 319 L507 319 L538 50 L538 50 L438 18 C438 18 441 12 446 3 C446 1 447 0 447 0 L544 0 L611 0 L679 0 L720 0 C720 0 721 1 722 4 C726 11 729 16 729 16 L673 45 L576 809 L570 855 L494 855 L93 35 L93 35 L34 12 C34 12 35 8 37 3 L37 0 L76 0 L102 0 L128 0 L217 0 L220 3 C227 12 231 18 231 18 L151 50 L151 50 Z M503 361 L301 361 L464 701 L503 361 L503 361 Z " />
<glyph glyph-name="B" unicode="B" horiz-adv-x="665" d="M284 795 L284 795 L153 55 L67 19 C66 19 68 13 71 4 C72 1 72 0 72 0 L143 0 L208 0 L273 0 L343 0 C506 0 632 95 657 238 C676 345 621 422 492 445 C588 481 655 554 672 649 C693 769 635 849 495 849 L422 849 L357 849 L292 849 L221 849 C221 849 220 848 219 845 L209 830 L284 795 L284 795 Z M383 451 L351 451 L414 807 L470 807 C532 807 551 730 531 614 C514 522 456 459 383 451 L383 451 Z M279 41 L344 408 L421 408 C507 408 538 335 519 226 C500 115 431 41 349 41 L279 41 L279 41 Z " />
<glyph glyph-name="C" unicode="C" horiz-adv-x="708" d="M540 35 L540 35 C498 31 449 29 401 29 C286 29 238 194 281 441 C322 670 432 823 555 823 C593 823 632 821 666 817 L666 817 C673 816 680 810 682 802 C689 767 699 721 706 687 C709 689 713 691 716 693 C719 694 723 696 726 698 L764 858 C756 860 675 862 562 862 C358 862 189 677 139 398 C97 155 199 -8 394 -8 C517 -8 606 -6 617 -3 L620 19 L620 19 L616 -4 L620 19 C636 22 637 24 620 24 L625 50 C624 50 623 50 622 50 L634 140 C632 142 629 144 627 145 C625 147 622 149 620 151 C601 121 577 82 559 52 C554 44 545 39 538 38 L540 35 L540 35 Z " />
<glyph glyph-name="D" unicode="D" horiz-adv-x="785" d="M284 795 L284 795 L153 55 L67 19 C66 19 68 13 71 4 C72 1 72 0 72 0 L143 0 L208 0 L237 0 L273 0 L380 0 C582 7 743 167 796 467 C841 720 721 850 505 850 L423 850 L358 850 L293 850 L222 850 C222 850 221 849 220 846 L210 831 L284 795 L284 795 Z M280 42 L415 808 L478 808 C623 808 697 675 652 418 C609 174 506 46 385 42 L280 42 L280 42 Z " />
<glyph glyph-name="E" unicode="E" horiz-adv-x="658" d="M284 795 L284 795 L153 55 L67 19 C66 19 68 13 71 4 C72 1 72 0 72 0 L143 0 L176 0 L208 0 L273 0 L535 0 L568 0 L577 0 L585 0 L587 0 L594 42 L589 42 C592 78 595 120 597 152 L595 154 C587 162 581 166 581 166 L514 41 L280 41 L346 416 L485 416 L513 336 C513 336 520 339 532 343 C535 344 537 345 537 345 C541 366 545 393 549 417 L550 417 L557 459 L557 459 C561 483 566 509 570 530 C569 530 568 531 565 532 C555 536 548 539 548 539 L492 459 L353 459 L415 808 L623 808 L649 693 C649 693 656 697 667 704 L669 706 C678 736 688 775 697 808 L703 808 L711 850 L709 850 L700 850 L692 850 L659 850 L422 850 L357 850 L325 850 L292 850 L221 850 C221 850 220 849 219 846 L209 831 L284 795 L284 795 Z " />
<glyph glyph-name="F" unicode="F" horiz-adv-x="623" d="M284 795 L284 795 L153 55 L67 19 C66 19 68 13 71 4 C72 1 72 0 72 0 L143 0 L208 0 L273 0 L357 0 C357 0 358 1 360 4 C366 13 371 19 371 19 L283 55 L347 417 L486 417 L514 337 C514 337 521 340 533 344 C536 345 538 346 538 346 C542 367 546 394 550 418 L551 418 L558 460 L558 460 C562 484 567 510 571 531 C570 531 569 532 566 533 C556 537 549 540 549 540 L493 460 L354 460 L416 809 L614 809 L640 694 C640 694 647 698 658 705 L660 707 C669 737 679 776 688 809 L694 809 L702 851 L700 851 L691 851 L683 851 L650 851 L423 851 L358 851 L326 851 L293 851 L222 851 C222 851 221 850 220 847 L210 832 L284 795 L284 795 Z " />
<glyph glyph-name="G" unicode="G" horiz-adv-x="766" d="M573 318 L573 318 L526 52 C487 41 451 35 425 35 C296 35 239 197 281 440 C322 669 436 822 565 822 C607 822 650 819 688 814 C694 812 700 806 702 799 C709 764 719 718 726 684 C729 686 733 688 736 690 C739 691 743 693 746 695 L784 855 C776 857 691 859 572 859 C362 859 189 674 139 395 C97 152 199 -11 396 -11 C461 -11 565 14 656 52 L702 317 L703 317 L784 353 C784 353 783 359 780 369 C779 371 779 372 779 372 C740 373 687 373 648 372 C606 373 550 373 507 372 C507 372 507 371 505 369 C499 359 494 353 495 353 L573 318 L573 318 Z " />
<glyph glyph-name="H" unicode="H" horiz-adv-x="819" d="M685 795 L685 795 L626 459 L355 459 L414 795 L500 831 C500 831 498 837 496 846 C495 849 494 850 495 850 L424 850 L359 850 L294 850 L223 850 C223 850 222 849 221 846 L211 831 L284 795 L284 795 L153 55 L67 19 C66 19 68 13 71 4 C72 1 72 0 72 0 L143 0 L208 0 L273 0 L344 0 C343 0 344 1 346 4 L356 19 L283 55 L347 417 L618 417 L554 55 L468 19 C467 19 469 13 472 4 C473 1 473 0 473 0 L544 0 L609 0 L674 0 L745 0 C744 0 745 1 747 4 L757 19 L684 55 L815 795 L901 831 C901 831 899 837 897 846 C896 849 895 850 896 850 L825 850 L760 850 L695 850 L624 850 C624 850 623 849 622 846 L612 831 L685 795 L685 795 Z " />
<glyph glyph-name="I" unicode="I" horiz-adv-x="429" d="M290 795 L290 795 L159 55 L72 19 L77 4 C78 1 78 0 78 0 L149 0 L214 0 L278 0 L349 0 C350 0 351 1 352 4 L362 19 L288 55 L288 55 L419 795 L420 795 L506 831 L501 846 C501 849 501 850 500 850 L429 850 L365 850 L300 850 L229 850 C229 850 228 849 226 846 C220 837 217 831 216 831 L290 795 L290 795 Z " />
<glyph glyph-name="J" unicode="J" horiz-adv-x="429" d="M290 795 L290 795 L161 64 C142 -44 100 -117 55 -117 C52 -117 32 -112 5 -104 L-1 -104 C-10 -104 -24 -151 -25 -153 C-26 -165 -9 -173 19 -173 C157 -173 278 -7 322 243 L419 795 L420 795 L506 831 L501 846 C501 849 501 850 500 850 L429 850 L365 850 L300 850 L229 850 C229 850 228 849 226 846 C220 837 217 831 216 831 L290 795 L290 795 Z " />
<glyph glyph-name="K" unicode="K" horiz-adv-x="765" d="M690 40 L690 40 L458 492 L784 810 L784 810 L851 836 C851 836 850 840 849 846 L849 850 L825 850 L793 850 L760 850 L654 850 C654 850 652 849 651 847 C644 839 638 833 637 833 L711 800 L441 525 L441 525 L353 435 L367 404 L367 404 L556 0 L633 0 L710 0 L736 0 L738 4 L743 14 L690 40 L690 40 Z M286 795 L286 795 L155 55 L154 55 L68 19 L73 4 C73 1 74 0 74 0 L145 0 L209 0 L274 0 L345 0 C345 0 346 1 348 4 C354 13 358 19 357 19 L284 55 L284 55 L415 795 L502 831 L497 846 C496 849 496 850 496 850 L425 850 L360 850 L296 850 L225 850 C225 850 224 849 222 846 L212 831 L286 795 L286 795 Z M637 833 L637 833 L637 833 Z " />
<glyph glyph-name="L" unicode="L" horiz-adv-x="642" d="M284 795 L284 795 L153 55 L67 19 C66 19 68 13 71 4 C72 1 72 0 72 0 L143 0 L176 0 L208 0 L273 0 L520 0 L552 0 L561 0 L570 0 L571 0 L579 42 L573 42 C577 89 581 145 584 189 L582 191 C573 201 567 207 567 207 L493 42 L280 42 L413 795 L504 831 L499 846 C499 849 498 850 498 850 L423 850 L358 850 L293 850 L222 850 C222 850 221 849 220 846 L210 831 L284 795 L284 795 Z " />
<glyph glyph-name="M" unicode="M" horiz-adv-x="982" d="M791 0 L853 0 L914 0 L916 4 C922 13 925 19 925 19 L861 55 L969 795 L969 795 L1063 831 C1064 831 1061 837 1058 846 C1057 848 1057 850 1057 850 L977 850 L916 850 L855 850 L551 155 L461 850 L367 850 L345 850 L324 850 L244 850 C245 850 244 849 242 846 C236 837 231 831 231 831 L313 795 L161 55 L161 55 L74 19 C74 19 76 13 78 4 L80 0 L150 0 L173 0 L196 0 L272 0 C272 0 273 1 274 4 C280 13 284 19 285 19 L207 55 L342 725 L445 -5 L503 45 L503 45 L445 -4 L510 -4 L551 86 L559 93 L558 101 L834 707 L738 56 L738 56 L654 20 C654 20 655 14 658 5 C659 2 659 1 659 1 L730 1 L791 0 L791 0 Z " />
<glyph glyph-name="N" unicode="N" horiz-adv-x="811" d="M758 795 L758 795 L656 220 L356 850 L329 850 L302 850 L235 850 C235 850 234 849 233 846 C227 837 224 831 224 831 L292 795 L292 795 L161 55 L75 19 C74 19 76 13 79 4 C80 1 80 0 80 0 L151 0 L178 0 L205 0 L294 0 C294 0 295 1 297 4 C304 13 308 19 308 19 L215 55 L215 55 L325 676 L607 27 L621 -5 L670 -5 L695 137 L810 795 L811 795 L892 831 C892 831 890 837 888 846 C887 849 887 850 887 850 L820 850 L794 850 L767 850 L678 850 C678 850 677 849 675 846 C668 837 663 831 663 831 L758 795 L758 795 Z " />
<glyph glyph-name="O" unicode="O" horiz-adv-x="817" d="M429 28 C300 28 244 205 291 470 C328 681 428 822 540 822 C669 822 723 642 675 373 C639 166 541 28 429 28 L429 28 Z M144 419 C99 162 204 -10 407 -10 C611 -10 777 163 822 423 C869 685 764 860 560 860 C357 860 191 684 144 419 L144 419 Z " />
<glyph glyph-name="P" unicode="P" horiz-adv-x="666" d="M284 795 L284 795 L153 55 L67 19 C66 19 68 13 71 4 C72 1 72 0 72 0 L143 0 L208 0 L273 0 L357 0 C357 0 358 1 360 4 C366 13 371 19 371 19 L283 55 L340 379 L403 379 C558 379 679 475 704 619 C729 758 651 850 511 850 L423 850 L358 850 L293 850 L222 850 C222 850 221 849 220 846 L210 831 L284 795 L284 795 Z M347 422 L415 808 L485 807 C552 807 583 727 562 607 C542 495 487 421 424 421 L347 422 L347 422 Z " />
<glyph glyph-name="Q" unicode="Q" horiz-adv-x="817" d="M826 -115 L828 -104 C820 -107 786 -110 744 -110 C646 -110 543 -67 482 -2 C651 35 783 196 822 423 C869 685 764 860 560 860 C357 860 191 684 144 419 C101 172 197 3 385 -9 C465 -99 568 -158 648 -158 C706 -158 778 -141 827 -115 L826 -115 L826 -115 Z M430 28 C301 28 245 205 292 470 C329 681 429 822 541 822 C670 822 724 642 676 373 C640 166 542 28 430 28 L430 28 Z " />
<glyph glyph-name="R" unicode="R" horiz-adv-x="692" d="M284 795 L284 795 L153 55 L67 19 C66 19 68 13 71 4 C72 1 72 0 72 0 L143 0 L208 0 L273 0 L339 0 C339 0 340 1 342 4 C347 13 351 19 351 19 L283 55 L345 404 L377 404 L499 0 L571 0 L643 0 L676 0 C676 0 677 2 679 5 L685 17 L621 50 L462 411 C555 435 665 518 685 633 C708 763 635 849 502 849 L423 849 L358 849 L293 849 L222 849 C222 849 221 848 220 845 L210 830 L284 795 L284 795 Z M352 445 L416 806 L478 806 C537 806 563 732 544 621 C525 515 443 445 392 445 L352 445 L352 445 Z " />
<glyph glyph-name="S" unicode="S" horiz-adv-x="546" d="M79 23 L73 -6 C81 -8 164 -10 281 -10 C406 -10 507 90 534 240 C551 339 511 416 419 489 C349 545 317 602 330 673 C346 763 383 823 424 823 C455 823 485 821 511 818 C526 815 537 803 540 788 C543 766 548 738 552 717 C556 718 560 720 564 721 C567 722 572 724 575 725 L592 802 C593 802 594 802 595 802 L599 828 L599 828 L605 854 C599 857 533 859 440 859 C319 859 221 766 196 625 C180 532 217 462 300 395 C381 331 418 272 406 205 C387 97 341 25 290 25 C246 25 200 29 159 35 L159 35 C151 36 145 43 144 51 C141 80 136 120 133 150 C129 148 125 146 121 145 C118 143 113 141 109 140 L89 50 C88 50 87 50 86 50 L81 21 L81 21 L79 23 L79 23 Z M599 827 L604 854 L600 827 L600 827 L599 827 L599 827 Z " />
<glyph glyph-name="T" unicode="T" horiz-adv-x="683" d="M342 0 L407 0 L495 0 C495 0 496 1 498 4 C505 13 510 19 510 19 L417 55 C458 288 509 577 549 808 L695 808 L717 663 C717 663 725 668 737 677 C739 678 740 679 740 679 C750 717 764 766 775 808 L781 808 L789 850 L787 850 L778 850 L769 850 L737 850 L556 850 L427 850 L247 850 L214 850 L205 850 L197 850 L195 850 L187 808 L193 808 L183 679 C183 679 184 678 186 677 C194 668 200 663 201 663 L273 808 L420 808 L287 55 L181 19 C180 19 183 13 187 4 C188 1 188 0 188 0 L277 0 L342 0 L342 0 Z " />
<glyph glyph-name="U" unicode="U" horiz-adv-x="796" d="M737 795 L737 795 L648 285 C621 133 532 31 426 31 C331 31 289 148 321 324 L404 795 L491 831 L486 846 C485 849 485 850 485 850 L414 850 L349 850 L285 850 L213 850 C214 850 213 849 211 846 L201 831 L275 795 L275 795 L188 301 C155 115 236 -10 391 -10 C546 -10 671 115 704 301 L791 795 L878 831 L873 846 C873 849 872 850 872 850 L801 850 L774 850 L747 850 L658 850 C658 850 657 849 656 846 C648 837 644 831 644 831 L737 795 L737 795 Z " />
<glyph glyph-name="V" unicode="V" horiz-adv-x="730" d="M730 795 L730 795 L422 162 L369 795 L470 831 C470 831 467 837 463 846 C462 849 462 850 461 850 L364 850 L297 850 L230 850 L187 850 C186 850 186 848 185 846 C181 839 178 834 177 833 L237 800 L346 7 L348 -5 L384 -5 L789 810 L847 836 C847 836 846 840 845 847 C845 849 844 850 844 850 L809 850 L783 850 L757 850 L668 850 C669 850 667 849 666 846 C659 837 654 831 654 831 L730 795 L730 795 Z M177 833 L177 833 L177 833 Z " />
<glyph glyph-name="W" unicode="W" horiz-adv-x="975" d="M980 795 L981 795 L742 203 L660 807 L654 855 L630 855 L617 824 L352 206 L353 795 L353 795 L459 831 C459 831 456 837 452 846 C451 849 451 850 450 850 L353 850 L286 850 L219 850 L175 850 C174 850 174 848 173 846 C169 839 166 833 165 832 L222 799 L276 28 L279 -6 L305 -6 L316 18 L594 655 L672 28 L676 -6 L701 -6 L711 18 L1039 809 L1105 835 C1105 835 1104 839 1102 846 C1102 848 1101 849 1101 849 L1056 849 L1030 849 L1004 849 L915 849 C915 849 913 848 912 845 C905 836 900 830 900 830 L980 795 L980 795 Z M165 832 L165 832 L165 832 Z " />
<glyph glyph-name="X" unicode="X" horiz-adv-x="753" d="M672 45 L672 45 L523 435 L805 805 L805 805 L867 834 C867 834 867 839 866 846 C865 848 865 850 865 850 L839 850 L792 850 L745 850 L639 850 C639 850 638 849 636 846 C627 837 622 831 622 831 L705 795 L495 505 L384 795 L480 831 C480 831 477 837 472 846 C470 849 469 850 470 850 L363 850 L288 850 L212 850 L186 850 C186 850 185 848 184 845 C181 837 178 832 179 833 L230 800 L230 800 L369 419 L86 50 L86 50 L16 18 C16 18 17 13 18 5 L18 0 L48 0 L98 0 L149 0 L264 0 L268 4 C276 13 282 19 282 19 L188 55 L396 348 L503 55 L416 19 C416 19 419 13 423 4 C424 1 425 0 425 0 L523 0 L605 0 L688 0 L715 0 L717 4 C720 11 722 16 722 16 L672 45 L672 45 Z " />
<glyph glyph-name="Y" unicode="Y" horiz-adv-x="713" d="M709 795 L709 795 L470 449 L359 795 L447 831 C447 831 444 837 440 846 C439 849 439 850 438 850 L341 850 L274 850 L207 850 L181 850 C181 850 180 848 179 845 L173 833 L225 800 L366 403 L305 55 L209 19 C208 19 211 13 214 4 C215 1 215 0 215 0 L295 0 L360 0 L425 0 L505 0 C504 0 505 1 507 4 C514 13 518 19 518 19 L435 55 L500 425 L770 811 L770 811 L828 837 C828 837 827 841 826 847 L826 851 L798 851 L772 851 L746 851 L644 851 C644 851 643 850 641 847 C633 838 628 832 628 832 L709 795 L709 795 Z " />
<glyph glyph-name="Z" unicode="Z" horiz-adv-x="646" d="M545 808 L115 42 L103 19 L99 0 L108 0 L215 0 L504 0 L537 0 L545 0 L554 0 L556 0 L563 42 L558 42 L567 162 C567 162 566 163 564 164 C556 172 550 177 550 177 L478 42 L239 42 L668 808 L690 847 L691 850 L676 850 L569 850 L313 850 L280 850 L271 850 L263 850 L261 850 L254 808 L259 808 C256 772 253 730 251 698 L253 696 C262 689 268 684 268 684 L339 809 L545 808 L545 808 Z " />
<glyph glyph-name="bracketleft" unicode="&#x5b;" horiz-adv-x="277" d="M318 920 L434 920 L440 953 L324 953 L235 953 L41 -150 L130 -150 L246 -150 L252 -117 L136 -117 L130 -150 L318 920 L318 920 Z " />
<glyph glyph-name="backslash" unicode="&#x5c;" horiz-adv-x="293" d="M201 -120 L273 -120 L238 940 L166 940 L201 -120 L201 -120 Z " />
<glyph glyph-name="bracketright" unicode="&#x5d;" horiz-adv-x="272" d="M98 -117 L-16 -117 L-21 -150 L92 -150 L181 -150 L375 953 L286 953 L173 953 L167 920 L280 920 L286 953 L98 -117 L98 -117 Z " />
<glyph glyph-name="underscore" unicode="&#x5f;" horiz-adv-x="500" d="M10 -86 L-3 -157 L447 -157 L460 -86 L10 -86 L10 -86 Z " />
<glyph glyph-name="a" unicode="a" horiz-adv-x="513" d="M336 254 C163 217 66 156 55 92 C44 31 82 -9 149 -9 C207 -9 266 12 310 52 C320 14 351 -9 396 -9 C442 -9 491 24 519 73 L517 77 C512 67 503 61 496 61 C448 61 419 73 422 91 L469 354 C480 418 436 461 335 461 C245 461 161 443 140 418 C135 413 139 404 150 397 L184 386 L189 386 C209 408 260 425 309 425 C347 425 359 384 348 323 L336 254 L336 254 Z M331 226 L309 101 C307 89 307 78 308 68 C289 54 269 47 251 47 C196 47 164 76 172 119 C179 162 234 202 331 226 L331 226 Z " />
<glyph glyph-name="b" unicode="b" horiz-adv-x="569" d="M98 -10 L107 -10 L190 59 C212 17 259 -10 312 -10 C435 -10 536 96 564 255 C586 378 538 460 445 460 C382 460 320 443 287 416 L331 665 L331 665 L346 750 L323 750 L163 689 L162 688 L154 680 L209 624 L115 93 L98 -10 L98 -10 Z M234 115 L282 388 L282 388 C296 400 340 408 393 408 C443 408 463 334 443 224 C422 106 381 27 339 27 C297 27 255 62 234 115 L234 115 Z " />
<glyph glyph-name="c" unicode="c" horiz-adv-x="477" d="M423 320 L430 320 L480 352 C490 360 498 372 500 381 C500 385 496 397 491 412 C479 441 428 460 363 460 C224 460 113 356 86 200 C63 74 133 -10 259 -10 C327 -10 403 35 450 103 C451 104 452 105 453 106 L456 114 C455 113 454 112 453 111 L453 115 L449 115 C407 75 348 49 302 49 C224 49 188 136 210 267 C227 362 277 426 335 426 C362 426 390 403 405 368 L423 320 L423 320 Z " />
<glyph glyph-name="d" unicode="d" horiz-adv-x="583" d="M415 0 L465 0 L527 0 C527 0 528 1 529 3 C535 12 538 18 538 18 L474 50 L476 60 L585 685 L586 685 L599 760 L576 760 L416 699 C415 699 415 698 415 698 C410 694 407 691 407 691 L463 644 L430 455 C410 458 389 460 367 460 C224 460 109 352 81 191 C60 70 110 -10 208 -10 C263 -10 322 13 361 50 L364 0 L415 0 L415 0 Z M420 401 L363 76 C336 55 298 42 261 42 C205 42 181 116 201 228 C222 345 282 423 351 423 C368 423 393 415 420 401 L420 401 Z " />
<glyph glyph-name="e" unicode="e" horiz-adv-x="483" d="M310 279 L213 279 C233 367 277 425 327 425 C369 425 388 368 378 279 L310 279 L310 279 Z M304 243 L424 243 L425 247 L425 247 L424 243 L477 247 C499 375 445 460 342 460 C215 460 113 356 86 200 C63 74 133 -10 259 -10 C327 -10 403 35 450 103 C451 104 452 105 453 106 L456 114 C455 113 454 112 453 111 L453 115 L449 115 C407 75 348 49 302 49 C228 49 192 126 207 245 L304 243 L304 243 Z " />
<glyph glyph-name="f" unicode="f" horiz-adv-x="393" d="M235 50 L235 50 L300 414 L431 414 L438 450 L307 450 L339 629 C344 656 380 686 428 686 C443 686 461 682 472 676 L497 665 L504 665 L523 694 C526 699 529 707 530 712 C531 721 522 732 507 740 C495 746 482 750 473 750 C363 750 220 615 198 490 L191 450 L119 450 L113 414 L185 414 L120 50 L49 18 C49 18 51 12 53 3 C53 1 54 0 54 0 L111 0 L169 0 L226 0 L288 0 L291 3 C296 12 300 18 299 18 L235 50 L235 50 Z " />
<glyph glyph-name="g" unicode="g" horiz-adv-x="554" d="M211 151 L211 151 C232 143 257 139 285 139 C406 139 480 204 497 302 C504 344 496 379 476 406 L575 408 L582 450 L448 432 C421 450 385 460 341 460 C220 460 147 396 130 300 C119 236 142 186 190 160 C133 140 92 107 87 75 C77 20 106 -18 160 -25 C87 -53 35 -96 28 -135 C16 -198 84 -240 198 -240 C329 -240 429 -169 448 -63 C463 20 436 75 341 75 L231 75 C177 75 142 85 145 101 C148 122 174 142 209 151 L211 151 L211 151 Z M299 170 C255 170 234 224 249 304 C262 380 291 430 330 430 C373 430 391 377 377 298 C364 221 336 170 299 170 L299 170 Z M177 -25 L266 -25 C361 -25 395 -47 389 -79 C375 -162 303 -218 209 -218 C153 -218 122 -178 133 -119 C142 -69 160 -31 177 -25 L177 -25 Z " />
<glyph glyph-name="h" unicode="h" horiz-adv-x="598" d="M503 50 L503 50 L554 343 C567 413 524 460 448 460 C402 460 351 430 298 384 L347 665 L347 665 L362 750 L339 750 L179 689 L178 688 L170 680 L225 624 L124 50 L53 18 C53 18 54 12 56 3 C57 1 57 0 57 0 L115 0 L173 0 L230 0 L292 0 C292 0 293 1 294 3 C300 12 303 18 303 18 L239 50 L239 50 L293 360 C327 388 363 406 405 406 C432 406 442 354 428 277 L388 50 L312 18 C312 18 314 12 316 3 C316 1 317 0 317 0 L379 0 L436 0 L494 0 L552 0 L553 3 C558 12 562 18 562 18 L503 50 L503 50 Z " />
<glyph glyph-name="i" unicode="i" horiz-adv-x="352" d="M278 610 C326 610 363 642 372 690 C380 738 354 770 306 770 C258 770 220 738 212 690 C203 642 230 610 278 610 L278 610 Z M243 50 L243 50 L300 375 L300 375 L315 460 L292 460 L132 399 C131 399 131 398 131 398 L123 390 L178 334 L128 50 L57 18 C57 18 58 12 60 3 C61 1 61 0 61 0 L119 0 L177 0 L234 0 L296 0 C296 0 297 1 298 3 C304 12 307 18 307 18 L243 50 L243 50 Z " />
<glyph glyph-name="j" unicode="j" horiz-adv-x="351" d="M284 610 C332 610 370 642 378 690 C387 738 361 770 312 770 C265 770 227 738 218 690 C210 642 236 610 284 610 L284 610 Z M17 -220 L15 -233 C181 -140 221 -72 234 2 L300 375 L300 375 L315 460 L292 460 L132 399 C131 399 131 398 131 398 L123 390 L178 334 L117 -14 C99 -114 76 -186 17 -220 L17 -220 Z " />
<glyph glyph-name="k" unicode="k" horiz-adv-x="588" d="M513 50 L512 50 L372 303 L507 400 L507 400 L577 433 C576 433 576 437 577 442 L577 450 L576 450 L552 450 L529 450 L418 450 C418 450 417 448 414 446 C406 436 400 429 400 429 L450 390 L451 390 L274 255 L272 243 L391 0 L465 0 L539 0 L557 0 C557 0 558 2 560 5 C562 13 564 17 564 17 L513 50 L513 50 Z M238 50 L238 50 L348 675 L348 675 L363 760 L340 760 L179 699 L179 698 L171 690 L226 634 L123 49 L52 17 C52 17 53 11 55 2 C56 0 56 -1 56 -1 L114 -1 L172 -1 L229 -1 L291 -1 C291 -1 292 0 293 2 C299 11 302 17 302 17 L238 50 L238 50 Z M577 432 L577 432 L577 432 L577 432 Z " />
<glyph glyph-name="l" unicode="l" horiz-adv-x="333" d="M233 50 L233 50 L343 675 L343 675 L358 760 L335 760 L174 699 L174 698 L166 690 L221 634 L118 49 L47 17 C47 17 48 11 50 2 C51 0 51 -1 51 -1 L109 -1 L167 -1 L224 -1 L286 -1 C286 -1 287 0 288 2 C294 11 297 17 297 17 L233 50 L233 50 Z " />
<glyph glyph-name="m" unicode="m" horiz-adv-x="845" d="M488 50 L488 50 L539 343 C540 347 541 351 541 355 C578 386 616 406 656 406 C681 406 688 354 675 277 L635 50 L634 50 L559 18 C559 18 560 12 562 3 C563 1 563 0 563 0 L626 0 L683 0 L741 0 L798 0 C798 0 799 1 800 3 C805 12 808 18 809 18 L750 50 L801 343 C814 413 773 460 699 460 C653 460 599 427 541 376 C538 428 499 461 438 461 C395 461 345 431 292 385 L300 461 L277 461 L123 400 C122 400 122 400 122 399 C117 395 114 391 114 391 L169 335 L119 51 L48 19 C48 19 49 13 51 4 C52 2 52 1 52 1 L110 1 L168 1 L225 1 L283 1 C283 1 284 2 285 4 C290 13 293 19 293 19 L234 51 L234 51 L288 361 C322 389 357 407 394 407 C419 407 427 355 413 278 L373 51 L297 19 C297 19 299 13 301 4 C301 2 302 1 302 1 L364 1 L421 1 L479 1 L541 1 C541 1 542 2 543 4 C548 13 552 19 552 19 L488 50 L488 50 Z " />
<glyph glyph-name="n" unicode="n" horiz-adv-x="598" d="M503 50 L503 50 L554 343 C567 413 524 460 448 460 C402 460 351 430 298 384 L306 460 L283 460 L129 399 C128 399 128 399 128 398 C123 394 120 390 120 390 L175 334 L125 50 L54 18 C54 18 55 12 57 3 C58 1 58 0 58 0 L116 0 L174 0 L231 0 L293 0 C293 0 294 1 295 3 C301 12 304 18 304 18 L240 50 L240 50 L294 360 C328 388 364 406 406 406 C433 406 443 354 429 277 L389 50 L313 18 C313 18 315 12 317 3 C317 1 318 0 318 0 L380 0 L437 0 L495 0 L553 0 L554 3 C559 12 563 18 563 18 L503 50 L503 50 Z " />
<glyph glyph-name="o" unicode="o" horiz-adv-x="548" d="M288 22 C227 22 200 103 222 225 C243 347 285 428 339 428 C400 428 427 347 405 225 C384 103 342 22 288 22 L288 22 Z M90 225 C65 84 138 -10 272 -10 C420 -10 513 84 538 225 C563 366 490 460 355 460 C207 460 115 366 90 225 L90 225 Z " />
<glyph glyph-name="p" unicode="p" horiz-adv-x="581" d="M198 -180 L198 -180 L230 0 C247 -6 269 -10 292 -10 C435 -10 549 96 577 254 C599 378 550 460 455 460 C413 460 352 435 299 396 L306 460 L283 460 L129 399 C128 399 128 399 128 398 C123 394 120 391 120 390 L175 334 L84 -180 L14 -212 C14 -212 15 -218 17 -227 C17 -229 18 -230 18 -230 L75 -230 L133 -230 L190 -230 L253 -230 C253 -230 253 -229 255 -227 C260 -218 264 -212 264 -212 L198 -180 L198 -180 Z M243 69 L297 373 C330 394 370 408 403 408 C456 408 477 326 456 202 C437 97 382 27 319 27 C299 27 269 44 243 69 L243 69 L243 69 Z " />
<glyph glyph-name="q" unicode="q" horiz-adv-x="589" d="M453 -180 L453 -180 L557 410 L566 460 L557 460 L513 441 C485 453 436 460 380 460 C230 460 111 352 83 191 C62 70 116 -10 219 -10 C259 -10 321 15 378 54 L337 -180 L261 -212 C261 -212 263 -218 265 -227 C265 -229 266 -230 266 -230 L328 -230 L386 -230 L443 -230 L501 -230 C501 -230 502 -229 503 -227 C508 -218 511 -212 511 -212 L453 -180 L453 -180 Z M440 405 L383 81 C345 57 302 42 271 42 C210 42 182 116 202 228 C223 345 287 423 363 423 C388 423 415 416 440 405 L440 405 Z " />
<glyph glyph-name="r" unicode="r" horiz-adv-x="418" d="M239 50 L239 50 L291 344 C306 360 320 373 333 383 C336 368 366 347 394 334 C415 322 428 314 428 313 L435 313 C468 362 491 401 492 409 C494 417 492 426 487 434 C483 441 478 446 471 450 C464 453 436 460 417 460 C389 460 347 425 296 371 L297 375 L297 375 L306 460 L283 460 L129 399 C128 399 128 398 128 398 L120 390 L175 334 L125 50 L54 18 C54 18 55 12 57 3 C58 1 58 0 58 0 L116 0 L174 0 L231 0 L293 0 C293 0 294 1 295 3 C301 12 304 18 304 18 L239 50 L239 50 Z " />
<glyph glyph-name="s" unicode="s" horiz-adv-x="442" d="M69 39 L64 21 C101 2 161 -10 215 -10 C309 -10 381 45 395 128 C411 216 380 261 308 282 C257 297 234 323 243 370 C249 406 270 430 296 430 C300 430 305 430 310 429 L310 429 C349 424 380 393 386 352 C387 346 388 338 389 333 C392 333 396 334 398 335 C401 336 405 336 408 337 L421 387 C422 386 423 385 424 384 L428 404 L428 404 L433 422 C400 444 346 458 299 458 C214 458 149 405 135 325 C120 243 148 201 214 181 C271 164 298 137 289 89 C281 45 253 15 218 15 C207 15 195 16 182 19 L182 19 C153 24 128 48 119 78 C116 91 112 108 108 121 C106 120 103 119 100 118 C97 117 94 116 92 115 L76 56 C75 57 74 58 73 59 L69 39 C70 39 71 39 72 39 L69 39 L69 39 Z M431 405 L434 424 L431 405 L431 405 L431 405 Z M71 40 L68 21 L71 40 L71 40 L71 40 Z " />
<glyph glyph-name="t" unicode="t" horiz-adv-x="393" d="M373 53 L372 61 C368 55 341 51 306 51 C260 51 235 88 245 144 L293 414 L424 414 L431 450 L299 450 L320 573 L312 573 L184 450 L92 418 L91 414 L177 414 L178 414 L125 120 C112 42 153 -10 228 -10 C290 -10 348 15 373 53 L373 53 Z " />
<glyph glyph-name="u" unicode="u" horiz-adv-x="560" d="M479 50 L479 50 L549 450 L492 450 L434 450 L372 450 C372 450 371 449 370 447 C366 439 362 433 361 433 L425 400 L425 400 L371 93 C330 62 290 46 258 46 C232 46 223 98 237 176 L285 450 L228 450 L170 450 L113 450 C112 450 112 449 111 447 C107 439 103 433 102 433 L161 400 L110 107 C97 37 139 -10 213 -10 C248 -10 304 16 368 69 L356 0 L413 0 L471 0 L533 0 C533 0 534 1 535 3 C540 12 544 18 544 18 L479 50 L479 50 Z M362 433 L362 433 L362 433 Z M103 433 L103 433 L103 433 Z " />
<glyph glyph-name="v" unicode="v" horiz-adv-x="553" d="M138 400 L138 400 L249 9 L251 0 L267 0 L517 395 L600 431 C600 431 599 437 597 445 C597 448 597 450 596 450 L552 450 L533 450 L514 450 L425 450 C425 450 424 449 422 446 C415 437 410 431 410 431 L481 395 L335 152 L265 400 L358 433 C358 433 355 438 350 447 C349 449 349 450 349 450 L251 450 L188 450 L124 450 L83 450 L81 446 C77 438 74 433 74 433 L138 400 L138 400 Z " />
<glyph glyph-name="w" unicode="w" horiz-adv-x="838" d="M752 395 L619 162 L498 423 L490 450 L481 450 L474 438 L309 161 L264 400 L362 433 C362 433 359 438 355 447 C353 449 353 450 353 450 L255 450 L194 450 L132 450 L90 450 L88 446 C84 438 81 433 81 433 L142 400 L218 8 L220 0 L238 0 L498 423 L421 296 L531 8 L534 0 L550 0 L789 395 L789 395 L870 431 C870 431 869 437 868 445 C868 448 867 450 867 450 L822 450 L803 450 L783 450 L695 450 C695 450 693 449 692 446 C685 437 680 431 680 431 L752 395 L752 395 Z " />
<glyph glyph-name="x" unicode="x" horiz-adv-x="711" d="M610 614 L610 614 L440 405 L346 614 L346 614 L437 650 C437 650 434 656 429 665 C428 668 428 669 427 669 L321 669 L253 669 L185 669 L160 669 C160 669 159 667 158 664 C155 656 153 652 153 652 L207 619 L335 326 L102 50 L102 50 L30 18 C30 18 31 13 31 5 C32 2 32 0 32 0 L60 0 L98 0 L136 0 L251 0 C251 0 253 1 255 4 C264 13 269 19 269 19 L180 55 L357 274 L452 55 L452 55 L369 19 C369 19 372 13 376 4 C377 1 378 0 378 0 L476 0 L550 0 L624 0 L650 0 L652 4 C656 11 658 16 657 16 L604 45 L604 45 L464 354 L688 624 L688 624 L752 653 C752 653 752 658 751 665 C751 667 750 669 750 669 L725 669 L690 669 L655 669 L548 669 C548 669 547 668 545 665 C537 656 531 650 531 650 L610 614 L610 614 Z " />
<glyph glyph-name="y" unicode="y" horiz-adv-x="530" d="M483 395 L484 395 L338 156 L265 400 L265 400 L357 433 C357 433 354 438 350 447 C349 449 348 450 348 450 L250 450 L187 450 L123 450 L83 450 C83 450 82 448 80 446 C76 438 73 433 73 433 L138 400 L252 14 L207 -60 C182 -104 153 -121 104 -121 L38 -121 L33 -125 C33 -125 28 -155 20 -199 C15 -229 26 -241 61 -241 C113 -241 162 -194 234 -72 L517 394 L517 394 L598 430 C598 430 597 436 596 444 C595 447 595 449 595 449 L550 449 L533 449 L517 449 L428 449 C428 449 427 448 425 445 C418 436 414 430 413 430 L483 395 L483 395 Z " />
<glyph glyph-name="z" unicode="z" horiz-adv-x="488" d="M164 433 C156 401 146 359 139 327 L142 324 C149 319 154 315 154 315 L210 415 L335 415 L94 35 L81 14 L79 0 L88 0 L198 0 L414 0 L417 17 L417 17 C423 50 431 94 436 128 C436 128 435 129 433 130 C426 136 421 139 421 140 L370 35 L220 35 L461 415 L485 450 L467 450 L357 450 L218 450 L180 460 C180 460 176 460 171 459 L170 459 C168 451 165 441 164 433 L164 433 Z " />
<glyph glyph-name="bar" unicode="&#x7c;" horiz-adv-x="235" d="M18 -260 L90 -260 L270 760 L198 760 L18 -260 L18 -260 Z " />
<glyph glyph-name="exclamdown" unicode="&#xa1;" horiz-adv-x="282" d="M230 460 C278 460 304 428 296 380 C288 332 250 300 202 300 C154 300 128 332 136 380 C144 428 182 460 230 460 L230 460 Z M10 -400 L176 197 L191 197 L147 -400 L10 -400 L10 -400 Z " />
<glyph glyph-name="guillemotleft" unicode="&#xab;" horiz-adv-x="424" d="M396 425 L196 248 L396 70 L404 70 L339 248 L404 425 L396 425 L396 425 Z M213 425 L13 248 L213 70 L221 70 L157 248 L221 425 L213 425 L213 425 Z " />
<glyph glyph-name="periodcentered" unicode="&#xb7;" horiz-adv-x="290" d="M182 210 C230 210 268 242 276 290 C285 338 258 370 210 370 C162 370 125 338 116 290 C108 242 134 210 182 210 L182 210 Z " />
<glyph glyph-name="guillemotright" unicode="&#xbb;" horiz-adv-x="451" d="M211 425 L288 248 L211 70 L219 70 L432 248 L219 425 L211 425 L211 425 Z M20 425 L97 248 L20 70 L28 70 L241 248 L28 425 L20 425 L20 425 Z " />
<glyph glyph-name="questiondown" unicode="&#xbf;" horiz-adv-x="488" d="M330 455 C282 455 245 423 236 375 C228 327 254 295 302 295 C350 295 388 327 396 375 C405 423 378 455 330 455 L330 455 Z M309 6 L292 197 L277 197 L250 105 C133 51 43 -66 20 -199 C-2 -326 55 -410 164 -410 C291 -410 390 -327 412 -204 C418 -169 400 -146 367 -146 L308 -146 L294 -160 L284 -217 C267 -312 231 -376 194 -376 C150 -376 133 -305 152 -199 C169 -101 232 -19 309 6 L309 6 Z " />
<glyph glyph-name="Agrave" unicode="&#xc0;" horiz-adv-x="757" d="M541 895 L482 1054 L367 1054 C363 1031 364 1012 371 1008 L531 895 L541 895 L541 895 Z M151 50 L151 50 L280 319 L507 319 L538 50 L538 50 L438 18 C438 18 441 12 446 3 C446 1 447 0 447 0 L544 0 L611 0 L679 0 L720 0 C720 0 721 1 722 4 C726 11 729 16 729 16 L673 45 L576 809 L570 855 L494 855 L93 35 L93 35 L34 12 C34 12 35 8 37 3 L37 0 L76 0 L102 0 L128 0 L217 0 L220 3 C227 12 231 18 231 18 L151 50 L151 50 Z M503 361 L301 361 L464 701 L503 361 L503 361 Z " />
<glyph glyph-name="Aacute" unicode="&#xc1;" horiz-adv-x="757" d="M536 895 L545 895 L746 1008 C754 1012 762 1031 766 1054 L651 1054 L536 895 L536 895 Z M151 50 L151 50 L280 319 L507 319 L538 50 L538 50 L438 18 C438 18 441 12 446 3 C446 1 447 0 447 0 L544 0 L611 0 L679 0 L720 0 C720 0 721 1 722 4 C726 11 729 16 729 16 L673 45 L576 809 L570 855 L494 855 L93 35 L93 35 L34 12 C34 12 35 8 37 3 L37 0 L76 0 L102 0 L128 0 L217 0 L220 3 C227 12 231 18 231 18 L151 50 L151 50 Z M503 361 L301 361 L464 701 L503 361 L503 361 Z " />
<glyph glyph-name="Acircumflex" unicode="&#xc2;" horiz-adv-x="757" d="M696 895 L580 1052 L557 1052 L389 895 L399 895 L554 966 L687 895 L696 895 L696 895 Z M151 50 L151 50 L280 319 L507 319 L538 50 L538 50 L438 18 C438 18 441 12 446 3 C446 1 447 0 447 0 L544 0 L611 0 L679 0 L720 0 C720 0 721 1 722 4 C726 11 729 16 729 16 L673 45 L576 809 L570 855 L494 855 L93 35 L93 35 L34 12 C34 12 35 8 37 3 L37 0 L76 0 L102 0 L128 0 L217 0 L220 3 C227 12 231 18 231 18 L151 50 L151 50 Z M503 361 L301 361 L464 701 L503 361 L503 361 Z " />
<glyph glyph-name="Atilde" unicode="&#xc3;" horiz-adv-x="757" d="M408 918 C422 945 435 962 467 962 C518 962 552 908 604 908 C650 908 681 957 721 1030 L711 1030 C695 1002 682 983 651 984 C600 983 566 1038 514 1038 C467 1038 436 990 398 918 L408 918 L408 918 Z M151 50 L151 50 L280 319 L507 319 L538 50 L538 50 L438 18 C438 18 441 12 446 3 C446 1 447 0 447 0 L544 0 L611 0 L679 0 L720 0 C720 0 721 1 722 4 C726 11 729 16 729 16 L673 45 L576 809 L570 855 L494 855 L93 35 L93 35 L34 12 C34 12 35 8 37 3 L37 0 L76 0 L102 0 L128 0 L217 0 L220 3 C227 12 231 18 231 18 L151 50 L151 50 Z M503 361 L301 361 L464 701 L503 361 L503 361 Z " />
<glyph glyph-name="Adieresis" unicode="&#xc4;" horiz-adv-x="757" d="M653 925 C696 925 730 954 738 997 C745 1040 722 1069 678 1069 C635 1069 601 1040 594 997 C586 954 610 925 653 925 L653 925 Z M438 925 C481 925 515 954 523 997 C530 1040 507 1069 463 1069 C420 1069 386 1040 379 997 C371 954 395 925 438 925 L438 925 Z M151 50 L151 50 L280 319 L507 319 L538 50 L538 50 L438 18 C438 18 441 12 446 3 C446 1 447 0 447 0 L544 0 L611 0 L679 0 L720 0 C720 0 721 1 722 4 C726 11 729 16 729 16 L673 45 L576 809 L570 855 L494 855 L93 35 L93 35 L34 12 C34 12 35 8 37 3 L37 0 L76 0 L102 0 L128 0 L217 0 L220 3 C227 12 231 18 231 18 L151 50 L151 50 Z M503 361 L301 361 L464 701 L503 361 L503 361 Z " />
<glyph glyph-name="Aring" unicode="&#xc5;" horiz-adv-x="757" d="M548 918 C535 918 531 955 539 999 C545 1035 557 1059 568 1059 C580 1059 583 1027 575 980 C569 946 556 918 548 918 L548 918 Z M466 989 C458 941 492 900 541 900 C590 900 639 942 648 992 C657 1043 627 1077 573 1077 C518 1077 476 1042 466 989 L466 989 Z M151 50 L151 50 L280 319 L507 319 L538 50 L538 50 L438 18 C438 18 441 12 446 3 C446 1 447 0 447 0 L544 0 L611 0 L679 0 L720 0 C720 0 721 1 722 4 C726 11 729 16 729 16 L673 45 L576 809 L570 855 L494 855 L93 35 L93 35 L34 12 C34 12 35 8 37 3 L37 0 L76 0 L102 0 L128 0 L217 0 L220 3 C227 12 231 18 231 18 L151 50 L151 50 Z M503 361 L301 361 L464 701 L503 361 L503 361 Z " />
<glyph glyph-name="Ccedilla" unicode="&#xc7;" horiz-adv-x="708" d="M540 35 L540 35 C498 31 449 29 401 29 C286 29 238 194 281 441 C322 670 432 823 555 823 C593 823 632 821 666 817 L666 817 C673 816 680 810 682 802 C689 767 699 721 706 687 C709 689 713 691 716 693 C719 694 723 696 726 698 L764 858 C756 860 675 862 562 862 C358 862 189 677 139 398 C98 158 197 -4 387 -8 L310 -128 L331 -138 C354 -141 368 -153 364 -170 C360 -198 353 -217 348 -217 C314 -217 286 -212 277 -203 L275 -212 C293 -227 325 -238 355 -238 C405 -238 445 -202 455 -147 C463 -98 437 -61 388 -49 L414 -8 C527 -8 607 -6 617 -3 L620 19 L620 19 L616 -4 L620 19 C636 22 637 24 620 24 L625 50 C624 50 623 50 622 50 L634 140 C632 142 629 144 627 145 C625 147 622 149 620 151 C601 121 577 82 559 52 C554 44 545 39 538 38 L540 35 L540 35 Z " />
<glyph glyph-name="Egrave" unicode="&#xc8;" horiz-adv-x="658" d="M502 895 L443 1054 L328 1054 C324 1031 325 1012 332 1008 L493 895 L502 895 L502 895 Z M284 795 L284 795 L153 55 L67 19 C66 19 68 13 71 4 C72 1 72 0 72 0 L143 0 L176 0 L208 0 L273 0 L535 0 L568 0 L577 0 L585 0 L587 0 L594 42 L589 42 C592 78 595 120 597 152 L595 154 C587 162 581 166 581 166 L514 41 L280 41 L346 416 L485 416 L513 336 C513 336 520 339 532 343 C535 344 537 345 537 345 C541 366 545 393 549 417 L550 417 L557 459 L557 459 C561 483 566 509 570 530 C569 530 568 531 565 532 C555 536 548 539 548 539 L492 459 L353 459 L415 808 L623 808 L649 693 C649 693 656 697 667 704 L669 706 C678 736 688 775 697 808 L703 808 L711 850 L709 850 L700 850 L692 850 L659 850 L422 850 L357 850 L325 850 L292 850 L221 850 C221 850 220 849 219 846 L209 831 L284 795 L284 795 Z " />
<glyph glyph-name="Eacute" unicode="&#xc9;" horiz-adv-x="658" d="M497 895 L506 895 L707 1008 C715 1012 723 1031 727 1054 L612 1054 L497 895 L497 895 Z M284 795 L284 795 L153 55 L67 19 C66 19 68 13 71 4 C72 1 72 0 72 0 L143 0 L176 0 L208 0 L273 0 L535 0 L568 0 L577 0 L585 0 L587 0 L594 42 L589 42 C592 78 595 120 597 152 L595 154 C587 162 581 166 581 166 L514 41 L280 41 L346 416 L485 416 L513 336 C513 336 520 339 532 343 C535 344 537 345 537 345 C541 366 545 393 549 417 L550 417 L557 459 L557 459 C561 483 566 509 570 530 C569 530 568 531 565 532 C555 536 548 539 548 539 L492 459 L353 459 L415 808 L623 808 L649 693 C649 693 656 697 667 704 L669 706 C678 736 688 775 697 808 L703 808 L711 850 L709 850 L700 850 L692 850 L659 850 L422 850 L357 850 L325 850 L292 850 L221 850 C221 850 220 849 219 846 L209 831 L284 795 L284 795 Z " />
<glyph glyph-name="Ecircumflex" unicode="&#xca;" horiz-adv-x="658" d="M653 895 L536 1052 L513 1052 L345 895 L355 895 L510 966 L643 895 L653 895 L653 895 Z M284 795 L284 795 L153 55 L67 19 C66 19 68 13 71 4 C72 1 72 0 72 0 L143 0 L176 0 L208 0 L273 0 L535 0 L568 0 L577 0 L585 0 L587 0 L594 42 L589 42 C592 78 595 120 597 152 L595 154 C587 162 581 166 581 166 L514 41 L280 41 L346 416 L485 416 L513 336 C513 336 520 339 532 343 C535 344 537 345 537 345 C541 366 545 393 549 417 L550 417 L557 459 L557 459 C561 483 566 509 570 530 C569 530 568 531 565 532 C555 536 548 539 548 539 L492 459 L353 459 L415 808 L623 808 L649 693 C649 693 656 697 667 704 L669 706 C678 736 688 775 697 808 L703 808 L711 850 L709 850 L700 850 L692 850 L659 850 L422 850 L357 850 L325 850 L292 850 L221 850 C221 850 220 849 219 846 L209 831 L284 795 L284 795 Z " />
<glyph glyph-name="Edieresis" unicode="&#xcb;" horiz-adv-x="658" d="M609 925 C652 925 686 954 694 997 C701 1040 678 1069 635 1069 C591 1069 558 1040 550 997 C542 954 566 925 609 925 L609 925 Z M394 925 C437 925 471 954 479 997 C486 1040 463 1069 420 1069 C376 1069 343 1040 335 997 C327 954 351 925 394 925 L394 925 Z M284 795 L284 795 L153 55 L67 19 C66 19 68 13 71 4 C72 1 72 0 72 0 L143 0 L176 0 L208 0 L273 0 L535 0 L568 0 L577 0 L585 0 L587 0 L594 42 L589 42 C592 78 595 120 597 152 L595 154 C587 162 581 166 581 166 L514 41 L280 41 L346 416 L485 416 L513 336 C513 336 520 339 532 343 C535 344 537 345 537 345 C541 366 545 393 549 417 L550 417 L557 459 L557 459 C561 483 566 509 570 530 C569 530 568 531 565 532 C555 536 548 539 548 539 L492 459 L353 459 L415 808 L623 808 L649 693 C649 693 656 697 667 704 L669 706 C678 736 688 775 697 808 L703 808 L711 850 L709 850 L700 850 L692 850 L659 850 L422 850 L357 850 L325 850 L292 850 L221 850 C221 850 220 849 219 846 L209 831 L284 795 L284 795 Z " />
<glyph glyph-name="Igrave" unicode="&#xcc;" horiz-adv-x="429" d="M378 895 L319 1054 L204 1054 C200 1031 201 1012 208 1008 L369 895 L378 895 L378 895 Z M290 795 L290 795 L159 55 L72 19 L77 4 C78 1 78 0 78 0 L149 0 L214 0 L278 0 L349 0 C350 0 351 1 352 4 L362 19 L288 55 L288 55 L419 795 L420 795 L506 831 L501 846 C501 849 501 850 500 850 L429 850 L365 850 L300 850 L229 850 C229 850 228 849 226 846 C220 837 217 831 216 831 L290 795 L290 795 Z " />
<glyph glyph-name="Iacute" unicode="&#xcd;" horiz-adv-x="429" d="M373 895 L382 895 L583 1008 C591 1012 599 1031 603 1054 L488 1054 L373 895 L373 895 Z M290 795 L290 795 L159 55 L72 19 L77 4 C78 1 78 0 78 0 L149 0 L214 0 L278 0 L349 0 C350 0 351 1 352 4 L362 19 L288 55 L288 55 L419 795 L420 795 L506 831 L501 846 C501 849 501 850 500 850 L429 850 L365 850 L300 850 L229 850 C229 850 228 849 226 846 C220 837 217 831 216 831 L290 795 L290 795 Z " />
<glyph glyph-name="Icircumflex" unicode="&#xce;" horiz-adv-x="429" d="M529 895 L412 1052 L389 1052 L221 895 L231 895 L386 966 L519 895 L529 895 L529 895 Z M290 795 L290 795 L159 55 L72 19 L77 4 C78 1 78 0 78 0 L149 0 L214 0 L278 0 L349 0 C350 0 351 1 352 4 L362 19 L288 55 L288 55 L419 795 L420 795 L506 831 L501 846 C501 849 501 850 500 850 L429 850 L365 850 L300 850 L229 850 C229 850 228 849 226 846 C220 837 217 831 216 831 L290 795 L290 795 Z " />
<glyph glyph-name="Idieresis" unicode="&#xcf;" horiz-adv-x="429" d="M485 925 C528 925 562 954 570 997 C577 1040 554 1069 511 1069 C467 1069 434 1040 426 997 C418 954 442 925 485 925 L485 925 Z M270 925 C313 925 347 954 355 997 C362 1040 339 1069 296 1069 C252 1069 219 1040 211 997 C203 954 227 925 270 925 L270 925 Z M290 795 L290 795 L159 55 L72 19 L77 4 C78 1 78 0 78 0 L149 0 L214 0 L278 0 L349 0 C350 0 351 1 352 4 L362 19 L288 55 L288 55 L419 795 L420 795 L506 831 L501 846 C501 849 501 850 500 850 L429 850 L365 850 L300 850 L229 850 C229 850 228 849 226 846 C220 837 217 831 216 831 L290 795 L290 795 Z " />
<glyph glyph-name="Ntilde" unicode="&#xd1;" horiz-adv-x="811" d="M448 918 C462 945 475 962 507 962 C558 962 592 908 644 908 C690 908 721 957 760 1030 L750 1030 C735 1002 722 983 691 984 C640 983 606 1038 554 1038 C507 1038 476 990 438 918 L448 918 L448 918 Z M758 795 L758 795 L656 220 L356 850 L329 850 L302 850 L235 850 C235 850 234 849 233 846 C227 837 224 831 224 831 L292 795 L292 795 L161 55 L75 19 C74 19 76 13 79 4 C80 1 80 0 80 0 L151 0 L178 0 L205 0 L294 0 C294 0 295 1 297 4 C304 13 308 19 308 19 L215 55 L215 55 L325 676 L607 27 L621 -5 L670 -5 L695 137 L810 795 L811 795 L892 831 C892 831 890 837 888 846 C887 849 887 850 887 850 L820 850 L794 850 L767 850 L678 850 C678 850 677 849 675 846 C668 837 663 831 663 831 L758 795 L758 795 Z " />
<glyph glyph-name="Ograve" unicode="&#xd2;" horiz-adv-x="817" d="M557 895 L498 1054 L383 1054 C379 1031 380 1012 387 1008 L548 895 L557 895 L557 895 Z M429 28 C300 28 244 205 291 470 C328 681 428 822 540 822 C669 822 723 642 675 373 C639 166 541 28 429 28 L429 28 Z M144 419 C99 162 204 -10 407 -10 C611 -10 777 163 822 423 C869 685 764 860 560 860 C357 860 191 684 144 419 L144 419 Z " />
<glyph glyph-name="Oacute" unicode="&#xd3;" horiz-adv-x="817" d="M552 895 L562 895 L762 1008 C770 1012 778 1031 782 1054 L667 1054 L552 895 L552 895 Z M429 28 C300 28 244 205 291 470 C328 681 428 822 540 822 C669 822 723 642 675 373 C639 166 541 28 429 28 L429 28 Z M144 419 C99 162 204 -10 407 -10 C611 -10 777 163 822 423 C869 685 764 860 560 860 C357 860 191 684 144 419 L144 419 Z " />
<glyph glyph-name="Ocircumflex" unicode="&#xd4;" horiz-adv-x="817" d="M708 895 L591 1052 L568 1052 L401 895 L410 895 L565 966 L698 895 L708 895 L708 895 Z M429 28 C300 28 244 205 291 470 C328 681 428 822 540 822 C669 822 723 642 675 373 C639 166 541 28 429 28 L429 28 Z M144 419 C99 162 204 -10 407 -10 C611 -10 777 163 822 423 C869 685 764 860 560 860 C357 860 191 684 144 419 L144 419 Z " />
<glyph glyph-name="Otilde" unicode="&#xd5;" horiz-adv-x="817" d="M414 918 C428 945 441 962 473 962 C524 962 559 908 610 908 C656 908 687 957 727 1030 L717 1030 C702 1002 689 983 658 984 C606 983 572 1038 520 1038 C474 1038 443 990 404 918 L414 918 L414 918 Z M429 28 C300 28 244 205 291 470 C328 681 428 822 540 822 C669 822 723 642 675 373 C639 166 541 28 429 28 L429 28 Z M144 419 C99 162 204 -10 407 -10 C611 -10 777 163 822 423 C869 685 764 860 560 860 C357 860 191 684 144 419 L144 419 Z " />
<glyph glyph-name="Odieresis" unicode="&#xd6;" horiz-adv-x="817" d="M664 925 C707 925 741 954 749 997 C756 1040 733 1069 690 1069 C646 1069 613 1040 605 997 C597 954 621 925 664 925 L664 925 Z M449 925 C492 925 526 954 534 997 C541 1040 518 1069 475 1069 C431 1069 398 1040 390 997 C382 954 406 925 449 925 L449 925 Z M429 28 C300 28 244 205 291 470 C328 681 428 822 540 822 C669 822 723 642 675 373 C639 166 541 28 429 28 L429 28 Z M144 419 C99 162 204 -10 407 -10 C611 -10 777 163 822 423 C869 685 764 860 560 860 C357 860 191 684 144 419 L144 419 Z " />
<glyph glyph-name="Oslash" unicode="&#xd8;" horiz-adv-x="817" d="M429 28 C366 28 321 70 296 143 L690 611 C696 544 691 463 675 372 C639 165 541 27 429 27 L429 28 L429 28 Z M144 418 C123 295 136 192 177 118 L69 -11 L168 -11 L225 56 C271 13 333 -11 409 -11 C613 -11 779 162 824 422 C847 548 834 654 792 730 L901 859 L802 859 L745 791 C699 835 637 859 561 859 C358 859 192 683 145 418 L144 418 L144 418 Z M278 238 C272 303 276 381 292 469 C329 680 429 821 541 821 C603 821 648 779 672 706 L278 238 L278 238 Z " />
<glyph glyph-name="Ugrave" unicode="&#xd9;" horiz-adv-x="796" d="M566 895 L507 1054 L392 1054 C388 1031 390 1012 396 1008 L557 895 L566 895 L566 895 Z M737 795 L737 795 L648 285 C621 133 532 31 426 31 C331 31 289 148 321 324 L404 795 L491 831 L486 846 C485 849 485 850 485 850 L414 850 L349 850 L285 850 L213 850 C214 850 213 849 211 846 L201 831 L275 795 L275 795 L188 301 C155 115 236 -10 391 -10 C546 -10 671 115 704 301 L791 795 L878 831 L873 846 C873 849 872 850 872 850 L801 850 L774 850 L747 850 L658 850 C658 850 657 849 656 846 C648 837 644 831 644 831 L737 795 L737 795 Z " />
<glyph glyph-name="Uacute" unicode="&#xda;" horiz-adv-x="796" d="M551 895 L561 895 L761 1008 C769 1012 778 1031 781 1054 L666 1054 L551 895 L551 895 Z M737 795 L737 795 L648 285 C621 133 532 31 426 31 C331 31 289 148 321 324 L404 795 L491 831 L486 846 C485 849 485 850 485 850 L414 850 L349 850 L285 850 L213 850 C214 850 213 849 211 846 L201 831 L275 795 L275 795 L188 301 C155 115 236 -10 391 -10 C546 -10 671 115 704 301 L791 795 L878 831 L873 846 C873 849 872 850 872 850 L801 850 L774 850 L747 850 L658 850 C658 850 657 849 656 846 C648 837 644 831 644 831 L737 795 L737 795 Z " />
<glyph glyph-name="Ucircumflex" unicode="&#xdb;" horiz-adv-x="796" d="M717 895 L600 1052 L577 1052 L410 895 L419 895 L574 966 L708 895 L717 895 L717 895 Z M737 795 L737 795 L648 285 C621 133 532 31 426 31 C331 31 289 148 321 324 L404 795 L491 831 L486 846 C485 849 485 850 485 850 L414 850 L349 850 L285 850 L213 850 C214 850 213 849 211 846 L201 831 L275 795 L275 795 L188 301 C155 115 236 -10 391 -10 C546 -10 671 115 704 301 L791 795 L878 831 L873 846 C873 849 872 850 872 850 L801 850 L774 850 L747 850 L658 850 C658 850 657 849 656 846 C648 837 644 831 644 831 L737 795 L737 795 Z " />
<glyph glyph-name="Udieresis" unicode="&#xdc;" horiz-adv-x="796" d="M673 925 C716 925 750 954 758 997 C766 1040 742 1069 699 1069 C656 1069 622 1040 614 997 C607 954 631 925 673 925 L673 925 Z M458 925 C501 925 535 954 543 997 C551 1040 527 1069 484 1069 C441 1069 407 1040 399 997 C392 954 416 925 458 925 L458 925 Z M737 795 L737 795 L648 285 C621 133 532 31 426 31 C331 31 289 148 321 324 L404 795 L491 831 L486 846 C485 849 485 850 485 850 L414 850 L349 850 L285 850 L213 850 C214 850 213 849 211 846 L201 831 L275 795 L275 795 L188 301 C155 115 236 -10 391 -10 C546 -10 671 115 704 301 L791 795 L878 831 L873 846 C873 849 872 850 872 850 L801 850 L774 850 L747 850 L658 850 C658 850 657 849 656 846 C648 837 644 831 644 831 L737 795 L737 795 Z " />
<glyph glyph-name="Yacute" unicode="&#xdd;" horiz-adv-x="713" d="M512 895 L521 895 L722 1008 C730 1012 738 1031 742 1054 L627 1054 L512 895 L512 895 Z M709 795 L709 795 L470 449 L359 795 L447 831 C447 831 444 837 440 846 C439 849 439 850 438 850 L341 850 L274 850 L207 850 L181 850 C181 850 180 848 179 845 L173 833 L225 800 L366 403 L305 55 L209 19 C208 19 211 13 214 4 C215 1 215 0 215 0 L295 0 L360 0 L425 0 L505 0 C504 0 505 1 507 4 C514 13 518 19 518 19 L435 55 L500 425 L770 811 L770 811 L828 837 C828 837 827 841 826 847 L826 851 L798 851 L772 851 L746 851 L644 851 C644 851 643 850 641 847 C633 838 628 832 628 832 L709 795 L709 795 Z " />
<glyph glyph-name="agrave" unicode="&#xe0;" horiz-adv-x="513" d="M353 530 L297 707 L182 707 C177 681 179 661 185 655 L344 530 L353 530 L353 530 Z M336 254 C163 217 66 156 55 92 C44 31 82 -9 149 -9 C207 -9 266 12 310 52 C320 14 351 -9 396 -9 C442 -9 491 24 519 73 L517 77 C512 67 503 61 496 61 C448 61 419 73 422 91 L469 354 C480 418 436 461 335 461 C245 461 161 443 140 418 C135 413 139 404 150 397 L184 386 L189 386 C209 408 260 425 309 425 C347 425 359 384 348 323 L336 254 L336 254 Z M331 226 L309 101 C307 89 307 78 308 68 C289 54 269 47 251 47 C196 47 164 76 172 119 C179 162 234 202 331 226 L331 226 Z " />
<glyph glyph-name="aacute" unicode="&#xe1;" horiz-adv-x="513" d="M348 530 L357 530 L560 655 C568 661 577 681 581 707 L466 707 L348 530 L348 530 Z M336 254 C163 217 66 156 55 92 C44 31 82 -9 149 -9 C207 -9 266 12 310 52 C320 14 351 -9 396 -9 C442 -9 491 24 519 73 L517 77 C512 67 503 61 496 61 C448 61 419 73 422 91 L469 354 C480 418 436 461 335 461 C245 461 161 443 140 418 C135 413 139 404 150 397 L184 386 L189 386 C209 408 260 425 309 425 C347 425 359 384 348 323 L336 254 L336 254 Z M331 226 L309 101 C307 89 307 78 308 68 C289 54 269 47 251 47 C196 47 164 76 172 119 C179 162 234 202 331 226 L331 226 Z " />
<glyph glyph-name="acircumflex" unicode="&#xe2;" horiz-adv-x="513" d="M504 530 L390 705 L367 705 L197 530 L206 530 L362 609 L494 530 L504 530 L504 530 Z M336 254 C163 217 66 156 55 92 C44 31 82 -9 149 -9 C207 -9 266 12 310 52 C320 14 351 -9 396 -9 C442 -9 491 24 519 73 L517 77 C512 67 503 61 496 61 C448 61 419 73 422 91 L469 354 C480 418 436 461 335 461 C245 461 161 443 140 418 C135 413 139 404 150 397 L184 386 L189 386 C209 408 260 425 309 425 C347 425 359 384 348 323 L336 254 L336 254 Z M331 226 L309 101 C307 89 307 78 308 68 C289 54 269 47 251 47 C196 47 164 76 172 119 C179 162 234 202 331 226 L331 226 Z " />
<glyph glyph-name="atilde" unicode="&#xe3;" horiz-adv-x="513" d="M195 555 C211 585 224 605 255 605 C307 605 340 544 392 544 C438 544 470 598 511 680 L501 680 C485 649 471 628 440 628 C389 628 355 689 304 689 C258 689 226 635 185 555 L195 555 L195 555 Z M336 254 C163 217 66 156 55 92 C44 31 82 -9 149 -9 C207 -9 266 12 310 52 C320 14 351 -9 396 -9 C442 -9 491 24 519 73 L517 77 C512 67 503 61 496 61 C448 61 419 73 422 91 L469 354 C480 418 436 461 335 461 C245 461 161 443 140 418 C135 413 139 404 150 397 L184 386 L189 386 C209 408 260 425 309 425 C347 425 359 384 348 323 L336 254 L336 254 Z M331 226 L309 101 C307 89 307 78 308 68 C289 54 269 47 251 47 C196 47 164 76 172 119 C179 162 234 202 331 226 L331 226 Z " />
<glyph glyph-name="adieresis" unicode="&#xe4;" horiz-adv-x="513" d="M447 570 C490 570 524 599 532 642 C539 685 515 714 472 714 C430 714 396 685 388 642 C380 599 404 570 447 570 L447 570 Z M232 570 C275 570 309 599 317 642 C324 685 300 714 257 714 C215 714 181 685 173 642 C165 599 189 570 232 570 L232 570 Z M336 254 C163 217 66 156 55 92 C44 31 82 -9 149 -9 C207 -9 266 12 310 52 C320 14 351 -9 396 -9 C442 -9 491 24 519 73 L517 77 C512 67 503 61 496 61 C448 61 419 73 422 91 L469 354 C480 418 436 461 335 461 C245 461 161 443 140 418 C135 413 139 404 150 397 L184 386 L189 386 C209 408 260 425 309 425 C347 425 359 384 348 323 L336 254 L336 254 Z M331 226 L309 101 C307 89 307 78 308 68 C289 54 269 47 251 47 C196 47 164 76 172 119 C179 162 234 202 331 226 L331 226 Z " />
<glyph glyph-name="aring" unicode="&#xe5;" horiz-adv-x="513" d="M345 553 C332 553 328 590 336 634 C342 670 354 694 365 694 C378 694 381 662 372 615 C367 581 354 553 345 553 L345 553 Z M263 624 C255 576 289 535 338 535 C388 535 437 577 445 627 C454 678 424 712 370 712 C315 712 272 677 263 624 L263 624 Z M336 254 C163 217 66 156 55 92 C44 31 82 -9 149 -9 C207 -9 266 12 310 52 C320 14 351 -9 396 -9 C442 -9 491 24 519 73 L517 77 C512 67 503 61 496 61 C448 61 419 73 422 91 L469 354 C480 418 436 461 335 461 C245 461 161 443 140 418 C135 413 139 404 150 397 L184 386 L189 386 C209 408 260 425 309 425 C347 425 359 384 348 323 L336 254 L336 254 Z M331 226 L309 101 C307 89 307 78 308 68 C289 54 269 47 251 47 C196 47 164 76 172 119 C179 162 234 202 331 226 L331 226 Z " />
<glyph glyph-name="ccedilla" unicode="&#xe7;" horiz-adv-x="477" d="M251 -49 L276 -9 C339 -2 406 41 449 103 C450 104 451 105 452 106 L455 114 C454 113 453 112 452 111 L452 115 L448 115 C406 75 347 49 301 49 C223 49 187 136 209 267 C226 362 276 426 334 426 C361 426 389 403 404 368 L422 322 L429 322 L479 354 C489 362 497 374 499 383 C499 387 495 399 490 414 C478 443 427 462 362 462 C223 462 112 358 85 202 C63 79 129 -4 249 -8 L175 -125 L195 -136 C218 -138 232 -152 229 -169 C224 -198 217 -217 212 -217 C178 -217 150 -212 141 -203 L140 -212 C158 -227 189 -238 219 -238 C269 -238 309 -201 319 -146 C327 -97 301 -59 252 -47 L251 -49 L251 -49 Z " />
<glyph glyph-name="egrave" unicode="&#xe8;" horiz-adv-x="483" d="M351 530 L295 707 L180 707 C175 681 176 661 183 655 L341 530 L351 530 L351 530 Z M310 279 L213 279 C233 367 277 425 327 425 C369 425 388 368 378 279 L310 279 L310 279 Z M304 243 L424 243 L425 247 L425 247 L424 243 L477 247 C499 375 445 460 342 460 C215 460 113 356 86 200 C63 74 133 -10 259 -10 C327 -10 403 35 450 103 C451 104 452 105 453 106 L456 114 C455 113 454 112 453 111 L453 115 L449 115 C407 75 348 49 302 49 C228 49 192 126 207 245 L304 243 L304 243 Z " />
<glyph glyph-name="eacute" unicode="&#xe9;" horiz-adv-x="483" d="M346 530 L355 530 L558 655 C566 661 575 681 579 707 L464 707 L346 530 L346 530 Z M310 279 L213 279 C233 367 277 425 327 425 C369 425 388 368 378 279 L310 279 L310 279 Z M304 243 L424 243 L425 247 L425 247 L424 243 L477 247 C499 375 445 460 342 460 C215 460 113 356 86 200 C63 74 133 -10 259 -10 C327 -10 403 35 450 103 C451 104 452 105 453 106 L456 114 C455 113 454 112 453 111 L453 115 L449 115 C407 75 348 49 302 49 C228 49 192 126 207 245 L304 243 L304 243 Z " />
<glyph glyph-name="ecircumflex" unicode="&#xea;" horiz-adv-x="483" d="M501 530 L388 705 L365 705 L194 530 L203 530 L360 609 L492 530 L501 530 L501 530 Z M310 279 L213 279 C233 367 277 425 327 425 C369 425 388 368 378 279 L310 279 L310 279 Z M304 243 L424 243 L425 247 L425 247 L424 243 L477 247 C499 375 445 460 342 460 C215 460 113 356 86 200 C63 74 133 -10 259 -10 C327 -10 403 35 450 103 C451 104 452 105 453 106 L456 114 C455 113 454 112 453 111 L453 115 L449 115 C407 75 348 49 302 49 C228 49 192 126 207 245 L304 243 L304 243 Z " />
<glyph glyph-name="edieresis" unicode="&#xeb;" horiz-adv-x="483" d="M460 570 C503 570 537 599 544 642 C552 685 528 714 485 714 C442 714 408 685 401 642 C393 599 416 570 460 570 L460 570 Z M245 570 C288 570 322 599 329 642 C337 685 313 714 270 714 C227 714 193 685 186 642 C178 599 201 570 245 570 L245 570 Z M310 279 L213 279 C233 367 277 425 327 425 C369 425 388 368 378 279 L310 279 L310 279 Z M304 243 L424 243 L425 247 L425 247 L424 243 L477 247 C499 375 445 460 342 460 C215 460 113 356 86 200 C63 74 133 -10 259 -10 C327 -10 403 35 450 103 C451 104 452 105 453 106 L456 114 C455 113 454 112 453 111 L453 115 L449 115 C407 75 348 49 302 49 C228 49 192 126 207 245 L304 243 L304 243 Z " />
<glyph glyph-name="igrave" unicode="&#xec;" horiz-adv-x="352" d="M270 530 L214 707 L99 707 C95 681 96 661 103 655 L261 530 L270 530 L270 530 Z M243 50 L243 50 L300 375 L300 375 L315 460 L292 460 L132 399 C131 399 131 398 131 398 L123 390 L178 334 L128 50 L57 18 C57 18 58 12 60 3 C61 1 61 0 61 0 L119 0 L177 0 L234 0 L296 0 C296 0 297 1 298 3 C304 12 307 18 307 18 L243 50 L243 50 Z " />
<glyph glyph-name="iacute" unicode="&#xed;" horiz-adv-x="352" d="M266 530 L275 530 L477 655 C486 661 494 681 499 707 L384 707 L266 530 L266 530 Z M243 50 L243 50 L300 375 L300 375 L315 460 L292 460 L132 399 C131 399 131 398 131 398 L123 390 L178 334 L128 50 L57 18 C57 18 58 12 60 3 C61 1 61 0 61 0 L119 0 L177 0 L234 0 L296 0 C296 0 297 1 298 3 C304 12 307 18 307 18 L243 50 L243 50 Z " />
<glyph glyph-name="icircumflex" unicode="&#xee;" horiz-adv-x="352" d="M421 530 L307 705 L284 705 L114 530 L123 530 L279 609 L412 530 L421 530 L421 530 Z M243 50 L243 50 L300 375 L300 375 L315 460 L292 460 L132 399 C131 399 131 398 131 398 L123 390 L178 334 L128 50 L57 18 C57 18 58 12 60 3 C61 1 61 0 61 0 L119 0 L177 0 L234 0 L296 0 C296 0 297 1 298 3 C304 12 307 18 307 18 L243 50 L243 50 Z " />
<glyph glyph-name="idieresis" unicode="&#xef;" horiz-adv-x="352" d="M380 570 C423 570 457 599 464 642 C472 685 448 714 405 714 C362 714 328 685 320 642 C313 599 336 570 380 570 L380 570 Z M165 570 C208 570 242 599 249 642 C257 685 233 714 190 714 C147 714 113 685 105 642 C98 599 121 570 165 570 L165 570 Z M243 50 L243 50 L300 375 L300 375 L315 460 L292 460 L132 399 C131 399 131 398 131 398 L123 390 L178 334 L128 50 L57 18 C57 18 58 12 60 3 C61 1 61 0 61 0 L119 0 L177 0 L234 0 L296 0 C296 0 297 1 298 3 C304 12 307 18 307 18 L243 50 L243 50 Z " />
<glyph glyph-name="ntilde" unicode="&#xf1;" horiz-adv-x="598" d="M261 555 C276 585 289 605 321 605 C372 605 405 544 457 544 C503 544 535 598 576 680 L566 680 C550 649 536 628 506 628 C454 628 421 689 369 689 C323 689 291 635 251 555 L261 555 L261 555 Z M503 50 L503 50 L554 343 C567 413 524 460 448 460 C402 460 351 430 298 384 L306 460 L283 460 L129 399 C128 399 128 399 128 398 C123 394 120 390 120 390 L175 334 L125 50 L54 18 C54 18 55 12 57 3 C58 1 58 0 58 0 L116 0 L174 0 L231 0 L293 0 C293 0 294 1 295 3 C301 12 304 18 304 18 L240 50 L240 50 L294 360 C328 388 364 406 406 406 C433 406 443 354 429 277 L389 50 L313 18 C313 18 315 12 317 3 C317 1 318 0 318 0 L380 0 L437 0 L495 0 L553 0 L554 3 C559 12 563 18 563 18 L503 50 L503 50 Z " />
<glyph glyph-name="ograve" unicode="&#xf2;" horiz-adv-x="548" d="M373 530 L317 707 L202 707 C197 681 199 661 205 655 L364 530 L373 530 L373 530 Z M288 22 C227 22 200 103 222 225 C243 347 285 428 339 428 C400 428 427 347 405 225 C384 103 342 22 288 22 L288 22 Z M90 225 C65 84 138 -10 272 -10 C420 -10 513 84 538 225 C563 366 490 460 355 460 C207 460 115 366 90 225 L90 225 Z " />
<glyph glyph-name="oacute" unicode="&#xf3;" horiz-adv-x="548" d="M368 530 L377 530 L580 655 C588 661 597 681 601 707 L486 707 L368 530 L368 530 Z M288 22 C227 22 200 103 222 225 C243 347 285 428 339 428 C400 428 427 347 405 225 C384 103 342 22 288 22 L288 22 Z M90 225 C65 84 138 -10 272 -10 C420 -10 513 84 538 225 C563 366 490 460 355 460 C207 460 115 366 90 225 L90 225 Z " />
<glyph glyph-name="ocircumflex" unicode="&#xf4;" horiz-adv-x="548" d="M524 530 L410 705 L387 705 L216 530 L226 530 L382 609 L514 530 L524 530 L524 530 Z M288 22 C227 22 200 103 222 225 C243 347 285 428 339 428 C400 428 427 347 405 225 C384 103 342 22 288 22 L288 22 Z M90 225 C65 84 138 -10 272 -10 C420 -10 513 84 538 225 C563 366 490 460 355 460 C207 460 115 366 90 225 L90 225 Z " />
<glyph glyph-name="otilde" unicode="&#xf5;" horiz-adv-x="548" d="M230 555 C246 585 259 605 290 605 C341 605 375 544 427 544 C472 544 504 598 545 680 L535 680 C520 649 506 628 475 628 C424 628 390 689 339 689 C293 689 261 635 220 555 L230 555 L230 555 Z M288 22 C227 22 200 103 222 225 C243 347 285 428 339 428 C400 428 427 347 405 225 C384 103 342 22 288 22 L288 22 Z M90 225 C65 84 138 -10 272 -10 C420 -10 513 84 538 225 C563 366 490 460 355 460 C207 460 115 366 90 225 L90 225 Z " />
<glyph glyph-name="odieresis" unicode="&#xf6;" horiz-adv-x="548" d="M482 570 C525 570 559 599 567 642 C574 685 550 714 507 714 C464 714 431 685 423 642 C415 599 439 570 482 570 L482 570 Z M267 570 C310 570 344 599 352 642 C359 685 335 714 292 714 C249 714 216 685 208 642 C200 599 224 570 267 570 L267 570 Z M288 22 C227 22 200 103 222 225 C243 347 285 428 339 428 C400 428 427 347 405 225 C384 103 342 22 288 22 L288 22 Z M90 225 C65 84 138 -10 272 -10 C420 -10 513 84 538 225 C563 366 490 460 355 460 C207 460 115 366 90 225 L90 225 Z " />
<glyph glyph-name="oslash" unicode="&#xf8;" horiz-adv-x="548" d="M288 22 C258 22 236 42 224 77 L412 279 C411 262 409 244 406 225 C385 103 343 22 289 22 L288 22 L288 22 Z M91 225 C79 159 89 103 116 62 L49 -11 L144 -11 L168 14 C197 -2 233 -11 274 -11 C422 -11 515 83 540 224 C552 290 542 346 514 387 L581 459 L486 459 L463 434 C434 450 398 459 357 459 C209 459 117 365 92 224 L91 225 L91 225 Z M217 169 C218 186 220 204 223 223 C244 345 286 426 340 426 C370 426 392 406 404 371 L217 169 L217 169 Z " />
<glyph glyph-name="ugrave" unicode="&#xf9;" horiz-adv-x="560" d="M374 530 L318 707 L203 707 C199 681 200 661 207 655 L365 530 L374 530 L374 530 Z M479 50 L479 50 L549 450 L492 450 L434 450 L372 450 C372 450 371 449 370 447 C366 439 362 433 361 433 L425 400 L425 400 L371 93 C330 62 290 46 258 46 C232 46 223 98 237 176 L285 450 L228 450 L170 450 L113 450 C112 450 112 449 111 447 C107 439 103 433 102 433 L161 400 L110 107 C97 37 139 -10 213 -10 C248 -10 304 16 368 69 L356 0 L413 0 L471 0 L533 0 C533 0 534 1 535 3 C540 12 544 18 544 18 L479 50 L479 50 Z M362 433 L362 433 L362 433 Z M103 433 L103 433 L103 433 Z " />
<glyph glyph-name="uacute" unicode="&#xfa;" horiz-adv-x="560" d="M370 530 L379 530 L581 655 C590 661 598 681 603 707 L488 707 L370 530 L370 530 Z M479 50 L479 50 L549 450 L492 450 L434 450 L372 450 C372 450 371 449 370 447 C366 439 362 433 361 433 L425 400 L425 400 L371 93 C330 62 290 46 258 46 C232 46 223 98 237 176 L285 450 L228 450 L170 450 L113 450 C112 450 112 449 111 447 C107 439 103 433 102 433 L161 400 L110 107 C97 37 139 -10 213 -10 C248 -10 304 16 368 69 L356 0 L413 0 L471 0 L533 0 C533 0 534 1 535 3 C540 12 544 18 544 18 L479 50 L479 50 Z M362 433 L362 433 L362 433 Z M103 433 L103 433 L103 433 Z " />
<glyph glyph-name="ucircumflex" unicode="&#xfb;" horiz-adv-x="560" d="M525 530 L411 705 L388 705 L218 530 L227 530 L383 609 L516 530 L525 530 L525 530 Z M479 50 L479 50 L549 450 L492 450 L434 450 L372 450 C372 450 371 449 370 447 C366 439 362 433 361 433 L425 400 L425 400 L371 93 C330 62 290 46 258 46 C232 46 223 98 237 176 L285 450 L228 450 L170 450 L113 450 C112 450 112 449 111 447 C107 439 103 433 102 433 L161 400 L110 107 C97 37 139 -10 213 -10 C248 -10 304 16 368 69 L356 0 L413 0 L471 0 L533 0 C533 0 534 1 535 3 C540 12 544 18 544 18 L479 50 L479 50 Z M362 433 L362 433 L362 433 Z M103 433 L103 433 L103 433 Z " />
<glyph glyph-name="udieresis" unicode="&#xfc;" horiz-adv-x="560" d="M483 570 C527 570 560 599 568 642 C576 685 552 714 509 714 C466 714 432 685 424 642 C417 599 440 570 483 570 L483 570 Z M268 570 C312 570 345 599 353 642 C361 685 337 714 294 714 C251 714 217 685 209 642 C202 599 225 570 268 570 L268 570 Z M479 50 L479 50 L549 450 L492 450 L434 450 L372 450 C372 450 371 449 370 447 C366 439 362 433 361 433 L425 400 L425 400 L371 93 C330 62 290 46 258 46 C232 46 223 98 237 176 L285 450 L228 450 L170 450 L113 450 C112 450 112 449 111 447 C107 439 103 433 102 433 L161 400 L110 107 C97 37 139 -10 213 -10 C248 -10 304 16 368 69 L356 0 L413 0 L471 0 L533 0 C533 0 534 1 535 3 C540 12 544 18 544 18 L479 50 L479 50 Z M362 433 L362 433 L362 433 Z M103 433 L103 433 L103 433 Z " />
<glyph glyph-name="yacute" unicode="&#xfd;" horiz-adv-x="475" d="M378 530 L387 530 L590 655 C598 661 606 681 611 707 L496 707 L378 530 L378 530 Z M461 395 L462 395 L283 101 L315 155 L243 400 L243 400 L335 433 C335 433 332 438 328 447 C327 449 326 450 326 450 L228 450 L165 450 L101 450 L61 450 C61 450 60 448 58 446 C54 438 51 433 51 433 L116 400 L230 14 L185 -60 C159 -104 130 -121 82 -121 L16 -121 L11 -125 C11 -125 6 -155 -2 -199 C-7 -229 4 -241 40 -241 C91 -241 140 -194 211 -72 L495 394 L576 430 C576 430 575 436 574 444 C573 447 573 449 573 449 L528 449 L511 449 L495 449 L406 449 C406 449 405 448 403 445 C396 436 392 430 391 430 L461 395 L461 395 Z " />
<glyph glyph-name="ydieresis" unicode="&#xff;" horiz-adv-x="475" d="M492 570 C535 570 569 599 576 642 C584 685 560 714 517 714 C474 714 440 685 433 642 C425 599 448 570 492 570 L492 570 Z M277 570 C320 570 354 599 361 642 C369 685 345 714 302 714 C259 714 225 685 218 642 C210 599 233 570 277 570 L277 570 Z M461 395 L462 395 L283 101 L315 155 L243 400 L243 400 L335 433 C335 433 332 438 328 447 C327 449 326 450 326 450 L228 450 L165 450 L101 450 L61 450 C61 450 60 448 58 446 C54 438 51 433 51 433 L116 400 L230 14 L185 -60 C159 -104 130 -121 82 -121 L16 -121 L11 -125 C11 -125 6 -155 -2 -199 C-7 -229 4 -241 40 -241 C91 -241 140 -194 211 -72 L495 394 L576 430 C576 430 575 436 574 444 C573 447 573 449 573 449 L528 449 L511 449 L495 449 L406 449 C406 449 405 448 403 445 C396 436 392 430 391 430 L461 395 L461 395 Z " />
<glyph glyph-name="Amacron" unicode="&#x100;" horiz-adv-x="757" d="M418 953 L684 953 L696 1025 L430 1025 L418 953 L418 953 Z M151 50 L151 50 L280 319 L507 319 L538 50 L538 50 L438 18 C438 18 441 12 446 3 C446 1 447 0 447 0 L544 0 L611 0 L679 0 L720 0 C720 0 721 1 722 4 C726 11 729 16 729 16 L673 45 L576 809 L570 855 L494 855 L93 35 L93 35 L34 12 C34 12 35 8 37 3 L37 0 L76 0 L102 0 L128 0 L217 0 L220 3 C227 12 231 18 231 18 L151 50 L151 50 Z M503 361 L301 361 L464 701 L503 361 L503 361 Z " />
<glyph glyph-name="amacron" unicode="&#x101;" horiz-adv-x="513" d="M216 593 L482 593 L494 665 L228 665 L216 593 L216 593 Z M336 254 C163 217 66 156 55 92 C44 31 82 -9 149 -9 C207 -9 266 12 310 52 C320 14 351 -9 396 -9 C442 -9 491 24 519 73 L517 77 C512 67 503 61 496 61 C448 61 419 73 422 91 L469 354 C480 418 436 461 335 461 C245 461 161 443 140 418 C135 413 139 404 150 397 L184 386 L189 386 C209 408 260 425 309 425 C347 425 359 384 348 323 L336 254 L336 254 Z M331 226 L309 101 C307 89 307 78 308 68 C289 54 269 47 251 47 C196 47 164 76 172 119 C179 162 234 202 331 226 L331 226 Z " />
<glyph glyph-name="Abreve" unicode="&#x102;" horiz-adv-x="757" d="M422 1058 L412 1058 C432 947 469 904 542 904 C615 904 667 947 727 1058 L716 1058 C690 1009 645 990 557 991 C469 990 431 1009 422 1058 L422 1058 Z M151 50 L151 50 L280 319 L507 319 L538 50 L538 50 L438 18 C438 18 441 12 446 3 C446 1 447 0 447 0 L544 0 L611 0 L679 0 L720 0 C720 0 721 1 722 4 C726 11 729 16 729 16 L673 45 L576 809 L570 855 L494 855 L93 35 L93 35 L34 12 C34 12 35 8 37 3 L37 0 L76 0 L102 0 L128 0 L217 0 L220 3 C227 12 231 18 231 18 L151 50 L151 50 Z M503 361 L301 361 L464 701 L503 361 L503 361 Z " />
<glyph glyph-name="abreve" unicode="&#x103;" horiz-adv-x="513" d="M223 711 L212 711 C230 588 266 540 339 540 C413 540 465 588 527 711 L516 711 C489 657 444 636 356 636 C268 636 231 657 223 711 L223 711 Z M336 254 C163 217 66 156 55 92 C44 31 82 -9 149 -9 C207 -9 266 12 310 52 C320 14 351 -9 396 -9 C442 -9 491 24 519 73 L517 77 C512 67 503 61 496 61 C448 61 419 73 422 91 L469 354 C480 418 436 461 335 461 C245 461 161 443 140 418 C135 413 139 404 150 397 L184 386 L189 386 C209 408 260 425 309 425 C347 425 359 384 348 323 L336 254 L336 254 Z M331 226 L309 101 C307 89 307 78 308 68 C289 54 269 47 251 47 C196 47 164 76 172 119 C179 162 234 202 331 226 L331 226 Z " />
<glyph glyph-name="Cacute" unicode="&#x106;" horiz-adv-x="708" d="M524 895 L534 895 L734 1008 C742 1012 751 1031 755 1054 L640 1054 L524 895 L524 895 Z M540 35 L540 35 C498 31 449 29 401 29 C286 29 238 194 281 441 C322 670 432 823 555 823 C593 823 632 821 666 817 L666 817 C673 816 680 810 682 802 C689 767 699 721 706 687 C709 689 713 691 716 693 C719 694 723 696 726 698 L764 858 C756 860 675 862 562 862 C358 862 189 677 139 398 C97 155 199 -8 394 -8 C517 -8 606 -6 617 -3 L620 19 L620 19 L616 -4 L620 19 C636 22 637 24 620 24 L625 50 C624 50 623 50 622 50 L634 140 C632 142 629 144 627 145 C625 147 622 149 620 151 C601 121 577 82 559 52 C554 44 545 39 538 38 L540 35 L540 35 Z " />
<glyph glyph-name="cacute" unicode="&#x107;" horiz-adv-x="477" d="M353 530 L363 530 L565 655 C574 661 582 681 587 707 L472 707 L353 530 L353 530 Z M423 320 L430 320 L480 352 C490 360 498 372 500 381 C500 385 496 397 491 412 C479 441 428 460 363 460 C224 460 113 356 86 200 C63 74 133 -10 259 -10 C327 -10 403 35 450 103 C451 104 452 105 453 106 L456 114 C455 113 454 112 453 111 L453 115 L449 115 C407 75 348 49 302 49 C224 49 188 136 210 267 C227 362 277 426 335 426 C362 426 390 403 405 368 L423 320 L423 320 Z " />
<glyph glyph-name="Ccaron" unicode="&#x10c;" horiz-adv-x="708" d="M728 1057 L556 900 L533 900 L421 1057 L430 1057 L560 985 L719 1057 L728 1057 L728 1057 Z M540 35 L540 35 C498 31 449 29 401 29 C286 29 238 194 281 441 C322 670 432 823 555 823 C593 823 632 821 666 817 L666 817 C673 816 680 810 682 802 C689 767 699 721 706 687 C709 689 713 691 716 693 C719 694 723 696 726 698 L764 858 C756 860 675 862 562 862 C358 862 189 677 139 398 C97 155 199 -8 394 -8 C517 -8 606 -6 617 -3 L620 19 L620 19 L616 -4 L620 19 C636 22 637 24 620 24 L625 50 C624 50 623 50 622 50 L634 140 C632 142 629 144 627 145 C625 147 622 149 620 151 C601 121 577 82 559 52 C554 44 545 39 538 38 L540 35 L540 35 Z " />
<glyph glyph-name="ccaron" unicode="&#x10d;" horiz-adv-x="477" d="M540 710 L365 535 L342 535 L233 710 L243 710 L371 631 L531 710 L540 710 L540 710 Z M423 320 L430 320 L480 352 C490 360 498 372 500 381 C500 385 496 397 491 412 C479 441 428 460 363 460 C224 460 113 356 86 200 C63 74 133 -10 259 -10 C327 -10 403 35 450 103 C451 104 452 105 453 106 L456 114 C455 113 454 112 453 111 L453 115 L449 115 C407 75 348 49 302 49 C224 49 188 136 210 267 C227 362 277 426 335 426 C362 426 390 403 405 368 L423 320 L423 320 Z " />
<glyph glyph-name="Dcaron" unicode="&#x10e;" horiz-adv-x="785" d="M782 1057 L610 900 L587 900 L475 1057 L484 1057 L614 985 L773 1057 L782 1057 L782 1057 Z M284 795 L284 795 L153 55 L67 19 C66 19 68 13 71 4 C72 1 72 0 72 0 L143 0 L208 0 L237 0 L273 0 L380 0 C582 7 743 167 796 467 C841 720 721 850 505 850 L423 850 L358 850 L293 850 L222 850 C222 850 221 849 220 846 L210 831 L284 795 L284 795 Z M280 42 L415 808 L478 808 C623 808 697 675 652 418 C609 174 506 46 385 42 L280 42 L280 42 Z " />
<glyph glyph-name="dcaron" unicode="&#x10f;" horiz-adv-x="583" d="M795 750 L688 750 L631 563 L641 563 L778 705 C785 713 792 731 795 750 L795 750 Z M415 0 L465 0 L527 0 C527 0 528 1 529 3 C535 12 538 18 538 18 L474 50 L476 60 L585 685 L586 685 L599 760 L576 760 L416 699 C415 699 415 698 415 698 C410 694 407 691 407 691 L463 644 L430 455 C410 458 389 460 367 460 C224 460 109 352 81 191 C60 70 110 -10 208 -10 C263 -10 322 13 361 50 L364 0 L415 0 L415 0 Z M420 401 L363 76 C336 55 298 42 261 42 C205 42 181 116 201 228 C222 345 282 423 351 423 C368 423 393 415 420 401 L420 401 Z " />
<glyph glyph-name="Emacron" unicode="&#x112;" horiz-adv-x="658" d="M374 953 L640 953 L652 1025 L386 1025 L374 953 L374 953 Z M284 795 L284 795 L153 55 L67 19 C66 19 68 13 71 4 C72 1 72 0 72 0 L143 0 L176 0 L208 0 L273 0 L535 0 L568 0 L577 0 L585 0 L587 0 L594 42 L589 42 C592 78 595 120 597 152 L595 154 C587 162 581 166 581 166 L514 41 L280 41 L346 416 L485 416 L513 336 C513 336 520 339 532 343 C535 344 537 345 537 345 C541 366 545 393 549 417 L550 417 L557 459 L557 459 C561 483 566 509 570 530 C569 530 568 531 565 532 C555 536 548 539 548 539 L492 459 L353 459 L415 808 L623 808 L649 693 C649 693 656 697 667 704 L669 706 C678 736 688 775 697 808 L703 808 L711 850 L709 850 L700 850 L692 850 L659 850 L422 850 L357 850 L325 850 L292 850 L221 850 C221 850 220 849 219 846 L209 831 L284 795 L284 795 Z " />
<glyph glyph-name="emacron" unicode="&#x113;" horiz-adv-x="483" d="M228 593 L494 593 L507 665 L241 665 L228 593 L228 593 Z M310 279 L213 279 C233 367 277 425 327 425 C369 425 388 368 378 279 L310 279 L310 279 Z M304 243 L424 243 L425 247 L425 247 L424 243 L477 247 C499 375 445 460 342 460 C215 460 113 356 86 200 C63 74 133 -10 259 -10 C327 -10 403 35 450 103 C451 104 452 105 453 106 L456 114 C455 113 454 112 453 111 L453 115 L449 115 C407 75 348 49 302 49 C228 49 192 126 207 245 L304 243 L304 243 Z " />
<glyph glyph-name="Edot" unicode="&#x116;" horiz-adv-x="658" d="M505 915 C553 915 591 947 599 995 C608 1043 581 1075 533 1075 C485 1075 448 1043 439 995 C431 947 457 915 505 915 L505 915 Z M284 795 L284 795 L153 55 L67 19 C66 19 68 13 71 4 C72 1 72 0 72 0 L143 0 L176 0 L208 0 L273 0 L535 0 L568 0 L577 0 L585 0 L587 0 L594 42 L589 42 C592 78 595 120 597 152 L595 154 C587 162 581 166 581 166 L514 41 L280 41 L346 416 L485 416 L513 336 C513 336 520 339 532 343 C535 344 537 345 537 345 C541 366 545 393 549 417 L550 417 L557 459 L557 459 C561 483 566 509 570 530 C569 530 568 531 565 532 C555 536 548 539 548 539 L492 459 L353 459 L415 808 L623 808 L649 693 C649 693 656 697 667 704 L669 706 C678 736 688 775 697 808 L703 808 L711 850 L709 850 L700 850 L692 850 L659 850 L422 850 L357 850 L325 850 L292 850 L221 850 C221 850 220 849 219 846 L209 831 L284 795 L284 795 Z " />
<glyph glyph-name="edot" unicode="&#x117;" horiz-adv-x="483" d="M365 583 C413 583 450 615 459 663 C467 711 441 743 393 743 C345 743 307 711 299 663 C290 615 317 583 365 583 L365 583 Z M310 279 L213 279 C233 367 277 425 327 425 C369 425 388 368 378 279 L310 279 L310 279 Z M304 243 L424 243 L425 247 L425 247 L424 243 L477 247 C499 375 445 460 342 460 C215 460 113 356 86 200 C63 74 133 -10 259 -10 C327 -10 403 35 450 103 C451 104 452 105 453 106 L456 114 C455 113 454 112 453 111 L453 115 L449 115 C407 75 348 49 302 49 C228 49 192 126 207 245 L304 243 L304 243 Z " />
<glyph glyph-name="Ecaron" unicode="&#x11a;" horiz-adv-x="658" d="M681 1057 L509 900 L486 900 L374 1057 L383 1057 L513 985 L672 1057 L681 1057 L681 1057 Z M284 795 L284 795 L153 55 L67 19 C66 19 68 13 71 4 C72 1 72 0 72 0 L143 0 L176 0 L208 0 L273 0 L535 0 L568 0 L577 0 L585 0 L587 0 L594 42 L589 42 C592 78 595 120 597 152 L595 154 C587 162 581 166 581 166 L514 41 L280 41 L346 416 L485 416 L513 336 C513 336 520 339 532 343 C535 344 537 345 537 345 C541 366 545 393 549 417 L550 417 L557 459 L557 459 C561 483 566 509 570 530 C569 530 568 531 565 532 C555 536 548 539 548 539 L492 459 L353 459 L415 808 L623 808 L649 693 C649 693 656 697 667 704 L669 706 C678 736 688 775 697 808 L703 808 L711 850 L709 850 L700 850 L692 850 L659 850 L422 850 L357 850 L325 850 L292 850 L221 850 C221 850 220 849 219 846 L209 831 L284 795 L284 795 Z " />
<glyph glyph-name="ecaron" unicode="&#x11b;" horiz-adv-x="483" d="M533 710 L358 535 L335 535 L226 710 L235 710 L363 631 L524 710 L533 710 L533 710 Z M310 279 L213 279 C233 367 277 425 327 425 C369 425 388 368 378 279 L310 279 L310 279 Z M304 243 L424 243 L425 247 L425 247 L424 243 L477 247 C499 375 445 460 342 460 C215 460 113 356 86 200 C63 74 133 -10 259 -10 C327 -10 403 35 450 103 C451 104 452 105 453 106 L456 114 C455 113 454 112 453 111 L453 115 L449 115 C407 75 348 49 302 49 C228 49 192 126 207 245 L304 243 L304 243 Z " />
<glyph glyph-name="Gbreve" unicode="&#x11e;" horiz-adv-x="766" d="M436 1058 L425 1058 C445 947 482 904 555 904 C629 904 681 947 740 1058 L729 1058 C703 1009 658 990 571 991 C483 990 445 1009 436 1058 L436 1058 Z M573 318 L573 318 L526 52 C487 41 451 35 425 35 C296 35 239 197 281 440 C322 669 436 822 565 822 C607 822 650 819 688 814 C694 812 700 806 702 799 C709 764 719 718 726 684 C729 686 733 688 736 690 C739 691 743 693 746 695 L784 855 C776 857 691 859 572 859 C362 859 189 674 139 395 C97 152 199 -11 396 -11 C461 -11 565 14 656 52 L702 317 L703 317 L784 353 C784 353 783 359 780 369 C779 371 779 372 779 372 C740 373 687 373 648 372 C606 373 550 373 507 372 C507 372 507 371 505 369 C499 359 494 353 495 353 L573 318 L573 318 Z " />
<glyph glyph-name="gbreve" unicode="&#x11f;" horiz-adv-x="554" d="M246 711 L235 711 C253 588 289 540 362 540 C436 540 488 588 550 711 L539 711 C512 657 467 636 379 636 C291 636 254 657 246 711 L246 711 Z M211 151 L211 151 C232 143 257 139 285 139 C406 139 480 204 497 302 C504 344 496 379 476 406 L575 408 L582 450 L448 432 C421 450 385 460 341 460 C220 460 147 396 130 300 C119 236 142 186 190 160 C133 140 92 107 87 75 C77 20 106 -18 160 -25 C87 -53 35 -96 28 -135 C16 -198 84 -240 198 -240 C329 -240 429 -169 448 -63 C463 20 436 75 341 75 L231 75 C177 75 142 85 145 101 C148 122 174 142 209 151 L211 151 L211 151 Z M299 170 C255 170 234 224 249 304 C262 380 291 430 330 430 C373 430 391 377 377 298 C364 221 336 170 299 170 L299 170 Z M177 -25 L266 -25 C361 -25 395 -47 389 -79 C375 -162 303 -218 209 -218 C153 -218 122 -178 133 -119 C142 -69 160 -31 177 -25 L177 -25 Z " />
<glyph glyph-name="Itilde" unicode="&#x128;" horiz-adv-x="429" d="M231 895 C246 925 259 945 291 945 C342 945 375 884 427 884 C473 884 505 938 546 1020 L536 1020 C520 989 506 968 476 968 C424 968 391 1029 340 1029 C294 1029 261 975 221 895 L231 895 L231 895 Z M290 795 L290 795 L159 55 L72 19 L77 4 C78 1 78 0 78 0 L149 0 L214 0 L278 0 L349 0 C350 0 351 1 352 4 L362 19 L288 55 L288 55 L419 795 L420 795 L506 831 L501 846 C501 849 501 850 500 850 L429 850 L365 850 L300 850 L229 850 C229 850 228 849 226 846 C220 837 217 831 216 831 L290 795 L290 795 Z " />
<glyph glyph-name="itilde" unicode="&#x129;" horiz-adv-x="352" d="M128 530 C143 560 157 580 188 580 C240 580 273 519 325 519 C370 519 403 573 443 655 L433 655 C418 624 404 603 373 603 C322 603 289 664 237 664 C190 664 158 610 118 530 L128 530 L128 530 Z M243 50 L243 50 L300 375 L300 375 L315 460 L292 460 L132 399 C131 399 131 398 131 398 L123 390 L178 334 L128 50 L57 18 C57 18 58 12 60 3 C61 1 61 0 61 0 L119 0 L177 0 L234 0 L296 0 C296 0 297 1 298 3 C304 12 307 18 307 18 L243 50 L243 50 Z " />
<glyph glyph-name="Imacron" unicode="&#x12a;" horiz-adv-x="429" d="M250 953 L516 953 L528 1025 L262 1025 L250 953 L250 953 Z M290 795 L290 795 L159 55 L72 19 L77 4 C78 1 78 0 78 0 L149 0 L214 0 L278 0 L349 0 C350 0 351 1 352 4 L362 19 L288 55 L288 55 L419 795 L420 795 L506 831 L501 846 C501 849 501 850 500 850 L429 850 L365 850 L300 850 L229 850 C229 850 228 849 226 846 C220 837 217 831 216 831 L290 795 L290 795 Z " />
<glyph glyph-name="imacron" unicode="&#x12b;" horiz-adv-x="352" d="M143 593 L409 593 L422 665 L156 665 L143 593 L143 593 Z M243 50 L243 50 L300 375 L300 375 L315 460 L292 460 L132 399 C131 399 131 398 131 398 L123 390 L178 334 L128 50 L57 18 C57 18 58 12 60 3 C61 1 61 0 61 0 L119 0 L177 0 L234 0 L296 0 C296 0 297 1 298 3 C304 12 307 18 307 18 L243 50 L243 50 Z " />
<glyph glyph-name="Idot" unicode="&#x130;" horiz-adv-x="429" d="M376 915 C424 915 462 947 470 995 C479 1043 452 1075 404 1075 C356 1075 319 1043 310 995 C302 947 328 915 376 915 L376 915 Z M290 795 L290 795 L159 55 L72 19 L77 4 C78 1 78 0 78 0 L149 0 L214 0 L278 0 L349 0 C350 0 351 1 352 4 L362 19 L288 55 L288 55 L419 795 L420 795 L506 831 L501 846 C501 849 501 850 500 850 L429 850 L365 850 L300 850 L229 850 C229 850 228 849 226 846 C220 837 217 831 216 831 L290 795 L290 795 Z " />
<glyph glyph-name="dotlessi" unicode="&#x131;" horiz-adv-x="352" d="M243 50 L243 50 L300 375 L300 375 L315 460 L292 460 L132 399 C131 399 131 398 131 398 L123 390 L178 334 L128 50 L57 18 C57 18 58 12 60 3 C61 1 61 0 61 0 L119 0 L177 0 L234 0 L296 0 C296 0 297 1 298 3 C304 12 307 18 307 18 L243 50 L243 50 Z " />
<glyph glyph-name="Lacute" unicode="&#x139;" horiz-adv-x="642" d="M352 895 L362 895 L562 1008 C570 1012 579 1031 583 1054 L468 1054 L352 895 L352 895 Z M284 795 L284 795 L153 55 L67 19 C66 19 68 13 71 4 C72 1 72 0 72 0 L143 0 L176 0 L208 0 L273 0 L520 0 L552 0 L561 0 L570 0 L571 0 L579 42 L573 42 C577 89 581 145 584 189 L582 191 C573 201 567 207 567 207 L493 42 L280 42 L413 795 L504 831 L499 846 C499 849 498 850 498 850 L423 850 L358 850 L293 850 L222 850 C222 850 221 849 220 846 L210 831 L284 795 L284 795 Z " />
<glyph glyph-name="lacute" unicode="&#x13a;" horiz-adv-x="333" d="M286 765 L296 765 L505 878 C514 882 522 901 527 924 L406 924 L286 765 L286 765 Z M233 50 L233 50 L343 675 L343 675 L358 760 L335 760 L174 699 L174 698 L166 690 L221 634 L118 49 L47 17 C47 17 48 11 50 2 C51 0 51 -1 51 -1 L109 -1 L167 -1 L224 -1 L286 -1 C286 -1 287 0 288 2 C294 11 297 17 297 17 L233 50 L233 50 Z " />
<glyph glyph-name="Lcaron" unicode="&#x13d;" horiz-adv-x="642" d="M670 850 L563 850 L506 663 L515 663 L653 805 C660 813 667 831 670 850 L670 850 Z M284 795 L284 795 L153 55 L67 19 C66 19 68 13 71 4 C72 1 72 0 72 0 L143 0 L176 0 L208 0 L273 0 L520 0 L552 0 L561 0 L570 0 L571 0 L579 42 L573 42 C577 89 581 145 584 189 L582 191 C573 201 567 207 567 207 L493 42 L280 42 L413 795 L504 831 L499 846 C499 849 498 850 498 850 L423 850 L358 850 L293 850 L222 850 C222 850 221 849 220 846 L210 831 L284 795 L284 795 Z " />
<glyph glyph-name="lcaron" unicode="&#x13e;" horiz-adv-x="333" d="M554 750 L446 750 L390 563 L399 563 L537 705 C544 713 551 731 554 750 L554 750 Z M233 50 L233 50 L343 675 L343 675 L358 760 L335 760 L174 699 L174 698 L166 690 L221 634 L118 49 L47 17 C47 17 48 11 50 2 C51 0 51 -1 51 -1 L109 -1 L167 -1 L224 -1 L286 -1 C286 -1 287 0 288 2 C294 11 297 17 297 17 L233 50 L233 50 Z " />
<glyph glyph-name="Nacute" unicode="&#x143;" horiz-adv-x="811" d="M581 895 L590 895 L790 1008 C799 1012 807 1031 811 1054 L696 1054 L581 895 L581 895 Z M758 795 L758 795 L656 220 L356 850 L329 850 L302 850 L235 850 C235 850 234 849 233 846 C227 837 224 831 224 831 L292 795 L292 795 L161 55 L75 19 C74 19 76 13 79 4 C80 1 80 0 80 0 L151 0 L178 0 L205 0 L294 0 C294 0 295 1 297 4 C304 13 308 19 308 19 L215 55 L215 55 L325 676 L607 27 L621 -5 L670 -5 L695 137 L810 795 L811 795 L892 831 C892 831 890 837 888 846 C887 849 887 850 887 850 L820 850 L794 850 L767 850 L678 850 C678 850 677 849 675 846 C668 837 663 831 663 831 L758 795 L758 795 Z " />
<glyph glyph-name="nacute" unicode="&#x144;" horiz-adv-x="598" d="M399 530 L408 530 L610 655 C619 661 627 681 632 707 L517 707 L399 530 L399 530 Z M503 50 L503 50 L554 343 C567 413 524 460 448 460 C402 460 351 430 298 384 L306 460 L283 460 L129 399 C128 399 128 399 128 398 C123 394 120 390 120 390 L175 334 L125 50 L54 18 C54 18 55 12 57 3 C58 1 58 0 58 0 L116 0 L174 0 L231 0 L293 0 C293 0 294 1 295 3 C301 12 304 18 304 18 L240 50 L240 50 L294 360 C328 388 364 406 406 406 C433 406 443 354 429 277 L389 50 L313 18 C313 18 315 12 317 3 C317 1 318 0 318 0 L380 0 L437 0 L495 0 L553 0 L554 3 C559 12 563 18 563 18 L503 50 L503 50 Z " />
<glyph glyph-name="Ncaron" unicode="&#x147;" horiz-adv-x="811" d="M765 1057 L592 900 L569 900 L458 1057 L467 1057 L597 986 L756 1057 L765 1057 L765 1057 Z M758 795 L758 795 L656 220 L356 850 L329 850 L302 850 L235 850 C235 850 234 849 233 846 C227 837 224 831 224 831 L292 795 L292 795 L161 55 L75 19 C74 19 76 13 79 4 C80 1 80 0 80 0 L151 0 L178 0 L205 0 L294 0 C294 0 295 1 297 4 C304 13 308 19 308 19 L215 55 L215 55 L325 676 L607 27 L621 -5 L670 -5 L695 137 L810 795 L811 795 L892 831 C892 831 890 837 888 846 C887 849 887 850 887 850 L820 850 L794 850 L767 850 L678 850 C678 850 677 849 675 846 C668 837 663 831 663 831 L758 795 L758 795 Z " />
<glyph glyph-name="ncaron" unicode="&#x148;" horiz-adv-x="598" d="M586 710 L410 535 L387 535 L279 710 L288 710 L416 631 L576 710 L586 710 L586 710 Z M503 50 L503 50 L554 343 C567 413 524 460 448 460 C402 460 351 430 298 384 L306 460 L283 460 L129 399 C128 399 128 399 128 398 C123 394 120 390 120 390 L175 334 L125 50 L54 18 C54 18 55 12 57 3 C58 1 58 0 58 0 L116 0 L174 0 L231 0 L293 0 C293 0 294 1 295 3 C301 12 304 18 304 18 L240 50 L240 50 L294 360 C328 388 364 406 406 406 C433 406 443 354 429 277 L389 50 L313 18 C313 18 315 12 317 3 C317 1 318 0 318 0 L380 0 L437 0 L495 0 L553 0 L554 3 C559 12 563 18 563 18 L503 50 L503 50 Z " />
<glyph glyph-name="Omacron" unicode="&#x14c;" horiz-adv-x="817" d="M429 953 L695 953 L707 1025 L441 1025 L429 953 L429 953 Z M429 28 C300 28 244 205 291 470 C328 681 428 822 540 822 C669 822 723 642 675 373 C639 166 541 28 429 28 L429 28 Z M144 419 C99 162 204 -10 407 -10 C611 -10 777 163 822 423 C869 685 764 860 560 860 C357 860 191 684 144 419 L144 419 Z " />
<glyph glyph-name="omacron" unicode="&#x14d;" horiz-adv-x="548" d="M246 593 L512 593 L524 665 L258 665 L246 593 L246 593 Z M288 22 C227 22 200 103 222 225 C243 347 285 428 339 428 C400 428 427 347 405 225 C384 103 342 22 288 22 L288 22 Z M90 225 C65 84 138 -10 272 -10 C420 -10 513 84 538 225 C563 366 490 460 355 460 C207 460 115 366 90 225 L90 225 Z " />
<glyph glyph-name="Racute" unicode="&#x154;" horiz-adv-x="692" d="M453 895 L462 895 L662 1008 C671 1012 679 1031 683 1054 L568 1054 L453 895 L453 895 Z M627 50 L627 50 L505 426 C587 461 669 536 686 634 C709 764 636 850 503 850 L424 850 L359 850 L294 850 L223 850 C223 850 222 849 221 846 L211 831 L284 795 L284 795 L153 55 L67 19 C66 19 68 13 71 4 C72 1 72 0 72 0 L143 0 L208 0 L273 0 L339 0 C339 0 340 1 342 4 C347 13 351 19 351 19 L283 55 L345 404 L375 404 L499 0 L571 0 L643 0 L679 0 L681 4 C685 13 687 17 687 17 L627 50 L627 50 Z M353 446 L417 807 L479 807 C538 807 564 733 545 622 C526 516 444 446 393 446 L353 446 L353 446 Z " />
<glyph glyph-name="racute" unicode="&#x155;" horiz-adv-x="418" d="M356 530 L365 530 L568 655 C576 661 585 681 589 707 L474 707 L356 530 L356 530 Z M239 50 L239 50 L291 344 C306 360 320 373 333 383 C336 368 366 347 394 334 C415 322 428 314 428 313 L435 313 C468 362 491 401 492 409 C494 417 492 426 487 434 C483 441 478 446 471 450 C464 453 436 460 417 460 C389 460 347 425 296 371 L297 375 L297 375 L306 460 L283 460 L129 399 C128 399 128 398 128 398 L120 390 L175 334 L125 50 L54 18 C54 18 55 12 57 3 C58 1 58 0 58 0 L116 0 L174 0 L231 0 L293 0 C293 0 294 1 295 3 C301 12 304 18 304 18 L239 50 L239 50 Z " />
<glyph glyph-name="Rcaron" unicode="&#x158;" horiz-adv-x="692" d="M647 1057 L474 900 L451 900 L340 1057 L349 1057 L479 986 L637 1057 L647 1057 L647 1057 Z M627 50 L627 50 L505 426 C587 461 669 536 686 634 C709 764 636 850 503 850 L424 850 L359 850 L294 850 L223 850 C223 850 222 849 221 846 L211 831 L284 795 L284 795 L153 55 L67 19 C66 19 68 13 71 4 C72 1 72 0 72 0 L143 0 L208 0 L273 0 L339 0 C339 0 340 1 342 4 C347 13 351 19 351 19 L283 55 L345 404 L375 404 L499 0 L571 0 L643 0 L679 0 L681 4 C685 13 687 17 687 17 L627 50 L627 50 Z M353 446 L417 807 L479 807 C538 807 564 733 545 622 C526 516 444 446 393 446 L353 446 L353 446 Z " />
<glyph glyph-name="rcaron" unicode="&#x159;" horiz-adv-x="418" d="M543 710 L368 535 L345 535 L236 710 L245 710 L373 631 L534 710 L543 710 L543 710 Z M239 50 L239 50 L291 344 C306 360 320 373 333 383 C336 368 366 347 394 334 C415 322 428 314 428 313 L435 313 C468 362 491 401 492 409 C494 417 492 426 487 434 C483 441 478 446 471 450 C464 453 436 460 417 460 C389 460 347 425 296 371 L297 375 L297 375 L306 460 L283 460 L129 399 C128 399 128 398 128 398 L120 390 L175 334 L125 50 L54 18 C54 18 55 12 57 3 C58 1 58 0 58 0 L116 0 L174 0 L231 0 L293 0 C293 0 294 1 295 3 C301 12 304 18 304 18 L239 50 L239 50 Z " />
<glyph glyph-name="Sacute" unicode="&#x15a;" horiz-adv-x="546" d="M421 895 L430 895 L631 1008 C639 1012 647 1031 651 1054 L536 1054 L421 895 L421 895 Z M79 23 L73 -6 C81 -8 164 -10 281 -10 C406 -10 507 90 534 240 C551 339 511 416 419 489 C349 545 317 602 330 673 C346 763 383 823 424 823 C455 823 485 821 511 818 C526 815 537 803 540 788 C543 766 548 738 552 717 C556 718 560 720 564 721 C567 722 572 724 575 725 L592 802 C593 802 594 802 595 802 L599 828 L599 828 L605 854 C599 857 533 859 440 859 C319 859 221 766 196 625 C180 532 217 462 300 395 C381 331 418 272 406 205 C387 97 341 25 290 25 C246 25 200 29 159 35 L159 35 C151 36 145 43 144 51 C141 80 136 120 133 150 C129 148 125 146 121 145 C118 143 113 141 109 140 L89 50 C88 50 87 50 86 50 L81 21 L81 21 L79 23 L79 23 Z M599 827 L604 854 L600 827 L600 827 L599 827 L599 827 Z " />
<glyph glyph-name="sacute" unicode="&#x15b;" horiz-adv-x="442" d="M309 530 L318 530 L521 655 C529 661 538 681 542 707 L427 707 L309 530 L309 530 Z M69 39 L64 21 C101 2 161 -10 215 -10 C309 -10 381 45 395 128 C411 216 380 261 308 282 C257 297 234 323 243 370 C249 406 270 430 296 430 C300 430 305 430 310 429 L310 429 C349 424 380 393 386 352 C387 346 388 338 389 333 C392 333 396 334 398 335 C401 336 405 336 408 337 L421 387 C422 386 423 385 424 384 L428 404 L428 404 L433 422 C400 444 346 458 299 458 C214 458 149 405 135 325 C120 243 148 201 214 181 C271 164 298 137 289 89 C281 45 253 15 218 15 C207 15 195 16 182 19 L182 19 C153 24 128 48 119 78 C116 91 112 108 108 121 C106 120 103 119 100 118 C97 117 94 116 92 115 L76 56 C75 57 74 58 73 59 L69 39 C70 39 71 39 72 39 L69 39 L69 39 Z M431 405 L434 424 L431 405 L431 405 L431 405 Z M71 40 L68 21 L71 40 L71 40 L71 40 Z " />
<glyph glyph-name="Scedilla" unicode="&#x15e;" horiz-adv-x="546" d="M273 -51 L300 -9 C416 1 508 98 534 240 C551 339 511 416 419 489 C349 545 317 602 330 673 C346 763 383 823 424 823 C455 823 485 821 511 818 C526 815 537 803 540 788 C543 766 548 738 552 717 C556 718 560 720 564 721 C567 722 572 724 575 725 L592 802 C593 802 594 802 595 802 L599 828 L599 828 L605 854 C599 857 533 859 440 859 C319 859 221 766 196 625 C180 532 217 462 300 395 C381 331 418 272 406 205 C387 97 341 25 290 25 C246 25 200 29 159 35 L159 35 C151 36 145 43 144 51 C141 80 136 120 133 150 C129 148 125 146 121 145 C118 143 113 141 109 140 L89 50 C88 50 87 50 86 50 L81 21 L81 21 L75 -8 C83 -10 162 -12 275 -12 L198 -132 L218 -142 C242 -145 255 -157 252 -174 C248 -202 241 -221 235 -221 C202 -221 173 -216 165 -207 L163 -216 C181 -231 213 -242 243 -242 C293 -242 333 -206 342 -151 C351 -102 325 -65 275 -53 L273 -51 L273 -51 Z M599 826 L604 853 L600 826 L600 826 L599 826 L599 826 Z " />
<glyph glyph-name="scedilla" unicode="&#x15f;" horiz-adv-x="442" d="M207 -51 L234 -9 C319 -2 383 51 396 128 C412 216 381 261 309 282 C258 297 235 323 244 370 C250 406 271 430 297 430 C301 430 306 430 311 429 L311 429 C350 424 381 393 387 352 C388 346 389 338 390 333 C393 333 397 334 399 335 C402 336 406 336 409 337 L422 387 C423 386 424 385 425 384 L429 404 L429 404 L434 422 C401 444 347 458 300 458 C215 458 150 405 136 325 C121 243 149 201 215 181 C272 164 299 137 290 89 C282 45 254 15 219 15 C208 15 196 16 183 19 L183 19 C154 24 129 48 120 78 C117 91 113 108 109 121 C107 120 104 119 101 118 C98 117 95 116 93 115 L77 56 C76 57 75 58 74 59 L70 39 C71 39 72 39 73 39 L68 21 C103 3 159 -9 211 -10 L135 -130 L155 -140 C178 -143 192 -155 189 -172 C184 -200 177 -219 172 -219 C139 -219 110 -214 101 -205 L100 -214 C118 -229 150 -240 179 -240 C229 -240 269 -204 279 -149 C287 -100 261 -63 212 -51 L207 -51 L207 -51 Z M433 405 L436 424 L433 405 L433 405 L433 405 Z M73 40 L70 21 L73 40 L73 40 L73 40 Z " />
<glyph glyph-name="Scaron" unicode="&#x160;" horiz-adv-x="546" d="M620 1057 L448 900 L425 900 L313 1057 L322 1057 L452 985 L611 1057 L620 1057 L620 1057 Z M79 23 L73 -6 C81 -8 164 -10 281 -10 C406 -10 507 90 534 240 C551 339 511 416 419 489 C349 545 317 602 330 673 C346 763 383 823 424 823 C455 823 485 821 511 818 C526 815 537 803 540 788 C543 766 548 738 552 717 C556 718 560 720 564 721 C567 722 572 724 575 725 L592 802 C593 802 594 802 595 802 L599 828 L599 828 L605 854 C599 857 533 859 440 859 C319 859 221 766 196 625 C180 532 217 462 300 395 C381 331 418 272 406 205 C387 97 341 25 290 25 C246 25 200 29 159 35 L159 35 C151 36 145 43 144 51 C141 80 136 120 133 150 C129 148 125 146 121 145 C118 143 113 141 109 140 L89 50 C88 50 87 50 86 50 L81 21 L81 21 L79 23 L79 23 Z M599 827 L604 854 L600 827 L600 827 L599 827 L599 827 Z " />
<glyph glyph-name="scaron" unicode="&#x161;" horiz-adv-x="442" d="M496 710 L321 535 L298 535 L189 710 L198 710 L326 631 L487 710 L496 710 L496 710 Z M69 39 L64 21 C101 2 161 -10 215 -10 C309 -10 381 45 395 128 C411 216 380 261 308 282 C257 297 234 323 243 370 C249 406 270 430 296 430 C300 430 305 430 310 429 L310 429 C349 424 380 393 386 352 C387 346 388 338 389 333 C392 333 396 334 398 335 C401 336 405 336 408 337 L421 387 C422 386 423 385 424 384 L428 404 L428 404 L433 422 C400 444 346 458 299 458 C214 458 149 405 135 325 C120 243 148 201 214 181 C271 164 298 137 289 89 C281 45 253 15 218 15 C207 15 195 16 182 19 L182 19 C153 24 128 48 119 78 C116 91 112 108 108 121 C106 120 103 119 100 118 C97 117 94 116 92 115 L76 56 C75 57 74 58 73 59 L69 39 C70 39 71 39 72 39 L69 39 L69 39 Z M431 405 L434 424 L431 405 L431 405 L431 405 Z M71 40 L68 21 L71 40 L71 40 L71 40 Z " />
<glyph glyph-name="Tcaron" unicode="&#x164;" horiz-adv-x="683" d="M684 1057 L512 900 L489 900 L377 1057 L386 1057 L516 985 L675 1057 L684 1057 L684 1057 Z M342 0 L407 0 L495 0 C495 0 496 1 498 4 C505 13 510 19 510 19 L417 55 C458 288 509 577 549 808 L695 808 L717 663 C717 663 725 668 737 677 C739 678 740 679 740 679 C750 717 764 766 775 808 L781 808 L789 850 L787 850 L778 850 L769 850 L737 850 L556 850 L427 850 L247 850 L214 850 L205 850 L197 850 L195 850 L187 808 L193 808 L183 679 C183 679 184 678 186 677 C194 668 200 663 201 663 L273 808 L420 808 L287 55 L181 19 C180 19 183 13 187 4 C188 1 188 0 188 0 L277 0 L342 0 L342 0 Z " />
<glyph glyph-name="tcaron" unicode="&#x165;" horiz-adv-x="393" d="M550 750 L442 750 L386 563 L395 563 L532 705 C539 713 546 731 550 750 L550 750 Z M373 53 L372 61 C368 55 341 51 306 51 C260 51 235 88 245 144 L293 414 L424 414 L431 450 L299 450 L320 573 L312 573 L184 450 L92 418 L91 414 L177 414 L178 414 L125 120 C112 42 153 -10 228 -10 C290 -10 348 15 373 53 L373 53 Z " />
<glyph glyph-name="Utilde" unicode="&#x168;" horiz-adv-x="796" d="M409 895 C424 925 438 945 469 945 C520 945 554 884 605 884 C651 884 683 938 724 1020 L714 1020 C699 989 685 968 654 968 C603 968 569 1029 518 1029 C472 1029 440 975 399 895 L409 895 L409 895 Z M737 795 L737 795 L648 285 C621 133 532 31 426 31 C331 31 289 148 321 324 L404 795 L491 831 L486 846 C485 849 485 850 485 850 L414 850 L349 850 L285 850 L213 850 C214 850 213 849 211 846 L201 831 L275 795 L275 795 L188 301 C155 115 236 -10 391 -10 C546 -10 671 115 704 301 L791 795 L878 831 L873 846 C873 849 872 850 872 850 L801 850 L774 850 L747 850 L658 850 C658 850 657 849 656 846 C648 837 644 831 644 831 L737 795 L737 795 Z " />
<glyph glyph-name="utilde" unicode="&#x169;" horiz-adv-x="560" d="M228 535 C243 565 257 585 288 585 C340 585 373 524 424 524 C470 524 503 578 543 660 L533 660 C518 629 504 608 473 608 C422 608 388 669 337 669 C290 669 258 615 218 535 L228 535 L228 535 Z M479 50 L479 50 L549 450 L492 450 L434 450 L372 450 C372 450 371 449 370 447 C366 439 362 433 361 433 L425 400 L425 400 L371 93 C330 62 290 46 258 46 C232 46 223 98 237 176 L285 450 L228 450 L170 450 L113 450 C112 450 112 449 111 447 C107 439 103 433 102 433 L161 400 L110 107 C97 37 139 -10 213 -10 C248 -10 304 16 368 69 L356 0 L413 0 L471 0 L533 0 C533 0 534 1 535 3 C540 12 544 18 544 18 L479 50 L479 50 Z M362 433 L362 433 L362 433 Z M103 433 L103 433 L103 433 Z " />
<glyph glyph-name="Umacron" unicode="&#x16a;" horiz-adv-x="796" d="M438 953 L704 953 L717 1025 L451 1025 L438 953 L438 953 Z M737 795 L737 795 L648 285 C621 133 532 31 426 31 C331 31 289 148 321 324 L404 795 L491 831 L486 846 C485 849 485 850 485 850 L414 850 L349 850 L285 850 L213 850 C214 850 213 849 211 846 L201 831 L275 795 L275 795 L188 301 C155 115 236 -10 391 -10 C546 -10 671 115 704 301 L791 795 L878 831 L873 846 C873 849 872 850 872 850 L801 850 L774 850 L747 850 L658 850 C658 850 657 849 656 846 C648 837 644 831 644 831 L737 795 L737 795 Z " />
<glyph glyph-name="umacron" unicode="&#x16b;" horiz-adv-x="560" d="M247 593 L513 593 L526 665 L260 665 L247 593 L247 593 Z M479 50 L479 50 L549 450 L492 450 L434 450 L372 450 C372 450 371 449 370 447 C366 439 362 433 361 433 L425 400 L425 400 L371 93 C330 62 290 46 258 46 C232 46 223 98 237 176 L285 450 L228 450 L170 450 L113 450 C112 450 112 449 111 447 C107 439 103 433 102 433 L161 400 L110 107 C97 37 139 -10 213 -10 C248 -10 304 16 368 69 L356 0 L413 0 L471 0 L533 0 C533 0 534 1 535 3 C540 12 544 18 544 18 L479 50 L479 50 Z M362 433 L362 433 L362 433 Z M103 433 L103 433 L103 433 Z " />
<glyph glyph-name="Uring" unicode="&#x16e;" horiz-adv-x="796" d="M563 918 C551 918 547 955 554 999 C561 1035 572 1059 583 1059 C596 1059 599 1027 591 980 C585 946 572 918 563 918 L563 918 Z M481 989 C473 941 508 900 557 900 C606 900 655 942 664 992 C673 1043 642 1077 588 1077 C533 1077 491 1042 481 989 L481 989 Z M737 795 L737 795 L648 285 C621 133 532 31 426 31 C331 31 289 148 321 324 L404 795 L491 831 L486 846 C485 849 485 850 485 850 L414 850 L349 850 L285 850 L213 850 C214 850 213 849 211 846 L201 831 L275 795 L275 795 L188 301 C155 115 236 -10 391 -10 C546 -10 671 115 704 301 L791 795 L878 831 L873 846 C873 849 872 850 872 850 L801 850 L774 850 L747 850 L658 850 C658 850 657 849 656 846 C648 837 644 831 644 831 L737 795 L737 795 Z " />
<glyph glyph-name="uring" unicode="&#x16f;" horiz-adv-x="560" d="M376 553 C364 553 360 590 368 634 C374 670 385 694 396 694 C409 694 412 662 404 615 C398 581 385 553 376 553 L376 553 Z M295 624 C286 576 321 535 370 535 C419 535 468 577 477 627 C486 678 455 712 401 712 C347 712 304 677 295 624 L295 624 Z M479 50 L479 50 L549 450 L492 450 L434 450 L372 450 C372 450 371 449 370 447 C366 439 362 433 361 433 L425 400 L425 400 L371 93 C330 62 290 46 258 46 C232 46 223 98 237 176 L285 450 L228 450 L170 450 L113 450 C112 450 112 449 111 447 C107 439 103 433 102 433 L161 400 L110 107 C97 37 139 -10 213 -10 C248 -10 304 16 368 69 L356 0 L413 0 L471 0 L533 0 C533 0 534 1 535 3 C540 12 544 18 544 18 L479 50 L479 50 Z M362 433 L362 433 L362 433 Z M103 433 L103 433 L103 433 Z " />
<glyph glyph-name="Ydieresis" unicode="&#x178;" horiz-adv-x="713" d="M634 925 C677 925 711 954 719 997 C726 1040 703 1069 659 1069 C616 1069 582 1040 575 997 C567 954 591 925 634 925 L634 925 Z M419 925 C462 925 496 954 504 997 C511 1040 488 1069 444 1069 C401 1069 367 1040 360 997 C352 954 376 925 419 925 L419 925 Z M709 795 L709 795 L470 449 L359 795 L447 831 C447 831 444 837 440 846 C439 849 439 850 438 850 L341 850 L274 850 L207 850 L181 850 C181 850 180 848 179 845 L173 833 L225 800 L366 403 L305 55 L209 19 C208 19 211 13 214 4 C215 1 215 0 215 0 L295 0 L360 0 L425 0 L505 0 C504 0 505 1 507 4 C514 13 518 19 518 19 L435 55 L500 425 L770 811 L770 811 L828 837 C828 837 827 841 826 847 L826 851 L798 851 L772 851 L746 851 L644 851 C644 851 643 850 641 847 C633 838 628 832 628 832 L709 795 L709 795 Z " />
<glyph glyph-name="Zacute" unicode="&#x179;" horiz-adv-x="646" d="M486 895 L495 895 L696 1008 C704 1012 712 1031 716 1054 L601 1054 L486 895 L486 895 Z M545 808 L115 42 L103 19 L99 0 L108 0 L215 0 L504 0 L537 0 L545 0 L554 0 L556 0 L563 42 L558 42 L567 162 C567 162 566 163 564 164 C556 172 550 177 550 177 L478 42 L239 42 L668 808 L690 847 L691 850 L676 850 L569 850 L313 850 L280 850 L271 850 L263 850 L261 850 L254 808 L259 808 C256 772 253 730 251 698 L253 696 C262 689 268 684 268 684 L339 809 L545 808 L545 808 Z " />
<glyph glyph-name="zacute" unicode="&#x17a;" horiz-adv-x="488" d="M341 530 L350 530 L553 655 C561 661 570 681 574 707 L459 707 L341 530 L341 530 Z M164 433 C156 401 146 359 139 327 L142 324 C149 319 154 315 154 315 L210 415 L335 415 L94 35 L81 14 L79 0 L88 0 L198 0 L414 0 L417 17 L417 17 C423 50 431 94 436 128 C436 128 435 129 433 130 C426 136 421 139 421 140 L370 35 L220 35 L461 415 L485 450 L467 450 L357 450 L218 450 L180 460 C180 460 176 460 171 459 L170 459 C168 451 165 441 164 433 L164 433 Z " />
<glyph glyph-name="Zdot" unicode="&#x17b;" horiz-adv-x="646" d="M499 915 C547 915 585 947 593 995 C602 1043 575 1075 527 1075 C479 1075 442 1043 433 995 C425 947 451 915 499 915 L499 915 Z M545 808 L115 42 L103 19 L99 0 L108 0 L215 0 L504 0 L537 0 L545 0 L554 0 L556 0 L563 42 L558 42 L567 162 C567 162 566 163 564 164 C556 172 550 177 550 177 L478 42 L239 42 L668 808 L690 847 L691 850 L676 850 L569 850 L313 850 L280 850 L271 850 L263 850 L261 850 L254 808 L259 808 C256 772 253 730 251 698 L253 696 C262 689 268 684 268 684 L339 809 L545 808 L545 808 Z " />
<glyph glyph-name="zdot" unicode="&#x17c;" horiz-adv-x="488" d="M355 583 C403 583 440 615 449 663 C457 711 431 743 383 743 C335 743 297 711 289 663 C280 615 307 583 355 583 L355 583 Z M164 433 C156 401 146 359 139 327 L142 324 C149 319 154 315 154 315 L210 415 L335 415 L94 35 L81 14 L79 0 L88 0 L198 0 L414 0 L417 17 L417 17 C423 50 431 94 436 128 C436 128 435 129 433 130 C426 136 421 139 421 140 L370 35 L220 35 L461 415 L485 450 L467 450 L357 450 L218 450 L180 460 C180 460 176 460 171 459 L170 459 C168 451 165 441 164 433 L164 433 Z " />
<glyph glyph-name="Zcaron" unicode="&#x17d;" horiz-adv-x="646" d="M685 1057 L513 900 L490 900 L378 1057 L387 1057 L517 985 L676 1057 L685 1057 L685 1057 Z M545 808 L115 42 L103 19 L99 0 L108 0 L215 0 L504 0 L537 0 L545 0 L554 0 L556 0 L563 42 L558 42 L567 162 C567 162 566 163 564 164 C556 172 550 177 550 177 L478 42 L239 42 L668 808 L690 847 L691 850 L676 850 L569 850 L313 850 L280 850 L271 850 L263 850 L261 850 L254 808 L259 808 C256 772 253 730 251 698 L253 696 C262 689 268 684 268 684 L339 809 L545 808 L545 808 Z " />
<glyph glyph-name="zcaron" unicode="&#x17e;" horiz-adv-x="488" d="M528 710 L353 535 L330 535 L221 710 L230 710 L359 631 L519 710 L528 710 L528 710 Z M164 433 C156 401 146 359 139 327 L142 324 C149 319 154 315 154 315 L210 415 L335 415 L94 35 L81 14 L79 0 L88 0 L198 0 L414 0 L417 17 L417 17 C423 50 431 94 436 128 C436 128 435 129 433 130 C426 136 421 139 421 140 L370 35 L220 35 L461 415 L485 450 L467 450 L357 450 L218 450 L180 460 C180 460 176 460 171 459 L170 459 C168 451 165 441 164 433 L164 433 Z " />
<glyph glyph-name="oogonek" unicode="&#x1eb;" horiz-adv-x="754" d="M751 -116 L753 -106 C746 -110 715 -112 676 -112 C594 -112 503 -69 443 -4 C594 25 710 152 742 332 C778 539 680 678 496 678 C312 678 164 538 127 329 C92 133 183 0 354 -10 C431 -98 523 -156 587 -156 C641 -156 706 -141 750 -117 L751 -116 L751 -116 Z M394 24 C276 24 222 164 259 374 C288 536 375 644 478 644 C595 644 648 501 610 286 C582 129 496 24 394 24 L394 24 Z " />
<glyph glyph-name="G_sc" unicode="&#x262;" horiz-adv-x="706" d="M628 239 L710 275 C710 275 708 281 706 290 C705 292 705 294 705 294 L638 294 L580 294 L521 294 L446 294 C446 294 445 292 443 290 L433 275 L511 239 L477 46 C442 36 410 30 387 30 C271 30 217 158 251 351 C282 526 380 643 496 643 C529 643 564 641 595 637 L595 637 C602 637 608 631 610 624 C617 589 627 543 635 508 C637 510 641 512 645 514 C647 516 651 518 655 520 L691 673 L684 647 L684 647 L691 673 C682 676 606 678 502 678 C314 678 163 531 124 311 C90 118 185 -11 361 -11 C419 -11 512 12 594 47 L628 239 L628 239 Z " />
<glyph glyph-name="I_sc" unicode="&#x26a;" horiz-adv-x="416" d="M258 614 L258 614 L159 55 L72 19 L77 4 C78 1 78 0 78 0 L149 0 L207 0 L265 0 L337 0 C337 0 338 1 339 4 L349 19 L275 55 L275 55 L374 614 L375 614 L461 650 C461 650 460 656 457 665 C456 668 456 669 455 669 L384 669 L326 669 L268 669 L197 669 C197 669 196 668 195 665 L185 650 L258 614 L258 614 Z " />
<glyph glyph-name="N_sc" unicode="&#x274;" horiz-adv-x="749" d="M669 614 L669 614 L594 187 L319 669 L294 669 L270 669 L204 669 C204 669 203 668 201 665 C196 656 192 650 192 650 L260 614 L161 55 L75 19 C74 19 76 13 79 4 C80 1 80 0 80 0 L151 0 L176 0 L200 0 L289 0 C289 0 290 1 291 4 C299 13 303 19 303 19 L210 55 L292 522 L551 24 L566 -5 L608 -5 L630 123 L716 614 L717 614 L798 650 C798 650 797 656 794 665 C793 668 793 669 793 669 L726 669 L702 669 L678 669 L589 669 C589 669 588 668 586 665 C579 656 575 650 575 650 L669 614 L669 614 Z " />
<glyph glyph-name="R_sc" unicode="&#x280;" horiz-adv-x="627" d="M560 50 L560 50 L460 339 C523 369 583 425 596 498 C615 600 553 669 442 669 L380 669 L322 669 L263 669 L192 669 C192 669 191 668 190 665 L180 650 L253 614 L154 55 L68 19 C68 19 69 13 72 4 C73 1 73 0 73 0 L144 0 L203 0 L261 0 L327 0 C328 0 328 1 330 4 C335 13 339 19 339 19 L271 55 L317 315 L340 315 L446 0 L512 0 L577 0 L612 0 L614 4 C618 13 621 17 621 17 L560 50 L560 50 Z M323 354 L372 631 L419 631 C463 631 482 573 467 487 C453 407 388 354 348 354 L323 354 L323 354 Z " />
<glyph glyph-name="Y_sc" unicode="&#x28f;" horiz-adv-x="652" d="M398 55 L398 55 L447 336 L675 629 L735 654 C735 654 734 658 733 664 L733 668 L706 668 L682 668 L659 668 L557 668 C557 668 556 667 554 664 C546 655 541 649 541 649 L617 613 L428 368 L321 613 L321 613 L403 649 C403 649 400 655 396 664 C395 667 394 668 394 668 L297 668 L237 668 L176 668 L152 668 C152 668 151 666 149 663 C146 655 144 651 144 651 L198 618 L328 320 L281 54 L185 18 L190 3 C191 0 191 -1 191 -1 L271 -1 L330 -1 L388 -1 L468 -1 C468 -1 469 0 470 3 C477 12 481 18 481 18 L398 55 L398 55 Z " />
<glyph glyph-name="B_sc" unicode="&#x299;" horiz-adv-x="602" d="M345 364 L325 364 L372 631 L414 631 C461 631 475 571 459 482 C448 415 403 370 346 364 L345 364 L345 364 Z M444 358 C521 387 574 442 586 514 C603 607 554 669 436 669 L379 669 L321 669 L262 669 L191 669 C191 669 190 668 189 665 L179 650 L252 614 L153 55 L67 19 C67 19 68 13 71 4 C72 1 72 0 72 0 L143 0 L202 0 L260 0 L317 0 C458 0 565 77 586 192 C601 277 553 339 442 358 L444 358 L444 358 Z M266 38 L317 325 L381 325 C451 325 477 268 463 182 C447 95 392 38 324 38 L266 38 L266 38 Z " />
<glyph glyph-name="H_sc" unicode="&#x29c;" horiz-adv-x="756" d="M603 614 L603 614 L559 364 L325 364 L369 614 L455 650 C455 650 453 656 451 665 C450 668 450 669 450 669 L379 669 L321 669 L262 669 L191 669 C191 669 190 668 189 665 L179 650 L252 614 L153 55 L67 19 C67 19 68 13 71 4 C72 1 72 0 72 0 L143 0 L202 0 L260 0 L331 0 C331 0 332 1 333 4 L343 19 L270 55 L318 326 L552 326 L504 55 L417 19 L422 4 C423 1 423 0 423 0 L494 0 L552 0 L610 0 L682 0 C682 0 683 1 684 4 L694 19 L620 55 L620 55 L719 614 L720 614 L806 650 C806 650 805 656 802 665 C801 668 801 669 801 669 L729 669 L671 669 L613 669 L542 669 C542 669 541 668 540 665 L530 650 L603 614 L603 614 Z " />
<glyph glyph-name="L_sc" unicode="&#x29f;" horiz-adv-x="578" d="M510 38 C514 85 518 141 522 185 L520 187 C511 197 505 203 505 203 L431 38 L269 38 L371 614 L462 650 L457 665 C457 668 456 669 456 669 L381 669 L323 669 L264 669 L193 669 C193 669 192 668 191 665 L181 650 L254 614 L155 55 L69 19 C69 19 70 13 73 4 C74 1 74 0 74 0 L145 0 L174 0 L204 0 L262 0 L458 0 L490 0 L499 0 L508 0 L509 0 L516 38 L510 38 L510 38 Z " />
<glyph glyph-name="A_sc" unicode="&#x1d00;" horiz-adv-x="694" d="M607 45 L606 45 L503 637 L497 674 L433 674 L395 603 L395 603 L93 35 L34 12 C34 12 35 8 36 3 C37 1 37 0 37 0 L75 0 L99 0 L122 0 L211 0 C211 0 212 1 213 3 C220 12 225 18 225 18 L148 50 L250 245 L250 245 L453 245 L453 246 L485 50 L388 18 C387 18 390 12 395 3 C396 1 397 0 397 0 L493 0 L554 0 L614 0 L655 0 C655 0 656 1 657 4 C661 11 664 16 664 16 L607 45 L607 45 Z M447 283 L270 283 L405 542 L447 283 L447 283 Z " />
<glyph glyph-name="C_sc" unicode="&#x1d04;" horiz-adv-x="648" d="M560 15 L557 -5 L560 15 L560 15 L560 15 Z M557 -5 L561 15 C577 17 578 18 562 18 L567 43 C566 43 565 43 564 43 L576 132 C573 134 570 136 568 138 C566 139 563 141 561 143 C543 113 518 73 499 43 C495 37 488 32 482 30 C445 26 404 24 364 24 C262 24 218 155 252 351 C283 526 377 643 487 643 C518 643 550 641 579 637 C585 635 589 630 591 623 C598 588 608 542 616 507 C618 509 622 511 626 513 C628 515 632 517 636 519 L672 672 L665 646 L665 646 L672 672 C663 675 592 677 493 677 C311 677 164 530 125 310 C91 117 184 -12 358 -12 C466 -12 545 -10 557 -7 L557 -5 L557 -5 Z " />
<glyph glyph-name="D_sc" unicode="&#x1d05;" horiz-adv-x="721" d="M228 0 L261 0 L355 0 C534 6 675 131 716 367 C752 566 643 669 452 669 L379 669 L321 669 L262 669 L191 669 C191 669 190 668 189 665 L179 650 L252 614 L153 55 L67 19 C67 19 68 13 71 4 C72 1 72 0 72 0 L143 0 L202 0 L228 0 L228 0 Z M267 38 L372 631 L427 631 C556 631 623 526 587 323 C555 139 467 42 361 38 L267 38 L267 38 Z " />
<glyph glyph-name="E_sc" unicode="&#x1d07;" horiz-adv-x="595" d="M526 38 L535 149 L533 151 C525 158 519 163 519 163 L452 38 L268 38 L319 326 L408 326 L436 246 C436 246 443 249 455 253 C458 254 460 255 460 255 C464 276 469 303 473 326 L473 326 L476 345 C481 371 487 408 492 435 C492 435 490 435 488 436 C477 441 471 444 471 444 L414 364 L325 364 L372 631 L531 631 L557 516 C557 516 564 520 575 527 C577 528 578 529 578 529 C586 559 596 597 605 630 L610 630 L617 668 L616 668 L607 668 L598 668 L566 668 L378 668 L320 668 L290 668 L261 668 L190 668 C190 668 189 667 188 664 L178 649 L251 613 L152 54 L66 18 C66 18 67 12 70 3 C71 0 71 -1 71 -1 L142 -1 L171 -1 L201 -1 L259 -1 L472 -1 L504 -1 L513 -1 L522 -1 L523 -1 L530 37 L526 38 L526 38 Z " />
<glyph glyph-name="J_sc" unicode="&#x1d0a;" horiz-adv-x="416" d="M258 614 L258 614 L159 51 C141 -54 104 -123 67 -123 C65 -123 47 -118 22 -111 L16 -111 C8 -111 -5 -153 -5 -155 C-7 -166 9 -173 34 -173 C155 -173 264 -10 308 235 L374 614 L375 614 L461 650 C461 650 460 656 457 665 C456 668 456 669 455 669 L384 669 L326 669 L268 669 L197 669 C197 669 196 668 195 665 L185 650 L258 614 L258 614 Z " />
<glyph glyph-name="K_sc" unicode="&#x1d0b;" horiz-adv-x="711" d="M254 614 L254 614 L155 55 L154 55 L68 19 L73 4 C73 1 74 0 74 0 L145 0 L203 0 L261 0 L332 0 C332 0 333 1 335 4 C341 13 345 19 344 19 L271 55 L271 55 L370 614 L457 650 L452 665 C452 668 451 669 451 669 L380 669 L322 669 L264 669 L193 669 C193 669 192 668 190 665 L180 650 L254 614 L254 614 Z M536 652 L607 619 L322 343 L512 0 L584 0 L656 0 L680 0 L682 4 L687 14 L632 40 L419 396 L674 629 L743 655 C742 655 742 659 741 665 L741 669 L718 669 L688 669 L658 669 L552 669 L549 666 C541 658 536 652 535 652 L536 652 L536 652 Z M535 652 L535 652 L535 652 Z " />
<glyph glyph-name="M_sc" unicode="&#x1d0d;" horiz-adv-x="918" d="M734 0 L789 0 L850 0 L852 4 C858 13 861 19 861 19 L797 55 L874 614 L875 614 L968 650 C969 650 966 656 963 665 C962 668 962 669 962 669 L882 669 L828 669 L773 669 L513 129 L416 669 L332 669 L313 669 L293 669 L214 669 C214 669 213 668 211 665 C204 656 200 650 200 650 L281 614 L161 55 L73 19 L78 4 C78 2 79 0 79 0 L149 0 L170 0 L191 0 L266 0 C266 0 267 1 269 4 L279 19 L202 55 L310 571 L418 -5 L476 -5 L469 38 L418 -5 L469 39 L476 -5 L519 81 L520 82 L520 83 L757 560 L687 55 L686 55 L602 19 C602 19 604 13 606 4 C607 1 607 0 607 0 L679 0 L734 0 L734 0 Z " />
<glyph glyph-name="O_sc" unicode="&#x1d0f;" horiz-adv-x="754" d="M395 25 C277 25 223 165 260 375 C289 537 376 645 479 645 C596 645 649 502 611 287 C583 130 497 25 395 25 L395 25 Z M128 330 C92 126 191 -10 375 -10 C559 -10 706 127 743 333 C779 540 681 679 497 679 C313 679 165 539 128 330 L128 330 Z " />
<glyph glyph-name="P_sc" unicode="&#x1d18;" horiz-adv-x="602" d="M203 0 L261 0 L345 0 C345 0 347 1 348 4 C355 13 359 19 359 19 L271 55 L315 302 L362 302 C497 302 600 376 620 488 C639 597 572 669 452 669 L380 669 L322 669 L263 669 L192 669 C192 669 191 668 190 665 L180 650 L253 614 L154 55 L68 19 C68 19 69 13 72 4 C73 1 73 0 73 0 L144 0 L203 0 L203 0 Z M321 340 L372 631 L429 631 C483 631 508 570 492 477 C477 395 433 340 382 340 L321 340 L321 340 Z " />
<glyph glyph-name="T_sc" unicode="&#x1d1b;" horiz-adv-x="620" d="M310 0 L369 0 L458 0 C457 0 459 1 460 4 C467 13 472 19 472 19 L379 55 C410 235 449 455 481 632 L603 632 L624 487 C624 487 632 493 644 501 C646 502 647 503 647 503 C658 541 671 591 682 632 L687 632 L694 670 L692 670 L684 670 L675 670 L642 670 L487 670 L370 670 L215 670 L182 670 L173 670 L165 670 L163 670 L156 632 L162 632 L152 503 L154 501 C163 493 169 487 169 487 L242 632 L363 632 C332 455 293 235 261 55 L155 19 C154 19 157 13 161 4 C162 1 162 0 162 0 L251 0 L310 0 L310 0 Z " />
<glyph glyph-name="U_sc" unicode="&#x1d1c;" horiz-adv-x="737" d="M653 614 L653 614 L584 222 C563 105 488 27 395 27 C313 27 275 119 299 258 L362 614 L363 614 L449 650 L444 665 C444 668 444 669 443 669 L372 669 L314 669 L256 669 L185 669 C185 669 184 668 182 665 C177 656 173 650 172 650 L246 614 L246 614 L180 237 C154 89 227 -10 364 -10 C500 -10 609 89 635 237 L701 614 L788 650 L783 665 C782 668 782 669 782 669 L711 669 L687 669 L663 669 L574 669 C574 669 573 668 571 665 C564 656 559 650 559 650 L653 614 L653 614 Z " />
<glyph glyph-name="V_sc" unicode="&#x1d20;" horiz-adv-x="669" d="M207 619 L207 619 L318 7 L320 -5 L352 -5 L695 629 L753 655 C753 655 752 659 751 666 C751 668 750 669 750 669 L716 669 L692 669 L669 669 L580 669 C580 669 579 668 578 665 C571 656 566 650 566 650 L640 614 L394 150 L327 614 L327 614 L425 650 C425 650 422 656 418 665 C417 668 416 669 416 669 L319 669 L259 669 L198 669 L156 669 L154 665 C149 657 147 652 147 652 L207 619 L207 619 Z " />
<glyph glyph-name="W_sc" unicode="&#x1d21;" horiz-adv-x="913" d="M890 614 L890 614 L699 185 L595 633 L586 674 L568 674 L556 649 L338 187 L311 614 L414 650 C414 650 411 656 407 665 C406 668 405 669 405 669 L308 669 L248 669 L187 669 L144 669 C144 669 143 668 142 665 C138 658 135 653 134 652 L193 619 L262 25 L266 -5 L288 -5 L298 15 L537 510 L629 25 L635 -5 L655 -5 L664 15 L945 629 L1011 655 C1011 655 1010 659 1008 666 L1008 669 L963 669 L939 669 L916 669 L827 669 C827 669 825 668 824 665 C817 656 812 650 812 650 L890 614 L890 614 Z M134 652 L134 652 L134 652 Z " />
<glyph glyph-name="Z_sc" unicode="&#x1d22;" horiz-adv-x="586" d="M466 631 L115 38 L102 17 L99 0 L108 0 L204 0 L444 0 L477 0 L486 0 L494 0 L496 0 L503 38 L498 38 L507 158 C507 158 506 159 504 160 C496 168 490 173 489 173 L417 38 L226 38 L577 631 L599 667 L599 669 L584 669 L488 669 L281 669 L248 669 L240 669 L231 669 L229 669 L223 631 L228 631 C226 595 223 553 220 520 C221 520 222 519 223 518 C232 511 238 506 238 506 L309 631 L466 631 L466 631 Z " />
<glyph glyph-name="Etilde" unicode="&#x1ebc;" horiz-adv-x="658" d="M370 895 C385 925 398 945 430 945 C481 945 514 884 566 884 C612 884 644 938 685 1020 L675 1020 C659 989 645 968 615 968 C563 968 530 1029 479 1029 C433 1029 400 975 360 895 L370 895 L370 895 Z M284 795 L284 795 L153 55 L67 19 C66 19 68 13 71 4 C72 1 72 0 72 0 L143 0 L176 0 L208 0 L273 0 L535 0 L568 0 L577 0 L585 0 L587 0 L594 42 L589 42 C592 78 595 120 597 152 L595 154 C587 162 581 166 581 166 L514 41 L280 41 L346 416 L485 416 L513 336 C513 336 520 339 532 343 C535 344 537 345 537 345 C541 366 545 393 549 417 L550 417 L557 459 L557 459 C561 483 566 509 570 530 C569 530 568 531 565 532 C555 536 548 539 548 539 L492 459 L353 459 L415 808 L623 808 L649 693 C649 693 656 697 667 704 L669 706 C678 736 688 775 697 808 L703 808 L711 850 L709 850 L700 850 L692 850 L659 850 L422 850 L357 850 L325 850 L292 850 L221 850 C221 850 220 849 219 846 L209 831 L284 795 L284 795 Z " />
<glyph glyph-name="endash" unicode="&#x2013;" horiz-adv-x="500" d="M91 231 L491 231 L503 303 L103 303 L91 231 L91 231 Z " />
<glyph glyph-name="emdash" unicode="&#x2014;" horiz-adv-x="1000" d="M91 231 L991 231 L1003 303 L103 303 L91 231 L91 231 Z " />
<glyph glyph-name="quoteleft" unicode="&#x2018;" horiz-adv-x="237" d="M192 490 C205 485 217 481 224 481 C237 481 252 492 261 509 L295 568 L297 583 L255 607 C221 621 202 649 207 677 C212 706 255 729 315 735 L317 750 C233 742 171 701 161 647 C147 565 159 503 192 490 L192 490 Z " />
<glyph glyph-name="quoteright" unicode="&#x2019;" horiz-adv-x="237" d="M259 750 C246 755 234 759 227 759 C214 759 199 748 190 731 L156 672 L154 657 L196 633 C230 619 249 591 244 563 C239 534 196 511 136 505 L134 490 C218 498 280 539 290 593 C304 675 292 737 259 750 L259 750 Z " />
<glyph glyph-name="quotedblleft" unicode="&#x201c;" horiz-adv-x="420" d="M192 490 C205 485 217 481 224 481 C237 481 252 492 261 509 L295 568 L297 583 L255 607 C221 621 202 649 207 677 C212 706 255 729 315 735 L317 750 C233 742 171 701 161 647 C147 565 159 503 192 490 L192 490 Z M375 490 C388 485 400 481 407 481 C420 481 435 492 444 509 L478 568 L480 583 L438 607 C404 621 385 649 390 677 C395 706 438 729 498 735 L500 750 C416 742 354 701 344 647 C330 565 342 503 375 490 L375 490 Z " />
<glyph glyph-name="quotedblright" unicode="&#x201d;" horiz-adv-x="420" d="M442 750 C429 755 417 759 410 759 C397 759 382 748 373 731 L339 672 L337 657 L379 633 C413 619 432 591 427 563 C422 534 379 511 319 505 L317 490 C401 498 463 539 473 593 C487 675 475 737 442 750 L442 750 Z M259 750 C246 755 234 759 227 759 C214 759 199 748 190 731 L156 672 L154 657 L196 633 C230 619 249 591 244 563 C239 534 196 511 136 505 L134 490 C218 498 280 539 290 593 C304 675 292 737 259 750 L259 750 Z " />
<glyph glyph-name="bullet" unicode="&#x2022;" horiz-adv-x="580" d="M313 128 C409 128 484 192 501 288 C518 384 465 448 369 448 C273 448 198 384 181 288 C164 192 217 128 313 128 L313 128 Z " />
<glyph glyph-name="ellipsis" unicode="&#x2026;" horiz-adv-x="730" d="M583 -10 C631 -10 669 22 677 70 C686 118 659 150 611 150 C563 150 526 118 517 70 C509 22 535 -10 583 -10 L583 -10 Z M363 -10 C411 -10 449 22 457 70 C466 118 439 150 391 150 C343 150 306 118 297 70 C289 22 315 -10 363 -10 L363 -10 Z M143 -10 C191 -10 229 22 237 70 C246 118 219 150 171 150 C123 150 86 118 77 70 C69 22 95 -10 143 -10 L143 -10 Z " />
<glyph glyph-name="guilsinglleft" unicode="&#x2039;" horiz-adv-x="241" d="M213 425 L13 248 L213 70 L221 70 L157 248 L221 425 L213 425 L213 425 Z " />
<glyph glyph-name="guilsinglright" unicode="&#x203a;" horiz-adv-x="260" d="M20 425 L97 248 L20 70 L28 70 L241 248 L28 425 L20 425 L20 425 Z " />
<glyph glyph-name="Euro" unicode="&#x20ac;" horiz-adv-x="520" d="M287 359 C291 392 296 427 302 463 C304 476 306 489 309 502 L462 502 L468 535 L316 535 C356 715 416 831 472 831 C468 831 492 808 531 774 L554 729 L561 729 L624 774 C630 779 636 793 639 809 C642 829 641 847 635 852 C629 857 574 860 498 860 C366 860 248 734 186 535 L103 535 L97 502 L176 502 C168 473 161 443 156 412 C153 394 150 376 148 359 L72 359 L66 325 L143 325 C121 121 168 -10 320 -10 C417 -10 488 -7 497 -2 L506 16 L500 16 L500 14 C483 11 438 9 382 9 C287 9 262 131 282 325 L430 325 L436 359 L287 359 L287 359 Z " />
<glyph glyph-name="F_sc" unicode="&#xa730;" horiz-adv-x="560" d="M473 326 L473 326 L476 345 C481 371 487 408 492 435 C492 435 490 435 488 436 C477 441 471 444 471 444 L414 364 L325 364 L372 631 L521 631 L547 516 C547 516 554 520 565 527 C567 528 568 529 568 529 C576 559 586 597 595 630 L600 630 L607 668 L606 668 L597 668 L588 668 L556 668 L378 668 L320 668 L290 668 L261 668 L190 668 C190 668 189 667 188 664 L178 649 L251 613 L152 54 L66 18 C66 18 67 12 70 3 C71 0 71 -1 71 -1 L142 -1 L201 -1 L259 -1 L343 -1 C343 -1 345 0 346 3 C353 12 357 18 357 18 L269 54 L317 325 L406 325 L434 245 C434 245 441 248 453 252 C456 253 458 254 458 254 C462 275 467 302 471 325 L473 326 L473 326 Z " />
<glyph glyph-name="S_sc" unicode="&#xa731;" horiz-adv-x="480" d="M79 21 L73 -5 C82 -8 152 -10 248 -10 C353 -10 438 71 459 192 C473 271 439 333 364 394 C309 438 284 482 293 534 C305 601 331 646 357 646 C376 646 395 645 413 643 L413 643 C427 642 439 631 441 616 C445 594 451 564 454 541 C458 543 462 545 466 546 C469 547 474 549 477 550 L494 626 C495 626 496 626 497 626 L505 675 L501 651 L501 651 L506 675 C499 678 445 680 371 680 C271 680 192 605 172 493 C159 420 189 362 259 307 C322 256 352 211 343 163 C329 80 294 24 256 24 C222 24 186 27 153 32 C148 34 144 39 143 46 C140 76 135 116 131 146 C128 145 123 143 120 141 C117 140 112 138 108 136 L88 47 C87 47 86 47 85 47 L76 -5 L81 21 L81 21 L79 21 L79 21 Z " />
</font>
</svg>
