<?xml version="1.0" encoding="UTF-8"?>
<svg xmlns="http://www.w3.org/2000/svg" xmlns:xlink="http://www.w3.org/1999/xlink" version="1.2" >
<font id="Jerrick Light">
<font-face  font-family="Jerrick" units-per-em="1024" ascent="1105" descent="-300" font-style="normal" font-weight="300" font-stretch="normal" cap-height="850" x-height="669" underline-position="-125" underline-thickness="50" />
<missing-glyph  horiz-adv-x="650" d="" />
<glyph glyph-name="NULL" d="" />
<glyph glyph-name="CR" unicode="&#xd;" horiz-adv-x="256" d="" />
<glyph glyph-name="space" unicode="&#x20;" horiz-adv-x="250" d="" />
<glyph glyph-name="exclam" unicode="&#x21;" horiz-adv-x="203" d="M104 -10 C127 -10 142 5 142 28 C142 50 127 65 104 65 C82 65 67 50 67 28 C67 5 82 -10 104 -10 L104 -10 Z M70 850 L101 168 L108 168 L139 850 L70 850 L70 850 Z " />
<glyph glyph-name="quotedbl" unicode="&#x22;" horiz-adv-x="382" d="M246 930 L268 736 L281 736 L303 930 L246 930 L246 930 Z M80 930 L102 736 L114 736 L136 930 L80 930 L80 930 Z " />
<glyph glyph-name="numbersign" unicode="&#x23;" horiz-adv-x="498" d="M142 421 L141 415 L0 415 L0 385 L134 385 L47 0 L64 0 L151 385 L322 385 L235 0 L252 0 L339 385 L440 385 L440 415 L346 415 L347 421 L498 421 L498 450 L354 450 L444 850 L427 850 L337 450 L166 450 L256 850 L239 850 L149 450 L58 450 L58 421 L142 421 L142 421 Z M159 421 L330 421 L329 415 L158 415 L159 421 L159 421 Z " />
<glyph glyph-name="dollar" unicode="&#x24;" horiz-adv-x="492" d="M293 930 L293 858 C283 859 272 860 261 860 C247 860 234 859 222 857 L222 930 L197 930 L197 851 C109 825 54 745 54 635 C54 538 102 476 197 432 L197 10 C133 23 93 72 93 140 L93 157 L90 159 L72 159 C58 159 48 151 48 140 C48 60 106 4 197 -8 L197 -80 L222 -80 L222 -10 C226 -10 230 -10 234 -10 C255 -10 275 -7 293 -2 L293 -80 L318 -80 L318 6 C396 39 444 119 444 226 C444 306 401 382 318 433 L318 832 C359 815 384 779 384 732 L384 716 L387 713 L405 713 C419 713 429 721 429 732 C429 793 386 838 318 854 L318 930 L293 930 L293 930 Z M293 448 C285 452 276 456 267 460 C251 467 236 474 222 482 L222 840 C233 843 245 845 258 845 C270 845 282 844 293 842 L293 448 L293 448 Z M197 499 C139 538 110 588 110 658 C110 743 143 806 197 832 L197 499 L197 499 Z M222 422 C249 410 273 397 294 382 L294 18 C276 11 256 7 235 7 C231 7 227 7 223 7 L222 422 L222 422 Z M319 362 C370 318 396 264 396 209 C396 128 367 65 319 32 L319 362 L319 362 Z " />
<glyph glyph-name="ampersand" unicode="&#x26;" horiz-adv-x="685" d="M577 555 L590 605 L483 605 L480 602 C474 593 469 588 470 588 L577 555 L577 555 Z M565 55 L565 55 L476 164 C530 261 568 395 608 555 L691 588 C691 588 688 593 684 602 C683 604 682 605 682 605 L620 605 L604 605 L589 605 C546 434 508 290 455 187 L239 451 C345 527 413 622 413 698 C413 794 351 859 257 859 C148 859 76 779 76 658 C76 572 108 524 189 423 C46 329 18 261 18 187 C18 68 93 -11 204 -11 C310 -11 384 33 441 111 L532 -1 L570 -1 L608 -1 L642 -1 C642 -1 643 1 643 5 C646 13 648 18 648 18 L565 55 L565 55 Z M195 414 C198 410 202 406 206 402 L423 135 C370 58 302 15 205 15 C128 15 76 90 76 203 C76 280 96 346 197 415 L195 414 L195 414 Z M232 461 C160 549 132 588 132 670 C132 776 181 847 256 847 C319 847 361 787 361 696 C361 614 311 524 232 461 L232 461 Z " />
<glyph glyph-name="quotesingle" unicode="&#x27;" horiz-adv-x="216" d="M80 930 L102 736 L114 736 L136 930 L80 930 L80 930 Z " />
<glyph glyph-name="parenleft" unicode="&#x28;" horiz-adv-x="209" d="M196 930 C111 829 54 679 54 390 C54 101 111 -49 196 -150 L204 -150 C139 -73 96 69 96 390 C96 711 139 853 204 930 L196 930 L196 930 Z " />
<glyph glyph-name="parenright" unicode="&#x29;" horiz-adv-x="209" d="M55 -150 C140 -49 197 101 197 390 C197 679 140 829 55 930 L47 930 C112 853 155 711 155 390 C155 69 112 -73 47 -150 L55 -150 L55 -150 Z " />
<glyph glyph-name="plus" unicode="&#x2b;" horiz-adv-x="510" d="M239 482 L239 288 L40 288 L40 256 L239 256 L239 52 L271 52 L271 256 L470 256 L470 288 L271 288 L271 482 L239 482 L239 482 Z " />
<glyph glyph-name="comma" unicode="&#x2c;" horiz-adv-x="202" d="M116 57 C109 60 103 62 101 62 C96 62 90 57 85 49 L67 17 L69 11 L90 0 C116 -12 134 -44 134 -79 C134 -123 104 -173 60 -203 L60 -210 C116 -172 153 -113 153 -63 C153 -1 138 47 116 57 L116 57 Z " />
<glyph glyph-name="hyphen" unicode="&#x2d;" horiz-adv-x="375" d="M50 230 L325 230 L325 274 L50 274 L50 230 L50 230 Z " />
<glyph glyph-name="period" unicode="&#x2e;" horiz-adv-x="205" d="M103 -10 C125 -10 140 5 140 28 C140 50 125 65 103 65 C80 65 65 50 65 28 C65 5 80 -10 103 -10 L103 -10 Z " />
<glyph glyph-name="slash" unicode="&#x2f;" horiz-adv-x="231" d="M0 -120 L31 -120 L231 940 L200 940 L0 -120 L0 -120 Z " />
<glyph glyph-name="zero" unicode="0" horiz-adv-x="518" d="M264 6 C162 6 93 183 93 447 C93 685 157 844 253 844 C359 844 429 672 429 413 C429 169 363 6 264 6 L264 6 Z M33 428 C33 165 123 -10 259 -10 C395 -10 485 167 485 433 C485 689 395 860 259 860 C123 860 33 687 33 428 L33 428 Z " />
<glyph glyph-name="one" unicode="1" horiz-adv-x="467" d="M271 0 L298 0 L369 0 C369 0 369 1 371 3 C375 12 378 18 378 18 L298 50 L298 800 L298 850 L285 850 L70 689 L70 677 L245 800 L245 50 L155 18 C155 18 158 12 163 3 C164 1 165 0 165 0 L245 0 L271 0 L271 0 Z " />
<glyph glyph-name="two" unicode="2" horiz-adv-x="480" d="M451 26 L457 140 C457 140 456 141 453 142 C443 148 437 151 437 151 L392 51 L87 51 L87 51 C339 466 438 625 438 654 C438 778 369 860 266 860 C130 860 40 774 40 645 C40 630 50 619 65 619 L92 619 L97 624 L97 655 C97 769 160 844 256 844 C329 844 378 768 378 653 C378 534 286 403 50 16 L50 0 L56 0 L87 0 L400 0 L432 0 L441 0 L450 0 L451 26 L451 26 Z " />
<glyph glyph-name="three" unicode="3" horiz-adv-x="486" d="M180 455 C169 455 158 454 147 453 L147 447 L147 438 C317 450 404 378 404 225 C404 93 337 5 237 5 C149 5 90 65 90 155 L90 171 L85 176 L56 176 C43 176 34 167 34 155 C34 56 115 -10 237 -10 C373 -10 464 84 464 225 C464 367 384 445 229 454 C366 478 436 566 436 689 C436 791 366 859 260 859 C136 859 54 786 54 676 C54 663 64 654 79 654 L105 654 L110 659 L110 683 C110 780 167 844 253 844 C327 844 376 780 376 683 C376 556 310 467 181 454 L180 455 L180 455 Z " />
<glyph glyph-name="four" unicode="4" horiz-adv-x="501" d="M349 850 L308 780 L17 282 L8 267 L8 260 L17 260 L308 260 L308 50 L218 18 C218 18 221 12 226 3 C227 1 228 0 228 0 L308 0 L335 0 L361 0 L432 0 C432 0 433 1 434 3 C439 12 441 18 441 18 L361 50 L361 260 L488 260 L488 282 L361 282 L361 780 L361 850 L349 850 L349 850 Z M308 729 L308 282 L53 282 L308 729 L308 729 Z " />
<glyph glyph-name="five" unicode="5" horiz-adv-x="499" d="M405 850 L102 850 L94 850 L86 850 L86 495 C108 501 150 505 192 505 C323 505 410 414 410 277 C410 114 331 6 212 6 C162 6 114 27 92 60 L85 70 L79 70 L73 56 C70 50 68 46 67 45 C68 44 69 43 70 41 C91 10 143 -10 198 -10 C352 -10 455 115 455 303 C455 440 352 532 197 532 C158 532 121 529 103 524 L103 802 L406 802 L405 850 L405 850 Z M68 45 C67 44 66 45 66 48 C66 47 67 46 68 45 L68 45 Z " />
<glyph glyph-name="six" unicode="6" horiz-adv-x="491" d="M412 860 C186 799 36 576 36 301 C36 114 122 -10 252 -10 C378 -10 462 74 462 199 C462 380 392 500 286 500 C203 500 130 438 96 342 C106 600 229 801 411 850 L412 860 L412 860 Z M95 303 C119 407 190 477 272 477 C351 477 404 361 404 186 C404 77 343 5 251 5 C158 5 96 124 95 303 L95 303 Z " />
<glyph glyph-name="seven" unicode="7" horiz-adv-x="500" d="M50 850 L50 802 L427 802 C219 362 82 43 82 -1 L152 -1 C152 115 275 452 460 842 L460 849 L435 849 L50 850 L50 850 Z " />
<glyph glyph-name="eight" unicode="8" horiz-adv-x="491" d="M304 448 C293 453 281 457 268 461 C164 490 124 568 124 667 C124 775 174 846 250 846 C342 846 404 765 404 643 C404 547 366 475 304 448 L304 448 Z M316 443 C388 468 433 543 433 644 C433 774 361 860 253 860 C143 860 69 775 69 647 C69 550 106 470 197 425 C105 399 47 312 47 192 C47 71 128 -9 249 -9 C371 -9 452 82 452 218 C452 317 405 400 315 443 L316 443 L316 443 Z M208 420 C221 414 236 409 252 405 C350 378 400 298 400 199 C400 83 340 5 251 5 C147 5 77 83 77 200 C77 312 128 394 209 421 L208 420 L208 420 Z " />
<glyph glyph-name="nine" unicode="9" horiz-adv-x="489" d="M80 -10 C305 50 455 273 455 548 C455 735 369 860 240 860 C114 860 30 770 30 596 C30 451 105 354 217 354 C288 354 358 418 395 516 C387 254 263 49 79 0 L80 -10 L80 -10 Z M395 547 C364 445 297 377 228 377 C145 377 89 465 89 596 C89 760 149 845 239 845 C332 845 394 726 395 547 L395 547 Z " />
<glyph glyph-name="colon" unicode="&#x3a;" horiz-adv-x="205" d="M103 206 C125 206 140 221 140 244 C140 266 125 281 103 281 C80 281 65 266 65 244 C65 221 80 206 103 206 L103 206 Z M103 -10 C125 -10 140 5 140 28 C140 50 125 65 103 65 C80 65 65 50 65 28 C65 5 80 -10 103 -10 L103 -10 Z " />
<glyph glyph-name="semicolon" unicode="&#x3b;" horiz-adv-x="202" d="M106 206 C129 206 144 221 144 244 C144 266 129 281 106 281 C84 281 69 266 69 244 C69 221 84 206 106 206 L106 206 Z M116 57 C109 60 103 62 101 62 C96 62 90 57 85 49 L67 17 L69 11 L90 0 C116 -12 134 -44 134 -79 C134 -123 104 -173 60 -203 L60 -210 C116 -172 153 -113 153 -63 C153 -1 138 47 116 57 L116 57 Z " />
<glyph glyph-name="equal" unicode="&#x3d;" horiz-adv-x="500" d="M40 195 L40 164 L460 164 L460 195 L40 195 L40 195 Z M40 380 L40 349 L460 349 L460 380 L40 380 L40 380 Z " />
<glyph glyph-name="question" unicode="&#x3f;" horiz-adv-x="469" d="M198 -5 C221 -5 236 10 236 33 C236 55 221 70 198 70 C176 70 161 55 161 33 C161 10 176 -5 198 -5 L198 -5 Z M173 444 L195 168 L202 168 L210 396 C333 422 413 522 413 654 C413 778 344 860 241 860 C120 860 39 778 39 655 C39 640 49 630 63 630 L89 630 L94 637 L94 661 C94 771 149 845 231 845 C306 845 356 769 356 654 C356 540 282 456 172 444 L173 444 L173 444 Z " />
<glyph glyph-name="A" unicode="A" horiz-adv-x="738" d="M490 350 L585 50 L585 50 L493 18 C493 18 497 12 502 3 L505 0 L601 0 L630 0 L660 0 L701 0 C701 0 701 1 702 4 C705 11 707 16 707 16 L646 45 L391 836 L385 855 L353 855 L87 35 L87 35 L32 12 C32 12 34 8 36 3 C37 1 38 0 38 0 L76 0 L87 0 L99 0 L187 0 C187 0 188 1 189 3 C195 12 198 18 198 18 L115 50 L211 350 L490 350 L490 350 Z M485 368 L217 368 L352 789 L485 368 L485 368 Z " />
<glyph glyph-name="B" unicode="B" horiz-adv-x="647" d="M274 439 L201 439 L201 832 L311 831 C424 831 482 751 482 632 C482 516 399 439 274 439 L274 439 Z M361 437 C471 465 540 543 540 649 C540 770 465 851 318 851 L201 851 L173 851 L145 851 L74 851 C74 851 73 850 72 847 C68 838 65 832 65 832 L145 796 L145 56 L65 20 C65 20 68 14 72 5 C73 2 74 1 74 1 L145 1 L173 1 L201 1 L313 1 C483 1 597 93 597 231 C597 345 517 424 361 438 L361 437 L361 437 Z M201 19 L201 422 L321 422 C465 422 539 344 539 226 C539 102 449 19 313 19 L201 19 L201 19 Z " />
<glyph glyph-name="C" unicode="C" horiz-adv-x="708" d="M618 8 L618 8 C622 9 622 9 617 9 L617 21 L617 21 L613 110 C611 111 607 113 605 115 C603 117 599 119 597 120 C583 90 564 50 550 19 C549 16 547 14 544 13 C495 9 442 6 396 6 C235 6 128 172 128 420 C128 673 241 842 411 842 C447 842 490 840 531 836 L531 836 C534 836 538 834 539 830 C554 795 573 748 588 713 C590 715 594 717 596 719 C599 721 603 723 605 725 L613 851 C585 856 504 859 411 859 C206 859 70 676 70 402 C70 154 200 -11 396 -11 C496 -11 585 -8 618 -3 L618 8 L618 8 Z " />
<glyph glyph-name="D" unicode="D" horiz-adv-x="766" d="M185 0 L201 0 L333 0 C551 8 696 165 696 460 C696 717 548 850 326 850 L201 850 L173 850 L145 850 L74 850 C74 850 73 849 72 846 C68 837 65 831 65 831 L145 795 L145 55 L65 19 C65 19 68 13 72 4 C73 1 74 0 74 0 L145 0 L173 0 L185 0 L185 0 Z M201 18 L201 832 L317 832 C510 832 638 698 638 439 C638 168 516 25 333 18 L201 18 L201 18 Z " />
<glyph glyph-name="E" unicode="E" horiz-adv-x="649" d="M577 18 C574 54 569 97 565 129 C565 130 564 130 563 131 C553 139 546 144 546 143 L501 18 L200 18 L200 429 L404 429 L446 349 C446 349 453 352 464 356 C467 357 469 358 469 358 L469 429 L469 438 L469 447 L469 518 C469 518 467 519 464 520 C453 524 446 527 446 527 L404 447 L200 447 L200 832 L476 832 L522 717 C522 717 529 721 538 728 C540 728 541 729 541 729 C544 760 548 799 551 832 L554 832 L554 850 L553 850 L544 850 L535 850 L503 850 L200 850 L172 850 L158 850 L144 850 L73 850 C73 850 72 849 71 846 C67 837 64 831 64 831 L144 795 L144 55 L64 19 C64 19 67 13 71 4 C72 1 73 0 73 0 L144 0 L158 0 L172 0 L200 0 L528 0 L560 0 L569 0 L578 0 L579 0 L579 18 L577 18 L577 18 Z " />
<glyph glyph-name="F" unicode="F" horiz-adv-x="614" d="M405 429 L447 349 C447 349 454 352 465 356 C468 357 470 358 470 358 L470 429 L470 438 L470 447 L470 518 C470 518 468 519 465 520 C454 524 447 527 447 527 L405 447 L201 447 L201 832 L467 832 L513 717 C513 717 520 721 529 728 C531 728 532 729 532 729 C535 760 539 799 542 832 L545 832 L545 850 L544 850 L535 850 L526 850 L494 850 L201 850 L173 850 L159 850 L145 850 L74 850 C74 850 73 849 72 846 C68 837 65 831 65 831 L145 795 L145 55 L65 19 C65 19 68 13 72 4 C73 1 74 0 74 0 L145 0 L173 0 L201 0 L285 0 C285 0 286 1 287 4 C292 13 296 19 296 19 L201 55 L201 429 L405 429 L405 429 Z " />
<glyph glyph-name="G" unicode="G" horiz-adv-x="764" d="M644 318 L719 354 C720 354 717 360 713 370 C712 372 711 374 711 373 C683 374 645 374 616 373 C586 374 544 374 513 373 C513 373 512 372 511 370 L503 354 L588 318 L588 28 C531 17 463 10 407 10 C240 10 129 175 129 421 C129 674 246 843 422 843 C461 843 507 841 551 837 L551 837 C554 836 558 834 559 831 C574 795 593 749 608 714 C610 716 614 718 616 720 C619 722 623 724 625 726 L633 852 C604 857 519 860 421 860 C210 860 70 677 70 403 C70 155 201 -10 397 -10 C471 -10 570 3 644 23 L644 318 L644 318 Z " />
<glyph glyph-name="H" unicode="H" horiz-adv-x="801" d="M629 0 L657 0 L728 0 C728 0 728 1 730 4 C734 13 737 19 737 19 L657 55 L657 795 L737 831 C737 831 734 837 730 846 C728 849 728 850 728 850 L657 850 L629 850 L601 850 L529 850 C529 850 528 849 528 846 C524 837 521 831 521 831 L601 795 L601 447 L201 447 L201 795 L281 831 C281 831 278 837 274 846 C273 849 272 850 272 850 L201 850 L173 850 L145 850 L74 850 C74 850 73 849 72 846 C68 837 65 831 65 831 L145 795 L145 55 L65 19 C65 19 68 13 72 4 C73 1 74 0 74 0 L145 0 L173 0 L201 0 L272 0 C272 0 273 1 274 4 C278 13 281 19 281 19 L201 55 L201 429 L601 429 L601 55 L521 19 C521 19 524 13 528 4 C528 1 529 0 529 0 L601 0 L629 0 L629 0 Z " />
<glyph glyph-name="I" unicode="I" horiz-adv-x="356" d="M178 0 L206 0 L277 0 C277 0 278 1 279 4 C284 13 286 19 286 19 L206 55 L206 795 L286 831 C286 831 284 837 279 846 C278 849 277 850 277 850 L206 850 L178 850 L150 850 L79 850 C79 850 78 849 77 846 C73 837 70 831 70 831 L150 795 L150 55 L70 19 C70 19 73 13 77 4 C78 1 79 0 79 0 L150 0 L178 0 L178 0 Z " />
<glyph glyph-name="J" unicode="J" horiz-adv-x="356" d="M150 795 L150 64 C150 -64 115 -149 61 -149 C61 -149 54 -147 42 -143 L36 -143 C32 -143 29 -163 29 -165 C29 -170 37 -173 50 -173 C144 -173 206 -30 206 185 L206 795 L286 831 C286 831 284 837 279 846 C278 849 277 850 277 850 L206 850 L178 850 L150 850 L79 850 C79 850 78 849 77 846 C73 837 70 831 70 831 L150 795 L150 795 Z " />
<glyph glyph-name="K" unicode="K" horiz-adv-x="692" d="M443 833 L520 800 L236 472 L236 473 L204 435 L565 0 L602 0 L638 0 L662 0 C662 0 662 2 663 4 C665 10 666 14 666 14 L604 40 L247 460 L559 810 L622 836 C622 836 621 840 618 846 C618 848 617 850 617 850 L594 850 L579 850 L564 850 L458 850 L455 847 C450 839 445 833 444 833 L443 833 L443 833 Z M444 833 L444 833 L444 833 Z M174 0 L203 0 L274 0 C274 0 275 1 275 4 C279 13 282 19 283 19 L203 55 L203 795 L283 831 C282 831 279 837 275 846 C275 849 274 850 274 850 L203 850 L174 850 L146 850 L75 850 C75 850 74 849 74 846 C69 837 66 831 66 831 L146 795 L146 55 L66 19 C66 19 69 13 74 4 C74 1 75 0 75 0 L146 0 L174 0 L174 0 Z " />
<glyph glyph-name="L" unicode="L" horiz-adv-x="629" d="M557 18 C553 64 547 121 543 165 C543 165 542 166 540 167 C529 177 522 184 522 183 L477 18 L201 18 L201 795 L286 831 C286 831 283 837 278 846 C277 849 277 850 276 850 L201 850 L173 850 L145 850 L74 850 C74 850 73 849 72 846 C68 837 65 831 65 831 L145 795 L145 55 L65 19 C65 19 68 13 72 4 C73 1 74 0 74 0 L145 0 L159 0 L173 0 L201 0 L509 0 L541 0 L550 0 L559 0 L560 0 L560 18 L557 18 L557 18 Z " />
<glyph glyph-name="M" unicode="M" horiz-adv-x="959" d="M166 55 L166 55 L191 802 L467 -5 L495 -5 L508 36 L509 37 L509 38 L754 797 L776 56 L776 56 L698 20 C698 20 701 14 705 5 C705 2 706 1 706 1 L778 1 L804 1 L831 1 L892 1 L894 5 C898 14 900 20 900 20 L829 56 L807 796 L894 832 C894 832 891 838 886 847 L884 851 L805 851 L778 851 L752 851 L501 62 L234 851 L193 851 L184 851 L175 851 L95 851 C95 851 94 850 93 847 C88 838 85 832 85 832 L173 796 L146 56 L146 56 L65 20 C65 20 68 14 72 5 L74 1 L144 1 L154 1 L164 1 L240 1 C240 1 241 2 242 5 C246 14 249 20 249 20 L166 55 L166 55 Z " />
<glyph glyph-name="N" unicode="N" horiz-adv-x="799" d="M659 795 L734 831 C735 831 732 837 728 846 C727 849 726 850 726 850 L659 850 L648 850 L636 850 L547 850 C547 850 546 849 545 846 C540 837 536 831 536 831 L636 795 L636 96 L172 850 L160 850 L149 850 L82 850 C82 850 81 849 80 846 C76 837 73 831 74 831 L149 795 L149 55 L69 19 C69 19 72 13 76 4 C76 1 77 0 77 0 L149 0 L160 0 L172 0 L261 0 C261 0 262 1 263 4 C268 13 272 19 272 19 L172 55 L172 775 L630 12 L640 -5 L659 -5 L659 59 L659 795 L659 795 Z " />
<glyph glyph-name="O" unicode="O" horiz-adv-x="798" d="M406 7 C240 7 130 184 130 448 C130 686 235 844 393 844 C558 844 668 667 668 401 C668 165 563 7 406 7 L406 7 Z M70 427 C70 165 202 -10 399 -10 C596 -10 728 163 728 423 C728 685 596 860 399 860 C202 860 70 687 70 427 L70 427 Z " />
<glyph glyph-name="P" unicode="P" horiz-adv-x="646" d="M173 0 L201 0 L285 0 C285 0 286 1 287 4 C292 13 296 19 296 19 L201 55 L201 391 L307 391 C469 391 577 484 577 623 C577 759 479 850 332 850 L201 850 L173 850 L145 850 L74 850 C74 850 73 849 72 846 C68 837 65 831 65 831 L145 795 L145 55 L65 19 C65 19 68 13 72 4 C73 1 74 0 74 0 L145 0 L173 0 L173 0 Z M201 410 L201 832 L325 831 C440 831 516 746 516 618 C516 493 435 410 314 410 L201 410 L201 410 Z " />
<glyph glyph-name="Q" unicode="Q" horiz-adv-x="798" d="M774 -122 L774 -117 C770 -119 751 -120 727 -120 C620 -120 504 -76 432 -9 C610 10 727 178 727 423 C727 685 595 860 398 860 C201 860 69 687 69 427 C69 169 197 -4 388 -10 C471 -89 589 -141 687 -141 C719 -141 754 -134 773 -123 L774 -122 L774 -122 Z M405 6 C239 6 129 183 129 447 C129 685 234 843 392 843 C557 843 667 666 667 400 C667 164 562 6 405 6 L405 6 Z " />
<glyph glyph-name="R" unicode="R" horiz-adv-x="654" d="M572 0 L605 0 L638 0 C638 0 638 2 639 5 C641 13 643 17 643 17 L572 50 L330 419 C424 434 535 517 535 636 C535 765 447 850 316 850 L201 850 L173 850 L145 850 L74 850 C74 850 73 849 72 846 C68 837 65 831 65 831 L145 795 L145 55 L65 19 C65 19 68 13 72 4 C73 1 74 0 74 0 L145 0 L173 0 L201 0 L268 0 C268 0 268 1 269 4 C273 13 276 19 276 19 L201 55 L201 416 L293 416 L539 0 L572 0 L572 0 Z M318 437 L317 439 L314 436 C306 434 298 433 290 433 L201 433 L201 831 L308 830 C408 830 474 750 474 630 C474 526 391 452 318 436 L318 437 L318 437 Z " />
<glyph glyph-name="S" unicode="S" horiz-adv-x="511" d="M75 10 L74 -3 C92 -7 169 -10 265 -10 C380 -10 456 86 456 229 C456 334 399 404 289 461 C192 510 142 570 142 656 C142 769 191 844 265 844 C294 844 321 843 345 841 L345 841 C351 840 358 835 360 828 C369 804 381 770 391 745 C394 746 398 748 401 749 C405 750 409 752 412 754 L415 829 L415 829 L415 841 L415 841 L415 852 C404 857 345 860 267 860 C158 860 85 770 85 635 C85 540 138 476 239 424 C346 369 401 306 401 214 C401 89 346 6 264 6 C220 6 175 8 138 12 C135 13 133 15 132 18 C122 48 110 90 100 120 C97 119 93 117 90 115 C86 114 82 112 79 110 L74 22 L74 22 L74 9 L75 10 L75 10 Z " />
<glyph glyph-name="T" unicode="T" horiz-adv-x="675" d="M338 0 L366 0 L454 0 C454 0 455 1 457 4 C462 13 465 19 466 19 L366 55 L366 832 L547 832 L595 687 C595 687 602 692 612 701 C614 702 615 703 615 703 L627 832 L630 832 L630 850 L629 850 L620 850 L612 850 L579 850 L366 850 L309 850 L96 850 L63 850 L55 850 L46 850 L45 850 L45 832 L48 832 L60 703 C60 703 61 702 63 701 C73 692 80 687 80 687 L128 832 L309 832 L309 55 L209 19 C209 19 213 13 218 4 C220 1 221 0 221 0 L309 0 L338 0 L338 0 Z " />
<glyph glyph-name="U" unicode="U" horiz-adv-x="806" d="M153 795 L153 301 C153 115 255 -10 407 -10 C560 -10 662 115 662 301 L662 795 L742 831 C742 831 739 837 735 846 C733 849 733 850 733 850 L662 850 L650 850 L638 850 L550 850 C550 850 549 849 547 846 C542 837 538 831 538 831 L638 795 L638 294 C638 122 551 8 419 8 C293 8 209 129 209 311 L209 795 L289 831 C289 831 286 837 282 846 C281 849 280 850 280 850 L209 850 L181 850 L153 850 L82 850 C82 850 81 849 80 846 C76 837 73 831 73 831 L153 795 L153 795 Z " />
<glyph glyph-name="V" unicode="V" horiz-adv-x="723" d="M612 795 L384 77 L157 795 L158 795 L250 831 C251 831 247 837 240 846 C239 849 238 850 238 850 L140 850 L111 850 L82 850 L39 850 C39 850 39 848 38 846 C35 838 33 833 33 833 L98 800 L360 1 L362 -5 L377 -5 L640 810 L693 836 C693 836 692 840 689 847 C689 849 688 850 688 850 L653 850 L641 850 L630 850 L541 850 C541 850 541 849 539 846 C534 837 530 831 530 831 L612 795 L612 795 Z " />
<glyph glyph-name="W" unicode="W" horiz-adv-x="967" d="M863 795 L712 110 L497 817 L485 855 L483 855 L476 824 L310 111 L140 795 L140 795 L236 831 C237 831 233 837 226 846 C225 849 224 850 224 850 L126 850 L97 850 L68 850 L24 850 C24 850 24 848 23 846 C20 838 18 833 18 833 L81 800 L289 23 L296 -5 L301 -5 L306 19 L479 747 L692 23 L700 -5 L704 -5 L710 19 L888 810 L888 810 L949 836 C948 836 946 840 944 847 C943 849 942 850 942 850 L897 850 L885 850 L874 850 L785 850 C785 850 784 849 783 846 C778 837 774 831 774 831 L863 795 L863 795 Z " />
<glyph glyph-name="X" unicode="X" horiz-adv-x="728" d="M562 795 L563 795 L388 457 L184 795 L271 831 C271 831 267 837 260 846 C259 849 258 850 258 850 L151 850 L118 850 L86 850 L60 850 C60 850 60 848 59 845 L56 833 L115 800 L116 800 L341 423 L116 50 L116 50 L51 18 C51 18 53 13 55 5 C56 2 56 0 56 0 L86 0 L108 0 L129 0 L245 0 C245 0 246 1 248 4 C254 13 259 19 259 19 L161 55 L358 393 L560 55 L560 55 L483 19 L493 4 C494 1 495 0 495 0 L593 0 L629 0 L665 0 L691 0 C691 0 691 2 692 4 C694 11 695 16 695 16 L638 44 L406 427 L609 805 L664 833 C664 833 663 838 661 845 C660 847 660 849 660 849 L633 849 L612 849 L592 849 L485 849 C486 849 485 848 483 845 C476 836 472 830 472 830 L562 795 L562 795 Z " />
<glyph glyph-name="Y" unicode="Y" horiz-adv-x="706" d="M588 795 L588 795 L373 413 L149 795 L227 831 C228 831 224 837 217 846 C216 849 215 850 215 850 L117 850 L88 850 L59 850 L34 850 C34 850 34 848 33 845 C31 837 29 832 30 833 L88 801 L330 389 L330 55 L240 19 C240 19 243 13 248 4 C249 1 250 0 250 0 L330 0 L358 0 L386 0 L466 0 C466 0 467 1 468 4 C473 13 476 19 476 19 L386 55 L386 399 L619 811 L674 837 C673 837 672 841 670 847 C670 850 669 851 669 851 L642 851 L630 851 L619 851 L517 851 C517 851 516 850 515 847 C508 838 504 832 504 832 L588 795 L588 795 Z " />
<glyph glyph-name="Z" unicode="Z" horiz-adv-x="646" d="M472 832 L108 18 L104 8 L104 0 L108 0 L154 0 L505 0 L538 0 L546 0 L555 0 L556 0 L556 18 L553 18 L542 138 C542 139 540 139 539 140 C529 148 522 154 522 153 L473 18 L162 18 L526 832 L541 850 L526 850 L480 850 L166 850 L134 850 L125 850 L116 850 L116 832 L118 832 C121 797 126 754 130 721 C130 721 131 720 133 719 C143 712 150 707 150 707 L199 832 L472 832 L472 832 Z " />
<glyph glyph-name="bracketleft" unicode="&#x5b;" horiz-adv-x="225" d="M105 939 L221 939 L221 953 L105 953 L66 953 L66 -150 L105 -150 L221 -150 L221 -136 L105 -136 L105 939 L105 939 Z " />
<glyph glyph-name="backslash" unicode="&#x5c;" horiz-adv-x="212" d="M181 -120 L213 -120 L31 940 L0 940 L181 -120 L181 -120 Z " />
<glyph glyph-name="bracketright" unicode="&#x5d;" horiz-adv-x="220" d="M117 939 L117 -136 L5 -136 L5 -150 L117 -150 L156 -150 L156 953 L117 953 L5 953 L5 939 L117 939 L117 939 Z " />
<glyph glyph-name="underscore" unicode="&#x5f;" horiz-adv-x="500" d="M25 -94 L25 -125 L475 -125 L475 -94 L25 -94 L25 -94 Z " />
<glyph glyph-name="a" unicode="a" horiz-adv-x="489" d="M332 255 C149 218 55 153 55 84 C55 27 101 -11 170 -11 C234 -11 295 12 333 57 C338 15 366 -12 407 -12 C437 -12 467 9 481 41 L480 43 C473 27 460 17 446 17 C408 17 383 37 383 67 L383 346 C383 413 336 458 245 458 C158 458 85 448 75 434 C73 432 76 428 81 424 L94 420 L99 420 C108 433 167 443 236 443 C300 443 333 399 333 333 L332 255 L332 255 Z M333 241 L333 71 C333 69 333 67 333 65 C303 30 258 12 211 12 C147 12 104 45 104 95 C104 154 182 210 333 241 L333 241 Z " />
<glyph glyph-name="b" unicode="b" horiz-adv-x="553" d="M100 -10 L104 -10 L150 41 L150 45 C194 11 245 -11 283 -11 C416 -11 504 93 504 249 C504 375 433 459 326 459 C253 459 183 435 150 400 L150 664 L150 732 L150 749 L140 749 L42 711 L42 710 C38 706 35 702 35 702 L100 646 L100 40 L100 -10 L100 -10 Z M150 79 L150 387 C176 416 239 436 307 436 C395 436 453 356 453 236 C453 97 389 5 292 5 C256 5 199 35 150 79 L150 79 Z " />
<glyph glyph-name="c" unicode="c" horiz-adv-x="477" d="M404 354 L408 354 L409 359 L432 381 C432 381 431 383 429 387 C431 387 432 385 432 381 L428 387 L428 387 C425 392 420 400 413 409 C392 440 339 460 281 460 C143 460 50 360 50 209 C50 78 134 -10 261 -10 C334 -10 403 12 433 45 L434 48 L434 48 L434 49 L430 49 C398 29 336 16 276 16 C170 16 100 105 100 238 C100 364 168 447 271 447 C313 447 357 424 380 390 L404 354 L404 354 Z " />
<glyph glyph-name="d" unicode="d" horiz-adv-x="566" d="M427 0 L449 0 L511 0 C511 0 512 1 512 3 C516 12 518 18 519 18 L449 50 L449 60 L449 685 L449 743 L449 760 L439 760 L341 722 L340 721 C337 717 334 714 334 714 L399 667 L399 444 C365 454 324 460 287 460 C144 460 48 354 48 196 C48 72 122 -10 232 -10 C298 -10 363 17 399 58 L405 0 L427 0 L427 0 Z M399 415 L399 70 C368 35 310 13 251 13 C159 13 98 93 98 212 C98 351 172 444 283 444 C312 444 356 433 399 415 L399 415 Z " />
<glyph glyph-name="e" unicode="e" horiz-adv-x="483" d="M261 261 L100 261 C107 373 167 446 254 446 C332 446 384 372 388 261 L261 261 L261 261 Z M261 245 L411 245 L433 247 C433 375 364 460 261 460 C134 460 50 360 50 209 C50 78 134 -10 261 -10 C334 -10 403 12 433 45 L434 48 L434 48 L434 49 L430 49 C398 29 336 16 276 16 C170 16 100 105 100 238 C100 241 100 244 100 247 L261 245 L261 245 Z " />
<glyph glyph-name="f" unicode="f" horiz-adv-x="344" d="M153 0 L178 0 L240 0 C240 0 240 1 241 3 C245 12 247 18 248 18 L178 50 L178 434 L310 434 L310 450 L178 450 L178 550 C178 588 194 628 219 661 C249 697 294 722 348 722 C356 722 370 718 382 712 L409 701 L416 701 L417 701 C419 701 421 705 421 712 C421 721 410 732 393 740 C380 746 366 750 358 750 C247 750 128 615 128 490 L128 450 L40 450 L40 434 L128 434 L128 50 L63 18 L68 3 C69 1 70 0 70 0 L128 0 L153 0 L153 0 Z " />
<glyph glyph-name="g" unicode="g" horiz-adv-x="538" d="M258 154 C182 154 131 213 131 302 C131 389 172 447 252 447 C327 447 377 388 377 300 C377 212 337 154 258 154 L258 154 Z M80 301 C80 234 114 182 170 157 C117 140 82 110 82 80 C82 36 120 6 178 3 C111 -23 67 -74 67 -127 C67 -195 134 -240 234 -240 C374 -240 467 -178 467 -85 C467 -6 422 47 305 47 L202 47 C144 47 105 65 105 91 C105 117 134 142 178 154 C200 146 225 141 253 141 C368 141 428 205 428 301 C428 359 402 405 358 432 L488 431 L488 449 L334 444 C310 454 283 459 253 459 C138 459 79 395 79 300 L80 301 L80 301 Z M186 2 L280 2 C397 2 443 -36 443 -93 C443 -176 361 -232 237 -232 C161 -232 111 -188 111 -121 C111 -63 141 -14 186 2 L186 2 Z " />
<glyph glyph-name="h" unicode="h" horiz-adv-x="582" d="M453 0 L478 0 L535 0 C535 0 536 1 537 3 C540 12 542 18 543 18 L478 50 L478 343 C478 413 419 460 331 460 C267 460 213 426 164 376 L164 665 L164 733 L164 750 L154 750 L56 712 L56 711 C52 707 49 703 49 703 L114 647 L114 50 L49 18 C49 18 51 12 55 3 C56 1 56 0 56 0 L114 0 L139 0 L164 0 L226 0 C226 0 227 1 228 3 C231 12 234 18 234 18 L164 50 L164 366 C205 408 254 436 316 436 C382 436 427 387 427 314 L427 50 L357 18 C357 18 359 12 363 3 C364 1 364 0 364 0 L427 0 L453 0 L453 0 Z " />
<glyph glyph-name="i" unicode="i" horiz-adv-x="287" d="M141 610 C164 610 179 625 179 648 C179 670 164 685 141 685 C119 685 104 670 104 648 C104 625 119 610 141 610 L141 610 Z M144 0 L169 0 L231 0 C231 0 232 1 233 3 C236 12 239 18 239 18 L169 50 L169 375 L169 443 L169 460 L159 460 L61 422 L61 421 C57 417 54 413 54 413 L119 357 L119 50 L54 18 C54 18 56 12 60 3 C61 1 61 0 61 0 L119 0 L144 0 L144 0 Z " />
<glyph glyph-name="j" unicode="j" horiz-adv-x="286" d="M144 610 C167 610 182 625 182 648 C182 670 167 685 144 685 C122 685 107 670 107 648 C107 625 122 610 144 610 L144 610 Z M56 -225 L56 -232 C151 -172 169 -98 169 -2 L169 375 L169 443 L169 460 L159 460 L61 422 L61 421 C57 417 54 413 54 413 L119 357 L119 -10 C119 -115 109 -192 56 -225 L56 -225 Z " />
<glyph glyph-name="k" unicode="k" horiz-adv-x="513" d="M418 50 L418 50 L207 274 L382 400 L383 400 L453 433 C453 433 453 436 452 441 L452 450 L441 450 L429 450 L318 450 L316 446 C309 436 305 429 304 429 L348 390 L348 390 L166 255 L166 675 L166 743 L166 760 L156 760 L58 722 L58 721 C54 717 51 713 51 713 L116 657 L116 50 L51 18 C51 18 53 12 57 3 C58 1 58 0 58 0 L116 0 L141 0 L166 0 L228 0 C228 0 229 1 230 3 C233 12 236 18 236 18 L166 50 L166 250 L405 0 L436 0 L466 0 L481 0 C481 0 481 2 482 6 C484 13 485 17 485 17 L418 50 L418 50 Z " />
<glyph glyph-name="l" unicode="l" horiz-adv-x="268" d="M134 0 L159 0 L221 0 C221 0 222 1 223 3 C226 12 229 18 229 18 L159 50 L159 675 L159 743 L159 760 L149 760 L51 722 L51 721 C47 717 44 713 44 713 L109 657 L109 50 L44 18 C44 18 46 12 50 3 C51 1 51 0 51 0 L109 0 L134 0 L134 0 Z " />
<glyph glyph-name="m" unicode="m" horiz-adv-x="878" d="M748 0 L773 0 L831 0 C831 0 831 1 832 3 C836 12 838 18 838 18 L773 50 L773 343 C773 413 716 460 632 460 C568 460 512 423 461 368 C449 424 396 460 322 460 C262 460 210 426 161 376 L161 381 L161 381 L158 460 L148 460 L53 422 L53 421 C49 416 46 413 46 413 L111 357 L111 50 L46 18 C46 18 48 12 52 3 C53 1 53 0 53 0 L111 0 L136 0 L161 0 L219 0 C219 0 219 1 220 3 C224 12 226 18 226 18 L161 50 L161 366 C202 408 249 436 308 436 C372 436 415 387 415 314 L415 50 L345 18 C345 18 347 12 351 3 C352 1 352 0 352 0 L415 0 L440 0 L465 0 L527 0 C527 0 527 1 528 3 C532 12 534 18 535 18 L465 50 L465 343 C465 349 465 355 464 361 C508 407 558 437 619 437 C683 437 725 388 725 315 L725 51 L655 19 C655 19 658 13 661 4 C662 2 663 1 663 1 L725 1 L748 0 L748 0 Z " />
<glyph glyph-name="n" unicode="n" horiz-adv-x="582" d="M453 0 L478 0 L535 0 C535 0 536 1 537 3 C540 12 542 18 543 18 L478 50 L478 343 C478 413 419 460 331 460 C267 460 213 426 164 376 L164 381 L164 381 L161 460 L151 460 L56 422 L56 421 C52 416 49 413 49 413 L114 357 L114 50 L49 18 C49 18 51 12 55 3 C56 1 56 0 56 0 L114 0 L139 0 L164 0 L226 0 C226 0 227 1 228 3 C231 12 234 18 234 18 L164 50 L164 366 C205 408 254 436 316 436 C382 436 427 387 427 314 L427 50 L357 18 C357 18 359 12 363 3 C364 1 364 0 364 0 L427 0 L453 0 L453 0 Z " />
<glyph glyph-name="o" unicode="o" horiz-adv-x="529" d="M269 4 C172 4 108 92 108 225 C108 358 160 446 260 446 C357 446 422 358 422 225 C422 92 370 4 269 4 L269 4 Z M50 225 C50 84 136 -10 265 -10 C406 -10 479 84 479 225 C479 366 393 460 265 460 C123 460 50 366 50 225 L50 225 Z " />
<glyph glyph-name="p" unicode="p" horiz-adv-x="565" d="M165 389 L162 460 L152 460 L57 422 L57 421 C53 417 50 413 50 413 L115 357 L115 -180 L50 -212 C50 -212 52 -218 56 -227 C57 -229 57 -230 57 -230 L115 -230 L140 -230 L165 -230 L227 -230 C227 -230 228 -229 229 -227 C232 -218 235 -212 235 -212 L165 -180 L165 16 C193 0 239 -10 286 -10 C423 -10 515 93 515 247 C515 375 444 460 337 460 C281 460 213 432 164 389 L165 389 L165 389 Z M164 48 L164 375 L164 378 C205 414 265 437 317 437 C406 437 465 352 465 224 C465 93 396 6 294 6 C246 6 194 23 164 48 L164 48 Z " />
<glyph glyph-name="q" unicode="q" horiz-adv-x="540" d="M411 -230 L436 -230 L493 -230 C493 -230 494 -229 495 -227 C498 -218 500 -212 501 -212 L436 -180 L436 438 L436 460 L432 460 L397 443 C369 453 326 459 280 459 C142 459 50 353 50 195 C50 71 120 -11 226 -11 C270 -11 334 17 386 59 L386 -181 L316 -213 C316 -213 318 -219 322 -228 C323 -230 323 -231 323 -231 L386 -231 L411 -230 L411 -230 Z M386 419 L386 71 C341 35 285 12 245 12 C158 12 100 92 100 211 C100 350 170 443 275 443 C316 443 357 434 385 419 L386 419 L386 419 Z " />
<glyph glyph-name="r" unicode="r" horiz-adv-x="343" d="M238 433 C229 429 262 410 285 399 C308 388 323 382 323 383 L330 383 C338 400 343 417 343 425 C343 432 330 442 310 450 C302 453 276 460 261 460 C235 460 202 422 165 363 L165 375 L162 375 L165 376 L162 461 L152 461 L57 423 L57 422 C53 418 50 414 50 414 L115 358 L115 51 L50 19 C50 19 52 13 56 4 C57 2 57 1 57 1 L115 1 L140 1 L165 1 L227 1 C227 1 228 2 229 4 C232 13 235 19 235 19 L165 51 L165 352 C194 398 219 429 238 435 L238 433 L238 433 Z " />
<glyph glyph-name="s" unicode="s" horiz-adv-x="414" d="M61 32 L60 23 C103 3 159 -10 202 -10 C287 -10 344 41 344 117 C344 180 303 221 224 251 C155 278 119 310 119 355 C119 410 153 447 203 447 C208 447 214 446 220 445 C254 438 284 409 297 370 C299 365 301 357 304 351 C306 352 310 352 313 353 C315 354 319 355 322 355 L327 405 L327 405 L327 413 L327 413 L328 422 C288 445 238 460 201 460 C126 460 75 410 75 336 C75 278 113 240 186 212 C261 183 300 149 300 101 C300 41 260 2 200 2 C191 2 181 3 170 5 C141 11 114 33 101 62 C96 75 88 91 82 103 C80 102 77 101 75 100 C73 100 70 98 67 97 L62 39 C61 39 60 39 59 39 L59 31 L59 31 L61 32 L61 32 Z " />
<glyph glyph-name="t" unicode="t" horiz-adv-x="320" d="M290 54 L289 57 C277 31 249 13 221 13 C176 13 146 48 146 101 L146 434 L278 434 L278 450 L146 450 L146 549 L143 549 L96 450 L18 436 L18 434 L96 434 L96 90 C96 30 133 -10 189 -10 C231 -10 272 15 290 54 L290 54 Z " />
<glyph glyph-name="u" unicode="u" horiz-adv-x="544" d="M404 400 L404 92 C350 40 293 14 248 14 C183 14 140 63 140 137 L140 450 L115 450 L90 450 L32 450 C32 450 32 449 31 447 C27 438 25 433 25 433 L90 400 L90 107 C90 37 147 -10 233 -10 C279 -10 341 21 403 82 L403 0 L428 0 L453 0 L515 0 C515 0 515 1 516 3 C520 12 522 18 523 18 L453 50 L453 450 L428 450 L403 450 L340 450 C340 450 340 449 339 447 C335 438 333 433 333 433 L404 400 L404 400 Z " />
<glyph glyph-name="v" unicode="v" horiz-adv-x="548" d="M425 395 L274 64 L122 400 L209 433 C209 433 205 438 199 447 C198 449 197 450 197 450 L99 450 L71 450 L44 450 L3 450 C3 450 2 448 2 446 C-1 438 -3 433 -3 433 L67 400 L246 4 L247 0 L254 0 L440 395 L517 431 C517 431 515 437 512 445 C511 448 510 450 510 450 L466 450 L458 450 L449 450 L361 450 C361 450 360 449 358 446 C353 437 350 431 349 431 L425 395 L425 395 Z " />
<glyph glyph-name="w" unicode="w" horiz-adv-x="832" d="M698 395 L540 4 L541 0 L548 0 L714 395 L714 395 L788 431 C788 431 786 437 783 445 C783 448 782 450 782 450 L737 450 L728 450 L720 450 L631 450 C631 450 630 449 629 446 C623 437 620 431 620 431 L698 395 L698 395 Z M71 400 L225 4 L226 0 L234 0 L412 439 L408 450 L402 450 L399 443 L252 72 L125 401 L216 434 C216 434 212 439 206 448 C205 450 204 451 204 451 L106 451 L79 451 L52 451 L10 451 C11 451 10 449 9 447 C6 439 4 434 4 434 L71 400 L71 400 Z M412 440 L386 375 L540 5 L567 72 L412 440 L412 440 Z " />
<glyph glyph-name="x" unicode="x" horiz-adv-x="688" d="M159 55 L159 55 L329 309 L500 55 L427 19 L437 4 C438 1 439 0 439 0 L537 0 L569 0 L602 0 L626 0 L628 4 C630 11 631 16 631 16 L571 45 L364 349 L540 625 L598 654 C598 654 597 659 594 666 C594 668 593 670 593 670 L568 670 L552 670 L537 670 L430 670 C430 670 429 669 428 666 C421 657 417 651 417 651 L503 615 L350 370 L183 615 L183 615 L265 651 C265 651 261 657 254 666 C253 669 252 670 252 670 L145 670 L116 670 L86 670 L62 670 C62 670 62 668 61 665 C60 657 58 653 58 653 L120 620 L314 332 L123 51 L56 19 C56 19 57 14 60 6 C60 3 61 1 61 1 L89 1 L105 1 L122 1 L237 1 C237 1 238 2 240 5 C247 14 252 20 252 20 L159 55 L159 55 Z " />
<glyph glyph-name="y" unicode="y" horiz-adv-x="526" d="M428 395 L428 395 L286 67 L124 400 L125 400 L210 433 C210 433 207 438 201 447 L198 450 L100 450 L73 450 L45 450 L4 450 C5 450 4 448 3 446 C0 438 -1 433 -2 433 L69 400 L69 400 L260 6 L271 31 L222 -82 C190 -158 159 -188 114 -188 L88 -188 L84 -192 L84 -222 C84 -235 90 -240 105 -240 C151 -240 187 -197 234 -87 L443 395 L519 431 C519 431 517 437 514 445 C513 448 512 450 512 450 L467 450 L460 450 L453 450 L364 450 C364 450 363 449 362 446 C356 437 353 431 353 431 L428 395 L428 395 Z M-2 433 L-2 433 L-2 433 Z " />
<glyph glyph-name="z" unicode="z" horiz-adv-x="480" d="M93 442 C91 413 89 375 87 346 L91 344 C99 339 104 335 104 335 L142 435 L323 435 L88 15 L83 6 L83 0 L88 0 L136 0 L405 0 L405 8 L405 15 L405 108 L402 111 C393 116 388 120 388 120 L355 15 L144 15 L379 435 L397 450 L379 450 L331 450 L143 450 L103 460 C103 460 100 460 95 459 L93 459 L93 450 L93 442 L93 442 Z " />
<glyph glyph-name="bar" unicode="&#x7c;" horiz-adv-x="215" d="M84 -260 L116 -260 L116 760 L84 760 L84 -260 L84 -260 Z " />
<glyph glyph-name="exclamdown" unicode="&#xa1;" horiz-adv-x="203" d="M104 460 C127 460 142 445 142 423 C142 400 127 385 104 385 C82 385 67 400 67 423 C67 445 82 460 104 460 L104 460 Z M70 -400 L101 282 L108 282 L139 -400 L70 -400 L70 -400 Z " />
<glyph glyph-name="guillemotleft" unicode="&#xab;" horiz-adv-x="427" d="M404 425 L204 248 L404 70 L407 70 L266 248 L407 425 L404 425 L404 425 Z M217 425 L17 248 L217 70 L221 70 L79 248 L221 425 L217 425 L217 425 Z " />
<glyph glyph-name="periodcentered" unicode="&#xb7;" horiz-adv-x="205" d="M103 210 C125 210 140 225 140 248 C140 270 125 285 103 285 C80 285 65 270 65 248 C65 225 80 210 103 210 L103 210 Z " />
<glyph glyph-name="guillemotright" unicode="&#xbb;" horiz-adv-x="411" d="M191 425 L329 248 L191 70 L194 70 L391 248 L194 425 L191 425 L191 425 Z M20 425 L158 248 L20 70 L24 70 L221 248 L24 425 L20 425 L20 425 Z " />
<glyph glyph-name="questiondown" unicode="&#xbf;" horiz-adv-x="469" d="M271 455 C248 455 233 440 233 418 C233 395 248 380 271 380 C293 380 308 395 308 418 C308 440 293 455 271 455 L271 455 Z M296 6 L274 282 L268 282 L260 54 C136 28 55 -72 55 -204 C55 -328 124 -410 227 -410 C349 -410 429 -328 429 -205 C429 -190 420 -180 405 -180 L380 -180 L375 -187 L375 -211 C375 -321 320 -395 238 -395 C163 -395 112 -319 112 -204 C112 -90 186 -6 296 6 L296 6 Z " />
<glyph glyph-name="Agrave" unicode="&#xc0;" horiz-adv-x="738" d="M365 895 L278 1054 L228 1054 C228 1046 230 1038 234 1034 L361 895 L365 895 L365 895 Z M488 354 L211 354 L351 789 L488 354 L488 354 Z M494 336 L584 50 L584 50 L492 18 C492 18 496 12 501 3 L504 0 L600 0 L629 0 L659 0 L700 0 C700 0 700 1 701 4 C704 11 706 16 706 16 L645 45 L390 836 L384 855 L352 855 L86 35 L86 35 L31 12 C31 12 33 8 35 3 C36 1 37 0 37 0 L75 0 L86 0 L98 0 L186 0 C186 0 187 1 188 3 C194 12 197 18 197 18 L114 50 L205 335 L494 335 L494 336 L494 336 Z " />
<glyph glyph-name="Aacute" unicode="&#xc1;" horiz-adv-x="738" d="M363 895 L367 895 L495 1034 C498 1038 500 1046 500 1054 L450 1054 L363 895 L363 895 Z M488 354 L211 354 L351 789 L488 354 L488 354 Z M494 336 L584 50 L584 50 L492 18 C492 18 496 12 501 3 L504 0 L600 0 L629 0 L659 0 L700 0 C700 0 700 1 701 4 C704 11 706 16 706 16 L645 45 L390 836 L384 855 L352 855 L86 35 L86 35 L31 12 C31 12 33 8 35 3 C36 1 37 0 37 0 L75 0 L86 0 L98 0 L186 0 C186 0 187 1 188 3 C194 12 197 18 197 18 L114 50 L205 335 L494 335 L494 336 L494 336 Z " />
<glyph glyph-name="Acircumflex" unicode="&#xc2;" horiz-adv-x="738" d="M505 895 L371 1052 L361 1052 L233 895 L237 895 L367 999 L501 895 L505 895 L505 895 Z M488 354 L211 354 L351 789 L488 354 L488 354 Z M494 336 L584 50 L584 50 L492 18 C492 18 496 12 501 3 L504 0 L600 0 L629 0 L659 0 L700 0 C700 0 700 1 701 4 C704 11 706 16 706 16 L645 45 L390 836 L384 855 L352 855 L86 35 L86 35 L31 12 C31 12 33 8 35 3 C36 1 37 0 37 0 L75 0 L86 0 L98 0 L186 0 C186 0 187 1 188 3 C194 12 197 18 197 18 L114 50 L205 335 L494 335 L494 336 L494 336 Z " />
<glyph glyph-name="Atilde" unicode="&#xc3;" horiz-adv-x="738" d="M226 918 C239 955 253 980 300 979 C347 979 381 925 428 925 C481 925 501 963 521 1022 L517 1022 C503 983 489 958 442 958 C395 958 362 1012 315 1012 C261 1012 241 974 221 918 L226 918 L226 918 Z M488 354 L211 354 L351 789 L488 354 L488 354 Z M494 336 L584 50 L584 50 L492 18 C492 18 496 12 501 3 L504 0 L600 0 L629 0 L659 0 L700 0 C700 0 700 1 701 4 C704 11 706 16 706 16 L645 45 L390 836 L384 855 L352 855 L86 35 L86 35 L31 12 C31 12 33 8 35 3 C36 1 37 0 37 0 L75 0 L86 0 L98 0 L186 0 C186 0 187 1 188 3 C194 12 197 18 197 18 L114 50 L205 335 L494 335 L494 336 L494 336 Z " />
<glyph glyph-name="Adieresis" unicode="&#xc4;" horiz-adv-x="738" d="M441 925 C460 925 473 938 473 956 C473 975 460 988 441 988 C423 988 410 975 410 956 C410 938 423 925 441 925 L441 925 Z M291 925 C310 925 323 938 323 956 C323 975 310 988 291 988 C273 988 260 975 260 956 C260 938 273 925 291 925 L291 925 Z M488 354 L211 354 L351 789 L488 354 L488 354 Z M494 336 L584 50 L584 50 L492 18 C492 18 496 12 501 3 L504 0 L600 0 L629 0 L659 0 L700 0 C700 0 700 1 701 4 C704 11 706 16 706 16 L645 45 L390 836 L384 855 L352 855 L86 35 L86 35 L31 12 C31 12 33 8 35 3 C36 1 37 0 37 0 L75 0 L86 0 L98 0 L186 0 C186 0 187 1 188 3 C194 12 197 18 197 18 L114 50 L205 335 L494 335 L494 336 L494 336 Z " />
<glyph glyph-name="Aring" unicode="&#xc5;" horiz-adv-x="738" d="M368 908 C340 908 317 942 317 983 C317 1022 336 1048 366 1048 C396 1048 416 1018 416 974 C416 938 394 908 368 908 L368 908 Z M286 978 C286 936 323 900 366 900 C410 900 447 937 447 980 C447 1025 415 1056 366 1056 C318 1056 286 1025 286 978 L286 978 Z M488 354 L211 354 L351 789 L488 354 L488 354 Z M494 336 L584 50 L584 50 L492 18 C492 18 496 12 501 3 L504 0 L600 0 L629 0 L659 0 L700 0 C700 0 700 1 701 4 C704 11 706 16 706 16 L645 45 L390 836 L384 855 L352 855 L86 35 L86 35 L31 12 C31 12 33 8 35 3 C36 1 37 0 37 0 L75 0 L86 0 L98 0 L186 0 C186 0 187 1 188 3 C194 12 197 18 197 18 L114 50 L205 335 L494 335 L494 336 L494 336 Z " />
<glyph glyph-name="Ccedilla" unicode="&#xc7;" horiz-adv-x="708" d="M364 -98 L405 -10 C501 -10 586 -7 618 -2 L618 8 L618 8 C622 9 622 9 617 9 L617 21 L617 21 L613 110 C611 111 607 113 605 115 C603 117 599 119 597 120 C583 90 564 50 550 19 C549 16 547 14 544 13 C495 9 442 6 396 6 C235 6 128 172 128 420 C128 673 241 842 411 842 C447 842 490 840 531 836 L531 836 C534 836 538 834 539 830 C554 795 573 748 588 713 C590 715 594 717 596 719 C599 721 603 723 605 725 L613 851 C585 856 504 859 411 859 C206 859 70 676 70 402 C70 155 198 -10 392 -12 L335 -134 L345 -138 C390 -153 420 -172 420 -186 C420 -214 410 -233 394 -233 C362 -233 331 -225 315 -213 L315 -217 C335 -232 369 -242 399 -242 C434 -242 458 -216 458 -176 C458 -150 420 -120 363 -101 L364 -98 L364 -98 Z " />
<glyph glyph-name="Egrave" unicode="&#xc8;" horiz-adv-x="649" d="M339 895 L252 1054 L202 1054 C202 1046 204 1038 207 1034 L335 895 L339 895 L339 895 Z M577 18 C574 54 569 97 565 129 C565 130 564 130 563 131 C553 139 546 144 546 143 L501 18 L200 18 L200 429 L404 429 L446 349 C446 349 453 352 464 356 C467 357 469 358 469 358 L469 429 L469 438 L469 447 L469 518 C469 518 467 519 464 520 C453 524 446 527 446 527 L404 447 L200 447 L200 832 L476 832 L522 717 C522 717 529 721 538 728 C540 728 541 729 541 729 C544 760 548 799 551 832 L554 832 L554 850 L553 850 L544 850 L535 850 L503 850 L200 850 L172 850 L158 850 L144 850 L73 850 C73 850 72 849 71 846 C67 837 64 831 64 831 L144 795 L144 55 L64 19 C64 19 67 13 71 4 C72 1 73 0 73 0 L144 0 L158 0 L172 0 L200 0 L528 0 L560 0 L569 0 L578 0 L579 0 L579 18 L577 18 L577 18 Z " />
<glyph glyph-name="Eacute" unicode="&#xc9;" horiz-adv-x="649" d="M337 895 L341 895 L468 1034 C472 1038 474 1046 474 1054 L424 1054 L337 895 L337 895 Z M577 18 C574 54 569 97 565 129 C565 130 564 130 563 131 C553 139 546 144 546 143 L501 18 L200 18 L200 429 L404 429 L446 349 C446 349 453 352 464 356 C467 357 469 358 469 358 L469 429 L469 438 L469 447 L469 518 C469 518 467 519 464 520 C453 524 446 527 446 527 L404 447 L200 447 L200 832 L476 832 L522 717 C522 717 529 721 538 728 C540 728 541 729 541 729 C544 760 548 799 551 832 L554 832 L554 850 L553 850 L544 850 L535 850 L503 850 L200 850 L172 850 L158 850 L144 850 L73 850 C73 850 72 849 71 846 C67 837 64 831 64 831 L144 795 L144 55 L64 19 C64 19 67 13 71 4 C72 1 73 0 73 0 L144 0 L158 0 L172 0 L200 0 L528 0 L560 0 L569 0 L578 0 L579 0 L579 18 L577 18 L577 18 Z " />
<glyph glyph-name="Ecircumflex" unicode="&#xca;" horiz-adv-x="649" d="M473 895 L340 1052 L330 1052 L201 895 L205 895 L335 999 L469 895 L473 895 L473 895 Z M577 18 C574 54 569 97 565 129 C565 130 564 130 563 131 C553 139 546 144 546 143 L501 18 L200 18 L200 429 L404 429 L446 349 C446 349 453 352 464 356 C467 357 469 358 469 358 L469 429 L469 438 L469 447 L469 518 C469 518 467 519 464 520 C453 524 446 527 446 527 L404 447 L200 447 L200 832 L476 832 L522 717 C522 717 529 721 538 728 C540 728 541 729 541 729 C544 760 548 799 551 832 L554 832 L554 850 L553 850 L544 850 L535 850 L503 850 L200 850 L172 850 L158 850 L144 850 L73 850 C73 850 72 849 71 846 C67 837 64 831 64 831 L144 795 L144 55 L64 19 C64 19 67 13 71 4 C72 1 73 0 73 0 L144 0 L158 0 L172 0 L200 0 L528 0 L560 0 L569 0 L578 0 L579 0 L579 18 L577 18 L577 18 Z " />
<glyph glyph-name="Edieresis" unicode="&#xcb;" horiz-adv-x="649" d="M410 925 C428 925 441 938 441 956 C441 975 428 988 410 988 C391 988 378 975 378 956 C378 938 391 925 410 925 L410 925 Z M260 925 C278 925 291 938 291 956 C291 975 278 988 260 988 C241 988 228 975 228 956 C228 938 241 925 260 925 L260 925 Z M577 18 C574 54 569 97 565 129 C565 130 564 130 563 131 C553 139 546 144 546 143 L501 18 L200 18 L200 429 L404 429 L446 349 C446 349 453 352 464 356 C467 357 469 358 469 358 L469 429 L469 438 L469 447 L469 518 C469 518 467 519 464 520 C453 524 446 527 446 527 L404 447 L200 447 L200 832 L476 832 L522 717 C522 717 529 721 538 728 C540 728 541 729 541 729 C544 760 548 799 551 832 L554 832 L554 850 L553 850 L544 850 L535 850 L503 850 L200 850 L172 850 L158 850 L144 850 L73 850 C73 850 72 849 71 846 C67 837 64 831 64 831 L144 795 L144 55 L64 19 C64 19 67 13 71 4 C72 1 73 0 73 0 L144 0 L158 0 L172 0 L200 0 L528 0 L560 0 L569 0 L578 0 L579 0 L579 18 L577 18 L577 18 Z " />
<glyph glyph-name="Igrave" unicode="&#xcc;" horiz-adv-x="356" d="M182 895 L95 1054 L45 1054 C45 1046 47 1038 50 1034 L178 895 L182 895 L182 895 Z M178 0 L206 0 L277 0 C277 0 278 1 279 4 C284 13 286 19 286 19 L206 55 L206 795 L286 831 C286 831 284 837 279 846 C278 849 277 850 277 850 L206 850 L178 850 L150 850 L79 850 C79 850 78 849 77 846 C73 837 70 831 70 831 L150 795 L150 55 L70 19 C70 19 73 13 77 4 C78 1 79 0 79 0 L150 0 L178 0 L178 0 Z " />
<glyph glyph-name="Iacute" unicode="&#xcd;" horiz-adv-x="356" d="M180 895 L184 895 L312 1034 C315 1038 317 1046 317 1054 L267 1054 L180 895 L180 895 Z M178 0 L206 0 L277 0 C277 0 278 1 279 4 C284 13 286 19 286 19 L206 55 L206 795 L286 831 C286 831 284 837 279 846 C278 849 277 850 277 850 L206 850 L178 850 L150 850 L79 850 C79 850 78 849 77 846 C73 837 70 831 70 831 L150 795 L150 55 L70 19 C70 19 73 13 77 4 C78 1 79 0 79 0 L150 0 L178 0 L178 0 Z " />
<glyph glyph-name="Icircumflex" unicode="&#xce;" horiz-adv-x="356" d="M317 895 L183 1052 L173 1052 L45 895 L49 895 L179 999 L313 895 L317 895 L317 895 Z M178 0 L206 0 L277 0 C277 0 278 1 279 4 C284 13 286 19 286 19 L206 55 L206 795 L286 831 C286 831 284 837 279 846 C278 849 277 850 277 850 L206 850 L178 850 L150 850 L79 850 C79 850 78 849 77 846 C73 837 70 831 70 831 L150 795 L150 55 L70 19 C70 19 73 13 77 4 C78 1 79 0 79 0 L150 0 L178 0 L178 0 Z " />
<glyph glyph-name="Idieresis" unicode="&#xcf;" horiz-adv-x="356" d="M253 925 C272 925 284 938 284 956 C284 975 272 988 253 988 C234 988 222 975 222 956 C222 938 234 925 253 925 L253 925 Z M103 925 C122 925 134 938 134 956 C134 975 122 988 103 988 C84 988 72 975 72 956 C72 938 84 925 103 925 L103 925 Z M178 0 L206 0 L277 0 C277 0 278 1 279 4 C284 13 286 19 286 19 L206 55 L206 795 L286 831 C286 831 284 837 279 846 C278 849 277 850 277 850 L206 850 L178 850 L150 850 L79 850 C79 850 78 849 77 846 C73 837 70 831 70 831 L150 795 L150 55 L70 19 C70 19 73 13 77 4 C78 1 79 0 79 0 L150 0 L178 0 L178 0 Z " />
<glyph glyph-name="Ntilde" unicode="&#xd1;" horiz-adv-x="799" d="M273 918 C287 955 301 980 348 979 C395 979 428 925 475 925 C528 925 548 963 569 1022 L565 1022 C551 983 537 958 490 958 C443 958 410 1012 363 1012 C309 1012 289 974 269 918 L273 918 L273 918 Z M659 795 L734 831 C735 831 732 837 728 846 C727 849 726 850 726 850 L659 850 L648 850 L636 850 L547 850 C547 850 546 849 545 846 C540 837 536 831 536 831 L636 795 L636 96 L172 850 L160 850 L149 850 L82 850 C82 850 81 849 80 846 C76 837 73 831 74 831 L149 795 L149 55 L69 19 C69 19 72 13 76 4 C76 1 77 0 77 0 L149 0 L160 0 L172 0 L261 0 C261 0 262 1 263 4 C268 13 272 19 272 19 L172 55 L172 775 L630 12 L640 -5 L659 -5 L659 59 L659 795 L659 795 Z " />
<glyph glyph-name="Ograve" unicode="&#xd2;" horiz-adv-x="798" d="M388 895 L301 1054 L251 1054 C251 1046 253 1038 256 1034 L384 895 L388 895 L388 895 Z M406 7 C240 7 130 184 130 448 C130 686 235 844 393 844 C558 844 668 667 668 401 C668 165 563 7 406 7 L406 7 Z M70 427 C70 165 202 -10 399 -10 C596 -10 728 163 728 423 C728 685 596 860 399 860 C202 860 70 687 70 427 L70 427 Z " />
<glyph glyph-name="Oacute" unicode="&#xd3;" horiz-adv-x="798" d="M386 895 L390 895 L518 1034 C521 1038 523 1046 523 1054 L473 1054 L386 895 L386 895 Z M406 7 C240 7 130 184 130 448 C130 686 235 844 393 844 C558 844 668 667 668 401 C668 165 563 7 406 7 L406 7 Z M70 427 C70 165 202 -10 399 -10 C596 -10 728 163 728 423 C728 685 596 860 399 860 C202 860 70 687 70 427 L70 427 Z " />
<glyph glyph-name="Ocircumflex" unicode="&#xd4;" horiz-adv-x="798" d="M523 895 L389 1052 L379 1052 L251 895 L255 895 L385 999 L519 895 L523 895 L523 895 Z M406 7 C240 7 130 184 130 448 C130 686 235 844 393 844 C558 844 668 667 668 401 C668 165 563 7 406 7 L406 7 Z M70 427 C70 165 202 -10 399 -10 C596 -10 728 163 728 423 C728 685 596 860 399 860 C202 860 70 687 70 427 L70 427 Z " />
<glyph glyph-name="Otilde" unicode="&#xd5;" horiz-adv-x="798" d="M238 918 C252 955 266 980 313 979 C360 979 393 925 440 925 C493 925 513 963 534 1022 L530 1022 C516 983 502 958 455 958 C408 958 375 1012 328 1012 C274 1012 254 974 234 918 L238 918 L238 918 Z M406 7 C240 7 130 184 130 448 C130 686 235 844 393 844 C558 844 668 667 668 401 C668 165 563 7 406 7 L406 7 Z M70 427 C70 165 202 -10 399 -10 C596 -10 728 163 728 423 C728 685 596 860 399 860 C202 860 70 687 70 427 L70 427 Z " />
<glyph glyph-name="Odieresis" unicode="&#xd6;" horiz-adv-x="798" d="M459 925 C478 925 490 938 490 956 C490 975 478 988 459 988 C440 988 428 975 428 956 C428 938 440 925 459 925 L459 925 Z M309 925 C328 925 340 938 340 956 C340 975 328 988 309 988 C290 988 278 975 278 956 C278 938 290 925 309 925 L309 925 Z M406 7 C240 7 130 184 130 448 C130 686 235 844 393 844 C558 844 668 667 668 401 C668 165 563 7 406 7 L406 7 Z M70 427 C70 165 202 -10 399 -10 C596 -10 728 163 728 423 C728 685 596 860 399 860 C202 860 70 687 70 427 L70 427 Z " />
<glyph glyph-name="Oslash" unicode="&#xd8;" horiz-adv-x="798" d="M406 7 C324 7 256 50 208 125 L609 692 C647 617 668 518 668 401 C668 165 563 7 406 7 L406 7 Z M70 427 C70 298 102 190 158 114 L70 -10 L113 -10 L181 86 C237 25 312 -10 400 -10 C597 -10 729 163 729 423 C729 552 697 660 641 736 L729 860 L686 860 L618 764 C562 825 487 860 399 860 C202 860 70 687 70 427 L70 427 Z M189 158 C151 233 130 332 130 448 C130 686 235 844 393 844 C474 844 542 801 590 726 L189 158 L189 158 Z " />
<glyph glyph-name="Ugrave" unicode="&#xd9;" horiz-adv-x="806" d="M421 895 L334 1054 L284 1054 C284 1046 286 1038 290 1034 L417 895 L421 895 L421 895 Z M153 795 L153 301 C153 115 255 -10 407 -10 C560 -10 662 115 662 301 L662 795 L742 831 C742 831 739 837 735 846 C733 849 733 850 733 850 L662 850 L650 850 L638 850 L550 850 C550 850 549 849 547 846 C542 837 538 831 538 831 L638 795 L638 294 C638 122 551 8 419 8 C293 8 209 129 209 311 L209 795 L289 831 C289 831 286 837 282 846 C281 849 280 850 280 850 L209 850 L181 850 L153 850 L82 850 C82 850 81 849 80 846 C76 837 73 831 73 831 L153 795 L153 795 Z " />
<glyph glyph-name="Uacute" unicode="&#xda;" horiz-adv-x="806" d="M409 895 L413 895 L541 1034 C544 1038 546 1046 546 1054 L496 1054 L409 895 L409 895 Z M153 795 L153 301 C153 115 255 -10 407 -10 C560 -10 662 115 662 301 L662 795 L742 831 C742 831 739 837 735 846 C733 849 733 850 733 850 L662 850 L650 850 L638 850 L550 850 C550 850 549 849 547 846 C542 837 538 831 538 831 L638 795 L638 294 C638 122 551 8 419 8 C293 8 209 129 209 311 L209 795 L289 831 C289 831 286 837 282 846 C281 849 280 850 280 850 L209 850 L181 850 L153 850 L82 850 C82 850 81 849 80 846 C76 837 73 831 73 831 L153 795 L153 795 Z " />
<glyph glyph-name="Ucircumflex" unicode="&#xdb;" horiz-adv-x="806" d="M556 895 L422 1052 L412 1052 L284 895 L288 895 L418 999 L552 895 L556 895 L556 895 Z M153 795 L153 301 C153 115 255 -10 407 -10 C560 -10 662 115 662 301 L662 795 L742 831 C742 831 739 837 735 846 C733 849 733 850 733 850 L662 850 L650 850 L638 850 L550 850 C550 850 549 849 547 846 C542 837 538 831 538 831 L638 795 L638 294 C638 122 551 8 419 8 C293 8 209 129 209 311 L209 795 L289 831 C289 831 286 837 282 846 C281 849 280 850 280 850 L209 850 L181 850 L153 850 L82 850 C82 850 81 849 80 846 C76 837 73 831 73 831 L153 795 L153 795 Z " />
<glyph glyph-name="Udieresis" unicode="&#xdc;" horiz-adv-x="806" d="M492 925 C511 925 524 938 524 956 C524 975 511 988 492 988 C474 988 461 975 461 956 C461 938 474 925 492 925 L492 925 Z M342 925 C361 925 374 938 374 956 C374 975 361 988 342 988 C324 988 311 975 311 956 C311 938 324 925 342 925 L342 925 Z M153 795 L153 301 C153 115 255 -10 407 -10 C560 -10 662 115 662 301 L662 795 L742 831 C742 831 739 837 735 846 C733 849 733 850 733 850 L662 850 L650 850 L638 850 L550 850 C550 850 549 849 547 846 C542 837 538 831 538 831 L638 795 L638 294 C638 122 551 8 419 8 C293 8 209 129 209 311 L209 795 L289 831 C289 831 286 837 282 846 C281 849 280 850 280 850 L209 850 L181 850 L153 850 L82 850 C82 850 81 849 80 846 C76 837 73 831 73 831 L153 795 L153 795 Z " />
<glyph glyph-name="Yacute" unicode="&#xdd;" horiz-adv-x="706" d="M352 895 L356 895 L484 1034 C487 1038 489 1046 489 1054 L439 1054 L352 895 L352 895 Z M325 55 L235 19 C235 19 238 13 243 4 C244 1 245 0 245 0 L325 0 L354 0 L382 0 L462 0 C461 0 462 1 464 4 C468 13 471 19 472 19 L382 55 L382 398 L619 810 L619 810 L674 836 C673 836 672 840 670 846 C670 849 669 850 669 850 L642 850 L630 850 L619 850 L517 850 C517 850 516 849 515 846 C508 837 504 831 504 831 L588 795 L369 412 L149 795 L149 795 L227 831 C228 831 224 837 217 846 C216 849 215 850 215 850 L117 850 L88 850 L59 850 L34 850 C34 850 33 848 33 845 C31 837 29 833 29 833 L88 800 L325 391 L325 55 L325 55 Z " />
<glyph glyph-name="agrave" unicode="&#xe0;" horiz-adv-x="489" d="M248 530 L161 707 L111 707 C111 697 113 688 116 685 L244 530 L248 530 L248 530 Z M332 255 C149 218 55 153 55 84 C55 27 101 -11 170 -11 C234 -11 295 12 333 57 C338 15 366 -12 407 -12 C437 -12 467 9 481 41 L480 43 C478 38 473 34 468 34 C417 34 383 47 383 67 L383 346 C383 413 336 458 245 458 C162 458 89 443 75 423 C73 421 76 417 81 414 L94 409 L99 409 C112 428 171 443 236 443 C300 443 333 399 333 333 L332 255 L332 255 Z M333 241 L333 71 C333 69 333 67 333 65 C303 30 258 12 211 12 C147 12 104 45 104 95 C104 154 182 210 333 241 L333 241 Z " />
<glyph glyph-name="aacute" unicode="&#xe1;" horiz-adv-x="489" d="M246 530 L250 530 L378 685 C381 688 383 697 383 707 L333 707 L246 530 L246 530 Z M332 255 C149 218 55 153 55 84 C55 27 101 -11 170 -11 C234 -11 295 12 333 57 C338 15 366 -12 407 -12 C437 -12 467 9 481 41 L480 43 C478 38 473 34 468 34 C417 34 383 47 383 67 L383 346 C383 413 336 458 245 458 C162 458 89 443 75 423 C73 421 76 417 81 414 L94 409 L99 409 C112 428 171 443 236 443 C300 443 333 399 333 333 L332 255 L332 255 Z M333 241 L333 71 C333 69 333 67 333 65 C303 30 258 12 211 12 C147 12 104 45 104 95 C104 154 182 210 333 241 L333 241 Z " />
<glyph glyph-name="acircumflex" unicode="&#xe2;" horiz-adv-x="489" d="M382 530 L249 705 L239 705 L110 530 L114 530 L244 646 L378 530 L382 530 L382 530 Z M332 255 C149 218 55 153 55 84 C55 27 101 -11 170 -11 C234 -11 295 12 333 57 C338 15 366 -12 407 -12 C437 -12 467 9 481 41 L480 43 C478 38 473 34 468 34 C417 34 383 47 383 67 L383 346 C383 413 336 458 245 458 C162 458 89 443 75 423 C73 421 76 417 81 414 L94 409 L99 409 C112 428 171 443 236 443 C300 443 333 399 333 333 L332 255 L332 255 Z M333 241 L333 71 C333 69 333 67 333 65 C303 30 258 12 211 12 C147 12 104 45 104 95 C104 154 182 210 333 241 L333 241 Z " />
<glyph glyph-name="atilde" unicode="&#xe3;" horiz-adv-x="489" d="M83 555 C96 596 110 624 158 624 C205 624 238 563 285 563 C338 563 358 606 379 671 L375 671 C361 628 347 600 300 600 C253 600 220 660 173 660 C119 660 99 618 79 555 L83 555 L83 555 Z M332 255 C149 218 55 153 55 84 C55 27 101 -11 170 -11 C234 -11 295 12 333 57 C338 15 366 -12 407 -12 C437 -12 467 9 481 41 L480 43 C478 38 473 34 468 34 C417 34 383 47 383 67 L383 346 C383 413 336 458 245 458 C162 458 89 443 75 423 C73 421 76 417 81 414 L94 409 L99 409 C112 428 171 443 236 443 C300 443 333 399 333 333 L332 255 L332 255 Z M333 241 L333 71 C333 69 333 67 333 65 C303 30 258 12 211 12 C147 12 104 45 104 95 C104 154 182 210 333 241 L333 241 Z " />
<glyph glyph-name="adieresis" unicode="&#xe4;" horiz-adv-x="489" d="M304 570 C323 570 335 583 335 601 C335 620 323 633 304 633 C285 633 273 620 273 601 C273 583 285 570 304 570 L304 570 Z M154 570 C173 570 185 583 185 601 C185 620 173 633 154 633 C135 633 123 620 123 601 C123 583 135 570 154 570 L154 570 Z M332 255 C149 218 55 153 55 84 C55 27 101 -11 170 -11 C234 -11 295 12 333 57 C338 15 366 -12 407 -12 C437 -12 467 9 481 41 L480 43 C478 38 473 34 468 34 C417 34 383 47 383 67 L383 346 C383 413 336 458 245 458 C162 458 89 443 75 423 C73 421 76 417 81 414 L94 409 L99 409 C112 428 171 443 236 443 C300 443 333 399 333 333 L332 255 L332 255 Z M333 241 L333 71 C333 69 333 67 333 65 C303 30 258 12 211 12 C147 12 104 45 104 95 C104 154 182 210 333 241 L333 241 Z " />
<glyph glyph-name="aring" unicode="&#xe5;" horiz-adv-x="489" d="M235 543 C208 543 184 577 184 618 C184 657 204 683 233 683 C264 683 284 653 284 609 C284 573 262 543 235 543 L235 543 Z M153 613 C153 571 190 535 234 535 C278 535 315 572 315 615 C315 660 283 691 234 691 C185 691 153 660 153 613 L153 613 Z M332 255 C149 218 55 153 55 84 C55 27 101 -11 170 -11 C234 -11 295 12 333 57 C338 15 366 -12 407 -12 C437 -12 467 9 481 41 L480 43 C478 38 473 34 468 34 C417 34 383 47 383 67 L383 346 C383 413 336 458 245 458 C162 458 89 443 75 423 C73 421 76 417 81 414 L94 409 L99 409 C112 428 171 443 236 443 C300 443 333 399 333 333 L332 255 L332 255 Z M333 241 L333 71 C333 69 333 67 333 65 C303 30 258 12 211 12 C147 12 104 45 104 95 C104 154 182 210 333 241 L333 241 Z " />
<glyph glyph-name="ccedilla" unicode="&#xe7;" horiz-adv-x="477" d="M228 -97 L268 -10 C338 -9 403 13 432 45 L433 48 L433 48 L433 49 L429 49 C397 29 335 16 275 16 C169 16 99 105 99 238 C99 364 167 447 270 447 C312 447 356 424 379 390 L404 355 L408 355 L409 360 L432 382 C432 382 431 384 429 388 C431 388 432 386 432 382 L428 388 L428 388 C425 393 420 401 413 410 C392 441 339 461 281 461 C143 461 50 361 50 210 C50 81 132 -6 257 -8 L201 -128 L211 -133 C256 -147 286 -167 286 -182 C286 -210 276 -229 260 -229 C228 -229 197 -221 181 -209 L181 -213 C201 -228 235 -238 265 -238 C300 -238 324 -211 324 -172 C324 -145 286 -115 229 -96 L228 -97 L228 -97 Z " />
<glyph glyph-name="egrave" unicode="&#xe8;" horiz-adv-x="483" d="M256 530 L169 707 L119 707 C119 697 121 688 124 685 L252 530 L256 530 L256 530 Z M261 261 L100 261 C107 373 167 446 254 446 C332 446 384 372 388 261 L261 261 L261 261 Z M261 245 L411 245 L433 247 C433 375 364 460 261 460 C134 460 50 360 50 209 C50 78 134 -10 261 -10 C334 -10 403 12 433 45 L434 48 L434 48 L434 49 L430 49 C398 29 336 16 276 16 C170 16 100 105 100 238 C100 241 100 244 100 247 L261 245 L261 245 Z " />
<glyph glyph-name="eacute" unicode="&#xe9;" horiz-adv-x="483" d="M254 530 L258 530 L385 685 C389 688 391 697 391 707 L341 707 L254 530 L254 530 Z M261 261 L100 261 C107 373 167 446 254 446 C332 446 384 372 388 261 L261 261 L261 261 Z M261 245 L411 245 L433 247 C433 375 364 460 261 460 C134 460 50 360 50 209 C50 78 134 -10 261 -10 C334 -10 403 12 433 45 L434 48 L434 48 L434 49 L430 49 C398 29 336 16 276 16 C170 16 100 105 100 238 C100 241 100 244 100 247 L261 245 L261 245 Z " />
<glyph glyph-name="ecircumflex" unicode="&#xea;" horiz-adv-x="483" d="M390 530 L257 705 L247 705 L118 530 L122 530 L252 646 L386 530 L390 530 L390 530 Z M261 261 L100 261 C107 373 167 446 254 446 C332 446 384 372 388 261 L261 261 L261 261 Z M261 245 L411 245 L433 247 C433 375 364 460 261 460 C134 460 50 360 50 209 C50 78 134 -10 261 -10 C334 -10 403 12 433 45 L434 48 L434 48 L434 49 L430 49 C398 29 336 16 276 16 C170 16 100 105 100 238 C100 241 100 244 100 247 L261 245 L261 245 Z " />
<glyph glyph-name="edieresis" unicode="&#xeb;" horiz-adv-x="483" d="M327 570 C345 570 358 583 358 601 C358 620 345 633 327 633 C308 633 295 620 295 601 C295 583 308 570 327 570 L327 570 Z M177 570 C195 570 208 583 208 601 C208 620 195 633 177 633 C158 633 145 620 145 601 C145 583 158 570 177 570 L177 570 Z M261 261 L100 261 C107 373 167 446 254 446 C332 446 384 372 388 261 L261 261 L261 261 Z M261 245 L411 245 L433 247 C433 375 364 460 261 460 C134 460 50 360 50 209 C50 78 134 -10 261 -10 C334 -10 403 12 433 45 L434 48 L434 48 L434 49 L430 49 C398 29 336 16 276 16 C170 16 100 105 100 238 C100 241 100 244 100 247 L261 245 L261 245 Z " />
<glyph glyph-name="igrave" unicode="&#xec;" horiz-adv-x="287" d="M143 530 L56 707 L6 707 C6 697 8 688 11 685 L139 530 L143 530 L143 530 Z M144 0 L169 0 L231 0 C231 0 232 1 233 3 C236 12 239 18 239 18 L169 50 L169 375 L169 443 L169 460 L159 460 L61 422 L61 421 C57 417 54 413 54 413 L119 357 L119 50 L54 18 C54 18 56 12 60 3 C61 1 61 0 61 0 L119 0 L144 0 L144 0 Z " />
<glyph glyph-name="iacute" unicode="&#xed;" horiz-adv-x="287" d="M141 530 L145 530 L273 685 C276 688 278 697 278 707 L228 707 L141 530 L141 530 Z M144 0 L169 0 L231 0 C231 0 232 1 233 3 C236 12 239 18 239 18 L169 50 L169 375 L169 443 L169 460 L159 460 L61 422 L61 421 C57 417 54 413 54 413 L119 357 L119 50 L54 18 C54 18 56 12 60 3 C61 1 61 0 61 0 L119 0 L144 0 L144 0 Z " />
<glyph glyph-name="icircumflex" unicode="&#xee;" horiz-adv-x="287" d="M278 530 L144 705 L134 705 L5 530 L10 530 L139 645 L273 530 L278 530 L278 530 Z M144 0 L169 0 L231 0 C231 0 232 1 233 3 C236 12 239 18 239 18 L169 50 L169 375 L169 443 L169 460 L159 460 L61 422 L61 421 C57 417 54 413 54 413 L119 357 L119 50 L54 18 C54 18 56 12 60 3 C61 1 61 0 61 0 L119 0 L144 0 L144 0 Z " />
<glyph glyph-name="idieresis" unicode="&#xef;" horiz-adv-x="287" d="M214 570 C233 570 245 583 245 601 C245 620 233 633 214 633 C195 633 183 620 183 601 C183 583 195 570 214 570 L214 570 Z M64 570 C83 570 95 583 95 601 C95 620 83 633 64 633 C45 633 33 620 33 601 C33 583 45 570 64 570 L64 570 Z M144 0 L169 0 L231 0 C231 0 232 1 233 3 C236 12 239 18 239 18 L169 50 L169 375 L169 443 L169 460 L159 460 L61 422 L61 421 C57 417 54 413 54 413 L119 357 L119 50 L54 18 C54 18 56 12 60 3 C61 1 61 0 61 0 L119 0 L144 0 L144 0 Z " />
<glyph glyph-name="ntilde" unicode="&#xf1;" horiz-adv-x="582" d="M151 555 C164 596 178 624 225 624 C272 624 306 563 353 563 C405 563 425 606 446 671 L442 671 C428 628 414 600 367 600 C320 600 287 660 240 660 C186 660 166 618 146 555 L151 555 L151 555 Z M453 0 L478 0 L535 0 C535 0 536 1 537 3 C540 12 542 18 543 18 L478 50 L478 343 C478 413 419 460 331 460 C267 460 213 426 164 376 L164 381 L164 381 L161 460 L151 460 L56 422 L56 421 C52 416 49 413 49 413 L114 357 L114 50 L49 18 C49 18 51 12 55 3 C56 1 56 0 56 0 L114 0 L139 0 L164 0 L226 0 C226 0 227 1 228 3 C231 12 234 18 234 18 L164 50 L164 366 C205 408 254 436 316 436 C382 436 427 387 427 314 L427 50 L357 18 C357 18 359 12 363 3 C364 1 364 0 364 0 L427 0 L453 0 L453 0 Z " />
<glyph glyph-name="ograve" unicode="&#xf2;" horiz-adv-x="529" d="M269 530 L182 707 L132 707 C132 697 134 688 137 685 L265 530 L269 530 L269 530 Z M269 4 C172 4 108 92 108 225 C108 358 160 446 260 446 C357 446 422 358 422 225 C422 92 370 4 269 4 L269 4 Z M50 225 C50 84 136 -10 265 -10 C406 -10 479 84 479 225 C479 366 393 460 265 460 C123 460 50 366 50 225 L50 225 Z " />
<glyph glyph-name="oacute" unicode="&#xf3;" horiz-adv-x="529" d="M267 530 L271 530 L398 685 C402 688 404 697 404 707 L354 707 L267 530 L267 530 Z M269 4 C172 4 108 92 108 225 C108 358 160 446 260 446 C357 446 422 358 422 225 C422 92 370 4 269 4 L269 4 Z M50 225 C50 84 136 -10 265 -10 C406 -10 479 84 479 225 C479 366 393 460 265 460 C123 460 50 366 50 225 L50 225 Z " />
<glyph glyph-name="ocircumflex" unicode="&#xf4;" horiz-adv-x="529" d="M403 530 L270 705 L260 705 L131 530 L135 530 L265 646 L399 530 L403 530 L403 530 Z M269 4 C172 4 108 92 108 225 C108 358 160 446 260 446 C357 446 422 358 422 225 C422 92 370 4 269 4 L269 4 Z M50 225 C50 84 136 -10 265 -10 C406 -10 479 84 479 225 C479 366 393 460 265 460 C123 460 50 366 50 225 L50 225 Z " />
<glyph glyph-name="otilde" unicode="&#xf5;" horiz-adv-x="529" d="M119 555 C132 596 146 624 194 624 C241 624 274 563 321 563 C374 563 394 606 415 671 L410 671 C396 628 382 600 336 600 C289 600 255 660 208 660 C155 660 135 618 115 555 L119 555 L119 555 Z M269 4 C172 4 108 92 108 225 C108 358 160 446 260 446 C357 446 422 358 422 225 C422 92 370 4 269 4 L269 4 Z M50 225 C50 84 136 -10 265 -10 C406 -10 479 84 479 225 C479 366 393 460 265 460 C123 460 50 366 50 225 L50 225 Z " />
<glyph glyph-name="odieresis" unicode="&#xf6;" horiz-adv-x="529" d="M340 570 C358 570 371 583 371 601 C371 620 358 633 340 633 C321 633 308 620 308 601 C308 583 321 570 340 570 L340 570 Z M190 570 C208 570 221 583 221 601 C221 620 208 633 190 633 C171 633 158 620 158 601 C158 583 171 570 190 570 L190 570 Z M269 4 C172 4 108 92 108 225 C108 358 160 446 260 446 C357 446 422 358 422 225 C422 92 370 4 269 4 L269 4 Z M50 225 C50 84 136 -10 265 -10 C406 -10 479 84 479 225 C479 366 393 460 265 460 C123 460 50 366 50 225 L50 225 Z " />
<glyph glyph-name="oslash" unicode="&#xf8;" horiz-adv-x="529" d="M269 4 C221 4 181 26 153 64 L395 357 C413 321 423 276 423 224 C423 91 371 3 270 3 L269 4 L269 4 Z M51 224 C51 155 71 98 107 57 L51 -11 L92 -11 L130 35 C166 6 212 -10 266 -10 C407 -10 480 84 480 225 C480 294 460 352 424 393 L480 461 L439 461 L401 415 C365 444 319 460 266 460 C124 460 51 366 51 225 L51 224 L51 224 Z M136 93 C119 129 109 174 109 226 C109 359 161 447 261 447 C309 447 349 425 377 387 L136 93 L136 93 Z " />
<glyph glyph-name="ugrave" unicode="&#xf9;" horiz-adv-x="544" d="M271 530 L184 707 L134 707 C134 697 136 688 140 685 L267 530 L271 530 L271 530 Z M404 400 L404 92 C350 40 293 14 248 14 C183 14 140 63 140 137 L140 450 L115 450 L90 450 L32 450 C32 450 32 449 31 447 C27 438 25 433 25 433 L90 400 L90 107 C90 37 147 -10 233 -10 C279 -10 341 21 403 82 L403 0 L428 0 L453 0 L515 0 C515 0 515 1 516 3 C520 12 522 18 523 18 L453 50 L453 450 L428 450 L403 450 L340 450 C340 450 340 449 339 447 C335 438 333 433 333 433 L404 400 L404 400 Z " />
<glyph glyph-name="uacute" unicode="&#xfa;" horiz-adv-x="544" d="M269 530 L273 530 L401 685 C404 688 406 697 406 707 L356 707 L269 530 L269 530 Z M404 400 L404 92 C350 40 293 14 248 14 C183 14 140 63 140 137 L140 450 L115 450 L90 450 L32 450 C32 450 32 449 31 447 C27 438 25 433 25 433 L90 400 L90 107 C90 37 147 -10 233 -10 C279 -10 341 21 403 82 L403 0 L428 0 L453 0 L515 0 C515 0 515 1 516 3 C520 12 522 18 523 18 L453 50 L453 450 L428 450 L403 450 L340 450 C340 450 340 449 339 447 C335 438 333 433 333 433 L404 400 L404 400 Z " />
<glyph glyph-name="ucircumflex" unicode="&#xfb;" horiz-adv-x="544" d="M406 530 L272 705 L262 705 L134 530 L138 530 L267 645 L402 530 L406 530 L406 530 Z M404 400 L404 92 C350 40 293 14 248 14 C183 14 140 63 140 137 L140 450 L115 450 L90 450 L32 450 C32 450 32 449 31 447 C27 438 25 433 25 433 L90 400 L90 107 C90 37 147 -10 233 -10 C279 -10 341 21 403 82 L403 0 L428 0 L453 0 L515 0 C515 0 515 1 516 3 C520 12 522 18 523 18 L453 50 L453 450 L428 450 L403 450 L340 450 C340 450 340 449 339 447 C335 438 333 433 333 433 L404 400 L404 400 Z " />
<glyph glyph-name="udieresis" unicode="&#xfc;" horiz-adv-x="544" d="M342 570 C361 570 374 583 374 601 C374 620 361 633 342 633 C324 633 311 620 311 601 C311 583 324 570 342 570 L342 570 Z M192 570 C211 570 224 583 224 601 C224 620 211 633 192 633 C174 633 161 620 161 601 C161 583 174 570 192 570 L192 570 Z M404 400 L404 92 C350 40 293 14 248 14 C183 14 140 63 140 137 L140 450 L115 450 L90 450 L32 450 C32 450 32 449 31 447 C27 438 25 433 25 433 L90 400 L90 107 C90 37 147 -10 233 -10 C279 -10 341 21 403 82 L403 0 L428 0 L453 0 L515 0 C515 0 515 1 516 3 C520 12 522 18 523 18 L453 50 L453 450 L428 450 L403 450 L340 450 C340 450 340 449 339 447 C335 438 333 433 333 433 L404 400 L404 400 Z " />
<glyph glyph-name="yacute" unicode="&#xfd;" horiz-adv-x="471" d="M248 530 L252 530 L380 685 C383 688 385 697 385 707 L335 707 L248 530 L248 530 Z M407 395 L407 395 L260 43 L270 67 L103 400 L188 433 C188 433 184 438 178 447 L175 450 L78 450 L50 450 L22 450 L-18 450 L-20 446 C-23 437 -24 433 -24 433 L47 400 L47 400 L245 6 L208 -82 C177 -158 144 -188 91 -188 L65 -188 L61 -192 L61 -222 C61 -235 67 -240 82 -240 C137 -240 175 -197 220 -87 L421 395 L496 431 C496 431 494 437 491 445 C490 448 490 450 490 450 L444 450 L437 450 L430 450 L341 450 C341 450 340 449 339 446 C333 437 330 431 330 431 L407 395 L407 395 Z " />
<glyph glyph-name="ydieresis" unicode="&#xff;" horiz-adv-x="471" d="M321 570 C340 570 352 583 352 601 C352 620 340 633 321 633 C302 633 290 620 290 601 C290 583 302 570 321 570 L321 570 Z M171 570 C190 570 202 583 202 601 C202 620 190 633 171 633 C152 633 140 620 140 601 C140 583 152 570 171 570 L171 570 Z M407 395 L407 395 L260 43 L270 67 L103 400 L188 433 C188 433 184 438 178 447 L175 450 L78 450 L50 450 L22 450 L-18 450 L-20 446 C-23 437 -24 433 -24 433 L47 400 L47 400 L245 6 L208 -82 C177 -158 144 -188 91 -188 L65 -188 L61 -192 L61 -222 C61 -235 67 -240 82 -240 C137 -240 175 -197 220 -87 L421 395 L496 431 C496 431 494 437 491 445 C490 448 490 450 490 450 L444 450 L437 450 L430 450 L341 450 C341 450 340 449 339 446 C333 437 330 431 330 431 L407 395 L407 395 Z " />
<glyph glyph-name="Amacron" unicode="&#x100;" horiz-adv-x="738" d="M233 957 L499 957 L499 988 L233 988 L233 957 L233 957 Z M488 354 L211 354 L351 789 L488 354 L488 354 Z M494 336 L584 50 L584 50 L492 18 C492 18 496 12 501 3 L504 0 L600 0 L629 0 L659 0 L700 0 C700 0 700 1 701 4 C704 11 706 16 706 16 L645 45 L390 836 L384 855 L352 855 L86 35 L86 35 L31 12 C31 12 33 8 35 3 C36 1 37 0 37 0 L75 0 L86 0 L98 0 L186 0 C186 0 187 1 188 3 C194 12 197 18 197 18 L114 50 L205 335 L494 335 L494 336 L494 336 Z " />
<glyph glyph-name="amacron" unicode="&#x101;" horiz-adv-x="489" d="M101 597 L367 597 L367 628 L101 628 L101 597 L101 597 Z M332 255 C149 218 55 153 55 84 C55 27 101 -11 170 -11 C234 -11 295 12 333 57 C338 15 366 -12 407 -12 C437 -12 467 9 481 41 L480 43 C478 38 473 34 468 34 C417 34 383 47 383 67 L383 346 C383 413 336 458 245 458 C162 458 89 443 75 423 C73 421 76 417 81 414 L94 409 L99 409 C112 428 171 443 236 443 C300 443 333 399 333 333 L332 255 L332 255 Z M333 241 L333 71 C333 69 333 67 333 65 C303 30 258 12 211 12 C147 12 104 45 104 95 C104 154 182 210 333 241 L333 241 Z " />
<glyph glyph-name="Abreve" unicode="&#x102;" horiz-adv-x="738" d="M231 1032 L227 1032 C260 940 299 904 366 904 C434 904 473 940 506 1032 L501 1032 C478 967 440 942 366 942 C293 942 255 967 231 1032 L231 1032 Z M488 354 L211 354 L351 789 L488 354 L488 354 Z M494 336 L584 50 L584 50 L492 18 C492 18 496 12 501 3 L504 0 L600 0 L629 0 L659 0 L700 0 C700 0 700 1 701 4 C704 11 706 16 706 16 L645 45 L390 836 L384 855 L352 855 L86 35 L86 35 L31 12 C31 12 33 8 35 3 C36 1 37 0 37 0 L75 0 L86 0 L98 0 L186 0 C186 0 187 1 188 3 C194 12 197 18 197 18 L114 50 L205 335 L494 335 L494 336 L494 336 Z " />
<glyph glyph-name="abreve" unicode="&#x103;" horiz-adv-x="489" d="M99 682 L94 682 C127 580 166 540 234 540 C301 540 340 580 374 682 L369 682 C345 610 307 582 234 582 C160 582 122 610 99 682 L99 682 Z M332 255 C149 218 55 153 55 84 C55 27 101 -11 170 -11 C234 -11 295 12 333 57 C338 15 366 -12 407 -12 C437 -12 467 9 481 41 L480 43 C478 38 473 34 468 34 C417 34 383 47 383 67 L383 346 C383 413 336 458 245 458 C162 458 89 443 75 423 C73 421 76 417 81 414 L94 409 L99 409 C112 428 171 443 236 443 C300 443 333 399 333 333 L332 255 L332 255 Z M333 241 L333 71 C333 69 333 67 333 65 C303 30 258 12 211 12 C147 12 104 45 104 95 C104 154 182 210 333 241 L333 241 Z " />
<glyph glyph-name="Cacute" unicode="&#x106;" horiz-adv-x="708" d="M368 895 L372 895 L500 1034 C503 1038 505 1046 505 1054 L455 1054 L368 895 L368 895 Z M618 8 L618 8 C622 9 622 9 617 9 L617 21 L617 21 L613 110 C611 111 607 113 605 115 C603 117 599 119 597 120 C583 90 564 50 550 19 C549 16 547 14 544 13 C495 9 442 6 396 6 C235 6 128 172 128 420 C128 673 241 842 411 842 C447 842 490 840 531 836 L531 836 C534 836 538 834 539 830 C554 795 573 748 588 713 C590 715 594 717 596 719 C599 721 603 723 605 725 L613 851 C585 856 504 859 411 859 C206 859 70 676 70 402 C70 154 200 -11 396 -11 C496 -11 585 -8 618 -3 L618 8 L618 8 Z " />
<glyph glyph-name="cacute" unicode="&#x107;" horiz-adv-x="477" d="M259 530 L263 530 L390 685 C394 688 396 697 396 707 L346 707 L259 530 L259 530 Z M404 354 L408 354 L409 359 L432 381 C432 381 431 383 429 387 C431 387 432 385 432 381 L428 387 L428 387 C425 392 420 400 413 409 C392 440 339 460 281 460 C143 460 50 360 50 209 C50 78 134 -10 261 -10 C334 -10 403 12 433 45 L434 48 L434 48 L434 49 L430 49 C398 29 336 16 276 16 C170 16 100 105 100 238 C100 364 168 447 271 447 C313 447 357 424 380 390 L404 354 L404 354 Z " />
<glyph glyph-name="Ccaron" unicode="&#x10c;" horiz-adv-x="708" d="M524 1057 L391 900 L381 900 L252 1057 L256 1057 L386 953 L520 1057 L524 1057 L524 1057 Z M618 8 L618 8 C622 9 622 9 617 9 L617 21 L617 21 L613 110 C611 111 607 113 605 115 C603 117 599 119 597 120 C583 90 564 50 550 19 C549 16 547 14 544 13 C495 9 442 6 396 6 C235 6 128 172 128 420 C128 673 241 842 411 842 C447 842 490 840 531 836 L531 836 C534 836 538 834 539 830 C554 795 573 748 588 713 C590 715 594 717 596 719 C599 721 603 723 605 725 L613 851 C585 856 504 859 411 859 C206 859 70 676 70 402 C70 154 200 -11 396 -11 C496 -11 585 -8 618 -3 L618 8 L618 8 Z " />
<glyph glyph-name="ccaron" unicode="&#x10d;" horiz-adv-x="477" d="M395 710 L262 535 L252 535 L123 710 L127 710 L257 594 L391 710 L395 710 L395 710 Z M404 354 L408 354 L409 359 L432 381 C432 381 431 383 429 387 C431 387 432 385 432 381 L428 387 L428 387 C425 392 420 400 413 409 C392 440 339 460 281 460 C143 460 50 360 50 209 C50 78 134 -10 261 -10 C334 -10 403 12 433 45 L434 48 L434 48 L434 49 L430 49 C398 29 336 16 276 16 C170 16 100 105 100 238 C100 364 168 447 271 447 C313 447 357 424 380 390 L404 354 L404 354 Z " />
<glyph glyph-name="Dcaron" unicode="&#x10e;" horiz-adv-x="766" d="M569 1057 L436 900 L426 900 L297 1057 L301 1057 L431 953 L565 1057 L569 1057 L569 1057 Z M185 0 L201 0 L333 0 C551 8 696 165 696 460 C696 717 548 850 326 850 L201 850 L173 850 L145 850 L74 850 C74 850 73 849 72 846 C68 837 65 831 65 831 L145 795 L145 55 L65 19 C65 19 68 13 72 4 C73 1 74 0 74 0 L145 0 L173 0 L185 0 L185 0 Z M201 18 L201 832 L317 832 C510 832 638 698 638 439 C638 168 516 25 333 18 L201 18 L201 18 Z " />
<glyph glyph-name="dcaron" unicode="&#x10f;" horiz-adv-x="566" d="M597 750 L550 750 L528 563 L532 563 L593 730 C595 737 597 745 597 750 L597 750 Z M427 0 L449 0 L511 0 C511 0 512 1 512 3 C516 12 518 18 519 18 L449 50 L449 60 L449 685 L449 743 L449 760 L439 760 L341 722 L340 721 C337 717 334 714 334 714 L399 667 L399 444 C365 454 324 460 287 460 C144 460 48 354 48 196 C48 72 122 -10 232 -10 C298 -10 363 17 399 58 L405 0 L427 0 L427 0 Z M399 415 L399 70 C368 35 310 13 251 13 C159 13 98 93 98 212 C98 351 172 444 283 444 C312 444 356 433 399 415 L399 415 Z " />
<glyph glyph-name="Emacron" unicode="&#x112;" horiz-adv-x="649" d="M202 957 L468 957 L468 988 L202 988 L202 957 L202 957 Z M577 18 C574 54 569 97 565 129 C565 130 564 130 563 131 C553 139 546 144 546 143 L501 18 L200 18 L200 429 L404 429 L446 349 C446 349 453 352 464 356 C467 357 469 358 469 358 L469 429 L469 438 L469 447 L469 518 C469 518 467 519 464 520 C453 524 446 527 446 527 L404 447 L200 447 L200 832 L476 832 L522 717 C522 717 529 721 538 728 C540 728 541 729 541 729 C544 760 548 799 551 832 L554 832 L554 850 L553 850 L544 850 L535 850 L503 850 L200 850 L172 850 L158 850 L144 850 L73 850 C73 850 72 849 71 846 C67 837 64 831 64 831 L144 795 L144 55 L64 19 C64 19 67 13 71 4 C72 1 73 0 73 0 L144 0 L158 0 L172 0 L200 0 L528 0 L560 0 L569 0 L578 0 L579 0 L579 18 L577 18 L577 18 Z " />
<glyph glyph-name="emacron" unicode="&#x113;" horiz-adv-x="483" d="M124 597 L390 597 L390 628 L124 628 L124 597 L124 597 Z M261 261 L100 261 C107 373 167 446 254 446 C332 446 384 372 388 261 L261 261 L261 261 Z M261 245 L411 245 L433 247 C433 375 364 460 261 460 C134 460 50 360 50 209 C50 78 134 -10 261 -10 C334 -10 403 12 433 45 L434 48 L434 48 L434 49 L430 49 C398 29 336 16 276 16 C170 16 100 105 100 238 C100 241 100 244 100 247 L261 245 L261 245 Z " />
<glyph glyph-name="Edot" unicode="&#x116;" horiz-adv-x="649" d="M340 915 C362 915 377 930 377 953 C377 975 362 990 340 990 C317 990 302 975 302 953 C302 930 317 915 340 915 L340 915 Z M577 18 C574 54 569 97 565 129 C565 130 564 130 563 131 C553 139 546 144 546 143 L501 18 L200 18 L200 429 L404 429 L446 349 C446 349 453 352 464 356 C467 357 469 358 469 358 L469 429 L469 438 L469 447 L469 518 C469 518 467 519 464 520 C453 524 446 527 446 527 L404 447 L200 447 L200 832 L476 832 L522 717 C522 717 529 721 538 728 C540 728 541 729 541 729 C544 760 548 799 551 832 L554 832 L554 850 L553 850 L544 850 L535 850 L503 850 L200 850 L172 850 L158 850 L144 850 L73 850 C73 850 72 849 71 846 C67 837 64 831 64 831 L144 795 L144 55 L64 19 C64 19 67 13 71 4 C72 1 73 0 73 0 L144 0 L158 0 L172 0 L200 0 L528 0 L560 0 L569 0 L578 0 L579 0 L579 18 L577 18 L577 18 Z " />
<glyph glyph-name="edot" unicode="&#x117;" horiz-adv-x="483" d="M262 583 C284 583 299 598 299 621 C299 643 284 658 262 658 C239 658 224 643 224 621 C224 598 239 583 262 583 L262 583 Z M261 261 L100 261 C107 373 167 446 254 446 C332 446 384 372 388 261 L261 261 L261 261 Z M261 245 L411 245 L433 247 C433 375 364 460 261 460 C134 460 50 360 50 209 C50 78 134 -10 261 -10 C334 -10 403 12 433 45 L434 48 L434 48 L434 49 L430 49 C398 29 336 16 276 16 C170 16 100 105 100 238 C100 241 100 244 100 247 L261 245 L261 245 Z " />
<glyph glyph-name="Ecaron" unicode="&#x11a;" horiz-adv-x="649" d="M473 1057 L340 900 L330 900 L201 1057 L205 1057 L335 953 L469 1057 L473 1057 L473 1057 Z M577 18 C574 54 569 97 565 129 C565 130 564 130 563 131 C553 139 546 144 546 143 L501 18 L200 18 L200 429 L404 429 L446 349 C446 349 453 352 464 356 C467 357 469 358 469 358 L469 429 L469 438 L469 447 L469 518 C469 518 467 519 464 520 C453 524 446 527 446 527 L404 447 L200 447 L200 832 L476 832 L522 717 C522 717 529 721 538 728 C540 728 541 729 541 729 C544 760 548 799 551 832 L554 832 L554 850 L553 850 L544 850 L535 850 L503 850 L200 850 L172 850 L158 850 L144 850 L73 850 C73 850 72 849 71 846 C67 837 64 831 64 831 L144 795 L144 55 L64 19 C64 19 67 13 71 4 C72 1 73 0 73 0 L144 0 L158 0 L172 0 L200 0 L528 0 L560 0 L569 0 L578 0 L579 0 L579 18 L577 18 L577 18 Z " />
<glyph glyph-name="ecaron" unicode="&#x11b;" horiz-adv-x="483" d="M390 710 L257 535 L247 535 L118 710 L122 710 L252 594 L386 710 L390 710 L390 710 Z M261 261 L100 261 C107 373 167 446 254 446 C332 446 384 372 388 261 L261 261 L261 261 Z M261 245 L411 245 L433 247 C433 375 364 460 261 460 C134 460 50 360 50 209 C50 78 134 -10 261 -10 C334 -10 403 12 433 45 L434 48 L434 48 L434 49 L430 49 C398 29 336 16 276 16 C170 16 100 105 100 238 C100 241 100 244 100 247 L261 245 L261 245 Z " />
<glyph glyph-name="Gbreve" unicode="&#x11e;" horiz-adv-x="764" d="M261 1032 L256 1032 C289 940 328 904 396 904 C464 904 503 940 536 1032 L531 1032 C508 967 470 942 396 942 C323 942 285 967 261 1032 L261 1032 Z M644 318 L719 354 C720 354 717 360 713 370 C712 372 711 374 711 373 C683 374 645 374 616 373 C586 374 544 374 513 373 C513 373 512 372 511 370 L503 354 L588 318 L588 42 C509 22 439 10 407 10 C240 10 129 175 129 421 C129 674 246 843 422 843 C461 843 507 841 551 837 L551 837 C554 836 558 834 559 831 C574 795 593 749 608 714 C610 716 614 718 616 720 C619 722 623 724 625 726 L633 852 C604 857 519 860 421 860 C210 860 70 677 70 403 C70 155 201 -10 397 -10 C438 -10 537 9 644 38 L644 318 L644 318 Z " />
<glyph glyph-name="gbreve" unicode="&#x11f;" horiz-adv-x="538" d="M124 682 L119 682 C153 580 192 540 259 540 C327 540 366 580 399 682 L394 682 C371 610 333 582 259 582 C186 582 148 610 124 682 L124 682 Z M258 154 C182 154 131 213 131 302 C131 389 172 447 252 447 C327 447 377 388 377 300 C377 212 337 154 258 154 L258 154 Z M80 301 C80 234 114 182 170 157 C117 140 82 110 82 80 C82 36 120 6 178 3 C111 -23 67 -74 67 -127 C67 -195 134 -240 234 -240 C374 -240 467 -178 467 -85 C467 -6 422 47 305 47 L202 47 C144 47 105 65 105 91 C105 117 134 142 178 154 C200 146 225 141 253 141 C368 141 428 205 428 301 C428 359 402 405 358 432 L488 431 L488 449 L334 444 C310 454 283 459 253 459 C138 459 79 395 79 300 L80 301 L80 301 Z M186 2 L280 2 C397 2 443 -36 443 -93 C443 -176 361 -232 237 -232 C161 -232 111 -188 111 -121 C111 -63 141 -14 186 2 L186 2 Z " />
<glyph glyph-name="Itilde" unicode="&#x128;" horiz-adv-x="356" d="M32 895 C46 936 60 964 107 964 C154 964 187 903 234 903 C287 903 307 946 328 1011 L324 1011 C310 968 296 940 249 940 C202 940 169 1000 122 1000 C68 1000 48 958 28 895 L32 895 L32 895 Z M178 0 L206 0 L277 0 C277 0 278 1 279 4 C284 13 286 19 286 19 L206 55 L206 795 L286 831 C286 831 284 837 279 846 C278 849 277 850 277 850 L206 850 L178 850 L150 850 L79 850 C79 850 78 849 77 846 C73 837 70 831 70 831 L150 795 L150 55 L70 19 C70 19 73 13 77 4 C78 1 79 0 79 0 L150 0 L178 0 L178 0 Z " />
<glyph glyph-name="itilde" unicode="&#x129;" horiz-adv-x="287" d="M-2 530 C12 571 26 599 73 599 C120 599 153 538 200 538 C253 538 273 581 294 646 L290 646 C276 603 262 575 215 575 C168 575 135 635 88 635 C34 635 14 593 -6 530 L-2 530 L-2 530 Z M144 0 L169 0 L231 0 C231 0 232 1 233 3 C236 12 239 18 239 18 L169 50 L169 375 L169 443 L169 460 L159 460 L61 422 L61 421 C57 417 54 413 54 413 L119 357 L119 50 L54 18 C54 18 56 12 60 3 C61 1 61 0 61 0 L119 0 L144 0 L144 0 Z " />
<glyph glyph-name="Imacron" unicode="&#x12a;" horiz-adv-x="356" d="M45 957 L311 957 L311 988 L45 988 L45 957 L45 957 Z M178 0 L206 0 L277 0 C277 0 278 1 279 4 C284 13 286 19 286 19 L206 55 L206 795 L286 831 C286 831 284 837 279 846 C278 849 277 850 277 850 L206 850 L178 850 L150 850 L79 850 C79 850 78 849 77 846 C73 837 70 831 70 831 L150 795 L150 55 L70 19 C70 19 73 13 77 4 C78 1 79 0 79 0 L150 0 L178 0 L178 0 Z " />
<glyph glyph-name="imacron" unicode="&#x12b;" horiz-adv-x="287" d="M6 597 L272 597 L272 628 L6 628 L6 597 L6 597 Z M144 0 L169 0 L231 0 C231 0 232 1 233 3 C236 12 239 18 239 18 L169 50 L169 375 L169 443 L169 460 L159 460 L61 422 L61 421 C57 417 54 413 54 413 L119 357 L119 50 L54 18 C54 18 56 12 60 3 C61 1 61 0 61 0 L119 0 L144 0 L144 0 Z " />
<glyph glyph-name="Idot" unicode="&#x130;" horiz-adv-x="356" d="M178 915 C201 915 216 930 216 953 C216 975 201 990 178 990 C156 990 141 975 141 953 C141 930 156 915 178 915 L178 915 Z M178 0 L206 0 L277 0 C277 0 278 1 279 4 C284 13 286 19 286 19 L206 55 L206 795 L286 831 C286 831 284 837 279 846 C278 849 277 850 277 850 L206 850 L178 850 L150 850 L79 850 C79 850 78 849 77 846 C73 837 70 831 70 831 L150 795 L150 55 L70 19 C70 19 73 13 77 4 C78 1 79 0 79 0 L150 0 L178 0 L178 0 Z " />
<glyph glyph-name="dotlessi" unicode="&#x131;" horiz-adv-x="287" d="M144 0 L169 0 L231 0 C231 0 232 1 233 3 C236 12 239 18 239 18 L169 50 L169 375 L169 443 L169 460 L159 460 L61 422 L61 421 C57 417 54 413 54 413 L119 357 L119 50 L54 18 C54 18 56 12 60 3 C61 1 61 0 61 0 L119 0 L144 0 L144 0 Z " />
<glyph glyph-name="Lacute" unicode="&#x139;" horiz-adv-x="629" d="M160 895 L164 895 L291 1034 C295 1038 297 1046 297 1054 L247 1054 L160 895 L160 895 Z M557 18 C553 64 547 121 543 165 C543 165 542 166 540 167 C529 177 522 184 522 183 L477 18 L201 18 L201 795 L286 831 C286 831 283 837 278 846 C277 849 277 850 276 850 L201 850 L173 850 L145 850 L74 850 C74 850 73 849 72 846 C68 837 65 831 65 831 L145 795 L145 55 L65 19 C65 19 68 13 72 4 C73 1 74 0 74 0 L145 0 L159 0 L173 0 L201 0 L509 0 L541 0 L550 0 L559 0 L560 0 L560 18 L557 18 L557 18 Z " />
<glyph glyph-name="lacute" unicode="&#x13a;" horiz-adv-x="268" d="M120 765 L125 765 L259 904 C262 908 264 916 264 924 L212 924 L120 765 L120 765 Z M134 0 L159 0 L221 0 C221 0 222 1 223 3 C226 12 229 18 229 18 L159 50 L159 675 L159 743 L159 760 L149 760 L51 722 L51 721 C47 717 44 713 44 713 L109 657 L109 50 L44 18 C44 18 46 12 50 3 C51 1 51 0 51 0 L109 0 L134 0 L134 0 Z " />
<glyph glyph-name="Lcaron" unicode="&#x13d;" horiz-adv-x="629" d="M523 850 L476 850 L454 663 L458 663 L519 830 C521 837 523 845 523 850 L523 850 Z M557 18 C553 64 547 121 543 165 C543 165 542 166 540 167 C529 177 522 184 522 183 L477 18 L201 18 L201 795 L286 831 C286 831 283 837 278 846 C277 849 277 850 276 850 L201 850 L173 850 L145 850 L74 850 C74 850 73 849 72 846 C68 837 65 831 65 831 L145 795 L145 55 L65 19 C65 19 68 13 72 4 C73 1 74 0 74 0 L145 0 L159 0 L173 0 L201 0 L509 0 L541 0 L550 0 L559 0 L560 0 L560 18 L557 18 L557 18 Z " />
<glyph glyph-name="lcaron" unicode="&#x13e;" horiz-adv-x="268" d="M307 750 L260 750 L238 563 L242 563 L303 730 C305 737 307 745 307 750 L307 750 Z M134 0 L159 0 L221 0 C221 0 222 1 223 3 C226 12 229 18 229 18 L159 50 L159 675 L159 743 L159 760 L149 760 L51 722 L51 721 C47 717 44 713 44 713 L109 657 L109 50 L44 18 C44 18 46 12 50 3 C51 1 51 0 51 0 L109 0 L134 0 L134 0 Z " />
<glyph glyph-name="Nacute" unicode="&#x143;" horiz-adv-x="799" d="M416 895 L420 895 L548 1034 C551 1038 553 1046 553 1054 L503 1054 L416 895 L416 895 Z M659 795 L734 831 C735 831 732 837 728 846 C727 849 726 850 726 850 L659 850 L648 850 L636 850 L547 850 C547 850 546 849 545 846 C540 837 536 831 536 831 L636 795 L636 96 L172 850 L160 850 L149 850 L82 850 C82 850 81 849 80 846 C76 837 73 831 74 831 L149 795 L149 55 L69 19 C69 19 72 13 76 4 C76 1 77 0 77 0 L149 0 L160 0 L172 0 L261 0 C261 0 262 1 263 4 C268 13 272 19 272 19 L172 55 L172 775 L630 12 L640 -5 L659 -5 L659 59 L659 795 L659 795 Z " />
<glyph glyph-name="nacute" unicode="&#x144;" horiz-adv-x="582" d="M298 530 L302 530 L430 685 C433 688 435 697 435 707 L385 707 L298 530 L298 530 Z M453 0 L478 0 L535 0 C535 0 536 1 537 3 C540 12 542 18 543 18 L478 50 L478 343 C478 413 419 460 331 460 C267 460 213 426 164 376 L164 381 L164 381 L161 460 L151 460 L56 422 L56 421 C52 416 49 413 49 413 L114 357 L114 50 L49 18 C49 18 51 12 55 3 C56 1 56 0 56 0 L114 0 L139 0 L164 0 L226 0 C226 0 227 1 228 3 C231 12 234 18 234 18 L164 50 L164 366 C205 408 254 436 316 436 C382 436 427 387 427 314 L427 50 L357 18 C357 18 359 12 363 3 C364 1 364 0 364 0 L427 0 L453 0 L453 0 Z " />
<glyph glyph-name="Ncaron" unicode="&#x147;" horiz-adv-x="799" d="M552 1057 L419 900 L409 900 L280 1057 L284 1057 L414 953 L548 1057 L552 1057 L552 1057 Z M659 795 L734 831 C735 831 732 837 728 846 C727 849 726 850 726 850 L659 850 L648 850 L636 850 L547 850 C547 850 546 849 545 846 C540 837 536 831 536 831 L636 795 L636 96 L172 850 L160 850 L149 850 L82 850 C82 850 81 849 80 846 C76 837 73 831 74 831 L149 795 L149 55 L69 19 C69 19 72 13 76 4 C76 1 77 0 77 0 L149 0 L160 0 L172 0 L261 0 C261 0 262 1 263 4 C268 13 272 19 272 19 L172 55 L172 775 L630 12 L640 -5 L659 -5 L659 59 L659 795 L659 795 Z " />
<glyph glyph-name="ncaron" unicode="&#x148;" horiz-adv-x="582" d="M435 710 L301 535 L291 535 L163 710 L167 710 L296 595 L431 710 L435 710 L435 710 Z M453 0 L478 0 L535 0 C535 0 536 1 537 3 C540 12 542 18 543 18 L478 50 L478 343 C478 413 419 460 331 460 C267 460 213 426 164 376 L164 381 L164 381 L161 460 L151 460 L56 422 L56 421 C52 416 49 413 49 413 L114 357 L114 50 L49 18 C49 18 51 12 55 3 C56 1 56 0 56 0 L114 0 L139 0 L164 0 L226 0 C226 0 227 1 228 3 C231 12 234 18 234 18 L164 50 L164 366 C205 408 254 436 316 436 C382 436 427 387 427 314 L427 50 L357 18 C357 18 359 12 363 3 C364 1 364 0 364 0 L427 0 L453 0 L453 0 Z " />
<glyph glyph-name="Omacron" unicode="&#x14c;" horiz-adv-x="798" d="M251 957 L517 957 L517 988 L251 988 L251 957 L251 957 Z M406 7 C240 7 130 184 130 448 C130 686 235 844 393 844 C558 844 668 667 668 401 C668 165 563 7 406 7 L406 7 Z M70 427 C70 165 202 -10 399 -10 C596 -10 728 163 728 423 C728 685 596 860 399 860 C202 860 70 687 70 427 L70 427 Z " />
<glyph glyph-name="omacron" unicode="&#x14d;" horiz-adv-x="529" d="M132 597 L398 597 L398 628 L132 628 L132 597 L132 597 Z M269 4 C172 4 108 92 108 225 C108 358 160 446 260 446 C357 446 422 358 422 225 C422 92 370 4 269 4 L269 4 Z M50 225 C50 84 136 -10 265 -10 C406 -10 479 84 479 225 C479 366 393 460 265 460 C123 460 50 366 50 225 L50 225 Z " />
<glyph glyph-name="Racute" unicode="&#x154;" horiz-adv-x="654" d="M316 895 L320 895 L448 1034 C451 1038 453 1046 453 1054 L403 1054 L316 895 L316 895 Z M575 50 L575 50 L350 423 C439 446 535 526 535 637 C535 766 447 851 316 851 L201 851 L173 851 L145 851 L74 851 C74 851 73 850 72 847 C68 838 65 832 65 832 L145 796 L145 56 L65 20 C65 20 68 14 72 5 C73 2 74 1 74 1 L145 1 L173 1 L201 1 L268 1 C268 1 268 2 269 5 C273 14 276 20 276 20 L201 56 L201 417 L290 417 L539 1 L572 1 L605 1 L639 1 C639 1 639 3 640 6 C642 14 644 18 644 18 L575 50 L575 50 Z M338 444 L331 455 L311 437 C304 436 297 435 290 435 L201 435 L201 833 L308 832 C408 832 474 752 474 632 C474 537 405 467 338 443 L338 444 L338 444 Z " />
<glyph glyph-name="racute" unicode="&#x155;" horiz-adv-x="343" d="M226 530 L230 530 L358 685 C361 688 363 697 363 707 L313 707 L226 530 L226 530 Z M238 433 C229 429 262 410 285 399 C308 388 323 382 323 383 L330 383 C338 400 343 417 343 425 C343 432 330 442 310 450 C302 453 276 460 261 460 C235 460 202 422 165 363 L165 375 L162 375 L165 376 L162 461 L152 461 L57 423 L57 422 C53 418 50 414 50 414 L115 358 L115 51 L50 19 C50 19 52 13 56 4 C57 2 57 1 57 1 L115 1 L140 1 L165 1 L227 1 C227 1 228 2 229 4 C232 13 235 19 235 19 L165 51 L165 352 C194 398 219 429 238 435 L238 433 L238 433 Z " />
<glyph glyph-name="Rcaron" unicode="&#x158;" horiz-adv-x="654" d="M463 1057 L329 900 L319 900 L191 1057 L195 1057 L325 953 L459 1057 L463 1057 L463 1057 Z M575 50 L575 50 L350 423 C439 446 535 526 535 637 C535 766 447 851 316 851 L201 851 L173 851 L145 851 L74 851 C74 851 73 850 72 847 C68 838 65 832 65 832 L145 796 L145 56 L65 20 C65 20 68 14 72 5 C73 2 74 1 74 1 L145 1 L173 1 L201 1 L268 1 C268 1 268 2 269 5 C273 14 276 20 276 20 L201 56 L201 417 L290 417 L539 1 L572 1 L605 1 L639 1 C639 1 639 3 640 6 C642 14 644 18 644 18 L575 50 L575 50 Z M338 444 L331 455 L311 437 C304 436 297 435 290 435 L201 435 L201 833 L308 832 C408 832 474 752 474 632 C474 537 405 467 338 443 L338 444 L338 444 Z " />
<glyph glyph-name="rcaron" unicode="&#x159;" horiz-adv-x="343" d="M363 710 L229 535 L219 535 L91 710 L95 710 L224 595 L359 710 L363 710 L363 710 Z M238 433 C229 429 262 410 285 399 C308 388 323 382 323 383 L330 383 C338 400 343 417 343 425 C343 432 330 442 310 450 C302 453 276 460 261 460 C235 460 202 422 165 363 L165 375 L162 375 L165 376 L162 461 L152 461 L57 423 L57 422 C53 418 50 414 50 414 L115 358 L115 51 L50 19 C50 19 52 13 56 4 C57 2 57 1 57 1 L115 1 L140 1 L165 1 L227 1 C227 1 228 2 229 4 C232 13 235 19 235 19 L165 51 L165 352 C194 398 219 429 238 435 L238 433 L238 433 Z " />
<glyph glyph-name="Sacute" unicode="&#x15a;" horiz-adv-x="511" d="M247 895 L251 895 L379 1034 C382 1038 384 1046 384 1054 L334 1054 L247 895 L247 895 Z M75 10 L74 -3 C92 -7 169 -10 265 -10 C380 -10 456 86 456 229 C456 334 399 404 289 461 C192 510 142 570 142 656 C142 769 191 844 265 844 C294 844 321 843 345 841 L345 841 C351 840 358 835 360 828 C369 804 381 770 391 745 C394 746 398 748 401 749 C405 750 409 752 412 754 L415 829 L415 829 L415 841 L415 841 L415 852 C404 857 345 860 267 860 C158 860 85 770 85 635 C85 540 138 476 239 424 C346 369 401 306 401 214 C401 89 346 6 264 6 C220 6 175 8 138 12 C135 13 133 15 132 18 C122 48 110 90 100 120 C97 119 93 117 90 115 C86 114 82 112 79 110 L74 22 L74 22 L74 9 L75 10 L75 10 Z " />
<glyph glyph-name="sacute" unicode="&#x15b;" horiz-adv-x="414" d="M200 530 L204 530 L332 685 C335 688 337 697 337 707 L287 707 L200 530 L200 530 Z M61 32 L60 23 C103 3 159 -10 202 -10 C287 -10 344 41 344 117 C344 180 303 221 224 251 C155 278 119 310 119 355 C119 410 153 447 203 447 C208 447 214 446 220 445 C254 438 284 409 297 370 C299 365 301 357 304 351 C306 352 310 352 313 353 C315 354 319 355 322 355 L327 405 L327 405 L327 413 L327 413 L328 422 C288 445 238 460 201 460 C126 460 75 410 75 336 C75 278 113 240 186 212 C261 183 300 149 300 101 C300 41 260 2 200 2 C191 2 181 3 170 5 C141 11 114 33 101 62 C96 75 88 91 82 103 C80 102 77 101 75 100 C73 100 70 98 67 97 L62 39 C61 39 60 39 59 39 L59 31 L59 31 L61 32 L61 32 Z " />
<glyph glyph-name="Scedilla" unicode="&#x15e;" horiz-adv-x="511" d="M233 -98 L274 -10 C384 -5 456 90 456 229 C456 334 399 404 289 461 C192 510 142 570 142 656 C142 769 191 844 265 844 C294 844 321 843 345 841 L345 841 C351 840 358 835 360 828 C369 804 381 770 391 745 C394 746 398 748 401 749 C405 750 409 752 412 754 L415 829 L415 829 L415 841 L415 841 L415 852 C404 857 345 860 267 860 C158 860 85 770 85 635 C85 540 138 476 239 424 C346 369 401 306 401 214 C401 89 346 6 264 6 C220 6 175 8 138 12 C135 13 133 15 132 18 C122 48 110 90 100 120 C97 119 93 117 90 115 C86 114 82 112 79 110 L74 22 L74 22 L74 9 L75 9 L74 -4 C92 -8 167 -11 261 -11 L204 -133 L214 -137 C260 -152 290 -171 290 -185 C290 -213 279 -232 264 -232 C231 -232 200 -224 184 -212 L184 -216 C205 -231 238 -241 268 -241 C304 -241 327 -215 327 -175 C327 -149 290 -119 232 -100 L233 -98 L233 -98 Z " />
<glyph glyph-name="scedilla" unicode="&#x15f;" horiz-adv-x="414" d="M170 -98 L211 -10 C291 -7 344 43 344 116 C344 179 303 220 224 250 C155 277 119 309 119 354 C119 409 153 446 203 446 C208 446 214 445 220 444 C254 437 284 408 297 369 C299 364 301 356 304 350 C306 351 310 351 313 352 C315 353 319 354 322 354 L327 404 L327 404 L327 412 L327 412 L328 421 C288 444 238 459 201 459 C126 459 75 409 75 335 C75 277 113 239 186 211 C261 182 300 148 300 100 C300 40 260 1 200 1 C191 1 181 2 170 4 C141 10 114 32 101 61 C96 74 88 90 82 102 C80 101 77 100 75 99 C73 99 70 97 67 96 L62 38 C61 38 60 38 59 38 L59 30 L59 30 L58 21 C100 2 154 -11 197 -12 L140 -134 L150 -138 C196 -153 226 -172 226 -186 C226 -214 215 -233 199 -233 C167 -233 136 -225 120 -213 L120 -217 C140 -232 174 -242 204 -242 C239 -242 263 -216 263 -176 C263 -150 225 -120 168 -101 L170 -98 L170 -98 Z " />
<glyph glyph-name="Scaron" unicode="&#x160;" horiz-adv-x="511" d="M399 1057 L265 900 L255 900 L127 1057 L131 1057 L261 953 L395 1057 L399 1057 L399 1057 Z M75 10 L74 -3 C92 -7 169 -10 265 -10 C380 -10 456 86 456 229 C456 334 399 404 289 461 C192 510 142 570 142 656 C142 769 191 844 265 844 C294 844 321 843 345 841 L345 841 C351 840 358 835 360 828 C369 804 381 770 391 745 C394 746 398 748 401 749 C405 750 409 752 412 754 L415 829 L415 829 L415 841 L415 841 L415 852 C404 857 345 860 267 860 C158 860 85 770 85 635 C85 540 138 476 239 424 C346 369 401 306 401 214 C401 89 346 6 264 6 C220 6 175 8 138 12 C135 13 133 15 132 18 C122 48 110 90 100 120 C97 119 93 117 90 115 C86 114 82 112 79 110 L74 22 L74 22 L74 9 L75 10 L75 10 Z " />
<glyph glyph-name="scaron" unicode="&#x161;" horiz-adv-x="414" d="M337 710 L203 535 L193 535 L65 710 L69 710 L198 595 L333 710 L337 710 L337 710 Z M61 32 L60 23 C103 3 159 -10 202 -10 C287 -10 344 41 344 117 C344 180 303 221 224 251 C155 278 119 310 119 355 C119 410 153 447 203 447 C208 447 214 446 220 445 C254 438 284 409 297 370 C299 365 301 357 304 351 C306 352 310 352 313 353 C315 354 319 355 322 355 L327 405 L327 405 L327 413 L327 413 L328 422 C288 445 238 460 201 460 C126 460 75 410 75 336 C75 278 113 240 186 212 C261 183 300 149 300 101 C300 41 260 2 200 2 C191 2 181 3 170 5 C141 11 114 33 101 62 C96 75 88 91 82 103 C80 102 77 101 75 100 C73 100 70 98 67 97 L62 39 C61 39 60 39 59 39 L59 31 L59 31 L61 32 L61 32 Z " />
<glyph glyph-name="Tcaron" unicode="&#x164;" horiz-adv-x="675" d="M476 1057 L343 900 L332 900 L204 1057 L208 1057 L338 953 L472 1057 L476 1057 L476 1057 Z M338 0 L366 0 L454 0 C454 0 455 1 457 4 C462 13 465 19 466 19 L366 55 L366 832 L547 832 L595 687 C595 687 602 692 612 701 C614 702 615 703 615 703 L627 832 L630 832 L630 850 L629 850 L620 850 L612 850 L579 850 L366 850 L309 850 L96 850 L63 850 L55 850 L46 850 L45 850 L45 832 L48 832 L60 703 C60 703 61 702 63 701 C73 692 80 687 80 687 L128 832 L309 832 L309 55 L209 19 C209 19 213 13 218 4 C220 1 221 0 221 0 L309 0 L338 0 L338 0 Z " />
<glyph glyph-name="tcaron" unicode="&#x165;" horiz-adv-x="320" d="M295 750 L248 750 L226 563 L230 563 L290 730 C293 737 294 745 295 750 L295 750 Z M290 54 L289 57 C277 31 249 13 221 13 C176 13 146 48 146 101 L146 434 L278 434 L278 450 L146 450 L146 549 L143 549 L96 450 L18 436 L18 434 L96 434 L96 90 C96 30 133 -10 189 -10 C231 -10 272 15 290 54 L290 54 Z " />
<glyph glyph-name="Utilde" unicode="&#x168;" horiz-adv-x="806" d="M262 895 C275 936 289 964 336 964 C383 964 417 903 464 903 C517 903 537 946 557 1011 L553 1011 C539 968 525 940 478 940 C431 940 398 1000 351 1000 C297 1000 278 958 257 895 L262 895 L262 895 Z M153 795 L153 301 C153 115 255 -10 407 -10 C560 -10 662 115 662 301 L662 795 L742 831 C742 831 739 837 735 846 C733 849 733 850 733 850 L662 850 L650 850 L638 850 L550 850 C550 850 549 849 547 846 C542 837 538 831 538 831 L638 795 L638 294 C638 122 551 8 419 8 C293 8 209 129 209 311 L209 795 L289 831 C289 831 286 837 282 846 C281 849 280 850 280 850 L209 850 L181 850 L153 850 L82 850 C82 850 81 849 80 846 C76 837 73 831 73 831 L153 795 L153 795 Z " />
<glyph glyph-name="utilde" unicode="&#x169;" horiz-adv-x="544" d="M122 535 C135 576 149 604 196 604 C243 604 277 543 324 543 C376 543 396 586 417 651 L413 651 C399 608 385 580 338 580 C291 580 258 640 211 640 C157 640 137 598 117 535 L122 535 L122 535 Z M404 400 L404 92 C350 40 293 14 248 14 C183 14 140 63 140 137 L140 450 L115 450 L90 450 L32 450 C32 450 32 449 31 447 C27 438 25 433 25 433 L90 400 L90 107 C90 37 147 -10 233 -10 C279 -10 341 21 403 82 L403 0 L428 0 L453 0 L515 0 C515 0 515 1 516 3 C520 12 522 18 523 18 L453 50 L453 450 L428 450 L403 450 L340 450 C340 450 340 449 339 447 C335 438 333 433 333 433 L404 400 L404 400 Z " />
<glyph glyph-name="Umacron" unicode="&#x16a;" horiz-adv-x="806" d="M284 957 L550 957 L550 988 L284 988 L284 957 L284 957 Z M153 795 L153 301 C153 115 255 -10 407 -10 C560 -10 662 115 662 301 L662 795 L742 831 C742 831 739 837 735 846 C733 849 733 850 733 850 L662 850 L650 850 L638 850 L550 850 C550 850 549 849 547 846 C542 837 538 831 538 831 L638 795 L638 294 C638 122 551 8 419 8 C293 8 209 129 209 311 L209 795 L289 831 C289 831 286 837 282 846 C281 849 280 850 280 850 L209 850 L181 850 L153 850 L82 850 C82 850 81 849 80 846 C76 837 73 831 73 831 L153 795 L153 795 Z " />
<glyph glyph-name="umacron" unicode="&#x16b;" horiz-adv-x="544" d="M134 597 L400 597 L400 628 L134 628 L134 597 L134 597 Z M404 400 L404 92 C350 40 293 14 248 14 C183 14 140 63 140 137 L140 450 L115 450 L90 450 L32 450 C32 450 32 449 31 447 C27 438 25 433 25 433 L90 400 L90 107 C90 37 147 -10 233 -10 C279 -10 341 21 403 82 L403 0 L428 0 L453 0 L515 0 C515 0 515 1 516 3 C520 12 522 18 523 18 L453 50 L453 450 L428 450 L403 450 L340 450 C340 450 340 449 339 447 C335 438 333 433 333 433 L404 400 L404 400 Z " />
<glyph glyph-name="Uring" unicode="&#x16e;" horiz-adv-x="806" d="M414 908 C386 908 363 942 363 983 C363 1022 382 1048 412 1048 C442 1048 462 1018 462 974 C462 938 440 908 414 908 L414 908 Z M332 978 C332 936 369 900 412 900 C456 900 493 937 493 980 C493 1025 461 1056 412 1056 C364 1056 332 1025 332 978 L332 978 Z M153 795 L153 301 C153 115 255 -10 407 -10 C560 -10 662 115 662 301 L662 795 L742 831 C742 831 739 837 735 846 C733 849 733 850 733 850 L662 850 L650 850 L638 850 L550 850 C550 850 549 849 547 846 C542 837 538 831 538 831 L638 795 L638 294 C638 122 551 8 419 8 C293 8 209 129 209 311 L209 795 L289 831 C289 831 286 837 282 846 C281 849 280 850 280 850 L209 850 L181 850 L153 850 L82 850 C82 850 81 849 80 846 C76 837 73 831 73 831 L153 795 L153 795 Z " />
<glyph glyph-name="uring" unicode="&#x16f;" horiz-adv-x="544" d="M269 543 C241 543 217 577 217 618 C217 657 237 683 267 683 C297 683 317 653 317 609 C317 573 295 543 269 543 L269 543 Z M187 613 C187 571 224 535 267 535 C311 535 348 572 348 615 C348 660 316 691 267 691 C219 691 187 660 187 613 L187 613 Z M404 400 L404 92 C350 40 293 14 248 14 C183 14 140 63 140 137 L140 450 L115 450 L90 450 L32 450 C32 450 32 449 31 447 C27 438 25 433 25 433 L90 400 L90 107 C90 37 147 -10 233 -10 C279 -10 341 21 403 82 L403 0 L428 0 L453 0 L515 0 C515 0 515 1 516 3 C520 12 522 18 523 18 L453 50 L453 450 L428 450 L403 450 L340 450 C340 450 340 449 339 447 C335 438 333 433 333 433 L404 400 L404 400 Z " />
<glyph glyph-name="Ydieresis" unicode="&#x178;" horiz-adv-x="706" d="M435 925 C454 925 467 938 467 956 C467 975 454 988 435 988 C417 988 404 975 404 956 C404 938 417 925 435 925 L435 925 Z M285 925 C304 925 317 938 317 956 C317 975 304 988 285 988 C267 988 254 975 254 956 C254 938 267 925 285 925 L285 925 Z M325 55 L235 19 C235 19 238 13 243 4 C244 1 245 0 245 0 L325 0 L354 0 L382 0 L462 0 C461 0 462 1 464 4 C468 13 471 19 472 19 L382 55 L382 398 L619 810 L619 810 L674 836 C673 836 672 840 670 846 C670 849 669 850 669 850 L642 850 L630 850 L619 850 L517 850 C517 850 516 849 515 846 C508 837 504 831 504 831 L588 795 L369 412 L149 795 L149 795 L227 831 C228 831 224 837 217 846 C216 849 215 850 215 850 L117 850 L88 850 L59 850 L34 850 C34 850 33 848 33 845 C31 837 29 833 29 833 L88 800 L325 391 L325 55 L325 55 Z " />
<glyph glyph-name="Zacute" unicode="&#x179;" horiz-adv-x="646" d="M332 895 L336 895 L463 1034 C467 1038 469 1046 469 1054 L419 1054 L332 895 L332 895 Z M472 832 L108 18 L104 8 L104 0 L108 0 L154 0 L505 0 L538 0 L546 0 L555 0 L556 0 L556 18 L553 18 L542 138 C542 139 540 139 539 140 C529 148 522 154 522 153 L473 18 L162 18 L526 832 L541 850 L526 850 L480 850 L166 850 L134 850 L125 850 L116 850 L116 832 L118 832 C121 797 126 754 130 721 C130 721 131 720 133 719 C143 712 150 707 150 707 L199 832 L472 832 L472 832 Z " />
<glyph glyph-name="zacute" unicode="&#x17a;" horiz-adv-x="480" d="M247 530 L251 530 L379 685 C382 688 384 697 384 707 L334 707 L247 530 L247 530 Z M93 442 C91 413 89 375 87 346 L91 344 C99 339 104 335 104 335 L142 435 L323 435 L88 15 L83 6 L83 0 L88 0 L136 0 L405 0 L405 8 L405 15 L405 108 L402 111 C393 116 388 120 388 120 L355 15 L144 15 L379 435 L397 450 L379 450 L331 450 L143 450 L103 460 C103 460 100 460 95 459 L93 459 L93 450 L93 442 L93 442 Z " />
<glyph glyph-name="Zdot" unicode="&#x17b;" horiz-adv-x="646" d="M340 915 C362 915 377 930 377 953 C377 975 362 990 340 990 C317 990 302 975 302 953 C302 930 317 915 340 915 L340 915 Z M472 832 L108 18 L104 8 L104 0 L108 0 L154 0 L505 0 L538 0 L546 0 L555 0 L556 0 L556 18 L553 18 L542 138 C542 139 540 139 539 140 C529 148 522 154 522 153 L473 18 L162 18 L526 832 L541 850 L526 850 L480 850 L166 850 L134 850 L125 850 L116 850 L116 832 L118 832 C121 797 126 754 130 721 C130 721 131 720 133 719 C143 712 150 707 150 707 L199 832 L472 832 L472 832 Z " />
<glyph glyph-name="zdot" unicode="&#x17c;" horiz-adv-x="480" d="M250 583 C272 583 287 598 287 621 C287 643 272 658 250 658 C227 658 212 643 212 621 C212 598 227 583 250 583 L250 583 Z M93 442 C91 413 89 375 87 346 L91 344 C99 339 104 335 104 335 L142 435 L323 435 L88 15 L83 6 L83 0 L88 0 L136 0 L405 0 L405 8 L405 15 L405 108 L402 111 C393 116 388 120 388 120 L355 15 L144 15 L379 435 L397 450 L379 450 L331 450 L143 450 L103 460 C103 460 100 460 95 459 L93 459 L93 450 L93 442 L93 442 Z " />
<glyph glyph-name="Zcaron" unicode="&#x17d;" horiz-adv-x="646" d="M483 1057 L350 900 L340 900 L211 1057 L215 1057 L345 953 L479 1057 L483 1057 L483 1057 Z M472 832 L108 18 L104 8 L104 0 L108 0 L154 0 L505 0 L538 0 L546 0 L555 0 L556 0 L556 18 L553 18 L542 138 C542 139 540 139 539 140 C529 148 522 154 522 153 L473 18 L162 18 L526 832 L541 850 L526 850 L480 850 L166 850 L134 850 L125 850 L116 850 L116 832 L118 832 C121 797 126 754 130 721 C130 721 131 720 133 719 C143 712 150 707 150 707 L199 832 L472 832 L472 832 Z " />
<glyph glyph-name="zcaron" unicode="&#x17e;" horiz-adv-x="480" d="M383 710 L250 535 L240 535 L111 710 L115 710 L245 594 L379 710 L383 710 L383 710 Z M93 442 C91 413 89 375 87 346 L91 344 C99 339 104 335 104 335 L142 435 L323 435 L88 15 L83 6 L83 0 L88 0 L136 0 L405 0 L405 8 L405 15 L405 108 L402 111 C393 116 388 120 388 120 L355 15 L144 15 L379 435 L397 450 L379 450 L331 450 L143 450 L103 460 C103 460 100 460 95 459 L93 459 L93 450 L93 442 L93 442 Z " />
<glyph glyph-name="oogonek" unicode="&#x1eb;" horiz-adv-x="736" d="M707 -122 L707 -118 C704 -120 686 -121 662 -121 C574 -121 471 -77 400 -9 C562 6 667 139 667 333 C667 540 548 679 368 679 C189 679 70 542 70 337 C70 132 185 -6 360 -10 C441 -88 547 -139 627 -139 C658 -139 689 -132 707 -122 L707 -122 Z M374 5 C224 5 124 145 124 356 C124 541 220 664 363 664 C513 664 613 524 613 313 C613 128 518 5 374 5 L374 5 Z " />
<glyph glyph-name="G_sc" unicode="&#x262;" horiz-adv-x="704" d="M584 239 L659 275 C660 275 657 281 653 290 C651 292 651 294 651 294 L584 294 L559 294 L534 294 L458 294 L456 290 C452 281 449 275 449 275 L534 239 L534 37 C463 19 400 7 371 7 C222 7 122 138 122 334 C122 531 226 663 383 663 C415 663 454 661 492 658 C495 657 497 655 498 652 C512 617 532 569 547 534 C549 536 553 538 556 540 C558 542 562 544 565 546 L572 670 C543 675 467 678 382 678 C194 678 69 534 69 317 C69 120 186 -11 362 -11 C398 -11 487 7 583 33 L584 239 L584 239 Z " />
<glyph glyph-name="I_sc" unicode="&#x26a;" horiz-adv-x="350" d="M175 0 L201 0 L272 0 C271 0 272 1 273 4 C278 13 280 19 281 19 L201 55 L201 614 L281 650 C280 650 278 656 273 665 C272 668 271 669 272 669 L201 669 L175 669 L150 669 L79 669 C79 669 78 668 77 665 C73 656 70 650 70 650 L150 614 L150 55 L70 19 C70 19 73 13 77 4 C78 1 79 0 79 0 L150 0 L175 0 L175 0 Z " />
<glyph glyph-name="N_sc" unicode="&#x274;" horiz-adv-x="738" d="M598 614 L673 650 C674 650 671 656 667 665 C666 668 665 669 665 669 L598 669 L588 669 L577 669 L489 669 C489 669 488 668 486 665 C481 656 477 650 477 650 L577 614 L577 83 L169 669 L159 669 L148 669 L82 669 C81 669 81 668 80 665 C76 656 73 650 73 650 L148 614 L148 55 L68 19 C68 19 71 13 75 4 C76 1 77 0 77 0 L148 0 L159 0 L169 0 L258 0 C258 0 259 1 260 4 C265 13 269 19 269 19 L169 55 L169 604 L572 10 L582 -5 L598 -5 L598 53 L598 614 L598 614 Z " />
<glyph glyph-name="R_sc" unicode="&#x280;" horiz-adv-x="593" d="M510 50 L510 50 L322 333 C396 353 473 415 473 501 C473 602 400 670 290 670 L196 670 L171 670 L146 670 L75 670 C75 670 74 669 73 666 C69 657 66 651 66 651 L146 615 L146 56 L66 20 C66 20 69 14 73 5 C74 2 75 1 75 1 L146 1 L171 1 L196 1 L263 1 C263 1 263 2 265 5 C269 14 272 20 271 20 L196 56 L196 327 L266 327 L483 1 L514 1 L544 1 L577 1 C577 1 578 3 578 6 C581 14 582 18 582 18 L510 50 L510 50 Z M310 352 L304 361 L287 346 C280 345 273 344 266 344 L196 344 L196 654 L284 653 C364 653 418 590 418 496 C418 425 364 372 310 352 L310 352 Z " />
<glyph glyph-name="Y_sc" unicode="&#x28f;" horiz-adv-x="646" d="M92 619 L92 619 L298 308 L298 55 L208 19 C208 19 211 13 216 4 C217 1 218 0 218 0 L298 0 L323 0 L348 0 L428 0 C428 0 429 1 430 4 C435 13 438 19 438 19 L348 55 L348 316 L555 629 L555 629 L612 655 C612 655 611 659 609 665 C608 668 607 669 607 669 L581 669 L571 669 L561 669 L459 669 C459 669 458 668 456 665 L446 650 L525 614 L339 331 L149 614 L149 614 L222 650 L212 665 C211 668 210 669 210 669 L112 669 L86 669 L59 669 L35 669 C35 669 35 667 34 664 L31 652 L92 619 L92 619 Z " />
<glyph glyph-name="B_sc" unicode="&#x299;" horiz-adv-x="585" d="M252 353 L195 353 L195 653 L285 652 C378 652 426 590 426 498 C426 411 356 353 252 353 L252 353 Z M334 351 C424 374 480 433 480 513 C480 607 416 670 293 670 L196 670 L171 670 L146 670 L75 670 C75 670 74 669 73 666 C69 657 66 651 66 651 L146 615 L146 56 L66 20 C66 20 69 14 73 5 C74 2 75 1 75 1 L146 1 L171 1 L196 1 L292 1 C439 1 537 75 537 186 C537 277 469 340 335 351 L334 351 L334 351 Z M196 17 L196 336 L299 336 C421 336 484 274 484 180 C484 82 407 17 292 17 L196 17 L196 17 Z " />
<glyph glyph-name="H_sc" unicode="&#x29c;" horiz-adv-x="740" d="M570 0 L595 0 L666 0 C667 0 667 1 668 4 C673 13 676 19 675 19 L595 55 L595 614 L675 650 C676 650 673 656 668 665 C667 668 667 669 666 669 L595 669 L570 669 L545 669 L474 669 C474 669 473 668 472 665 C468 656 465 650 465 650 L545 614 L545 353 L195 353 L195 614 L275 650 C276 650 273 656 268 665 C267 668 267 669 266 669 L195 669 L170 669 L145 669 L74 669 C74 669 73 668 72 665 C68 656 65 650 65 650 L145 614 L145 55 L65 19 C65 19 68 13 72 4 C73 1 74 0 74 0 L145 0 L170 0 L195 0 L266 0 C267 0 267 1 268 4 C273 13 276 19 275 19 L195 55 L195 336 L545 336 L545 55 L465 19 C465 19 468 13 472 4 C473 1 474 0 474 0 L545 0 L570 0 L570 0 Z " />
<glyph glyph-name="L_sc" unicode="&#x29f;" horiz-adv-x="569" d="M463 182 L417 17 L195 17 L195 614 L280 650 C281 650 277 656 273 665 C271 668 271 669 271 669 L195 669 L170 669 L145 669 L74 669 C74 669 73 668 72 665 C68 656 65 650 65 650 L145 614 L145 55 L65 19 C65 19 68 13 72 4 C73 1 74 0 74 0 L145 0 L157 0 L170 0 L195 0 L449 0 L482 0 L490 0 L499 0 L500 0 L500 17 L497 17 C493 63 487 120 482 163 L479 166 C469 174 462 180 462 182 L463 182 L463 182 Z M462 182 L462 182 L462 182 Z " />
<glyph glyph-name="A_sc" unicode="&#x1d00;" horiz-adv-x="677" d="M581 45 L580 45 L355 659 L350 674 L323 674 L88 35 L32 12 C32 12 34 8 36 3 C37 1 37 0 37 0 L75 0 L85 0 L95 0 L184 0 C184 0 185 1 186 3 C191 12 195 18 195 18 L114 50 L113 50 L190 261 L190 260 L450 260 L450 261 L526 50 L436 18 L446 3 C447 1 448 0 448 0 L544 0 L571 0 L597 0 L638 0 C638 0 638 1 639 4 C641 11 643 16 643 16 L581 45 L581 45 Z M444 276 L195 276 L320 620 L444 276 L444 276 Z " />
<glyph glyph-name="C_sc" unicode="&#x1d04;" horiz-adv-x="648" d="M558 7 L558 7 C563 8 563 8 557 8 L557 19 L557 19 L554 108 C551 109 547 111 545 113 C543 115 539 117 537 118 C523 87 504 47 490 16 C488 14 486 12 484 11 C442 7 398 5 360 5 C217 5 122 137 122 335 C122 532 222 664 373 664 C402 664 437 662 471 659 L471 659 C475 658 478 656 479 653 C494 618 513 570 528 535 C530 537 534 539 537 541 C539 543 543 545 546 547 L553 671 C525 676 453 679 373 679 C191 679 70 535 70 318 C70 121 186 -10 360 -10 C446 -10 526 -7 558 -2 L558 7 L558 7 Z " />
<glyph glyph-name="D_sc" unicode="&#x1d05;" horiz-adv-x="704" d="M181 0 L195 0 L313 0 C506 7 635 130 635 361 C635 564 503 669 306 669 L195 669 L170 669 L145 669 L74 669 C74 669 73 668 72 665 C68 656 65 650 65 650 L145 614 L145 55 L65 19 C65 19 68 13 72 4 C73 1 74 0 74 0 L145 0 L170 0 L181 0 L181 0 Z M195 17 L195 653 L298 653 C468 653 582 547 582 342 C582 133 474 22 312 17 L195 17 L195 17 Z " />
<glyph glyph-name="E_sc" unicode="&#x1d07;" horiz-adv-x="589" d="M517 17 C514 52 509 95 505 128 C506 128 505 129 503 130 C493 136 487 141 487 142 L441 17 L194 17 L194 336 L344 336 L386 256 C386 256 393 259 404 264 C407 264 409 265 409 265 L409 336 L409 345 L409 353 L409 424 C409 424 407 425 404 426 C393 430 386 433 386 433 L344 353 L194 353 L194 653 L416 653 L463 538 C463 538 469 542 479 549 C480 549 481 550 481 550 C485 581 489 621 492 653 L495 653 L495 669 L494 669 L485 669 L477 669 L444 669 L195 669 L170 669 L157 669 L145 669 L74 669 C74 669 73 668 72 665 C68 656 65 650 65 650 L145 614 L145 55 L65 19 C65 19 68 13 72 4 C73 1 74 0 74 0 L145 0 L157 0 L170 0 L195 0 L469 0 L502 0 L510 0 L519 0 L520 0 L520 17 L517 17 L517 17 Z " />
<glyph glyph-name="J_sc" unicode="&#x1d0a;" horiz-adv-x="350" d="M150 614 L150 51 C150 -70 120 -151 75 -151 C75 -151 69 -149 58 -146 L52 -146 C48 -146 46 -164 46 -165 C46 -170 54 -173 65 -173 C147 -173 201 -40 201 159 L201 614 L281 650 C280 650 278 656 273 665 C272 668 271 669 272 669 L201 669 L175 669 L150 669 L79 669 C79 669 78 668 77 665 C73 656 70 650 70 650 L150 614 L150 614 Z " />
<glyph glyph-name="K_sc" unicode="&#x1d0b;" horiz-adv-x="644" d="M551 40 L550 40 L236 366 L489 629 L553 655 C553 655 552 659 550 665 C549 667 549 669 549 669 L527 669 L513 669 L499 669 L393 669 L390 666 C384 658 380 652 379 652 L453 619 L228 376 L228 376 L198 343 L206 334 L206 334 L521 0 L555 0 L590 0 L612 0 L614 4 C616 10 617 14 617 14 L551 40 L551 40 Z M380 652 L380 652 L380 652 Z M172 0 L197 0 L268 0 C268 0 269 1 270 4 C274 13 277 19 277 19 L197 55 L197 614 L277 650 C277 650 274 656 270 665 C269 668 268 669 268 669 L197 669 L172 669 L146 669 L75 669 C75 669 74 668 73 665 C69 656 66 650 66 650 L146 614 L146 55 L66 19 C66 19 69 13 73 4 C74 1 75 0 75 0 L146 0 L172 0 L172 0 Z " />
<glyph glyph-name="M_sc" unicode="&#x1d0d;" horiz-adv-x="897" d="M766 55 L766 55 L745 614 L832 650 C832 650 829 656 824 665 C823 668 822 669 822 669 L743 669 L719 669 L695 669 L469 51 L228 669 L191 669 L183 669 L175 669 L95 669 C95 669 94 668 93 665 C88 656 85 650 85 650 L172 614 L172 614 L146 55 L145 55 L64 19 C64 19 67 13 71 4 L73 0 L143 0 L152 0 L161 0 L236 0 C236 0 237 1 238 4 C243 13 246 19 246 19 L163 55 L188 632 L437 -5 L462 -5 L455 13 L456 14 L462 -5 L696 624 L717 55 L639 19 C639 19 642 13 646 4 C647 1 648 0 648 0 L719 0 L743 0 L767 0 L828 0 L830 4 C834 13 836 19 836 19 L766 55 L766 55 Z " />
<glyph glyph-name="O_sc" unicode="&#x1d0f;" horiz-adv-x="736" d="M374 5 C224 5 124 145 124 356 C124 541 220 664 363 664 C513 664 613 524 613 313 C613 128 518 5 374 5 L374 5 Z M70 337 C70 129 189 -10 368 -10 C548 -10 667 127 667 333 C667 540 548 679 368 679 C189 679 70 542 70 337 L70 337 Z " />
<glyph glyph-name="P_sc" unicode="&#x1d18;" horiz-adv-x="585" d="M170 0 L195 0 L280 0 C280 0 281 1 282 4 C287 13 291 19 290 19 L195 55 L195 313 L281 313 C422 313 515 385 515 492 C515 598 432 669 306 669 L195 669 L170 669 L145 669 L74 669 C74 669 73 668 72 665 C68 656 65 650 65 650 L145 614 L145 55 L65 19 C65 19 68 13 72 4 C73 1 74 0 74 0 L145 0 L170 0 L170 0 Z M195 329 L195 653 L300 652 C396 652 461 586 461 487 C461 392 392 329 287 329 L195 329 L195 329 Z " />
<glyph glyph-name="T_sc" unicode="&#x1d1b;" horiz-adv-x="615" d="M308 0 L333 0 L422 0 C422 0 423 1 424 4 C429 13 433 19 433 19 L333 55 L333 653 L488 653 L535 508 C535 508 542 513 552 521 L555 524 L567 653 L570 653 L570 669 L569 669 L561 669 L552 669 L519 669 L333 669 L282 669 L96 669 L63 669 L54 669 L46 669 L45 669 L45 653 L48 653 L60 524 L63 521 C73 513 80 508 80 508 L127 653 L282 653 L282 55 L182 19 C182 19 186 13 191 4 C192 1 193 0 193 0 L282 0 L308 0 L308 0 Z " />
<glyph glyph-name="U_sc" unicode="&#x1d1c;" horiz-adv-x="747" d="M154 614 L154 237 C154 89 244 -10 378 -10 C513 -10 603 89 603 237 L603 614 L683 650 C682 650 679 656 675 665 C674 668 673 669 674 669 L603 669 L592 669 L582 669 L493 669 C493 669 492 668 491 665 C485 656 482 650 482 650 L582 614 L582 231 C582 96 505 6 389 6 C279 6 205 102 205 246 L205 614 L285 650 C285 650 282 656 278 665 C277 668 276 669 276 669 L205 669 L180 669 L154 669 L83 669 C83 669 82 668 82 665 C77 656 74 650 74 650 L154 614 L154 614 Z " />
<glyph glyph-name="V_sc" unicode="&#x1d20;" horiz-adv-x="663" d="M100 619 L100 619 L338 0 L340 -5 L353 -5 L577 629 L577 629 L631 655 C631 655 630 659 627 666 C627 668 626 669 626 669 L591 669 L581 669 L571 669 L482 669 C482 669 481 668 480 665 C474 656 471 650 471 650 L552 614 L362 67 L155 614 L244 650 C243 650 239 656 234 665 C232 668 231 669 231 669 L134 669 L107 669 L81 669 L39 669 C39 669 39 667 38 665 C35 657 33 652 33 652 L100 619 L100 619 Z " />
<glyph glyph-name="W_sc" unicode="&#x1d21;" horiz-adv-x="907" d="M802 614 L803 614 L669 97 L466 642 L455 674 L448 649 L296 97 L139 614 L232 650 C231 650 227 656 222 665 C220 668 219 669 219 669 L122 669 L95 669 L69 669 L26 669 C26 669 25 667 25 665 C22 657 20 652 20 652 L85 619 L274 19 L282 -5 L284 -5 L290 15 L465 642 L453 594 L648 19 L656 -5 L658 -5 L664 15 L826 629 L827 629 L888 655 C888 655 886 659 884 666 C883 668 882 669 882 669 L837 669 L827 669 L817 669 L728 669 C728 669 727 668 726 665 C720 656 716 650 717 650 L802 614 L802 614 Z " />
<glyph glyph-name="Z_sc" unicode="&#x1d22;" horiz-adv-x="586" d="M416 653 L108 17 L104 8 L104 0 L108 0 L150 0 L445 0 L478 0 L487 0 L495 0 L496 0 L496 17 L493 17 L482 136 L479 139 C469 146 462 151 462 152 L414 17 L158 17 L466 653 L481 669 L466 669 L424 669 L166 669 L134 669 L125 669 L116 669 L116 653 L118 653 C121 618 126 574 130 541 C130 541 131 540 133 540 C143 533 150 528 150 528 L199 653 L416 653 L416 653 Z " />
<glyph glyph-name="Etilde" unicode="&#x1ebc;" horiz-adv-x="649" d="M204 895 C217 936 231 964 279 964 C326 964 359 903 406 903 C459 903 479 946 500 1011 L495 1011 C481 968 467 940 421 940 C374 940 340 1000 293 1000 C240 1000 220 958 200 895 L204 895 L204 895 Z M577 18 C574 54 569 97 565 129 C565 130 564 130 563 131 C553 139 546 144 546 143 L501 18 L200 18 L200 429 L404 429 L446 349 C446 349 453 352 464 356 C467 357 469 358 469 358 L469 429 L469 438 L469 447 L469 518 C469 518 467 519 464 520 C453 524 446 527 446 527 L404 447 L200 447 L200 832 L476 832 L522 717 C522 717 529 721 538 728 C540 728 541 729 541 729 C544 760 548 799 551 832 L554 832 L554 850 L553 850 L544 850 L535 850 L503 850 L200 850 L172 850 L158 850 L144 850 L73 850 C73 850 72 849 71 846 C67 837 64 831 64 831 L144 795 L144 55 L64 19 C64 19 67 13 71 4 C72 1 73 0 73 0 L144 0 L158 0 L172 0 L200 0 L528 0 L560 0 L569 0 L578 0 L579 0 L579 18 L577 18 L577 18 Z " />
<glyph glyph-name="endash" unicode="&#x2013;" horiz-adv-x="500" d="M50 252 L450 252 L450 283 L50 283 L50 252 L50 252 Z " />
<glyph glyph-name="emdash" unicode="&#x2014;" horiz-adv-x="1000" d="M50 252 L950 252 L950 283 L50 283 L50 252 L50 252 Z " />
<glyph glyph-name="quoteleft" unicode="&#x2018;" horiz-adv-x="222" d="M112 528 C119 525 125 523 129 523 C135 523 142 529 145 537 L156 567 L156 574 L133 586 C106 596 89 628 89 666 C89 696 121 727 170 743 L170 750 C109 729 69 690 69 651 C69 586 86 537 112 528 L112 528 Z " />
<glyph glyph-name="quoteright" unicode="&#x2019;" horiz-adv-x="222" d="M127 750 C120 752 114 754 110 754 C103 754 97 749 94 741 L82 711 L82 703 L106 691 C132 682 150 650 150 612 C150 582 117 551 69 534 L69 528 C129 548 170 588 170 627 C170 691 153 740 127 750 L127 750 Z " />
<glyph glyph-name="quotedblleft" unicode="&#x201c;" horiz-adv-x="371" d="M112 528 C119 525 125 523 129 523 C135 523 142 529 145 537 L156 567 L156 574 L133 586 C107 596 89 628 89 666 C89 696 121 727 170 743 L170 750 C109 729 69 690 69 651 C69 586 86 537 112 528 L112 528 Z M261 528 C268 525 274 523 278 523 C285 523 291 529 294 537 L305 567 L305 574 L282 586 C256 596 238 628 238 666 C238 696 270 727 319 743 L319 750 C258 729 218 690 218 651 C218 586 235 537 261 528 L261 528 Z " />
<glyph glyph-name="quotedblright" unicode="&#x201d;" horiz-adv-x="371" d="M276 750 C269 752 263 754 259 754 C252 754 246 749 243 741 L232 711 L232 703 L255 691 C281 682 299 650 299 612 C299 582 267 551 218 534 L218 528 C279 548 319 588 319 627 C319 691 302 740 276 750 L276 750 Z M127 750 C120 752 114 754 110 754 C103 754 97 749 94 741 L82 711 L82 703 L106 691 C132 682 150 650 150 612 C150 582 117 551 69 534 L69 528 C129 548 170 588 170 627 C170 691 153 740 127 750 L127 750 Z " />
<glyph glyph-name="bullet" unicode="&#x2022;" horiz-adv-x="410" d="M205 169 C250 169 280 199 280 244 C280 289 250 319 205 319 C160 319 130 289 130 244 C130 199 160 169 205 169 L205 169 Z " />
<glyph glyph-name="ellipsis" unicode="&#x2026;" horiz-adv-x="560" d="M458 -10 C480 -10 495 5 495 28 C495 50 480 65 458 65 C435 65 420 50 420 28 C420 5 435 -10 458 -10 L458 -10 Z M280 -10 C303 -10 318 5 318 28 C318 50 303 65 280 65 C258 65 243 50 243 28 C243 5 258 -10 280 -10 L280 -10 Z M103 -10 C125 -10 140 5 140 28 C140 50 125 65 103 65 C80 65 65 50 65 28 C65 5 80 -10 103 -10 L103 -10 Z " />
<glyph glyph-name="guilsinglleft" unicode="&#x2039;" horiz-adv-x="240" d="M217 425 L17 248 L217 70 L221 70 L79 248 L221 425 L217 425 L217 425 Z " />
<glyph glyph-name="guilsinglright" unicode="&#x203a;" horiz-adv-x="240" d="M20 425 L158 248 L20 70 L24 70 L221 248 L24 425 L20 425 L20 425 Z " />
<glyph glyph-name="Euro" unicode="&#x20ac;" horiz-adv-x="498" d="M146 352 C144 380 143 410 143 441 C143 464 144 486 145 508 L358 508 L358 523 L146 523 C160 726 226 855 319 855 C347 855 387 838 419 814 L439 786 L443 786 L461 809 C464 813 466 820 466 826 C466 836 463 844 459 847 C449 855 399 860 334 860 C204 860 112 729 89 523 L10 523 L10 508 L88 508 C85 480 84 451 84 420 C84 397 85 374 86 352 L10 352 L10 337 L86 337 C99 126 166 -10 311 -10 C401 -10 468 -6 478 -1 L480 7 L478 7 L478 6 C464 1 409 -3 335 -3 C216 -3 159 129 146 336 L358 336 L358 351 L146 352 L146 352 Z " />
<glyph glyph-name="F_sc" unicode="&#xa730;" horiz-adv-x="554" d="M345 336 L387 256 C387 256 394 259 405 264 C408 264 410 265 410 265 L410 336 L410 345 L410 353 L410 424 C410 424 408 425 405 426 C394 430 387 433 387 433 L345 353 L195 353 L195 653 L407 653 L454 538 C454 538 460 542 470 549 C471 549 472 550 472 550 C476 581 480 621 483 653 L486 653 L486 669 L485 669 L476 669 L468 669 L435 669 L196 669 L171 669 L158 669 L146 669 L75 669 C75 669 74 668 73 665 C69 656 66 650 66 650 L146 614 L146 55 L66 19 C66 19 69 13 73 4 C74 1 75 0 75 0 L146 0 L171 0 L196 0 L281 0 C281 0 282 1 283 4 C288 13 292 19 291 19 L196 55 L196 336 L345 336 L345 336 Z " />
<glyph glyph-name="S_sc" unicode="&#xa731;" horiz-adv-x="448" d="M75 9 L74 -2 C91 -7 156 -10 235 -10 C330 -10 393 67 393 183 C393 261 346 317 256 367 C178 411 137 457 137 519 C137 606 175 665 231 665 C249 665 267 664 283 663 L283 663 C289 662 295 658 297 651 C306 626 318 592 328 566 C331 567 335 569 339 570 C342 572 346 574 349 575 L352 650 L352 650 L352 661 L352 661 L352 671 C342 676 294 679 232 679 C145 679 86 608 86 500 C86 430 129 378 212 332 C299 285 344 235 344 170 C344 70 300 4 234 4 C202 4 168 6 138 9 C135 10 133 12 132 15 C122 46 110 88 100 119 C97 118 93 116 90 114 C86 113 82 111 79 109 L74 20 L74 20 L74 9 L75 9 L75 9 Z " />
</font>
</svg>
