<?xml version="1.0" encoding="UTF-8"?>
<svg xmlns="http://www.w3.org/2000/svg" xmlns:xlink="http://www.w3.org/1999/xlink" version="1.2" >
<font id="Jerrick Light Italic">
<font-face  font-family="Jerrick" units-per-em="1024" ascent="1105" descent="-300" font-style="italic" font-weight="300" font-stretch="normal" cap-height="850" x-height="669" underline-position="-125" underline-thickness="50" />
<missing-glyph  horiz-adv-x="650" d="" />
<glyph glyph-name="NULL" d="" />
<glyph glyph-name="CR" unicode="&#xd;" horiz-adv-x="256" d="" />
<glyph glyph-name="space" unicode="&#x20;" horiz-adv-x="250" d="" />
<glyph glyph-name="exclam" unicode="&#x21;" horiz-adv-x="203" d="M103 -10 C125 -10 143 5 147 28 C151 50 138 65 116 65 C93 65 76 50 72 28 C68 5 80 -10 103 -10 L103 -10 Z M220 850 L131 168 L137 168 L289 850 L220 850 L220 850 Z " />
<glyph glyph-name="quotedbl" unicode="&#x22;" horiz-adv-x="382" d="M410 930 L398 736 L410 736 L466 930 L410 930 L410 930 Z M244 930 L232 736 L244 736 L300 930 L244 930 L244 930 Z " />
<glyph glyph-name="numbersign" unicode="&#x23;" horiz-adv-x="498" d="M216 421 L214 415 L73 415 L68 385 L202 385 L47 0 L64 0 L218 385 L389 385 L234 0 L251 0 L406 385 L507 385 L512 415 L418 415 L420 421 L571 421 L576 450 L432 450 L593 850 L576 850 L415 450 L243 450 L403 850 L387 850 L226 450 L135 450 L130 421 L216 421 L216 421 Z M231 421 L402 421 L400 415 L229 415 L231 421 L231 421 Z " />
<glyph glyph-name="dollar" unicode="&#x24;" horiz-adv-x="492" d="M457 930 L444 858 C434 859 423 860 412 860 C399 860 386 859 373 857 L386 930 L361 930 L347 851 C255 825 186 745 166 635 C149 538 186 476 273 432 L199 10 C138 23 107 72 119 140 L122 157 L119 159 L101 159 C87 159 76 151 74 140 C60 60 109 4 197 -8 L184 -80 L209 -80 L221 -10 C225 -10 229 -10 233 -10 C254 -10 274 -7 293 -2 L279 -80 L304 -80 L319 6 C403 39 465 119 484 226 C498 306 468 382 394 433 L464 832 C502 815 521 779 513 732 L511 716 L513 713 L531 713 C545 713 556 721 558 732 C569 793 534 838 468 854 L481 930 L457 930 L457 930 Z M371 448 C363 452 355 456 347 460 C332 467 318 474 306 482 L369 840 C381 843 393 845 406 845 C418 845 429 844 439 842 L371 448 L371 448 Z M282 499 C231 538 210 588 223 658 C238 742 282 805 340 832 L282 499 L282 499 Z M293 422 C318 411 339 398 357 383 L293 19 C274 12 253 8 232 8 C228 8 224 8 220 8 L293 422 L293 422 Z M379 363 C422 319 438 265 429 210 C414 129 374 66 320 33 L379 363 L379 363 Z " />
<glyph glyph-name="ampersand" unicode="&#x26;" horiz-adv-x="685" d="M575 55 L575 55 L505 163 C576 260 638 394 707 554 L795 587 C795 587 794 592 791 601 C790 603 790 604 790 604 L728 604 L712 604 L696 604 L590 604 L587 601 L573 587 L675 554 C611 405 553 279 489 187 L319 451 C438 527 524 622 538 698 C554 794 503 859 410 859 C301 859 215 779 193 658 C178 572 202 524 266 423 C107 329 66 259 53 180 C33 65 94 -11 206 -11 C312 -11 394 33 465 111 L536 -1 L574 -1 L612 -1 L646 -1 C646 -1 647 1 648 5 C653 13 655 18 655 18 L575 55 L575 55 Z M273 414 C276 410 279 406 282 401 L451 134 C384 57 308 14 211 14 C133 14 95 86 114 195 C128 276 160 345 272 415 L273 414 L273 414 Z M315 461 C258 549 237 588 252 670 C271 776 333 847 407 847 C470 847 502 787 486 696 C471 614 405 524 316 461 L315 461 L315 461 Z " />
<glyph glyph-name="quotesingle" unicode="&#x27;" horiz-adv-x="216" d="M80 930 L102 736 L114 736 L136 930 L80 930 L80 930 Z " />
<glyph glyph-name="parenleft" unicode="&#x28;" horiz-adv-x="209" d="M360 930 C257 829 174 679 123 390 C72 101 102 -49 169 -150 L178 -150 C126 -73 108 69 165 390 C221 711 290 853 368 930 L360 930 L360 930 Z " />
<glyph glyph-name="parenright" unicode="&#x29;" horiz-adv-x="209" d="M29 -150 C132 -49 215 101 266 390 C317 679 286 829 219 930 L211 930 C262 853 280 711 224 390 C167 69 99 -73 20 -150 L29 -150 L29 -150 Z " />
<glyph glyph-name="plus" unicode="&#x2b;" horiz-adv-x="510" d="M324 482 L290 288 L91 288 L85 256 L284 256 L248 52 L280 52 L316 256 L515 256 L521 288 L322 288 L356 482 L324 482 L324 482 Z " />
<glyph glyph-name="comma" unicode="&#x2c;" horiz-adv-x="202" d="M126 57 C120 60 114 62 112 62 C107 62 100 57 94 49 L70 17 L71 11 L90 0 C114 -12 126 -44 120 -79 C112 -123 74 -173 24 -203 L23 -210 C85 -172 133 -113 142 -63 C153 -1 147 47 126 57 L126 57 Z " />
<glyph glyph-name="hyphen" unicode="&#x2d;" horiz-adv-x="375" d="M91 230 L366 230 L373 274 L98 274 L91 230 L91 230 Z " />
<glyph glyph-name="period" unicode="&#x2e;" horiz-adv-x="205" d="M101 -10 C123 -10 141 5 145 28 C149 50 136 65 114 65 C91 65 74 50 70 28 C66 5 78 -10 101 -10 L101 -10 Z " />
<glyph glyph-name="slash" unicode="&#x2f;" horiz-adv-x="231" d="M-21 -120 L10 -120 L397 940 L366 940 L-21 -120 L-21 -120 Z " />
<glyph glyph-name="zero" unicode="0" horiz-adv-x="518" d="M265 6 C163 6 125 183 171 447 C214 685 306 844 402 844 C508 844 548 672 502 413 C459 169 364 6 265 6 L265 6 Z M109 428 C62 165 122 -10 257 -10 C393 -10 515 167 561 433 C607 689 546 860 411 860 C275 860 154 687 109 428 L109 428 Z " />
<glyph glyph-name="one" unicode="1" horiz-adv-x="467" d="M307 50 L307 50 L439 800 L448 850 L435 850 L191 689 L189 677 L386 800 L254 50 L158 18 L163 3 C164 1 165 0 165 0 L245 0 L271 0 L298 0 L369 0 C369 0 370 1 371 3 L381 18 L307 50 L307 50 Z " />
<glyph glyph-name="two" unicode="2" horiz-adv-x="480" d="M455 26 L482 140 L478 142 C469 148 463 151 463 151 L401 51 L96 51 L96 51 C421 466 548 625 554 654 C575 778 521 860 417 860 C282 860 177 774 154 645 C151 630 159 619 175 619 L201 619 L207 624 L212 655 C232 769 309 844 404 844 C478 844 513 768 493 653 C472 534 357 403 53 16 L50 0 L56 0 L87 0 L400 0 L432 0 L441 0 L450 0 L455 26 L455 26 Z " />
<glyph glyph-name="three" unicode="3" horiz-adv-x="486" d="M260 455 C249 455 238 454 226 453 L223 438 C395 450 470 378 443 225 C419 93 337 5 237 5 C149 5 100 65 116 155 L119 171 L115 176 L86 176 C73 176 62 167 60 155 C43 56 112 -10 234 -10 C370 -10 478 84 503 225 C528 367 462 445 308 454 C449 478 534 566 556 689 C574 791 515 859 409 859 C286 859 191 786 171 676 C169 663 177 654 192 654 L218 654 L224 659 L229 683 C246 780 314 844 400 844 C474 844 512 780 494 683 C472 556 390 467 259 454 L260 455 L260 455 Z " />
<glyph glyph-name="four" unicode="4" horiz-adv-x="501" d="M370 50 L370 50 L407 260 L534 260 L538 282 L411 282 L499 780 L511 850 L499 850 L446 780 L67 282 L55 267 L54 260 L63 260 L354 260 L317 50 L221 18 C221 18 223 12 227 3 C228 1 228 0 228 0 L308 0 L335 0 L361 0 L432 0 L435 3 C441 12 445 18 444 18 L370 50 L370 50 Z M437 731 L358 282 L102 282 L437 731 L437 731 Z " />
<glyph glyph-name="five" unicode="5" horiz-adv-x="499" d="M555 850 L252 850 L244 850 L236 850 L173 495 C196 501 239 505 281 505 C412 505 483 414 459 277 C430 114 332 6 213 6 C163 6 119 27 102 60 L98 70 L92 70 L83 56 C79 50 76 46 74 45 C75 44 76 43 77 41 C93 10 141 -10 196 -10 C350 -10 475 115 508 303 C533 440 445 532 290 532 C252 532 214 529 195 524 L244 802 L546 802 L555 850 L555 850 Z M75 45 C73 44 72 45 72 48 C72 47 73 46 74 45 L75 45 L75 45 Z " />
<glyph glyph-name="six" unicode="6" horiz-adv-x="491" d="M563 860 C327 799 138 576 90 301 C56 114 120 -10 250 -10 C376 -10 475 74 497 199 C529 380 480 500 374 500 C291 500 207 438 157 341 C212 600 371 801 562 850 L563 860 L563 860 Z M150 304 C193 407 276 476 358 476 C437 476 469 360 438 185 C419 76 346 4 254 4 C160 4 119 124 150 303 L150 304 L150 304 Z " />
<glyph glyph-name="seven" unicode="7" horiz-adv-x="500" d="M200 850 L191 802 L568 802 C283 362 90 44 82 1 L152 1 C172 117 355 455 609 844 L610 851 L599 851 L585 851 L200 850 L200 850 Z " />
<glyph glyph-name="eight" unicode="8" horiz-adv-x="491" d="M383 448 C373 453 362 457 350 461 C252 490 225 568 243 667 C262 775 324 846 400 846 C492 846 540 765 518 643 C501 547 450 475 383 448 L383 448 Z M394 443 C471 468 530 543 548 644 C570 774 514 860 406 860 C295 860 207 775 184 647 C167 550 189 470 273 425 C176 399 102 312 80 192 C59 71 126 -9 247 -9 C369 -9 466 82 490 218 C507 317 476 400 393 443 L394 443 L394 443 Z M282 420 C295 414 309 409 324 405 C416 378 452 298 435 199 C414 83 341 5 252 5 C147 5 92 83 112 200 C131 312 197 394 283 421 L282 420 L282 420 Z " />
<glyph glyph-name="nine" unicode="9" horiz-adv-x="489" d="M78 -10 C314 50 503 273 552 548 C585 735 521 860 392 860 C266 860 166 770 135 596 C110 451 167 354 279 354 C351 354 431 417 486 514 C432 253 272 49 80 0 L78 -10 L78 -10 Z M492 547 C443 445 365 377 296 377 C212 377 172 465 195 596 C224 760 299 845 389 845 C482 845 523 726 492 547 L492 547 Z " />
<glyph glyph-name="colon" unicode="&#x3a;" horiz-adv-x="205" d="M139 206 C161 206 179 221 183 244 C187 266 175 281 152 281 C130 281 112 266 108 244 C104 221 116 206 139 206 L139 206 Z M101 -10 C123 -10 141 5 145 28 C149 50 136 65 114 65 C91 65 74 50 70 28 C66 5 78 -10 101 -10 L101 -10 Z " />
<glyph glyph-name="semicolon" unicode="&#x3b;" horiz-adv-x="202" d="M143 206 C165 206 183 221 187 244 C191 266 179 281 156 281 C134 281 116 266 112 244 C108 221 120 206 143 206 L143 206 Z M126 57 C120 60 114 62 112 62 C107 62 100 57 94 49 L70 17 L71 11 L90 0 C114 -12 126 -44 120 -79 C112 -123 74 -173 24 -203 L23 -210 C85 -172 133 -113 142 -63 C153 -1 147 47 126 57 L126 57 Z " />
<glyph glyph-name="equal" unicode="&#x3d;" horiz-adv-x="500" d="M74 195 L69 164 L489 164 L494 195 L74 195 L74 195 Z M107 380 L102 349 L522 349 L527 380 L107 380 L107 380 Z " />
<glyph glyph-name="question" unicode="&#x3f;" horiz-adv-x="469" d="M198 -5 C220 -5 238 10 242 33 C246 55 233 70 211 70 C188 70 171 55 167 33 C163 10 175 -5 198 -5 L198 -5 Z M251 444 L225 168 L231 168 L280 396 C408 422 507 524 531 659 C552 780 497 860 394 860 C272 860 177 778 156 655 C153 640 161 630 175 630 L201 630 L207 637 L211 661 C231 771 299 845 381 845 C456 845 493 771 473 659 C452 541 364 456 251 444 L251 444 Z " />
<glyph glyph-name="A" unicode="A" horiz-adv-x="738" d="M123 50 L123 50 L272 350 L551 350 L551 351 L593 50 L593 50 L495 18 C495 18 498 12 502 3 C503 1 504 0 504 0 L600 0 L629 0 L659 0 L700 0 C700 0 701 1 702 4 C706 11 709 16 708 16 L653 45 L538 836 L535 855 L503 855 L92 35 L33 12 C33 12 34 8 36 3 C37 1 37 0 37 0 L75 0 L86 0 L98 0 L186 0 L189 3 C196 12 200 18 200 18 L123 50 L123 50 Z M549 368 L281 368 L491 791 L549 368 L549 368 Z " />
<glyph glyph-name="B" unicode="B" horiz-adv-x="647" d="M285 795 L285 795 L154 55 L153 55 L67 19 L72 4 C72 1 73 0 73 0 L144 0 L172 0 L200 0 L312 0 C482 0 612 92 637 230 C657 344 591 423 438 437 C553 465 636 543 655 649 C676 770 614 851 468 851 L351 851 L323 851 L295 851 L223 851 C224 851 223 850 221 847 L211 832 L285 795 L285 795 Z M352 440 L278 440 L347 833 L456 832 C569 832 613 752 592 633 C572 517 475 440 351 440 L352 440 L352 440 Z M203 19 L274 422 L394 422 C538 422 598 344 578 226 C556 102 451 19 315 19 L203 19 L203 19 Z " />
<glyph glyph-name="C" unicode="C" horiz-adv-x="708" d="M620 8 L618 -2 L620 8 L620 8 L620 8 Z M620 8 C625 9 625 9 620 9 L620 8 L620 8 Z M619 8 L619 8 L621 21 L621 21 L633 110 C630 111 627 113 625 115 C623 117 620 119 618 120 C598 90 573 50 553 19 C552 16 549 14 546 13 C497 9 444 7 398 7 C237 7 159 173 203 421 C248 674 391 843 560 843 C596 843 638 841 678 837 L678 837 C682 837 685 835 686 831 C694 796 705 749 713 714 C716 716 720 718 723 720 C726 722 730 724 733 726 L763 852 C737 857 656 860 562 860 C358 860 189 677 141 403 C97 155 199 -10 394 -10 C494 -10 584 -7 618 -2 L619 8 L619 8 Z " />
<glyph glyph-name="D" unicode="D" horiz-adv-x="766" d="M285 795 L285 795 L154 55 L153 55 L67 19 L72 4 C72 1 73 0 73 0 L144 0 L172 0 L184 0 L200 0 L332 0 C551 8 724 165 776 460 C822 717 697 850 474 850 L350 850 L322 850 L294 850 L222 850 C223 850 222 849 220 846 L210 831 L285 795 L285 795 Z M203 18 L347 832 L463 832 C655 832 760 698 714 439 C667 168 519 25 335 18 L203 18 L203 18 Z " />
<glyph glyph-name="E" unicode="E" horiz-adv-x="649" d="M285 795 L285 795 L154 55 L153 55 L67 19 L72 4 C72 1 73 0 73 0 L144 0 L158 0 L172 0 L200 0 L528 0 L560 0 L569 0 L578 0 L579 0 L582 18 L580 18 C583 54 586 97 589 129 C589 130 588 130 587 131 C578 139 573 144 573 143 L505 18 L204 18 L277 429 L480 429 L508 349 C508 349 516 352 528 356 C531 357 533 358 533 358 C537 382 543 414 547 438 L549 447 L549 447 C553 470 558 497 562 518 C562 518 561 519 558 520 C548 524 541 527 541 527 L485 447 L281 447 L349 832 L625 832 L651 717 C651 717 658 721 669 728 C671 728 672 729 672 729 C680 760 691 799 700 832 L702 832 L706 850 L705 850 L696 850 L687 850 L655 850 L352 850 L324 850 L310 850 L296 850 L224 850 C225 850 224 849 222 846 L212 831 L285 795 L285 795 Z " />
<glyph glyph-name="F" unicode="F" horiz-adv-x="614" d="M285 795 L285 795 L154 55 L153 55 L67 19 L72 4 C72 1 73 0 73 0 L144 0 L172 0 L200 0 L284 0 C284 0 285 1 287 4 C294 13 298 19 298 19 L210 55 L210 55 L276 429 L479 429 L507 349 C507 349 515 352 527 356 C530 357 532 358 532 358 C536 382 542 414 546 438 L548 447 L548 447 C552 470 557 497 561 518 C561 518 560 519 557 520 C547 524 540 527 540 527 L484 447 L280 447 L348 832 L614 832 L640 717 C640 717 647 721 658 728 C660 728 661 729 661 729 C669 760 680 799 689 832 L691 832 L695 850 L694 850 L685 850 L676 850 L644 850 L351 850 L323 850 L309 850 L295 850 L223 850 C224 850 223 849 221 846 L211 831 L285 795 L285 795 Z " />
<glyph glyph-name="G" unicode="G" horiz-adv-x="764" d="M644 318 L644 318 L593 28 C534 17 464 10 408 10 C241 10 159 175 202 421 C247 674 394 843 569 843 C608 843 654 841 698 837 L698 837 C702 836 705 834 706 831 C714 795 725 749 733 714 C736 716 740 718 743 720 C746 722 750 724 753 726 L783 852 C755 857 670 860 572 860 C362 860 189 677 141 403 C97 155 199 -10 395 -10 C470 -10 571 3 649 23 L700 318 L701 318 L782 354 C782 354 781 360 778 370 C777 372 777 373 777 373 C749 374 711 374 682 373 C651 374 610 374 579 373 C579 374 578 372 576 370 C570 360 566 354 566 354 L644 318 L644 318 Z " />
<glyph glyph-name="H" unicode="H" horiz-adv-x="801" d="M285 795 L285 795 L154 55 L153 55 L67 19 L72 4 C72 1 73 0 73 0 L144 0 L172 0 L200 0 L271 0 C271 0 272 1 273 4 L283 19 L210 55 L210 55 L276 429 L675 429 L609 55 L608 55 L522 19 C522 19 524 13 526 4 C527 1 527 0 527 0 L599 0 L627 0 L655 0 L726 0 C726 0 727 1 728 4 L738 19 L665 55 L796 795 L882 831 C882 831 880 837 878 846 C877 849 877 850 877 850 L806 850 L778 850 L749 850 L678 850 C678 850 677 849 676 846 L666 831 L739 795 L678 447 L279 447 L340 795 L426 831 C426 831 425 837 422 846 C421 849 421 850 421 850 L350 850 L322 850 L294 850 L222 850 C223 850 222 849 220 846 L210 831 L285 795 L285 795 Z " />
<glyph glyph-name="I" unicode="I" horiz-adv-x="356" d="M290 795 L290 795 L159 55 L72 19 L77 4 C78 1 78 0 78 0 L149 0 L177 0 L205 0 L276 0 C276 0 277 1 279 4 L289 19 L215 55 L215 55 L346 795 L433 831 L428 846 C428 849 427 850 427 850 L356 850 L328 850 L300 850 L229 850 C229 850 228 849 226 846 C220 837 217 831 216 831 L290 795 L290 795 Z " />
<glyph glyph-name="J" unicode="J" horiz-adv-x="356" d="M290 795 L290 795 L161 64 C139 -64 88 -149 35 -149 C35 -149 29 -147 16 -143 L10 -143 C6 -143 1 -163 0 -165 C-1 -170 7 -173 19 -173 C113 -173 201 -30 239 185 L346 795 L433 831 L428 846 C428 849 427 850 427 850 L356 850 L328 850 L300 850 L229 850 C229 850 228 849 226 846 C220 837 217 831 216 831 L290 795 L290 795 Z " />
<glyph glyph-name="K" unicode="K" horiz-adv-x="692" d="M285 795 L285 795 L154 55 L68 19 C67 19 69 13 72 4 C73 1 73 0 73 0 L144 0 L172 0 L201 0 L272 0 C272 0 273 1 274 4 L284 19 L211 55 L341 795 L342 795 L428 831 C428 831 426 837 424 846 C423 849 423 850 423 850 L351 850 L323 850 L295 850 L224 850 C224 850 223 849 222 846 L212 831 L285 795 L285 795 Z M590 833 L661 800 L279 435 L564 0 L601 0 L637 0 L661 0 L663 4 L668 14 L610 40 L327 461 L700 810 L768 836 C768 836 768 840 767 846 C766 848 766 850 766 850 L743 850 L728 850 L713 850 L607 850 C606 850 605 849 603 847 C597 839 592 833 591 833 L590 833 L590 833 Z M591 833 L591 833 L591 833 Z " />
<glyph glyph-name="L" unicode="L" horiz-adv-x="629" d="M285 795 L285 795 L154 55 L153 55 L67 19 L72 4 C72 1 73 0 73 0 L144 0 L158 0 L172 0 L200 0 L508 0 L540 0 L549 0 L558 0 L559 0 L562 18 L560 18 C563 64 568 121 572 165 C572 165 571 166 569 167 C560 177 555 184 555 183 L480 18 L204 18 L341 795 L432 831 C432 831 430 837 428 846 C427 849 427 850 426 850 L351 850 L323 850 L295 850 L223 850 C224 850 223 849 221 846 L211 831 L285 795 L285 795 Z " />
<glyph glyph-name="M" unicode="M" horiz-adv-x="959" d="M313 795 L313 795 L155 55 L67 19 L72 4 C73 2 73 0 73 0 L143 0 L153 0 L163 0 L239 0 C239 0 240 1 241 4 C247 13 252 19 252 19 L175 55 L175 55 L332 802 L465 -5 L493 -5 L490 16 L465 -5 L490 16 L493 -5 L514 37 L514 37 L514 37 L892 793 L784 55 L784 55 L699 19 C699 19 701 13 703 4 C704 1 704 0 704 0 L776 0 L802 0 L829 0 L890 0 L892 4 C898 13 901 19 901 19 L837 55 L946 795 L1040 831 C1040 831 1038 837 1034 846 C1034 848 1033 850 1033 850 L954 850 L927 850 L900 850 L511 59 L383 850 L342 850 L333 850 L324 850 L244 850 C244 850 242 849 241 846 C234 837 230 831 230 831 L313 795 L313 795 Z " />
<glyph glyph-name="N" unicode="N" horiz-adv-x="799" d="M776 795 L776 795 L653 98 L322 850 L310 850 L298 850 L232 850 C232 850 231 849 229 846 C224 837 220 831 220 831 L288 795 L158 55 L157 55 L71 19 C71 19 73 13 75 4 C76 1 76 0 76 0 L148 0 L159 0 L171 0 L260 0 C260 0 261 1 263 4 C270 13 274 19 274 19 L181 55 L181 55 L308 774 L631 12 L638 -5 L657 -5 L669 59 L798 795 L799 795 L880 831 C880 831 879 837 876 846 C875 849 875 850 875 850 L808 850 L797 850 L785 850 L696 850 C696 850 695 849 693 846 C686 837 682 831 681 831 L776 795 L776 795 Z " />
<glyph glyph-name="O" unicode="O" horiz-adv-x="798" d="M407 7 C242 7 162 184 209 448 C251 686 384 844 542 844 C707 844 786 667 739 401 C697 165 564 7 407 7 L407 7 Z M145 427 C99 165 200 -10 397 -10 C595 -10 757 163 803 423 C849 685 748 860 551 860 C353 860 191 687 145 427 L145 427 Z " />
<glyph glyph-name="P" unicode="P" horiz-adv-x="646" d="M285 795 L285 795 L154 55 L153 55 L67 19 L72 4 C72 1 73 0 73 0 L144 0 L172 0 L200 0 L284 0 C284 0 285 1 287 4 C294 13 298 19 298 19 L210 55 L210 55 L269 391 L375 391 C537 391 661 484 686 623 C710 759 628 850 481 850 L350 850 L322 850 L294 850 L222 850 C223 850 222 849 220 846 L210 831 L285 795 L285 795 Z M272 410 L346 832 L470 831 C584 831 646 746 623 618 C601 493 505 410 384 410 L272 410 L272 410 Z " />
<glyph glyph-name="Q" unicode="Q" horiz-adv-x="798" d="M752 -122 L753 -117 C749 -119 730 -120 705 -120 C599 -120 490 -76 431 -9 C613 10 759 178 802 423 C848 685 747 860 550 860 C352 860 190 687 144 427 C99 169 196 -5 387 -10 C456 -89 565 -141 663 -141 C696 -141 731 -134 752 -123 L752 -122 L752 -122 Z M407 6 C242 6 162 183 209 447 C251 685 384 843 542 843 C707 843 786 666 739 400 C697 164 564 6 407 6 L407 6 Z " />
<glyph glyph-name="R" unicode="R" horiz-adv-x="654" d="M285 795 L285 795 L154 55 L153 55 L67 19 L72 4 C72 1 73 0 73 0 L144 0 L172 0 L200 0 L267 0 C267 0 268 1 269 4 C274 13 278 19 278 19 L210 55 L210 55 L274 416 L366 416 L539 0 L572 0 L605 0 L638 0 C638 0 639 2 640 5 L646 17 L581 50 L405 419 C502 434 627 517 648 636 C671 765 598 850 467 850 L352 850 L324 850 L296 850 L224 850 C225 850 224 849 222 846 L212 831 L285 795 L285 795 Z M397 437 L396 439 L393 436 C384 434 376 433 368 433 L279 433 L349 831 L456 830 C555 830 608 750 586 630 C567 526 471 452 396 436 L397 437 L397 437 Z " />
<glyph glyph-name="S" unicode="S" horiz-adv-x="511" d="M77 10 L74 -3 C91 -7 167 -10 263 -10 C378 -10 471 86 497 229 C515 334 471 404 370 461 C282 510 242 570 258 656 C278 769 340 844 414 844 C443 844 470 843 493 841 L493 841 C500 840 505 835 506 828 C511 804 517 770 522 745 C525 746 530 748 534 749 C537 750 542 752 545 754 L561 829 L561 829 L565 852 L563 841 L563 841 L565 852 C555 857 497 860 418 860 C309 860 221 770 197 635 C180 540 221 476 314 424 C411 369 455 306 439 214 C417 89 347 6 265 6 C221 6 177 8 141 12 C138 13 136 15 135 19 C131 49 126 91 122 121 C118 120 114 118 110 116 C107 115 102 113 98 111 L79 23 C78 23 77 23 76 23 L74 10 L77 10 L77 10 Z " />
<glyph glyph-name="T" unicode="T" horiz-adv-x="675" d="M338 0 L366 0 L454 0 C454 0 455 1 457 4 C464 13 469 19 469 19 L376 55 L513 832 L694 832 L716 687 C716 687 724 692 735 701 L739 703 L775 832 L777 832 L780 850 L779 850 L770 850 L762 850 L729 850 L516 850 L459 850 L246 850 L213 850 L204 850 L196 850 L195 850 L192 832 L194 832 L184 703 C184 703 185 702 187 701 C195 692 201 687 201 687 L274 832 L456 832 L319 55 L213 19 C213 19 215 13 219 4 C220 1 221 0 221 0 L309 0 L338 0 L338 0 Z " />
<glyph glyph-name="U" unicode="U" horiz-adv-x="806" d="M293 795 L293 795 L206 301 C173 115 253 -10 406 -10 C558 -10 682 115 715 301 L802 795 L888 831 C888 831 886 837 884 846 C883 849 883 850 883 850 L812 850 L800 850 L788 850 L699 850 C700 850 699 849 697 846 C689 837 685 831 685 831 L778 795 L690 294 C660 122 552 8 421 8 C295 8 232 129 264 311 L349 795 L436 831 L431 846 C431 849 430 850 430 850 L359 850 L331 850 L303 850 L232 850 C232 850 231 849 229 846 L219 831 L293 795 L293 795 Z " />
<glyph glyph-name="V" unicode="V" horiz-adv-x="723" d="M752 795 L397 77 L297 795 L297 795 L396 831 C396 831 393 837 389 846 C387 849 387 850 387 850 L289 850 L260 850 L231 850 L188 850 L186 846 C181 838 179 833 179 833 L238 800 L359 1 L360 -5 L375 -5 L781 810 L782 810 L840 836 C840 836 839 840 838 847 C837 849 837 850 837 850 L801 850 L790 850 L779 850 L690 850 C690 850 689 849 687 846 C681 837 676 831 676 831 L752 795 L752 795 Z " />
<glyph glyph-name="W" unicode="W" horiz-adv-x="967" d="M1003 795 L1003 795 L731 110 L640 817 L635 855 L633 855 L621 824 L329 110 L280 795 L280 795 L383 831 C383 831 380 837 376 846 C374 849 374 850 374 850 L276 850 L247 850 L218 850 L174 850 L172 846 C167 838 165 833 165 833 L223 800 L293 23 L295 -5 L300 -5 L310 19 L611 747 L696 23 L699 -5 L703 -5 L713 19 L1031 810 L1096 836 C1096 836 1095 840 1093 847 C1093 849 1092 850 1092 850 L1047 850 L1035 850 L1024 850 L935 850 C935 850 934 849 932 846 C925 837 920 831 920 831 L1003 795 L1003 795 Z " />
<glyph glyph-name="X" unicode="X" horiz-adv-x="728" d="M170 55 L170 55 L427 393 L569 55 L485 19 C485 19 488 13 492 4 C493 1 494 0 494 0 L592 0 L628 0 L664 0 L690 0 L692 4 C695 11 697 16 697 16 L645 44 L481 427 L749 805 L810 834 C810 834 810 839 809 846 C809 848 809 850 808 850 L781 850 L761 850 L741 850 L634 850 C634 850 633 849 631 846 C623 837 617 831 617 831 L703 795 L468 457 L323 795 L323 795 L416 831 C416 831 413 837 408 846 C406 849 405 850 406 850 L299 850 L266 850 L233 850 L208 850 C208 850 207 848 206 845 C203 837 201 833 201 833 L254 800 L254 800 L413 422 L123 50 L52 18 C52 18 53 13 54 5 L54 0 L84 0 L106 0 L127 0 L243 0 C243 0 244 1 246 4 L261 19 L170 55 L170 55 Z " />
<glyph glyph-name="Y" unicode="Y" horiz-adv-x="706" d="M396 55 L396 55 L457 399 L762 810 L763 810 L822 836 C822 836 821 840 821 846 C820 849 820 850 820 850 L792 850 L781 850 L770 850 L668 850 C668 850 667 849 665 846 C657 837 652 831 652 831 L729 795 L729 795 L446 413 L290 795 L291 795 L375 831 C375 831 372 837 368 846 C366 849 366 850 366 850 L268 850 L239 850 L210 850 L185 850 C185 850 184 848 183 845 L177 833 L231 800 L400 391 L341 55 L340 55 L244 19 L249 4 C250 1 251 0 251 0 L331 0 L359 0 L387 0 L467 0 C467 0 468 1 469 4 C476 13 480 19 480 19 L396 55 L396 55 Z " />
<glyph glyph-name="Z" unicode="Z" horiz-adv-x="646" d="M273 707 L345 832 L618 832 L111 18 L105 8 L104 0 L108 0 L154 0 L505 0 L538 0 L546 0 L555 0 L556 0 L559 18 L557 18 L566 138 C566 139 565 139 564 140 C555 148 549 154 549 153 L477 18 L165 18 L673 832 L691 850 L676 850 L629 850 L316 850 L284 850 L275 850 L266 850 L265 850 L262 832 L264 832 C261 797 258 754 255 721 C255 721 256 720 258 719 C266 713 272 708 272 707 L273 707 L273 707 Z M272 707 L272 707 L272 707 Z " />
<glyph glyph-name="bracketleft" unicode="&#x5b;" horiz-adv-x="225" d="M271 939 L386 939 L389 953 L273 953 L234 953 L39 -150 L78 -150 L194 -150 L197 -136 L81 -136 L78 -150 L271 939 L271 939 Z " />
<glyph glyph-name="backslash" unicode="&#x5c;" horiz-adv-x="212" d="M160 -120 L191 -120 L197 940 L166 940 L160 -120 L160 -120 Z " />
<glyph glyph-name="bracketright" unicode="&#x5d;" horiz-adv-x="220" d="M92 -136 L-19 -136 L-21 -150 L90 -150 L129 -150 L324 953 L285 953 L173 953 L171 939 L282 939 L285 953 L92 -136 L92 -136 Z " />
<glyph glyph-name="underscore" unicode="&#x5f;" horiz-adv-x="500" d="M8 -94 L3 -125 L453 -125 L458 -94 L8 -94 L8 -94 Z " />
<glyph glyph-name="a" unicode="a" horiz-adv-x="489" d="M377 255 C187 218 82 153 69 84 C59 27 98 -11 168 -11 C232 -11 296 12 342 57 C340 15 363 -12 403 -12 C434 -12 467 9 487 41 L486 43 C477 27 461 17 447 17 C409 17 388 37 393 67 L443 346 C454 413 415 458 324 458 C237 458 162 448 150 434 C148 432 149 428 154 424 L166 420 L171 420 C183 433 244 443 313 443 C377 443 402 399 390 333 L377 255 L377 255 Z M374 241 L344 71 C344 69 344 67 344 65 C308 30 259 12 213 12 C148 12 111 45 121 95 C131 154 219 210 376 241 L374 241 L374 241 Z " />
<glyph glyph-name="b" unicode="b" horiz-adv-x="553" d="M98 -10 L102 -10 L157 41 L158 46 C196 12 244 -10 282 -10 C414 -10 520 94 548 250 C570 376 514 460 407 460 C334 460 261 436 221 401 L279 733 L282 750 L272 750 L168 712 C168 712 167 712 167 711 C162 707 159 703 159 703 L214 647 L107 41 L98 -10 L98 -10 Z M164 80 L218 388 C249 417 316 437 384 437 C472 437 516 357 495 237 C471 98 390 6 293 6 C257 6 205 36 164 80 L164 80 Z " />
<glyph glyph-name="c" unicode="c" horiz-adv-x="477" d="M466 354 L471 354 L473 360 L499 381 C499 381 498 383 496 387 C498 387 499 385 498 381 L495 387 L495 387 C493 392 489 400 484 409 C469 440 419 460 362 460 C223 460 112 360 86 209 C63 78 132 -10 258 -10 C331 -10 404 12 440 45 L442 48 L442 48 L442 49 L438 49 C402 29 338 16 278 16 C172 16 118 105 141 238 C163 364 246 447 349 447 C391 447 430 424 448 390 L466 354 L466 354 Z " />
<glyph glyph-name="d" unicode="d" horiz-adv-x="566" d="M516 667 L517 667 L477 444 C445 454 405 460 368 460 C225 460 111 354 83 196 C61 72 120 -10 230 -10 C296 -10 367 17 409 58 L405 0 L427 0 L449 0 L511 0 C511 0 512 1 513 3 C518 12 522 18 522 18 L457 50 L459 60 L580 743 L580 743 L583 760 L573 760 L468 722 L468 721 C463 717 460 714 460 714 L516 667 L516 667 Z M472 415 L411 69 C375 34 313 12 253 12 C161 12 114 92 135 211 C160 350 250 443 361 443 C390 443 432 432 471 414 L472 415 L472 415 Z " />
<glyph glyph-name="e" unicode="e" horiz-adv-x="483" d="M307 261 L146 261 C173 373 246 446 333 446 C410 446 450 372 434 261 L307 261 L307 261 Z M304 245 L454 245 L477 247 C499 375 445 460 342 460 C215 460 113 360 87 209 C64 78 133 -10 259 -10 C332 -10 405 12 441 45 L443 48 L443 48 L443 49 L439 49 C403 29 339 16 279 16 C173 16 119 105 142 238 C142 241 142 244 143 247 L304 245 L304 245 Z " />
<glyph glyph-name="f" unicode="f" horiz-adv-x="344" d="M153 0 L178 0 L240 0 C240 0 241 1 242 3 C247 12 250 18 251 18 L187 50 L255 434 L386 434 L389 450 L257 450 L275 550 C282 589 306 629 338 662 C374 697 422 721 476 721 C483 721 496 717 508 711 L533 700 L540 700 C543 700 545 704 546 711 C548 720 539 731 523 739 C511 745 498 749 490 749 C380 749 236 614 214 489 L207 449 L119 449 L117 433 L204 433 L137 49 L136 49 L66 17 C66 17 67 11 69 2 C70 0 70 -1 70 -1 L128 -1 L153 0 L153 0 Z " />
<glyph glyph-name="g" unicode="g" horiz-adv-x="538" d="M285 154 C209 154 169 213 184 302 C200 389 251 447 331 447 C406 447 446 388 430 300 C415 212 364 154 285 154 L285 154 Z M133 301 C121 234 146 182 198 157 C142 140 102 110 96 80 C88 36 121 6 179 3 C108 -23 55 -74 45 -127 C34 -195 92 -240 192 -240 C332 -240 437 -178 453 -85 C467 -6 431 47 315 47 L211 47 C153 47 117 65 122 91 C126 117 160 142 206 154 C227 146 251 142 279 142 C395 142 466 206 483 302 C493 360 475 406 436 433 L566 432 L569 450 L415 445 C393 455 367 460 337 460 C222 460 152 396 135 301 L133 301 L133 301 Z M189 3 L284 3 C401 3 440 -35 429 -92 C415 -175 323 -231 199 -231 C124 -231 81 -187 93 -120 C103 -62 142 -13 189 3 L189 3 Z " />
<glyph glyph-name="h" unicode="h" horiz-adv-x="582" d="M174 50 L174 50 L230 366 C279 408 332 436 395 436 C461 436 497 387 484 314 L438 50 L437 50 L362 18 C362 18 363 12 365 3 C366 1 366 0 366 0 L429 0 L454 0 L479 0 L536 0 C536 0 537 1 538 3 C543 12 546 18 547 18 L488 50 L539 343 C552 413 501 460 414 460 C349 460 290 426 232 376 L295 733 L298 750 L288 750 L184 712 C184 712 183 712 183 711 C178 707 175 703 175 703 L230 647 L125 50 L54 18 C54 18 55 12 57 3 C58 1 58 0 58 0 L116 0 L141 0 L166 0 L228 0 C228 0 229 1 230 3 C236 12 239 18 239 18 L174 50 L174 50 Z " />
<glyph glyph-name="i" unicode="i" horiz-adv-x="287" d="M249 610 C271 610 289 625 293 648 C297 670 285 685 262 685 C240 685 222 670 218 648 C214 625 226 610 249 610 L249 610 Z M178 50 L178 50 L247 443 L250 460 L240 460 L136 422 C136 422 135 422 135 421 C130 417 127 413 127 413 L182 357 L128 50 L57 18 C57 18 58 12 60 3 C61 1 61 0 61 0 L119 0 L144 0 L169 0 L231 0 C231 0 232 1 233 3 C239 12 242 18 242 18 L178 50 L178 50 Z " />
<glyph glyph-name="j" unicode="j" horiz-adv-x="286" d="M252 610 C274 610 292 625 296 648 C300 670 288 685 265 685 C243 685 225 670 221 648 C217 625 229 610 252 610 L252 610 Z M16 -225 L15 -232 C121 -172 152 -98 169 -2 L247 443 L250 460 L240 460 L136 422 C136 422 135 422 135 421 C130 417 127 413 127 413 L182 357 L117 -10 C99 -115 75 -192 16 -225 L16 -225 Z " />
<glyph glyph-name="k" unicode="k" horiz-adv-x="513" d="M427 50 L427 50 L255 274 L452 400 L452 400 L528 433 C528 433 529 436 529 441 C530 447 530 450 530 450 L519 450 L508 450 L397 450 L393 446 C385 436 379 429 379 429 L416 390 L416 390 L210 255 L210 253 L296 743 L299 760 L289 760 L185 722 C184 722 184 722 184 721 C179 717 176 713 176 713 L231 657 L124 50 L53 18 C53 18 54 12 56 3 C57 1 57 0 57 0 L115 0 L140 0 L165 0 L227 0 C227 0 228 1 229 3 C235 12 238 18 238 18 L174 50 L174 50 L209 250 L404 0 L435 0 L465 0 L480 0 C480 0 481 2 482 6 C485 13 487 17 487 17 L427 50 L427 50 Z " />
<glyph glyph-name="l" unicode="l" horiz-adv-x="268" d="M168 50 L168 50 L290 743 L293 760 L283 760 L179 722 C178 722 178 722 178 721 C173 717 170 713 170 713 L225 657 L118 50 L47 18 C47 18 48 12 50 3 C51 1 51 0 51 0 L109 0 L134 0 L159 0 L221 0 C221 0 222 1 223 3 C229 12 232 18 232 18 L168 50 L168 50 Z " />
<glyph glyph-name="m" unicode="m" horiz-adv-x="878" d="M782 50 L782 50 L833 343 C846 413 798 460 713 460 C649 460 586 423 525 368 C523 424 476 460 402 460 C342 460 284 426 226 376 L226 376 L227 380 L227 380 L238 459 L228 459 L127 421 C126 421 126 421 126 420 L118 412 L173 356 L119 49 L48 17 C48 17 49 11 51 2 C52 0 52 -1 52 -1 L110 -1 L135 -1 L160 -1 L218 -1 C218 -1 219 0 220 2 C225 11 228 17 228 17 L169 49 L169 49 L225 365 C273 407 324 435 383 435 C447 435 481 386 468 313 L422 49 L421 49 L346 17 C346 17 347 11 349 2 C350 0 350 -1 350 -1 L413 -1 L438 -1 L463 -1 L525 -1 C525 -1 526 0 527 2 C532 11 535 17 536 17 L472 49 L523 342 C524 348 525 354 525 360 C578 406 633 436 694 436 C758 436 791 387 779 314 L732 50 L656 18 C656 18 658 12 660 3 C661 1 661 0 661 0 L723 0 L748 0 L773 0 L831 0 C831 0 832 1 833 3 C838 12 841 18 841 18 L782 50 L782 50 Z " />
<glyph glyph-name="n" unicode="n" horiz-adv-x="582" d="M174 50 L174 50 L230 366 C279 408 332 436 395 436 C461 436 497 387 484 314 L438 50 L437 50 L362 18 C362 18 363 12 365 3 C366 1 366 0 366 0 L429 0 L454 0 L479 0 L536 0 C536 0 537 1 538 3 C543 12 546 18 547 18 L488 50 L539 343 C552 413 501 460 414 460 C349 460 290 426 232 376 L232 376 L233 380 L233 380 L244 459 L234 459 L133 421 C132 421 132 421 132 420 L124 412 L179 356 L125 49 L54 17 C54 17 55 11 57 2 C58 0 58 -1 58 -1 L116 -1 L141 -1 L166 -1 L228 -1 C228 -1 229 0 230 2 C236 11 239 17 239 17 L174 50 L174 50 Z " />
<glyph glyph-name="o" unicode="o" horiz-adv-x="529" d="M270 4 C173 4 124 92 147 225 C171 358 238 446 339 446 C436 446 485 358 462 225 C438 92 371 4 270 4 L270 4 Z M90 225 C65 84 134 -10 263 -10 C404 -10 494 84 519 225 C544 366 474 460 346 460 C204 460 115 366 90 225 L90 225 Z " />
<glyph glyph-name="p" unicode="p" horiz-adv-x="565" d="M133 -180 L133 -180 L168 16 C193 0 237 -10 284 -10 C422 -10 531 93 559 247 C581 375 525 460 418 460 C362 460 289 432 233 389 L243 459 L233 459 L132 421 C131 421 131 421 131 420 C126 416 123 412 123 412 L178 356 L178 356 L83 -181 L13 -213 C13 -213 14 -219 16 -228 C16 -230 17 -231 17 -231 L74 -231 L99 -231 L124 -231 L187 -231 C187 -231 187 -230 189 -228 C194 -219 198 -213 198 -213 L133 -180 L133 -180 Z M173 47 L232 378 C279 414 344 437 395 437 C484 437 528 352 506 224 C483 93 399 6 296 6 C248 6 199 23 173 48 L173 47 L173 47 Z " />
<glyph glyph-name="q" unicode="q" horiz-adv-x="540" d="M404 -180 L404 -180 L513 438 L517 460 L513 460 L475 443 C448 453 406 459 360 459 C222 459 112 353 84 195 C62 71 118 -11 223 -11 C267 -11 335 17 394 59 L352 -181 L276 -213 C276 -213 278 -219 280 -228 C280 -230 281 -231 281 -231 L343 -231 L368 -231 L393 -231 L451 -231 C451 -231 452 -230 453 -228 C458 -219 461 -213 461 -213 L404 -180 L404 -180 Z M458 419 L397 72 C346 36 286 13 246 13 C159 13 115 93 136 212 C161 351 247 444 353 444 C394 444 433 435 459 420 L458 419 L458 419 Z " />
<glyph glyph-name="r" unicode="r" horiz-adv-x="343" d="M174 50 L174 50 L227 352 C264 397 295 428 315 434 C305 430 334 411 355 400 C376 389 390 383 390 384 L397 384 C408 401 416 418 418 426 L418 426 C418 433 406 443 389 451 C382 454 357 461 342 461 C316 461 277 423 229 364 L231 375 L228 375 L231 376 L243 461 L233 461 L132 423 C131 423 131 423 131 422 C126 418 123 414 123 414 L178 358 L124 51 L53 19 C53 19 54 13 56 4 C57 2 57 1 57 1 L115 1 L140 1 L165 1 L227 1 C227 1 228 2 229 4 C235 13 238 19 238 19 L174 50 L174 50 Z " />
<glyph glyph-name="s" unicode="s" horiz-adv-x="414" d="M66 32 L64 23 C103 3 158 -10 200 -10 C285 -10 351 41 365 117 C376 180 342 221 268 251 C204 278 174 310 182 355 C191 410 232 447 282 447 C287 447 293 446 299 445 C332 438 356 409 362 370 C362 365 364 357 365 351 C367 352 371 352 374 353 C377 354 381 355 383 355 L397 405 L397 405 L398 413 L398 413 L400 421 C365 444 317 459 281 459 C205 459 145 409 132 335 C122 277 153 239 221 211 C291 182 324 148 316 100 C305 40 258 1 199 1 C190 1 180 2 169 4 C142 10 118 32 110 61 C107 74 102 90 98 102 C96 101 93 100 90 99 C88 99 85 97 82 96 L66 38 L66 38 L63 21 L65 30 L65 30 L66 32 L66 32 Z M399 412 L401 421 L400 412 L400 412 L399 412 L399 412 Z " />
<glyph glyph-name="t" unicode="t" horiz-adv-x="320" d="M300 54 L299 57 C282 31 252 13 223 13 C178 13 155 48 164 101 L223 434 L355 434 L358 450 L226 450 L243 549 L239 549 L176 450 L95 436 L95 434 L173 434 L173 434 L112 90 C101 30 132 -10 188 -10 C229 -10 274 15 300 54 L300 54 Z " />
<glyph glyph-name="u" unicode="u" horiz-adv-x="544" d="M410 433 L474 400 L474 400 L420 92 C358 40 296 14 251 14 C186 14 151 63 164 137 L219 450 L194 450 L169 450 L112 450 C111 450 111 449 110 447 C106 439 102 433 101 433 L160 400 L109 107 C96 37 145 -10 231 -10 C277 -10 345 21 418 82 L404 0 L429 0 L454 0 L516 0 C516 0 517 1 518 3 C523 12 526 18 527 18 L463 50 L533 450 L508 450 L483 450 L421 450 C420 450 420 449 419 447 C415 439 411 433 410 433 L410 433 Z M410 433 L410 433 L410 433 Z M102 433 L102 433 L102 433 Z " />
<glyph glyph-name="v" unicode="v" horiz-adv-x="548" d="M495 395 L495 395 L285 65 L192 400 L192 400 L285 433 C285 433 282 438 278 447 C277 449 276 450 276 450 L178 450 L151 450 L123 450 L82 450 C82 450 82 448 80 446 C76 438 73 433 73 433 L137 400 L246 4 L247 0 L254 0 L510 395 L593 431 C593 431 592 437 591 445 C590 448 590 450 590 450 L546 450 L537 450 L529 450 L440 450 C440 450 439 449 437 446 C430 437 426 431 425 431 L495 395 L495 395 Z " />
<glyph glyph-name="w" unicode="w" horiz-adv-x="832" d="M767 395 L767 395 L579 71 L490 439 L487 450 L482 450 L477 443 L264 72 L196 400 L197 400 L293 433 C293 433 290 438 286 447 C285 449 284 450 284 450 L186 450 L160 450 L133 450 L91 450 C91 450 90 448 88 446 C84 438 81 433 81 433 L143 400 L143 400 L226 4 L227 0 L235 0 L453 374 L541 4 L542 0 L549 0 L784 395 L865 431 C865 431 864 437 863 445 C863 448 862 450 862 450 L817 450 L809 450 L800 450 L711 450 C711 450 710 449 709 446 C701 437 697 431 697 431 L767 395 L767 395 Z " />
<glyph glyph-name="x" unicode="x" horiz-adv-x="688" d="M132 50 L59 18 C59 18 60 13 60 5 C61 2 61 0 61 0 L89 0 L105 0 L122 0 L237 0 C237 0 239 1 241 4 C250 13 255 19 255 19 L168 55 L383 309 L509 55 L429 19 C429 19 432 13 436 4 C437 1 438 0 438 0 L536 0 L568 0 L601 0 L625 0 L627 4 C631 11 633 16 633 16 L578 45 L424 348 L647 624 L647 624 L711 653 C711 653 711 658 710 665 C709 667 709 669 709 669 L683 669 L668 669 L653 669 L546 669 C546 669 545 668 543 665 C535 656 529 650 530 650 L609 614 L413 370 L289 614 L289 614 L378 650 C378 650 375 656 370 665 C368 668 368 669 368 669 L261 669 L232 669 L202 669 L178 669 C178 669 178 667 176 664 C173 656 171 652 171 652 L227 619 L371 330 L132 50 L132 50 Z " />
<glyph glyph-name="y" unicode="y" horiz-adv-x="526" d="M498 395 L294 61 L297 67 L194 400 L286 433 C286 433 283 438 278 447 C277 449 276 450 277 450 L179 450 L151 450 L123 450 L83 450 L81 446 C77 437 74 433 74 433 L138 400 L260 6 L206 -82 C161 -158 125 -188 80 -188 L54 -188 L49 -192 L44 -222 C41 -235 47 -240 62 -240 C108 -240 151 -197 218 -87 L513 395 L594 431 C594 431 593 437 591 445 L591 450 L546 450 L538 450 L531 450 L442 450 C442 450 441 449 440 446 C433 437 428 431 428 431 L498 395 L498 395 Z " />
<glyph glyph-name="z" unicode="z" horiz-adv-x="480" d="M163 335 L219 435 L400 435 L91 15 L84 6 L83 0 L88 0 L136 0 L405 0 L408 15 L407 15 L424 108 L421 111 C414 116 409 120 409 120 L358 15 L147 15 L456 435 L476 450 L458 450 L411 450 L222 450 L185 460 C185 460 181 460 176 459 L174 459 C173 456 172 453 171 450 L171 450 L170 441 C163 412 154 374 147 345 C147 345 148 344 150 343 C157 339 162 335 162 334 L163 335 L163 335 Z M162 334 L162 334 L162 334 Z " />
<glyph glyph-name="bar" unicode="&#x7c;" horiz-adv-x="215" d="M39 -260 L70 -260 L250 760 L218 760 L39 -260 L39 -260 Z " />
<glyph glyph-name="exclamdown" unicode="&#xa1;" horiz-adv-x="203" d="M185 460 C208 460 220 445 216 423 C212 400 195 385 172 385 C150 385 137 400 141 423 C145 445 163 460 185 460 L185 460 Z M-1 -400 L151 282 L157 282 L68 -400 L-1 -400 L-1 -400 Z " />
<glyph glyph-name="guillemotleft" unicode="&#xab;" horiz-adv-x="427" d="M404 425 L204 248 L404 70 L407 70 L266 248 L407 425 L404 425 L404 425 Z M217 425 L17 248 L217 70 L221 70 L79 248 L221 425 L217 425 L217 425 Z " />
<glyph glyph-name="periodcentered" unicode="&#xb7;" horiz-adv-x="205" d="M140 210 C162 210 180 225 184 248 C188 270 175 285 153 285 C130 285 113 270 109 248 C105 225 117 210 140 210 L140 210 Z " />
<glyph glyph-name="guillemotright" unicode="&#xbb;" horiz-adv-x="411" d="M191 425 L329 248 L191 70 L194 70 L391 248 L194 425 L191 425 L191 425 Z M20 425 L158 248 L20 70 L24 70 L221 248 L24 425 L20 425 L20 425 Z " />
<glyph glyph-name="questiondown" unicode="&#xbf;" horiz-adv-x="469" d="M351 455 C329 455 311 440 307 418 C303 395 315 380 338 380 C360 380 378 395 382 418 C386 440 374 455 351 455 L351 455 Z M297 6 L324 282 L317 282 L269 54 C140 28 42 -74 18 -209 C-3 -330 52 -410 155 -410 C276 -410 372 -328 393 -205 C396 -190 388 -180 374 -180 L348 -180 L342 -187 L337 -211 C318 -321 250 -395 168 -395 C93 -395 56 -321 76 -209 C96 -91 185 -6 297 6 L297 6 Z " />
<glyph glyph-name="Agrave" unicode="&#xc0;" horiz-adv-x="738" d="M523 895 L464 1054 L414 1054 C413 1046 413 1038 416 1034 L519 895 L523 895 L523 895 Z M123 50 L123 50 L272 350 L551 350 L551 351 L593 50 L593 50 L495 18 C495 18 498 12 502 3 C503 1 504 0 504 0 L600 0 L629 0 L659 0 L700 0 C700 0 701 1 702 4 C706 11 709 16 708 16 L653 45 L538 836 L535 855 L503 855 L92 35 L33 12 C33 12 34 8 36 3 C37 1 37 0 37 0 L75 0 L86 0 L98 0 L186 0 L189 3 C196 12 200 18 200 18 L123 50 L123 50 Z M549 368 L281 368 L491 791 L549 368 L549 368 Z " />
<glyph glyph-name="Aacute" unicode="&#xc1;" horiz-adv-x="738" d="M521 895 L525 895 L677 1034 C681 1038 685 1046 686 1054 L636 1054 L521 895 L521 895 Z M123 50 L123 50 L272 350 L551 350 L551 351 L593 50 L593 50 L495 18 C495 18 498 12 502 3 C503 1 504 0 504 0 L600 0 L629 0 L659 0 L700 0 C700 0 701 1 702 4 C706 11 709 16 708 16 L653 45 L538 836 L535 855 L503 855 L92 35 L33 12 C33 12 34 8 36 3 C37 1 37 0 37 0 L75 0 L86 0 L98 0 L186 0 L189 3 C196 12 200 18 200 18 L123 50 L123 50 Z M549 368 L281 368 L491 791 L549 368 L549 368 Z " />
<glyph glyph-name="Acircumflex" unicode="&#xc2;" horiz-adv-x="738" d="M663 895 L557 1052 L547 1052 L391 895 L395 895 L543 999 L659 895 L663 895 L663 895 Z M123 50 L123 50 L272 350 L551 350 L551 351 L593 50 L593 50 L495 18 C495 18 498 12 502 3 C503 1 504 0 504 0 L600 0 L629 0 L659 0 L700 0 C700 0 701 1 702 4 C706 11 709 16 708 16 L653 45 L538 836 L535 855 L503 855 L92 35 L33 12 C33 12 34 8 36 3 C37 1 37 0 37 0 L75 0 L86 0 L98 0 L186 0 L189 3 C196 12 200 18 200 18 L123 50 L123 50 Z M549 368 L281 368 L491 791 L549 368 L549 368 Z " />
<glyph glyph-name="Atilde" unicode="&#xc3;" horiz-adv-x="738" d="M387 918 C407 955 426 980 473 979 C520 979 544 925 591 925 C644 925 671 963 702 1022 L697 1022 C677 983 658 958 611 958 C564 958 540 1012 493 1012 C439 1012 413 974 383 918 L387 918 L387 918 Z M123 50 L123 50 L272 350 L551 350 L551 351 L593 50 L593 50 L495 18 C495 18 498 12 502 3 C503 1 504 0 504 0 L600 0 L629 0 L659 0 L700 0 C700 0 701 1 702 4 C706 11 709 16 708 16 L653 45 L538 836 L535 855 L503 855 L92 35 L33 12 C33 12 34 8 36 3 C37 1 37 0 37 0 L75 0 L86 0 L98 0 L186 0 L189 3 C196 12 200 18 200 18 L123 50 L123 50 Z M549 368 L281 368 L491 791 L549 368 L549 368 Z " />
<glyph glyph-name="Adieresis" unicode="&#xc4;" horiz-adv-x="738" d="M604 925 C623 925 638 938 641 956 C645 975 635 988 615 988 C597 988 582 975 579 956 C575 938 586 925 604 925 L604 925 Z M454 925 C473 925 488 938 491 956 C495 975 485 988 465 988 C447 988 432 975 429 956 C425 938 436 925 454 925 L454 925 Z M123 50 L123 50 L272 350 L551 350 L551 351 L593 50 L593 50 L495 18 C495 18 498 12 502 3 C503 1 504 0 504 0 L600 0 L629 0 L659 0 L700 0 C700 0 701 1 702 4 C706 11 709 16 708 16 L653 45 L538 836 L535 855 L503 855 L92 35 L33 12 C33 12 34 8 36 3 C37 1 37 0 37 0 L75 0 L86 0 L98 0 L186 0 L189 3 C196 12 200 18 200 18 L123 50 L123 50 Z M549 368 L281 368 L491 791 L549 368 L549 368 Z " />
<glyph glyph-name="Aring" unicode="&#xc5;" horiz-adv-x="738" d="M528 908 C500 908 483 942 490 983 C497 1022 521 1048 550 1048 C581 1048 596 1018 588 974 C582 938 554 908 528 908 L528 908 Z M458 978 C451 936 482 900 525 900 C569 900 612 937 620 980 C628 1025 601 1056 553 1056 C504 1056 467 1025 458 978 L458 978 Z M123 50 L123 50 L272 350 L551 350 L551 351 L593 50 L593 50 L495 18 C495 18 498 12 502 3 C503 1 504 0 504 0 L600 0 L629 0 L659 0 L700 0 C700 0 701 1 702 4 C706 11 709 16 708 16 L653 45 L538 836 L535 855 L503 855 L92 35 L33 12 C33 12 34 8 36 3 C37 1 37 0 37 0 L75 0 L86 0 L98 0 L186 0 L189 3 C196 12 200 18 200 18 L123 50 L123 50 Z M549 368 L281 368 L491 791 L549 368 L549 368 Z " />
<glyph glyph-name="Ccedilla" unicode="&#xc7;" horiz-adv-x="708" d="M346 -98 L402 -10 C499 -10 585 -7 618 -2 L620 8 L620 8 L618 -2 L619 8 L619 8 L621 21 L621 21 L633 110 C630 111 627 113 625 115 C623 117 620 119 618 120 C598 90 573 50 553 19 C552 16 549 14 546 13 C497 9 444 7 398 7 C237 7 159 173 203 421 C248 674 391 843 560 843 C596 843 638 841 678 837 L678 837 C682 837 685 835 686 831 C694 796 705 749 713 714 C716 716 720 718 723 720 C726 722 730 724 733 726 L763 852 C737 857 656 860 562 860 C358 860 189 677 141 403 C97 157 197 -7 390 -9 L313 -131 L322 -135 C364 -150 391 -169 389 -183 C384 -211 370 -230 354 -230 C323 -230 292 -222 279 -210 L278 -214 C296 -229 328 -239 358 -239 C393 -239 421 -213 428 -173 C433 -147 400 -117 346 -98 L346 -98 Z M620 8 C625 9 625 9 620 9 L620 8 L620 8 Z " />
<glyph glyph-name="Egrave" unicode="&#xc8;" horiz-adv-x="649" d="M497 895 L438 1054 L388 1054 C386 1046 387 1038 389 1034 L492 895 L497 895 L497 895 Z M285 795 L285 795 L154 55 L153 55 L67 19 L72 4 C72 1 73 0 73 0 L144 0 L158 0 L172 0 L200 0 L528 0 L560 0 L569 0 L578 0 L579 0 L582 18 L580 18 C583 54 586 97 589 129 C589 130 588 130 587 131 C578 139 573 144 573 143 L505 18 L204 18 L277 429 L480 429 L508 349 C508 349 516 352 528 356 C531 357 533 358 533 358 C537 382 543 414 547 438 L549 447 L549 447 C553 470 558 497 562 518 C562 518 561 519 558 520 C548 524 541 527 541 527 L485 447 L281 447 L349 832 L625 832 L651 717 C651 717 658 721 669 728 C671 728 672 729 672 729 C680 760 691 799 700 832 L702 832 L706 850 L705 850 L696 850 L687 850 L655 850 L352 850 L324 850 L310 850 L296 850 L224 850 C225 850 224 849 222 846 L212 831 L285 795 L285 795 Z " />
<glyph glyph-name="Eacute" unicode="&#xc9;" horiz-adv-x="649" d="M494 895 L499 895 L651 1034 C655 1038 658 1046 660 1054 L610 1054 L494 895 L494 895 Z M285 795 L285 795 L154 55 L153 55 L67 19 L72 4 C72 1 73 0 73 0 L144 0 L158 0 L172 0 L200 0 L528 0 L560 0 L569 0 L578 0 L579 0 L582 18 L580 18 C583 54 586 97 589 129 C589 130 588 130 587 131 C578 139 573 144 573 143 L505 18 L204 18 L277 429 L480 429 L508 349 C508 349 516 352 528 356 C531 357 533 358 533 358 C537 382 543 414 547 438 L549 447 L549 447 C553 470 558 497 562 518 C562 518 561 519 558 520 C548 524 541 527 541 527 L485 447 L281 447 L349 832 L625 832 L651 717 C651 717 658 721 669 728 C671 728 672 729 672 729 C680 760 691 799 700 832 L702 832 L706 850 L705 850 L696 850 L687 850 L655 850 L352 850 L324 850 L310 850 L296 850 L224 850 C225 850 224 849 222 846 L212 831 L285 795 L285 795 Z " />
<glyph glyph-name="Ecircumflex" unicode="&#xca;" horiz-adv-x="649" d="M631 895 L525 1052 L515 1052 L359 895 L363 895 L511 999 L627 895 L631 895 L631 895 Z M285 795 L285 795 L154 55 L153 55 L67 19 L72 4 C72 1 73 0 73 0 L144 0 L158 0 L172 0 L200 0 L528 0 L560 0 L569 0 L578 0 L579 0 L582 18 L580 18 C583 54 586 97 589 129 C589 130 588 130 587 131 C578 139 573 144 573 143 L505 18 L204 18 L277 429 L480 429 L508 349 C508 349 516 352 528 356 C531 357 533 358 533 358 C537 382 543 414 547 438 L549 447 L549 447 C553 470 558 497 562 518 C562 518 561 519 558 520 C548 524 541 527 541 527 L485 447 L281 447 L349 832 L625 832 L651 717 C651 717 658 721 669 728 C671 728 672 729 672 729 C680 760 691 799 700 832 L702 832 L706 850 L705 850 L696 850 L687 850 L655 850 L352 850 L324 850 L310 850 L296 850 L224 850 C225 850 224 849 222 846 L212 831 L285 795 L285 795 Z " />
<glyph glyph-name="Edieresis" unicode="&#xcb;" horiz-adv-x="649" d="M573 925 C592 925 606 938 610 956 C613 975 603 988 584 988 C565 988 550 975 547 956 C543 938 554 925 573 925 L573 925 Z M423 925 C442 925 456 938 460 956 C463 975 453 988 434 988 C415 988 400 975 397 956 C393 938 404 925 423 925 L423 925 Z M285 795 L285 795 L154 55 L153 55 L67 19 L72 4 C72 1 73 0 73 0 L144 0 L158 0 L172 0 L200 0 L528 0 L560 0 L569 0 L578 0 L579 0 L582 18 L580 18 C583 54 586 97 589 129 C589 130 588 130 587 131 C578 139 573 144 573 143 L505 18 L204 18 L277 429 L480 429 L508 349 C508 349 516 352 528 356 C531 357 533 358 533 358 C537 382 543 414 547 438 L549 447 L549 447 C553 470 558 497 562 518 C562 518 561 519 558 520 C548 524 541 527 541 527 L485 447 L281 447 L349 832 L625 832 L651 717 C651 717 658 721 669 728 C671 728 672 729 672 729 C680 760 691 799 700 832 L702 832 L706 850 L705 850 L696 850 L687 850 L655 850 L352 850 L324 850 L310 850 L296 850 L224 850 C225 850 224 849 222 846 L212 831 L285 795 L285 795 Z " />
<glyph glyph-name="Igrave" unicode="&#xcc;" horiz-adv-x="356" d="M340 895 L281 1054 L231 1054 C229 1046 230 1038 233 1034 L336 895 L340 895 L340 895 Z M290 795 L290 795 L159 55 L72 19 L77 4 C78 1 78 0 78 0 L149 0 L177 0 L205 0 L276 0 C276 0 277 1 279 4 L289 19 L215 55 L215 55 L346 795 L433 831 L428 846 C428 849 427 850 427 850 L356 850 L328 850 L300 850 L229 850 C229 850 228 849 226 846 C220 837 217 831 216 831 L290 795 L290 795 Z " />
<glyph glyph-name="Iacute" unicode="&#xcd;" horiz-adv-x="356" d="M338 895 L342 895 L494 1034 C498 1038 501 1046 503 1054 L453 1054 L338 895 L338 895 Z M290 795 L290 795 L159 55 L72 19 L77 4 C78 1 78 0 78 0 L149 0 L177 0 L205 0 L276 0 C276 0 277 1 279 4 L289 19 L215 55 L215 55 L346 795 L433 831 L428 846 C428 849 427 850 427 850 L356 850 L328 850 L300 850 L229 850 C229 850 228 849 226 846 C220 837 217 831 216 831 L290 795 L290 795 Z " />
<glyph glyph-name="Icircumflex" unicode="&#xce;" horiz-adv-x="356" d="M474 895 L369 1052 L359 1052 L202 895 L206 895 L355 999 L470 895 L474 895 L474 895 Z M290 795 L290 795 L159 55 L72 19 L77 4 C78 1 78 0 78 0 L149 0 L177 0 L205 0 L276 0 C276 0 277 1 279 4 L289 19 L215 55 L215 55 L346 795 L433 831 L428 846 C428 849 427 850 427 850 L356 850 L328 850 L300 850 L229 850 C229 850 228 849 226 846 C220 837 217 831 216 831 L290 795 L290 795 Z " />
<glyph glyph-name="Idieresis" unicode="&#xcf;" horiz-adv-x="356" d="M416 925 C435 925 449 938 453 956 C456 975 446 988 427 988 C409 988 394 975 390 956 C387 938 398 925 416 925 L416 925 Z M266 925 C285 925 299 938 303 956 C306 975 296 988 277 988 C259 988 244 975 240 956 C237 938 248 925 266 925 L266 925 Z M290 795 L290 795 L159 55 L72 19 L77 4 C78 1 78 0 78 0 L149 0 L177 0 L205 0 L276 0 C276 0 277 1 279 4 L289 19 L215 55 L215 55 L346 795 L433 831 L428 846 C428 849 427 850 427 850 L356 850 L328 850 L300 850 L229 850 C229 850 228 849 226 846 C220 837 217 831 216 831 L290 795 L290 795 Z " />
<glyph glyph-name="Ntilde" unicode="&#xd1;" horiz-adv-x="799" d="M435 918 C455 955 474 980 521 979 C567 979 591 925 638 925 C691 925 718 963 749 1022 L745 1022 C724 983 706 958 659 958 C612 958 588 1012 541 1012 C487 1012 461 974 431 918 L435 918 L435 918 Z M776 795 L776 795 L653 98 L322 850 L310 850 L298 850 L232 850 C232 850 231 849 229 846 C224 837 220 831 220 831 L288 795 L158 55 L157 55 L71 19 C71 19 73 13 75 4 C76 1 76 0 76 0 L148 0 L159 0 L171 0 L260 0 C260 0 261 1 263 4 C270 13 274 19 274 19 L181 55 L181 55 L308 774 L631 12 L638 -5 L657 -5 L669 59 L798 795 L799 795 L880 831 C880 831 879 837 876 846 C875 849 875 850 875 850 L808 850 L797 850 L785 850 L696 850 C696 850 695 849 693 846 C686 837 682 831 681 831 L776 795 L776 795 Z " />
<glyph glyph-name="Ograve" unicode="&#xd2;" horiz-adv-x="798" d="M546 895 L487 1054 L437 1054 C435 1046 436 1038 439 1034 L542 895 L546 895 L546 895 Z M407 7 C242 7 162 184 209 448 C251 686 384 844 542 844 C707 844 786 667 739 401 C697 165 564 7 407 7 L407 7 Z M145 427 C99 165 200 -10 397 -10 C595 -10 757 163 803 423 C849 685 748 860 551 860 C353 860 191 687 145 427 L145 427 Z " />
<glyph glyph-name="Oacute" unicode="&#xd3;" horiz-adv-x="798" d="M544 895 L548 895 L700 1034 C704 1038 707 1046 709 1054 L659 1054 L544 895 L544 895 Z M407 7 C242 7 162 184 209 448 C251 686 384 844 542 844 C707 844 786 667 739 401 C697 165 564 7 407 7 L407 7 Z M145 427 C99 165 200 -10 397 -10 C595 -10 757 163 803 423 C849 685 748 860 551 860 C353 860 191 687 145 427 L145 427 Z " />
<glyph glyph-name="Ocircumflex" unicode="&#xd4;" horiz-adv-x="798" d="M680 895 L575 1052 L565 1052 L408 895 L412 895 L561 999 L676 895 L680 895 L680 895 Z M407 7 C242 7 162 184 209 448 C251 686 384 844 542 844 C707 844 786 667 739 401 C697 165 564 7 407 7 L407 7 Z M145 427 C99 165 200 -10 397 -10 C595 -10 757 163 803 423 C849 685 748 860 551 860 C353 860 191 687 145 427 L145 427 Z " />
<glyph glyph-name="Otilde" unicode="&#xd5;" horiz-adv-x="798" d="M400 918 C420 955 439 980 486 979 C532 979 556 925 603 925 C656 925 683 963 714 1022 L710 1022 C690 983 671 958 624 958 C577 958 553 1012 506 1012 C452 1012 426 974 396 918 L400 918 L400 918 Z M407 7 C242 7 162 184 209 448 C251 686 384 844 542 844 C707 844 786 667 739 401 C697 165 564 7 407 7 L407 7 Z M145 427 C99 165 200 -10 397 -10 C595 -10 757 163 803 423 C849 685 748 860 551 860 C353 860 191 687 145 427 L145 427 Z " />
<glyph glyph-name="Odieresis" unicode="&#xd6;" horiz-adv-x="798" d="M622 925 C641 925 655 938 659 956 C662 975 652 988 633 988 C615 988 600 975 596 956 C593 938 604 925 622 925 L622 925 Z M472 925 C491 925 505 938 509 956 C512 975 502 988 483 988 C465 988 450 975 446 956 C443 938 454 925 472 925 L472 925 Z M407 7 C242 7 162 184 209 448 C251 686 384 844 542 844 C707 844 786 667 739 401 C697 165 564 7 407 7 L407 7 Z M145 427 C99 165 200 -10 397 -10 C595 -10 757 163 803 423 C849 685 748 860 551 860 C353 860 191 687 145 427 L145 427 Z " />
<glyph glyph-name="Oslash" unicode="&#xd8;" horiz-adv-x="798" d="M407 7 C326 7 265 50 230 125 L731 692 C755 617 759 518 738 401 C696 165 563 7 406 7 L407 7 L407 7 Z M144 427 C121 298 134 190 176 114 L66 -10 L109 -10 L194 86 C239 25 308 -10 396 -10 C594 -10 756 163 802 423 C825 552 812 660 770 736 L880 860 L837 860 L752 764 C707 825 638 860 550 860 C352 860 190 687 144 427 L144 427 Z M216 158 C191 233 187 332 208 448 C250 686 383 844 541 844 C622 844 682 801 717 726 L216 158 L216 158 Z " />
<glyph glyph-name="Ugrave" unicode="&#xd9;" horiz-adv-x="806" d="M579 895 L520 1054 L470 1054 C469 1046 469 1038 472 1034 L575 895 L579 895 L579 895 Z M293 795 L293 795 L206 301 C173 115 253 -10 406 -10 C558 -10 682 115 715 301 L802 795 L888 831 C888 831 886 837 884 846 C883 849 883 850 883 850 L812 850 L800 850 L788 850 L699 850 C700 850 699 849 697 846 C689 837 685 831 685 831 L778 795 L690 294 C660 122 552 8 421 8 C295 8 232 129 264 311 L349 795 L436 831 L431 846 C431 849 430 850 430 850 L359 850 L331 850 L303 850 L232 850 C232 850 231 849 229 846 L219 831 L293 795 L293 795 Z " />
<glyph glyph-name="Uacute" unicode="&#xda;" horiz-adv-x="806" d="M567 895 L571 895 L723 1034 C727 1038 731 1046 732 1054 L682 1054 L567 895 L567 895 Z M293 795 L293 795 L206 301 C173 115 253 -10 406 -10 C558 -10 682 115 715 301 L802 795 L888 831 C888 831 886 837 884 846 C883 849 883 850 883 850 L812 850 L800 850 L788 850 L699 850 C700 850 699 849 697 846 C689 837 685 831 685 831 L778 795 L690 294 C660 122 552 8 421 8 C295 8 232 129 264 311 L349 795 L436 831 L431 846 C431 849 430 850 430 850 L359 850 L331 850 L303 850 L232 850 C232 850 231 849 229 846 L219 831 L293 795 L293 795 Z " />
<glyph glyph-name="Ucircumflex" unicode="&#xdb;" horiz-adv-x="806" d="M714 895 L608 1052 L598 1052 L442 895 L446 895 L594 999 L710 895 L714 895 L714 895 Z M293 795 L293 795 L206 301 C173 115 253 -10 406 -10 C558 -10 682 115 715 301 L802 795 L888 831 C888 831 886 837 884 846 C883 849 883 850 883 850 L812 850 L800 850 L788 850 L699 850 C700 850 699 849 697 846 C689 837 685 831 685 831 L778 795 L690 294 C660 122 552 8 421 8 C295 8 232 129 264 311 L349 795 L436 831 L431 846 C431 849 430 850 430 850 L359 850 L331 850 L303 850 L232 850 C232 850 231 849 229 846 L219 831 L293 795 L293 795 Z " />
<glyph glyph-name="Udieresis" unicode="&#xdc;" horiz-adv-x="806" d="M655 925 C674 925 689 938 692 956 C696 975 686 988 666 988 C648 988 633 975 630 956 C626 938 637 925 655 925 L655 925 Z M505 925 C524 925 539 938 542 956 C546 975 536 988 516 988 C498 988 483 975 480 956 C476 938 487 925 505 925 L505 925 Z M293 795 L293 795 L206 301 C173 115 253 -10 406 -10 C558 -10 682 115 715 301 L802 795 L888 831 C888 831 886 837 884 846 C883 849 883 850 883 850 L812 850 L800 850 L788 850 L699 850 C700 850 699 849 697 846 C689 837 685 831 685 831 L778 795 L690 294 C660 122 552 8 421 8 C295 8 232 129 264 311 L349 795 L436 831 L431 846 C431 849 430 850 430 850 L359 850 L331 850 L303 850 L232 850 C232 850 231 849 229 846 L219 831 L293 795 L293 795 Z " />
<glyph glyph-name="Yacute" unicode="&#xdd;" horiz-adv-x="706" d="M510 895 L514 895 L666 1034 C670 1038 674 1046 675 1054 L625 1054 L510 895 L510 895 Z M396 55 L396 55 L457 399 L762 810 L763 810 L822 836 C822 836 821 840 821 846 C820 849 820 850 820 850 L792 850 L781 850 L770 850 L668 850 C668 850 667 849 665 846 C657 837 652 831 652 831 L729 795 L729 795 L446 413 L290 795 L291 795 L375 831 C375 831 372 837 368 846 C366 849 366 850 366 850 L268 850 L239 850 L210 850 L185 850 C185 850 184 848 183 845 L177 833 L231 800 L400 391 L341 55 L340 55 L244 19 L249 4 C250 1 251 0 251 0 L331 0 L359 0 L387 0 L467 0 C467 0 468 1 469 4 C476 13 480 19 480 19 L396 55 L396 55 Z " />
<glyph glyph-name="agrave" unicode="&#xe0;" horiz-adv-x="489" d="M341 530 L286 707 L236 707 C234 697 234 688 237 685 L337 530 L341 530 L341 530 Z M377 255 C187 218 82 153 69 84 C59 27 98 -11 168 -11 C232 -11 296 12 342 57 C340 15 363 -12 403 -12 C434 -12 467 9 487 41 L486 43 C477 27 461 17 447 17 C409 17 388 37 393 67 L443 346 C454 413 415 458 324 458 C237 458 162 448 150 434 C148 432 149 428 154 424 L166 420 L171 420 C183 433 244 443 313 443 C377 443 402 399 390 333 L377 255 L377 255 Z M374 241 L344 71 C344 69 344 67 344 65 C308 30 259 12 213 12 C148 12 111 45 121 95 C131 154 219 210 376 241 L374 241 L374 241 Z " />
<glyph glyph-name="aacute" unicode="&#xe1;" horiz-adv-x="489" d="M339 530 L343 530 L498 685 C502 688 506 697 508 707 L458 707 L339 530 L339 530 Z M377 255 C187 218 82 153 69 84 C59 27 98 -11 168 -11 C232 -11 296 12 342 57 C340 15 363 -12 403 -12 C434 -12 467 9 487 41 L486 43 C477 27 461 17 447 17 C409 17 388 37 393 67 L443 346 C454 413 415 458 324 458 C237 458 162 448 150 434 C148 432 149 428 154 424 L166 420 L171 420 C183 433 244 443 313 443 C377 443 402 399 390 333 L377 255 L377 255 Z M374 241 L344 71 C344 69 344 67 344 65 C308 30 259 12 213 12 C148 12 111 45 121 95 C131 154 219 210 376 241 L374 241 L374 241 Z " />
<glyph glyph-name="acircumflex" unicode="&#xe2;" horiz-adv-x="489" d="M476 530 L373 705 L363 705 L204 530 L208 530 L358 646 L472 530 L476 530 L476 530 Z M377 255 C187 218 82 153 69 84 C59 27 98 -11 168 -11 C232 -11 296 12 342 57 C340 15 363 -12 403 -12 C434 -12 467 9 487 41 L486 43 C477 27 461 17 447 17 C409 17 388 37 393 67 L443 346 C454 413 415 458 324 458 C237 458 162 448 150 434 C148 432 149 428 154 424 L166 420 L171 420 C183 433 244 443 313 443 C377 443 402 399 390 333 L377 255 L377 255 Z M374 241 L344 71 C344 69 344 67 344 65 C308 30 259 12 213 12 C148 12 111 45 121 95 C131 154 219 210 376 241 L374 241 L374 241 Z " />
<glyph glyph-name="atilde" unicode="&#xe3;" horiz-adv-x="489" d="M181 555 C201 596 220 624 268 624 C315 624 338 563 385 563 C437 563 465 606 497 671 L493 671 C472 628 453 600 406 600 C359 600 336 660 289 660 C235 660 208 618 177 555 L181 555 L181 555 Z M377 255 C187 218 82 153 69 84 C59 27 98 -11 168 -11 C232 -11 296 12 342 57 C340 15 363 -12 403 -12 C434 -12 467 9 487 41 L486 43 C477 27 461 17 447 17 C409 17 388 37 393 67 L443 346 C454 413 415 458 324 458 C237 458 162 448 150 434 C148 432 149 428 154 424 L166 420 L171 420 C183 433 244 443 313 443 C377 443 402 399 390 333 L377 255 L377 255 Z M374 241 L344 71 C344 69 344 67 344 65 C308 30 259 12 213 12 C148 12 111 45 121 95 C131 154 219 210 376 241 L374 241 L374 241 Z " />
<glyph glyph-name="adieresis" unicode="&#xe4;" horiz-adv-x="489" d="M404 570 C423 570 438 583 441 601 C444 620 434 633 415 633 C397 633 382 620 379 601 C376 583 386 570 404 570 L404 570 Z M254 570 C273 570 288 583 291 601 C294 620 284 633 265 633 C247 633 232 620 229 601 C226 583 236 570 254 570 L254 570 Z M377 255 C187 218 82 153 69 84 C59 27 98 -11 168 -11 C232 -11 296 12 342 57 C340 15 363 -12 403 -12 C434 -12 467 9 487 41 L486 43 C477 27 461 17 447 17 C409 17 388 37 393 67 L443 346 C454 413 415 458 324 458 C237 458 162 448 150 434 C148 432 149 428 154 424 L166 420 L171 420 C183 433 244 443 313 443 C377 443 402 399 390 333 L377 255 L377 255 Z M374 241 L344 71 C344 69 344 67 344 65 C308 30 259 12 213 12 C148 12 111 45 121 95 C131 154 219 210 376 241 L374 241 L374 241 Z " />
<glyph glyph-name="aring" unicode="&#xe5;" horiz-adv-x="489" d="M331 543 C303 543 286 577 293 618 C300 657 324 683 354 683 C384 683 399 653 391 609 C385 573 357 543 331 543 L331 543 Z M261 613 C254 571 285 535 328 535 C372 535 416 572 423 615 C431 660 404 691 356 691 C307 691 269 660 261 613 L261 613 Z M377 255 C187 218 82 153 69 84 C59 27 98 -11 168 -11 C232 -11 296 12 342 57 C340 15 363 -12 403 -12 C434 -12 467 9 487 41 L486 43 C477 27 461 17 447 17 C409 17 388 37 393 67 L443 346 C454 413 415 458 324 458 C237 458 162 448 150 434 C148 432 149 428 154 424 L166 420 L171 420 C183 433 244 443 313 443 C377 443 402 399 390 333 L377 255 L377 255 Z M374 241 L344 71 C344 69 344 67 344 65 C308 30 259 12 213 12 C148 12 111 45 121 95 C131 154 219 210 376 241 L374 241 L374 241 Z " />
<glyph glyph-name="ccedilla" unicode="&#xe7;" horiz-adv-x="477" d="M211 -97 L266 -10 C337 -9 406 13 441 45 L443 48 L443 48 L443 49 L439 49 C403 29 339 16 279 16 C173 16 119 105 142 238 C164 364 247 447 350 447 C392 447 431 424 449 390 L467 355 L472 355 L474 361 L500 382 C500 382 499 384 497 388 C499 388 500 386 499 382 L496 388 L496 388 C494 393 490 401 485 410 C470 441 420 461 363 461 C224 461 113 361 87 210 C64 80 131 -8 255 -10 L178 -130 L187 -135 C229 -149 256 -169 254 -184 C249 -212 235 -231 219 -231 C188 -231 157 -223 144 -211 L143 -215 C161 -230 193 -240 223 -240 C258 -240 286 -213 293 -174 C298 -147 265 -117 211 -98 L211 -97 L211 -97 Z " />
<glyph glyph-name="egrave" unicode="&#xe8;" horiz-adv-x="483" d="M349 530 L293 707 L243 707 C242 697 242 688 245 685 L345 530 L349 530 L349 530 Z M307 261 L146 261 C173 373 246 446 333 446 C410 446 450 372 434 261 L307 261 L307 261 Z M304 245 L454 245 L477 247 C499 375 445 460 342 460 C215 460 113 360 87 209 C64 78 133 -10 259 -10 C332 -10 405 12 441 45 L443 48 L443 48 L443 49 L439 49 C403 29 339 16 279 16 C173 16 119 105 142 238 C142 241 142 244 143 247 L304 245 L304 245 Z " />
<glyph glyph-name="eacute" unicode="&#xe9;" horiz-adv-x="483" d="M347 530 L351 530 L506 685 C510 688 514 697 515 707 L465 707 L347 530 L347 530 Z M307 261 L146 261 C173 373 246 446 333 446 C410 446 450 372 434 261 L307 261 L307 261 Z M304 245 L454 245 L477 247 C499 375 445 460 342 460 C215 460 113 360 87 209 C64 78 133 -10 259 -10 C332 -10 405 12 441 45 L443 48 L443 48 L443 49 L439 49 C403 29 339 16 279 16 C173 16 119 105 142 238 C142 241 142 244 143 247 L304 245 L304 245 Z " />
<glyph glyph-name="ecircumflex" unicode="&#xea;" horiz-adv-x="483" d="M484 530 L381 705 L371 705 L212 530 L216 530 L366 645 L480 530 L484 530 L484 530 Z M307 261 L146 261 C173 373 246 446 333 446 C410 446 450 372 434 261 L307 261 L307 261 Z M304 245 L454 245 L477 247 C499 375 445 460 342 460 C215 460 113 360 87 209 C64 78 133 -10 259 -10 C332 -10 405 12 441 45 L443 48 L443 48 L443 49 L439 49 C403 29 339 16 279 16 C173 16 119 105 142 238 C142 241 142 244 143 247 L304 245 L304 245 Z " />
<glyph glyph-name="edieresis" unicode="&#xeb;" horiz-adv-x="483" d="M427 570 C446 570 461 583 464 601 C467 620 457 633 438 633 C419 633 405 620 401 601 C398 583 408 570 427 570 L427 570 Z M277 570 C296 570 311 583 314 601 C317 620 307 633 288 633 C269 633 255 620 251 601 C248 583 258 570 277 570 L277 570 Z M307 261 L146 261 C173 373 246 446 333 446 C410 446 450 372 434 261 L307 261 L307 261 Z M304 245 L454 245 L477 247 C499 375 445 460 342 460 C215 460 113 360 87 209 C64 78 133 -10 259 -10 C332 -10 405 12 441 45 L443 48 L443 48 L443 49 L439 49 C403 29 339 16 279 16 C173 16 119 105 142 238 C142 241 142 244 143 247 L304 245 L304 245 Z " />
<glyph glyph-name="igrave" unicode="&#xec;" horiz-adv-x="287" d="M236 530 L181 707 L131 707 C129 697 130 688 132 685 L232 530 L236 530 L236 530 Z M178 50 L178 50 L247 443 L250 460 L240 460 L136 422 C136 422 135 422 135 421 C130 417 127 413 127 413 L182 357 L128 50 L57 18 C57 18 58 12 60 3 C61 1 61 0 61 0 L119 0 L144 0 L169 0 L231 0 C231 0 232 1 233 3 C239 12 242 18 242 18 L178 50 L178 50 Z " />
<glyph glyph-name="iacute" unicode="&#xed;" horiz-adv-x="287" d="M234 530 L238 530 L393 685 C397 688 401 697 403 707 L353 707 L234 530 L234 530 Z M178 50 L178 50 L247 443 L250 460 L240 460 L136 422 C136 422 135 422 135 421 C130 417 127 413 127 413 L182 357 L128 50 L57 18 C57 18 58 12 60 3 C61 1 61 0 61 0 L119 0 L144 0 L169 0 L231 0 C231 0 232 1 233 3 C239 12 242 18 242 18 L178 50 L178 50 Z " />
<glyph glyph-name="icircumflex" unicode="&#xee;" horiz-adv-x="287" d="M371 530 L268 705 L258 705 L99 530 L103 530 L253 646 L367 530 L371 530 L371 530 Z M178 50 L178 50 L247 443 L250 460 L240 460 L136 422 C136 422 135 422 135 421 C130 417 127 413 127 413 L182 357 L128 50 L57 18 C57 18 58 12 60 3 C61 1 61 0 61 0 L119 0 L144 0 L169 0 L231 0 C231 0 232 1 233 3 C239 12 242 18 242 18 L178 50 L178 50 Z " />
<glyph glyph-name="idieresis" unicode="&#xef;" horiz-adv-x="287" d="M315 570 C333 570 348 583 351 601 C354 620 344 633 326 633 C307 633 292 620 289 601 C286 583 296 570 315 570 L315 570 Z M165 570 C183 570 198 583 201 601 C204 620 194 633 176 633 C157 633 142 620 139 601 C136 583 146 570 165 570 L165 570 Z M178 50 L178 50 L247 443 L250 460 L240 460 L136 422 C136 422 135 422 135 421 C130 417 127 413 127 413 L182 357 L128 50 L57 18 C57 18 58 12 60 3 C61 1 61 0 61 0 L119 0 L144 0 L169 0 L231 0 C231 0 232 1 233 3 C239 12 242 18 242 18 L178 50 L178 50 Z " />
<glyph glyph-name="ntilde" unicode="&#xf1;" horiz-adv-x="582" d="M248 555 C269 596 288 624 335 624 C382 624 405 563 452 563 C504 563 532 606 565 671 L560 671 C539 628 520 600 473 600 C426 600 403 660 356 660 C302 660 275 618 244 555 L248 555 L248 555 Z M174 50 L174 50 L230 366 C279 408 332 436 395 436 C461 436 497 387 484 314 L438 50 L437 50 L362 18 C362 18 363 12 365 3 C366 1 366 0 366 0 L429 0 L454 0 L479 0 L536 0 C536 0 537 1 538 3 C543 12 546 18 547 18 L488 50 L539 343 C552 413 501 460 414 460 C349 460 290 426 232 376 L232 376 L233 380 L233 380 L244 459 L234 459 L133 421 C132 421 132 421 132 420 L124 412 L179 356 L125 49 L54 17 C54 17 55 11 57 2 C58 0 58 -1 58 -1 L116 -1 L141 -1 L166 -1 L228 -1 C228 -1 229 0 230 2 C236 11 239 17 239 17 L174 50 L174 50 Z " />
<glyph glyph-name="ograve" unicode="&#xf2;" horiz-adv-x="529" d="M362 530 L306 707 L256 707 C255 697 255 688 258 685 L358 530 L362 530 L362 530 Z M270 4 C173 4 124 92 147 225 C171 358 238 446 339 446 C436 446 485 358 462 225 C438 92 371 4 270 4 L270 4 Z M90 225 C65 84 134 -10 263 -10 C404 -10 494 84 519 225 C544 366 474 460 346 460 C204 460 115 366 90 225 L90 225 Z " />
<glyph glyph-name="oacute" unicode="&#xf3;" horiz-adv-x="529" d="M360 530 L364 530 L519 685 C523 688 527 697 528 707 L478 707 L360 530 L360 530 Z M270 4 C173 4 124 92 147 225 C171 358 238 446 339 446 C436 446 485 358 462 225 C438 92 371 4 270 4 L270 4 Z M90 225 C65 84 134 -10 263 -10 C404 -10 494 84 519 225 C544 366 474 460 346 460 C204 460 115 366 90 225 L90 225 Z " />
<glyph glyph-name="ocircumflex" unicode="&#xf4;" horiz-adv-x="529" d="M497 530 L394 705 L384 705 L225 530 L229 530 L379 645 L493 530 L497 530 L497 530 Z M270 4 C173 4 124 92 147 225 C171 358 238 446 339 446 C436 446 485 358 462 225 C438 92 371 4 270 4 L270 4 Z M90 225 C65 84 134 -10 263 -10 C404 -10 494 84 519 225 C544 366 474 460 346 460 C204 460 115 366 90 225 L90 225 Z " />
<glyph glyph-name="otilde" unicode="&#xf5;" horiz-adv-x="529" d="M217 555 C237 596 256 624 304 624 C351 624 374 563 420 563 C473 563 501 606 533 671 L529 671 C507 628 488 600 442 600 C395 600 371 660 325 660 C271 660 244 618 212 555 L217 555 L217 555 Z M270 4 C173 4 124 92 147 225 C171 358 238 446 339 446 C436 446 485 358 462 225 C438 92 371 4 270 4 L270 4 Z M90 225 C65 84 134 -10 263 -10 C404 -10 494 84 519 225 C544 366 474 460 346 460 C204 460 115 366 90 225 L90 225 Z " />
<glyph glyph-name="odieresis" unicode="&#xf6;" horiz-adv-x="529" d="M440 570 C459 570 474 583 477 601 C480 620 470 633 451 633 C432 633 418 620 414 601 C411 583 421 570 440 570 L440 570 Z M290 570 C309 570 324 583 327 601 C330 620 320 633 301 633 C282 633 268 620 264 601 C261 583 271 570 290 570 L290 570 Z M270 4 C173 4 124 92 147 225 C171 358 238 446 339 446 C436 446 485 358 462 225 C438 92 371 4 270 4 L270 4 Z M90 225 C65 84 134 -10 263 -10 C404 -10 494 84 519 225 C544 366 474 460 346 460 C204 460 115 366 90 225 L90 225 Z " />
<glyph glyph-name="oslash" unicode="&#xf8;" horiz-adv-x="529" d="M270 4 C222 4 186 26 164 65 L458 358 C470 322 472 277 463 225 C439 92 372 4 271 4 L270 4 L270 4 Z M91 225 C79 156 89 99 117 58 L49 -10 L90 -10 L136 36 C166 7 209 -9 263 -9 C404 -9 494 85 519 226 C531 295 521 353 492 394 L560 462 L519 462 L473 416 C442 445 399 461 346 461 C204 461 115 367 90 226 L91 225 L91 225 Z M151 94 C140 130 138 175 147 227 C171 360 238 448 339 448 C387 448 423 426 445 388 L151 94 L151 94 Z " />
<glyph glyph-name="ugrave" unicode="&#xf9;" horiz-adv-x="544" d="M365 530 L309 707 L259 707 C257 697 258 688 260 685 L361 530 L365 530 L365 530 Z M410 433 L474 400 L474 400 L420 92 C358 40 296 14 251 14 C186 14 151 63 164 137 L219 450 L194 450 L169 450 L112 450 C111 450 111 449 110 447 C106 439 102 433 101 433 L160 400 L109 107 C96 37 145 -10 231 -10 C277 -10 345 21 418 82 L404 0 L429 0 L454 0 L516 0 C516 0 517 1 518 3 C523 12 526 18 527 18 L463 50 L533 450 L508 450 L483 450 L421 450 C420 450 420 449 419 447 C415 439 411 433 410 433 L410 433 Z M410 433 L410 433 L410 433 Z M102 433 L102 433 L102 433 Z " />
<glyph glyph-name="uacute" unicode="&#xfa;" horiz-adv-x="544" d="M363 530 L367 530 L522 685 C525 688 529 697 531 707 L481 707 L363 530 L363 530 Z M410 433 L474 400 L474 400 L420 92 C358 40 296 14 251 14 C186 14 151 63 164 137 L219 450 L194 450 L169 450 L112 450 C111 450 111 449 110 447 C106 439 102 433 101 433 L160 400 L109 107 C96 37 145 -10 231 -10 C277 -10 345 21 418 82 L404 0 L429 0 L454 0 L516 0 C516 0 517 1 518 3 C523 12 526 18 527 18 L463 50 L533 450 L508 450 L483 450 L421 450 C420 450 420 449 419 447 C415 439 411 433 410 433 L410 433 Z M410 433 L410 433 L410 433 Z M102 433 L102 433 L102 433 Z " />
<glyph glyph-name="ucircumflex" unicode="&#xfb;" horiz-adv-x="544" d="M499 530 L397 705 L387 705 L227 530 L231 530 L381 645 L495 530 L499 530 L499 530 Z M410 433 L474 400 L474 400 L420 92 C358 40 296 14 251 14 C186 14 151 63 164 137 L219 450 L194 450 L169 450 L112 450 C111 450 111 449 110 447 C106 439 102 433 101 433 L160 400 L109 107 C96 37 145 -10 231 -10 C277 -10 345 21 418 82 L404 0 L429 0 L454 0 L516 0 C516 0 517 1 518 3 C523 12 526 18 527 18 L463 50 L533 450 L508 450 L483 450 L421 450 C420 450 420 449 419 447 C415 439 411 433 410 433 L410 433 Z M410 433 L410 433 L410 433 Z M102 433 L102 433 L102 433 Z " />
<glyph glyph-name="udieresis" unicode="&#xfc;" horiz-adv-x="544" d="M443 570 C462 570 477 583 480 601 C483 620 473 633 454 633 C435 633 420 620 417 601 C414 583 424 570 443 570 L443 570 Z M293 570 C312 570 327 583 330 601 C333 620 323 633 304 633 C285 633 270 620 267 601 C264 583 274 570 293 570 L293 570 Z M410 433 L474 400 L474 400 L420 92 C358 40 296 14 251 14 C186 14 151 63 164 137 L219 450 L194 450 L169 450 L112 450 C111 450 111 449 110 447 C106 439 102 433 101 433 L160 400 L109 107 C96 37 145 -10 231 -10 C277 -10 345 21 418 82 L404 0 L429 0 L454 0 L516 0 C516 0 517 1 518 3 C523 12 526 18 527 18 L463 50 L533 450 L508 450 L483 450 L421 450 C420 450 420 449 419 447 C415 439 411 433 410 433 L410 433 Z M410 433 L410 433 L410 433 Z M102 433 L102 433 L102 433 Z " />
<glyph glyph-name="yacute" unicode="&#xfd;" horiz-adv-x="471" d="M341 530 L345 530 L500 685 C504 688 508 697 510 707 L460 707 L341 530 L341 530 Z M476 395 L252 27 L275 66 L172 399 L264 432 C264 432 261 437 256 446 C255 448 254 449 255 449 L157 449 L129 449 L101 449 L61 449 L59 445 C55 436 52 432 52 432 L116 399 L238 5 L184 -83 C138 -159 102 -189 57 -189 L31 -189 L26 -193 L21 -223 C18 -236 24 -241 39 -241 C85 -241 129 -198 195 -88 L490 394 L571 430 C571 430 570 436 568 444 L568 449 L523 449 L515 449 L508 449 L419 449 C419 449 418 448 417 445 C410 436 405 430 405 430 L476 395 L476 395 Z " />
<glyph glyph-name="ydieresis" unicode="&#xff;" horiz-adv-x="471" d="M421 570 C440 570 455 583 458 601 C461 620 451 633 432 633 C414 633 399 620 396 601 C393 583 403 570 421 570 L421 570 Z M271 570 C290 570 305 583 308 601 C311 620 301 633 282 633 C264 633 249 620 246 601 C243 583 253 570 271 570 L271 570 Z M476 395 L252 27 L275 66 L172 399 L264 432 C264 432 261 437 256 446 C255 448 254 449 255 449 L157 449 L129 449 L101 449 L61 449 L59 445 C55 436 52 432 52 432 L116 399 L238 5 L184 -83 C138 -159 102 -189 57 -189 L31 -189 L26 -193 L21 -223 C18 -236 24 -241 39 -241 C85 -241 129 -198 195 -88 L490 394 L571 430 C571 430 570 436 568 444 L568 449 L523 449 L515 449 L508 449 L419 449 C419 449 418 448 417 445 C410 436 405 430 405 430 L476 395 L476 395 Z " />
<glyph glyph-name="Amacron" unicode="&#x100;" horiz-adv-x="738" d="M402 957 L668 957 L674 988 L408 988 L402 957 L402 957 Z M123 50 L123 50 L272 350 L551 350 L551 351 L593 50 L593 50 L495 18 C495 18 498 12 502 3 C503 1 504 0 504 0 L600 0 L629 0 L659 0 L700 0 C700 0 701 1 702 4 C706 11 709 16 708 16 L653 45 L538 836 L535 855 L503 855 L92 35 L33 12 C33 12 34 8 36 3 C37 1 37 0 37 0 L75 0 L86 0 L98 0 L186 0 L189 3 C196 12 200 18 200 18 L123 50 L123 50 Z M549 368 L281 368 L491 791 L549 368 L549 368 Z " />
<glyph glyph-name="amacron" unicode="&#x101;" horiz-adv-x="489" d="M206 597 L472 597 L478 628 L212 628 L206 597 L206 597 Z M377 255 C187 218 82 153 69 84 C59 27 98 -11 168 -11 C232 -11 296 12 342 57 C340 15 363 -12 403 -12 C434 -12 467 9 487 41 L486 43 C477 27 461 17 447 17 C409 17 388 37 393 67 L443 346 C454 413 415 458 324 458 C237 458 162 448 150 434 C148 432 149 428 154 424 L166 420 L171 420 C183 433 244 443 313 443 C377 443 402 399 390 333 L377 255 L377 255 Z M374 241 L344 71 C344 69 344 67 344 65 C308 30 259 12 213 12 C148 12 111 45 121 95 C131 154 219 210 376 241 L374 241 L374 241 Z " />
<glyph glyph-name="Abreve" unicode="&#x102;" horiz-adv-x="738" d="M413 1032 L409 1032 C426 940 459 904 526 904 C593 904 639 940 688 1032 L683 1032 C649 967 606 942 532 942 C459 942 425 967 413 1032 L413 1032 Z M123 50 L123 50 L272 350 L551 350 L551 351 L593 50 L593 50 L495 18 C495 18 498 12 502 3 C503 1 504 0 504 0 L600 0 L629 0 L659 0 L700 0 C700 0 701 1 702 4 C706 11 709 16 708 16 L653 45 L538 836 L535 855 L503 855 L92 35 L33 12 C33 12 34 8 36 3 C37 1 37 0 37 0 L75 0 L86 0 L98 0 L186 0 L189 3 C196 12 200 18 200 18 L123 50 L123 50 Z M549 368 L281 368 L491 791 L549 368 L549 368 Z " />
<glyph glyph-name="abreve" unicode="&#x103;" horiz-adv-x="489" d="M219 682 L214 682 C229 580 262 540 329 540 C396 540 442 580 494 682 L489 682 C453 610 410 582 337 582 C262 582 230 610 219 682 L219 682 Z M377 255 C187 218 82 153 69 84 C59 27 98 -11 168 -11 C232 -11 296 12 342 57 C340 15 363 -12 403 -12 C434 -12 467 9 487 41 L486 43 C477 27 461 17 447 17 C409 17 388 37 393 67 L443 346 C454 413 415 458 324 458 C237 458 162 448 150 434 C148 432 149 428 154 424 L166 420 L171 420 C183 433 244 443 313 443 C377 443 402 399 390 333 L377 255 L377 255 Z M374 241 L344 71 C344 69 344 67 344 65 C308 30 259 12 213 12 C148 12 111 45 121 95 C131 154 219 210 376 241 L374 241 L374 241 Z " />
<glyph glyph-name="Cacute" unicode="&#x106;" horiz-adv-x="708" d="M526 895 L530 895 L682 1034 C686 1038 689 1046 691 1054 L641 1054 L526 895 L526 895 Z M620 8 L618 -2 L620 8 L620 8 L620 8 Z M620 8 C625 9 625 9 620 9 L620 8 L620 8 Z M619 8 L619 8 L621 21 L621 21 L633 110 C630 111 627 113 625 115 C623 117 620 119 618 120 C598 90 573 50 553 19 C552 16 549 14 546 13 C497 9 444 7 398 7 C237 7 159 173 203 421 C248 674 391 843 560 843 C596 843 638 841 678 837 L678 837 C682 837 685 835 686 831 C694 796 705 749 713 714 C716 716 720 718 723 720 C726 722 730 724 733 726 L763 852 C737 857 656 860 562 860 C358 860 189 677 141 403 C97 155 199 -10 394 -10 C494 -10 584 -7 618 -2 L619 8 L619 8 Z " />
<glyph glyph-name="cacute" unicode="&#x107;" horiz-adv-x="477" d="M352 530 L356 530 L511 685 C515 688 519 697 520 707 L470 707 L352 530 L352 530 Z M466 354 L471 354 L473 360 L499 381 C499 381 498 383 496 387 C498 387 499 385 498 381 L495 387 L495 387 C493 392 489 400 484 409 C469 440 419 460 362 460 C223 460 112 360 86 209 C63 78 132 -10 258 -10 C331 -10 404 12 440 45 L442 48 L442 48 L442 49 L438 49 C402 29 338 16 278 16 C172 16 118 105 141 238 C163 364 246 447 349 447 C391 447 430 424 448 390 L466 354 L466 354 Z " />
<glyph glyph-name="Ccaron" unicode="&#x10c;" horiz-adv-x="708" d="M711 1057 L550 900 L540 900 L439 1057 L443 1057 L555 953 L707 1057 L711 1057 L711 1057 Z M620 8 L618 -2 L620 8 L620 8 L620 8 Z M620 8 C625 9 625 9 620 9 L620 8 L620 8 Z M619 8 L619 8 L621 21 L621 21 L633 110 C630 111 627 113 625 115 C623 117 620 119 618 120 C598 90 573 50 553 19 C552 16 549 14 546 13 C497 9 444 7 398 7 C237 7 159 173 203 421 C248 674 391 843 560 843 C596 843 638 841 678 837 L678 837 C682 837 685 835 686 831 C694 796 705 749 713 714 C716 716 720 718 723 720 C726 722 730 724 733 726 L763 852 C737 857 656 860 562 860 C358 860 189 677 141 403 C97 155 199 -10 394 -10 C494 -10 584 -7 618 -2 L619 8 L619 8 Z " />
<glyph glyph-name="ccaron" unicode="&#x10d;" horiz-adv-x="477" d="M520 710 L356 535 L346 535 L248 710 L252 710 L362 594 L516 710 L520 710 L520 710 Z M466 354 L471 354 L473 360 L499 381 C499 381 498 383 496 387 C498 387 499 385 498 381 L495 387 L495 387 C493 392 489 400 484 409 C469 440 419 460 362 460 C223 460 112 360 86 209 C63 78 132 -10 258 -10 C331 -10 404 12 440 45 L442 48 L442 48 L442 49 L438 49 C402 29 338 16 278 16 C172 16 118 105 141 238 C163 364 246 447 349 447 C391 447 430 424 448 390 L466 354 L466 354 Z " />
<glyph glyph-name="Dcaron" unicode="&#x10e;" horiz-adv-x="766" d="M755 1057 L594 900 L584 900 L483 1057 L487 1057 L599 953 L751 1057 L755 1057 L755 1057 Z M285 795 L285 795 L154 55 L153 55 L67 19 L72 4 C72 1 73 0 73 0 L144 0 L172 0 L184 0 L200 0 L332 0 C551 8 724 165 776 460 C822 717 697 850 474 850 L350 850 L322 850 L294 850 L222 850 C223 850 222 849 220 846 L210 831 L285 795 L285 795 Z M203 18 L347 832 L463 832 C655 832 760 698 714 439 C667 168 519 25 335 18 L203 18 L203 18 Z " />
<glyph glyph-name="dcaron" unicode="&#x10f;" horiz-adv-x="566" d="M729 750 L682 750 L627 563 L631 563 L721 730 C725 737 728 745 729 750 L729 750 Z M516 667 L517 667 L477 444 C445 454 405 460 368 460 C225 460 111 354 83 196 C61 72 120 -10 230 -10 C296 -10 367 17 409 58 L405 0 L427 0 L449 0 L511 0 C511 0 512 1 513 3 C518 12 522 18 522 18 L457 50 L459 60 L580 743 L580 743 L583 760 L573 760 L468 722 L468 721 C463 717 460 714 460 714 L516 667 L516 667 Z M472 415 L411 69 C375 34 313 12 253 12 C161 12 114 92 135 211 C160 350 250 443 361 443 C390 443 432 432 471 414 L472 415 L472 415 Z " />
<glyph glyph-name="Emacron" unicode="&#x112;" horiz-adv-x="649" d="M370 957 L636 957 L642 988 L376 988 L370 957 L370 957 Z M285 795 L285 795 L154 55 L153 55 L67 19 L72 4 C72 1 73 0 73 0 L144 0 L158 0 L172 0 L200 0 L528 0 L560 0 L569 0 L578 0 L579 0 L582 18 L580 18 C583 54 586 97 589 129 C589 130 588 130 587 131 C578 139 573 144 573 143 L505 18 L204 18 L277 429 L480 429 L508 349 C508 349 516 352 528 356 C531 357 533 358 533 358 C537 382 543 414 547 438 L549 447 L549 447 C553 470 558 497 562 518 C562 518 561 519 558 520 C548 524 541 527 541 527 L485 447 L281 447 L349 832 L625 832 L651 717 C651 717 658 721 669 728 C671 728 672 729 672 729 C680 760 691 799 700 832 L702 832 L706 850 L705 850 L696 850 L687 850 L655 850 L352 850 L324 850 L310 850 L296 850 L224 850 C225 850 224 849 222 846 L212 831 L285 795 L285 795 Z " />
<glyph glyph-name="emacron" unicode="&#x113;" horiz-adv-x="483" d="M229 597 L495 597 L500 628 L234 628 L229 597 L229 597 Z M307 261 L146 261 C173 373 246 446 333 446 C410 446 450 372 434 261 L307 261 L307 261 Z M304 245 L454 245 L477 247 C499 375 445 460 342 460 C215 460 113 360 87 209 C64 78 133 -10 259 -10 C332 -10 405 12 441 45 L443 48 L443 48 L443 49 L439 49 C403 29 339 16 279 16 C173 16 119 105 142 238 C142 241 142 244 143 247 L304 245 L304 245 Z " />
<glyph glyph-name="Edot" unicode="&#x116;" horiz-adv-x="649" d="M501 915 C523 915 541 930 545 953 C549 975 537 990 514 990 C492 990 474 975 470 953 C466 930 478 915 501 915 L501 915 Z M285 795 L285 795 L154 55 L153 55 L67 19 L72 4 C72 1 73 0 73 0 L144 0 L158 0 L172 0 L200 0 L528 0 L560 0 L569 0 L578 0 L579 0 L582 18 L580 18 C583 54 586 97 589 129 C589 130 588 130 587 131 C578 139 573 144 573 143 L505 18 L204 18 L277 429 L480 429 L508 349 C508 349 516 352 528 356 C531 357 533 358 533 358 C537 382 543 414 547 438 L549 447 L549 447 C553 470 558 497 562 518 C562 518 561 519 558 520 C548 524 541 527 541 527 L485 447 L281 447 L349 832 L625 832 L651 717 C651 717 658 721 669 728 C671 728 672 729 672 729 C680 760 691 799 700 832 L702 832 L706 850 L705 850 L696 850 L687 850 L655 850 L352 850 L324 850 L310 850 L296 850 L224 850 C225 850 224 849 222 846 L212 831 L285 795 L285 795 Z " />
<glyph glyph-name="edot" unicode="&#x117;" horiz-adv-x="483" d="M364 583 C387 583 404 598 409 621 C412 643 400 658 378 658 C355 658 337 643 334 621 C329 598 342 583 364 583 L364 583 Z M307 261 L146 261 C173 373 246 446 333 446 C410 446 450 372 434 261 L307 261 L307 261 Z M304 245 L454 245 L477 247 C499 375 445 460 342 460 C215 460 113 360 87 209 C64 78 133 -10 259 -10 C332 -10 405 12 441 45 L443 48 L443 48 L443 49 L439 49 C403 29 339 16 279 16 C173 16 119 105 142 238 C142 241 142 244 143 247 L304 245 L304 245 Z " />
<glyph glyph-name="Ecaron" unicode="&#x11a;" horiz-adv-x="649" d="M660 1057 L498 900 L488 900 L388 1057 L392 1057 L503 953 L656 1057 L660 1057 L660 1057 Z M285 795 L285 795 L154 55 L153 55 L67 19 L72 4 C72 1 73 0 73 0 L144 0 L158 0 L172 0 L200 0 L528 0 L560 0 L569 0 L578 0 L579 0 L582 18 L580 18 C583 54 586 97 589 129 C589 130 588 130 587 131 C578 139 573 144 573 143 L505 18 L204 18 L277 429 L480 429 L508 349 C508 349 516 352 528 356 C531 357 533 358 533 358 C537 382 543 414 547 438 L549 447 L549 447 C553 470 558 497 562 518 C562 518 561 519 558 520 C548 524 541 527 541 527 L485 447 L281 447 L349 832 L625 832 L651 717 C651 717 658 721 669 728 C671 728 672 729 672 729 C680 760 691 799 700 832 L702 832 L706 850 L705 850 L696 850 L687 850 L655 850 L352 850 L324 850 L310 850 L296 850 L224 850 C225 850 224 849 222 846 L212 831 L285 795 L285 795 Z " />
<glyph glyph-name="ecaron" unicode="&#x11b;" horiz-adv-x="483" d="M515 710 L351 535 L341 535 L243 710 L247 710 L357 594 L511 710 L515 710 L515 710 Z M307 261 L146 261 C173 373 246 446 333 446 C410 446 450 372 434 261 L307 261 L307 261 Z M304 245 L454 245 L477 247 C499 375 445 460 342 460 C215 460 113 360 87 209 C64 78 133 -10 259 -10 C332 -10 405 12 441 45 L443 48 L443 48 L443 49 L439 49 C403 29 339 16 279 16 C173 16 119 105 142 238 C142 241 142 244 143 247 L304 245 L304 245 Z " />
<glyph glyph-name="Gbreve" unicode="&#x11e;" horiz-adv-x="764" d="M443 1032 L438 1032 C455 940 488 904 555 904 C623 904 668 940 718 1032 L713 1032 C678 967 636 942 562 942 C489 942 455 967 443 1032 L443 1032 Z M644 318 L644 318 L593 28 C534 17 464 10 408 10 C241 10 159 175 202 421 C247 674 394 843 569 843 C608 843 654 841 698 837 L698 837 C702 836 705 834 706 831 C714 795 725 749 733 714 C736 716 740 718 743 720 C746 722 750 724 753 726 L783 852 C755 857 670 860 572 860 C362 860 189 677 141 403 C97 155 199 -10 395 -10 C470 -10 571 3 649 23 L700 318 L701 318 L782 354 C782 354 781 360 778 370 C777 372 777 373 777 373 C749 374 711 374 682 373 C651 374 610 374 579 373 C579 374 578 372 576 370 C570 360 566 354 566 354 L644 318 L644 318 Z " />
<glyph glyph-name="gbreve" unicode="&#x11f;" horiz-adv-x="538" d="M244 682 L240 682 C255 580 287 540 354 540 C422 540 468 580 519 682 L514 682 C479 610 436 582 362 582 C288 582 255 610 244 682 L244 682 Z M285 154 C209 154 169 213 184 302 C200 389 251 447 331 447 C406 447 446 388 430 300 C415 212 364 154 285 154 L285 154 Z M133 301 C121 234 146 182 198 157 C142 140 102 110 96 80 C88 36 121 6 179 3 C108 -23 55 -74 45 -127 C34 -195 92 -240 192 -240 C332 -240 437 -178 453 -85 C467 -6 431 47 315 47 L211 47 C153 47 117 65 122 91 C126 117 160 142 206 154 C227 146 251 142 279 142 C395 142 466 206 483 302 C493 360 475 406 436 433 L566 432 L569 450 L415 445 C393 455 367 460 337 460 C222 460 152 396 135 301 L133 301 L133 301 Z M189 3 L284 3 C401 3 440 -35 429 -92 C415 -175 323 -231 199 -231 C124 -231 81 -187 93 -120 C103 -62 142 -13 189 3 L189 3 Z " />
<glyph glyph-name="Itilde" unicode="&#x128;" horiz-adv-x="356" d="M190 895 C211 936 230 964 277 964 C324 964 347 903 394 903 C446 903 474 946 506 1011 L502 1011 C481 968 462 940 415 940 C368 940 345 1000 298 1000 C244 1000 217 958 186 895 L190 895 L190 895 Z M290 795 L290 795 L159 55 L72 19 L77 4 C78 1 78 0 78 0 L149 0 L177 0 L205 0 L276 0 C276 0 277 1 279 4 L289 19 L215 55 L215 55 L346 795 L433 831 L428 846 C428 849 427 850 427 850 L356 850 L328 850 L300 850 L229 850 C229 850 228 849 226 846 C220 837 217 831 216 831 L290 795 L290 795 Z " />
<glyph glyph-name="itilde" unicode="&#x129;" horiz-adv-x="287" d="M92 530 C113 571 132 599 179 599 C225 599 248 538 295 538 C348 538 375 581 408 646 L404 646 C382 603 363 575 316 575 C270 575 247 635 200 635 C146 635 119 593 87 530 L92 530 L92 530 Z M178 50 L178 50 L247 443 L250 460 L240 460 L136 422 C136 422 135 422 135 421 C130 417 127 413 127 413 L182 357 L128 50 L57 18 C57 18 58 12 60 3 C61 1 61 0 61 0 L119 0 L144 0 L169 0 L231 0 C231 0 232 1 233 3 C239 12 242 18 242 18 L178 50 L178 50 Z " />
<glyph glyph-name="Imacron" unicode="&#x12a;" horiz-adv-x="356" d="M214 957 L480 957 L485 988 L219 988 L214 957 L214 957 Z M290 795 L290 795 L159 55 L72 19 L77 4 C78 1 78 0 78 0 L149 0 L177 0 L205 0 L276 0 C276 0 277 1 279 4 L289 19 L215 55 L215 55 L346 795 L433 831 L428 846 C428 849 427 850 427 850 L356 850 L328 850 L300 850 L229 850 C229 850 228 849 226 846 C220 837 217 831 216 831 L290 795 L290 795 Z " />
<glyph glyph-name="imacron" unicode="&#x12b;" horiz-adv-x="287" d="M111 597 L377 597 L383 628 L117 628 L111 597 L111 597 Z M178 50 L178 50 L247 443 L250 460 L240 460 L136 422 C136 422 135 422 135 421 C130 417 127 413 127 413 L182 357 L128 50 L57 18 C57 18 58 12 60 3 C61 1 61 0 61 0 L119 0 L144 0 L169 0 L231 0 C231 0 232 1 233 3 C239 12 242 18 242 18 L178 50 L178 50 Z " />
<glyph glyph-name="Idot" unicode="&#x130;" horiz-adv-x="356" d="M339 915 C362 915 380 930 384 953 C388 975 375 990 353 990 C330 990 313 975 309 953 C305 930 317 915 339 915 L339 915 Z M290 795 L290 795 L159 55 L72 19 L77 4 C78 1 78 0 78 0 L149 0 L177 0 L205 0 L276 0 C276 0 277 1 279 4 L289 19 L215 55 L215 55 L346 795 L433 831 L428 846 C428 849 427 850 427 850 L356 850 L328 850 L300 850 L229 850 C229 850 228 849 226 846 C220 837 217 831 216 831 L290 795 L290 795 Z " />
<glyph glyph-name="dotlessi" unicode="&#x131;" horiz-adv-x="287" d="M178 50 L178 50 L247 443 L250 460 L240 460 L136 422 C136 422 135 422 135 421 C130 417 127 413 127 413 L182 357 L128 50 L57 18 C57 18 58 12 60 3 C61 1 61 0 61 0 L119 0 L144 0 L169 0 L231 0 C231 0 232 1 233 3 C239 12 242 18 242 18 L178 50 L178 50 Z " />
<glyph glyph-name="Lacute" unicode="&#x139;" horiz-adv-x="629" d="M318 895 L322 895 L474 1034 C478 1038 481 1046 483 1054 L433 1054 L318 895 L318 895 Z M285 795 L285 795 L154 55 L153 55 L67 19 L72 4 C72 1 73 0 73 0 L144 0 L158 0 L172 0 L200 0 L508 0 L540 0 L549 0 L558 0 L559 0 L562 18 L560 18 C563 64 568 121 572 165 C572 165 571 166 569 167 C560 177 555 184 555 183 L480 18 L204 18 L341 795 L432 831 C432 831 430 837 428 846 C427 849 427 850 426 850 L351 850 L323 850 L295 850 L223 850 C224 850 223 849 221 846 L211 831 L285 795 L285 795 Z " />
<glyph glyph-name="lacute" unicode="&#x13a;" horiz-adv-x="268" d="M255 765 L259 765 L418 904 C422 908 426 916 427 924 L375 924 L255 765 L255 765 Z M168 50 L168 50 L290 743 L293 760 L283 760 L179 722 C178 722 178 722 178 721 C173 717 170 713 170 713 L225 657 L118 50 L47 18 C47 18 48 12 50 3 C51 1 51 0 51 0 L109 0 L134 0 L159 0 L221 0 C221 0 222 1 223 3 C229 12 232 18 232 18 L168 50 L168 50 Z " />
<glyph glyph-name="Lcaron" unicode="&#x13d;" horiz-adv-x="629" d="M673 850 L626 850 L571 663 L575 663 L665 830 C669 837 672 845 673 850 L673 850 Z M285 795 L285 795 L154 55 L153 55 L67 19 L72 4 C72 1 73 0 73 0 L144 0 L158 0 L172 0 L200 0 L508 0 L540 0 L549 0 L558 0 L559 0 L562 18 L560 18 C563 64 568 121 572 165 C572 165 571 166 569 167 C560 177 555 184 555 183 L480 18 L204 18 L341 795 L432 831 C432 831 430 837 428 846 C427 849 427 850 426 850 L351 850 L323 850 L295 850 L223 850 C224 850 223 849 221 846 L211 831 L285 795 L285 795 Z " />
<glyph glyph-name="lcaron" unicode="&#x13e;" horiz-adv-x="268" d="M440 750 L393 750 L338 563 L342 563 L432 730 C436 737 439 745 440 750 L440 750 Z M168 50 L168 50 L290 743 L293 760 L283 760 L179 722 C178 722 178 722 178 721 C173 717 170 713 170 713 L225 657 L118 50 L47 18 C47 18 48 12 50 3 C51 1 51 0 51 0 L109 0 L134 0 L159 0 L221 0 C221 0 222 1 223 3 C229 12 232 18 232 18 L168 50 L168 50 Z " />
<glyph glyph-name="Nacute" unicode="&#x143;" horiz-adv-x="799" d="M574 895 L578 895 L730 1034 C734 1038 737 1046 739 1054 L689 1054 L574 895 L574 895 Z M776 795 L776 795 L653 98 L322 850 L310 850 L298 850 L232 850 C232 850 231 849 229 846 C224 837 220 831 220 831 L288 795 L158 55 L157 55 L71 19 C71 19 73 13 75 4 C76 1 76 0 76 0 L148 0 L159 0 L171 0 L260 0 C260 0 261 1 263 4 C270 13 274 19 274 19 L181 55 L181 55 L308 774 L631 12 L638 -5 L657 -5 L669 59 L798 795 L799 795 L880 831 C880 831 879 837 876 846 C875 849 875 850 875 850 L808 850 L797 850 L785 850 L696 850 C696 850 695 849 693 846 C686 837 682 831 681 831 L776 795 L776 795 Z " />
<glyph glyph-name="nacute" unicode="&#x144;" horiz-adv-x="582" d="M392 530 L396 530 L551 685 C554 688 558 697 560 707 L510 707 L392 530 L392 530 Z M174 50 L174 50 L230 366 C279 408 332 436 395 436 C461 436 497 387 484 314 L438 50 L437 50 L362 18 C362 18 363 12 365 3 C366 1 366 0 366 0 L429 0 L454 0 L479 0 L536 0 C536 0 537 1 538 3 C543 12 546 18 547 18 L488 50 L539 343 C552 413 501 460 414 460 C349 460 290 426 232 376 L232 376 L233 380 L233 380 L244 459 L234 459 L133 421 C132 421 132 421 132 420 L124 412 L179 356 L125 49 L54 17 C54 17 55 11 57 2 C58 0 58 -1 58 -1 L116 -1 L141 -1 L166 -1 L228 -1 C228 -1 229 0 230 2 C236 11 239 17 239 17 L174 50 L174 50 Z " />
<glyph glyph-name="Ncaron" unicode="&#x147;" horiz-adv-x="799" d="M739 1057 L578 900 L568 900 L467 1057 L471 1057 L583 953 L735 1057 L739 1057 L739 1057 Z M776 795 L776 795 L653 98 L322 850 L310 850 L298 850 L232 850 C232 850 231 849 229 846 C224 837 220 831 220 831 L288 795 L158 55 L157 55 L71 19 C71 19 73 13 75 4 C76 1 76 0 76 0 L148 0 L159 0 L171 0 L260 0 C260 0 261 1 263 4 C270 13 274 19 274 19 L181 55 L181 55 L308 774 L631 12 L638 -5 L657 -5 L669 59 L798 795 L799 795 L880 831 C880 831 879 837 876 846 C875 849 875 850 875 850 L808 850 L797 850 L785 850 L696 850 C696 850 695 849 693 846 C686 837 682 831 681 831 L776 795 L776 795 Z " />
<glyph glyph-name="ncaron" unicode="&#x148;" horiz-adv-x="582" d="M560 710 L396 535 L386 535 L288 710 L292 710 L401 595 L556 710 L560 710 L560 710 Z M174 50 L174 50 L230 366 C279 408 332 436 395 436 C461 436 497 387 484 314 L438 50 L437 50 L362 18 C362 18 363 12 365 3 C366 1 366 0 366 0 L429 0 L454 0 L479 0 L536 0 C536 0 537 1 538 3 C543 12 546 18 547 18 L488 50 L539 343 C552 413 501 460 414 460 C349 460 290 426 232 376 L232 376 L233 380 L233 380 L244 459 L234 459 L133 421 C132 421 132 421 132 420 L124 412 L179 356 L125 49 L54 17 C54 17 55 11 57 2 C58 0 58 -1 58 -1 L116 -1 L141 -1 L166 -1 L228 -1 C228 -1 229 0 230 2 C236 11 239 17 239 17 L174 50 L174 50 Z " />
<glyph glyph-name="Omacron" unicode="&#x14c;" horiz-adv-x="798" d="M420 957 L686 957 L691 988 L425 988 L420 957 L420 957 Z M407 7 C242 7 162 184 209 448 C251 686 384 844 542 844 C707 844 786 667 739 401 C697 165 564 7 407 7 L407 7 Z M145 427 C99 165 200 -10 397 -10 C595 -10 757 163 803 423 C849 685 748 860 551 860 C353 860 191 687 145 427 L145 427 Z " />
<glyph glyph-name="omacron" unicode="&#x14d;" horiz-adv-x="529" d="M237 597 L503 597 L508 628 L242 628 L237 597 L237 597 Z M270 4 C173 4 124 92 147 225 C171 358 238 446 339 446 C436 446 485 358 462 225 C438 92 371 4 270 4 L270 4 Z M90 225 C65 84 134 -10 263 -10 C404 -10 494 84 519 225 C544 366 474 460 346 460 C204 460 115 366 90 225 L90 225 Z " />
<glyph glyph-name="Racute" unicode="&#x154;" horiz-adv-x="654" d="M474 895 L478 895 L630 1034 C634 1038 638 1046 639 1054 L589 1054 L474 895 L474 895 Z M285 795 L285 795 L154 55 L153 55 L67 19 L72 4 C72 1 73 0 73 0 L144 0 L172 0 L200 0 L267 0 C267 0 268 1 269 4 C274 13 278 19 278 19 L210 55 L210 55 L274 416 L363 416 L539 0 L572 0 L605 0 L639 0 C639 0 640 2 641 5 L647 17 L584 50 L425 423 C518 446 628 526 647 637 C670 766 597 851 466 851 L351 851 L323 851 L295 851 L223 851 C224 851 223 850 221 847 L211 832 L285 795 L285 795 Z M416 444 L411 455 L388 437 C381 436 374 435 367 435 L278 435 L348 833 L455 832 C554 832 607 752 585 632 C568 537 487 467 416 443 L416 444 L416 444 Z " />
<glyph glyph-name="racute" unicode="&#x155;" horiz-adv-x="343" d="M320 530 L324 530 L478 685 C482 688 486 697 488 707 L438 707 L320 530 L320 530 Z M174 50 L174 50 L227 352 C264 397 295 428 315 434 C305 430 334 411 355 400 C376 389 390 383 390 384 L397 384 C408 401 416 418 418 426 L418 426 C418 433 406 443 389 451 C382 454 357 461 342 461 C316 461 277 423 229 364 L231 375 L228 375 L231 376 L243 461 L233 461 L132 423 C131 423 131 423 131 422 C126 418 123 414 123 414 L178 358 L124 51 L53 19 C53 19 54 13 56 4 C57 2 57 1 57 1 L115 1 L140 1 L165 1 L227 1 C227 1 228 2 229 4 C235 13 238 19 238 19 L174 50 L174 50 Z " />
<glyph glyph-name="Rcaron" unicode="&#x158;" horiz-adv-x="654" d="M649 1057 L488 900 L478 900 L377 1057 L381 1057 L493 953 L645 1057 L649 1057 L649 1057 Z M285 795 L285 795 L154 55 L153 55 L67 19 L72 4 C72 1 73 0 73 0 L144 0 L172 0 L200 0 L267 0 C267 0 268 1 269 4 C274 13 278 19 278 19 L210 55 L210 55 L274 416 L363 416 L539 0 L572 0 L605 0 L639 0 C639 0 640 2 641 5 L647 17 L584 50 L425 423 C518 446 628 526 647 637 C670 766 597 851 466 851 L351 851 L323 851 L295 851 L223 851 C224 851 223 850 221 847 L211 832 L285 795 L285 795 Z M416 444 L411 455 L388 437 C381 436 374 435 367 435 L278 435 L348 833 L455 832 C554 832 607 752 585 632 C568 537 487 467 416 443 L416 444 L416 444 Z " />
<glyph glyph-name="rcaron" unicode="&#x159;" horiz-adv-x="343" d="M488 710 L323 535 L313 535 L216 710 L220 710 L329 594 L484 710 L488 710 L488 710 Z M174 50 L174 50 L227 352 C264 397 295 428 315 434 C305 430 334 411 355 400 C376 389 390 383 390 384 L397 384 C408 401 416 418 418 426 L418 426 C418 433 406 443 389 451 C382 454 357 461 342 461 C316 461 277 423 229 364 L231 375 L228 375 L231 376 L243 461 L233 461 L132 423 C131 423 131 423 131 422 C126 418 123 414 123 414 L178 358 L124 51 L53 19 C53 19 54 13 56 4 C57 2 57 1 57 1 L115 1 L140 1 L165 1 L227 1 C227 1 228 2 229 4 C235 13 238 19 238 19 L174 50 L174 50 Z " />
<glyph glyph-name="Sacute" unicode="&#x15a;" horiz-adv-x="511" d="M405 895 L409 895 L561 1034 C565 1038 568 1046 570 1054 L520 1054 L405 895 L405 895 Z M77 10 L74 -3 C91 -7 167 -10 263 -10 C378 -10 471 86 497 229 C515 334 471 404 370 461 C282 510 242 570 258 656 C278 769 340 844 414 844 C443 844 470 843 493 841 L493 841 C500 840 505 835 506 828 C511 804 517 770 522 745 C525 746 530 748 534 749 C537 750 542 752 545 754 L561 829 L561 829 L565 852 L563 841 L563 841 L565 852 C555 857 497 860 418 860 C309 860 221 770 197 635 C180 540 221 476 314 424 C411 369 455 306 439 214 C417 89 347 6 265 6 C221 6 177 8 141 12 C138 13 136 15 135 19 C131 49 126 91 122 121 C118 120 114 118 110 116 C107 115 102 113 98 111 L79 23 C78 23 77 23 76 23 L74 10 L77 10 L77 10 Z " />
<glyph glyph-name="sacute" unicode="&#x15b;" horiz-adv-x="414" d="M294 530 L298 530 L453 685 C456 688 460 697 462 707 L412 707 L294 530 L294 530 Z M66 32 L64 23 C103 3 158 -10 200 -10 C285 -10 351 41 365 117 C376 180 342 221 268 251 C204 278 174 310 182 355 C191 410 232 447 282 447 C287 447 293 446 299 445 C332 438 356 409 362 370 C362 365 364 357 365 351 C367 352 371 352 374 353 C377 354 381 355 383 355 L397 405 L397 405 L398 413 L398 413 L400 421 C365 444 317 459 281 459 C205 459 145 409 132 335 C122 277 153 239 221 211 C291 182 324 148 316 100 C305 40 258 1 199 1 C190 1 180 2 169 4 C142 10 118 32 110 61 C107 74 102 90 98 102 C96 101 93 100 90 99 C88 99 85 97 82 96 L66 38 L66 38 L63 21 L65 30 L65 30 L66 32 L66 32 Z M399 412 L401 421 L400 412 L400 412 L399 412 L399 412 Z " />
<glyph glyph-name="Scedilla" unicode="&#x15e;" horiz-adv-x="511" d="M215 -98 L272 -10 C383 -5 472 90 497 229 C515 334 471 404 370 461 C282 510 242 570 258 656 C278 769 340 844 414 844 C443 844 470 843 493 841 L493 841 C500 840 505 835 506 828 C511 804 517 770 522 745 C525 746 530 748 534 749 C537 750 542 752 545 754 L561 829 L561 829 L565 852 L563 841 L563 841 L565 852 C555 857 497 860 418 860 C309 860 221 770 197 635 C180 540 221 476 314 424 C411 369 455 306 439 214 C417 89 347 6 265 6 C221 6 177 8 141 12 C138 13 136 15 135 19 C131 49 126 91 122 121 C118 120 114 118 110 116 C107 115 102 113 98 111 L79 23 C78 23 77 23 76 23 L74 10 L75 10 L72 -3 C89 -7 164 -10 259 -10 L181 -132 L190 -136 C233 -151 260 -170 258 -184 C253 -212 239 -231 223 -231 C191 -231 160 -223 147 -211 L146 -215 C164 -230 196 -240 226 -240 C261 -240 289 -214 297 -174 C301 -148 268 -118 214 -99 L215 -98 L215 -98 Z " />
<glyph glyph-name="scedilla" unicode="&#x15f;" horiz-adv-x="414" d="M152 -98 L208 -10 C289 -7 351 43 365 116 C376 179 342 220 268 250 C204 277 174 309 182 354 C191 409 232 446 282 446 C287 446 293 445 299 444 C332 437 356 408 362 369 C362 364 364 356 365 350 C367 351 371 351 374 352 C377 353 381 354 383 354 L397 404 L397 404 L398 412 L398 412 L400 420 C365 443 317 458 281 458 C205 458 145 408 132 334 C122 276 153 238 221 210 C291 181 324 147 316 99 C305 39 258 0 199 0 C190 0 180 1 169 3 C142 9 118 31 110 60 C107 73 102 89 98 101 C96 100 93 99 90 98 C88 98 85 96 82 95 L66 37 L66 37 L63 20 L65 29 L65 29 L63 20 C101 0 155 -13 197 -14 L119 -136 L128 -140 C171 -155 198 -174 195 -188 C190 -216 177 -235 161 -235 C129 -235 98 -227 85 -215 L84 -219 C102 -234 134 -244 164 -244 C199 -244 227 -218 234 -178 C239 -152 206 -122 152 -103 L152 -98 L152 -98 Z M400 408 L402 417 L401 408 L401 408 L400 408 L400 408 Z " />
<glyph glyph-name="Scaron" unicode="&#x160;" horiz-adv-x="511" d="M585 1057 L424 900 L414 900 L313 1057 L317 1057 L429 953 L581 1057 L585 1057 L585 1057 Z M77 10 L74 -3 C91 -7 167 -10 263 -10 C378 -10 471 86 497 229 C515 334 471 404 370 461 C282 510 242 570 258 656 C278 769 340 844 414 844 C443 844 470 843 493 841 L493 841 C500 840 505 835 506 828 C511 804 517 770 522 745 C525 746 530 748 534 749 C537 750 542 752 545 754 L561 829 L561 829 L565 852 L563 841 L563 841 L565 852 C555 857 497 860 418 860 C309 860 221 770 197 635 C180 540 221 476 314 424 C411 369 455 306 439 214 C417 89 347 6 265 6 C221 6 177 8 141 12 C138 13 136 15 135 19 C131 49 126 91 122 121 C118 120 114 118 110 116 C107 115 102 113 98 111 L79 23 C78 23 77 23 76 23 L74 10 L77 10 L77 10 Z " />
<glyph glyph-name="scaron" unicode="&#x161;" horiz-adv-x="414" d="M462 710 L298 535 L288 535 L190 710 L194 710 L303 595 L458 710 L462 710 L462 710 Z M66 32 L64 23 C103 3 158 -10 200 -10 C285 -10 351 41 365 117 C376 180 342 221 268 251 C204 278 174 310 182 355 C191 410 232 447 282 447 C287 447 293 446 299 445 C332 438 356 409 362 370 C362 365 364 357 365 351 C367 352 371 352 374 353 C377 354 381 355 383 355 L397 405 L397 405 L398 413 L398 413 L400 421 C365 444 317 459 281 459 C205 459 145 409 132 335 C122 277 153 239 221 211 C291 182 324 148 316 100 C305 40 258 1 199 1 C190 1 180 2 169 4 C142 10 118 32 110 61 C107 74 102 90 98 102 C96 101 93 100 90 99 C88 99 85 97 82 96 L66 38 L66 38 L63 21 L65 30 L65 30 L66 32 L66 32 Z M399 412 L401 421 L400 412 L400 412 L399 412 L399 412 Z " />
<glyph glyph-name="Tcaron" unicode="&#x164;" horiz-adv-x="675" d="M662 1057 L501 900 L491 900 L390 1057 L394 1057 L506 953 L658 1057 L662 1057 L662 1057 Z M338 0 L366 0 L454 0 C454 0 455 1 457 4 C464 13 469 19 469 19 L376 55 L513 832 L694 832 L716 687 C716 687 724 692 735 701 L739 703 L775 832 L777 832 L780 850 L779 850 L770 850 L762 850 L729 850 L516 850 L459 850 L246 850 L213 850 L204 850 L196 850 L195 850 L192 832 L194 832 L184 703 C184 703 185 702 187 701 C195 692 201 687 201 687 L274 832 L456 832 L319 55 L213 19 C213 19 215 13 219 4 C220 1 221 0 221 0 L309 0 L338 0 L338 0 Z " />
<glyph glyph-name="tcaron" unicode="&#x165;" horiz-adv-x="320" d="M427 750 L380 750 L325 563 L329 563 L419 730 C423 737 426 745 427 750 L427 750 Z M300 54 L299 57 C282 31 252 13 223 13 C178 13 155 48 164 101 L223 434 L355 434 L358 450 L226 450 L243 549 L239 549 L176 450 L95 436 L95 434 L173 434 L173 434 L112 90 C101 30 132 -10 188 -10 C229 -10 274 15 300 54 L300 54 Z " />
<glyph glyph-name="Utilde" unicode="&#x168;" horiz-adv-x="806" d="M419 895 C440 936 459 964 506 964 C553 964 576 903 623 903 C676 903 704 946 736 1011 L731 1011 C710 968 691 940 644 940 C597 940 574 1000 527 1000 C473 1000 446 958 415 895 L419 895 L419 895 Z M293 795 L293 795 L206 301 C173 115 253 -10 406 -10 C558 -10 682 115 715 301 L802 795 L888 831 C888 831 886 837 884 846 C883 849 883 850 883 850 L812 850 L800 850 L788 850 L699 850 C700 850 699 849 697 846 C689 837 685 831 685 831 L778 795 L690 294 C660 122 552 8 421 8 C295 8 232 129 264 311 L349 795 L436 831 L431 846 C431 849 430 850 430 850 L359 850 L331 850 L303 850 L232 850 C232 850 231 849 229 846 L219 831 L293 795 L293 795 Z " />
<glyph glyph-name="utilde" unicode="&#x169;" horiz-adv-x="544" d="M216 535 C237 576 256 604 303 604 C349 604 373 543 419 543 C472 543 499 586 532 651 L528 651 C506 608 487 580 441 580 C394 580 371 640 324 640 C270 640 243 598 211 535 L216 535 L216 535 Z M410 433 L474 400 L474 400 L420 92 C358 40 296 14 251 14 C186 14 151 63 164 137 L219 450 L194 450 L169 450 L112 450 C111 450 111 449 110 447 C106 439 102 433 101 433 L160 400 L109 107 C96 37 145 -10 231 -10 C277 -10 345 21 418 82 L404 0 L429 0 L454 0 L516 0 C516 0 517 1 518 3 C523 12 526 18 527 18 L463 50 L533 450 L508 450 L483 450 L421 450 C420 450 420 449 419 447 C415 439 411 433 410 433 L410 433 Z M410 433 L410 433 L410 433 Z M102 433 L102 433 L102 433 Z " />
<glyph glyph-name="Umacron" unicode="&#x16a;" horiz-adv-x="806" d="M453 957 L719 957 L725 988 L459 988 L453 957 L453 957 Z M293 795 L293 795 L206 301 C173 115 253 -10 406 -10 C558 -10 682 115 715 301 L802 795 L888 831 C888 831 886 837 884 846 C883 849 883 850 883 850 L812 850 L800 850 L788 850 L699 850 C700 850 699 849 697 846 C689 837 685 831 685 831 L778 795 L690 294 C660 122 552 8 421 8 C295 8 232 129 264 311 L349 795 L436 831 L431 846 C431 849 430 850 430 850 L359 850 L331 850 L303 850 L232 850 C232 850 231 849 229 846 L219 831 L293 795 L293 795 Z " />
<glyph glyph-name="umacron" unicode="&#x16b;" horiz-adv-x="544" d="M239 597 L505 597 L511 628 L245 628 L239 597 L239 597 Z M410 433 L474 400 L474 400 L420 92 C358 40 296 14 251 14 C186 14 151 63 164 137 L219 450 L194 450 L169 450 L112 450 C111 450 111 449 110 447 C106 439 102 433 101 433 L160 400 L109 107 C96 37 145 -10 231 -10 C277 -10 345 21 418 82 L404 0 L429 0 L454 0 L516 0 C516 0 517 1 518 3 C523 12 526 18 527 18 L463 50 L533 450 L508 450 L483 450 L421 450 C420 450 420 449 419 447 C415 439 411 433 410 433 L410 433 Z M410 433 L410 433 L410 433 Z M102 433 L102 433 L102 433 Z " />
<glyph glyph-name="Uring" unicode="&#x16e;" horiz-adv-x="806" d="M574 908 C546 908 529 942 536 983 C543 1022 567 1048 596 1048 C627 1048 642 1018 634 974 C628 938 600 908 574 908 L574 908 Z M504 978 C497 936 528 900 571 900 C615 900 658 937 666 980 C674 1025 647 1056 599 1056 C550 1056 513 1025 504 978 L504 978 Z M293 795 L293 795 L206 301 C173 115 253 -10 406 -10 C558 -10 682 115 715 301 L802 795 L888 831 C888 831 886 837 884 846 C883 849 883 850 883 850 L812 850 L800 850 L788 850 L699 850 C700 850 699 849 697 846 C689 837 685 831 685 831 L778 795 L690 294 C660 122 552 8 421 8 C295 8 232 129 264 311 L349 795 L436 831 L431 846 C431 849 430 850 430 850 L359 850 L331 850 L303 850 L232 850 C232 850 231 849 229 846 L219 831 L293 795 L293 795 Z " />
<glyph glyph-name="uring" unicode="&#x16f;" horiz-adv-x="544" d="M364 543 C336 543 319 577 326 618 C333 657 357 683 387 683 C417 683 432 653 425 609 C418 573 390 543 364 543 L364 543 Z M295 613 C287 571 318 535 362 535 C405 535 449 572 456 615 C464 660 438 691 389 691 C341 691 303 660 295 613 L295 613 Z M410 433 L474 400 L474 400 L420 92 C358 40 296 14 251 14 C186 14 151 63 164 137 L219 450 L194 450 L169 450 L112 450 C111 450 111 449 110 447 C106 439 102 433 101 433 L160 400 L109 107 C96 37 145 -10 231 -10 C277 -10 345 21 418 82 L404 0 L429 0 L454 0 L516 0 C516 0 517 1 518 3 C523 12 526 18 527 18 L463 50 L533 450 L508 450 L483 450 L421 450 C420 450 420 449 419 447 C415 439 411 433 410 433 L410 433 Z M410 433 L410 433 L410 433 Z M102 433 L102 433 L102 433 Z " />
<glyph glyph-name="Ydieresis" unicode="&#x178;" horiz-adv-x="706" d="M599 925 C617 925 632 938 635 956 C639 975 629 988 610 988 C591 988 576 975 573 956 C569 938 580 925 599 925 L599 925 Z M449 925 C467 925 482 938 485 956 C489 975 479 988 460 988 C441 988 426 975 423 956 C419 938 430 925 449 925 L449 925 Z M396 55 L396 55 L457 399 L762 810 L763 810 L822 836 C822 836 821 840 821 846 C820 849 820 850 820 850 L792 850 L781 850 L770 850 L668 850 C668 850 667 849 665 846 C657 837 652 831 652 831 L729 795 L729 795 L446 413 L290 795 L291 795 L375 831 C375 831 372 837 368 846 C366 849 366 850 366 850 L268 850 L239 850 L210 850 L185 850 C185 850 184 848 183 845 L177 833 L231 800 L400 391 L341 55 L340 55 L244 19 L249 4 C250 1 251 0 251 0 L331 0 L359 0 L387 0 L467 0 C467 0 468 1 469 4 C476 13 480 19 480 19 L396 55 L396 55 Z " />
<glyph glyph-name="Zacute" unicode="&#x179;" horiz-adv-x="646" d="M490 895 L494 895 L646 1034 C650 1038 653 1046 655 1054 L605 1054 L490 895 L490 895 Z M273 707 L345 832 L618 832 L111 18 L105 8 L104 0 L108 0 L154 0 L505 0 L538 0 L546 0 L555 0 L556 0 L559 18 L557 18 L566 138 C566 139 565 139 564 140 C555 148 549 154 549 153 L477 18 L165 18 L673 832 L691 850 L676 850 L629 850 L316 850 L284 850 L275 850 L266 850 L265 850 L262 832 L264 832 C261 797 258 754 255 721 C255 721 256 720 258 719 C266 713 272 708 272 707 L273 707 L273 707 Z M272 707 L272 707 L272 707 Z " />
<glyph glyph-name="zacute" unicode="&#x17a;" horiz-adv-x="480" d="M340 530 L344 530 L499 685 C503 688 507 697 509 707 L459 707 L340 530 L340 530 Z M163 335 L219 435 L400 435 L91 15 L84 6 L83 0 L88 0 L136 0 L405 0 L408 15 L407 15 L424 108 L421 111 C414 116 409 120 409 120 L358 15 L147 15 L456 435 L476 450 L458 450 L411 450 L222 450 L185 460 C185 460 181 460 176 459 L174 459 C173 456 172 453 171 450 L171 450 L170 441 C163 412 154 374 147 345 C147 345 148 344 150 343 C157 339 162 335 162 334 L163 335 L163 335 Z M162 334 L162 334 L162 334 Z " />
<glyph glyph-name="Zdot" unicode="&#x17b;" horiz-adv-x="646" d="M501 915 C523 915 541 930 545 953 C549 975 537 990 514 990 C492 990 474 975 470 953 C466 930 478 915 501 915 L501 915 Z M273 707 L345 832 L618 832 L111 18 L105 8 L104 0 L108 0 L154 0 L505 0 L538 0 L546 0 L555 0 L556 0 L559 18 L557 18 L566 138 C566 139 565 139 564 140 C555 148 549 154 549 153 L477 18 L165 18 L673 832 L691 850 L676 850 L629 850 L316 850 L284 850 L275 850 L266 850 L265 850 L262 832 L264 832 C261 797 258 754 255 721 C255 721 256 720 258 719 C266 713 272 708 272 707 L273 707 L273 707 Z M272 707 L272 707 L272 707 Z " />
<glyph glyph-name="zdot" unicode="&#x17c;" horiz-adv-x="480" d="M353 583 C375 583 393 598 397 621 C401 643 388 658 366 658 C343 658 326 643 322 621 C318 598 330 583 353 583 L353 583 Z M163 335 L219 435 L400 435 L91 15 L84 6 L83 0 L88 0 L136 0 L405 0 L408 15 L407 15 L424 108 L421 111 C414 116 409 120 409 120 L358 15 L147 15 L456 435 L476 450 L458 450 L411 450 L222 450 L185 460 C185 460 181 460 176 459 L174 459 C173 456 172 453 171 450 L171 450 L170 441 C163 412 154 374 147 345 C147 345 148 344 150 343 C157 339 162 335 162 334 L163 335 L163 335 Z M162 334 L162 334 L162 334 Z " />
<glyph glyph-name="Zcaron" unicode="&#x17d;" horiz-adv-x="646" d="M670 1057 L508 900 L498 900 L398 1057 L402 1057 L514 953 L666 1057 L670 1057 L670 1057 Z M273 707 L345 832 L618 832 L111 18 L105 8 L104 0 L108 0 L154 0 L505 0 L538 0 L546 0 L555 0 L556 0 L559 18 L557 18 L566 138 C566 139 565 139 564 140 C555 148 549 154 549 153 L477 18 L165 18 L673 832 L691 850 L676 850 L629 850 L316 850 L284 850 L275 850 L266 850 L265 850 L262 832 L264 832 C261 797 258 754 255 721 C255 721 256 720 258 719 C266 713 272 708 272 707 L273 707 L273 707 Z M272 707 L272 707 L272 707 Z " />
<glyph glyph-name="zcaron" unicode="&#x17e;" horiz-adv-x="480" d="M509 710 L344 535 L334 535 L237 710 L241 710 L350 594 L505 710 L509 710 L509 710 Z M163 335 L219 435 L400 435 L91 15 L84 6 L83 0 L88 0 L136 0 L405 0 L408 15 L407 15 L424 108 L421 111 C414 116 409 120 409 120 L358 15 L147 15 L456 435 L476 450 L458 450 L411 450 L222 450 L185 460 C185 460 181 460 176 459 L174 459 C173 456 172 453 171 450 L171 450 L170 441 C163 412 154 374 147 345 C147 345 148 344 150 343 C157 339 162 335 162 334 L163 335 L163 335 Z M162 334 L162 334 L162 334 Z " />
<glyph glyph-name="oogonek" unicode="&#x1eb;" horiz-adv-x="736" d="M685 -122 L686 -118 C683 -120 665 -121 641 -121 C553 -121 457 -77 397 -9 C562 6 691 139 725 333 C762 540 667 679 488 679 C309 679 166 542 129 337 C93 132 185 -6 358 -10 C425 -88 522 -139 602 -139 C632 -139 665 -132 684 -122 L685 -122 L685 -122 Z M374 5 C224 5 149 145 186 356 C218 541 336 664 479 664 C629 664 704 524 667 313 C634 128 517 5 374 5 L374 5 Z " />
<glyph glyph-name="G_sc" unicode="&#x262;" horiz-adv-x="704" d="M576 239 L576 239 L538 25 C484 14 422 8 372 8 C223 8 147 139 181 335 C216 532 344 664 500 664 C533 664 571 662 608 659 C611 658 613 656 613 653 C621 618 632 570 641 535 C644 537 648 539 651 541 C654 543 658 545 661 547 L690 671 C662 676 587 679 502 679 C314 679 163 535 125 318 C90 121 184 -10 360 -10 C424 -10 515 2 587 21 L625 239 L707 275 C707 275 705 281 703 290 C702 292 702 294 702 294 L635 294 L610 294 L585 294 L509 294 L507 290 C501 281 496 275 496 275 L576 239 L576 239 Z " />
<glyph glyph-name="I_sc" unicode="&#x26a;" horiz-adv-x="350" d="M258 614 L258 614 L159 55 L72 19 L77 4 C78 1 78 0 78 0 L149 0 L174 0 L200 0 L271 0 C270 0 271 1 273 4 L283 19 L210 55 L309 614 L395 650 C395 650 393 656 391 665 C390 668 389 669 390 669 L319 669 L293 669 L268 669 L197 669 C197 669 196 668 195 665 L185 650 L258 614 L258 614 Z " />
<glyph glyph-name="N_sc" unicode="&#x274;" horiz-adv-x="738" d="M256 614 L256 614 L157 55 L71 19 C70 19 72 13 75 4 C76 1 76 0 76 0 L147 0 L158 0 L168 0 L257 0 C257 0 258 1 260 4 C267 13 271 19 272 19 L178 55 L178 55 L275 604 L572 10 L580 -5 L597 -5 L607 53 L705 614 L706 614 L787 650 C787 650 786 656 783 665 C782 668 782 669 782 669 L715 669 L705 669 L694 669 L606 669 C606 669 605 668 603 665 C595 656 591 650 591 650 L684 614 L591 83 L286 669 L276 669 L265 669 L199 669 C198 669 197 668 196 665 C191 656 187 650 187 650 L256 614 L256 614 Z " />
<glyph glyph-name="R_sc" unicode="&#x280;" horiz-adv-x="593" d="M253 614 L253 614 L154 55 L153 55 L67 19 L72 4 C72 1 73 0 73 0 L144 0 L169 0 L194 0 L261 0 C261 0 262 1 263 4 L273 19 L204 55 L204 55 L252 326 L321 326 L481 0 L512 0 L542 0 L575 0 C575 0 576 2 577 5 C581 12 583 17 584 17 L518 50 L517 50 L378 332 C455 351 543 413 558 499 C576 600 515 668 405 668 L311 668 L286 668 L261 668 L190 668 C190 668 189 667 187 664 L177 649 L253 614 L253 614 Z M583 16 L583 16 L583 16 Z M368 350 L364 359 L345 344 C337 343 330 342 323 342 L253 342 L308 652 L396 651 C476 651 519 588 503 494 C490 423 426 370 368 350 L368 350 Z " />
<glyph glyph-name="Y_sc" unicode="&#x28f;" horiz-adv-x="646" d="M362 55 L362 55 L408 317 L666 629 L666 629 L727 655 C728 655 727 659 726 665 C725 668 725 669 725 669 L699 669 L689 669 L679 669 L577 669 C577 669 575 668 574 665 C566 656 560 650 560 650 L634 614 L401 331 L258 614 L258 614 L337 650 C337 650 334 656 330 665 C329 668 328 669 328 669 L230 669 L204 669 L177 669 L153 669 C153 669 152 667 151 664 C148 656 146 652 146 652 L202 619 L356 309 L311 55 L215 19 C214 19 217 13 220 4 C221 1 221 0 221 0 L301 0 L327 0 L352 0 L432 0 C432 0 433 1 435 4 L445 19 L362 55 L362 55 Z " />
<glyph glyph-name="B_sc" unicode="&#x299;" horiz-adv-x="585" d="M253 614 L253 614 L154 55 L153 55 L67 19 L72 4 C72 1 73 0 73 0 L144 0 L169 0 L194 0 L290 0 C437 0 548 74 568 185 C583 276 526 339 394 350 C488 373 554 432 568 512 C585 606 532 669 409 669 L312 669 L287 669 L262 669 L191 669 C191 669 190 668 188 665 L178 650 L253 614 L253 614 Z M313 353 L256 353 L309 653 L399 652 C492 652 529 590 513 498 C498 411 418 353 313 353 L313 353 Z M197 17 L253 336 L356 336 C478 336 530 274 514 180 C497 82 408 17 293 17 L197 17 L197 17 Z " />
<glyph glyph-name="H_sc" unicode="&#x29c;" horiz-adv-x="740" d="M653 614 L653 614 L607 353 L257 353 L303 614 L304 614 L390 650 L385 665 C385 668 385 669 384 669 L313 669 L288 669 L263 669 L192 669 C192 669 191 668 189 665 L179 650 L253 614 L253 614 L154 55 L153 55 L67 19 L72 4 C72 1 73 0 73 0 L144 0 L169 0 L194 0 L265 0 C266 0 267 1 268 4 L278 19 L204 55 L204 55 L254 336 L604 336 L554 55 L553 55 L467 19 L472 4 C472 1 473 0 473 0 L544 0 L569 0 L594 0 L665 0 C666 0 667 1 668 4 L678 19 L604 55 L604 55 L703 614 L704 614 L790 650 L785 665 C785 668 785 669 784 669 L713 669 L688 669 L663 669 L592 669 C592 669 591 668 589 665 C583 656 580 650 579 650 L653 614 L653 614 Z " />
<glyph glyph-name="L_sc" unicode="&#x29f;" horiz-adv-x="569" d="M253 614 L253 614 L154 55 L153 55 L67 19 L72 4 C72 1 73 0 73 0 L144 0 L156 0 L169 0 L194 0 L448 0 L481 0 L489 0 L498 0 L499 0 L502 17 L500 17 C503 63 508 120 512 163 L509 166 C501 174 495 180 495 181 L420 16 L198 16 L303 613 L304 613 L395 649 L390 664 C389 667 389 668 389 668 L313 668 L288 668 L263 668 L192 668 C192 668 191 667 189 664 L179 649 L253 614 L253 614 Z M495 181 L495 181 L495 181 Z " />
<glyph glyph-name="A_sc" unicode="&#x1d00;" horiz-adv-x="677" d="M589 45 L588 45 L472 659 L469 674 L442 674 L425 643 L425 643 L94 35 L94 35 L34 12 C34 12 35 8 36 3 C37 1 37 0 37 0 L75 0 L85 0 L95 0 L184 0 L187 3 C194 12 198 18 198 18 L122 50 L243 274 L243 272 L494 272 L535 50 L439 18 C439 18 442 12 446 3 C447 1 448 0 448 0 L544 0 L571 0 L597 0 L638 0 C638 0 639 1 640 4 C643 11 646 16 646 16 L589 45 L589 45 Z M491 289 L252 289 L430 619 L491 289 L491 289 Z " />
<glyph glyph-name="C_sc" unicode="&#x1d04;" horiz-adv-x="648" d="M560 7 L558 -2 L559 7 L559 7 L560 7 L560 7 Z M559 7 C564 8 564 8 559 8 L559 7 L559 7 Z M558 7 L558 7 L560 19 L560 19 L572 108 C569 109 566 111 564 113 C562 115 559 117 557 118 C537 87 511 47 492 16 C490 14 488 12 486 11 C444 7 399 5 361 5 C218 5 146 137 181 335 C216 532 339 664 490 664 C519 664 553 662 587 659 L587 659 C591 658 594 656 594 653 C602 618 613 570 622 535 C625 537 629 539 632 541 C635 543 639 545 642 547 L671 671 C645 676 573 679 493 679 C311 679 164 535 126 318 C91 121 184 -10 358 -10 C445 -10 524 -7 558 -2 L558 7 L558 7 Z " />
<glyph glyph-name="D_sc" unicode="&#x1d05;" horiz-adv-x="704" d="M253 614 L253 614 L154 55 L153 55 L67 19 L72 4 C72 1 73 0 73 0 L144 0 L169 0 L180 0 L194 0 L312 0 C506 7 657 130 698 361 C733 564 620 669 423 669 L312 669 L287 669 L262 669 L191 669 C191 669 190 668 188 665 L178 650 L253 614 L253 614 Z M197 17 L309 653 L412 653 C583 653 677 547 641 342 C605 133 477 22 314 17 L197 17 L197 17 Z " />
<glyph glyph-name="E_sc" unicode="&#x1d07;" horiz-adv-x="589" d="M253 614 L253 614 L154 55 L153 55 L67 19 L72 4 C72 1 73 0 73 0 L144 0 L156 0 L169 0 L194 0 L468 0 L501 0 L509 0 L518 0 L519 0 L522 17 L520 17 C523 52 526 95 529 128 L527 130 C518 136 512 141 512 142 L444 17 L197 17 L253 336 L403 336 L431 256 C431 256 439 259 451 264 C454 264 456 265 456 265 C460 286 464 313 468 336 L468 336 L471 353 L471 353 C475 375 479 403 483 424 C483 424 482 425 479 426 C469 430 462 433 462 433 L406 353 L256 353 L309 653 L531 653 L558 538 C558 538 565 542 575 549 C577 549 578 550 578 550 C587 581 598 621 607 653 L609 653 L612 669 L611 669 L602 669 L594 669 L561 669 L312 669 L287 669 L274 669 L262 669 L191 669 C191 669 190 668 188 665 L178 650 L253 614 L253 614 Z M512 142 L512 142 L512 142 Z " />
<glyph glyph-name="J_sc" unicode="&#x1d0a;" horiz-adv-x="350" d="M258 614 L258 614 L159 51 C138 -70 93 -151 49 -151 C49 -151 43 -149 32 -146 L26 -146 C23 -146 17 -164 17 -165 C16 -170 23 -173 34 -173 C116 -173 194 -40 229 159 L309 614 L395 650 C395 650 393 656 391 665 C390 668 389 669 390 669 L319 669 L293 669 L268 669 L197 669 C197 669 196 668 195 665 L185 650 L258 614 L258 614 Z " />
<glyph glyph-name="K_sc" unicode="&#x1d0b;" horiz-adv-x="644" d="M558 40 L558 40 L302 367 L601 630 L670 656 C670 656 669 660 668 666 L668 670 L646 670 L632 670 L618 670 L512 670 C512 670 510 669 508 667 C502 659 497 653 496 653 L564 620 L259 344 L522 1 L556 1 L591 1 L613 1 L615 5 L620 15 L558 40 L558 40 Z M208 56 L208 56 L307 615 L393 651 C393 651 392 657 389 666 C388 669 388 670 388 670 L317 670 L292 670 L266 670 L195 670 C195 670 194 669 193 666 L183 651 L256 615 L157 56 L71 20 C70 20 72 14 75 5 C76 2 76 1 76 1 L147 1 L173 1 L198 1 L269 1 C269 1 270 2 271 5 L281 20 L208 56 L208 56 Z M496 653 L496 653 L496 653 Z " />
<glyph glyph-name="M_sc" unicode="&#x1d0d;" horiz-adv-x="897" d="M776 55 L776 55 L854 614 L948 650 C948 650 945 656 942 665 C941 668 941 669 941 669 L862 669 L838 669 L814 669 L478 51 L347 669 L310 669 L302 669 L294 669 L214 669 C214 669 213 668 211 665 C205 656 200 650 200 650 L282 614 L157 55 L157 55 L69 19 L74 4 C74 2 75 0 75 0 L145 0 L154 0 L163 0 L238 0 C238 0 239 1 241 4 L251 19 L175 55 L302 632 L438 -5 L463 -5 L459 13 L438 -5 L459 13 L463 -5 L808 627 L729 55 L644 19 L649 4 C650 1 650 0 650 0 L721 0 L745 0 L769 0 L830 0 C830 0 831 2 833 4 C838 13 841 19 842 19 L776 55 L776 55 Z " />
<glyph glyph-name="O_sc" unicode="&#x1d0f;" horiz-adv-x="736" d="M375 5 C225 5 150 145 187 356 C219 541 337 664 480 664 C630 664 705 524 668 313 C635 128 518 5 375 5 L375 5 Z M129 337 C93 129 188 -10 366 -10 C546 -10 689 127 725 333 C762 540 667 679 488 679 C309 679 166 542 129 337 L129 337 Z " />
<glyph glyph-name="P_sc" unicode="&#x1d18;" horiz-adv-x="585" d="M253 614 L253 614 L154 55 L153 55 L67 19 L72 4 C72 1 73 0 73 0 L144 0 L169 0 L194 0 L279 0 C279 0 280 1 281 4 C288 13 293 19 293 19 L204 55 L204 55 L250 313 L337 313 C477 313 583 385 602 492 C621 598 550 669 424 669 L313 669 L288 669 L263 669 L192 669 C192 669 191 668 189 665 L179 650 L253 614 L253 614 Z M253 329 L310 653 L415 652 C511 652 564 586 547 487 C530 392 450 329 345 329 L253 329 L253 329 Z " />
<glyph glyph-name="T_sc" unicode="&#x1d1b;" horiz-adv-x="615" d="M343 55 L343 55 C376 242 417 473 449 653 L604 653 L625 508 C626 508 634 513 645 521 L648 524 L684 653 L686 653 L689 669 L688 669 L680 669 L671 669 L638 669 L452 669 L401 669 L215 669 L182 669 L173 669 L165 669 L164 669 L161 653 L163 653 L153 524 L156 521 C164 513 170 508 171 508 L243 653 L398 653 C366 473 326 242 293 55 L187 19 C186 19 189 13 193 4 C194 1 194 0 194 0 L283 0 L309 0 L334 0 L423 0 C423 0 424 1 425 4 C432 13 437 19 437 19 L343 55 L343 55 Z " />
<glyph glyph-name="U_sc" unicode="&#x1d1c;" horiz-adv-x="747" d="M690 614 L690 614 L622 231 C599 96 506 6 390 6 C280 6 223 102 248 246 L313 614 L400 650 L395 665 C394 668 394 669 394 669 L323 669 L298 669 L272 669 L201 669 C201 669 200 668 199 665 L189 650 L262 614 L196 237 C170 89 242 -10 377 -10 C511 -10 619 89 644 237 L711 614 L797 650 C797 650 795 656 793 665 C792 668 791 669 792 669 L721 669 L710 669 L700 669 L611 669 C611 669 610 668 608 665 C601 656 596 650 596 650 L690 614 L690 614 Z " />
<glyph glyph-name="V_sc" unicode="&#x1d20;" horiz-adv-x="663" d="M659 614 L659 614 L365 67 L262 614 L358 650 C358 650 355 656 351 665 C350 668 349 669 349 669 L252 669 L225 669 L199 669 L157 669 L155 665 C150 657 148 652 148 652 L209 619 L330 1 L331 -5 L344 -5 L687 629 L746 655 C747 655 746 659 744 666 L744 669 L709 669 L699 669 L689 669 L600 669 C600 669 599 668 597 665 C590 656 585 650 585 650 L659 614 L659 614 Z " />
<glyph glyph-name="W_sc" unicode="&#x1d21;" horiz-adv-x="907" d="M911 614 L685 98 L578 642 L573 674 L561 649 L313 98 L247 614 L247 614 L346 650 C346 650 343 656 339 665 C338 668 337 669 337 669 L240 669 L213 669 L187 669 L144 669 L142 665 C137 657 135 652 135 652 L194 619 L277 19 L281 -5 L284 -5 L293 15 L553 587 L651 19 L655 -5 L658 -5 L667 15 L937 629 L1004 655 C1004 655 1003 659 1001 666 C1001 668 1000 669 1000 669 L955 669 L945 669 L935 669 L846 669 C845 669 844 668 843 665 C836 656 831 650 831 650 L911 614 L911 614 Z " />
<glyph glyph-name="Z_sc" unicode="&#x1d22;" horiz-adv-x="586" d="M531 653 L111 17 L105 8 L104 0 L108 0 L150 0 L445 0 L478 0 L487 0 L495 0 L496 0 L499 17 L497 17 L506 136 C506 136 505 137 504 139 C495 146 489 151 489 152 L417 17 L161 17 L581 653 L599 669 L584 669 L542 669 L284 669 L252 669 L243 669 L234 669 L231 653 L233 653 L224 541 C224 541 225 540 227 540 C236 533 242 528 242 528 L313 653 L531 653 L531 653 Z " />
<glyph glyph-name="Etilde" unicode="&#x1ebc;" horiz-adv-x="649" d="M362 895 C382 936 401 964 449 964 C496 964 518 903 565 903 C618 903 646 946 678 1011 L674 1011 C652 968 633 940 586 940 C540 940 516 1000 470 1000 C416 1000 389 958 357 895 L362 895 L362 895 Z M285 795 L285 795 L154 55 L153 55 L67 19 L72 4 C72 1 73 0 73 0 L144 0 L158 0 L172 0 L200 0 L528 0 L560 0 L569 0 L578 0 L579 0 L582 18 L580 18 C583 54 586 97 589 129 C589 130 588 130 587 131 C578 139 573 144 573 143 L505 18 L204 18 L277 429 L480 429 L508 349 C508 349 516 352 528 356 C531 357 533 358 533 358 C537 382 543 414 547 438 L549 447 L549 447 C553 470 558 497 562 518 C562 518 561 519 558 520 C548 524 541 527 541 527 L485 447 L281 447 L349 832 L625 832 L651 717 C651 717 658 721 669 728 C671 728 672 729 672 729 C680 760 691 799 700 832 L702 832 L706 850 L705 850 L696 850 L687 850 L655 850 L352 850 L324 850 L310 850 L296 850 L224 850 C225 850 224 849 222 846 L212 831 L285 795 L285 795 Z " />
<glyph glyph-name="endash" unicode="&#x2013;" horiz-adv-x="500" d="M94 252 L494 252 L500 283 L100 283 L94 252 L94 252 Z " />
<glyph glyph-name="emdash" unicode="&#x2014;" horiz-adv-x="1000" d="M94 252 L994 252 L1000 283 L100 283 L94 252 L94 252 Z " />
<glyph glyph-name="quoteleft" unicode="&#x2018;" horiz-adv-x="222" d="M205 528 C211 525 217 523 221 523 C228 523 235 529 239 537 L256 567 L257 574 L236 586 C211 596 199 628 206 666 C211 696 249 727 301 743 L302 750 C238 729 190 690 183 651 C172 586 181 537 205 528 L205 528 Z " />
<glyph glyph-name="quoteright" unicode="&#x2019;" horiz-adv-x="222" d="M259 750 C252 752 247 754 243 754 C236 754 229 749 224 741 L208 711 L207 703 L228 691 C252 682 265 650 258 612 C253 582 215 551 163 534 L162 528 C226 548 274 588 281 627 C292 691 283 740 259 750 L259 750 Z " />
<glyph glyph-name="quotedblleft" unicode="&#x201c;" horiz-adv-x="371" d="M205 528 C212 525 218 523 221 523 C228 523 235 529 239 537 L256 567 L257 574 L236 586 C212 596 199 628 206 666 C211 696 249 727 301 743 L302 750 C238 729 190 690 183 651 C172 586 181 537 205 528 L205 528 Z M354 528 C361 525 367 523 370 523 C377 523 384 529 389 537 L405 567 L407 574 L386 586 C361 596 349 628 355 666 C361 696 399 727 450 743 L452 750 C387 729 339 690 333 651 C321 586 330 537 354 528 L354 528 Z " />
<glyph glyph-name="quotedblright" unicode="&#x201d;" horiz-adv-x="371" d="M409 750 C402 752 396 754 392 754 C385 754 378 749 374 741 L357 711 L356 703 L377 691 C402 682 414 650 407 612 C402 582 364 551 312 534 L311 528 C375 548 423 588 430 627 C441 691 432 740 409 750 L409 750 Z M259 750 C252 752 247 754 243 754 C236 754 229 749 224 741 L208 711 L207 703 L228 691 C252 682 265 650 258 612 C253 582 215 551 163 534 L162 528 C226 548 274 588 281 627 C292 691 283 740 259 750 L259 750 Z " />
<glyph glyph-name="bullet" unicode="&#x2022;" horiz-adv-x="410" d="M235 169 C280 169 315 199 323 244 C331 289 306 319 261 319 C216 319 181 289 173 244 C165 199 190 169 235 169 L235 169 Z " />
<glyph glyph-name="ellipsis" unicode="&#x2026;" horiz-adv-x="560" d="M456 -10 C478 -10 496 5 500 28 C504 50 491 65 469 65 C446 65 429 50 425 28 C421 5 433 -10 456 -10 L456 -10 Z M278 -10 C301 -10 319 5 322 28 C327 50 314 65 291 65 C269 65 252 50 247 28 C244 5 256 -10 278 -10 L278 -10 Z M101 -10 C123 -10 141 5 145 28 C149 50 136 65 114 65 C91 65 74 50 70 28 C66 5 78 -10 101 -10 L101 -10 Z " />
<glyph glyph-name="guilsinglleft" unicode="&#x2039;" horiz-adv-x="240" d="M217 425 L17 248 L217 70 L221 70 L79 248 L221 425 L217 425 L217 425 Z " />
<glyph glyph-name="guilsinglright" unicode="&#x203a;" horiz-adv-x="240" d="M20 425 L158 248 L20 70 L24 70 L221 248 L24 425 L20 425 L20 425 Z " />
<glyph glyph-name="Euro" unicode="&#x20ac;" horiz-adv-x="498" d="M209 352 C213 380 218 410 223 441 C227 464 232 486 237 508 L449 508 L452 523 L240 523 C290 726 378 855 471 855 C498 855 536 838 564 814 L578 786 L583 786 L604 809 C608 813 612 820 613 826 C614 836 613 844 609 847 C600 855 551 860 487 860 C357 860 242 729 183 523 L103 523 L101 508 L179 508 C171 480 164 451 159 420 C155 397 152 374 149 352 L73 352 L70 337 L147 337 C123 126 165 -10 310 -10 C400 -10 468 -6 479 -1 L483 7 L480 7 L480 6 C464 2 409 -1 338 -1 C219 -1 186 131 209 338 L420 338 L423 353 L209 352 L209 352 Z " />
<glyph glyph-name="F_sc" unicode="&#xa730;" horiz-adv-x="554" d="M253 614 L253 614 L154 55 L153 55 L67 19 L72 4 C72 1 73 0 73 0 L144 0 L169 0 L194 0 L279 0 C279 0 280 1 281 4 C288 13 293 19 293 19 L204 55 L204 55 L254 336 L404 336 L432 256 C432 256 440 259 452 264 C455 264 457 265 457 265 C461 286 465 313 469 336 L469 336 L472 353 L472 353 C476 375 480 403 484 424 C484 424 483 425 480 426 C470 430 463 433 463 433 L407 353 L257 353 L310 653 L522 653 L549 538 C549 538 556 542 566 549 C568 549 569 550 569 550 C578 581 589 621 598 653 L600 653 L603 669 L602 669 L593 669 L585 669 L552 669 L313 669 L288 669 L275 669 L263 669 L192 669 C192 669 191 668 189 665 L179 650 L253 614 L253 614 Z " />
<glyph glyph-name="S_sc" unicode="&#xa731;" horiz-adv-x="448" d="M76 9 L74 -2 C90 -7 154 -10 233 -10 C328 -10 405 67 426 183 C439 261 402 317 321 367 C250 411 218 457 228 519 C244 606 292 665 348 665 C366 665 384 664 400 663 L400 663 C406 662 411 658 412 651 C416 626 423 592 428 566 C431 567 436 569 439 570 C443 572 447 574 451 575 L467 650 L467 650 L471 671 L469 661 L469 661 L471 671 C461 676 414 679 352 679 C264 679 193 608 174 500 C162 430 196 378 271 332 C349 285 385 235 373 170 C356 70 301 4 234 4 C202 4 169 6 140 9 C137 10 134 12 134 15 C130 46 124 88 120 119 C117 118 112 116 109 114 C105 113 100 111 97 109 L77 20 L77 20 L75 9 L76 9 L76 9 Z " />
</font>
</svg>
