<?xml version="1.0" encoding="UTF-8"?>
<svg xmlns="http://www.w3.org/2000/svg" xmlns:xlink="http://www.w3.org/1999/xlink" version="1.2" >
<font id="Jerrick Regular">
<font-face  font-family="Jerrick" units-per-em="1024" ascent="1105" descent="-300" font-style="normal" font-weight="400" font-stretch="normal" cap-height="850" x-height="669" underline-position="-125" underline-thickness="50" />
<missing-glyph  horiz-adv-x="650" d="" />
<glyph glyph-name="NULL" d="" />
<glyph glyph-name="CR" unicode="&#xd;" horiz-adv-x="256" d="" />
<glyph glyph-name="space" unicode="&#x20;" horiz-adv-x="250" d="" />
<glyph glyph-name="exclam" unicode="&#x21;" horiz-adv-x="245" d="M125 -10 C161 -10 185 14 185 50 C185 86 161 110 125 110 C89 110 65 86 65 50 C65 14 89 -10 125 -10 L125 -10 Z M70 850 L120 213 L130 213 L180 850 L70 850 L70 850 Z " />
<glyph glyph-name="quotedbl" unicode="&#x22;" horiz-adv-x="450" d="M280 930 L315 680 L335 680 L370 930 L280 930 L280 930 Z M80 930 L115 680 L135 680 L170 930 L80 930 L80 930 Z " />
<glyph glyph-name="numbersign" unicode="&#x23;" horiz-adv-x="498" d="M146 450 L58 450 L58 424 L0 424 L0 377 L129 377 L44 0 L71 0 L156 377 L308 377 L223 0 L250 0 L335 377 L440 377 L440 403 L498 403 L498 450 L352 450 L442 850 L415 850 L325 450 L173 450 L263 850 L236 850 L146 450 L146 450 Z " />
<glyph glyph-name="dollar" unicode="&#x24;" horiz-adv-x="499" d="M288 930 L288 859 C280 860 272 860 264 860 C253 860 243 859 233 858 L233 930 L192 930 L192 849 C106 821 53 740 53 631 C53 534 100 469 192 417 L192 22 C148 39 120 82 120 139 L120 166 L115 170 L87 170 C64 170 48 158 48 139 C48 62 104 7 192 -7 L192 -80 L233 -80 L233 -10 C234 -10 235 -10 236 -10 C254 -10 271 -8 287 -4 L287 -79 L328 -79 L328 10 C404 45 451 125 451 230 C451 310 410 388 328 445 L328 813 C351 795 364 767 364 733 L364 707 L369 703 L397 703 C420 703 436 715 436 733 C436 793 395 837 328 854 L328 932 L288 930 L288 930 Z M287 471 C285 472 283 473 281 474 C263 483 246 493 231 503 L231 832 C239 834 248 835 257 835 C267 835 277 834 286 832 L287 471 L287 471 Z M190 537 C157 572 140 613 140 664 C140 728 159 779 190 808 L190 537 L190 537 Z M231 395 C252 383 270 370 286 356 L286 25 C271 18 254 14 235 14 C234 14 233 14 232 14 L231 395 L231 395 Z M328 314 C357 277 372 238 372 200 C372 139 356 89 328 56 L328 314 L328 314 Z " />
<glyph glyph-name="ampersand" unicode="&#x26;" horiz-adv-x="690" d="M563 555 L576 605 L469 605 L466 602 C460 593 455 588 456 588 L563 555 L563 555 Z M601 605 L576 605 C538 455 504 327 460 230 L259 471 C359 543 422 630 422 699 C422 796 358 860 262 860 C151 860 77 779 77 658 C77 566 107 518 180 427 C47 342 20 270 20 188 C20 69 95 -10 208 -10 C312 -10 386 32 443 108 L532 0 L592 0 L651 0 L684 0 C684 0 685 2 686 6 C688 14 690 19 690 19 L605 55 L492 190 C539 285 575 409 613 555 L696 588 C696 588 693 593 690 602 C689 604 688 605 688 605 L626 605 L601 605 L601 605 Z M192 413 C197 407 202 400 208 393 L413 145 C363 72 299 31 209 31 C151 31 113 104 113 212 C113 295 127 361 193 413 L192 413 L192 413 Z M246 488 C188 558 166 593 166 675 C166 773 203 838 259 838 C307 838 339 781 339 695 C339 620 303 543 246 488 L246 488 Z " />
<glyph glyph-name="quotesingle" unicode="&#x27;" horiz-adv-x="250" d="M80 930 L115 680 L135 680 L170 930 L80 930 L80 930 Z " />
<glyph glyph-name="parenleft" unicode="&#x28;" horiz-adv-x="238" d="M220 930 C120 811 53 656 53 390 C53 124 120 -31 220 -150 L234 -150 C165 -69 120 74 120 390 C120 706 165 849 234 930 L220 930 L220 930 Z " />
<glyph glyph-name="parenright" unicode="&#x29;" horiz-adv-x="238" d="M55 -150 C155 -31 222 124 222 390 C222 656 155 811 55 930 L42 930 C110 849 155 706 155 390 C155 74 110 -69 42 -150 L55 -150 L55 -150 Z " />
<glyph glyph-name="plus" unicode="&#x2b;" horiz-adv-x="510" d="M229 482 L229 297 L40 297 L40 247 L229 247 L229 52 L281 52 L281 247 L470 247 L470 297 L281 297 L281 482 L229 482 L229 482 Z " />
<glyph glyph-name="comma" unicode="&#x2c;" horiz-adv-x="227" d="M132 91 C121 96 111 100 107 100 C100 100 90 91 82 78 L53 28 L56 18 L90 0 C124 -16 147 -48 147 -81 C147 -124 112 -171 60 -199 L60 -210 C130 -172 177 -110 177 -56 C177 20 159 78 132 91 L132 91 Z " />
<glyph glyph-name="hyphen" unicode="&#x2d;" horiz-adv-x="375" d="M50 217 L325 217 L325 287 L50 287 L50 217 L50 217 Z " />
<glyph glyph-name="period" unicode="&#x2e;" horiz-adv-x="250" d="M125 -10 C161 -10 185 14 185 50 C185 86 161 110 125 110 C89 110 65 86 65 50 C65 14 89 -10 125 -10 L125 -10 Z " />
<glyph glyph-name="slash" unicode="&#x2f;" horiz-adv-x="250" d="M0 -120 L50 -120 L250 940 L200 940 L0 -120 L0 -120 Z " />
<glyph glyph-name="zero" unicode="0" horiz-adv-x="526" d="M272 16 C186 16 128 192 128 456 C128 683 178 835 254 835 C344 835 404 661 404 401 C404 170 351 16 272 16 L272 16 Z M33 425 C33 164 125 -10 263 -10 C402 -10 494 167 494 433 C494 689 402 860 263 860 C125 860 33 686 33 425 L33 425 Z " />
<glyph glyph-name="one" unicode="1" horiz-adv-x="499" d="M287 0 L330 0 L401 0 C401 0 402 1 402 3 C406 12 409 18 410 18 L330 50 L330 777 L330 850 L310 850 L70 692 L70 674 L245 777 L245 50 L155 18 C155 18 158 12 163 3 C164 1 165 0 165 0 L245 0 L287 0 L287 0 Z " />
<glyph glyph-name="two" unicode="2" horiz-adv-x="480" d="M451 41 L459 171 L455 173 L438 182 L394 82 L111 82 L111 82 C353 463 448 609 448 654 C448 778 377 860 271 860 C132 860 40 774 40 644 C40 619 56 602 81 602 L126 602 L131 607 L131 660 C131 765 180 835 255 835 C312 835 351 762 351 653 C351 471 267 368 50 25 L50 0 L59 0 L111 0 L399 0 L432 0 L440 0 L449 0 L450 0 L450 21 L451 41 L451 41 Z " />
<glyph glyph-name="three" unicode="3" horiz-adv-x="496" d="M176 457 C167 457 158 457 148 456 L148 446 L148 433 C300 443 378 373 378 225 C378 99 323 14 241 14 C170 14 123 70 123 155 L123 182 L115 190 L68 190 C47 190 33 176 33 155 C33 56 116 -10 241 -10 C381 -10 474 84 474 225 C474 365 397 442 247 455 C377 483 443 569 443 687 C443 790 371 859 263 859 C136 859 52 785 52 675 C52 654 68 640 92 640 L133 640 L141 648 L141 686 C141 775 185 835 251 835 C309 835 347 772 347 678 C347 554 289 469 176 457 L176 457 Z " />
<glyph glyph-name="four" unicode="4" horiz-adv-x="501" d="M349 850 L284 739 L22 292 L8 267 L8 257 L22 257 L284 257 L284 50 L194 18 C194 18 197 12 202 3 C203 1 204 0 204 0 L284 0 L327 0 L369 0 L440 0 C440 0 441 1 442 3 C447 12 449 18 449 18 L369 50 L369 257 L488 257 L488 292 L369 292 L369 739 L369 850 L349 850 L349 850 Z M284 656 L284 292 L80 292 L284 656 L284 656 Z " />
<glyph glyph-name="five" unicode="5" horiz-adv-x="504" d="M409 850 L112 850 L99 850 L86 850 L86 488 C108 494 149 498 189 498 C308 498 388 403 388 260 C388 114 321 16 220 16 C172 16 125 37 103 69 L93 86 L83 86 L73 64 C69 54 65 48 63 46 C64 44 66 42 68 40 C88 10 141 -10 198 -10 C355 -10 459 114 459 301 C459 444 354 540 196 540 C161 540 128 537 111 532 L111 772 L408 772 L409 850 L409 850 Z M62 45 C60 44 59 45 59 49 C59 48 60 46 62 44 L62 45 L62 45 Z " />
<glyph glyph-name="six" unicode="6" horiz-adv-x="501" d="M421 860 C191 798 37 574 37 300 C37 114 125 -10 257 -10 C385 -10 471 75 471 201 C471 381 405 500 306 500 C233 500 168 446 133 360 C146 609 258 799 420 843 L421 860 L421 860 Z M131 302 C153 398 214 463 284 463 C341 463 379 349 379 179 C379 80 330 14 256 14 C182 14 132 129 131 302 L131 302 Z " />
<glyph glyph-name="seven" unicode="7" horiz-adv-x="500" d="M50 850 L50 773 L407 773 C211 349 83 44 83 1 L195 1 C195 162 301 498 460 840 L460 851 L443 851 L420 851 L50 850 L50 850 Z " />
<glyph glyph-name="eight" unicode="8" horiz-adv-x="503" d="M312 460 C303 465 294 470 284 475 C190 519 154 592 154 676 C154 772 193 836 251 836 C339 836 397 759 397 643 C397 556 365 490 312 460 L312 460 Z M333 447 C401 476 443 548 443 645 C443 774 368 860 256 860 C142 860 65 774 65 644 C65 558 100 479 188 420 C103 390 50 305 50 188 C50 69 132 -11 256 -11 C380 -11 463 81 463 218 C463 306 419 389 332 446 L333 447 L333 447 Z M204 409 C216 402 229 395 243 389 C334 347 380 270 380 188 C380 83 332 12 259 12 C163 12 98 88 98 202 C98 303 138 378 204 409 L204 409 Z " />
<glyph glyph-name="nine" unicode="9" horiz-adv-x="498" d="M80 -10 C311 52 464 275 464 549 C464 736 376 860 245 860 C116 860 30 770 30 596 C30 450 100 353 205 353 C268 353 330 409 368 496 C357 244 245 50 80 5 L80 -10 L80 -10 Z M369 546 C340 451 283 388 226 388 C165 388 125 471 125 595 C125 753 173 834 245 834 C318 834 368 719 369 545 L369 546 L369 546 Z " />
<glyph glyph-name="colon" unicode="&#x3a;" horiz-adv-x="250" d="M125 330 C161 330 185 354 185 390 C185 426 161 450 125 450 C89 450 65 426 65 390 C65 354 89 330 125 330 L125 330 Z M125 -10 C161 -10 185 14 185 50 C185 86 161 110 125 110 C89 110 65 86 65 50 C65 14 89 -10 125 -10 L125 -10 Z " />
<glyph glyph-name="semicolon" unicode="&#x3b;" horiz-adv-x="227" d="M122 330 C158 330 182 354 182 390 C182 426 158 450 122 450 C86 450 62 426 62 390 C62 354 86 330 122 330 L122 330 Z M132 91 C121 96 111 100 107 100 C100 100 90 91 82 78 L53 28 L56 18 L90 0 C124 -16 147 -48 147 -81 C147 -124 112 -171 60 -199 L60 -210 C130 -172 177 -110 177 -56 C177 20 159 78 132 91 L132 91 Z " />
<glyph glyph-name="equal" unicode="&#x3d;" horiz-adv-x="500" d="M40 195 L40 145 L460 145 L460 195 L40 195 L40 195 Z M40 399 L40 349 L460 349 L460 399 L40 399 L40 399 Z " />
<glyph glyph-name="question" unicode="&#x3f;" horiz-adv-x="478" d="M217 -5 C253 -5 277 19 277 55 C277 91 253 115 217 115 C181 115 157 91 157 55 C157 19 181 -5 217 -5 L217 -5 Z M176 444 L211 213 L222 213 L233 372 C348 413 423 521 423 654 C423 778 352 860 247 860 C123 860 40 778 40 655 C40 631 55 615 78 615 L120 615 L128 625 L128 664 C128 767 169 836 230 836 C291 836 331 763 331 654 C331 547 269 463 176 444 L176 444 Z " />
<glyph glyph-name="A" unicode="A" horiz-adv-x="747" d="M127 50 L127 50 L216 335 L216 335 L472 335 L559 50 L558 50 L465 18 L475 3 C476 1 477 0 477 0 L574 0 L621 0 L668 0 L709 0 C709 0 709 1 710 4 C713 11 715 16 715 16 L654 45 L410 824 L400 855 L348 855 L330 800 L330 799 L86 35 L86 35 L31 12 C31 12 33 8 35 3 C36 1 37 0 37 0 L75 0 L93 0 L111 0 L200 0 C200 0 201 1 202 3 C207 12 211 18 211 18 L127 50 L127 50 Z M463 365 L226 365 L346 749 L463 365 L463 365 Z " />
<glyph glyph-name="B" unicode="B" horiz-adv-x="655" d="M282 445 L235 445 L235 821 L319 820 C409 820 455 742 455 624 C455 517 386 445 282 445 L282 445 Z M389 441 C488 473 549 548 549 649 C549 770 475 850 332 850 L235 850 L190 850 L145 850 L73 850 C73 850 72 849 72 846 C68 837 65 831 65 831 L145 795 L145 55 L65 19 C65 19 68 13 72 4 C72 1 73 0 73 0 L145 0 L190 0 L235 0 L327 0 C495 0 606 94 606 234 C606 344 532 422 389 441 L389 441 Z M235 29 L235 415 L335 415 C452 415 512 339 512 226 C512 108 438 29 327 29 L235 29 L235 29 Z " />
<glyph glyph-name="C" unicode="C" horiz-adv-x="708" d="M617 13 L617 13 C627 14 627 15 617 15 L617 34 C617 34 617 34 616 34 L612 122 C610 124 606 126 604 128 C601 129 598 131 595 133 C582 103 564 63 550 33 C548 29 543 25 539 23 C494 19 443 16 395 16 C255 16 162 181 162 429 C162 671 261 832 410 832 C448 832 490 830 528 826 C532 824 537 820 539 816 C553 780 571 734 586 699 C588 701 592 703 595 705 C597 707 601 709 604 711 L612 853 C596 857 515 859 410 859 C205 859 69 675 69 399 C69 153 199 -11 395 -11 C509 -11 598 -8 617 -5 L617 13 L617 13 Z " />
<glyph glyph-name="D" unicode="D" horiz-adv-x="774" d="M210 0 L235 0 L355 0 C565 7 705 165 705 463 C705 718 559 850 340 850 L235 850 L190 850 L145 850 L73 850 C73 850 72 849 72 846 C68 837 65 831 65 831 L145 795 L145 55 L65 19 C65 19 68 13 72 4 C72 1 73 0 73 0 L145 0 L190 0 L210 0 L210 0 Z M235 29 L235 821 L326 821 C497 821 611 688 611 429 C611 171 508 35 354 29 L235 29 L235 29 Z " />
<glyph glyph-name="E" unicode="E" horiz-adv-x="649" d="M576 29 C572 65 568 108 564 141 C565 142 564 142 562 143 C552 151 546 156 546 155 L500 30 L235 30 L235 424 L405 424 L447 344 C447 344 454 347 465 351 C468 352 470 353 470 353 L470 424 L470 439 L470 454 L470 525 C470 524 468 525 465 526 C454 530 447 533 447 534 L405 454 L235 454 L235 822 L475 822 L522 707 C522 707 528 711 538 718 C540 718 540 719 540 719 C543 750 547 789 550 822 L554 822 L554 851 L552 851 L544 851 L535 851 L502 851 L234 851 L189 851 L166 851 L144 851 L72 851 C72 851 71 850 71 847 C67 838 64 832 64 832 L144 796 L144 56 L64 20 C64 20 67 14 71 5 C71 2 72 1 72 1 L144 1 L166 1 L189 1 L234 1 L527 1 L560 1 L569 1 L577 1 L579 1 L579 30 L576 29 L576 29 Z " />
<glyph glyph-name="F" unicode="F" horiz-adv-x="614" d="M405 423 L447 343 C447 343 454 346 465 350 C468 351 470 352 470 352 L470 423 L470 438 L470 453 L470 524 C470 523 468 524 465 525 C454 529 447 532 447 533 L405 453 L235 453 L235 821 L465 821 L512 706 C512 706 518 710 528 717 C530 717 530 718 530 718 C533 749 537 788 540 821 L544 821 L544 850 L542 850 L534 850 L525 850 L492 850 L234 850 L189 850 L166 850 L144 850 L72 850 C72 850 71 849 71 846 C67 837 64 831 64 831 L144 795 L144 55 L64 19 C64 19 67 13 71 4 C71 1 72 0 72 0 L144 0 L189 0 L234 0 L318 0 C318 0 319 1 320 4 C325 13 328 19 329 19 L234 55 L234 423 L405 423 L405 423 Z " />
<glyph glyph-name="G" unicode="G" horiz-adv-x="765" d="M645 318 L720 354 C721 354 718 360 714 370 C713 372 712 374 712 373 C678 374 634 374 600 373 C564 374 516 374 480 373 C480 373 479 372 478 370 L470 354 L555 318 L555 42 C501 29 448 22 411 22 C262 22 162 185 162 430 C162 672 265 833 420 833 C461 833 506 830 547 826 L547 826 C552 826 558 822 560 816 C574 781 592 735 607 700 C609 702 613 704 616 706 C618 708 622 710 625 712 L633 854 C617 858 532 860 421 860 C210 860 70 676 70 400 C70 154 201 -10 397 -10 C456 -10 555 9 645 37 L645 318 L645 318 Z " />
<glyph glyph-name="H" unicode="H" horiz-adv-x="810" d="M620 0 L665 0 L736 0 C736 0 737 1 738 4 C742 13 745 19 745 19 L665 55 L665 795 L745 831 C745 831 742 837 738 846 C737 849 736 850 736 850 L665 850 L620 850 L575 850 L504 850 C504 850 503 849 502 846 C498 837 495 831 495 831 L575 795 L575 453 L235 453 L235 795 L315 831 C314 831 311 837 307 846 C307 849 306 850 306 850 L235 850 L190 850 L145 850 L73 850 C73 850 72 849 72 846 C68 837 65 831 65 831 L145 795 L145 55 L65 19 C65 19 68 13 72 4 C72 1 73 0 73 0 L145 0 L190 0 L235 0 L306 0 C306 0 307 1 307 4 C311 13 314 19 315 19 L235 55 L235 423 L575 423 L575 55 L495 19 C495 19 498 13 502 4 C503 1 504 0 504 0 L575 0 L620 0 L620 0 Z " />
<glyph glyph-name="I" unicode="I" horiz-adv-x="390" d="M195 0 L240 0 L311 0 C311 0 312 1 313 4 C317 13 320 19 320 19 L240 55 L240 795 L320 831 C320 831 317 837 313 846 C312 849 311 850 311 850 L240 850 L195 850 L150 850 L79 850 C79 850 78 849 77 846 C73 837 70 831 70 831 L150 795 L150 55 L70 19 C70 19 73 13 77 4 C78 1 79 0 79 0 L150 0 L195 0 L195 0 Z " />
<glyph glyph-name="J" unicode="J" horiz-adv-x="390" d="M150 795 L150 64 C150 -55 117 -134 68 -134 C67 -134 53 -130 33 -125 L27 -125 C21 -125 17 -157 17 -159 C17 -168 30 -173 50 -173 C164 -173 240 -1 240 257 L240 795 L320 831 C320 831 317 837 313 846 C312 849 311 850 311 850 L240 850 L195 850 L150 850 L79 850 C79 850 78 849 77 846 C73 837 70 831 70 831 L150 795 L150 795 Z " />
<glyph glyph-name="K" unicode="K" horiz-adv-x="727" d="M465 833 L543 800 L543 800 L288 496 L288 497 L237 435 L561 0 L617 0 L673 0 L697 0 L699 4 C701 10 702 14 702 14 L642 40 L305 475 L597 810 L660 836 C660 836 659 840 657 846 L655 850 L632 850 L609 850 L586 850 L479 850 C479 850 478 849 477 847 C471 839 467 833 466 832 L465 833 L465 833 Z M466 832 L466 832 L466 832 Z M192 -1 L237 -1 L308 -1 C308 -1 309 0 309 3 C313 12 316 18 317 18 L237 54 L237 794 L317 830 C316 830 313 836 309 845 C309 848 308 849 308 849 L237 849 L192 849 L147 849 L75 849 C75 849 74 848 74 845 C70 836 67 830 67 830 L147 794 L147 54 L67 18 C67 18 70 12 74 3 C74 0 75 -1 75 -1 L147 -1 L192 -1 L192 -1 Z " />
<glyph glyph-name="L" unicode="L" horiz-adv-x="629" d="M556 29 C551 75 546 132 541 175 L538 178 C528 187 521 194 521 193 L475 28 L235 28 L235 794 L320 830 C319 830 316 836 312 845 C311 848 310 849 310 849 L235 849 L190 849 L145 849 L73 849 C73 849 72 848 72 845 C68 836 65 830 65 830 L145 794 L145 54 L65 18 C65 18 68 12 72 3 C72 0 73 -1 73 -1 L145 -1 L167 -1 L190 -1 L235 -1 L508 -1 L541 -1 L550 -1 L558 -1 L560 -1 L560 28 L556 29 L556 29 Z " />
<glyph glyph-name="M" unicode="M" horiz-adv-x="970" d="M839 55 L838 55 L816 795 L816 795 L904 831 C904 831 900 837 896 846 C894 848 894 850 894 850 L814 850 L772 850 L729 850 L510 101 L269 850 L203 850 L188 850 L174 850 L94 850 C93 850 93 849 92 846 C87 837 83 831 84 831 L172 795 L172 795 L148 55 L67 19 C67 19 70 13 74 4 L76 0 L146 0 L162 0 L178 0 L254 0 C254 0 255 1 255 4 C260 13 263 19 263 19 L180 55 L180 55 L201 769 L456 -5 L501 -5 L490 29 L490 29 L501 -5 L521 60 L523 62 L522 65 L732 758 L753 55 L675 19 C675 19 678 13 682 4 C683 1 684 0 684 0 L755 0 L798 0 L840 0 L902 0 C902 0 903 2 903 4 C907 13 910 19 910 19 L839 55 L839 55 Z " />
<glyph glyph-name="N" unicode="N" horiz-adv-x="805" d="M665 795 L740 831 C740 831 737 837 733 846 C733 849 732 850 732 850 L665 850 L646 850 L628 850 L539 850 C539 850 538 849 537 846 C531 837 528 831 528 831 L628 795 L628 154 L188 850 L169 850 L151 850 L84 850 C84 850 84 849 82 846 C78 837 75 831 76 831 L151 795 L151 790 L151 55 L71 19 C71 19 74 13 78 4 C79 1 80 0 80 0 L151 0 L169 0 L188 0 L277 0 C277 0 278 1 279 4 C284 13 288 19 288 19 L188 55 L188 729 L617 19 L632 -5 L665 -5 L665 95 L665 795 L665 795 Z " />
<glyph glyph-name="O" unicode="O" horiz-adv-x="807" d="M414 17 C265 17 166 193 166 458 C166 684 257 834 394 834 C542 834 641 656 641 388 C641 165 550 17 414 17 L414 17 Z M70 423 C70 163 203 -10 404 -10 C604 -10 737 163 737 423 C737 685 604 860 404 860 C203 860 70 685 70 423 L70 423 Z " />
<glyph glyph-name="P" unicode="P" horiz-adv-x="655" d="M190 0 L235 0 L319 0 C319 0 320 1 321 4 C326 13 329 19 330 19 L235 55 L235 386 L321 386 C480 386 586 480 586 621 C586 759 490 850 346 850 L235 850 L190 850 L145 850 L73 850 C73 850 72 849 72 846 C68 837 65 831 65 831 L145 795 L145 55 L65 19 C65 19 68 13 72 4 C72 1 73 0 73 0 L145 0 L190 0 L190 0 Z M235 415 L235 821 L334 820 C427 820 489 737 489 613 C489 494 426 415 332 415 L235 415 L235 415 Z " />
<glyph glyph-name="Q" unicode="Q" horiz-adv-x="807" d="M807 -119 L807 -111 C802 -113 777 -115 744 -115 C642 -115 529 -72 457 -6 C628 22 738 187 738 424 C738 686 605 861 405 861 C204 861 71 686 71 424 C71 171 197 0 389 -9 C478 -92 594 -147 684 -147 C728 -147 778 -135 809 -118 L807 -119 L807 -119 Z M416 18 C267 18 168 194 168 459 C168 685 259 835 396 835 C544 835 643 657 643 389 C643 166 552 18 416 18 L416 18 Z " />
<glyph glyph-name="R" unicode="R" horiz-adv-x="672" d="M572 0 L623 0 L656 0 C656 0 657 2 657 5 C660 13 662 17 662 17 L592 50 L363 416 C454 437 554 520 554 636 C554 765 466 851 334 851 L236 851 L191 851 L146 851 L74 851 C74 851 73 850 73 847 C69 838 66 832 66 832 L146 796 L146 56 L66 20 C66 20 69 14 73 5 C73 2 74 1 74 1 L146 1 L191 1 L236 1 L302 1 C302 1 303 2 304 5 C308 14 310 20 311 20 L236 56 L236 411 L304 411 L522 1 L572 0 L572 0 Z M236 441 L236 822 L322 821 C403 821 457 744 457 628 C457 516 367 441 302 441 L236 441 L236 441 Z " />
<glyph glyph-name="S" unicode="S" horiz-adv-x="527" d="M75 16 L74 -4 C89 -8 169 -10 273 -10 C392 -10 472 88 472 234 C472 337 417 410 310 473 C220 527 174 585 174 664 C174 766 213 834 271 834 C302 834 332 833 358 831 C367 828 375 820 379 810 C387 787 399 756 407 732 C411 733 415 735 418 737 C421 738 425 740 429 741 L432 817 L432 817 L432 836 L432 836 L433 855 C424 858 362 861 277 861 C162 861 86 769 86 632 C86 538 137 471 235 412 C335 353 387 291 387 212 C387 94 342 16 274 16 C232 16 186 19 145 24 C141 26 137 30 135 34 C125 65 113 105 104 135 C101 133 97 131 93 130 C90 128 86 126 83 125 L78 35 C77 35 76 35 75 35 L75 15 L75 15 L75 16 L75 16 Z " />
<glyph glyph-name="T" unicode="T" horiz-adv-x="675" d="M338 0 L383 0 L471 0 C471 0 472 1 474 4 C479 13 482 19 483 19 L383 55 L383 821 L546 821 L593 676 C593 676 600 681 610 690 C612 691 613 692 613 692 L626 821 L630 821 L630 850 L629 850 L620 850 L611 850 L579 850 L383 850 L293 850 L96 850 L64 850 L55 850 L46 850 L45 850 L45 821 L49 821 L62 692 C62 692 63 691 65 690 C75 681 82 676 82 676 L129 821 L293 821 L293 55 L193 19 C193 19 196 13 201 4 C203 1 204 0 204 0 L293 0 L338 0 L338 0 Z " />
<glyph glyph-name="U" unicode="U" horiz-adv-x="801" d="M619 795 L619 795 L620 290 C620 127 540 18 420 18 C308 18 234 138 234 317 L235 795 L235 795 L315 831 C314 831 311 837 307 846 C307 849 306 850 306 850 L235 850 L190 850 L145 850 L73 850 C73 850 72 849 72 846 C68 837 65 831 65 831 L145 795 L145 301 C145 115 247 -10 401 -10 C554 -10 657 115 657 301 L657 795 L737 831 C737 831 734 837 730 846 C728 849 728 850 728 850 L657 850 L638 850 L619 850 L531 850 C531 850 530 849 528 846 C523 837 519 831 519 831 L619 795 L619 795 Z " />
<glyph glyph-name="V" unicode="V" horiz-adv-x="726" d="M97 800 L97 800 L352 4 L355 -5 L380 -5 L642 810 L695 836 C696 836 694 840 692 847 C691 849 691 850 690 850 L655 850 L637 850 L619 850 L530 850 C530 850 529 849 528 846 C523 837 519 831 519 831 L602 795 L390 125 L190 795 L284 831 L274 846 C272 849 271 850 271 850 L174 850 L127 850 L81 850 L37 850 C37 850 37 848 36 846 C33 838 31 833 31 833 L97 800 L97 800 Z " />
<glyph glyph-name="W" unicode="W" horiz-adv-x="971" d="M852 795 L853 795 L712 167 L506 812 L493 855 L481 855 L474 824 L315 166 L174 795 L272 831 L262 846 C260 849 259 850 259 850 L162 850 L115 850 L69 850 L24 850 C24 850 24 848 23 846 C20 838 18 833 18 833 L82 800 L281 26 L289 -5 L303 -5 L309 19 L479 704 L680 26 L689 -5 L703 -5 L709 19 L892 810 L892 810 L953 836 C953 836 951 840 948 847 C948 849 947 850 947 850 L901 850 L883 850 L865 850 L776 850 C776 850 775 849 774 846 C768 837 765 831 765 831 L852 795 L852 795 Z " />
<glyph glyph-name="X" unicode="X" horiz-adv-x="740" d="M169 55 L169 55 L347 373 L529 55 L450 19 L460 4 C462 1 463 0 463 0 L560 0 L618 0 L675 0 L702 0 C702 0 702 2 703 4 C705 11 706 16 706 16 L649 45 L649 45 L419 439 L628 805 L685 834 C685 834 684 839 682 846 C681 848 681 850 681 850 L654 850 L622 850 L589 850 L482 850 C482 850 481 849 480 846 C473 837 469 831 469 831 L559 795 L391 488 L212 795 L300 831 C300 831 295 837 289 846 C287 849 286 850 286 850 L180 850 L127 850 L75 850 L49 850 C49 850 49 848 48 845 L45 833 L103 800 L104 800 L320 421 L98 50 L34 18 C34 18 35 13 37 5 C38 2 39 0 39 0 L68 0 L103 0 L138 0 L254 0 C254 0 255 1 257 4 C263 13 268 19 268 19 L169 55 L169 55 Z " />
<glyph glyph-name="Y" unicode="Y" horiz-adv-x="709" d="M579 795 L579 795 L381 430 L182 795 L262 831 L252 846 C250 849 249 850 249 850 L152 850 L105 850 L59 850 L33 850 C33 850 33 848 32 845 L29 833 L87 800 L314 395 L314 55 L224 19 C224 19 227 13 232 4 C233 1 234 0 234 0 L314 0 L359 0 L404 0 L484 0 C484 0 485 1 486 4 C491 13 494 19 494 19 L404 55 L404 409 L623 810 L677 836 C677 836 676 840 674 846 C673 849 673 850 673 850 L645 850 L627 850 L609 850 L507 850 C507 850 506 849 504 846 L494 831 L579 795 L579 795 Z " />
<glyph glyph-name="Z" unicode="Z" horiz-adv-x="646" d="M440 821 L108 29 L101 13 L101 0 L108 0 L182 0 L505 0 L537 0 L546 0 L555 0 L556 0 L556 29 L552 29 L540 149 C540 150 539 150 537 151 C527 159 520 165 520 164 L472 29 L194 29 L526 821 L541 850 L526 850 L452 850 L164 850 L132 850 L123 850 L114 850 L113 850 L113 821 L117 821 C121 785 125 742 128 709 C129 709 130 708 131 707 C141 700 148 695 148 695 L197 820 L440 821 L440 821 Z " />
<glyph glyph-name="bracketleft" unicode="&#x5b;" horiz-adv-x="249" d="M129 930 L245 930 L245 953 L129 953 L67 953 L67 -150 L129 -150 L245 -150 L245 -127 L129 -127 L129 930 L129 930 Z " />
<glyph glyph-name="backslash" unicode="&#x5c;" horiz-adv-x="250" d="M200 -120 L250 -120 L50 940 L0 940 L200 -120 L200 -120 Z " />
<glyph glyph-name="bracketright" unicode="&#x5d;" horiz-adv-x="244" d="M118 930 L118 -127 L5 -127 L5 -150 L118 -150 L180 -150 L180 953 L118 953 L5 953 L5 930 L118 930 L118 930 Z " />
<glyph glyph-name="underscore" unicode="&#x5f;" horiz-adv-x="500" d="M25 -90 L25 -140 L475 -140 L475 -90 L25 -90 L25 -90 Z " />
<glyph glyph-name="a" unicode="a" horiz-adv-x="500" d="M313 255 C138 218 48 155 48 88 C48 29 93 -10 161 -10 C221 -10 278 11 316 52 C325 14 358 -10 403 -10 C440 -10 476 13 493 47 L491 50 C487 40 477 34 468 34 C423 34 394 47 394 67 L395 350 C395 416 346 460 250 460 C161 460 84 446 71 427 C69 424 73 418 81 412 L105 405 L110 405 C122 422 176 435 236 435 C287 435 314 393 314 329 L313 255 L313 255 Z M314 235 L314 74 C314 71 314 68 314 65 C290 41 259 28 227 28 C166 28 126 60 126 107 C126 159 190 207 314 235 L314 235 Z " />
<glyph glyph-name="b" unicode="b" horiz-adv-x="561" d="M100 -10 L106 -10 L158 43 C197 11 252 -10 298 -10 C426 -10 511 95 511 252 C511 377 444 460 344 460 C275 460 210 439 180 408 L180 665 L180 723 L180 750 L164 750 L42 701 C38 696 35 693 35 693 L100 637 L100 65 L100 -10 L100 -10 Z M180 80 L180 388 C199 410 253 424 314 424 C384 424 431 347 431 231 C431 102 383 16 312 16 C275 16 223 42 180 80 L180 80 Z " />
<glyph glyph-name="c" unicode="c" horiz-adv-x="477" d="M387 338 L394 338 L412 362 L432 381 L432 381 L432 381 C432 383 425 394 415 410 C397 440 343 460 282 460 C143 460 50 358 50 205 C50 76 134 -10 261 -10 C330 -10 397 22 431 71 L431 71 L433 76 C432 75 431 74 430 73 L430 76 L426 76 C391 47 333 28 281 28 C188 28 126 116 126 248 C126 360 180 435 262 435 C298 435 336 412 358 377 L387 338 L387 338 Z " />
<glyph glyph-name="d" unicode="d" horiz-adv-x="574" d="M421 0 L456 0 L518 0 C519 0 519 1 520 3 C524 12 526 18 526 18 L456 50 L456 60 L456 685 L456 733 L456 760 L440 760 L319 711 C319 712 319 711 318 711 C314 706 311 703 311 703 L376 657 L376 451 C349 457 318 460 288 460 C145 460 49 353 49 194 C49 71 119 -10 223 -10 C284 -10 344 15 378 54 L387 0 L421 0 L421 0 Z M377 408 L377 72 C350 44 302 26 253 26 C178 26 128 103 128 219 C128 348 189 434 281 434 C304 434 340 424 377 408 L377 408 Z " />
<glyph glyph-name="e" unicode="e" horiz-adv-x="483" d="M261 269 L129 269 C134 370 182 436 252 436 C313 436 355 370 360 269 L261 269 L261 269 Z M261 245 L397 245 L433 247 C433 375 364 460 261 460 C134 460 50 358 50 205 C50 76 134 -10 261 -10 C330 -10 397 22 431 71 L431 71 L433 76 C432 75 431 74 430 73 L430 76 L426 76 C391 47 333 28 281 28 C189 28 127 114 125 243 L261 245 L261 245 Z " />
<glyph glyph-name="f" unicode="f" horiz-adv-x="367" d="M160 0 L200 0 L262 0 C262 0 263 1 264 3 C267 12 270 18 270 18 L200 50 L201 425 L332 425 L332 450 L201 450 L201 587 C201 644 252 706 329 706 C340 706 356 702 369 696 L396 685 L403 685 L409 694 C411 698 413 705 413 712 C413 721 402 732 385 740 C372 746 358 750 350 750 C240 750 120 615 120 490 L120 450 L40 450 L40 425 L120 425 L120 50 L55 18 C55 18 57 12 61 3 C62 1 62 0 62 0 L120 0 L160 0 L160 0 Z " />
<glyph glyph-name="g" unicode="g" horiz-adv-x="546" d="M182 152 L182 152 C204 144 229 140 257 140 C375 140 436 205 436 302 C436 352 417 393 383 421 L496 422 L496 451 L352 441 C326 454 294 461 258 461 C140 461 80 397 80 301 C80 236 113 185 167 159 C113 141 78 110 78 79 C78 30 115 -4 171 -8 C104 -35 60 -83 60 -129 C60 -194 131 -238 237 -238 C373 -238 464 -172 464 -73 C464 8 423 62 316 62 L210 62 C153 62 115 76 115 98 C115 121 141 144 181 154 L182 152 L182 152 Z M263 163 C201 163 160 220 160 305 C160 387 192 441 253 441 C313 441 353 385 353 301 C353 218 322 163 263 163 L263 163 Z M184 -8 L276 -8 C383 -8 425 -38 425 -84 C425 -167 352 -223 243 -223 C176 -223 131 -181 131 -118 C131 -63 152 -19 184 -8 L184 -8 Z " />
<glyph glyph-name="h" unicode="h" horiz-adv-x="590" d="M445 0 L485 0 L543 0 C543 0 543 1 544 3 C548 12 550 18 550 18 L485 50 L485 343 C485 413 430 460 348 460 C292 460 242 429 195 381 L195 666 L195 724 L195 751 L179 751 L57 702 C53 697 50 694 50 694 L115 638 L115 51 L50 19 C50 19 52 13 56 4 C57 2 57 1 57 1 L115 1 L155 1 L195 1 L257 1 C257 1 258 2 259 4 C262 13 265 19 265 19 L195 51 L195 365 C230 400 272 423 324 423 C373 423 405 373 405 298 L405 51 L335 19 C335 19 338 13 341 4 C342 2 343 1 343 1 L405 1 L445 0 L445 0 Z " />
<glyph glyph-name="i" unicode="i" horiz-adv-x="317" d="M155 610 C191 610 215 634 215 670 C215 706 191 730 155 730 C119 730 95 706 95 670 C95 634 119 610 155 610 L155 610 Z M159 0 L199 0 L261 0 C261 0 262 1 263 3 C266 12 269 18 269 18 L199 50 L199 375 L199 433 L199 460 L183 460 L61 411 C57 406 54 403 54 403 L119 347 L119 50 L54 18 C54 18 56 12 60 3 C61 1 61 0 61 0 L119 0 L159 0 L159 0 Z " />
<glyph glyph-name="j" unicode="j" horiz-adv-x="316" d="M159 610 C195 610 219 634 219 670 C219 706 195 730 159 730 C123 730 99 706 99 670 C99 634 123 610 159 610 L159 610 Z M56 -223 L56 -232 C176 -157 199 -86 199 0 L199 375 L199 433 L199 460 L183 460 L61 411 C57 406 54 403 54 403 L119 347 L119 -12 C119 -114 109 -189 56 -223 L56 -223 Z " />
<glyph glyph-name="k" unicode="k" horiz-adv-x="546" d="M449 0 L499 0 L515 0 C515 0 516 2 517 6 C518 13 519 17 519 17 L458 50 L260 287 L408 400 L408 400 L475 433 C475 433 475 436 474 441 C474 447 473 450 473 450 L456 450 L439 450 L327 450 L325 446 C318 436 313 429 314 429 L364 390 L195 255 L195 675 L195 733 L195 760 L179 760 L57 711 C53 706 50 703 50 703 L115 647 L115 50 L50 18 C50 18 52 12 56 3 C57 1 57 0 57 0 L115 0 L155 0 L195 0 L257 0 C257 0 258 1 259 3 C262 12 265 18 265 18 L195 50 L195 247 L398 0 L449 0 L449 0 Z " />
<glyph glyph-name="l" unicode="l" horiz-adv-x="298" d="M149 0 L189 0 L251 0 C251 0 252 1 253 3 C256 12 259 18 259 18 L189 50 L189 675 L189 733 L189 760 L173 760 L51 711 C47 706 44 703 44 703 L109 647 L109 50 L44 18 C44 18 46 12 50 3 C51 1 51 0 51 0 L109 0 L149 0 L149 0 Z " />
<glyph glyph-name="m" unicode="m" horiz-adv-x="863" d="M45 403 L110 347 L110 50 L45 18 C45 18 47 12 51 3 C52 1 52 0 52 0 L110 0 L150 0 L190 0 L248 0 C248 0 248 1 249 3 C253 12 255 18 255 18 L190 50 L190 364 C225 399 265 422 314 422 C360 422 390 372 390 297 L390 50 L320 18 C320 18 323 12 326 3 C327 1 328 0 328 0 L390 0 L430 0 L470 0 L532 0 C532 0 533 1 534 3 C537 12 540 18 540 18 L470 50 L470 343 C470 348 470 353 469 358 C507 396 550 422 602 422 C648 422 678 372 678 297 L678 50 L608 18 C608 18 611 12 614 3 C615 1 616 0 616 0 L678 0 L718 0 L758 0 L816 0 C816 0 816 1 817 3 C821 12 823 18 823 18 L758 50 L758 343 C758 413 705 460 625 460 C570 460 518 425 467 372 C454 426 405 460 337 460 C284 460 236 429 189 381 L189 383 L189 383 L185 461 L169 461 L51 412 C48 408 45 404 44 404 L45 403 L45 403 Z M44 404 L44 404 L44 404 Z " />
<glyph glyph-name="n" unicode="n" horiz-adv-x="590" d="M50 403 L115 347 L115 50 L50 18 C50 18 52 12 56 3 C57 1 57 0 57 0 L115 0 L155 0 L195 0 L257 0 C257 0 258 1 259 3 C262 12 265 18 265 18 L195 50 L195 364 C230 399 272 422 324 422 C373 422 405 372 405 297 L405 50 L335 18 C335 18 338 12 341 3 C342 1 343 0 343 0 L405 0 L445 0 L485 0 L543 0 C543 0 543 1 544 3 C548 12 550 18 550 18 L485 50 L485 343 C485 413 430 460 348 460 C292 460 242 429 195 381 L195 383 L195 383 L191 461 L175 461 L57 412 C54 408 51 404 50 404 L50 403 L50 403 Z M50 404 L50 404 L50 404 Z " />
<glyph glyph-name="o" unicode="o" horiz-adv-x="538" d="M276 12 C196 12 142 97 142 225 C142 353 183 438 262 438 C342 438 396 353 396 225 C396 97 355 12 276 12 L276 12 Z M50 225 C50 84 138 -10 269 -10 C414 -10 488 84 488 225 C488 366 400 460 269 460 C124 460 50 366 50 225 L50 225 Z " />
<glyph glyph-name="p" unicode="p" horiz-adv-x="572" d="M50 403 L115 347 L115 -180 L50 -212 C50 -212 52 -218 56 -227 C57 -229 57 -230 57 -230 L115 -230 L155 -230 L195 -230 L257 -230 C257 -230 258 -229 259 -227 C262 -218 265 -212 265 -212 L195 -180 L195 8 C219 -3 254 -10 289 -10 C429 -10 522 94 522 250 C522 376 455 460 354 460 C304 460 242 434 194 394 L191 461 L175 461 L57 412 C54 408 51 404 50 404 L50 403 L50 403 Z M50 404 L50 404 L50 404 Z M195 59 L195 376 L195 378 C231 406 280 425 323 425 C396 425 445 341 445 215 C445 96 388 17 303 17 C268 17 225 34 195 59 L195 59 Z " />
<glyph glyph-name="q" unicode="q" horiz-adv-x="563" d="M418 -230 L458 -230 L516 -230 C516 -230 516 -229 517 -227 C521 -218 523 -212 523 -212 L458 -180 L458 425 L458 460 L452 460 L415 442 C386 453 340 460 289 460 C146 460 50 353 50 194 C50 71 120 -10 224 -10 C266 -10 327 16 378 56 L378 -181 L308 -213 C308 -213 311 -219 315 -228 C315 -230 316 -231 316 -231 L378 -231 L418 -230 L418 -230 Z M378 411 L378 74 C339 44 291 25 254 25 C179 25 129 102 129 218 C129 347 190 433 282 433 C314 433 349 425 378 412 L378 411 L378 411 Z " />
<glyph glyph-name="r" unicode="r" horiz-adv-x="377" d="M250 411 C250 400 282 380 308 369 C331 358 346 352 346 353 L353 353 C368 384 378 411 378 419 C378 429 366 441 347 450 C339 453 312 460 295 460 C268 460 234 423 195 367 L195 375 L191 460 L175 460 L57 411 C53 406 50 403 50 403 L115 347 L115 50 L50 18 C50 18 52 12 56 3 C57 1 57 0 57 0 L115 0 L155 0 L195 0 L257 0 C257 0 258 1 259 3 C262 12 265 18 265 18 L195 50 L195 349 C215 378 234 400 250 411 L250 411 Z " />
<glyph glyph-name="s" unicode="s" horiz-adv-x="427" d="M61 35 L60 22 C101 3 161 -10 209 -10 C298 -10 357 43 357 122 C357 197 317 239 241 265 C178 286 146 315 146 362 C146 408 172 439 211 439 C218 439 225 438 233 437 C268 429 298 401 311 362 C313 357 315 349 317 343 C319 344 323 344 326 345 C328 346 332 347 335 347 L340 397 C341 397 342 397 343 397 L343 410 L343 410 L344 423 C306 445 252 460 211 460 C131 460 78 409 78 332 C78 262 114 223 185 199 C254 176 290 145 290 96 C290 44 258 9 209 9 C200 9 190 10 179 12 L179 12 C149 17 120 40 106 70 C101 83 93 99 87 112 C85 111 82 110 80 109 C77 109 75 107 72 106 L66 48 C65 48 64 48 63 48 L63 35 L63 35 L61 35 L61 35 Z " />
<glyph glyph-name="t" unicode="t" horiz-adv-x="354" d="M324 53 L323 59 C314 41 288 30 257 30 C211 30 180 61 180 107 L180 425 L312 425 L312 450 L180 450 L180 560 L174 560 L100 450 L18 428 L18 425 L100 425 L100 90 C100 30 143 -10 208 -10 C259 -10 305 15 324 53 L324 53 Z " />
<glyph glyph-name="u" unicode="u" horiz-adv-x="552" d="M381 400 L381 93 C335 50 287 29 248 29 C201 29 170 79 170 155 L170 450 L130 450 L90 450 L32 450 C32 450 32 449 31 447 C27 438 25 433 25 433 L90 400 L90 107 C90 37 144 -10 224 -10 C265 -10 322 19 380 75 L380 0 L420 0 L460 0 L522 0 C522 0 523 1 524 3 C527 12 530 18 530 18 L460 50 L460 450 L420 450 L380 450 L318 450 C318 450 317 449 316 447 C313 438 310 433 310 433 L381 400 L381 400 Z " />
<glyph glyph-name="v" unicode="v" horiz-adv-x="550" d="M419 395 L290 104 L156 400 L156 400 L243 433 C243 433 239 438 233 447 C232 449 231 450 231 450 L133 450 L89 450 L45 450 L4 450 C4 450 3 448 3 446 C0 438 -2 433 -2 433 L68 400 L247 6 L250 0 L260 0 L444 395 L521 431 C521 431 518 437 516 445 C515 448 514 450 514 450 L470 450 L456 450 L443 450 L354 450 C354 450 353 449 352 446 C347 437 343 431 343 431 L419 395 L419 395 Z " />
<glyph glyph-name="w" unicode="w" horiz-adv-x="835" d="M691 395 L578 113 L418 430 L408 450 L403 450 L398 438 L265 113 L157 400 L157 400 L248 433 C248 433 244 438 238 447 C237 449 236 450 236 450 L138 450 L95 450 L53 450 L10 450 C10 450 10 448 9 446 C6 438 4 433 4 433 L72 400 L221 6 L223 0 L236 0 L418 430 L377 333 L535 6 L538 0 L549 0 L716 395 L716 395 L791 431 C791 431 789 437 786 445 C785 448 785 450 784 450 L739 450 L726 450 L713 450 L624 450 C624 450 623 449 622 446 C616 437 612 431 613 431 L691 395 L691 395 Z " />
<glyph glyph-name="x" unicode="x" horiz-adv-x="699" d="M583 45 L582 45 L377 357 L552 625 L611 654 C611 654 609 659 607 666 C606 668 606 670 606 670 L581 670 L556 670 L532 670 L425 670 C425 670 424 669 423 666 C416 657 412 651 412 651 L497 615 L354 393 L208 615 L292 651 C292 651 287 657 281 666 C280 669 279 670 278 670 L172 670 L125 670 L77 670 L53 670 C53 670 52 668 52 665 L49 653 L109 621 L297 330 L109 51 L42 19 C42 19 43 14 46 6 C46 3 47 1 47 1 L75 1 L102 1 L128 1 L243 1 C243 1 244 2 246 5 C253 14 258 20 258 20 L164 56 L320 294 L474 56 L474 56 L400 20 L410 5 C411 2 412 1 412 1 L510 1 L561 1 L613 1 L638 1 L640 5 C642 12 643 17 643 17 L583 45 L583 45 Z " />
<glyph glyph-name="y" unicode="y" horiz-adv-x="528" d="M421 395 L421 395 L220 -72 C194 -132 166 -156 119 -156 L74 -156 L70 -160 L70 -211 C70 -232 79 -240 104 -240 C153 -240 191 -195 239 -80 L444 395 L520 431 C520 431 518 437 515 445 C514 448 513 450 513 450 L468 450 L457 450 L445 450 L356 450 C356 450 356 449 354 446 C349 437 345 431 345 431 L421 395 L421 395 Z M243 433 C242 433 238 439 233 447 L230 450 L133 450 L88 450 L44 450 L3 450 C4 450 3 448 2 446 C-1 438 -3 433 -3 433 L68 400 L255 10 L297 107 L157 400 L157 400 L243 433 L243 433 Z M243 433 L243 433 L243 433 L243 433 Z " />
<glyph glyph-name="z" unicode="z" horiz-adv-x="480" d="M90 438 C88 408 86 368 85 337 C85 337 86 336 88 335 C95 331 100 327 101 326 L139 426 L291 426 L88 24 L81 10 L81 0 L88 0 L164 0 L405 0 L405 12 L405 24 L405 117 L402 120 C393 125 388 129 388 129 L355 24 L176 24 L379 426 L397 450 L379 450 L303 450 L141 450 L101 460 C101 460 98 460 92 459 L91 459 C91 452 90 444 90 438 L90 438 Z M101 326 L101 326 L101 326 Z " />
<glyph glyph-name="bar" unicode="&#x7c;" horiz-adv-x="225" d="M75 -260 L125 -260 L125 760 L75 760 L75 -260 L75 -260 Z " />
<glyph glyph-name="exclamdown" unicode="&#xa1;" horiz-adv-x="245" d="M125 460 C161 460 185 436 185 400 C185 364 161 340 125 340 C89 340 65 364 65 400 C65 436 89 460 125 460 L125 460 Z M70 -400 L120 237 L130 237 L180 -400 L70 -400 L70 -400 Z " />
<glyph glyph-name="guillemotleft" unicode="&#xab;" horiz-adv-x="425" d="M400 425 L200 248 L400 70 L406 70 L300 248 L406 425 L400 425 L400 425 Z M215 425 L15 248 L215 70 L221 70 L115 248 L221 425 L215 425 L215 425 Z " />
<glyph glyph-name="periodcentered" unicode="&#xb7;" horiz-adv-x="250" d="M125 210 C161 210 185 234 185 270 C185 306 161 330 125 330 C89 330 65 306 65 270 C65 234 89 210 125 210 L125 210 Z " />
<glyph glyph-name="guillemotright" unicode="&#xbb;" horiz-adv-x="430" d="M200 425 L310 248 L200 70 L206 70 L410 248 L206 425 L200 425 L200 425 Z M20 425 L130 248 L20 70 L26 70 L230 248 L26 425 L20 425 L20 425 Z " />
<glyph glyph-name="questiondown" unicode="&#xbf;" horiz-adv-x="478" d="M261 455 C225 455 201 431 201 395 C201 359 225 335 261 335 C297 335 321 359 321 395 C321 431 297 455 261 455 L261 455 Z M302 6 L267 237 L256 237 L245 78 C130 37 55 -71 55 -204 C55 -328 126 -410 231 -410 C355 -410 438 -328 438 -205 C438 -181 423 -165 400 -165 L358 -165 L350 -175 L350 -214 C350 -317 309 -386 248 -386 C187 -386 147 -313 147 -204 C147 -97 209 -13 302 6 L302 6 Z " />
<glyph glyph-name="Agrave" unicode="&#xc0;" horiz-adv-x="747" d="M373 895 L286 1054 L206 1054 C206 1039 210 1026 215 1022 L367 895 L373 895 L373 895 Z M127 50 L127 50 L216 335 L216 335 L472 335 L559 50 L558 50 L465 18 L475 3 C476 1 477 0 477 0 L574 0 L621 0 L668 0 L709 0 C709 0 709 1 710 4 C713 11 715 16 715 16 L654 45 L410 824 L400 855 L348 855 L330 800 L330 799 L86 35 L86 35 L31 12 C31 12 33 8 35 3 C36 1 37 0 37 0 L75 0 L93 0 L111 0 L200 0 C200 0 201 1 202 3 C207 12 211 18 211 18 L127 50 L127 50 Z M463 365 L226 365 L346 749 L463 365 L463 365 Z " />
<glyph glyph-name="Aacute" unicode="&#xc1;" horiz-adv-x="747" d="M370 895 L376 895 L529 1022 C534 1026 537 1039 537 1054 L457 1054 L370 895 L370 895 Z M127 50 L127 50 L216 335 L216 335 L472 335 L559 50 L558 50 L465 18 L475 3 C476 1 477 0 477 0 L574 0 L621 0 L668 0 L709 0 C709 0 709 1 710 4 C713 11 715 16 715 16 L654 45 L410 824 L400 855 L348 855 L330 800 L330 799 L86 35 L86 35 L31 12 C31 12 33 8 35 3 C36 1 37 0 37 0 L75 0 L93 0 L111 0 L200 0 C200 0 201 1 202 3 C207 12 211 18 211 18 L127 50 L127 50 Z M463 365 L226 365 L346 749 L463 365 L463 365 Z " />
<glyph glyph-name="Acircumflex" unicode="&#xc2;" horiz-adv-x="747" d="M520 895 L382 1052 L366 1052 L232 895 L238 895 L374 976 L514 895 L520 895 L520 895 Z M127 50 L127 50 L216 335 L216 335 L472 335 L559 50 L558 50 L465 18 L475 3 C476 1 477 0 477 0 L574 0 L621 0 L668 0 L709 0 C709 0 709 1 710 4 C713 11 715 16 715 16 L654 45 L410 824 L400 855 L348 855 L330 800 L330 799 L86 35 L86 35 L31 12 C31 12 33 8 35 3 C36 1 37 0 37 0 L75 0 L93 0 L111 0 L200 0 C200 0 201 1 202 3 C207 12 211 18 211 18 L127 50 L127 50 Z M463 365 L226 365 L346 749 L463 365 L463 365 Z " />
<glyph glyph-name="Atilde" unicode="&#xc3;" horiz-adv-x="747" d="M235 918 C248 953 260 976 299 976 C349 976 385 917 435 917 C484 917 505 962 529 1030 L522 1030 C510 994 497 970 459 970 C408 970 373 1028 322 1029 C273 1028 252 984 228 918 L235 918 L235 918 Z M127 50 L127 50 L216 335 L216 335 L472 335 L559 50 L558 50 L465 18 L475 3 C476 1 477 0 477 0 L574 0 L621 0 L668 0 L709 0 C709 0 709 1 710 4 C713 11 715 16 715 16 L654 45 L410 824 L400 855 L348 855 L330 800 L330 799 L86 35 L86 35 L31 12 C31 12 33 8 35 3 C36 1 37 0 37 0 L75 0 L93 0 L111 0 L200 0 C200 0 201 1 202 3 C207 12 211 18 211 18 L127 50 L127 50 Z M463 365 L226 365 L346 749 L463 365 L463 365 Z " />
<glyph glyph-name="Adieresis" unicode="&#xc4;" horiz-adv-x="747" d="M464 925 C494 925 514 945 514 975 C514 1005 494 1025 464 1025 C434 1025 414 1005 414 975 C414 945 434 925 464 925 L464 925 Z M284 925 C314 925 334 945 334 975 C334 1005 314 1025 284 1025 C254 1025 234 1005 234 975 C234 945 254 925 284 925 L284 925 Z M127 50 L127 50 L216 335 L216 335 L472 335 L559 50 L558 50 L465 18 L475 3 C476 1 477 0 477 0 L574 0 L621 0 L668 0 L709 0 C709 0 709 1 710 4 C713 11 715 16 715 16 L654 45 L410 824 L400 855 L348 855 L330 800 L330 799 L86 35 L86 35 L31 12 C31 12 33 8 35 3 C36 1 37 0 37 0 L75 0 L93 0 L111 0 L200 0 C200 0 201 1 202 3 C207 12 211 18 211 18 L127 50 L127 50 Z M463 365 L226 365 L346 749 L463 365 L463 365 Z " />
<glyph glyph-name="Aring" unicode="&#xc5;" horiz-adv-x="747" d="M376 913 C355 913 338 949 338 990 C338 1028 352 1053 373 1053 C395 1053 410 1022 410 977 C410 942 394 913 376 913 L376 913 Z M288 983 C288 938 327 900 374 900 C420 900 459 939 459 985 C459 1034 425 1066 374 1066 C322 1066 288 1033 288 983 L288 983 Z M127 50 L127 50 L216 335 L216 335 L472 335 L559 50 L558 50 L465 18 L475 3 C476 1 477 0 477 0 L574 0 L621 0 L668 0 L709 0 C709 0 709 1 710 4 C713 11 715 16 715 16 L654 45 L410 824 L400 855 L348 855 L330 800 L330 799 L86 35 L86 35 L31 12 C31 12 33 8 35 3 C36 1 37 0 37 0 L75 0 L93 0 L111 0 L200 0 C200 0 201 1 202 3 C207 12 211 18 211 18 L127 50 L127 50 Z M463 365 L226 365 L346 749 L463 365 L463 365 Z " />
<glyph glyph-name="Ccedilla" unicode="&#xc7;" horiz-adv-x="708" d="M378 -77 L409 -10 C517 -10 600 -7 618 -4 L617 13 L617 13 C627 14 627 15 617 15 L617 34 C617 34 617 34 616 34 L612 122 C610 124 606 126 604 128 C601 129 598 131 595 133 C582 103 564 63 550 33 C548 29 543 25 539 23 C494 19 443 16 395 16 C255 16 162 181 162 429 C162 671 261 832 410 832 C448 832 490 830 528 826 C532 824 537 820 539 816 C553 780 571 734 586 699 C588 701 592 703 595 705 C597 707 601 709 604 711 L612 853 C596 857 515 859 410 859 C205 859 69 675 69 399 C69 155 196 -8 389 -11 L333 -132 L349 -139 C384 -147 408 -164 408 -180 C408 -207 401 -226 390 -226 C356 -226 326 -220 313 -210 L313 -216 C333 -231 367 -241 397 -241 C440 -241 468 -210 468 -164 C468 -127 432 -93 377 -78 L378 -77 L378 -77 Z " />
<glyph glyph-name="Egrave" unicode="&#xc8;" horiz-adv-x="649" d="M339 895 L252 1054 L172 1054 C172 1039 175 1026 181 1022 L333 895 L339 895 L339 895 Z M576 29 C572 65 568 108 564 141 C565 142 564 142 562 143 C552 151 546 156 546 155 L500 30 L235 30 L235 424 L405 424 L447 344 C447 344 454 347 465 351 C468 352 470 353 470 353 L470 424 L470 439 L470 454 L470 525 C470 524 468 525 465 526 C454 530 447 533 447 534 L405 454 L235 454 L235 822 L475 822 L522 707 C522 707 528 711 538 718 C540 718 540 719 540 719 C543 750 547 789 550 822 L554 822 L554 851 L552 851 L544 851 L535 851 L502 851 L234 851 L189 851 L166 851 L144 851 L72 851 C72 851 71 850 71 847 C67 838 64 832 64 832 L144 796 L144 56 L64 20 C64 20 67 14 71 5 C71 2 72 1 72 1 L144 1 L166 1 L189 1 L234 1 L527 1 L560 1 L569 1 L577 1 L579 1 L579 30 L576 29 L576 29 Z " />
<glyph glyph-name="Eacute" unicode="&#xc9;" horiz-adv-x="649" d="M336 895 L342 895 L494 1022 C500 1026 503 1039 503 1054 L423 1054 L336 895 L336 895 Z M576 29 C572 65 568 108 564 141 C565 142 564 142 562 143 C552 151 546 156 546 155 L500 30 L235 30 L235 424 L405 424 L447 344 C447 344 454 347 465 351 C468 352 470 353 470 353 L470 424 L470 439 L470 454 L470 525 C470 524 468 525 465 526 C454 530 447 533 447 534 L405 454 L235 454 L235 822 L475 822 L522 707 C522 707 528 711 538 718 C540 718 540 719 540 719 C543 750 547 789 550 822 L554 822 L554 851 L552 851 L544 851 L535 851 L502 851 L234 851 L189 851 L166 851 L144 851 L72 851 C72 851 71 850 71 847 C67 838 64 832 64 832 L144 796 L144 56 L64 20 C64 20 67 14 71 5 C71 2 72 1 72 1 L144 1 L166 1 L189 1 L234 1 L527 1 L560 1 L569 1 L577 1 L579 1 L579 30 L576 29 L576 29 Z " />
<glyph glyph-name="Ecircumflex" unicode="&#xca;" horiz-adv-x="649" d="M481 895 L343 1052 L326 1052 L193 895 L199 895 L334 976 L475 895 L481 895 L481 895 Z M576 29 C572 65 568 108 564 141 C565 142 564 142 562 143 C552 151 546 156 546 155 L500 30 L235 30 L235 424 L405 424 L447 344 C447 344 454 347 465 351 C468 352 470 353 470 353 L470 424 L470 439 L470 454 L470 525 C470 524 468 525 465 526 C454 530 447 533 447 534 L405 454 L235 454 L235 822 L475 822 L522 707 C522 707 528 711 538 718 C540 718 540 719 540 719 C543 750 547 789 550 822 L554 822 L554 851 L552 851 L544 851 L535 851 L502 851 L234 851 L189 851 L166 851 L144 851 L72 851 C72 851 71 850 71 847 C67 838 64 832 64 832 L144 796 L144 56 L64 20 C64 20 67 14 71 5 C71 2 72 1 72 1 L144 1 L166 1 L189 1 L234 1 L527 1 L560 1 L569 1 L577 1 L579 1 L579 30 L576 29 L576 29 Z " />
<glyph glyph-name="Edieresis" unicode="&#xcb;" horiz-adv-x="649" d="M425 925 C455 925 475 945 475 975 C475 1005 455 1025 425 1025 C395 1025 375 1005 375 975 C375 945 395 925 425 925 L425 925 Z M245 925 C275 925 295 945 295 975 C295 1005 275 1025 245 1025 C215 1025 195 1005 195 975 C195 945 215 925 245 925 L245 925 Z M576 29 C572 65 568 108 564 141 C565 142 564 142 562 143 C552 151 546 156 546 155 L500 30 L235 30 L235 424 L405 424 L447 344 C447 344 454 347 465 351 C468 352 470 353 470 353 L470 424 L470 439 L470 454 L470 525 C470 524 468 525 465 526 C454 530 447 533 447 534 L405 454 L235 454 L235 822 L475 822 L522 707 C522 707 528 711 538 718 C540 718 540 719 540 719 C543 750 547 789 550 822 L554 822 L554 851 L552 851 L544 851 L535 851 L502 851 L234 851 L189 851 L166 851 L144 851 L72 851 C72 851 71 850 71 847 C67 838 64 832 64 832 L144 796 L144 56 L64 20 C64 20 67 14 71 5 C71 2 72 1 72 1 L144 1 L166 1 L189 1 L234 1 L527 1 L560 1 L569 1 L577 1 L579 1 L579 30 L576 29 L576 29 Z " />
<glyph glyph-name="Igrave" unicode="&#xcc;" horiz-adv-x="390" d="M200 895 L113 1054 L33 1054 C33 1039 36 1026 41 1022 L193 895 L200 895 L200 895 Z M195 0 L240 0 L311 0 C311 0 312 1 313 4 C317 13 320 19 320 19 L240 55 L240 795 L320 831 C320 831 317 837 313 846 C312 849 311 850 311 850 L240 850 L195 850 L150 850 L79 850 C79 850 78 849 77 846 C73 837 70 831 70 831 L150 795 L150 55 L70 19 C70 19 73 13 77 4 C78 1 79 0 79 0 L150 0 L195 0 L195 0 Z " />
<glyph glyph-name="Iacute" unicode="&#xcd;" horiz-adv-x="390" d="M196 895 L203 895 L355 1022 C360 1026 363 1039 363 1054 L283 1054 L196 895 L196 895 Z M195 0 L240 0 L311 0 C311 0 312 1 313 4 C317 13 320 19 320 19 L240 55 L240 795 L320 831 C320 831 317 837 313 846 C312 849 311 850 311 850 L240 850 L195 850 L150 850 L79 850 C79 850 78 849 77 846 C73 837 70 831 70 831 L150 795 L150 55 L70 19 C70 19 73 13 77 4 C78 1 79 0 79 0 L150 0 L195 0 L195 0 Z " />
<glyph glyph-name="Icircumflex" unicode="&#xce;" horiz-adv-x="390" d="M342 895 L203 1052 L187 1052 L53 895 L60 895 L195 976 L335 895 L342 895 L342 895 Z M195 0 L240 0 L311 0 C311 0 312 1 313 4 C317 13 320 19 320 19 L240 55 L240 795 L320 831 C320 831 317 837 313 846 C312 849 311 850 311 850 L240 850 L195 850 L150 850 L79 850 C79 850 78 849 77 846 C73 837 70 831 70 831 L150 795 L150 55 L70 19 C70 19 73 13 77 4 C78 1 79 0 79 0 L150 0 L195 0 L195 0 Z " />
<glyph glyph-name="Idieresis" unicode="&#xcf;" horiz-adv-x="390" d="M285 925 C315 925 335 945 335 975 C335 1005 315 1025 285 1025 C255 1025 235 1005 235 975 C235 945 255 925 285 925 L285 925 Z M105 925 C135 925 155 945 155 975 C155 1005 135 1025 105 1025 C75 1025 55 1005 55 975 C55 945 75 925 105 925 L105 925 Z M195 0 L240 0 L311 0 C311 0 312 1 313 4 C317 13 320 19 320 19 L240 55 L240 795 L320 831 C320 831 317 837 313 846 C312 849 311 850 311 850 L240 850 L195 850 L150 850 L79 850 C79 850 78 849 77 846 C73 837 70 831 70 831 L150 795 L150 55 L70 19 C70 19 73 13 77 4 C78 1 79 0 79 0 L150 0 L195 0 L195 0 Z " />
<glyph glyph-name="Ntilde" unicode="&#xd1;" horiz-adv-x="805" d="M279 918 C292 953 304 976 343 976 C393 976 429 917 479 917 C528 917 549 962 574 1030 L567 1030 C554 994 541 970 503 970 C453 970 417 1028 366 1029 C317 1028 296 984 272 918 L279 918 L279 918 Z M665 795 L740 831 C740 831 737 837 733 846 C733 849 732 850 732 850 L665 850 L646 850 L628 850 L539 850 C539 850 538 849 537 846 C531 837 528 831 528 831 L628 795 L628 154 L188 850 L169 850 L151 850 L84 850 C84 850 84 849 82 846 C78 837 75 831 76 831 L151 795 L151 790 L151 55 L71 19 C71 19 74 13 78 4 C79 1 80 0 80 0 L151 0 L169 0 L188 0 L277 0 C277 0 278 1 279 4 C284 13 288 19 288 19 L188 55 L188 729 L617 19 L632 -5 L665 -5 L665 95 L665 795 L665 795 Z " />
<glyph glyph-name="Ograve" unicode="&#xd2;" horiz-adv-x="807" d="M393 895 L306 1054 L226 1054 C226 1039 229 1026 235 1022 L387 895 L393 895 L393 895 Z M414 17 C265 17 166 193 166 458 C166 684 257 834 394 834 C542 834 641 656 641 388 C641 165 550 17 414 17 L414 17 Z M70 423 C70 163 203 -10 404 -10 C604 -10 737 163 737 423 C737 685 604 860 404 860 C203 860 70 685 70 423 L70 423 Z " />
<glyph glyph-name="Oacute" unicode="&#xd3;" horiz-adv-x="807" d="M390 895 L396 895 L548 1022 C554 1026 557 1039 557 1054 L477 1054 L390 895 L390 895 Z M414 17 C265 17 166 193 166 458 C166 684 257 834 394 834 C542 834 641 656 641 388 C641 165 550 17 414 17 L414 17 Z M70 423 C70 163 203 -10 404 -10 C604 -10 737 163 737 423 C737 685 604 860 404 860 C203 860 70 685 70 423 L70 423 Z " />
<glyph glyph-name="Ocircumflex" unicode="&#xd4;" horiz-adv-x="807" d="M535 895 L397 1052 L380 1052 L247 895 L253 895 L389 976 L529 895 L535 895 L535 895 Z M414 17 C265 17 166 193 166 458 C166 684 257 834 394 834 C542 834 641 656 641 388 C641 165 550 17 414 17 L414 17 Z M70 423 C70 163 203 -10 404 -10 C604 -10 737 163 737 423 C737 685 604 860 404 860 C203 860 70 685 70 423 L70 423 Z " />
<glyph glyph-name="Otilde" unicode="&#xd5;" horiz-adv-x="807" d="M245 918 C257 953 270 976 309 976 C359 976 395 917 445 917 C494 917 515 962 539 1030 L532 1030 C520 994 507 970 469 970 C418 970 382 1028 332 1029 C283 1028 262 984 238 918 L245 918 L245 918 Z M414 17 C265 17 166 193 166 458 C166 684 257 834 394 834 C542 834 641 656 641 388 C641 165 550 17 414 17 L414 17 Z M70 423 C70 163 203 -10 404 -10 C604 -10 737 163 737 423 C737 685 604 860 404 860 C203 860 70 685 70 423 L70 423 Z " />
<glyph glyph-name="Odieresis" unicode="&#xd6;" horiz-adv-x="807" d="M479 925 C509 925 529 945 529 975 C529 1005 509 1025 479 1025 C449 1025 429 1005 429 975 C429 945 449 925 479 925 L479 925 Z M299 925 C329 925 349 945 349 975 C349 1005 329 1025 299 1025 C269 1025 249 1005 249 975 C249 945 269 925 299 925 L299 925 Z M414 17 C265 17 166 193 166 458 C166 684 257 834 394 834 C542 834 641 656 641 388 C641 165 550 17 414 17 L414 17 Z M70 423 C70 163 203 -10 404 -10 C604 -10 737 163 737 423 C737 685 604 860 404 860 C203 860 70 685 70 423 L70 423 Z " />
<glyph glyph-name="Oslash" unicode="&#xd8;" horiz-adv-x="807" d="M414 17 C341 17 280 59 237 133 L598 658 C626 586 641 494 641 388 C641 165 550 17 414 17 L414 17 Z M70 423 C70 297 101 191 156 116 L70 -10 L139 -10 L195 72 C250 20 321 -9 404 -9 C604 -9 737 164 737 424 C737 552 705 659 650 735 L737 861 L668 861 L612 779 C557 832 486 861 404 861 C203 861 70 686 70 424 L70 423 L70 423 Z M209 193 C181 264 166 354 166 458 C166 684 257 834 394 834 C466 834 527 792 570 717 L209 193 L209 193 Z " />
<glyph glyph-name="Ugrave" unicode="&#xd9;" horiz-adv-x="801" d="M415 895 L328 1054 L248 1054 C248 1039 252 1026 257 1022 L409 895 L415 895 L415 895 Z M619 795 L619 795 L620 290 C620 127 540 18 420 18 C308 18 234 138 234 317 L235 795 L235 795 L315 831 C314 831 311 837 307 846 C307 849 306 850 306 850 L235 850 L190 850 L145 850 L73 850 C73 850 72 849 72 846 C68 837 65 831 65 831 L145 795 L145 301 C145 115 247 -10 401 -10 C554 -10 657 115 657 301 L657 795 L737 831 C737 831 734 837 730 846 C728 849 728 850 728 850 L657 850 L638 850 L619 850 L531 850 C531 850 530 849 528 846 C523 837 519 831 519 831 L619 795 L619 795 Z " />
<glyph glyph-name="Uacute" unicode="&#xda;" horiz-adv-x="801" d="M402 895 L408 895 L561 1022 C566 1026 569 1039 569 1054 L489 1054 L402 895 L402 895 Z M619 795 L619 795 L620 290 C620 127 540 18 420 18 C308 18 234 138 234 317 L235 795 L235 795 L315 831 C314 831 311 837 307 846 C307 849 306 850 306 850 L235 850 L190 850 L145 850 L73 850 C73 850 72 849 72 846 C68 837 65 831 65 831 L145 795 L145 301 C145 115 247 -10 401 -10 C554 -10 657 115 657 301 L657 795 L737 831 C737 831 734 837 730 846 C728 849 728 850 728 850 L657 850 L638 850 L619 850 L531 850 C531 850 530 849 528 846 C523 837 519 831 519 831 L619 795 L619 795 Z " />
<glyph glyph-name="Ucircumflex" unicode="&#xdb;" horiz-adv-x="801" d="M557 895 L419 1052 L403 1052 L269 895 L275 895 L411 976 L551 895 L557 895 L557 895 Z M619 795 L619 795 L620 290 C620 127 540 18 420 18 C308 18 234 138 234 317 L235 795 L235 795 L315 831 C314 831 311 837 307 846 C307 849 306 850 306 850 L235 850 L190 850 L145 850 L73 850 C73 850 72 849 72 846 C68 837 65 831 65 831 L145 795 L145 301 C145 115 247 -10 401 -10 C554 -10 657 115 657 301 L657 795 L737 831 C737 831 734 837 730 846 C728 849 728 850 728 850 L657 850 L638 850 L619 850 L531 850 C531 850 530 849 528 846 C523 837 519 831 519 831 L619 795 L619 795 Z " />
<glyph glyph-name="Udieresis" unicode="&#xdc;" horiz-adv-x="801" d="M501 925 C531 925 551 945 551 975 C551 1005 531 1025 501 1025 C471 1025 451 1005 451 975 C451 945 471 925 501 925 L501 925 Z M321 925 C351 925 371 945 371 975 C371 1005 351 1025 321 1025 C291 1025 271 1005 271 975 C271 945 291 925 321 925 L321 925 Z M619 795 L619 795 L620 290 C620 127 540 18 420 18 C308 18 234 138 234 317 L235 795 L235 795 L315 831 C314 831 311 837 307 846 C307 849 306 850 306 850 L235 850 L190 850 L145 850 L73 850 C73 850 72 849 72 846 C68 837 65 831 65 831 L145 795 L145 301 C145 115 247 -10 401 -10 C554 -10 657 115 657 301 L657 795 L737 831 C737 831 734 837 730 846 C728 849 728 850 728 850 L657 850 L638 850 L619 850 L531 850 C531 850 530 849 528 846 C523 837 519 831 519 831 L619 795 L619 795 Z " />
<glyph glyph-name="Yacute" unicode="&#xdd;" horiz-adv-x="709" d="M353 895 L360 895 L512 1022 C517 1026 520 1039 520 1054 L440 1054 L353 895 L353 895 Z M86 800 L86 800 L308 396 L308 55 L218 19 C218 19 221 13 226 4 C227 1 228 0 228 0 L308 0 L353 0 L398 0 L478 0 C478 0 479 1 480 4 C485 13 488 19 488 19 L398 55 L398 407 L623 810 L623 810 L677 836 C677 836 676 840 674 846 C673 849 673 850 673 850 L645 850 L627 850 L609 850 L507 850 C507 850 506 849 504 846 L494 831 L579 795 L376 429 L181 795 L262 831 L252 846 C250 849 249 850 249 850 L152 850 L105 850 L59 850 L33 850 C33 850 32 848 32 845 C30 837 28 833 28 833 L86 800 L86 800 Z " />
<glyph glyph-name="agrave" unicode="&#xe0;" horiz-adv-x="500" d="M253 530 L166 707 L86 707 C86 690 90 676 95 671 L247 530 L253 530 L253 530 Z M313 255 C138 218 48 155 48 88 C48 29 93 -10 161 -10 C221 -10 278 11 316 52 C325 14 358 -10 403 -10 C440 -10 476 13 493 47 L491 50 C487 40 477 34 468 34 C423 34 394 47 394 67 L395 350 C395 416 346 460 250 460 C161 460 84 446 71 427 C69 424 73 418 81 412 L105 405 L110 405 C122 422 176 435 236 435 C287 435 314 393 314 329 L313 255 L313 255 Z M314 235 L314 74 C314 71 314 68 314 65 C290 41 259 28 227 28 C166 28 126 60 126 107 C126 159 190 207 314 235 L314 235 Z " />
<glyph glyph-name="aacute" unicode="&#xe1;" horiz-adv-x="500" d="M250 530 L256 530 L408 671 C414 676 417 690 417 707 L337 707 L250 530 L250 530 Z M313 255 C138 218 48 155 48 88 C48 29 93 -10 161 -10 C221 -10 278 11 316 52 C325 14 358 -10 403 -10 C440 -10 476 13 493 47 L491 50 C487 40 477 34 468 34 C423 34 394 47 394 67 L395 350 C395 416 346 460 250 460 C161 460 84 446 71 427 C69 424 73 418 81 412 L105 405 L110 405 C122 422 176 435 236 435 C287 435 314 393 314 329 L313 255 L313 255 Z M314 235 L314 74 C314 71 314 68 314 65 C290 41 259 28 227 28 C166 28 126 60 126 107 C126 159 190 207 314 235 L314 235 Z " />
<glyph glyph-name="acircumflex" unicode="&#xe2;" horiz-adv-x="500" d="M395 530 L257 705 L241 705 L107 530 L113 530 L249 619 L389 530 L395 530 L395 530 Z M313 255 C138 218 48 155 48 88 C48 29 93 -10 161 -10 C221 -10 278 11 316 52 C325 14 358 -10 403 -10 C440 -10 476 13 493 47 L491 50 C487 40 477 34 468 34 C423 34 394 47 394 67 L395 350 C395 416 346 460 250 460 C161 460 84 446 71 427 C69 424 73 418 81 412 L105 405 L110 405 C122 422 176 435 236 435 C287 435 314 393 314 329 L313 255 L313 255 Z M314 235 L314 74 C314 71 314 68 314 65 C290 41 259 28 227 28 C166 28 126 60 126 107 C126 159 190 207 314 235 L314 235 Z " />
<glyph glyph-name="atilde" unicode="&#xe3;" horiz-adv-x="500" d="M90 555 C103 594 115 620 154 620 C204 620 240 555 290 555 C339 555 360 605 384 680 L377 680 C365 640 352 613 314 613 C263 613 227 678 177 678 C128 678 107 629 83 555 L90 555 L90 555 Z M313 255 C138 218 48 155 48 88 C48 29 93 -10 161 -10 C221 -10 278 11 316 52 C325 14 358 -10 403 -10 C440 -10 476 13 493 47 L491 50 C487 40 477 34 468 34 C423 34 394 47 394 67 L395 350 C395 416 346 460 250 460 C161 460 84 446 71 427 C69 424 73 418 81 412 L105 405 L110 405 C122 422 176 435 236 435 C287 435 314 393 314 329 L313 255 L313 255 Z M314 235 L314 74 C314 71 314 68 314 65 C290 41 259 28 227 28 C166 28 126 60 126 107 C126 159 190 207 314 235 L314 235 Z " />
<glyph glyph-name="adieresis" unicode="&#xe4;" horiz-adv-x="500" d="M324 570 C354 570 374 590 374 620 C374 650 354 670 324 670 C294 670 274 650 274 620 C274 590 294 570 324 570 L324 570 Z M144 570 C174 570 194 590 194 620 C194 650 174 670 144 670 C114 670 94 650 94 620 C94 590 114 570 144 570 L144 570 Z M313 255 C138 218 48 155 48 88 C48 29 93 -10 161 -10 C221 -10 278 11 316 52 C325 14 358 -10 403 -10 C440 -10 476 13 493 47 L491 50 C487 40 477 34 468 34 C423 34 394 47 394 67 L395 350 C395 416 346 460 250 460 C161 460 84 446 71 427 C69 424 73 418 81 412 L105 405 L110 405 C122 422 176 435 236 435 C287 435 314 393 314 329 L313 255 L313 255 Z M314 235 L314 74 C314 71 314 68 314 65 C290 41 259 28 227 28 C166 28 126 60 126 107 C126 159 190 207 314 235 L314 235 Z " />
<glyph glyph-name="aring" unicode="&#xe5;" horiz-adv-x="500" d="M241 548 C220 548 203 584 203 625 C203 663 217 688 237 688 C260 688 275 657 275 612 C275 577 259 548 241 548 L241 548 Z M153 618 C153 573 192 535 239 535 C285 535 324 574 324 620 C324 669 290 701 239 701 C187 701 153 668 153 618 L153 618 Z M313 255 C138 218 48 155 48 88 C48 29 93 -10 161 -10 C221 -10 278 11 316 52 C325 14 358 -10 403 -10 C440 -10 476 13 493 47 L491 50 C487 40 477 34 468 34 C423 34 394 47 394 67 L395 350 C395 416 346 460 250 460 C161 460 84 446 71 427 C69 424 73 418 81 412 L105 405 L110 405 C122 422 176 435 236 435 C287 435 314 393 314 329 L313 255 L313 255 Z M314 235 L314 74 C314 71 314 68 314 65 C290 41 259 28 227 28 C166 28 126 60 126 107 C126 159 190 207 314 235 L314 235 Z " />
<glyph glyph-name="ccedilla" unicode="&#xe7;" horiz-adv-x="477" d="M243 -75 L273 -9 C338 -5 400 26 432 72 L432 72 L434 77 C433 76 432 75 431 74 L431 77 L427 77 C392 48 334 29 282 29 C189 29 127 117 127 249 C127 361 181 436 263 436 C299 436 337 413 359 378 L385 337 L392 337 L410 361 L430 380 L430 380 L430 380 C430 382 423 393 413 409 C395 439 341 459 280 459 C141 459 48 357 48 204 C48 77 129 -8 252 -11 L197 -130 L213 -137 C248 -146 272 -163 272 -179 C272 -207 265 -226 254 -226 C221 -226 190 -220 177 -210 L177 -216 C197 -231 231 -241 261 -241 C304 -241 332 -210 332 -163 C332 -127 296 -93 241 -77 L243 -75 L243 -75 Z " />
<glyph glyph-name="egrave" unicode="&#xe8;" horiz-adv-x="483" d="M256 530 L169 707 L89 707 C89 690 93 676 98 671 L250 530 L256 530 L256 530 Z M261 269 L129 269 C134 370 182 436 252 436 C313 436 355 370 360 269 L261 269 L261 269 Z M261 245 L397 245 L433 247 C433 375 364 460 261 460 C134 460 50 358 50 205 C50 76 134 -10 261 -10 C330 -10 397 22 431 71 L431 71 L433 76 C432 75 431 74 430 73 L430 76 L426 76 C391 47 333 28 281 28 C189 28 127 114 125 243 L261 245 L261 245 Z " />
<glyph glyph-name="eacute" unicode="&#xe9;" horiz-adv-x="483" d="M253 530 L260 530 L412 671 C417 676 420 690 420 707 L340 707 L253 530 L253 530 Z M261 269 L129 269 C134 370 182 436 252 436 C313 436 355 370 360 269 L261 269 L261 269 Z M261 245 L397 245 L433 247 C433 375 364 460 261 460 C134 460 50 358 50 205 C50 76 134 -10 261 -10 C330 -10 397 22 431 71 L431 71 L433 76 C432 75 431 74 430 73 L430 76 L426 76 C391 47 333 28 281 28 C189 28 127 114 125 243 L261 245 L261 245 Z " />
<glyph glyph-name="ecircumflex" unicode="&#xea;" horiz-adv-x="483" d="M398 530 L260 705 L244 705 L110 530 L117 530 L252 619 L392 530 L398 530 L398 530 Z M261 269 L129 269 C134 370 182 436 252 436 C313 436 355 370 360 269 L261 269 L261 269 Z M261 245 L397 245 L433 247 C433 375 364 460 261 460 C134 460 50 358 50 205 C50 76 134 -10 261 -10 C330 -10 397 22 431 71 L431 71 L433 76 C432 75 431 74 430 73 L430 76 L426 76 C391 47 333 28 281 28 C189 28 127 114 125 243 L261 245 L261 245 Z " />
<glyph glyph-name="edieresis" unicode="&#xeb;" horiz-adv-x="483" d="M342 570 C372 570 392 590 392 620 C392 650 372 670 342 670 C312 670 292 650 292 620 C292 590 312 570 342 570 L342 570 Z M162 570 C192 570 212 590 212 620 C212 650 192 670 162 670 C132 670 112 650 112 620 C112 590 132 570 162 570 L162 570 Z M261 269 L129 269 C134 370 182 436 252 436 C313 436 355 370 360 269 L261 269 L261 269 Z M261 245 L397 245 L433 247 C433 375 364 460 261 460 C134 460 50 358 50 205 C50 76 134 -10 261 -10 C330 -10 397 22 431 71 L431 71 L433 76 C432 75 431 74 430 73 L430 76 L426 76 C391 47 333 28 281 28 C189 28 127 114 125 243 L261 245 L261 245 Z " />
<glyph glyph-name="igrave" unicode="&#xec;" horiz-adv-x="317" d="M159 530 L72 707 L-8 707 C-8 690 -5 676 0 671 L152 530 L159 530 L159 530 Z M159 0 L199 0 L261 0 C261 0 262 1 263 3 C266 12 269 18 269 18 L199 50 L199 375 L199 433 L199 460 L183 460 L61 411 C57 406 54 403 54 403 L119 347 L119 50 L54 18 C54 18 56 12 60 3 C61 1 61 0 61 0 L119 0 L159 0 L159 0 Z " />
<glyph glyph-name="iacute" unicode="&#xed;" horiz-adv-x="317" d="M155 530 L162 530 L314 671 C319 676 322 690 322 707 L242 707 L155 530 L155 530 Z M159 0 L199 0 L261 0 C261 0 262 1 263 3 C266 12 269 18 269 18 L199 50 L199 375 L199 433 L199 460 L183 460 L61 411 C57 406 54 403 54 403 L119 347 L119 50 L54 18 C54 18 56 12 60 3 C61 1 61 0 61 0 L119 0 L159 0 L159 0 Z " />
<glyph glyph-name="icircumflex" unicode="&#xee;" horiz-adv-x="317" d="M301 530 L162 705 L146 705 L12 530 L19 530 L154 619 L294 530 L301 530 L301 530 Z M159 0 L199 0 L261 0 C261 0 262 1 263 3 C266 12 269 18 269 18 L199 50 L199 375 L199 433 L199 460 L183 460 L61 411 C57 406 54 403 54 403 L119 347 L119 50 L54 18 C54 18 56 12 60 3 C61 1 61 0 61 0 L119 0 L159 0 L159 0 Z " />
<glyph glyph-name="idieresis" unicode="&#xef;" horiz-adv-x="317" d="M244 570 C274 570 294 590 294 620 C294 650 274 670 244 670 C214 670 194 650 194 620 C194 590 214 570 244 570 L244 570 Z M64 570 C94 570 114 590 114 620 C114 650 94 670 64 670 C34 670 14 650 14 620 C14 590 34 570 64 570 L64 570 Z M159 0 L199 0 L261 0 C261 0 262 1 263 3 C266 12 269 18 269 18 L199 50 L199 375 L199 433 L199 460 L183 460 L61 411 C57 406 54 403 54 403 L119 347 L119 50 L54 18 C54 18 56 12 60 3 C61 1 61 0 61 0 L119 0 L159 0 L159 0 Z " />
<glyph glyph-name="ntilde" unicode="&#xf1;" horiz-adv-x="590" d="M156 555 C169 594 181 620 220 620 C270 620 306 555 356 555 C405 555 426 605 451 680 L444 680 C431 640 418 613 380 613 C330 613 294 678 244 678 C194 678 173 629 149 555 L156 555 L156 555 Z M50 403 L115 347 L115 50 L50 18 C50 18 52 12 56 3 C57 1 57 0 57 0 L115 0 L155 0 L195 0 L257 0 C257 0 258 1 259 3 C262 12 265 18 265 18 L195 50 L195 364 C230 399 272 422 324 422 C373 422 405 372 405 297 L405 50 L335 18 C335 18 338 12 341 3 C342 1 343 0 343 0 L405 0 L445 0 L485 0 L543 0 C543 0 543 1 544 3 C548 12 550 18 550 18 L485 50 L485 343 C485 413 430 460 348 460 C292 460 242 429 195 381 L195 383 L195 383 L191 461 L175 461 L57 412 C54 408 51 404 50 404 L50 403 L50 403 Z M50 404 L50 404 L50 404 Z " />
<glyph glyph-name="ograve" unicode="&#xf2;" horiz-adv-x="538" d="M274 530 L187 707 L107 707 C107 690 110 676 115 671 L267 530 L274 530 L274 530 Z M276 12 C196 12 142 97 142 225 C142 353 183 438 262 438 C342 438 396 353 396 225 C396 97 355 12 276 12 L276 12 Z M50 225 C50 84 138 -10 269 -10 C414 -10 488 84 488 225 C488 366 400 460 269 460 C124 460 50 366 50 225 L50 225 Z " />
<glyph glyph-name="oacute" unicode="&#xf3;" horiz-adv-x="538" d="M270 530 L277 530 L429 671 C434 676 437 690 437 707 L357 707 L270 530 L270 530 Z M276 12 C196 12 142 97 142 225 C142 353 183 438 262 438 C342 438 396 353 396 225 C396 97 355 12 276 12 L276 12 Z M50 225 C50 84 138 -10 269 -10 C414 -10 488 84 488 225 C488 366 400 460 269 460 C124 460 50 366 50 225 L50 225 Z " />
<glyph glyph-name="ocircumflex" unicode="&#xf4;" horiz-adv-x="538" d="M416 530 L277 705 L261 705 L127 530 L134 530 L269 619 L409 530 L416 530 L416 530 Z M276 12 C196 12 142 97 142 225 C142 353 183 438 262 438 C342 438 396 353 396 225 C396 97 355 12 276 12 L276 12 Z M50 225 C50 84 138 -10 269 -10 C414 -10 488 84 488 225 C488 366 400 460 269 460 C124 460 50 366 50 225 L50 225 Z " />
<glyph glyph-name="otilde" unicode="&#xf5;" horiz-adv-x="538" d="M125 555 C138 594 150 620 189 620 C239 620 275 555 325 555 C374 555 395 605 420 680 L413 680 C400 640 387 613 349 613 C299 613 263 678 213 678 C163 678 142 629 118 555 L125 555 L125 555 Z M276 12 C196 12 142 97 142 225 C142 353 183 438 262 438 C342 438 396 353 396 225 C396 97 355 12 276 12 L276 12 Z M50 225 C50 84 138 -10 269 -10 C414 -10 488 84 488 225 C488 366 400 460 269 460 C124 460 50 366 50 225 L50 225 Z " />
<glyph glyph-name="odieresis" unicode="&#xf6;" horiz-adv-x="538" d="M359 570 C389 570 409 590 409 620 C409 650 389 670 359 670 C329 670 309 650 309 620 C309 590 329 570 359 570 L359 570 Z M179 570 C209 570 229 590 229 620 C229 650 209 670 179 670 C149 670 129 650 129 620 C129 590 149 570 179 570 L179 570 Z M276 12 C196 12 142 97 142 225 C142 353 183 438 262 438 C342 438 396 353 396 225 C396 97 355 12 276 12 L276 12 Z M50 225 C50 84 138 -10 269 -10 C414 -10 488 84 488 225 C488 366 400 460 269 460 C124 460 50 366 50 225 L50 225 Z " />
<glyph glyph-name="oslash" unicode="&#xf8;" horiz-adv-x="538" d="M276 12 C236 12 203 33 180 70 L383 327 C392 298 397 264 397 226 C397 98 356 13 277 13 L276 12 L276 12 Z M51 226 C51 159 71 102 106 61 L51 -9 L117 -9 L145 27 C179 4 221 -9 269 -9 C414 -9 488 85 488 226 C488 293 468 350 433 391 L488 461 L422 461 L394 425 C360 448 318 461 270 461 C125 461 51 367 51 226 L51 226 Z M157 124 C148 153 143 187 143 225 C143 353 184 438 263 438 C303 438 336 417 359 380 L157 124 L157 124 Z " />
<glyph glyph-name="ugrave" unicode="&#xf9;" horiz-adv-x="552" d="M276 530 L189 707 L109 707 C109 690 112 676 117 671 L269 530 L276 530 L276 530 Z M381 400 L381 93 C335 50 287 29 248 29 C201 29 170 79 170 155 L170 450 L130 450 L90 450 L32 450 C32 450 32 449 31 447 C27 438 25 433 25 433 L90 400 L90 107 C90 37 144 -10 224 -10 C265 -10 322 19 380 75 L380 0 L420 0 L460 0 L522 0 C522 0 523 1 524 3 C527 12 530 18 530 18 L460 50 L460 450 L420 450 L380 450 L318 450 C318 450 317 449 316 447 C313 438 310 433 310 433 L381 400 L381 400 Z " />
<glyph glyph-name="uacute" unicode="&#xfa;" horiz-adv-x="552" d="M272 530 L279 530 L431 671 C436 676 439 690 439 707 L359 707 L272 530 L272 530 Z M381 400 L381 93 C335 50 287 29 248 29 C201 29 170 79 170 155 L170 450 L130 450 L90 450 L32 450 C32 450 32 449 31 447 C27 438 25 433 25 433 L90 400 L90 107 C90 37 144 -10 224 -10 C265 -10 322 19 380 75 L380 0 L420 0 L460 0 L522 0 C522 0 523 1 524 3 C527 12 530 18 530 18 L460 50 L460 450 L420 450 L380 450 L318 450 C318 450 317 449 316 447 C313 438 310 433 310 433 L381 400 L381 400 Z " />
<glyph glyph-name="ucircumflex" unicode="&#xfb;" horiz-adv-x="552" d="M418 530 L279 705 L263 705 L129 530 L136 530 L271 619 L411 530 L418 530 L418 530 Z M381 400 L381 93 C335 50 287 29 248 29 C201 29 170 79 170 155 L170 450 L130 450 L90 450 L32 450 C32 450 32 449 31 447 C27 438 25 433 25 433 L90 400 L90 107 C90 37 144 -10 224 -10 C265 -10 322 19 380 75 L380 0 L420 0 L460 0 L522 0 C522 0 523 1 524 3 C527 12 530 18 530 18 L460 50 L460 450 L420 450 L380 450 L318 450 C318 450 317 449 316 447 C313 438 310 433 310 433 L381 400 L381 400 Z " />
<glyph glyph-name="udieresis" unicode="&#xfc;" horiz-adv-x="552" d="M361 570 C391 570 411 590 411 620 C411 650 391 670 361 670 C331 670 311 650 311 620 C311 590 331 570 361 570 L361 570 Z M181 570 C211 570 231 590 231 620 C231 650 211 670 181 670 C151 670 131 650 131 620 C131 590 151 570 181 570 L181 570 Z M381 400 L381 93 C335 50 287 29 248 29 C201 29 170 79 170 155 L170 450 L130 450 L90 450 L32 450 C32 450 32 449 31 447 C27 438 25 433 25 433 L90 400 L90 107 C90 37 144 -10 224 -10 C265 -10 322 19 380 75 L380 0 L420 0 L460 0 L522 0 C522 0 523 1 524 3 C527 12 530 18 530 18 L460 50 L460 450 L420 450 L380 450 L318 450 C318 450 317 449 316 447 C313 438 310 433 310 433 L381 400 L381 400 Z " />
<glyph glyph-name="yacute" unicode="&#xfd;" horiz-adv-x="473" d="M265 530 L271 530 L423 671 C428 676 432 690 432 707 L352 707 L265 530 L265 530 Z M399 395 L252 58 L273 107 L134 400 L134 400 L220 433 C220 433 217 438 211 447 L208 450 L110 450 L66 450 L22 450 L-19 450 C-18 450 -19 448 -20 446 C-23 438 -25 433 -25 433 L46 400 L231 10 L195 -72 C169 -132 142 -156 97 -156 L52 -156 L48 -160 L48 -211 C48 -232 57 -240 82 -240 C129 -240 166 -195 215 -80 L422 395 L498 431 C498 431 496 437 493 445 C492 448 491 450 491 450 L446 450 L435 450 L423 450 L334 450 C334 450 334 449 332 446 C327 437 323 431 323 431 L399 395 L399 395 Z " />
<glyph glyph-name="ydieresis" unicode="&#xff;" horiz-adv-x="473" d="M353 570 C383 570 403 590 403 620 C403 650 383 670 353 670 C323 670 303 650 303 620 C303 590 323 570 353 570 L353 570 Z M173 570 C203 570 223 590 223 620 C223 650 203 670 173 670 C143 670 123 650 123 620 C123 590 143 570 173 570 L173 570 Z M399 395 L252 58 L273 107 L134 400 L134 400 L220 433 C220 433 217 438 211 447 L208 450 L110 450 L66 450 L22 450 L-19 450 C-18 450 -19 448 -20 446 C-23 438 -25 433 -25 433 L46 400 L231 10 L195 -72 C169 -132 142 -156 97 -156 L52 -156 L48 -160 L48 -211 C48 -232 57 -240 82 -240 C129 -240 166 -195 215 -80 L422 395 L498 431 C498 431 496 437 493 445 C492 448 491 450 491 450 L446 450 L435 450 L423 450 L334 450 C334 450 334 449 332 446 C327 437 323 431 323 431 L399 395 L399 395 Z " />
<glyph glyph-name="Amacron" unicode="&#x100;" horiz-adv-x="747" d="M241 955 L507 955 L507 1005 L241 1005 L241 955 L241 955 Z M127 50 L127 50 L216 335 L216 335 L472 335 L559 50 L558 50 L465 18 L475 3 C476 1 477 0 477 0 L574 0 L621 0 L668 0 L709 0 C709 0 709 1 710 4 C713 11 715 16 715 16 L654 45 L410 824 L400 855 L348 855 L330 800 L330 799 L86 35 L86 35 L31 12 C31 12 33 8 35 3 C36 1 37 0 37 0 L75 0 L93 0 L111 0 L200 0 C200 0 201 1 202 3 C207 12 211 18 211 18 L127 50 L127 50 Z M463 365 L226 365 L346 749 L463 365 L463 365 Z " />
<glyph glyph-name="amacron" unicode="&#x101;" horiz-adv-x="500" d="M106 595 L372 595 L372 645 L106 645 L106 595 L106 595 Z M313 255 C138 218 48 155 48 88 C48 29 93 -10 161 -10 C221 -10 278 11 316 52 C325 14 358 -10 403 -10 C440 -10 476 13 493 47 L491 50 C487 40 477 34 468 34 C423 34 394 47 394 67 L395 350 C395 416 346 460 250 460 C161 460 84 446 71 427 C69 424 73 418 81 412 L105 405 L110 405 C122 422 176 435 236 435 C287 435 314 393 314 329 L313 255 L313 255 Z M314 235 L314 74 C314 71 314 68 314 65 C290 41 259 28 227 28 C166 28 126 60 126 107 C126 159 190 207 314 235 L314 235 Z " />
<glyph glyph-name="Abreve" unicode="&#x102;" horiz-adv-x="747" d="M233 1054 L226 1054 C265 946 306 904 374 904 C441 904 482 946 522 1054 L514 1054 C491 989 452 964 374 964 C296 964 257 989 233 1054 L233 1054 Z M127 50 L127 50 L216 335 L216 335 L472 335 L559 50 L558 50 L465 18 L475 3 C476 1 477 0 477 0 L574 0 L621 0 L668 0 L709 0 C709 0 709 1 710 4 C713 11 715 16 715 16 L654 45 L410 824 L400 855 L348 855 L330 800 L330 799 L86 35 L86 35 L31 12 C31 12 33 8 35 3 C36 1 37 0 37 0 L75 0 L93 0 L111 0 L200 0 C200 0 201 1 202 3 C207 12 211 18 211 18 L127 50 L127 50 Z M463 365 L226 365 L346 749 L463 365 L463 365 Z " />
<glyph glyph-name="abreve" unicode="&#x103;" horiz-adv-x="500" d="M98 707 L91 707 C130 587 171 540 239 540 C306 540 347 587 386 707 L379 707 C356 635 317 607 239 607 C161 607 122 635 98 707 L98 707 Z M313 255 C138 218 48 155 48 88 C48 29 93 -10 161 -10 C221 -10 278 11 316 52 C325 14 358 -10 403 -10 C440 -10 476 13 493 47 L491 50 C487 40 477 34 468 34 C423 34 394 47 394 67 L395 350 C395 416 346 460 250 460 C161 460 84 446 71 427 C69 424 73 418 81 412 L105 405 L110 405 C122 422 176 435 236 435 C287 435 314 393 314 329 L313 255 L313 255 Z M314 235 L314 74 C314 71 314 68 314 65 C290 41 259 28 227 28 C166 28 126 60 126 107 C126 159 190 207 314 235 L314 235 Z " />
<glyph glyph-name="Cacute" unicode="&#x106;" horiz-adv-x="708" d="M367 895 L374 895 L526 1022 C531 1026 534 1039 534 1054 L454 1054 L367 895 L367 895 Z M617 13 L617 13 C627 14 627 15 617 15 L617 34 C617 34 617 34 616 34 L612 122 C610 124 606 126 604 128 C601 129 598 131 595 133 C582 103 564 63 550 33 C548 29 543 25 539 23 C494 19 443 16 395 16 C255 16 162 181 162 429 C162 671 261 832 410 832 C448 832 490 830 528 826 C532 824 537 820 539 816 C553 780 571 734 586 699 C588 701 592 703 595 705 C597 707 601 709 604 711 L612 853 C596 857 515 859 410 859 C205 859 69 675 69 399 C69 153 199 -11 395 -11 C509 -11 598 -8 617 -5 L617 13 L617 13 Z " />
<glyph glyph-name="cacute" unicode="&#x107;" horiz-adv-x="477" d="M259 530 L266 530 L418 671 C423 676 426 690 426 707 L346 707 L259 530 L259 530 Z M387 338 L394 338 L412 362 L432 381 L432 381 L432 381 C432 383 425 394 415 410 C397 440 343 460 282 460 C143 460 50 358 50 205 C50 76 134 -10 261 -10 C330 -10 397 22 431 71 L431 71 L433 76 C432 75 431 74 430 73 L430 76 L426 76 C391 47 333 28 281 28 C188 28 126 116 126 248 C126 360 180 435 262 435 C298 435 336 412 358 377 L387 338 L387 338 Z " />
<glyph glyph-name="Ccaron" unicode="&#x10c;" horiz-adv-x="708" d="M533 1057 L394 900 L378 900 L244 1057 L251 1057 L386 976 L526 1057 L533 1057 L533 1057 Z M617 13 L617 13 C627 14 627 15 617 15 L617 34 C617 34 617 34 616 34 L612 122 C610 124 606 126 604 128 C601 129 598 131 595 133 C582 103 564 63 550 33 C548 29 543 25 539 23 C494 19 443 16 395 16 C255 16 162 181 162 429 C162 671 261 832 410 832 C448 832 490 830 528 826 C532 824 537 820 539 816 C553 780 571 734 586 699 C588 701 592 703 595 705 C597 707 601 709 604 711 L612 853 C596 857 515 859 410 859 C205 859 69 675 69 399 C69 153 199 -11 395 -11 C509 -11 598 -8 617 -5 L617 13 L617 13 Z " />
<glyph glyph-name="ccaron" unicode="&#x10d;" horiz-adv-x="477" d="M405 710 L266 535 L250 535 L116 710 L123 710 L258 621 L398 710 L405 710 L405 710 Z M387 338 L394 338 L412 362 L432 381 L432 381 L432 381 C432 383 425 394 415 410 C397 440 343 460 282 460 C143 460 50 358 50 205 C50 76 134 -10 261 -10 C330 -10 397 22 431 71 L431 71 L433 76 C432 75 431 74 430 73 L430 76 L426 76 C391 47 333 28 281 28 C188 28 126 116 126 248 C126 360 180 435 262 435 C298 435 336 412 358 377 L387 338 L387 338 Z " />
<glyph glyph-name="Dcaron" unicode="&#x10e;" horiz-adv-x="774" d="M581 1057 L443 900 L427 900 L293 1057 L300 1057 L435 976 L575 1057 L581 1057 L581 1057 Z M210 0 L235 0 L355 0 C565 7 705 165 705 463 C705 718 559 850 340 850 L235 850 L190 850 L145 850 L73 850 C73 850 72 849 72 846 C68 837 65 831 65 831 L145 795 L145 55 L65 19 C65 19 68 13 72 4 C72 1 73 0 73 0 L145 0 L190 0 L210 0 L210 0 Z M235 29 L235 821 L326 821 C497 821 611 688 611 429 C611 171 508 35 354 29 L235 29 L235 29 Z " />
<glyph glyph-name="dcaron" unicode="&#x10f;" horiz-adv-x="574" d="M628 750 L553 750 L530 563 L536 563 L621 719 C625 726 628 739 628 750 L628 750 Z M421 0 L456 0 L518 0 C519 0 519 1 520 3 C524 12 526 18 526 18 L456 50 L456 60 L456 685 L456 733 L456 760 L440 760 L319 711 C319 712 319 711 318 711 C314 706 311 703 311 703 L376 657 L376 451 C349 457 318 460 288 460 C145 460 49 353 49 194 C49 71 119 -10 223 -10 C284 -10 344 15 378 54 L387 0 L421 0 L421 0 Z M377 408 L377 72 C350 44 302 26 253 26 C178 26 128 103 128 219 C128 348 189 434 281 434 C304 434 340 424 377 408 L377 408 Z " />
<glyph glyph-name="Emacron" unicode="&#x112;" horiz-adv-x="649" d="M202 955 L468 955 L468 1005 L202 1005 L202 955 L202 955 Z M576 29 C572 65 568 108 564 141 C565 142 564 142 562 143 C552 151 546 156 546 155 L500 30 L235 30 L235 424 L405 424 L447 344 C447 344 454 347 465 351 C468 352 470 353 470 353 L470 424 L470 439 L470 454 L470 525 C470 524 468 525 465 526 C454 530 447 533 447 534 L405 454 L235 454 L235 822 L475 822 L522 707 C522 707 528 711 538 718 C540 718 540 719 540 719 C543 750 547 789 550 822 L554 822 L554 851 L552 851 L544 851 L535 851 L502 851 L234 851 L189 851 L166 851 L144 851 L72 851 C72 851 71 850 71 847 C67 838 64 832 64 832 L144 796 L144 56 L64 20 C64 20 67 14 71 5 C71 2 72 1 72 1 L144 1 L166 1 L189 1 L234 1 L527 1 L560 1 L569 1 L577 1 L579 1 L579 30 L576 29 L576 29 Z " />
<glyph glyph-name="emacron" unicode="&#x113;" horiz-adv-x="483" d="M124 595 L390 595 L390 645 L124 645 L124 595 L124 595 Z M261 269 L129 269 C134 370 182 436 252 436 C313 436 355 370 360 269 L261 269 L261 269 Z M261 245 L397 245 L433 247 C433 375 364 460 261 460 C134 460 50 358 50 205 C50 76 134 -10 261 -10 C330 -10 397 22 431 71 L431 71 L433 76 C432 75 431 74 430 73 L430 76 L426 76 C391 47 333 28 281 28 C189 28 127 114 125 243 L261 245 L261 245 Z " />
<glyph glyph-name="Edot" unicode="&#x116;" horiz-adv-x="649" d="M340 915 C376 915 400 939 400 975 C400 1011 376 1035 340 1035 C304 1035 280 1011 280 975 C280 939 304 915 340 915 L340 915 Z M576 29 C572 65 568 108 564 141 C565 142 564 142 562 143 C552 151 546 156 546 155 L500 30 L235 30 L235 424 L405 424 L447 344 C447 344 454 347 465 351 C468 352 470 353 470 353 L470 424 L470 439 L470 454 L470 525 C470 524 468 525 465 526 C454 530 447 533 447 534 L405 454 L235 454 L235 822 L475 822 L522 707 C522 707 528 711 538 718 C540 718 540 719 540 719 C543 750 547 789 550 822 L554 822 L554 851 L552 851 L544 851 L535 851 L502 851 L234 851 L189 851 L166 851 L144 851 L72 851 C72 851 71 850 71 847 C67 838 64 832 64 832 L144 796 L144 56 L64 20 C64 20 67 14 71 5 C71 2 72 1 72 1 L144 1 L166 1 L189 1 L234 1 L527 1 L560 1 L569 1 L577 1 L579 1 L579 30 L576 29 L576 29 Z " />
<glyph glyph-name="edot" unicode="&#x117;" horiz-adv-x="483" d="M262 583 C298 583 322 607 322 643 C322 679 298 703 262 703 C226 703 202 679 202 643 C202 607 226 583 262 583 L262 583 Z M261 269 L129 269 C134 370 182 436 252 436 C313 436 355 370 360 269 L261 269 L261 269 Z M261 245 L397 245 L433 247 C433 375 364 460 261 460 C134 460 50 358 50 205 C50 76 134 -10 261 -10 C330 -10 397 22 431 71 L431 71 L433 76 C432 75 431 74 430 73 L430 76 L426 76 C391 47 333 28 281 28 C189 28 127 114 125 243 L261 245 L261 245 Z " />
<glyph glyph-name="Ecaron" unicode="&#x11a;" horiz-adv-x="649" d="M481 1057 L343 900 L326 900 L193 1057 L199 1057 L334 976 L475 1057 L481 1057 L481 1057 Z M576 29 C572 65 568 108 564 141 C565 142 564 142 562 143 C552 151 546 156 546 155 L500 30 L235 30 L235 424 L405 424 L447 344 C447 344 454 347 465 351 C468 352 470 353 470 353 L470 424 L470 439 L470 454 L470 525 C470 524 468 525 465 526 C454 530 447 533 447 534 L405 454 L235 454 L235 822 L475 822 L522 707 C522 707 528 711 538 718 C540 718 540 719 540 719 C543 750 547 789 550 822 L554 822 L554 851 L552 851 L544 851 L535 851 L502 851 L234 851 L189 851 L166 851 L144 851 L72 851 C72 851 71 850 71 847 C67 838 64 832 64 832 L144 796 L144 56 L64 20 C64 20 67 14 71 5 C71 2 72 1 72 1 L144 1 L166 1 L189 1 L234 1 L527 1 L560 1 L569 1 L577 1 L579 1 L579 30 L576 29 L576 29 Z " />
<glyph glyph-name="ecaron" unicode="&#x11b;" horiz-adv-x="483" d="M398 710 L260 535 L244 535 L110 710 L117 710 L252 621 L392 710 L398 710 L398 710 Z M261 269 L129 269 C134 370 182 436 252 436 C313 436 355 370 360 269 L261 269 L261 269 Z M261 245 L397 245 L433 247 C433 375 364 460 261 460 C134 460 50 358 50 205 C50 76 134 -10 261 -10 C330 -10 397 22 431 71 L431 71 L433 76 C432 75 431 74 430 73 L430 76 L426 76 C391 47 333 28 281 28 C189 28 127 114 125 243 L261 245 L261 245 Z " />
<glyph glyph-name="Gbreve" unicode="&#x11e;" horiz-adv-x="765" d="M256 1054 L248 1054 C287 946 328 904 396 904 C464 904 505 946 544 1054 L536 1054 C513 989 474 964 396 964 C318 964 279 989 256 1054 L256 1054 Z M645 318 L720 354 C721 354 718 360 714 370 C713 372 712 374 712 373 C678 374 634 374 600 373 C564 374 516 374 480 373 C480 373 479 372 478 370 L470 354 L555 318 L555 42 C501 29 448 22 411 22 C262 22 162 185 162 430 C162 672 265 833 420 833 C461 833 506 830 547 826 L547 826 C552 826 558 822 560 816 C574 781 592 735 607 700 C609 702 613 704 616 706 C618 708 622 710 625 712 L633 854 C617 858 532 860 421 860 C210 860 70 676 70 400 C70 154 201 -10 397 -10 C456 -10 555 9 645 37 L645 318 L645 318 Z " />
<glyph glyph-name="gbreve" unicode="&#x11f;" horiz-adv-x="546" d="M122 707 L115 707 C154 587 195 540 263 540 C330 540 371 587 411 707 L403 707 C380 635 341 607 263 607 C185 607 146 635 122 707 L122 707 Z M182 152 L182 152 C204 144 229 140 257 140 C375 140 436 205 436 302 C436 352 417 393 383 421 L496 422 L496 451 L352 441 C326 454 294 461 258 461 C140 461 80 397 80 301 C80 236 113 185 167 159 C113 141 78 110 78 79 C78 30 115 -4 171 -8 C104 -35 60 -83 60 -129 C60 -194 131 -238 237 -238 C373 -238 464 -172 464 -73 C464 8 423 62 316 62 L210 62 C153 62 115 76 115 98 C115 121 141 144 181 154 L182 152 L182 152 Z M263 163 C201 163 160 220 160 305 C160 387 192 441 253 441 C313 441 353 385 353 301 C353 218 322 163 263 163 L263 163 Z M184 -8 L276 -8 C383 -8 425 -38 425 -84 C425 -167 352 -223 243 -223 C176 -223 131 -181 131 -118 C131 -63 152 -19 184 -8 L184 -8 Z " />
<glyph glyph-name="Itilde" unicode="&#x128;" horiz-adv-x="390" d="M51 895 C64 934 76 960 115 960 C165 960 201 895 251 895 C300 895 321 945 346 1020 L339 1020 C326 980 313 953 275 953 C225 953 189 1018 139 1018 C89 1018 68 969 44 895 L51 895 L51 895 Z M195 0 L240 0 L311 0 C311 0 312 1 313 4 C317 13 320 19 320 19 L240 55 L240 795 L320 831 C320 831 317 837 313 846 C312 849 311 850 311 850 L240 850 L195 850 L150 850 L79 850 C79 850 78 849 77 846 C73 837 70 831 70 831 L150 795 L150 55 L70 19 C70 19 73 13 77 4 C78 1 79 0 79 0 L150 0 L195 0 L195 0 Z " />
<glyph glyph-name="itilde" unicode="&#x129;" horiz-adv-x="317" d="M15 530 C28 569 40 595 79 595 C129 595 165 530 215 530 C264 530 285 580 310 655 L303 655 C290 615 277 588 239 588 C189 588 153 653 103 653 C53 653 32 604 8 530 L15 530 L15 530 Z M159 0 L199 0 L261 0 C261 0 262 1 263 3 C266 12 269 18 269 18 L199 50 L199 375 L199 433 L199 460 L183 460 L61 411 C57 406 54 403 54 403 L119 347 L119 50 L54 18 C54 18 56 12 60 3 C61 1 61 0 61 0 L119 0 L159 0 L159 0 Z " />
<glyph glyph-name="Imacron" unicode="&#x12a;" horiz-adv-x="390" d="M62 955 L328 955 L328 1005 L62 1005 L62 955 L62 955 Z M195 0 L240 0 L311 0 C311 0 312 1 313 4 C317 13 320 19 320 19 L240 55 L240 795 L320 831 C320 831 317 837 313 846 C312 849 311 850 311 850 L240 850 L195 850 L150 850 L79 850 C79 850 78 849 77 846 C73 837 70 831 70 831 L150 795 L150 55 L70 19 C70 19 73 13 77 4 C78 1 79 0 79 0 L150 0 L195 0 L195 0 Z " />
<glyph glyph-name="imacron" unicode="&#x12b;" horiz-adv-x="317" d="M21 595 L287 595 L287 645 L21 645 L21 595 L21 595 Z M159 0 L199 0 L261 0 C261 0 262 1 263 3 C266 12 269 18 269 18 L199 50 L199 375 L199 433 L199 460 L183 460 L61 411 C57 406 54 403 54 403 L119 347 L119 50 L54 18 C54 18 56 12 60 3 C61 1 61 0 61 0 L119 0 L159 0 L159 0 Z " />
<glyph glyph-name="Idot" unicode="&#x130;" horiz-adv-x="390" d="M195 915 C231 915 255 939 255 975 C255 1011 231 1035 195 1035 C159 1035 135 1011 135 975 C135 939 159 915 195 915 L195 915 Z M195 0 L240 0 L311 0 C311 0 312 1 313 4 C317 13 320 19 320 19 L240 55 L240 795 L320 831 C320 831 317 837 313 846 C312 849 311 850 311 850 L240 850 L195 850 L150 850 L79 850 C79 850 78 849 77 846 C73 837 70 831 70 831 L150 795 L150 55 L70 19 C70 19 73 13 77 4 C78 1 79 0 79 0 L150 0 L195 0 L195 0 Z " />
<glyph glyph-name="dotlessi" unicode="&#x131;" horiz-adv-x="317" d="M159 0 L199 0 L261 0 C261 0 262 1 263 3 C266 12 269 18 269 18 L199 50 L199 375 L199 433 L199 460 L183 460 L61 411 C57 406 54 403 54 403 L119 347 L119 50 L54 18 C54 18 56 12 60 3 C61 1 61 0 61 0 L119 0 L159 0 L159 0 Z " />
<glyph glyph-name="Lacute" unicode="&#x139;" horiz-adv-x="629" d="M176 895 L182 895 L334 1022 C340 1026 343 1039 343 1054 L263 1054 L176 895 L176 895 Z M556 29 C551 75 546 132 541 175 L538 178 C528 187 521 194 521 193 L475 28 L235 28 L235 794 L320 830 C319 830 316 836 312 845 C311 848 310 849 310 849 L235 849 L190 849 L145 849 L73 849 C73 849 72 848 72 845 C68 836 65 830 65 830 L145 794 L145 54 L65 18 C65 18 68 12 72 3 C72 0 73 -1 73 -1 L145 -1 L167 -1 L190 -1 L235 -1 L508 -1 L541 -1 L550 -1 L558 -1 L560 -1 L560 28 L556 29 L556 29 Z " />
<glyph glyph-name="lacute" unicode="&#x13a;" horiz-adv-x="298" d="M135 765 L141 765 L301 892 C306 896 310 909 310 924 L226 924 L135 765 L135 765 Z M149 0 L189 0 L251 0 C251 0 252 1 253 3 C256 12 259 18 259 18 L189 50 L189 675 L189 733 L189 760 L173 760 L51 711 C47 706 44 703 44 703 L109 647 L109 50 L44 18 C44 18 46 12 50 3 C51 1 51 0 51 0 L109 0 L149 0 L149 0 Z " />
<glyph glyph-name="Lcaron" unicode="&#x13d;" horiz-adv-x="629" d="M516 850 L441 850 L418 663 L425 663 L509 819 C513 826 516 839 516 850 L516 850 Z M556 29 C551 75 546 132 541 175 L538 178 C528 187 521 194 521 193 L475 28 L235 28 L235 794 L320 830 C319 830 316 836 312 845 C311 848 310 849 310 849 L235 849 L190 849 L145 849 L73 849 C73 849 72 848 72 845 C68 836 65 830 65 830 L145 794 L145 54 L65 18 C65 18 68 12 72 3 C72 0 73 -1 73 -1 L145 -1 L167 -1 L190 -1 L235 -1 L508 -1 L541 -1 L550 -1 L558 -1 L560 -1 L560 28 L556 29 L556 29 Z " />
<glyph glyph-name="lcaron" unicode="&#x13e;" horiz-adv-x="298" d="M360 750 L285 750 L263 563 L269 563 L353 719 C357 726 360 739 360 750 L360 750 Z M149 0 L189 0 L251 0 C251 0 252 1 253 3 C256 12 259 18 259 18 L189 50 L189 675 L189 733 L189 760 L173 760 L51 711 C47 706 44 703 44 703 L109 647 L109 50 L44 18 C44 18 46 12 50 3 C51 1 51 0 51 0 L109 0 L149 0 L149 0 Z " />
<glyph glyph-name="Nacute" unicode="&#x143;" horiz-adv-x="805" d="M419 895 L426 895 L578 1022 C583 1026 586 1039 586 1054 L506 1054 L419 895 L419 895 Z M665 795 L740 831 C740 831 737 837 733 846 C733 849 732 850 732 850 L665 850 L646 850 L628 850 L539 850 C539 850 538 849 537 846 C531 837 528 831 528 831 L628 795 L628 154 L188 850 L169 850 L151 850 L84 850 C84 850 84 849 82 846 C78 837 75 831 76 831 L151 795 L151 790 L151 55 L71 19 C71 19 74 13 78 4 C79 1 80 0 80 0 L151 0 L169 0 L188 0 L277 0 C277 0 278 1 279 4 C284 13 288 19 288 19 L188 55 L188 729 L617 19 L632 -5 L665 -5 L665 95 L665 795 L665 795 Z " />
<glyph glyph-name="nacute" unicode="&#x144;" horiz-adv-x="590" d="M301 530 L308 530 L460 671 C465 676 468 690 468 707 L388 707 L301 530 L301 530 Z M50 403 L115 347 L115 50 L50 18 C50 18 52 12 56 3 C57 1 57 0 57 0 L115 0 L155 0 L195 0 L257 0 C257 0 258 1 259 3 C262 12 265 18 265 18 L195 50 L195 364 C230 399 272 422 324 422 C373 422 405 372 405 297 L405 50 L335 18 C335 18 338 12 341 3 C342 1 343 0 343 0 L405 0 L445 0 L485 0 L543 0 C543 0 543 1 544 3 C548 12 550 18 550 18 L485 50 L485 343 C485 413 430 460 348 460 C292 460 242 429 195 381 L195 383 L195 383 L191 461 L175 461 L57 412 C54 408 51 404 50 404 L50 403 L50 403 Z M50 404 L50 404 L50 404 Z " />
<glyph glyph-name="Ncaron" unicode="&#x147;" horiz-adv-x="805" d="M564 1057 L426 900 L410 900 L276 1057 L283 1057 L418 976 L558 1057 L564 1057 L564 1057 Z M665 795 L740 831 C740 831 737 837 733 846 C733 849 732 850 732 850 L665 850 L646 850 L628 850 L539 850 C539 850 538 849 537 846 C531 837 528 831 528 831 L628 795 L628 154 L188 850 L169 850 L151 850 L84 850 C84 850 84 849 82 846 C78 837 75 831 76 831 L151 795 L151 790 L151 55 L71 19 C71 19 74 13 78 4 C79 1 80 0 80 0 L151 0 L169 0 L188 0 L277 0 C277 0 278 1 279 4 C284 13 288 19 288 19 L188 55 L188 729 L617 19 L632 -5 L665 -5 L665 95 L665 795 L665 795 Z " />
<glyph glyph-name="ncaron" unicode="&#x148;" horiz-adv-x="590" d="M447 710 L308 535 L292 535 L158 710 L165 710 L300 621 L440 710 L447 710 L447 710 Z M50 403 L115 347 L115 50 L50 18 C50 18 52 12 56 3 C57 1 57 0 57 0 L115 0 L155 0 L195 0 L257 0 C257 0 258 1 259 3 C262 12 265 18 265 18 L195 50 L195 364 C230 399 272 422 324 422 C373 422 405 372 405 297 L405 50 L335 18 C335 18 338 12 341 3 C342 1 343 0 343 0 L405 0 L445 0 L485 0 L543 0 C543 0 543 1 544 3 C548 12 550 18 550 18 L485 50 L485 343 C485 413 430 460 348 460 C292 460 242 429 195 381 L195 383 L195 383 L191 461 L175 461 L57 412 C54 408 51 404 50 404 L50 403 L50 403 Z M50 404 L50 404 L50 404 Z " />
<glyph glyph-name="Omacron" unicode="&#x14c;" horiz-adv-x="807" d="M256 955 L522 955 L522 1005 L256 1005 L256 955 L256 955 Z M414 17 C265 17 166 193 166 458 C166 684 257 834 394 834 C542 834 641 656 641 388 C641 165 550 17 414 17 L414 17 Z M70 423 C70 163 203 -10 404 -10 C604 -10 737 163 737 423 C737 685 604 860 404 860 C203 860 70 685 70 423 L70 423 Z " />
<glyph glyph-name="omacron" unicode="&#x14d;" horiz-adv-x="538" d="M136 595 L402 595 L402 645 L136 645 L136 595 L136 595 Z M276 12 C196 12 142 97 142 225 C142 353 183 438 262 438 C342 438 396 353 396 225 C396 97 355 12 276 12 L276 12 Z M50 225 C50 84 138 -10 269 -10 C414 -10 488 84 488 225 C488 366 400 460 269 460 C124 460 50 366 50 225 L50 225 Z " />
<glyph glyph-name="Racute" unicode="&#x154;" horiz-adv-x="672" d="M306 895 L313 895 L465 1022 C470 1026 473 1039 473 1054 L393 1054 L306 895 L306 895 Z M596 50 L596 50 L392 425 C474 456 553 533 553 636 C553 765 465 851 333 851 L235 851 L190 851 L145 851 L73 851 C73 851 72 850 72 847 C68 838 65 832 65 832 L145 796 L145 56 L65 20 C65 20 68 14 72 5 C72 2 73 1 73 1 L145 1 L190 1 L235 1 L301 1 C301 1 302 2 303 5 C307 14 309 20 310 20 L235 56 L235 411 L301 411 L521 1 L572 1 L623 1 L658 1 C658 1 658 3 659 5 C661 14 663 18 663 18 L596 50 L596 50 Z M371 465 L366 474 L340 449 C327 444 314 441 302 441 L236 441 L236 822 L322 821 C403 821 457 744 457 628 C457 554 417 496 371 465 L371 465 Z " />
<glyph glyph-name="racute" unicode="&#x155;" horiz-adv-x="377" d="M243 530 L249 530 L401 671 C407 676 410 690 410 707 L330 707 L243 530 L243 530 Z M250 411 C250 400 282 380 308 369 C331 358 346 352 346 353 L353 353 C368 384 378 411 378 419 C378 429 366 441 347 450 C339 453 312 460 295 460 C268 460 234 423 195 367 L195 375 L191 460 L175 460 L57 411 C53 406 50 403 50 403 L115 347 L115 50 L50 18 C50 18 52 12 56 3 C57 1 57 0 57 0 L115 0 L155 0 L195 0 L257 0 C257 0 258 1 259 3 C262 12 265 18 265 18 L195 50 L195 349 C215 378 234 400 250 411 L250 411 Z " />
<glyph glyph-name="Rcaron" unicode="&#x158;" horiz-adv-x="672" d="M462 1057 L323 900 L307 900 L173 1057 L180 1057 L315 976 L455 1057 L462 1057 L462 1057 Z M596 50 L596 50 L392 425 C474 456 553 533 553 636 C553 765 465 851 333 851 L235 851 L190 851 L145 851 L73 851 C73 851 72 850 72 847 C68 838 65 832 65 832 L145 796 L145 56 L65 20 C65 20 68 14 72 5 C72 2 73 1 73 1 L145 1 L190 1 L235 1 L301 1 C301 1 302 2 303 5 C307 14 309 20 310 20 L235 56 L235 411 L301 411 L521 1 L572 1 L623 1 L658 1 C658 1 658 3 659 5 C661 14 663 18 663 18 L596 50 L596 50 Z M371 465 L366 474 L340 449 C327 444 314 441 302 441 L236 441 L236 822 L322 821 C403 821 457 744 457 628 C457 554 417 496 371 465 L371 465 Z " />
<glyph glyph-name="rcaron" unicode="&#x159;" horiz-adv-x="377" d="M388 710 L250 535 L233 535 L100 710 L106 710 L241 621 L382 710 L388 710 L388 710 Z M250 411 C250 400 282 380 308 369 C331 358 346 352 346 353 L353 353 C368 384 378 411 378 419 C378 429 366 441 347 450 C339 453 312 460 295 460 C268 460 234 423 195 367 L195 375 L191 460 L175 460 L57 411 C53 406 50 403 50 403 L115 347 L115 50 L50 18 C50 18 52 12 56 3 C57 1 57 0 57 0 L115 0 L155 0 L195 0 L257 0 C257 0 258 1 259 3 C262 12 265 18 265 18 L195 50 L195 349 C215 378 234 400 250 411 L250 411 Z " />
<glyph glyph-name="Sacute" unicode="&#x15a;" horiz-adv-x="527" d="M255 895 L261 895 L413 1022 C418 1026 422 1039 422 1054 L342 1054 L255 895 L255 895 Z M75 16 L74 -4 C89 -8 169 -10 273 -10 C392 -10 472 88 472 234 C472 337 417 410 310 473 C220 527 174 585 174 664 C174 766 213 834 271 834 C302 834 332 833 358 831 C367 828 375 820 379 810 C387 787 399 756 407 732 C411 733 415 735 418 737 C421 738 425 740 429 741 L432 817 L432 817 L432 836 L432 836 L433 855 C424 858 362 861 277 861 C162 861 86 769 86 632 C86 538 137 471 235 412 C335 353 387 291 387 212 C387 94 342 16 274 16 C232 16 186 19 145 24 C141 26 137 30 135 34 C125 65 113 105 104 135 C101 133 97 131 93 130 C90 128 86 126 83 125 L78 35 C77 35 76 35 75 35 L75 15 L75 15 L75 16 L75 16 Z " />
<glyph glyph-name="sacute" unicode="&#x15b;" horiz-adv-x="427" d="M207 530 L214 530 L366 671 C371 676 374 690 374 707 L294 707 L207 530 L207 530 Z M61 35 L60 22 C101 3 161 -10 209 -10 C298 -10 357 43 357 122 C357 197 317 239 241 265 C178 286 146 315 146 362 C146 408 172 439 211 439 C218 439 225 438 233 437 C268 429 298 401 311 362 C313 357 315 349 317 343 C319 344 323 344 326 345 C328 346 332 347 335 347 L340 397 C341 397 342 397 343 397 L343 410 L343 410 L344 423 C306 445 252 460 211 460 C131 460 78 409 78 332 C78 262 114 223 185 199 C254 176 290 145 290 96 C290 44 258 9 209 9 C200 9 190 10 179 12 L179 12 C149 17 120 40 106 70 C101 83 93 99 87 112 C85 111 82 110 80 109 C77 109 75 107 72 106 L66 48 C65 48 64 48 63 48 L63 35 L63 35 L61 35 L61 35 Z " />
<glyph glyph-name="Scedilla" unicode="&#x15e;" horiz-adv-x="527" d="M255 -77 L286 -9 C398 -2 472 94 472 235 C472 338 417 411 310 474 C220 528 174 586 174 665 C174 767 213 835 271 835 C302 835 332 834 358 832 C367 829 375 821 379 811 C387 788 399 757 407 733 C411 734 415 736 418 738 C421 739 425 741 429 742 L432 818 L432 818 L432 837 L432 837 L433 856 C424 859 362 862 277 862 C162 862 86 770 86 633 C86 539 137 472 235 413 C335 354 387 292 387 213 C387 95 342 17 274 17 C232 17 186 20 145 25 C141 27 137 31 135 35 C125 66 113 106 104 136 C101 134 97 132 93 131 C90 129 86 127 83 126 L78 36 C77 36 76 36 75 36 L75 16 L75 16 L74 -4 C89 -8 167 -10 269 -10 L213 -131 L228 -138 C263 -146 287 -163 287 -179 C287 -206 280 -225 269 -225 C236 -225 205 -219 193 -209 L193 -215 C213 -230 246 -240 277 -240 C319 -240 347 -209 347 -163 C347 -126 311 -92 256 -77 L255 -77 L255 -77 Z " />
<glyph glyph-name="scedilla" unicode="&#x15f;" horiz-adv-x="427" d="M191 -77 L223 -9 C305 -4 358 48 358 123 C358 198 318 240 242 266 C179 287 147 316 147 363 C147 409 173 440 212 440 C219 440 226 439 234 438 C269 430 299 402 312 363 C314 358 316 350 318 344 C320 345 324 345 327 346 C329 347 333 348 336 348 L341 398 C342 398 343 398 344 398 L344 411 L344 411 L345 424 C307 446 253 461 212 461 C132 461 79 410 79 333 C79 263 115 224 186 200 C255 177 291 146 291 97 C291 45 259 10 210 10 C201 10 191 11 180 13 L180 13 C150 18 121 41 107 71 C102 84 94 100 88 113 C86 112 83 111 81 110 C78 110 76 108 73 107 L67 49 C66 49 65 49 64 49 L64 36 L64 36 L63 23 C102 5 159 -8 206 -9 L150 -130 L165 -137 C201 -145 225 -162 225 -178 C225 -205 218 -224 206 -224 C173 -224 143 -218 130 -208 L130 -214 C150 -229 184 -239 214 -239 C256 -239 284 -208 284 -162 C284 -125 249 -92 194 -77 L191 -77 L191 -77 Z " />
<glyph glyph-name="Scaron" unicode="&#x160;" horiz-adv-x="527" d="M415 1057 L276 900 L260 900 L127 1057 L133 1057 L268 976 L408 1057 L415 1057 L415 1057 Z M75 16 L74 -4 C89 -8 169 -10 273 -10 C392 -10 472 88 472 234 C472 337 417 410 310 473 C220 527 174 585 174 664 C174 766 213 834 271 834 C302 834 332 833 358 831 C367 828 375 820 379 810 C387 787 399 756 407 732 C411 733 415 735 418 737 C421 738 425 740 429 741 L432 817 L432 817 L432 836 L432 836 L433 855 C424 858 362 861 277 861 C162 861 86 769 86 632 C86 538 137 471 235 412 C335 353 387 291 387 212 C387 94 342 16 274 16 C232 16 186 19 145 24 C141 26 137 30 135 34 C125 65 113 105 104 135 C101 133 97 131 93 130 C90 128 86 126 83 125 L78 35 C77 35 76 35 75 35 L75 15 L75 15 L75 16 L75 16 Z " />
<glyph glyph-name="scaron" unicode="&#x161;" horiz-adv-x="427" d="M353 710 L214 535 L198 535 L64 710 L71 710 L206 621 L346 710 L353 710 L353 710 Z M61 35 L60 22 C101 3 161 -10 209 -10 C298 -10 357 43 357 122 C357 197 317 239 241 265 C178 286 146 315 146 362 C146 408 172 439 211 439 C218 439 225 438 233 437 C268 429 298 401 311 362 C313 357 315 349 317 343 C319 344 323 344 326 345 C328 346 332 347 335 347 L340 397 C341 397 342 397 343 397 L343 410 L343 410 L344 423 C306 445 252 460 211 460 C131 460 78 409 78 332 C78 262 114 223 185 199 C254 176 290 145 290 96 C290 44 258 9 209 9 C200 9 190 10 179 12 L179 12 C149 17 120 40 106 70 C101 83 93 99 87 112 C85 111 82 110 80 109 C77 109 75 107 72 106 L66 48 C65 48 64 48 63 48 L63 35 L63 35 L61 35 L61 35 Z " />
<glyph glyph-name="Tcaron" unicode="&#x164;" horiz-adv-x="675" d="M484 1057 L346 900 L329 900 L196 1057 L202 1057 L337 976 L478 1057 L484 1057 L484 1057 Z M338 0 L383 0 L471 0 C471 0 472 1 474 4 C479 13 482 19 483 19 L383 55 L383 821 L546 821 L593 676 C593 676 600 681 610 690 C612 691 613 692 613 692 L626 821 L630 821 L630 850 L629 850 L620 850 L611 850 L579 850 L383 850 L293 850 L96 850 L64 850 L55 850 L46 850 L45 850 L45 821 L49 821 L62 692 C62 692 63 691 65 690 C75 681 82 676 82 676 L129 821 L293 821 L293 55 L193 19 C193 19 196 13 201 4 C203 1 204 0 204 0 L293 0 L338 0 L338 0 Z " />
<glyph glyph-name="tcaron" unicode="&#x165;" horiz-adv-x="354" d="M351 750 L276 750 L254 563 L260 563 L344 719 C348 726 351 739 351 750 L351 750 Z M324 53 L323 59 C314 41 288 30 257 30 C211 30 180 61 180 107 L180 425 L312 425 L312 450 L180 450 L180 560 L174 560 L100 450 L18 428 L18 425 L100 425 L100 90 C100 30 143 -10 208 -10 C259 -10 305 15 324 53 L324 53 Z " />
<glyph glyph-name="Utilde" unicode="&#x168;" horiz-adv-x="801" d="M257 895 C270 934 282 960 321 960 C371 960 407 895 457 895 C506 895 527 945 551 1020 L544 1020 C532 980 519 953 481 953 C430 953 395 1018 344 1018 C295 1018 274 969 250 895 L257 895 L257 895 Z M619 795 L619 795 L620 290 C620 127 540 18 420 18 C308 18 234 138 234 317 L235 795 L235 795 L315 831 C314 831 311 837 307 846 C307 849 306 850 306 850 L235 850 L190 850 L145 850 L73 850 C73 850 72 849 72 846 C68 837 65 831 65 831 L145 795 L145 301 C145 115 247 -10 401 -10 C554 -10 657 115 657 301 L657 795 L737 831 C737 831 734 837 730 846 C728 849 728 850 728 850 L657 850 L638 850 L619 850 L531 850 C531 850 530 849 528 846 C523 837 519 831 519 831 L619 795 L619 795 Z " />
<glyph glyph-name="utilde" unicode="&#x169;" horiz-adv-x="552" d="M127 535 C140 574 152 600 191 600 C241 600 277 535 327 535 C376 535 397 585 422 660 L415 660 C402 620 389 593 351 593 C301 593 265 658 215 658 C165 658 144 609 120 535 L127 535 L127 535 Z M381 400 L381 93 C335 50 287 29 248 29 C201 29 170 79 170 155 L170 450 L130 450 L90 450 L32 450 C32 450 32 449 31 447 C27 438 25 433 25 433 L90 400 L90 107 C90 37 144 -10 224 -10 C265 -10 322 19 380 75 L380 0 L420 0 L460 0 L522 0 C522 0 523 1 524 3 C527 12 530 18 530 18 L460 50 L460 450 L420 450 L380 450 L318 450 C318 450 317 449 316 447 C313 438 310 433 310 433 L381 400 L381 400 Z " />
<glyph glyph-name="Umacron" unicode="&#x16a;" horiz-adv-x="801" d="M278 955 L544 955 L544 1005 L278 1005 L278 955 L278 955 Z M619 795 L619 795 L620 290 C620 127 540 18 420 18 C308 18 234 138 234 317 L235 795 L235 795 L315 831 C314 831 311 837 307 846 C307 849 306 850 306 850 L235 850 L190 850 L145 850 L73 850 C73 850 72 849 72 846 C68 837 65 831 65 831 L145 795 L145 301 C145 115 247 -10 401 -10 C554 -10 657 115 657 301 L657 795 L737 831 C737 831 734 837 730 846 C728 849 728 850 728 850 L657 850 L638 850 L619 850 L531 850 C531 850 530 849 528 846 C523 837 519 831 519 831 L619 795 L619 795 Z " />
<glyph glyph-name="umacron" unicode="&#x16b;" horiz-adv-x="552" d="M138 595 L404 595 L404 645 L138 645 L138 595 L138 595 Z M381 400 L381 93 C335 50 287 29 248 29 C201 29 170 79 170 155 L170 450 L130 450 L90 450 L32 450 C32 450 32 449 31 447 C27 438 25 433 25 433 L90 400 L90 107 C90 37 144 -10 224 -10 C265 -10 322 19 380 75 L380 0 L420 0 L460 0 L522 0 C522 0 523 1 524 3 C527 12 530 18 530 18 L460 50 L460 450 L420 450 L380 450 L318 450 C318 450 317 449 316 447 C313 438 310 433 310 433 L381 400 L381 400 Z " />
<glyph glyph-name="Uring" unicode="&#x16e;" horiz-adv-x="801" d="M408 913 C387 913 370 949 370 990 C370 1028 384 1053 405 1053 C427 1053 442 1022 442 977 C442 942 426 913 408 913 L408 913 Z M320 983 C320 938 359 900 406 900 C452 900 491 939 491 985 C491 1034 457 1066 406 1066 C354 1066 320 1033 320 983 L320 983 Z M619 795 L619 795 L620 290 C620 127 540 18 420 18 C308 18 234 138 234 317 L235 795 L235 795 L315 831 C314 831 311 837 307 846 C307 849 306 850 306 850 L235 850 L190 850 L145 850 L73 850 C73 850 72 849 72 846 C68 837 65 831 65 831 L145 795 L145 301 C145 115 247 -10 401 -10 C554 -10 657 115 657 301 L657 795 L737 831 C737 831 734 837 730 846 C728 849 728 850 728 850 L657 850 L638 850 L619 850 L531 850 C531 850 530 849 528 846 C523 837 519 831 519 831 L619 795 L619 795 Z " />
<glyph glyph-name="uring" unicode="&#x16f;" horiz-adv-x="552" d="M273 548 C253 548 235 584 235 625 C235 663 249 688 270 688 C292 688 307 657 307 612 C307 577 291 548 273 548 L273 548 Z M186 618 C186 573 225 535 271 535 C317 535 356 574 356 620 C356 669 322 701 271 701 C220 701 186 668 186 618 L186 618 Z M381 400 L381 93 C335 50 287 29 248 29 C201 29 170 79 170 155 L170 450 L130 450 L90 450 L32 450 C32 450 32 449 31 447 C27 438 25 433 25 433 L90 400 L90 107 C90 37 144 -10 224 -10 C265 -10 322 19 380 75 L380 0 L420 0 L460 0 L522 0 C522 0 523 1 524 3 C527 12 530 18 530 18 L460 50 L460 450 L420 450 L380 450 L318 450 C318 450 317 449 316 447 C313 438 310 433 310 433 L381 400 L381 400 Z " />
<glyph glyph-name="Ydieresis" unicode="&#x178;" horiz-adv-x="709" d="M452 925 C482 925 502 945 502 975 C502 1005 482 1025 452 1025 C422 1025 402 1005 402 975 C402 945 422 925 452 925 L452 925 Z M272 925 C302 925 322 945 322 975 C322 1005 302 1025 272 1025 C242 1025 222 1005 222 975 C222 945 242 925 272 925 L272 925 Z M86 800 L86 800 L308 396 L308 55 L218 19 C218 19 221 13 226 4 C227 1 228 0 228 0 L308 0 L353 0 L398 0 L478 0 C478 0 479 1 480 4 C485 13 488 19 488 19 L398 55 L398 407 L623 810 L623 810 L677 836 C677 836 676 840 674 846 C673 849 673 850 673 850 L645 850 L627 850 L609 850 L507 850 C507 850 506 849 504 846 L494 831 L579 795 L376 429 L181 795 L262 831 L252 846 C250 849 249 850 249 850 L152 850 L105 850 L59 850 L33 850 C33 850 32 848 32 845 C30 837 28 833 28 833 L86 800 L86 800 Z " />
<glyph glyph-name="Zacute" unicode="&#x179;" horiz-adv-x="646" d="M330 895 L336 895 L488 1022 C494 1026 497 1039 497 1054 L417 1054 L330 895 L330 895 Z M440 821 L108 29 L101 13 L101 0 L108 0 L182 0 L505 0 L537 0 L546 0 L555 0 L556 0 L556 29 L552 29 L540 149 C540 150 539 150 537 151 C527 159 520 165 520 164 L472 29 L194 29 L526 821 L541 850 L526 850 L452 850 L164 850 L132 850 L123 850 L114 850 L113 850 L113 821 L117 821 C121 785 125 742 128 709 C129 709 130 708 131 707 C141 700 148 695 148 695 L197 820 L440 821 L440 821 Z " />
<glyph glyph-name="zacute" unicode="&#x17a;" horiz-adv-x="480" d="M245 530 L252 530 L404 671 C409 676 412 690 412 707 L332 707 L245 530 L245 530 Z M90 438 C88 408 86 368 85 337 C85 337 86 336 88 335 C95 331 100 327 101 326 L139 426 L291 426 L88 24 L81 10 L81 0 L88 0 L164 0 L405 0 L405 12 L405 24 L405 117 L402 120 C393 125 388 129 388 129 L355 24 L176 24 L379 426 L397 450 L379 450 L303 450 L141 450 L101 460 C101 460 98 460 92 459 L91 459 C91 452 90 444 90 438 L90 438 Z M101 326 L101 326 L101 326 Z " />
<glyph glyph-name="Zdot" unicode="&#x17b;" horiz-adv-x="646" d="M339 915 C375 915 399 939 399 975 C399 1011 375 1035 339 1035 C303 1035 279 1011 279 975 C279 939 303 915 339 915 L339 915 Z M440 821 L108 29 L101 13 L101 0 L108 0 L182 0 L505 0 L537 0 L546 0 L555 0 L556 0 L556 29 L552 29 L540 149 C540 150 539 150 537 151 C527 159 520 165 520 164 L472 29 L194 29 L526 821 L541 850 L526 850 L452 850 L164 850 L132 850 L123 850 L114 850 L113 850 L113 821 L117 821 C121 785 125 742 128 709 C129 709 130 708 131 707 C141 700 148 695 148 695 L197 820 L440 821 L440 821 Z " />
<glyph glyph-name="zdot" unicode="&#x17c;" horiz-adv-x="480" d="M249 583 C285 583 309 607 309 643 C309 679 285 703 249 703 C213 703 189 679 189 643 C189 607 213 583 249 583 L249 583 Z M90 438 C88 408 86 368 85 337 C85 337 86 336 88 335 C95 331 100 327 101 326 L139 426 L291 426 L88 24 L81 10 L81 0 L88 0 L164 0 L405 0 L405 12 L405 24 L405 117 L402 120 C393 125 388 129 388 129 L355 24 L176 24 L379 426 L397 450 L379 450 L303 450 L141 450 L101 460 C101 460 98 460 92 459 L91 459 C91 452 90 444 90 438 L90 438 Z M101 326 L101 326 L101 326 Z " />
<glyph glyph-name="Zcaron" unicode="&#x17d;" horiz-adv-x="646" d="M490 1057 L352 900 L336 900 L202 1057 L208 1057 L344 976 L484 1057 L490 1057 L490 1057 Z M440 821 L108 29 L101 13 L101 0 L108 0 L182 0 L505 0 L537 0 L546 0 L555 0 L556 0 L556 29 L552 29 L540 149 C540 150 539 150 537 151 C527 159 520 165 520 164 L472 29 L194 29 L526 821 L541 850 L526 850 L452 850 L164 850 L132 850 L123 850 L114 850 L113 850 L113 821 L117 821 C121 785 125 742 128 709 C129 709 130 708 131 707 C141 700 148 695 148 695 L197 820 L440 821 L440 821 Z " />
<glyph glyph-name="zcaron" unicode="&#x17e;" horiz-adv-x="480" d="M390 710 L252 535 L236 535 L102 710 L109 710 L244 621 L384 710 L390 710 L390 710 Z M90 438 C88 408 86 368 85 337 C85 337 86 336 88 335 C95 331 100 327 101 326 L139 426 L291 426 L88 24 L81 10 L81 0 L88 0 L164 0 L405 0 L405 12 L405 24 L405 117 L402 120 C393 125 388 129 388 129 L355 24 L176 24 L379 426 L397 450 L379 450 L303 450 L141 450 L101 460 C101 460 98 460 92 459 L91 459 C91 452 90 444 90 438 L90 438 Z M101 326 L101 326 L101 326 Z " />
<glyph glyph-name="oogonek" unicode="&#x1eb;" horiz-adv-x="744" d="M737 -120 L737 -112 C732 -115 708 -117 678 -117 C593 -117 492 -73 420 -7 C575 15 675 145 675 332 C675 539 554 678 372 678 C191 678 70 540 70 333 C70 131 185 -4 358 -11 C446 -93 550 -147 623 -147 C664 -147 710 -136 738 -121 L737 -120 L737 -120 Z M383 13 C247 13 157 153 157 364 C157 539 240 655 365 655 C499 655 589 513 589 300 C589 128 507 13 383 13 L383 13 Z " />
<glyph glyph-name="G_sc" unicode="&#x262;" horiz-adv-x="705" d="M585 239 L660 275 C660 275 658 281 653 290 C652 292 652 294 652 294 L585 294 L545 294 L504 294 L429 294 L427 290 C422 281 419 275 419 275 L504 239 L504 37 C455 25 408 17 376 17 C243 17 154 147 154 342 C154 529 246 654 383 654 C417 654 454 652 488 649 L488 648 C493 648 498 644 500 639 C514 604 533 557 547 522 C549 524 553 526 556 528 C558 530 562 532 565 534 L573 672 C556 675 480 678 383 678 C195 678 70 533 70 314 C70 119 187 -11 363 -11 C415 -11 504 6 585 32 L585 239 L585 239 Z " />
<glyph glyph-name="I_sc" unicode="&#x26a;" horiz-adv-x="381" d="M191 0 L231 0 L302 0 C302 0 303 1 304 4 C308 13 311 19 311 19 L231 55 L231 614 L311 650 C311 650 308 656 304 665 C303 668 302 669 302 669 L231 669 L191 669 L150 669 L79 669 C79 669 78 668 77 665 C73 656 70 650 70 650 L150 614 L150 55 L70 19 C70 19 73 13 77 4 C78 1 79 0 79 0 L150 0 L191 0 L191 0 Z " />
<glyph glyph-name="N_sc" unicode="&#x274;" horiz-adv-x="743" d="M604 614 L679 650 C678 650 676 656 672 665 C671 668 670 669 670 669 L604 669 L587 669 L570 669 L481 669 C481 669 480 668 479 665 C474 656 470 650 470 650 L570 614 L570 133 L184 669 L167 669 L150 669 L83 669 C83 669 83 668 82 665 C78 656 75 650 75 650 L150 614 L150 55 L70 19 C70 19 73 13 77 4 C78 1 79 0 79 0 L150 0 L167 0 L184 0 L273 0 C273 0 274 1 275 4 C280 13 284 19 284 19 L184 55 L184 566 L561 17 L576 -5 L604 -5 L604 86 L604 614 L604 614 Z " />
<glyph glyph-name="R_sc" unicode="&#x280;" horiz-adv-x="609" d="M513 0 L560 0 L594 0 C594 0 595 2 595 5 C598 13 599 17 599 17 L530 50 L359 335 C425 361 488 420 488 499 C488 601 415 669 305 669 L226 669 L185 669 L145 669 L73 669 C73 669 72 668 72 665 C68 656 65 650 65 650 L145 614 L145 55 L65 19 C65 19 68 13 72 4 C72 1 73 0 73 0 L145 0 L185 0 L226 0 L292 0 C292 0 293 1 294 4 C298 13 300 19 301 19 L226 55 L226 321 L274 321 L466 0 L513 0 L513 0 Z M338 371 L335 375 L316 358 C302 351 288 347 275 347 L227 347 L227 642 L295 641 C359 641 402 581 402 490 C402 436 373 394 338 370 L338 371 L338 371 Z " />
<glyph glyph-name="Y_sc" unicode="&#x28f;" horiz-adv-x="649" d="M90 619 L90 619 L282 315 L282 55 L192 19 C192 19 195 13 200 4 C201 1 202 0 202 0 L282 0 L323 0 L363 0 L443 0 C444 0 444 1 445 4 C450 13 454 19 453 19 L363 55 L363 324 L559 630 L615 656 C615 656 614 660 612 666 C611 669 611 670 611 670 L584 670 L568 670 L552 670 L450 670 C450 670 449 669 447 666 L437 651 L517 615 L348 349 L179 615 L254 651 C253 651 249 657 244 666 C242 669 241 670 241 670 L144 670 L102 670 L60 670 L35 670 C36 670 35 668 34 665 L31 653 L90 619 L90 619 Z " />
<glyph glyph-name="B_sc" unicode="&#x299;" horiz-adv-x="593" d="M259 358 L226 358 L226 643 L293 642 C365 642 402 581 402 490 C402 411 345 358 259 358 L259 358 Z M358 354 C438 380 487 437 487 512 C487 606 425 668 304 668 L226 668 L185 668 L145 668 L73 668 C73 668 72 667 72 664 C68 655 65 649 65 649 L145 613 L145 54 L65 18 C65 18 68 12 72 3 C72 0 73 -1 73 -1 L145 -1 L185 -1 L226 -1 L304 -1 C448 -1 544 74 544 187 C544 275 481 338 359 354 L358 354 L358 354 Z M227 26 L227 331 L311 331 C409 331 460 271 460 181 C460 88 398 26 305 26 L227 26 L227 26 Z " />
<glyph glyph-name="H_sc" unicode="&#x29c;" horiz-adv-x="747" d="M562 0 L603 0 L674 0 C674 0 674 1 676 4 C680 13 683 19 683 19 L603 55 L603 614 L683 650 C683 650 680 656 676 665 C674 668 674 669 674 669 L603 669 L562 669 L522 669 L451 669 C451 669 450 668 449 665 C445 656 442 650 442 650 L522 614 L522 358 L226 358 L226 614 L306 650 C305 650 302 656 298 665 C298 668 297 669 297 669 L226 669 L185 669 L145 669 L73 669 C73 669 72 668 72 665 C68 656 65 650 65 650 L145 614 L145 55 L65 19 C65 19 68 13 72 4 C72 1 73 0 73 0 L145 0 L185 0 L226 0 L297 0 C297 0 298 1 298 4 C302 13 305 19 306 19 L226 55 L226 331 L522 331 L522 55 L442 19 C442 19 445 13 449 4 C450 1 451 0 451 0 L522 0 L562 0 L562 0 Z " />
<glyph glyph-name="L_sc" unicode="&#x29f;" horiz-adv-x="569" d="M496 26 C492 72 486 129 481 173 C482 173 480 174 479 176 C468 185 461 192 461 191 L416 26 L226 26 L226 614 L311 650 C310 650 307 656 303 665 C302 668 301 669 301 669 L226 669 L185 669 L145 669 L73 669 C73 669 72 668 72 665 C68 656 65 650 65 650 L145 614 L145 55 L65 19 C65 19 68 13 72 4 C72 1 73 0 73 0 L145 0 L165 0 L185 0 L226 0 L448 0 L481 0 L490 0 L498 0 L500 0 L500 26 L496 26 L496 26 Z " />
<glyph glyph-name="A_sc" unicode="&#x1d00;" horiz-adv-x="685" d="M589 45 L589 45 L371 649 L363 674 L319 674 L301 625 L301 625 L87 35 L31 12 C31 12 33 8 35 3 C36 1 36 0 36 0 L74 0 L90 0 L107 0 L195 0 C195 0 196 1 197 3 C203 12 206 18 206 18 L125 50 L200 260 L429 260 L429 261 L503 50 L503 50 L412 18 L422 3 C423 1 424 0 424 0 L521 0 L563 0 L605 0 L646 0 C646 0 646 1 647 4 C649 11 651 16 651 16 L589 45 L589 45 Z M420 286 L209 286 L315 584 L420 286 L420 286 Z " />
<glyph glyph-name="C_sc" unicode="&#x1d04;" horiz-adv-x="648" d="M557 11 L557 11 C567 12 567 13 556 13 L556 30 L556 30 L552 119 C550 121 546 123 544 124 L535 130 C522 99 504 59 490 28 C488 24 485 21 481 20 C443 16 400 14 360 14 C236 14 154 145 154 343 C154 530 242 655 373 655 C403 655 436 653 467 650 C472 649 477 646 479 641 C493 605 512 558 526 523 C528 525 532 527 535 529 C537 531 541 533 544 535 L552 673 C536 676 464 679 372 679 C190 679 69 534 69 315 C69 120 185 -10 359 -10 C458 -10 537 -7 557 -3 L557 11 L557 11 Z " />
<glyph glyph-name="D_sc" unicode="&#x1d05;" horiz-adv-x="712" d="M203 0 L226 0 L332 0 C519 7 643 131 643 364 C643 565 513 669 319 669 L226 669 L185 669 L145 669 L73 669 C73 669 72 668 72 665 C68 656 65 650 65 650 L145 614 L145 55 L65 19 C65 19 68 13 72 4 C72 1 73 0 73 0 L145 0 L185 0 L203 0 L203 0 Z M226 26 L226 643 L306 643 C457 643 558 538 558 333 C558 136 467 31 332 26 L226 26 L226 26 Z " />
<glyph glyph-name="E_sc" unicode="&#x1d07;" horiz-adv-x="589" d="M516 26 C513 61 509 104 505 138 C505 138 504 139 502 139 C492 147 486 152 486 151 L441 26 L226 26 L226 331 L345 331 L387 251 C387 251 394 254 405 259 C408 259 410 260 410 260 L410 331 L410 345 L410 358 L410 429 C410 429 408 430 405 431 C394 435 387 438 387 438 L345 358 L226 358 L226 643 L416 643 L462 528 C462 528 468 532 478 539 C480 539 481 540 481 540 C484 571 488 610 491 643 L495 643 L495 669 L493 669 L485 669 L476 669 L443 669 L226 669 L185 669 L165 669 L145 669 L73 669 C73 669 72 668 72 665 C68 656 65 650 65 650 L145 614 L145 55 L65 19 C65 19 68 13 72 4 C72 1 73 0 73 0 L145 0 L165 0 L185 0 L226 0 L468 0 L501 0 L510 0 L518 0 L520 0 L520 26 L516 26 L516 26 Z " />
<glyph glyph-name="J_sc" unicode="&#x1d0a;" horiz-adv-x="381" d="M150 614 L150 51 C150 -63 123 -138 81 -138 C81 -138 69 -135 50 -130 L44 -130 C39 -130 35 -159 35 -161 C35 -168 47 -173 65 -173 C165 -173 231 -14 231 224 L231 614 L311 650 C311 650 308 656 304 665 C303 668 302 669 302 669 L231 669 L191 669 L150 669 L79 669 C79 669 78 668 77 665 C73 656 70 650 70 650 L150 614 L150 614 Z " />
<glyph glyph-name="K_sc" unicode="&#x1d0b;" horiz-adv-x="677" d="M587 40 L587 40 L289 380 L524 629 L588 655 C588 655 587 659 585 665 L583 669 L561 669 L540 669 L518 669 L412 669 L409 666 C403 658 399 652 398 652 L473 619 L226 343 L515 0 L568 0 L621 0 L645 0 C645 0 645 2 646 4 C648 10 649 14 649 14 L587 40 L587 40 Z M397 652 L397 652 L397 652 Z M185 0 L225 0 L297 0 C297 0 297 1 298 4 C303 13 306 19 305 19 L225 55 L225 614 L305 650 C306 650 303 656 298 665 C297 668 297 669 297 669 L225 669 L185 669 L144 669 L73 669 C73 669 72 668 72 665 C67 656 64 650 64 650 L144 614 L144 55 L64 19 C64 19 67 13 72 4 C72 1 73 0 73 0 L144 0 L185 0 L185 0 Z " />
<glyph glyph-name="M_sc" unicode="&#x1d0d;" horiz-adv-x="907" d="M775 55 L775 55 L754 614 L842 650 C842 650 839 656 834 665 C833 668 832 669 832 669 L752 669 L714 669 L676 669 L478 86 L260 669 L201 669 L188 669 L175 669 L95 669 C94 669 94 668 93 665 C88 656 84 650 85 650 L172 614 L173 614 L149 55 L68 19 C68 19 71 13 75 4 L77 0 L147 0 L162 0 L176 0 L252 0 C252 0 253 1 254 4 C258 13 261 19 261 19 L178 55 L199 607 L429 -4 L470 -4 L679 597 L699 56 L621 20 C621 20 624 14 628 5 C629 2 630 1 630 1 L701 1 L739 1 L777 1 L839 1 C839 1 840 3 840 5 C844 14 847 20 847 20 L775 55 L775 55 Z " />
<glyph glyph-name="O_sc" unicode="&#x1d0f;" horiz-adv-x="744" d="M382 14 C246 14 156 154 156 365 C156 540 239 656 364 656 C498 656 588 514 588 301 C588 129 506 14 382 14 L382 14 Z M70 334 C70 127 191 -10 372 -10 C554 -10 675 127 675 333 C675 540 554 679 372 679 C191 679 70 541 70 334 L70 334 Z " />
<glyph glyph-name="P_sc" unicode="&#x1d18;" horiz-adv-x="593" d="M185 0 L226 0 L310 0 C310 0 311 1 312 4 C317 13 320 19 321 19 L226 55 L226 308 L294 308 C431 308 523 381 523 490 C523 597 441 669 319 669 L226 669 L185 669 L145 669 L73 669 C73 669 72 668 72 665 C68 656 65 650 65 650 L145 614 L145 55 L65 19 C65 19 68 13 72 4 C72 1 73 0 73 0 L145 0 L185 0 L185 0 Z M226 334 L226 643 L308 642 C385 642 436 578 436 483 C436 393 383 334 303 334 L226 334 L226 334 Z " />
<glyph glyph-name="T_sc" unicode="&#x1d1b;" horiz-adv-x="615" d="M308 0 L348 0 L437 0 C437 0 438 1 439 4 C444 13 448 19 448 19 L348 55 L348 643 L486 643 L534 498 C534 498 541 503 551 512 C552 513 554 514 554 514 L567 643 L570 643 L570 669 L569 669 L560 669 L551 669 L519 669 L348 669 L267 669 L96 669 L64 669 L55 669 L46 669 L45 669 L45 643 L48 643 L61 514 C61 514 63 513 64 512 C74 503 81 498 81 498 L129 643 L267 643 L267 55 L167 19 C167 19 171 13 176 4 C177 1 178 0 178 0 L267 0 L308 0 L308 0 Z " />
<glyph glyph-name="U_sc" unicode="&#x1d1c;" horiz-adv-x="743" d="M564 614 L564 614 L565 227 C565 100 495 15 390 15 C292 15 227 110 227 251 L228 614 L228 614 L308 650 C308 650 305 656 301 665 C299 668 299 669 299 669 L228 669 L187 669 L147 669 L76 669 C76 669 75 668 74 665 C70 656 67 650 67 650 L147 614 L147 237 C147 89 237 -10 372 -10 C508 -10 598 89 598 237 L598 614 L678 650 C678 650 675 656 671 665 C670 668 669 669 669 669 L598 669 L581 669 L564 669 L476 669 C476 669 475 668 473 665 C468 656 464 650 464 650 L564 614 L564 614 Z " />
<glyph glyph-name="V_sc" unicode="&#x1d20;" horiz-adv-x="666" d="M542 614 L542 614 L362 111 L184 614 L275 650 C274 650 270 656 265 665 C263 668 262 669 262 669 L165 669 L123 669 L81 669 L38 669 C39 669 38 667 37 665 C34 658 33 652 32 652 L99 619 L99 619 L324 4 L327 -5 L349 -5 L580 629 L634 655 C634 655 633 659 630 666 C630 668 629 669 629 669 L594 669 L578 669 L562 669 L473 669 C473 669 472 668 471 665 C465 656 462 650 462 650 L542 614 L542 614 Z M32 652 L32 652 L32 652 Z " />
<glyph glyph-name="W_sc" unicode="&#x1d21;" horiz-adv-x="910" d="M84 619 L84 619 L266 22 L274 -5 L286 -5 L292 15 L448 549 L637 22 L646 -5 L657 -5 L662 15 L829 629 L891 655 C891 655 889 659 887 666 C886 668 885 669 885 669 L840 669 L824 669 L807 669 L719 669 C719 669 718 668 716 665 C711 656 708 650 707 650 L793 614 L670 145 L475 638 L460 674 L452 674 L445 649 L303 147 L170 614 L264 650 C263 650 259 656 254 665 C252 668 251 669 251 669 L154 669 L112 669 L70 669 L26 669 C27 669 26 668 25 665 C22 657 20 652 20 652 L84 619 L84 619 Z " />
<glyph glyph-name="Z_sc" unicode="&#x1d22;" horiz-adv-x="586" d="M387 643 L108 26 L101 12 L101 0 L108 0 L175 0 L445 0 L477 0 L486 0 L495 0 L496 0 L496 26 L493 26 L480 146 L478 148 C468 157 461 162 461 161 L412 26 L187 26 L466 643 L481 669 L466 669 L399 669 L165 669 L132 669 L123 669 L115 669 L113 669 L113 643 L117 643 C121 608 125 565 128 532 C128 532 129 531 131 530 C141 523 148 518 148 518 L197 643 L387 643 L387 643 Z " />
<glyph glyph-name="Etilde" unicode="&#x1ebc;" horiz-adv-x="649" d="M206 895 C218 934 231 960 270 960 C320 960 356 895 406 895 C455 895 476 945 500 1020 L493 1020 C481 980 468 953 429 953 C379 953 343 1018 293 1018 C244 1018 223 969 199 895 L206 895 L206 895 Z M576 29 C572 65 568 108 564 141 C565 142 564 142 562 143 C552 151 546 156 546 155 L500 30 L235 30 L235 424 L405 424 L447 344 C447 344 454 347 465 351 C468 352 470 353 470 353 L470 424 L470 439 L470 454 L470 525 C470 524 468 525 465 526 C454 530 447 533 447 534 L405 454 L235 454 L235 822 L475 822 L522 707 C522 707 528 711 538 718 C540 718 540 719 540 719 C543 750 547 789 550 822 L554 822 L554 851 L552 851 L544 851 L535 851 L502 851 L234 851 L189 851 L166 851 L144 851 L72 851 C72 851 71 850 71 847 C67 838 64 832 64 832 L144 796 L144 56 L64 20 C64 20 67 14 71 5 C71 2 72 1 72 1 L144 1 L166 1 L189 1 L234 1 L527 1 L560 1 L569 1 L577 1 L579 1 L579 30 L576 29 L576 29 Z " />
<glyph glyph-name="endash" unicode="&#x2013;" horiz-adv-x="500" d="M50 242 L450 242 L450 292 L50 292 L50 242 L50 242 Z " />
<glyph glyph-name="emdash" unicode="&#x2014;" horiz-adv-x="1000" d="M50 242 L950 242 L950 292 L50 292 L50 242 L50 242 Z " />
<glyph glyph-name="quoteleft" unicode="&#x2018;" horiz-adv-x="231" d="M108 490 C119 486 129 483 135 483 C146 483 156 492 161 505 L179 553 L179 565 L142 584 C110 596 88 628 88 665 C88 696 124 725 179 739 L179 750 C105 731 56 688 56 641 C56 562 77 501 108 490 L108 490 Z " />
<glyph glyph-name="quoteright" unicode="&#x2019;" horiz-adv-x="231" d="M127 750 C116 754 106 757 100 757 C89 757 79 748 74 735 L56 687 L56 675 L93 656 C125 644 147 612 147 575 C147 544 111 515 56 501 L56 490 C130 509 179 552 179 599 C179 678 158 739 127 750 L127 750 Z " />
<glyph glyph-name="quotedblleft" unicode="&#x201c;" horiz-adv-x="408" d="M108 490 C119 486 129 483 135 483 C146 483 156 492 161 505 L179 553 L179 565 L142 584 C110 596 88 628 88 665 C88 696 124 725 179 739 L179 750 C105 731 56 688 56 641 C56 562 77 501 108 490 L108 490 Z M285 490 C296 486 306 483 312 483 C323 483 333 492 338 505 L356 553 L356 565 L319 584 C287 596 265 628 265 665 C265 696 301 725 356 739 L356 750 C282 731 233 688 233 641 C233 562 254 501 285 490 L285 490 Z " />
<glyph glyph-name="quotedblright" unicode="&#x201d;" horiz-adv-x="408" d="M304 750 C293 754 283 757 277 757 C266 757 256 748 251 735 L233 687 L233 675 L270 656 C302 644 324 612 324 575 C324 544 288 515 233 501 L233 490 C307 509 356 552 356 599 C356 678 335 739 304 750 L304 750 Z M127 750 C116 754 106 757 100 757 C89 757 79 748 74 735 L56 687 L56 675 L93 656 C125 644 147 612 147 575 C147 544 111 515 56 501 L56 490 C130 509 179 552 179 599 C179 678 158 739 127 750 L127 750 Z " />
<glyph glyph-name="bullet" unicode="&#x2022;" horiz-adv-x="500" d="M250 150 C322 150 370 198 370 270 C370 342 322 390 250 390 C178 390 130 342 130 270 C130 198 178 150 250 150 L250 150 Z " />
<glyph glyph-name="ellipsis" unicode="&#x2026;" horiz-adv-x="650" d="M525 -10 C561 -10 585 14 585 50 C585 86 561 110 525 110 C489 110 465 86 465 50 C465 14 489 -10 525 -10 L525 -10 Z M325 -10 C361 -10 385 14 385 50 C385 86 361 110 325 110 C289 110 265 86 265 50 C265 14 289 -10 325 -10 L325 -10 Z M125 -10 C161 -10 185 14 185 50 C185 86 161 110 125 110 C89 110 65 86 65 50 C65 14 89 -10 125 -10 L125 -10 Z " />
<glyph glyph-name="guilsinglleft" unicode="&#x2039;" horiz-adv-x="240" d="M215 425 L15 248 L215 70 L221 70 L115 248 L221 425 L215 425 L215 425 Z " />
<glyph glyph-name="guilsinglright" unicode="&#x203a;" horiz-adv-x="250" d="M20 425 L130 248 L20 70 L26 70 L230 248 L26 425 L20 425 L20 425 Z " />
<glyph glyph-name="Euro" unicode="&#x20ac;" horiz-adv-x="498" d="M182 355 C180 385 179 417 179 450 C179 468 179 486 180 503 L358 503 L358 527 L181 527 C191 722 240 847 310 847 C320 847 355 826 397 794 L428 749 L435 749 L463 785 C468 792 472 803 472 813 C472 828 467 842 460 847 C452 854 401 858 333 858 C205 858 114 730 90 527 L10 527 L10 503 L88 503 C85 475 84 445 84 414 C84 393 84 373 85 353 L10 353 L10 330 L87 330 C100 122 167 -12 311 -12 C402 -12 468 -9 478 -3 L482 9 L478 9 L478 7 C463 3 414 1 352 1 C247 1 196 129 183 330 L358 330 L358 353 L182 355 L182 355 Z " />
<glyph glyph-name="F_sc" unicode="&#xa730;" horiz-adv-x="554" d="M345 331 L387 251 C387 251 394 254 405 259 C408 259 410 260 410 260 L410 331 L410 345 L410 358 L410 429 C410 429 408 430 405 431 C394 435 387 438 387 438 L345 358 L226 358 L226 643 L406 643 L452 528 C452 528 458 532 468 539 C470 539 471 540 471 540 C474 571 478 610 481 643 L485 643 L485 669 L483 669 L475 669 L466 669 L433 669 L226 669 L185 669 L165 669 L145 669 L73 669 C73 669 72 668 72 665 C68 656 65 650 65 650 L145 614 L145 55 L65 19 C65 19 68 13 72 4 C72 1 73 0 73 0 L145 0 L185 0 L226 0 L310 0 C310 0 311 1 312 4 C317 13 320 19 321 19 L226 55 L226 331 L345 331 L345 331 Z " />
<glyph glyph-name="S_sc" unicode="&#xa731;" horiz-adv-x="463" d="M75 14 L74 -4 C89 -7 156 -10 242 -10 C341 -10 408 69 408 187 C408 266 363 324 274 379 C202 423 165 468 165 526 C165 604 194 656 237 656 C256 656 275 655 293 653 C302 651 310 644 313 635 C322 611 334 579 342 555 C346 556 350 558 353 559 C356 560 360 562 364 563 L367 639 L367 639 L367 656 L367 656 L368 672 C358 676 308 679 241 679 C147 679 85 606 85 497 C85 425 127 371 208 321 C288 271 330 223 330 166 C330 74 295 13 242 13 C211 13 176 16 143 20 L143 20 C138 20 133 24 132 29 C122 60 110 100 101 131 C98 130 94 128 90 126 C87 125 83 123 79 121 L75 32 C74 32 73 32 72 32 L72 14 L75 14 L75 14 Z " />
</font>
</svg>
