<?xml version="1.0" encoding="UTF-8"?>
<svg xmlns="http://www.w3.org/2000/svg" xmlns:xlink="http://www.w3.org/1999/xlink" version="1.2" >
<font id="Jesusa Light">
<font-face  font-family="Jesusa" units-per-em="1024" ascent="936" descent="-280" font-style="normal" font-weight="300" font-stretch="normal" cap-height="660" x-height="500" underline-position="-125" underline-thickness="50" />
<missing-glyph  horiz-adv-x="650" d="" />
<glyph glyph-name="NULL" d="" />
<glyph glyph-name="CR" unicode="&#xd;" horiz-adv-x="256" d="" />
<glyph glyph-name="space" unicode="&#x20;" horiz-adv-x="248" d="" />
<glyph glyph-name="exclam" unicode="&#x21;" horiz-adv-x="183" d="M96 -5 C118 -5 132 9 132 31 C132 53 118 67 96 67 C74 67 60 53 60 31 C60 9 74 -5 96 -5 L96 -5 Z M123 620 C125 647 113 665 93 665 C73 665 60 647 62 620 L93 142 L99 142 L123 620 L123 620 Z " />
<glyph glyph-name="quotedbl" unicode="&#x22;" horiz-adv-x="237" d="M134 660 L161 471 L170 471 L197 660 L134 660 L134 660 Z M40 660 L67 471 L76 471 L104 660 L40 660 L40 660 Z " />
<glyph glyph-name="numbersign" unicode="&#x23;" horiz-adv-x="527" d="M385 681 L357 479 L214 479 L243 681 L224 681 L195 479 L65 479 L60 441 L190 441 L158 219 L26 219 L20 181 L153 181 L127 0 L146 0 L172 181 L316 181 L290 0 L309 0 L335 181 L458 181 L464 219 L340 219 L372 441 L503 441 L508 479 L377 479 L406 681 L385 681 L385 681 Z M209 441 L352 441 L321 219 L177 219 L209 441 L209 441 Z " />
<glyph glyph-name="dollar" unicode="&#x24;" horiz-adv-x="500" d="M268 735 L268 665 C258 665 248 665 238 665 C226 665 214 664 203 662 L203 735 L187 735 L187 660 C103 641 50 574 50 482 C50 421 103 361 187 325 L187 13 C141 15 98 18 66 22 C61 66 53 126 48 170 L45 170 L43 170 L43 6 L45 16 L45 16 L43 6 C66 2 120 -1 187 -2 L187 -73 L203 -73 L203 -2 C223 -2 244 -2 266 -2 L266 -72 L282 -72 L282 -2 C386 4 454 71 454 170 C454 244 385 314 282 349 L282 651 C321 649 361 645 394 640 C400 596 408 536 413 492 L415 492 L418 492 L418 656 L416 646 L416 646 L418 656 C393 660 341 663 282 664 L282 734 L268 735 L268 735 Z M202 377 L202 647 C212 649 223 650 234 650 C244 650 255 650 266 650 L266 353 C243 360 222 368 203 377 L202 377 L202 377 Z M187 385 C126 418 89 461 89 502 C89 574 127 626 187 644 L187 385 L187 385 Z M203 316 C211 313 219 310 228 307 C242 303 255 299 267 294 L267 8 C246 8 224 8 203 9 L203 316 L203 316 Z M283 287 C364 251 415 197 415 144 C415 68 363 15 283 9 L283 287 L283 287 Z " />
<glyph glyph-name="ampersand" unicode="&#x26;" horiz-adv-x="701" d="M267 376 C378 403 450 469 450 547 C450 617 393 664 309 664 C224 664 167 600 167 503 C167 468 185 422 216 368 C116 329 50 248 50 159 C50 59 133 -7 258 -7 C344 -7 416 19 467 65 C562 -13 628 -15 702 -2 L702 6 C647 -3 594 3 496 96 C530 140 549 197 549 262 L549 292 C549 359 561 372 580 372 L669 372 L669 374 L669 377 L549 377 L428 377 L428 374 L428 372 L518 372 C530 372 538 359 538 292 L538 262 C538 199 520 145 488 104 C457 134 422 172 381 221 C335 275 296 327 266 374 L267 376 L267 376 Z M261 381 C225 439 204 488 204 524 C204 600 244 651 303 651 C367 651 409 607 409 542 C409 468 351 406 260 381 L261 381 L261 381 Z M456 72 C412 35 353 14 283 14 C170 14 95 79 95 177 C95 255 144 325 219 357 C250 306 292 249 342 189 C384 139 421 101 455 72 L456 72 L456 72 Z " />
<glyph glyph-name="quotesingle" unicode="&#x27;" horiz-adv-x="143" d="M40 660 L67 471 L76 471 L104 660 L40 660 L40 660 Z " />
<glyph glyph-name="parenleft" unicode="&#x28;" horiz-adv-x="199" d="M183 690 C109 602 60 483 60 270 C60 57 109 -62 183 -150 L190 -145 C135 -79 99 31 99 270 C99 509 135 619 190 685 L183 690 L183 690 Z " />
<glyph glyph-name="parenright" unicode="&#x29;" horiz-adv-x="199" d="M10 -150 C84 -62 133 57 134 270 C133 483 84 602 10 690 L4 685 C58 619 95 509 95 270 C95 31 58 -79 4 -145 L10 -150 L10 -150 Z " />
<glyph glyph-name="asterisk" unicode="&#x2a;" horiz-adv-x="268" d="M147 540 L38 493 C28 489 24 480 29 470 C35 461 45 460 54 467 L149 537 L135 420 C133 409 139 401 150 401 C161 401 167 409 165 420 L151 537 L246 467 C255 460 265 461 271 470 C276 480 272 489 262 493 L153 540 L262 587 C272 591 276 600 271 610 C265 619 255 620 246 613 L151 543 L165 660 C167 671 161 679 150 679 C139 679 133 671 135 660 L149 543 L54 613 C45 620 35 619 29 610 C24 600 28 591 38 587 L147 540 L147 540 Z " />
<glyph glyph-name="plus" unicode="&#x2b;" horiz-adv-x="549" d="M260 447 L260 261 L75 261 L75 239 L260 239 L260 53 L285 53 L285 239 L470 239 L470 261 L285 261 L285 447 L260 447 L260 447 Z " />
<glyph glyph-name="comma" unicode="&#x2c;" horiz-adv-x="188" d="M120 3 C128 9 132 19 132 31 C132 53 118 67 96 67 C74 67 60 53 60 31 C60 20 63 11 69 5 L66 2 C92 -26 109 -39 109 -31 C109 -56 93 -79 70 -90 L74 -98 C113 -79 139 -42 139 -6 C139 -11 132 -7 120 3 L120 3 Z " />
<glyph glyph-name="hyphen" unicode="&#x2d;" horiz-adv-x="273" d="M20 216 L253 216 L253 254 L20 254 L20 216 L20 216 Z " />
<glyph glyph-name="period" unicode="&#x2e;" horiz-adv-x="221" d="M125 -5 C147 -5 161 9 161 31 C161 53 147 67 125 67 C103 67 89 53 89 31 C89 9 103 -5 125 -5 L125 -5 Z " />
<glyph glyph-name="slash" unicode="&#x2f;" horiz-adv-x="332" d="M0 -145 L22 -145 L332 710 L310 710 L0 -145 L0 -145 Z " />
<glyph glyph-name="zero" unicode="0" horiz-adv-x="593" d="M297 6 C182 6 106 104 106 250 C106 396 182 494 297 494 C412 494 488 396 488 250 C488 104 412 6 297 6 L297 6 Z M50 250 C50 97 149 -5 297 -5 C445 -5 544 97 544 250 C544 403 445 505 297 505 C149 505 50 403 50 250 L50 250 Z " />
<glyph glyph-name="one" unicode="1" horiz-adv-x="349" d="M175 0 L200 0 L294 0 L294 3 L294 5 L200 5 L200 495 L294 495 L294 497 L294 500 L200 500 L175 500 L150 500 L55 500 L55 497 L55 495 L150 495 L150 5 L55 5 L55 3 L55 0 L150 0 L175 0 L175 0 Z " />
<glyph glyph-name="two" unicode="2" horiz-adv-x="476" d="M442 25 L452 145 L450 145 L447 145 L439 50 L102 50 C294 172 418 242 418 348 C418 442 355 504 261 504 C183 504 106 445 70 357 L77 353 C104 421 168 467 237 467 C312 467 362 413 362 331 C362 200 227 143 24 10 L24 -1 L439 -1 L442 25 L442 25 Z " />
<glyph glyph-name="three" unicode="3" horiz-adv-x="450" d="M25 -215 C251 -203 401 -101 401 41 C401 139 320 206 199 209 C295 256 354 317 354 375 C354 452 299 504 217 504 C143 504 60 452 9 375 L16 371 C54 429 124 468 191 468 C259 468 304 424 304 358 C304 297 242 235 145 195 C132 190 116 184 99 178 L99 169 C102 170 105 171 108 172 C128 178 154 182 177 182 C279 182 347 124 347 37 C347 -99 218 -197 24 -208 L25 -215 L25 -215 Z " />
<glyph glyph-name="four" unicode="4" horiz-adv-x="482" d="M47 22 L316 417 L315 416 L315 22 L47 22 L47 22 Z M315 0 L315 -150 L365 -150 L365 0 L472 0 L472 22 L365 22 L365 416 L365 490 L365 505 L357 505 L20 8 L20 0 L30 0 L32 0 L315 0 L315 0 Z " />
<glyph glyph-name="five" unicode="5" horiz-adv-x="435" d="M380 500 L380 500 C390 531 402 566 411 595 L409 595 L406 595 L375 500 L103 500 L88 500 L69 221 L82 221 L131 221 C254 221 336 154 336 55 C336 -75 214 -166 32 -173 L32 -182 C244 -174 386 -73 386 71 C386 190 294 270 156 270 L86 270 L99 447 L364 447 L380 500 L380 500 Z " />
<glyph glyph-name="six" unicode="6" horiz-adv-x="565" d="M502 715 C243 706 71 540 71 299 C71 117 159 -5 292 -5 C433 -5 522 83 515 216 C515 342 437 427 319 427 C231 427 161 368 128 272 C129 287 130 303 130 316 C130 543 279 699 502 707 L502 715 L502 715 Z M127 231 C152 343 221 414 311 414 C402 414 463 334 463 213 C469 91 403 9 297 9 C200 9 134 97 128 231 L127 231 L127 231 Z " />
<glyph glyph-name="seven" unicode="7" horiz-adv-x="433" d="M28 473 C24 437 20 390 17 354 L20 354 L23 354 L31 449 L398 449 L129 -140 L184 -140 L406 449 L423 495 L420 500 L30 500 L28 473 L28 473 Z " />
<glyph glyph-name="eight" unicode="8" horiz-adv-x="534" d="M313 350 C300 354 287 357 273 360 C188 377 132 439 132 515 C132 598 187 654 269 654 C355 654 412 596 412 509 C412 430 373 370 312 350 L313 350 L313 350 Z M320 348 C401 370 452 434 452 518 C452 607 380 666 271 666 C162 666 90 598 90 496 C90 420 138 356 214 325 C122 312 63 251 63 164 C63 63 147 -4 273 -4 C400 -4 484 68 484 175 C484 251 420 317 320 349 L320 348 L320 348 Z M221 322 C234 317 248 313 263 310 C368 290 438 229 438 158 C438 67 374 7 277 7 C177 7 111 73 111 172 C111 252 154 309 221 322 L221 322 Z " />
<glyph glyph-name="nine" unicode="9" horiz-adv-x="565" d="M63 -215 C322 -206 494 -40 494 201 C494 383 406 505 274 505 C133 505 43 417 50 284 C50 158 129 73 246 73 C334 73 404 132 437 228 C436 213 435 197 436 184 C435 -43 286 -199 63 -207 L63 -215 L63 -215 Z M438 269 C413 157 344 86 255 86 C163 86 102 166 103 287 C96 409 163 491 268 491 C365 491 431 403 437 269 L438 269 L438 269 Z " />
<glyph glyph-name="colon" unicode="&#x3a;" horiz-adv-x="221" d="M125 364 C147 364 161 378 161 400 C161 422 147 436 125 436 C103 436 89 422 89 400 C89 378 103 364 125 364 L125 364 Z M125 -5 C147 -5 161 9 161 31 C161 53 147 67 125 67 C103 67 89 53 89 31 C89 9 103 -5 125 -5 L125 -5 Z " />
<glyph glyph-name="semicolon" unicode="&#x3b;" horiz-adv-x="188" d="M96 364 C118 364 132 378 132 400 C132 422 118 436 96 436 C74 436 60 422 60 400 C60 378 74 364 96 364 L96 364 Z M120 3 C128 9 132 19 132 31 C132 53 118 67 96 67 C74 67 60 53 60 31 C60 20 63 11 69 5 L66 2 C92 -26 109 -39 109 -31 C109 -56 93 -79 70 -90 L74 -98 C113 -79 139 -42 139 -6 C139 -11 132 -7 120 3 L120 3 Z " />
<glyph glyph-name="less" unicode="&#x3c;" horiz-adv-x="530" d="M455 500 L46 290 L40 287 L40 263 L46 260 L455 50 L455 75 L62 275 L455 475 L455 500 L455 500 Z " />
<glyph glyph-name="equal" unicode="&#x3d;" horiz-adv-x="522" d="M78 211 L78 189 L452 189 L452 211 L78 211 L78 211 Z M78 311 L78 289 L452 289 L452 311 L78 311 L78 311 Z " />
<glyph glyph-name="greater" unicode="&#x3e;" horiz-adv-x="524" d="M460 275 L75 75 L75 50 L475 260 L485 266 L485 284 L475 290 L75 500 L75 475 L460 275 L460 275 Z " />
<glyph glyph-name="question" unicode="&#x3f;" horiz-adv-x="361" d="M138 -5 C160 -5 175 9 175 31 C175 53 160 67 138 67 C117 67 102 53 102 31 C102 9 117 -5 138 -5 L138 -5 Z M151 329 L186 329 C304 329 326 403 326 445 C326 577 245 665 123 665 C74 665 41 638 41 598 C41 590 52 585 69 585 C97 585 111 626 139 626 C245 626 315 556 315 450 C315 421 292 368 169 368 L134 368 C128 368 124 365 124 360 L135 147 L142 147 L151 329 L151 329 Z " />
<glyph glyph-name="at" unicode="&#x40;" horiz-adv-x="1131" d="M1036 0 C969 -143 784 -239 573 -239 C286 -239 94 -40 94 259 C94 558 283 757 566 757 C849 757 1038 591 1038 343 C1038 140 961 4 845 4 C726 4 666 82 696 200 L766 480 L718 480 L695 389 C683 451 636 491 570 491 C405 491 295 374 295 198 C295 88 363 14 465 14 C539 14 605 61 641 136 C646 45 718 -12 837 -12 C981 -12 1077 130 1077 344 C1077 600 873 771 567 771 C260 771 56 567 56 260 C56 -47 263 -251 574 -251 C791 -251 983 -150 1054 1 L1036 0 L1036 0 Z M688 357 L649 201 C626 106 563 42 492 42 C408 42 351 108 351 208 C351 369 439 477 571 477 C641 477 688 429 688 357 L688 357 Z " />
<glyph glyph-name="A" unicode="A" horiz-adv-x="655" d="M109 5 L109 5 L185 236 L434 236 L516 5 L516 5 L390 5 L390 3 L390 0 L518 0 L548 0 L579 0 L658 0 L658 3 L658 5 L577 5 L331 675 L317 675 L92 5 L-3 5 L-3 3 L-3 0 L90 0 L99 0 L108 0 L238 0 L238 3 L238 5 L109 5 L109 5 Z M429 251 L191 251 L306 600 L429 251 L429 251 Z " />
<glyph glyph-name="B" unicode="B" horiz-adv-x="609" d="M338 358 C331 358 324 358 316 358 L239 356 L201 356 L201 646 L339 646 C424 646 480 592 480 511 C480 427 425 368 338 358 L338 358 Z M379 355 C475 373 535 431 535 511 C535 600 456 660 338 660 L200 660 L173 660 L145 660 L50 660 L50 657 L50 655 L145 655 L145 5 L50 5 L50 3 L50 0 L145 0 L173 0 L200 0 L363 0 C498 0 588 72 588 180 C588 273 507 339 379 355 L379 355 Z M200 348 L298 348 C437 348 530 281 530 181 C530 82 461 15 357 15 L200 15 L200 348 L200 348 Z " />
<glyph glyph-name="C" unicode="C" horiz-adv-x="712" d="M652 14 L651 22 L651 22 L652 14 L652 14 Z M652 14 L652 173 L650 173 L647 173 C642 129 634 70 629 25 C561 15 470 8 393 8 C231 8 122 136 122 329 C122 522 231 650 393 650 C470 650 561 643 629 633 C634 588 642 529 647 485 L650 485 L652 485 L652 644 L651 636 L651 636 L652 644 C586 655 483 663 394 663 C195 663 62 529 62 328 C62 127 195 -7 394 -7 C483 -7 586 1 652 12 L652 14 L652 14 Z " />
<glyph glyph-name="D" unicode="D" horiz-adv-x="705" d="M174 0 L201 0 L359 0 C537 0 656 132 656 330 C656 528 521 660 319 660 L201 660 L174 660 L146 660 L51 660 L51 657 L51 655 L146 655 L146 5 L51 5 L51 3 L51 0 L146 0 L174 0 L174 0 Z M201 14 L201 646 L319 646 C488 646 600 520 600 330 C600 140 504 14 359 14 L201 14 L201 14 Z " />
<glyph glyph-name="E" unicode="E" horiz-adv-x="615" d="M473 660 L473 653 L471 653 L471 660 L190 660 L162 660 L135 660 L40 660 L40 657 L40 655 L135 655 L135 5 L40 5 L40 3 L40 0 L135 0 L162 0 L190 0 L478 0 L480 0 L481 0 L483 0 C483 2 484 5 484 7 C493 55 504 120 513 169 L512 169 L509 169 L466 14 L190 14 L190 345 L404 345 L412 240 L415 240 L416 240 L416 345 L416 352 L416 359 L416 454 L415 454 L412 454 L404 359 L190 359 L190 646 L458 646 L474 491 L477 491 L478 491 L478 653 L478 660 L475 660 L473 660 L473 660 Z " />
<glyph glyph-name="F" unicode="F" horiz-adv-x="511" d="M503 660 L503 653 L501 653 L501 660 L190 660 L162 660 L135 660 L40 660 L40 657 L40 655 L135 655 L135 5 L40 5 L40 3 L40 0 L135 0 L162 0 L190 0 L295 0 L295 3 L295 5 L190 5 L190 340 L394 340 L402 235 L405 235 L406 235 L406 340 L406 347 L406 354 L406 449 L405 449 L402 449 L394 354 L190 354 L190 646 L488 646 L504 491 L507 491 L508 491 L508 653 L508 660 L505 660 L503 660 L503 660 Z " />
<glyph glyph-name="G" unicode="G" horiz-adv-x="829" d="M589 305 L589 49 C529 24 452 9 383 9 C227 9 123 137 123 330 C123 523 227 651 383 651 C455 651 542 644 609 634 C614 589 622 530 627 486 L630 486 L632 486 L632 645 L631 637 L631 637 L632 645 C566 656 466 664 383 664 C190 664 62 530 62 329 C62 128 190 -6 383 -6 C472 -6 574 19 639 56 L639 304 L733 304 L733 306 L733 309 L639 309 L614 309 L589 309 L494 309 L494 306 L494 304 L589 305 L589 305 Z " />
<glyph glyph-name="H" unicode="H" horiz-adv-x="802" d="M640 0 L668 0 L763 0 L763 3 L763 5 L668 5 L668 655 L763 655 L763 657 L763 660 L668 660 L640 660 L613 660 L518 660 L518 657 L518 655 L613 655 L613 354 L190 354 L190 655 L285 655 L285 657 L285 660 L190 660 L162 660 L135 660 L40 660 L40 657 L40 655 L135 655 L135 5 L40 5 L40 3 L40 0 L135 0 L162 0 L190 0 L285 0 L285 3 L285 5 L190 5 L190 340 L613 340 L613 5 L518 5 L518 3 L518 0 L613 0 L640 0 L640 0 Z " />
<glyph glyph-name="I" unicode="I" horiz-adv-x="324" d="M162 0 L190 0 L285 0 L285 3 L285 5 L190 5 L190 655 L285 655 L285 657 L285 660 L190 660 L162 660 L135 660 L40 660 L40 657 L40 655 L135 655 L135 5 L40 5 L40 3 L40 0 L135 0 L162 0 L162 0 Z " />
<glyph glyph-name="J" unicode="J" horiz-adv-x="381" d="M191 655 L191 200 C191 57 168 1 109 1 C79 1 54 21 47 50 C44 63 34 72 22 72 C5 72 -4 63 0 50 C9 14 47 -10 95 -10 C204 -10 247 62 247 247 L247 655 L341 655 L341 657 L341 660 L247 660 L219 660 L191 660 L97 660 L97 657 L97 655 L191 655 L191 655 Z " />
<glyph glyph-name="K" unicode="K" horiz-adv-x="658" d="M649 -5 L649 6 L644 6 C615 6 551 63 413 210 L251 383 L541 655 L635 655 L635 657 L635 660 L546 660 L536 660 L526 660 L432 660 L432 657 L432 655 L521 655 L200 355 L200 655 L295 655 L295 657 L295 660 L200 660 L173 660 L145 660 L50 660 L50 657 L50 655 L145 655 L145 5 L50 5 L50 3 L50 0 L145 0 L173 0 L200 0 L295 0 L295 3 L295 5 L200 5 L200 355 L209 344 L210 345 L371 172 C491 45 562 -5 626 -5 L649 -5 L649 -5 Z " />
<glyph glyph-name="L" unicode="L" horiz-adv-x="615" d="M484 7 C493 57 505 124 514 175 C514 175 513 175 513 177 C511 180 509 182 509 183 L466 14 L190 14 L190 655 L285 655 L285 657 L285 660 L190 660 L162 660 L135 660 L40 660 L40 657 L40 655 L135 655 L135 5 L40 5 L40 3 L40 0 L135 0 L162 0 L190 0 L478 0 L480 0 L481 0 L483 0 C483 2 484 5 484 7 L484 7 Z M509 183 L509 183 L509 183 Z " />
<glyph glyph-name="M" unicode="M" horiz-adv-x="864" d="M757 5 L757 5 L727 655 L821 655 L821 657 L821 660 L727 660 L702 660 L696 660 L677 660 L447 64 L202 660 L175 660 L167 660 L159 660 L64 660 L64 657 L64 655 L159 655 L134 5 L134 5 L39 5 L39 3 L39 0 L134 0 L142 0 L150 0 L280 0 L280 3 L280 5 L151 5 L150 5 L172 590 L409 22 L420 -5 L445 61 L446 63 L446 63 L445 62 L419 -5 L433 -5 L678 616 L700 5 L606 5 L606 3 L606 0 L700 0 L728 0 L756 0 L850 0 L850 3 L850 5 L757 5 L757 5 Z " />
<glyph glyph-name="N" unicode="N" horiz-adv-x="738" d="M584 655 L584 82 L187 660 L154 637 L154 637 L187 660 L154 660 L146 660 L137 660 L43 660 L43 657 L43 655 L137 655 L137 5 L43 5 L43 3 L43 0 L137 0 L146 0 L154 0 L249 0 L249 3 L249 5 L154 5 L154 611 L559 22 L582 -11 L601 -11 L601 42 L601 655 L696 655 L696 657 L696 660 L601 660 L593 660 L584 660 L490 660 L490 657 L490 655 L584 655 L584 655 Z " />
<glyph glyph-name="O" unicode="O" horiz-adv-x="753" d="M383 9 C211 9 123 157 123 330 C123 503 211 651 383 651 C555 651 643 503 643 330 C643 157 555 9 383 9 L383 9 Z M62 330 C62 149 171 -5 383 -5 C595 -5 704 149 704 330 C704 511 595 665 383 665 C171 665 62 511 62 330 L62 330 Z " />
<glyph glyph-name="P" unicode="P" horiz-adv-x="584" d="M174 0 L201 0 L296 0 L296 3 L296 5 L201 5 L201 298 L321 298 C467 298 564 370 564 478 C564 587 479 660 352 660 L201 660 L174 660 L146 660 L51 660 L51 657 L51 655 L146 655 L146 5 L51 5 L51 3 L51 0 L146 0 L174 0 L174 0 Z M201 311 L201 646 L352 646 C444 646 506 579 506 478 C506 378 432 311 321 311 L201 311 L201 311 Z " />
<glyph glyph-name="Q" unicode="Q" horiz-adv-x="753" d="M794 -51 L788 -47 C766 -74 704 -92 634 -92 C524 -92 444 -57 388 -5 C597 -2 704 151 704 331 C704 512 595 666 383 666 C171 666 62 512 62 331 C62 154 166 3 368 -4 C444 -78 532 -127 628 -127 C689 -127 755 -96 794 -50 L794 -51 L794 -51 Z M383 10 C211 10 123 158 123 331 C123 504 211 652 383 652 C555 652 643 504 643 331 C643 158 555 10 383 10 L383 10 Z " />
<glyph glyph-name="R" unicode="R" horiz-adv-x="644" d="M644 0 L644 11 L639 11 C620 11 616 14 548 95 L360 320 C469 334 539 398 539 489 C539 591 459 659 339 659 L201 659 L174 659 L146 659 L51 659 L51 656 L51 654 L146 654 L146 4 L51 4 L51 2 L51 -1 L146 -1 L174 -1 L201 -1 L296 -1 L296 2 L296 4 L201 4 L201 316 L296 316 L472 105 C557 3 563 -1 623 -1 L644 0 L644 0 Z M312 329 L285 329 L201 329 L201 645 L339 645 C424 645 481 582 481 489 C481 393 413 329 312 329 L312 329 Z " />
<glyph glyph-name="S" unicode="S" horiz-adv-x="500" d="M396 640 C402 596 410 536 415 492 L417 492 L420 492 L420 656 L418 646 L418 646 L420 656 C389 661 316 665 239 665 C126 665 51 591 51 481 C51 410 122 341 229 308 C341 275 416 209 416 145 C416 64 357 9 268 9 C195 9 117 14 67 21 C62 65 54 125 49 169 L46 169 L44 169 L44 5 L46 15 L46 15 L44 5 C75 0 165 -4 268 -4 C381 -4 456 65 456 169 C456 246 382 319 272 353 C163 386 90 447 90 504 C90 593 148 652 236 652 C287 652 348 647 395 641 L396 640 L396 640 Z " />
<glyph glyph-name="T" unicode="T" horiz-adv-x="614" d="M583 660 L583 653 L575 653 L575 660 L40 660 L40 653 L31 653 L32 660 L29 660 L27 660 C26 658 26 655 26 653 C21 600 15 530 11 476 L15 476 L47 646 L280 646 L280 5 L185 5 L185 3 L185 0 L280 0 L307 0 L335 0 L430 0 C429 0 429 1 430 3 C429 4 429 5 430 5 L335 5 L335 646 L568 646 L600 476 L604 476 C600 530 594 600 589 653 C589 655 588 658 588 660 L585 660 L583 660 L583 660 Z " />
<glyph glyph-name="U" unicode="U" horiz-adv-x="737" d="M136 655 L136 208 C136 80 202 -5 371 -5 C534 -5 597 68 597 178 L597 655 L701 655 L701 657 L701 660 L597 660 L588 660 L580 660 L470 660 L470 657 L470 655 L580 655 L580 184 C580 82 524 14 379 14 C244 14 191 87 191 197 L191 655 L286 655 L286 657 L286 660 L191 660 L164 660 L136 660 L41 660 L41 657 L41 655 L136 655 L136 655 Z " />
<glyph glyph-name="V" unicode="V" horiz-adv-x="697" d="M564 655 L564 655 L380 62 L157 655 L157 655 L275 655 L275 657 L275 660 L155 660 L124 660 L94 660 L16 660 L16 657 L16 655 L96 655 L356 -15 L369 -15 L581 655 L676 655 L676 657 L676 660 L583 660 L574 660 L566 660 L426 660 L426 657 L426 655 L564 655 L564 655 Z " />
<glyph glyph-name="W" unicode="W" horiz-adv-x="1015" d="M876 655 L713 74 L527 670 L513 670 L326 -15 L340 -15 L501 575 L688 -15 L702 -15 L893 655 L987 655 L987 657 L987 660 L894 660 L886 660 L877 660 L753 660 L753 657 L753 655 L876 655 L876 655 Z M112 655 L326 -15 L348 68 L172 655 L173 655 L281 655 L281 657 L281 660 L171 660 L140 660 L110 660 L32 660 L32 657 L32 655 L112 655 L112 655 Z " />
<glyph glyph-name="X" unicode="X" horiz-adv-x="669" d="M144 5 L144 5 L314 308 L500 5 L383 5 L383 3 L383 0 L503 0 L535 0 L566 0 L638 0 L638 3 L638 5 L563 5 L563 5 L348 356 L348 356 L532 655 L532 655 L626 655 L626 657 L626 660 L535 660 L524 660 L514 660 L384 660 L384 657 L384 655 L511 655 L339 370 L164 655 L281 655 L281 657 L281 660 L161 660 L129 660 L98 660 L26 660 L26 657 L26 655 L101 655 L101 655 L305 322 L305 322 L124 5 L29 5 L29 3 L29 0 L121 0 L131 0 L141 0 L270 0 L270 3 L270 5 L144 5 L144 5 Z " />
<glyph glyph-name="Y" unicode="Y" horiz-adv-x="648" d="M547 655 L547 655 L348 294 L163 655 L163 655 L269 655 L269 657 L269 660 L160 660 L126 660 L93 660 L21 660 L21 657 L21 655 L96 655 L302 260 L302 5 L207 5 L207 3 L207 0 L302 0 L329 0 L357 0 L452 0 C451 0 451 1 452 3 C451 4 451 5 452 5 L357 5 L357 285 L357 285 L563 655 L647 655 L647 657 L647 660 L566 660 L557 660 L549 660 L419 660 L419 657 L419 655 L547 655 L547 655 Z " />
<glyph glyph-name="Z" unicode="Z" horiz-adv-x="592" d="M511 7 C520 58 532 125 541 176 L540 177 C538 180 536 182 536 183 L493 14 L124 14 L524 660 L492 660 L461 660 L132 660 L132 653 L123 653 L124 660 L122 660 L119 660 C119 658 118 655 117 653 C106 609 90 551 78 506 L82 506 L137 646 L452 646 L52 0 L84 0 L115 0 L505 0 L507 0 L508 0 L510 0 C510 2 511 5 511 7 L511 7 Z M536 183 L536 183 L536 183 Z " />
<glyph glyph-name="bracketleft" unicode="&#x5b;" horiz-adv-x="231" d="M116 649 L221 649 L221 660 L116 660 L77 660 L77 -120 L116 -120 L221 -120 L221 -109 L116 -109 L116 649 L116 649 Z " />
<glyph glyph-name="backslash" unicode="&#x5c;" horiz-adv-x="224" d="M207 -145 L225 -145 L-43 710 L-60 710 L207 -145 L207 -145 Z " />
<glyph glyph-name="bracketright" unicode="&#x5d;" horiz-adv-x="218" d="M110 649 L110 -109 L5 -109 L5 -120 L110 -120 L149 -120 L149 660 L110 660 L5 660 L5 649 L110 649 L110 649 Z " />
<glyph glyph-name="underscore" unicode="&#x5f;" horiz-adv-x="443" d="M5 -50 L5 -78 L438 -78 L438 -50 L5 -50 L5 -50 Z " />
<glyph glyph-name="a" unicode="a" horiz-adv-x="477" d="M455 37 C441 23 426 14 403 14 C373 14 365 37 365 73 L365 359 C365 447 316 505 242 505 C177 505 104 492 58 472 L108 472 C134 483 184 491 231 491 C280 491 312 443 312 371 L312 250 L199 234 C101 220 36 167 36 102 C36 38 81 -5 148 -5 C204 -5 266 23 312 67 C312 21 325 -10 369 -10 C410 -10 437 6 461 30 L455 37 L455 37 Z M312 238 L312 76 C275 46 223 27 173 27 C120 27 85 62 85 115 C85 164 130 205 199 217 L312 238 L312 238 Z " />
<glyph glyph-name="b" unicode="b" horiz-adv-x="613" d="M124 0 L130 0 C135 14 148 24 162 24 C205 24 244 2 298 -4 C306 -5 315 -5 324 -5 C465 -5 559 96 559 248 C559 402 474 505 347 505 C347 505 278 486 174 458 L174 704 L174 707 L174 720 L164 720 L30 681 L30 678 L124 690 L124 133 L124 0 L124 0 Z M174 450 C247 470 301 483 309 483 C427 483 506 380 506 225 C506 96 433 9 324 9 C234 9 174 59 174 133 L174 450 L174 450 Z " />
<glyph glyph-name="c" unicode="c" horiz-adv-x="470" d="M418 41 L414 47 C399 34 344 25 276 25 C172 25 103 117 103 254 C103 396 176 491 286 491 C334 491 368 456 373 404 C374 389 384 379 398 379 C411 379 420 388 420 401 C415 463 363 505 292 505 C147 505 50 397 50 235 C50 91 124 -5 234 -5 C312 -5 386 13 418 41 L418 41 Z " />
<glyph glyph-name="d" unicode="d" horiz-adv-x="589" d="M430 13 L430 0 L440 0 L575 39 L575 42 L480 30 L480 704 L480 707 L480 720 L470 720 L335 681 L335 678 L430 690 L430 483 C398 495 338 505 274 505 C142 505 55 393 55 225 C55 87 134 -5 252 -5 C252 -5 323 16 430 48 L430 15 L430 13 L430 13 Z M430 53 C371 36 311 24 279 24 C176 24 107 111 107 242 C107 390 173 489 271 489 C339 489 402 478 429 466 L430 53 L430 53 Z " />
<glyph glyph-name="e" unicode="e" horiz-adv-x="476" d="M425 41 L420 47 C405 34 349 25 279 25 C174 25 103 117 103 254 C103 279 105 302 109 324 L380 324 L427 324 C427 433 361 505 261 505 C134 505 50 397 50 235 C50 91 125 -5 238 -5 C317 -5 392 13 425 41 L425 41 Z M110 333 C129 430 184 491 258 491 C331 491 380 441 380 366 C380 352 371 342 356 342 L380 342 L110 333 L110 333 Z " />
<glyph glyph-name="f" unicode="f" horiz-adv-x="429" d="M172 0 L197 0 L292 0 C291 0 291 1 292 3 C291 4 291 5 292 5 L197 5 L197 481 L329 481 L329 500 L197 500 L197 533 C197 638 239 709 302 709 C332 709 355 690 357 660 C358 647 368 638 382 638 C396 638 405 647 405 660 C401 696 366 720 315 720 C223 720 157 650 150 544 L147 500 L65 500 L65 481 L147 481 L147 5 L53 5 L53 3 L53 0 L147 0 L172 0 L172 0 Z " />
<glyph glyph-name="g" unicode="g" horiz-adv-x="461" d="M462 500 L325 490 L325 490 C301 500 273 505 242 505 C138 505 68 443 68 350 C68 277 112 223 182 204 C103 202 51 167 51 114 C51 63 91 29 154 23 C76 -4 26 -55 26 -109 C26 -185 84 -236 172 -236 C333 -236 441 -160 441 -47 C441 24 370 72 264 72 L188 69 C126 65 84 91 84 133 C84 172 126 197 189 197 L242 197 C347 197 417 259 417 352 C417 403 396 445 359 472 L461 473 L462 500 L462 500 Z M115 351 C115 437 166 495 242 495 C318 495 369 437 369 351 C369 265 318 207 242 207 C166 207 115 265 115 351 L115 351 Z M172 21 C178 21 184 21 191 21 L251 23 C343 23 405 -16 405 -73 C405 -164 314 -224 177 -224 C106 -224 59 -176 59 -104 C59 -50 103 -1 171 20 L172 21 L172 21 Z " />
<glyph glyph-name="h" unicode="h" horiz-adv-x="654" d="M470 5 L375 5 L375 3 L375 0 L470 0 L495 0 L520 0 L614 0 L614 3 L614 5 L520 5 L520 336 C520 438 485 505 395 505 C395 505 313 479 189 438 L189 704 L189 707 L189 720 L179 720 L45 681 L45 678 L139 690 L139 5 L45 5 L45 3 L45 0 L139 0 L164 0 L189 0 L284 0 L284 3 L284 5 L189 5 L189 433 C262 456 329 471 357 471 C438 471 469 415 469 331 L470 5 L470 5 Z " />
<glyph glyph-name="i" unicode="i" horiz-adv-x="329" d="M162 570 C182 570 195 583 195 603 C195 624 182 637 162 637 C142 637 129 624 129 603 C129 583 142 570 162 570 L162 570 Z M165 0 L190 0 L284 0 L284 3 L284 5 L190 5 L190 484 L190 487 L190 500 L180 500 L45 461 L45 458 L140 470 L140 5 L45 5 L45 3 L45 0 L140 0 L165 0 L165 0 Z " />
<glyph glyph-name="j" unicode="j" horiz-adv-x="328" d="M161 570 C181 570 194 583 194 603 C194 624 181 637 161 637 C141 637 127 624 127 603 C127 583 141 570 161 570 L161 570 Z M139 470 L138 8 C138 -132 112 -176 32 -225 L37 -232 C151 -161 189 -112 189 22 L189 484 L189 487 L189 500 L179 500 L44 461 L44 458 L139 470 L139 470 Z " />
<glyph glyph-name="k" unicode="k" horiz-adv-x="577" d="M447 495 L447 495 L198 275 L198 704 L198 707 L198 720 L188 720 L54 681 L54 678 L148 690 L148 5 L54 5 L54 3 L54 0 L148 0 L173 0 L198 0 L293 0 C292 0 292 1 293 3 C292 4 292 5 293 5 L198 5 L198 275 L203 268 L204 269 L455 5 L455 5 L366 5 L366 3 L366 0 L460 0 L491 0 L522 0 L612 0 L612 3 L612 5 L517 5 L241 301 L469 495 L563 495 L563 497 L563 500 L475 500 L464 500 L453 500 L358 500 L358 497 L358 495 L447 495 L447 495 Z " />
<glyph glyph-name="l" unicode="l" horiz-adv-x="329" d="M165 0 L190 0 L284 0 L284 3 L284 5 L190 5 L190 704 L190 707 L190 720 L180 720 L45 681 L45 678 L140 690 L140 5 L45 5 L45 3 L45 0 L140 0 L165 0 L165 0 Z " />
<glyph glyph-name="m" unicode="m" horiz-adv-x="1004" d="M820 5 L725 5 L725 3 L725 0 L820 0 L845 0 L870 0 L964 0 L964 3 L964 5 L870 5 L870 336 C870 438 813 505 738 505 C738 505 649 470 515 419 C494 472 452 504 402 504 C402 504 317 478 189 437 L189 481 L182 481 L189 483 L189 499 L179 499 L45 460 L45 457 L139 469 L139 4 L45 4 L45 2 L45 -1 L139 -1 L164 -1 L189 -1 L284 -1 L284 2 L284 4 L189 4 L189 432 C270 457 337 474 363 474 C429 474 479 416 479 330 L480 4 L385 4 L385 2 L385 -1 L480 -1 L505 -1 L530 -1 L624 -1 L624 2 L624 4 L530 4 L530 335 C530 364 526 390 518 412 C611 447 682 470 700 470 C769 470 821 414 821 330 L820 5 L820 5 Z " />
<glyph glyph-name="n" unicode="n" horiz-adv-x="654" d="M470 5 L375 5 L375 3 L375 0 L470 0 L495 0 L520 0 L614 0 L614 3 L614 5 L520 5 L520 336 C520 438 485 505 395 505 C395 505 313 479 189 438 L189 482 L182 482 L189 484 L189 500 L179 500 L45 461 L45 458 L139 470 L139 5 L45 5 L45 3 L45 0 L139 0 L164 0 L189 0 L284 0 L284 3 L284 5 L189 5 L189 433 C262 456 329 471 357 471 C438 471 469 415 469 331 L470 5 L470 5 Z " />
<glyph glyph-name="o" unicode="o" horiz-adv-x="583" d="M292 6 C180 6 106 104 106 250 C106 396 180 494 292 494 C404 494 478 396 478 250 C478 104 404 6 292 6 L292 6 Z M50 250 C50 97 147 -5 292 -5 C437 -5 534 97 534 250 C534 403 437 505 292 505 C147 505 50 403 50 250 L50 250 Z " />
<glyph glyph-name="p" unicode="p" horiz-adv-x="647" d="M164 -230 L189 -230 L284 -230 L284 -227 L284 -225 L189 -225 L189 40 C230 12 287 -5 345 -5 C493 -5 592 100 592 258 C592 406 510 505 388 505 C388 505 308 479 189 439 L189 482 L182 482 L189 484 L182 500 L172 500 L45 461 L45 458 L139 470 L139 -225 L45 -225 L45 -227 L45 -230 L139 -230 L164 -230 L164 -230 Z M189 107 L189 431 C264 455 328 471 351 471 C467 471 544 370 544 219 C544 93 465 9 346 9 C296 9 234 48 190 107 L189 107 L189 107 Z " />
<glyph glyph-name="q" unicode="q" horiz-adv-x="628" d="M464 -230 L489 -230 L584 -230 C583 -230 583 -229 584 -227 C583 -226 583 -225 584 -225 L489 -225 L489 402 L489 500 L484 500 C479 489 465 482 447 482 C413 482 380 494 340 501 C324 504 307 506 289 506 C155 506 66 394 66 226 C66 88 142 -4 257 -4 C257 -4 330 22 440 62 L440 -224 L346 -224 L346 -226 L346 -229 L440 -229 L464 -230 L464 -230 Z M440 69 C368 44 306 27 284 27 C184 27 117 114 117 245 C117 393 185 492 288 492 C379 492 439 456 439 403 L440 69 L440 69 Z M314 505 C306 506 298 506 289 506 C298 506 307 506 315 505 L314 505 L314 505 Z " />
<glyph glyph-name="r" unicode="r" horiz-adv-x="429" d="M164 0 L189 0 L284 0 L284 3 L284 5 L189 5 L189 432 C237 454 279 468 294 468 C326 468 363 446 395 446 C409 446 419 455 419 470 C419 491 395 505 334 505 C334 505 276 479 189 439 L189 482 L182 482 L189 484 L182 500 L172 500 L45 461 L45 458 L139 470 L139 5 L45 5 L45 3 L45 0 L139 0 L164 0 L164 0 Z " />
<glyph glyph-name="s" unicode="s" horiz-adv-x="418" d="M329 481 L329 481 C332 452 336 414 339 384 L342 384 L344 384 L344 496 C314 502 262 505 212 505 C125 505 67 454 67 378 C67 326 123 268 208 232 C279 203 327 157 327 117 C327 51 284 6 219 6 C162 6 106 9 70 14 L70 15 C65 47 59 89 54 122 L52 122 L50 122 L50 0 C63 -3 129 -4 217 -4 C309 -4 370 52 370 137 C370 185 320 238 244 269 C161 303 106 354 106 396 C106 455 149 495 213 495 C237 495 282 490 330 482 L329 481 L329 481 Z " />
<glyph glyph-name="t" unicode="t" horiz-adv-x="345" d="M315 500 L153 500 L153 640 L145 640 L107 495 L107 495 L127 572 C115 527 75 492 27 486 L25 486 L25 481 L103 481 L103 111 C103 21 122 -5 191 -5 C250 -5 290 15 326 44 L322 48 C300 29 270 17 216 17 C167 17 153 36 153 102 L153 481 L315 481 L315 500 L315 500 Z " />
<glyph glyph-name="u" unicode="u" horiz-adv-x="619" d="M440 495 L440 68 C375 44 324 29 299 29 C207 29 159 82 159 162 L159 501 L134 501 L109 501 L15 501 L15 498 L15 496 L109 496 L109 157 C109 60 160 -4 260 -4 C260 -4 332 22 440 63 L440 17 L440 14 L440 1 L450 1 L584 40 L584 43 L490 31 L490 501 L465 501 L440 501 L345 501 L345 498 L345 496 L440 495 L440 495 Z " />
<glyph glyph-name="v" unicode="v" horiz-adv-x="575" d="M458 495 L458 495 L301 54 L150 495 L242 495 L242 497 L242 500 L148 500 L119 500 L90 500 L-2 500 L-2 497 L-2 495 L92 495 L278 -10 L286 -10 L473 495 L568 495 L568 497 L568 500 L475 500 L467 500 L459 500 L364 500 L364 497 L364 495 L458 495 L458 495 Z " />
<glyph glyph-name="w" unicode="w" horiz-adv-x="845" d="M728 495 L571 54 L420 495 L443 495 L532 495 L532 497 L532 500 L418 500 L410 500 L360 500 L288 500 L288 497 L288 495 L362 495 L422 332 L323 53 L172 494 L276 494 L276 496 L276 499 L170 499 L155 499 L112 499 L35 499 L35 496 L35 494 L114 494 L300 -11 L308 -11 L427 316 L548 -11 L556 -11 L743 494 L823 494 L823 496 L823 499 L745 499 L729 499 L714 499 L604 499 L604 496 L604 494 L691 494 L727 494 L728 495 L728 495 Z " />
<glyph glyph-name="x" unicode="x" horiz-adv-x="598" d="M454 495 L455 495 L318 295 L173 495 L173 495 L279 495 L279 497 L279 500 L169 500 L139 500 L108 500 L33 500 L33 497 L33 495 L112 495 L287 253 L123 5 L19 5 L19 3 L19 0 L120 0 L128 0 L137 0 L276 0 L276 3 L276 5 L140 5 L294 243 L466 5 L466 5 L375 5 L375 3 L375 0 L470 0 L500 0 L531 0 L596 0 L596 3 L596 5 L527 5 L324 287 L471 495 L566 495 L566 497 L566 500 L475 500 L467 500 L459 500 L339 500 L339 497 L339 495 L454 495 L454 495 Z " />
<glyph glyph-name="y" unicode="y" horiz-adv-x="597" d="M480 495 L480 495 L323 54 L172 495 L264 495 L264 497 L264 500 L170 500 L141 500 L112 500 L20 500 L20 497 L20 495 L114 495 L297 -3 L272 -67 C237 -161 211 -197 177 -197 C155 -197 134 -173 112 -173 C97 -173 87 -181 87 -194 C87 -216 111 -230 146 -230 C204 -230 243 -186 285 -72 L308 -10 L495 495 L590 495 L590 497 L590 500 L497 500 L489 500 L481 500 L386 500 L386 497 L386 495 L480 495 L480 495 Z " />
<glyph glyph-name="z" unicode="z" horiz-adv-x="489" d="M100 488 L100 488 L375 489 L67 0 L97 0 L126 0 L422 0 L425 0 L427 0 C428 2 428 4 428 6 C437 55 449 122 458 172 C458 173 457 173 457 174 C454 178 452 181 452 181 L410 11 L133 11 L439 500 L411 500 L382 500 L95 500 L95 494 L85 494 L87 500 L84 500 L82 500 C81 498 81 496 80 494 C71 459 58 413 49 379 L50 379 L53 379 L100 488 L100 488 Z " />
<glyph glyph-name="braceleft" unicode="&#x7b;" horiz-adv-x="238" d="M223 -120 L223 -112 L194 -112 C136 -112 97 -66 97 3 L97 175 C97 228 72 264 33 270 C72 276 97 313 97 366 L97 537 C97 606 136 652 194 652 L223 652 L223 660 L183 660 C108 660 58 611 59 537 L59 338 C58 300 39 274 10 274 L5 274 L5 266 L10 266 C39 266 58 241 59 203 L59 3 C58 -71 108 -120 183 -120 L223 -120 L223 -120 Z " />
<glyph glyph-name="bar" unicode="&#x7c;" horiz-adv-x="158" d="M60 770 L60 -234 L99 -234 L99 770 L60 770 L60 770 Z " />
<glyph glyph-name="braceright" unicode="&#x7d;" horiz-adv-x="238" d="M5 660 L5 652 L34 652 C92 652 131 606 131 537 L131 365 C131 312 156 276 194 270 C156 264 131 227 131 174 L131 3 C131 -66 92 -112 34 -112 L5 -112 L5 -120 L45 -120 C120 -120 170 -71 170 3 L170 202 C170 240 189 266 218 266 L223 266 L223 274 L218 274 C189 274 170 299 170 337 L170 537 C170 611 120 660 45 660 L5 660 L5 660 Z " />
<glyph glyph-name="asciitilde" unicode="&#x7e;" horiz-adv-x="514" d="M122 175 C122 215 138 242 162 242 C222 242 281 179 341 179 C378 179 403 216 403 272 L394 272 C394 236 377 212 352 212 C291 212 233 275 173 275 C138 275 114 235 114 175 L122 175 L122 175 Z " />
<glyph glyph-name="nbspace" unicode="&#xa0;" horiz-adv-x="214" d="" />
<glyph glyph-name="exclamdown" unicode="&#xa1;" horiz-adv-x="183" d="M87 505 C66 505 51 491 51 469 C51 447 66 433 87 433 C109 433 123 447 123 469 C123 491 109 505 87 505 L87 505 Z M60 -120 C58 -147 71 -165 91 -165 C111 -165 123 -147 121 -120 L91 358 L84 358 L60 -120 L60 -120 Z " />
<glyph glyph-name="cent" unicode="&#xa2;" horiz-adv-x="470" d="M269 575 L269 504 C137 493 50 388 50 235 C50 91 124 -5 234 -5 C246 -5 258 -5 269 -4 L269 -75 L285 -75 L285 -2 C343 4 393 20 418 42 L414 48 C400 36 349 27 285 26 L285 492 L285 492 C333 492 367 457 372 405 C373 390 383 380 397 380 C410 380 419 389 419 402 C414 464 362 506 291 506 C289 506 287 506 285 506 L285 576 L269 575 L269 575 Z M269 26 C169 30 103 121 103 255 C103 390 169 482 269 491 L269 26 L269 26 Z " />
<glyph glyph-name="guillemotleft" unicode="&#xab;" horiz-adv-x="448" d="M235 250 L402 459 L396 464 L182 253 L182 247 L398 36 L403 41 L235 250 L235 250 Z M72 250 L239 459 L234 464 L20 253 L20 247 L235 36 L241 41 L72 250 L72 250 Z " />
<glyph glyph-name="guillemotright" unicode="&#xbb;" horiz-adv-x="448" d="M214 250 L46 459 L52 464 L266 253 L266 247 L50 36 L45 41 L214 250 L214 250 Z M376 250 L209 459 L214 464 L428 253 L428 247 L213 36 L207 41 L376 250 L376 250 Z " />
<glyph glyph-name="onequarter" unicode="&#xbc;" horiz-adv-x="796" d="M151 -14 L669 656 L646 674 L128 4 L151 -14 L151 -14 Z M476 69 L588 230 L587 228 L587 69 L476 69 L476 69 Z M587 50 L587 -3 L629 -3 L629 50 L683 50 L683 69 L629 69 L629 228 L629 289 L629 302 L622 302 L452 57 L452 50 L461 50 L463 50 L587 50 L587 50 Z M243 415 L264 415 L312 415 L312 416 L312 418 L264 418 L264 662 L312 662 L312 664 L312 665 L264 665 L243 665 L222 665 L175 665 L175 664 L175 662 L222 662 L222 418 L175 418 L175 416 L175 415 L222 415 L243 415 L243 415 Z " />
<glyph glyph-name="onehalf" unicode="&#xbd;" horiz-adv-x="796" d="M151 -14 L669 656 L646 674 L128 4 L151 -14 L151 -14 Z M671 37 L672 43 L672 43 C673 59 674 76 675 90 L674 90 L672 90 L668 43 L527 43 C610 96 662 130 662 176 C662 222 629 253 581 253 C540 253 500 223 483 179 L488 176 C499 203 528 221 560 221 C593 221 614 197 614 162 C614 94 552 70 460 9 L460 0 L667 0 L669 21 L669 21 C669 26 669 31 669 37 L671 37 L671 37 Z M241 415 L262 415 L310 415 L310 416 L310 418 L262 418 L262 662 L310 662 L310 664 L310 665 L262 665 L241 665 L220 665 L173 665 L173 664 L173 662 L220 662 L220 418 L173 418 L173 416 L173 415 L220 415 L241 415 L241 415 Z " />
<glyph glyph-name="threequarters" unicode="&#xbe;" horiz-adv-x="796" d="M122 340 C238 346 315 393 315 457 C315 498 280 526 227 532 C271 554 297 581 297 606 C297 643 268 668 225 668 C185 668 141 642 116 603 L121 600 C135 622 168 637 203 637 C234 637 255 619 255 592 C255 571 238 550 209 533 C208 533 207 533 206 533 C208 533 209 533 208 532 C204 530 200 528 196 526 C188 522 176 517 160 511 L160 504 C170 507 184 510 196 510 C241 510 271 487 271 453 C271 394 212 351 123 346 L122 340 L122 340 Z M152 -15 L670 655 L647 673 L129 3 L152 -15 L152 -15 Z M477 68 L589 229 L588 227 L588 68 L477 68 L477 68 Z M588 49 L588 -4 L630 -4 L630 49 L684 49 L684 68 L630 68 L630 227 L630 288 L630 301 L623 301 L453 56 L453 49 L462 49 L464 49 L588 49 L588 49 Z " />
<glyph glyph-name="questiondown" unicode="&#xbf;" horiz-adv-x="361" d="M223 505 C201 505 187 491 187 469 C187 447 201 433 223 433 C245 433 259 447 259 469 C259 491 245 505 223 505 L223 505 Z M237 140 L226 353 L220 353 L209 140 L210 171 L175 171 C58 171 35 97 35 55 C35 -77 116 -165 238 -165 C287 -165 320 -138 320 -98 C320 -90 309 -85 293 -85 C264 -85 251 -126 222 -126 C117 -126 46 -56 46 50 C46 79 70 132 192 132 L227 132 C233 132 237 135 237 140 L237 140 Z " />
<glyph glyph-name="Agrave" unicode="&#xc0;" horiz-adv-x="655" d="M109 5 L109 5 L185 236 L434 236 L516 5 L516 5 L390 5 L390 3 L390 0 L518 0 L548 0 L579 0 L658 0 L658 3 L658 5 L577 5 L331 675 L317 675 L92 5 L-3 5 L-3 3 L-3 0 L90 0 L99 0 L108 0 L238 0 L238 3 L238 5 L109 5 L109 5 Z M310 840 C289 873 274 895 270 895 C262 895 242 881 242 875 C242 870 259 849 285 820 L398 691 L403 695 L310 840 L310 840 Z M429 251 L191 251 L306 600 L429 251 L429 251 Z " />
<glyph glyph-name="Aacute" unicode="&#xc1;" horiz-adv-x="655" d="M261 691 L371 820 C396 850 412 871 412 875 C412 881 392 895 384 895 C381 895 366 873 345 840 L255 695 L261 691 L261 691 Z M109 5 L109 5 L185 236 L434 236 L516 5 L516 5 L390 5 L390 3 L390 0 L518 0 L548 0 L579 0 L658 0 L658 3 L658 5 L577 5 L331 675 L317 675 L92 5 L-3 5 L-3 3 L-3 0 L90 0 L99 0 L108 0 L238 0 L238 3 L238 5 L109 5 L109 5 Z M429 251 L191 251 L306 600 L429 251 L429 251 Z " />
<glyph glyph-name="Acircumflex" unicode="&#xc2;" horiz-adv-x="655" d="M109 5 L109 5 L185 236 L434 236 L516 5 L516 5 L390 5 L390 3 L390 0 L518 0 L548 0 L579 0 L658 0 L658 3 L658 5 L577 5 L331 675 L317 675 L92 5 L-3 5 L-3 3 L-3 0 L90 0 L99 0 L108 0 L238 0 L238 3 L238 5 L109 5 L109 5 Z M324 852 L436 693 L441 698 L340 891 C338 895 332 905 324 905 C316 905 310 895 308 891 L207 698 L212 693 L324 852 L324 852 Z M429 251 L191 251 L306 600 L429 251 L429 251 Z " />
<glyph glyph-name="Atilde" unicode="&#xc3;" horiz-adv-x="655" d="M185 755 C185 795 202 822 229 822 C288 822 345 759 404 759 C443 759 469 796 469 852 L461 852 C461 816 442 792 415 792 C355 792 299 855 239 855 C201 855 176 815 176 755 L185 755 L185 755 Z M109 5 L109 5 L185 236 L434 236 L516 5 L516 5 L390 5 L390 3 L390 0 L518 0 L548 0 L579 0 L658 0 L658 3 L658 5 L577 5 L331 675 L317 675 L92 5 L-3 5 L-3 3 L-3 0 L90 0 L99 0 L108 0 L238 0 L238 3 L238 5 L109 5 L109 5 Z M429 251 L191 251 L306 600 L429 251 L429 251 Z " />
<glyph glyph-name="Adieresis" unicode="&#xc4;" horiz-adv-x="655" d="M412 730 C430 730 442 742 442 761 C442 779 430 791 412 791 C393 791 381 779 381 761 C381 742 393 730 412 730 L412 730 Z M234 730 C253 730 265 742 265 761 C265 779 253 791 234 791 C216 791 204 779 204 761 C204 742 216 730 234 730 L234 730 Z M109 5 L109 5 L185 236 L434 236 L516 5 L516 5 L390 5 L390 3 L390 0 L518 0 L548 0 L579 0 L658 0 L658 3 L658 5 L577 5 L331 675 L317 675 L92 5 L-3 5 L-3 3 L-3 0 L90 0 L99 0 L108 0 L238 0 L238 3 L238 5 L109 5 L109 5 Z M429 251 L191 251 L306 600 L429 251 L429 251 Z " />
<glyph glyph-name="Aring" unicode="&#xc5;" horiz-adv-x="655" d="M323 706 C280 706 243 743 243 788 C243 836 275 869 323 869 C371 869 403 836 403 788 C403 743 366 706 323 706 L323 706 Z M229 788 C229 738 272 695 323 695 C374 695 417 738 417 788 C417 843 379 880 323 880 C267 880 229 843 229 788 L229 788 Z M109 5 L109 5 L185 236 L434 236 L516 5 L516 5 L390 5 L390 3 L390 0 L518 0 L548 0 L579 0 L658 0 L658 3 L658 5 L577 5 L331 675 L317 675 L92 5 L-3 5 L-3 3 L-3 0 L90 0 L99 0 L108 0 L238 0 L238 3 L238 5 L109 5 L109 5 Z M429 251 L191 251 L306 600 L429 251 L429 251 Z " />
<glyph glyph-name="Ccedilla" unicode="&#xc7;" horiz-adv-x="712" d="M361 -83 L406 -5 C492 -4 589 4 652 15 L651 23 L651 23 L652 15 L652 174 L650 174 L647 174 C642 130 634 71 629 26 C561 16 470 9 393 9 C231 9 122 137 122 330 C122 523 231 651 393 651 C470 651 561 644 629 634 C634 589 642 530 647 486 L650 486 L652 486 L652 645 L651 637 L651 637 L652 645 C586 656 483 664 394 664 C195 664 62 530 62 329 C62 130 193 -3 389 -5 L351 -93 L355 -94 C374 -85 398 -79 416 -79 C453 -79 478 -101 478 -135 C478 -177 449 -205 406 -205 C369 -205 336 -199 323 -191 L321 -196 C341 -211 380 -220 416 -220 C471 -220 508 -186 508 -135 C508 -95 476 -69 428 -69 C406 -69 380 -75 361 -83 L361 -83 Z " />
<glyph glyph-name="Egrave" unicode="&#xc8;" horiz-adv-x="615" d="M473 660 L473 653 L471 653 L471 660 L190 660 L162 660 L135 660 L40 660 L40 657 L40 655 L135 655 L135 5 L40 5 L40 3 L40 0 L135 0 L162 0 L190 0 L478 0 L480 0 L481 0 L483 0 C483 2 484 5 484 7 C493 55 504 120 513 169 L512 169 L509 169 L466 14 L190 14 L190 345 L404 345 L412 240 L415 240 L416 240 L416 345 L416 352 L416 359 L416 454 L415 454 L412 454 L404 359 L190 359 L190 646 L458 646 L474 491 L477 491 L478 491 L478 653 L478 660 L475 660 L473 660 L473 660 Z M273 840 C252 873 237 895 234 895 C225 895 205 881 205 875 C205 870 222 849 248 820 L361 691 L366 695 L273 840 L273 840 Z " />
<glyph glyph-name="Eacute" unicode="&#xc9;" horiz-adv-x="615" d="M271 691 L381 820 C406 850 423 871 423 875 C423 881 403 895 394 895 C392 895 377 873 355 840 L265 695 L271 691 L271 691 Z M473 660 L473 653 L471 653 L471 660 L190 660 L162 660 L135 660 L40 660 L40 657 L40 655 L135 655 L135 5 L40 5 L40 3 L40 0 L135 0 L162 0 L190 0 L478 0 L480 0 L481 0 L483 0 C483 2 484 5 484 7 C493 55 504 120 513 169 L512 169 L509 169 L466 14 L190 14 L190 345 L404 345 L412 240 L415 240 L416 240 L416 345 L416 352 L416 359 L416 454 L415 454 L412 454 L404 359 L190 359 L190 646 L458 646 L474 491 L477 491 L478 491 L478 653 L478 660 L475 660 L473 660 L473 660 Z " />
<glyph glyph-name="Ecircumflex" unicode="&#xca;" horiz-adv-x="615" d="M473 660 L473 653 L471 653 L471 660 L190 660 L162 660 L135 660 L40 660 L40 657 L40 655 L135 655 L135 5 L40 5 L40 3 L40 0 L135 0 L162 0 L190 0 L478 0 L480 0 L481 0 L483 0 C483 2 484 5 484 7 C493 55 504 120 513 169 L512 169 L509 169 L466 14 L190 14 L190 345 L404 345 L412 240 L415 240 L416 240 L416 345 L416 352 L416 359 L416 454 L415 454 L412 454 L404 359 L190 359 L190 646 L458 646 L474 491 L477 491 L478 491 L478 653 L478 660 L475 660 L473 660 L473 660 Z M303 852 L415 693 L420 698 L319 891 C317 895 310 905 303 905 C295 905 289 895 287 891 L186 698 L191 693 L303 852 L303 852 Z " />
<glyph glyph-name="Edieresis" unicode="&#xcb;" horiz-adv-x="615" d="M391 730 C410 730 422 742 422 761 C422 779 410 791 391 791 C373 791 361 779 361 761 C361 742 373 730 391 730 L391 730 Z M214 730 C233 730 245 742 245 761 C245 779 233 791 214 791 C196 791 184 779 184 761 C184 742 196 730 214 730 L214 730 Z M473 660 L473 653 L471 653 L471 660 L190 660 L162 660 L135 660 L40 660 L40 657 L40 655 L135 655 L135 5 L40 5 L40 3 L40 0 L135 0 L162 0 L190 0 L478 0 L480 0 L481 0 L483 0 C483 2 484 5 484 7 C493 55 504 120 513 169 L512 169 L509 169 L466 14 L190 14 L190 345 L404 345 L412 240 L415 240 L416 240 L416 345 L416 352 L416 359 L416 454 L415 454 L412 454 L404 359 L190 359 L190 646 L458 646 L474 491 L477 491 L478 491 L478 653 L478 660 L475 660 L473 660 L473 660 Z " />
<glyph glyph-name="Igrave" unicode="&#xcc;" horiz-adv-x="324" d="M148 840 C128 873 112 895 109 895 C100 895 80 881 80 875 C80 870 97 849 123 820 L236 691 L242 695 L148 840 L148 840 Z M162 0 L190 0 L285 0 L285 3 L285 5 L190 5 L190 655 L285 655 L285 657 L285 660 L190 660 L162 660 L135 660 L40 660 L40 657 L40 655 L135 655 L135 5 L40 5 L40 3 L40 0 L135 0 L162 0 L162 0 Z " />
<glyph glyph-name="Iacute" unicode="&#xcd;" horiz-adv-x="324" d="M100 691 L210 820 C235 850 251 871 252 875 C252 881 232 895 223 895 C221 895 206 873 185 840 L95 695 L100 691 L100 691 Z M162 0 L190 0 L285 0 L285 3 L285 5 L190 5 L190 655 L285 655 L285 657 L285 660 L190 660 L162 660 L135 660 L40 660 L40 657 L40 655 L135 655 L135 5 L40 5 L40 3 L40 0 L135 0 L162 0 L162 0 Z " />
<glyph glyph-name="Icircumflex" unicode="&#xce;" horiz-adv-x="324" d="M162 852 L274 693 L279 698 L178 891 C176 895 170 905 162 905 C155 905 149 895 147 891 L45 698 L50 693 L162 852 L162 852 Z M162 0 L190 0 L285 0 L285 3 L285 5 L190 5 L190 655 L285 655 L285 657 L285 660 L190 660 L162 660 L135 660 L40 660 L40 657 L40 655 L135 655 L135 5 L40 5 L40 3 L40 0 L135 0 L162 0 L162 0 Z " />
<glyph glyph-name="Idieresis" unicode="&#xcf;" horiz-adv-x="324" d="M251 730 C270 730 282 742 282 761 C282 779 270 791 251 791 C232 791 220 779 220 761 C220 742 232 730 251 730 L251 730 Z M74 730 C92 730 104 742 104 761 C104 779 92 791 74 791 C55 791 43 779 43 761 C43 742 55 730 74 730 L74 730 Z M162 0 L190 0 L285 0 L285 3 L285 5 L190 5 L190 655 L285 655 L285 657 L285 660 L190 660 L162 660 L135 660 L40 660 L40 657 L40 655 L135 655 L135 5 L40 5 L40 3 L40 0 L135 0 L162 0 L162 0 Z " />
<glyph glyph-name="Ntilde" unicode="&#xd1;" horiz-adv-x="738" d="M231 755 C231 795 249 822 275 822 C334 822 391 759 450 759 C490 759 516 796 516 852 L507 852 C507 816 489 792 461 792 C402 792 345 855 286 855 C248 855 223 815 223 755 L231 755 L231 755 Z M584 655 L584 82 L187 660 L154 637 L154 637 L187 660 L154 660 L146 660 L137 660 L43 660 L43 657 L43 655 L137 655 L137 5 L43 5 L43 3 L43 0 L137 0 L146 0 L154 0 L249 0 L249 3 L249 5 L154 5 L154 611 L559 22 L582 -11 L601 -11 L601 42 L601 655 L696 655 L696 657 L696 660 L601 660 L593 660 L584 660 L490 660 L490 657 L490 655 L584 655 L584 655 Z " />
<glyph glyph-name="Ograve" unicode="&#xd2;" horiz-adv-x="753" d="M383 9 C211 9 123 157 123 330 C123 503 211 651 383 651 C555 651 643 503 643 330 C643 157 555 9 383 9 L383 9 Z M62 330 C62 149 171 -5 383 -5 C595 -5 704 149 704 330 C704 511 595 665 383 665 C171 665 62 511 62 330 L62 330 Z M369 840 C348 873 333 895 329 895 C320 895 300 881 300 875 C300 870 317 849 343 820 L456 691 L462 695 L369 840 L369 840 Z " />
<glyph glyph-name="Oacute" unicode="&#xd3;" horiz-adv-x="753" d="M358 691 L468 820 C493 850 510 871 510 875 C510 881 490 895 481 895 C479 895 464 873 443 840 L353 695 L358 691 L358 691 Z M383 9 C211 9 123 157 123 330 C123 503 211 651 383 651 C555 651 643 503 643 330 C643 157 555 9 383 9 L383 9 Z M62 330 C62 149 171 -5 383 -5 C595 -5 704 149 704 330 C704 511 595 665 383 665 C171 665 62 511 62 330 L62 330 Z " />
<glyph glyph-name="Ocircumflex" unicode="&#xd4;" horiz-adv-x="753" d="M383 9 C211 9 123 157 123 330 C123 503 211 651 383 651 C555 651 643 503 643 330 C643 157 555 9 383 9 L383 9 Z M62 330 C62 149 171 -5 383 -5 C595 -5 704 149 704 330 C704 511 595 665 383 665 C171 665 62 511 62 330 L62 330 Z M383 852 L495 693 L500 698 L399 891 C396 895 390 905 383 905 C375 905 369 895 367 891 L266 698 L271 693 L383 852 L383 852 Z " />
<glyph glyph-name="Otilde" unicode="&#xd5;" horiz-adv-x="753" d="M245 755 C245 795 262 822 288 822 C348 822 404 759 464 759 C503 759 529 796 529 852 L521 852 C521 816 502 792 474 792 C415 792 358 855 299 855 C261 855 236 815 236 755 L245 755 L245 755 Z M383 9 C211 9 123 157 123 330 C123 503 211 651 383 651 C555 651 643 503 643 330 C643 157 555 9 383 9 L383 9 Z M62 330 C62 149 171 -5 383 -5 C595 -5 704 149 704 330 C704 511 595 665 383 665 C171 665 62 511 62 330 L62 330 Z " />
<glyph glyph-name="Odieresis" unicode="&#xd6;" horiz-adv-x="753" d="M471 730 C490 730 502 742 502 761 C502 779 490 791 471 791 C453 791 441 779 441 761 C441 742 453 730 471 730 L471 730 Z M294 730 C313 730 325 742 325 761 C325 779 313 791 294 791 C276 791 264 779 264 761 C264 742 276 730 294 730 L294 730 Z M383 9 C211 9 123 157 123 330 C123 503 211 651 383 651 C555 651 643 503 643 330 C643 157 555 9 383 9 L383 9 Z M62 330 C62 149 171 -5 383 -5 C595 -5 704 149 704 330 C704 511 595 665 383 665 C171 665 62 511 62 330 L62 330 Z " />
<glyph glyph-name="Oslash" unicode="&#xd8;" horiz-adv-x="753" d="M71 -14 L159 78 C212 27 287 -5 383 -5 C595 -5 704 149 704 330 C704 420 677 503 624 564 L712 656 L694 674 L606 582 C553 633 478 665 382 665 C170 665 61 511 61 330 C61 240 88 157 141 96 L53 4 L71 -14 L71 -14 Z M383 9 C296 9 230 47 187 107 L594 531 C627 475 644 405 644 330 C644 157 556 9 384 9 L383 9 L383 9 Z M174 129 C141 185 124 255 124 330 C124 503 212 651 384 651 C471 651 537 613 580 553 L174 129 L174 129 Z " />
<glyph glyph-name="Ugrave" unicode="&#xd9;" horiz-adv-x="723" d="M352 840 C331 873 316 895 312 895 C304 895 284 881 284 875 C284 870 301 849 327 820 L440 691 L445 695 L352 840 L352 840 Z M136 655 L136 208 C136 80 202 -5 371 -5 C534 -5 597 68 597 178 L597 655 L701 655 L701 657 L701 660 L597 660 L588 660 L580 660 L470 660 L470 657 L470 655 L580 655 L580 184 C580 82 524 14 379 14 C244 14 191 87 191 197 L191 655 L286 655 L286 657 L286 660 L191 660 L164 660 L136 660 L41 660 L41 657 L41 655 L136 655 L136 655 Z " />
<glyph glyph-name="Uacute" unicode="&#xda;" horiz-adv-x="723" d="M365 691 L475 820 C499 850 516 871 516 875 C516 881 496 895 488 895 C485 895 470 873 449 840 L359 695 L365 691 L365 691 Z M136 655 L136 208 C136 80 202 -5 371 -5 C534 -5 597 68 597 178 L597 655 L701 655 L701 657 L701 660 L597 660 L588 660 L580 660 L470 660 L470 657 L470 655 L580 655 L580 184 C580 82 524 14 379 14 C244 14 191 87 191 197 L191 655 L286 655 L286 657 L286 660 L191 660 L164 660 L136 660 L41 660 L41 657 L41 655 L136 655 L136 655 Z " />
<glyph glyph-name="Ucircumflex" unicode="&#xdb;" horiz-adv-x="723" d="M366 852 L478 693 L483 698 L382 891 C380 895 374 905 366 905 C359 905 353 895 350 891 L249 698 L254 693 L366 852 L366 852 Z M136 655 L136 208 C136 80 202 -5 371 -5 C534 -5 597 68 597 178 L597 655 L701 655 L701 657 L701 660 L597 660 L588 660 L580 660 L470 660 L470 657 L470 655 L580 655 L580 184 C580 82 524 14 379 14 C244 14 191 87 191 197 L191 655 L286 655 L286 657 L286 660 L191 660 L164 660 L136 660 L41 660 L41 657 L41 655 L136 655 L136 655 Z " />
<glyph glyph-name="Udieresis" unicode="&#xdc;" horiz-adv-x="723" d="M455 730 C473 730 485 742 485 761 C485 779 473 791 455 791 C436 791 424 779 424 761 C424 742 436 730 455 730 L455 730 Z M278 730 C296 730 308 742 308 761 C308 779 296 791 278 791 C259 791 247 779 247 761 C247 742 259 730 278 730 L278 730 Z M136 655 L136 208 C136 80 202 -5 371 -5 C534 -5 597 68 597 178 L597 655 L701 655 L701 657 L701 660 L597 660 L588 660 L580 660 L470 660 L470 657 L470 655 L580 655 L580 184 C580 82 524 14 379 14 C244 14 191 87 191 197 L191 655 L286 655 L286 657 L286 660 L191 660 L164 660 L136 660 L41 660 L41 657 L41 655 L136 655 L136 655 Z " />
<glyph glyph-name="Yacute" unicode="&#xdd;" horiz-adv-x="620" d="M315 691 L425 820 C449 850 466 871 466 875 C466 881 446 895 438 895 C436 895 421 873 399 840 L309 695 L315 691 L315 691 Z M533 655 L533 655 L334 294 L149 655 L149 655 L255 655 L255 657 L255 660 L146 660 L112 660 L79 660 L7 660 L7 657 L7 655 L82 655 L288 260 L288 5 L193 5 L193 3 L193 0 L288 0 L315 0 L343 0 L438 0 C437 0 437 1 438 3 C437 4 437 5 438 5 L343 5 L343 285 L343 285 L549 655 L633 655 L633 657 L633 660 L552 660 L543 660 L535 660 L405 660 L405 657 L405 655 L533 655 L533 655 Z " />
<glyph glyph-name="agrave" unicode="&#xe0;" horiz-adv-x="567" d="M222 680 C201 713 186 735 182 735 C173 735 153 721 153 715 C153 710 170 689 196 660 L309 531 L315 535 L222 680 L222 680 Z M448 9 L553 39 L553 42 L458 30 L458 470 L458 500 L444 500 L408 470 L417 481 C402 493 335 505 257 505 C136 505 55 393 55 225 C55 87 127 -5 236 -5 C236 -5 305 42 408 112 L408 16 L408 13 L408 0 L408 -5 L416 -5 L448 9 L448 9 Z M408 118 C326 63 268 26 263 26 C169 26 107 113 107 244 C107 392 166 491 255 491 C331 491 395 481 408 470 L408 118 L408 118 Z " />
<glyph glyph-name="aacute" unicode="&#xe1;" horiz-adv-x="477" d="M179 531 L289 660 C314 690 331 711 331 715 C331 721 311 735 302 735 C300 735 285 713 264 680 L174 535 L179 531 L179 531 Z M455 37 C441 23 426 14 403 14 C373 14 365 37 365 73 L365 359 C365 447 316 505 242 505 C177 505 104 492 58 472 L108 472 C134 483 184 491 231 491 C280 491 312 443 312 371 L312 250 L199 234 C101 220 36 167 36 102 C36 38 81 -5 148 -5 C204 -5 266 23 312 67 C312 21 325 -10 369 -10 C410 -10 437 6 461 30 L455 37 L455 37 Z M312 238 L312 76 C275 46 223 27 173 27 C120 27 85 62 85 115 C85 164 130 205 199 217 L312 238 L312 238 Z " />
<glyph glyph-name="acircumflex" unicode="&#xe2;" horiz-adv-x="567" d="M236 693 L348 533 L353 538 L252 731 C249 735 243 745 236 745 C228 745 222 735 220 731 L119 538 L124 533 L236 693 L236 693 Z M448 9 L553 39 L553 42 L458 30 L458 470 L458 500 L444 500 L408 470 L417 481 C402 493 335 505 257 505 C136 505 55 393 55 225 C55 87 127 -5 236 -5 C236 -5 305 42 408 112 L408 16 L408 13 L408 0 L408 -5 L416 -5 L448 9 L448 9 Z M408 118 C326 63 268 26 263 26 C169 26 107 113 107 244 C107 392 166 491 255 491 C331 491 395 481 408 470 L408 118 L408 118 Z " />
<glyph glyph-name="atilde" unicode="&#xe3;" horiz-adv-x="567" d="M97 595 C97 635 115 662 141 662 C201 662 257 599 316 599 C356 599 382 636 382 692 L374 692 C374 656 355 632 327 632 C268 632 211 695 152 695 C114 695 89 655 89 595 L97 595 L97 595 Z M448 9 L553 39 L553 42 L458 30 L458 470 L458 500 L444 500 L408 470 L417 481 C402 493 335 505 257 505 C136 505 55 393 55 225 C55 87 127 -5 236 -5 C236 -5 305 42 408 112 L408 16 L408 13 L408 0 L408 -5 L416 -5 L448 9 L448 9 Z M408 118 C326 63 268 26 263 26 C169 26 107 113 107 244 C107 392 166 491 255 491 C331 491 395 481 408 470 L408 118 L408 118 Z " />
<glyph glyph-name="adieresis" unicode="&#xe4;" horiz-adv-x="567" d="M324 570 C343 570 355 582 355 601 C355 619 343 631 324 631 C306 631 294 619 294 601 C294 582 306 570 324 570 L324 570 Z M147 570 C166 570 178 582 178 601 C178 619 166 631 147 631 C129 631 117 619 117 601 C117 582 129 570 147 570 L147 570 Z M448 9 L553 39 L553 42 L458 30 L458 470 L458 500 L444 500 L408 470 L417 481 C402 493 335 505 257 505 C136 505 55 393 55 225 C55 87 127 -5 236 -5 C236 -5 305 42 408 112 L408 16 L408 13 L408 0 L408 -5 L416 -5 L448 9 L448 9 Z M408 118 C326 63 268 26 263 26 C169 26 107 113 107 244 C107 392 166 491 255 491 C331 491 395 481 408 470 L408 118 L408 118 Z " />
<glyph glyph-name="aring" unicode="&#xe5;" horiz-adv-x="567" d="M236 546 C193 546 156 583 156 628 C156 676 188 709 236 709 C284 709 316 676 316 628 C316 583 279 546 236 546 L236 546 Z M142 628 C142 578 185 535 236 535 C287 535 330 578 330 628 C330 683 292 720 236 720 C179 720 142 683 142 628 L142 628 Z M448 9 L553 39 L553 42 L458 30 L458 470 L458 500 L444 500 L408 470 L417 481 C402 493 335 505 257 505 C136 505 55 393 55 225 C55 87 127 -5 236 -5 C236 -5 305 42 408 112 L408 16 L408 13 L408 0 L408 -5 L416 -5 L448 9 L448 9 Z M408 118 C326 63 268 26 263 26 C169 26 107 113 107 244 C107 392 166 491 255 491 C331 491 395 481 408 470 L408 118 L408 118 Z " />
<glyph glyph-name="ccedilla" unicode="&#xe7;" horiz-adv-x="470" d="M201 -83 L246 -5 C320 -3 388 15 418 42 L414 48 C399 35 344 26 276 26 C172 26 103 118 103 255 C103 397 176 492 286 492 C334 492 368 457 373 405 C374 390 384 380 398 380 C411 380 420 389 420 402 C415 464 363 506 292 506 C147 506 50 398 50 236 C50 94 122 -1 229 -4 L191 -92 L195 -93 C213 -84 238 -78 256 -78 C293 -78 318 -100 318 -134 C318 -176 289 -204 246 -204 C209 -204 176 -198 163 -190 L161 -195 C181 -210 220 -219 256 -219 C311 -219 348 -185 348 -134 C348 -94 316 -68 268 -68 C246 -68 220 -74 201 -82 L201 -83 L201 -83 Z " />
<glyph glyph-name="egrave" unicode="&#xe8;" horiz-adv-x="476" d="M425 41 L420 47 C405 34 349 25 279 25 C174 25 103 117 103 254 C103 279 105 302 109 324 L380 324 L427 324 C427 433 361 505 261 505 C134 505 50 397 50 235 C50 91 125 -5 238 -5 C317 -5 392 13 425 41 L425 41 Z M247 680 C226 713 211 735 207 735 C199 735 179 721 179 715 C179 710 196 689 222 660 L335 531 L340 535 L247 680 L247 680 Z M110 333 C129 430 184 491 258 491 C331 491 380 441 380 366 C380 352 371 342 356 342 L380 342 L110 333 L110 333 Z " />
<glyph glyph-name="eacute" unicode="&#xe9;" horiz-adv-x="476" d="M229 531 L339 660 C364 690 381 711 381 715 C381 721 361 735 352 735 C350 735 335 713 313 680 L223 535 L229 531 L229 531 Z M425 41 L420 47 C405 34 349 25 279 25 C174 25 103 117 103 254 C103 279 105 302 109 324 L380 324 L427 324 C427 433 361 505 261 505 C134 505 50 397 50 235 C50 91 125 -5 238 -5 C317 -5 392 13 425 41 L425 41 Z M110 333 C129 430 184 491 258 491 C331 491 380 441 380 366 C380 352 371 342 356 342 L380 342 L110 333 L110 333 Z " />
<glyph glyph-name="ecircumflex" unicode="&#xea;" horiz-adv-x="476" d="M425 41 L420 47 C405 34 349 25 279 25 C174 25 103 117 103 254 C103 279 105 302 109 324 L380 324 L427 324 C427 433 361 505 261 505 C134 505 50 397 50 235 C50 91 125 -5 238 -5 C317 -5 392 13 425 41 L425 41 Z M261 692 L373 533 L378 538 L277 731 C275 735 269 745 261 745 C253 745 247 735 245 731 L144 538 L149 533 L261 692 L261 692 Z M110 333 C129 430 184 491 258 491 C331 491 380 441 380 366 C380 352 371 342 356 342 L380 342 L110 333 L110 333 Z " />
<glyph glyph-name="edieresis" unicode="&#xeb;" horiz-adv-x="476" d="M350 570 C368 570 380 582 380 601 C380 619 368 631 350 631 C331 631 319 619 319 601 C319 582 331 570 350 570 L350 570 Z M172 570 C191 570 203 582 203 601 C203 619 191 631 172 631 C154 631 142 619 142 601 C142 582 154 570 172 570 L172 570 Z M425 41 L420 47 C405 34 349 25 279 25 C174 25 103 117 103 254 C103 279 105 302 109 324 L380 324 L427 324 C427 433 361 505 261 505 C134 505 50 397 50 235 C50 91 125 -5 238 -5 C317 -5 392 13 425 41 L425 41 Z M110 333 C129 430 184 491 258 491 C331 491 380 441 380 366 C380 352 371 342 356 342 L380 342 L110 333 L110 333 Z " />
<glyph glyph-name="igrave" unicode="&#xec;" horiz-adv-x="329" d="M151 680 C130 713 115 735 111 735 C102 735 82 721 82 715 C82 710 99 689 125 660 L238 531 L244 535 L151 680 L151 680 Z M165 0 L190 0 L284 0 L284 3 L284 5 L190 5 L190 491 L190 495 L190 508 L180 508 L45 469 L45 468 L45 466 L140 478 L140 5 L45 5 L45 3 L45 0 L140 0 L165 0 L165 0 Z " />
<glyph glyph-name="iacute" unicode="&#xed;" horiz-adv-x="329" d="M87 531 L197 660 C222 690 239 711 239 715 C239 721 219 735 210 735 C208 735 193 713 172 680 L82 535 L87 531 L87 531 Z M165 0 L190 0 L284 0 L284 3 L284 5 L190 5 L190 491 L190 495 L190 508 L180 508 L45 469 L45 468 L45 466 L140 478 L140 5 L45 5 L45 3 L45 0 L140 0 L165 0 L165 0 Z " />
<glyph glyph-name="icircumflex" unicode="&#xee;" horiz-adv-x="329" d="M165 693 L277 533 L282 538 L181 731 C178 735 172 745 165 745 C157 745 151 735 149 731 L48 538 L53 533 L165 693 L165 693 Z M165 0 L190 0 L284 0 L284 3 L284 5 L190 5 L190 491 L190 495 L190 508 L180 508 L45 469 L45 468 L45 466 L140 478 L140 5 L45 5 L45 3 L45 0 L140 0 L165 0 L165 0 Z " />
<glyph glyph-name="idieresis" unicode="&#xef;" horiz-adv-x="329" d="M253 570 C272 570 284 582 284 601 C284 619 272 631 253 631 C235 631 223 619 223 601 C223 582 235 570 253 570 L253 570 Z M76 570 C95 570 107 582 107 601 C107 619 95 631 76 631 C57 631 45 619 45 601 C45 582 57 570 76 570 L76 570 Z M165 0 L190 0 L284 0 L284 3 L284 5 L190 5 L190 491 L190 495 L190 508 L180 508 L45 469 L45 468 L45 466 L140 478 L140 5 L45 5 L45 3 L45 0 L140 0 L165 0 L165 0 Z " />
<glyph glyph-name="ntilde" unicode="&#xf1;" horiz-adv-x="654" d="M191 595 C191 635 209 662 235 662 C294 662 351 599 410 599 C450 599 476 636 476 692 L468 692 C468 656 449 632 421 632 C362 632 305 695 246 695 C208 695 183 655 183 595 L191 595 L191 595 Z M470 5 L375 5 L375 3 L375 0 L470 0 L495 0 L520 0 L614 0 L614 3 L614 5 L520 5 L520 336 C520 438 485 505 395 505 C395 505 313 479 189 438 L189 482 L182 482 L189 484 L189 500 L179 500 L45 461 L45 458 L139 470 L139 5 L45 5 L45 3 L45 0 L139 0 L164 0 L189 0 L284 0 L284 3 L284 5 L189 5 L189 433 C262 456 329 471 357 471 C438 471 469 415 469 331 L470 5 L470 5 Z " />
<glyph glyph-name="ograve" unicode="&#xf2;" horiz-adv-x="583" d="M292 6 C180 6 106 104 106 250 C106 396 180 494 292 494 C404 494 478 396 478 250 C478 104 404 6 292 6 L292 6 Z M50 250 C50 97 147 -5 292 -5 C437 -5 534 97 534 250 C534 403 437 505 292 505 C147 505 50 403 50 250 L50 250 Z M278 680 C257 713 242 735 238 735 C229 735 209 721 209 715 C209 710 226 689 252 660 L365 531 L371 535 L278 680 L278 680 Z " />
<glyph glyph-name="oacute" unicode="&#xf3;" horiz-adv-x="583" d="M260 531 L370 660 C395 690 412 711 412 715 C412 721 392 735 383 735 C381 735 366 713 344 680 L254 535 L260 531 L260 531 Z M292 6 C180 6 106 104 106 250 C106 396 180 494 292 494 C404 494 478 396 478 250 C478 104 404 6 292 6 L292 6 Z M50 250 C50 97 147 -5 292 -5 C437 -5 534 97 534 250 C534 403 437 505 292 505 C147 505 50 403 50 250 L50 250 Z " />
<glyph glyph-name="ocircumflex" unicode="&#xf4;" horiz-adv-x="583" d="M292 6 C180 6 106 104 106 250 C106 396 180 494 292 494 C404 494 478 396 478 250 C478 104 404 6 292 6 L292 6 Z M50 250 C50 97 147 -5 292 -5 C437 -5 534 97 534 250 C534 403 437 505 292 505 C147 505 50 403 50 250 L50 250 Z M292 692 L404 533 L409 538 L308 731 C305 735 299 745 292 745 C284 745 278 735 276 731 L175 538 L180 533 L292 692 L292 692 Z " />
<glyph glyph-name="otilde" unicode="&#xf5;" horiz-adv-x="583" d="M154 595 C154 635 171 662 197 662 C257 662 313 599 373 599 C412 599 438 636 438 692 L430 692 C430 656 411 632 383 632 C324 632 268 695 208 695 C170 695 145 655 145 595 L154 595 L154 595 Z M292 6 C180 6 106 104 106 250 C106 396 180 494 292 494 C404 494 478 396 478 250 C478 104 404 6 292 6 L292 6 Z M50 250 C50 97 147 -5 292 -5 C437 -5 534 97 534 250 C534 403 437 505 292 505 C147 505 50 403 50 250 L50 250 Z " />
<glyph glyph-name="odieresis" unicode="&#xf6;" horiz-adv-x="583" d="M380 570 C399 570 411 582 411 601 C411 619 399 631 380 631 C362 631 350 619 350 601 C350 582 362 570 380 570 L380 570 Z M203 570 C222 570 234 582 234 601 C234 619 222 631 203 631 C185 631 173 619 173 601 C173 582 185 570 203 570 L203 570 Z M292 6 C180 6 106 104 106 250 C106 396 180 494 292 494 C404 494 478 396 478 250 C478 104 404 6 292 6 L292 6 Z M50 250 C50 97 147 -5 292 -5 C437 -5 534 97 534 250 C534 403 437 505 292 505 C147 505 50 403 50 250 L50 250 Z " />
<glyph glyph-name="oslash" unicode="&#xf8;" horiz-adv-x="583" d="M56 -11 L123 59 C165 18 223 -5 292 -5 C437 -5 534 97 534 250 C534 323 512 384 473 428 L540 498 L528 510 L461 440 C419 481 361 504 292 504 C147 504 50 402 50 249 C50 176 72 115 111 71 L44 1 L56 -11 L56 -11 Z M292 6 C231 6 181 35 148 86 L445 399 C466 359 478 308 478 250 C478 104 404 6 292 6 L292 6 Z M139 101 C118 141 106 192 106 250 C106 396 180 494 292 494 C353 494 403 465 436 414 L139 101 L139 101 Z " />
<glyph glyph-name="ugrave" unicode="&#xf9;" horiz-adv-x="619" d="M286 680 C265 713 249 735 246 735 C237 735 217 721 217 715 C217 710 234 689 260 660 L373 531 L379 535 L286 680 L286 680 Z M440 495 L440 68 C375 44 324 29 299 29 C207 29 159 82 159 162 L159 501 L134 501 L109 501 L15 501 L15 498 L15 496 L109 496 L109 157 C109 60 160 -4 260 -4 C260 -4 332 22 440 63 L440 17 L440 14 L440 1 L450 1 L584 40 L584 43 L490 31 L490 501 L465 501 L440 501 L345 501 L345 498 L345 496 L440 495 L440 495 Z " />
<glyph glyph-name="uacute" unicode="&#xfa;" horiz-adv-x="619" d="M267 531 L377 660 C403 690 420 711 419 715 C419 721 399 735 391 735 C388 735 373 713 352 680 L262 535 L267 531 L267 531 Z M440 495 L440 68 C375 44 324 29 299 29 C207 29 159 82 159 162 L159 501 L134 501 L109 501 L15 501 L15 498 L15 496 L109 496 L109 157 C109 60 160 -4 260 -4 C260 -4 332 22 440 63 L440 17 L440 14 L440 1 L450 1 L584 40 L584 43 L490 31 L490 501 L465 501 L440 501 L345 501 L345 498 L345 496 L440 495 L440 495 Z " />
<glyph glyph-name="ucircumflex" unicode="&#xfb;" horiz-adv-x="619" d="M299 692 L411 533 L416 538 L315 731 C313 735 307 745 299 745 C292 745 286 735 284 731 L182 538 L188 533 L299 692 L299 692 Z M440 495 L440 68 C375 44 324 29 299 29 C207 29 159 82 159 162 L159 501 L134 501 L109 501 L15 501 L15 498 L15 496 L109 496 L109 157 C109 60 160 -4 260 -4 C260 -4 332 22 440 63 L440 17 L440 14 L440 1 L450 1 L584 40 L584 43 L490 31 L490 501 L465 501 L440 501 L345 501 L345 498 L345 496 L440 495 L440 495 Z " />
<glyph glyph-name="udieresis" unicode="&#xfc;" horiz-adv-x="619" d="M388 570 C407 570 419 582 419 601 C419 619 407 631 388 631 C369 631 357 619 357 601 C357 582 369 570 388 570 L388 570 Z M211 570 C229 570 241 582 241 601 C241 619 229 631 211 631 C192 631 180 619 180 601 C180 582 192 570 211 570 L211 570 Z M440 495 L440 68 C375 44 324 29 299 29 C207 29 159 82 159 162 L159 501 L134 501 L109 501 L15 501 L15 498 L15 496 L109 496 L109 157 C109 60 160 -4 260 -4 C260 -4 332 22 440 63 L440 17 L440 14 L440 1 L450 1 L584 40 L584 43 L490 31 L490 501 L465 501 L440 501 L345 501 L345 498 L345 496 L440 495 L440 495 Z " />
<glyph glyph-name="ydieresis" unicode="&#xff;" horiz-adv-x="509" d="M372 570 C391 570 403 582 403 601 C403 619 391 631 372 631 C354 631 342 619 342 601 C342 582 354 570 372 570 L372 570 Z M195 570 C214 570 226 582 226 601 C226 619 214 631 195 631 C177 631 165 619 165 601 C165 582 177 570 195 570 L195 570 Z M458 495 L458 495 L301 54 L150 495 L242 495 L242 497 L242 500 L148 500 L119 500 L90 500 L-2 500 L-2 497 L-2 495 L92 495 L275 -3 L250 -67 C215 -161 189 -197 155 -197 C133 -197 112 -173 90 -173 C75 -173 65 -181 65 -194 C65 -216 89 -230 124 -230 C182 -230 221 -186 263 -72 L286 -10 L473 495 L568 495 L568 497 L568 500 L475 500 L467 500 L459 500 L364 500 L364 497 L364 495 L458 495 L458 495 Z " />
<glyph glyph-name="Amacron" unicode="&#x100;" horiz-adv-x="655" d="M176 770 L470 770 L470 798 L176 798 L176 770 L176 770 Z M109 5 L109 5 L185 236 L434 236 L516 5 L516 5 L390 5 L390 3 L390 0 L518 0 L548 0 L579 0 L658 0 L658 3 L658 5 L577 5 L331 675 L317 675 L92 5 L-3 5 L-3 3 L-3 0 L90 0 L99 0 L108 0 L238 0 L238 3 L238 5 L109 5 L109 5 Z M429 251 L191 251 L306 600 L429 251 L429 251 Z " />
<glyph glyph-name="amacron" unicode="&#x101;" horiz-adv-x="567" d="M88 610 L383 610 L383 638 L88 638 L88 610 L88 610 Z M448 9 L553 39 L553 42 L458 30 L458 470 L458 500 L444 500 L408 470 L417 481 C402 493 335 505 257 505 C136 505 55 393 55 225 C55 87 127 -5 236 -5 C236 -5 305 42 408 112 L408 16 L408 13 L408 0 L408 -5 L416 -5 L448 9 L448 9 Z M408 118 C326 63 268 26 263 26 C169 26 107 113 107 244 C107 392 166 491 255 491 C331 491 395 481 408 470 L408 118 L408 118 Z " />
<glyph glyph-name="Abreve" unicode="&#x102;" horiz-adv-x="655" d="M210 872 C222 809 267 768 323 768 C379 768 424 809 436 872 L427 873 C419 830 378 801 323 801 C268 801 227 830 219 873 L210 872 L210 872 Z M109 5 L109 5 L185 236 L434 236 L516 5 L516 5 L390 5 L390 3 L390 0 L518 0 L548 0 L579 0 L658 0 L658 3 L658 5 L577 5 L331 675 L317 675 L92 5 L-3 5 L-3 3 L-3 0 L90 0 L99 0 L108 0 L238 0 L238 3 L238 5 L109 5 L109 5 Z M429 251 L191 251 L306 600 L429 251 L429 251 Z " />
<glyph glyph-name="abreve" unicode="&#x103;" horiz-adv-x="567" d="M123 682 C134 619 179 578 236 578 C292 578 337 619 348 682 L339 683 C332 640 290 611 236 611 C181 611 139 640 132 683 L123 682 L123 682 Z M448 9 L553 39 L553 42 L458 30 L458 470 L458 500 L444 500 L408 470 L417 481 C402 493 335 505 257 505 C136 505 55 393 55 225 C55 87 127 -5 236 -5 C236 -5 305 42 408 112 L408 16 L408 13 L408 0 L408 -5 L416 -5 L448 9 L448 9 Z M408 118 C326 63 268 26 263 26 C169 26 107 113 107 244 C107 392 166 491 255 491 C331 491 395 481 408 470 L408 118 L408 118 Z " />
<glyph glyph-name="Aogonek" unicode="&#x104;" horiz-adv-x="655" d="M109 5 L109 5 L185 236 L434 236 L514 10 C511 9 508 7 505 5 L390 5 L390 3 L390 0 L496 0 C448 -29 375 -97 375 -155 C375 -202 416 -233 478 -233 C509 -233 541 -219 559 -198 L555 -194 C542 -209 516 -219 489 -219 C439 -219 406 -191 406 -149 C406 -84 484 -12 518 0 L548 0 L579 0 L658 0 L658 3 L658 5 L577 5 L331 675 L317 675 L92 5 L-3 5 L-3 3 L-3 0 L90 0 L99 0 L108 0 L238 0 L238 3 L238 5 L109 5 L109 5 Z M429 251 L191 251 L306 600 L429 251 L429 251 Z " />
<glyph glyph-name="aogonek" unicode="&#x105;" horiz-adv-x="477" d="M455 37 C446 28 436 21 424 17 C433 24 441 29 448 31 L448 42 C436 38 419 28 401 14 C372 15 364 38 364 73 L364 359 C364 447 315 505 241 505 C176 505 103 492 57 472 L107 472 C133 483 183 491 230 491 C279 491 311 443 311 371 L311 250 L198 234 C100 220 35 167 35 102 C35 38 80 -5 147 -5 C203 -5 265 23 311 67 C311 21 324 -10 368 -10 C370 -10 372 -10 374 -10 C338 -45 305 -91 305 -134 C305 -193 346 -233 408 -233 C439 -233 471 -219 489 -198 L485 -194 C472 -209 446 -219 419 -219 C369 -219 336 -183 336 -128 C336 -84 366 -38 397 -7 C424 -2 444 12 462 30 L455 37 L455 37 Z M313 238 L313 76 C276 46 224 27 174 27 C121 27 86 62 86 115 C86 164 131 205 200 217 L313 238 L313 238 Z " />
<glyph glyph-name="Cacute" unicode="&#x106;" horiz-adv-x="712" d="M347 691 L457 820 C482 850 499 871 499 875 C499 881 479 895 470 895 C468 895 453 873 432 840 L342 695 L347 691 L347 691 Z M652 14 L651 22 L651 22 L652 14 L652 14 Z M652 14 L652 173 L650 173 L647 173 C642 129 634 70 629 25 C561 15 470 8 393 8 C231 8 122 136 122 329 C122 522 231 650 393 650 C470 650 561 643 629 633 C634 588 642 529 647 485 L650 485 L652 485 L652 644 L651 636 L651 636 L652 644 C586 655 483 663 394 663 C195 663 62 529 62 328 C62 127 195 -7 394 -7 C483 -7 586 1 652 12 L652 14 L652 14 Z " />
<glyph glyph-name="cacute" unicode="&#x107;" horiz-adv-x="470" d="M215 531 L325 660 C349 690 366 711 366 715 C366 721 346 735 338 735 C335 735 320 713 299 680 L209 535 L215 531 L215 531 Z M418 41 L414 47 C399 34 344 25 276 25 C172 25 103 117 103 254 C103 396 176 491 286 491 C334 491 368 456 373 404 C374 389 384 379 398 379 C411 379 420 388 420 401 C415 463 363 505 292 505 C147 505 50 397 50 235 C50 91 124 -5 234 -5 C312 -5 386 13 418 41 L418 41 Z " />
<glyph glyph-name="Ccircumflex" unicode="&#x108;" horiz-adv-x="712" d="M394 852 L506 693 L511 698 L410 891 C408 895 402 905 394 905 C387 905 381 895 378 891 L277 698 L282 693 L394 852 L394 852 Z M652 14 L651 22 L651 22 L652 14 L652 14 Z M652 14 L652 173 L650 173 L647 173 C642 129 634 70 629 25 C561 15 470 8 393 8 C231 8 122 136 122 329 C122 522 231 650 393 650 C470 650 561 643 629 633 C634 588 642 529 647 485 L650 485 L652 485 L652 644 L651 636 L651 636 L652 644 C586 655 483 663 394 663 C195 663 62 529 62 328 C62 127 195 -7 394 -7 C483 -7 586 1 652 12 L652 14 L652 14 Z " />
<glyph glyph-name="Cdot" unicode="&#x10a;" horiz-adv-x="712" d="M394 730 C413 730 425 742 425 761 C425 779 413 791 394 791 C376 791 364 779 364 761 C364 742 376 730 394 730 L394 730 Z M652 14 L651 22 L651 22 L652 14 L652 14 Z M652 14 L652 173 L650 173 L647 173 C642 129 634 70 629 25 C561 15 470 8 393 8 C231 8 122 136 122 329 C122 522 231 650 393 650 C470 650 561 643 629 633 C634 588 642 529 647 485 L650 485 L652 485 L652 644 L651 636 L651 636 L652 644 C586 655 483 663 394 663 C195 663 62 529 62 328 C62 127 195 -7 394 -7 C483 -7 586 1 652 12 L652 14 L652 14 Z " />
<glyph glyph-name="cdot" unicode="&#x10b;" horiz-adv-x="470" d="M292 570 C311 570 323 582 323 601 C323 619 311 631 292 631 C273 631 261 619 261 601 C261 582 273 570 292 570 L292 570 Z M418 41 L414 47 C399 34 344 25 276 25 C172 25 103 117 103 254 C103 396 176 491 286 491 C334 491 368 456 373 404 C374 389 384 379 398 379 C411 379 420 388 420 401 C415 463 363 505 292 505 C147 505 50 397 50 235 C50 91 124 -5 234 -5 C312 -5 386 13 418 41 L418 41 Z " />
<glyph glyph-name="Ccaron" unicode="&#x10c;" horiz-adv-x="712" d="M394 768 L506 927 L511 922 L410 729 C408 725 402 715 394 715 C387 715 381 725 378 729 L277 922 L282 927 L394 768 L394 768 Z M652 14 L651 22 L651 22 L652 14 L652 14 Z M652 14 L652 173 L650 173 L647 173 C642 129 634 70 629 25 C561 15 470 8 393 8 C231 8 122 136 122 329 C122 522 231 650 393 650 C470 650 561 643 629 633 C634 588 642 529 647 485 L650 485 L652 485 L652 644 L651 636 L651 636 L652 644 C586 655 483 663 394 663 C195 663 62 529 62 328 C62 127 195 -7 394 -7 C483 -7 586 1 652 12 L652 14 L652 14 Z " />
<glyph glyph-name="ccaron" unicode="&#x10d;" horiz-adv-x="470" d="M418 41 L414 47 C399 34 344 25 276 25 C172 25 103 117 103 254 C103 396 176 491 286 491 C334 491 368 456 373 404 C374 389 384 379 398 379 C411 379 420 388 420 401 C415 463 363 505 292 505 C147 505 50 397 50 235 C50 91 124 -5 234 -5 C312 -5 386 13 418 41 L418 41 Z M292 608 L404 767 L409 762 L308 569 C306 565 300 555 292 555 C284 555 278 565 276 569 L175 762 L180 767 L292 608 L292 608 Z " />
<glyph glyph-name="Dcaron" unicode="&#x10e;" horiz-adv-x="705" d="M373 768 L485 927 L490 922 L389 729 C387 725 381 715 373 715 C366 715 360 725 357 729 L256 922 L261 927 L373 768 L373 768 Z M174 0 L201 0 L359 0 C537 0 656 132 656 330 C656 528 521 660 319 660 L201 660 L174 660 L146 660 L51 660 L51 657 L51 655 L146 655 L146 5 L51 5 L51 3 L51 0 L146 0 L174 0 L174 0 Z M201 14 L201 646 L319 646 C488 646 600 520 600 330 C600 140 504 14 359 14 L201 14 L201 14 Z " />
<glyph glyph-name="dcaron" unicode="&#x10f;" horiz-adv-x="589" d="M593 635 C613 688 627 736 627 742 C627 751 605 754 595 753 C585 754 570 692 561 647 L528 484 L535 482 L593 635 L593 635 Z M430 13 L430 0 L440 0 L575 39 L575 42 L480 30 L480 704 L480 707 L480 720 L470 720 L335 681 L335 678 L430 690 L430 483 C398 495 338 505 274 505 C142 505 55 393 55 225 C55 87 134 -5 252 -5 C252 -5 323 16 430 48 L430 15 L430 13 L430 13 Z M430 53 C371 36 311 24 279 24 C176 24 107 111 107 242 C107 390 173 489 271 489 C339 489 402 478 429 466 L430 53 L430 53 Z " />
<glyph glyph-name="Emacron" unicode="&#x112;" horiz-adv-x="615" d="M156 770 L450 770 L450 798 L156 798 L156 770 L156 770 Z M473 660 L473 653 L471 653 L471 660 L190 660 L162 660 L135 660 L40 660 L40 657 L40 655 L135 655 L135 5 L40 5 L40 3 L40 0 L135 0 L162 0 L190 0 L478 0 L480 0 L481 0 L483 0 C483 2 484 5 484 7 C493 55 504 120 513 169 L512 169 L509 169 L466 14 L190 14 L190 345 L404 345 L412 240 L415 240 L416 240 L416 345 L416 352 L416 359 L416 454 L415 454 L412 454 L404 359 L190 359 L190 646 L458 646 L474 491 L477 491 L478 491 L478 653 L478 660 L475 660 L473 660 L473 660 Z " />
<glyph glyph-name="emacron" unicode="&#x113;" horiz-adv-x="476" d="M114 610 L408 610 L408 638 L114 638 L114 610 L114 610 Z M425 41 L420 47 C405 34 349 25 279 25 C174 25 103 117 103 254 C103 279 105 302 109 324 L380 324 L427 324 C427 433 361 505 261 505 C134 505 50 397 50 235 C50 91 125 -5 238 -5 C317 -5 392 13 425 41 L425 41 Z M110 333 C129 430 184 491 258 491 C331 491 380 441 380 366 C380 352 371 342 356 342 L380 342 L110 333 L110 333 Z " />
<glyph glyph-name="Ebreve" unicode="&#x114;" horiz-adv-x="615" d="M190 872 C202 809 247 768 303 768 C359 768 404 809 415 872 L407 873 C399 830 358 801 303 801 C248 801 207 830 199 873 L190 872 L190 872 Z M473 660 L473 653 L471 653 L471 660 L190 660 L162 660 L135 660 L40 660 L40 657 L40 655 L135 655 L135 5 L40 5 L40 3 L40 0 L135 0 L162 0 L190 0 L478 0 L480 0 L481 0 L483 0 C483 2 484 5 484 7 C493 55 504 120 513 169 L512 169 L509 169 L466 14 L190 14 L190 345 L404 345 L412 240 L415 240 L416 240 L416 345 L416 352 L416 359 L416 454 L415 454 L412 454 L404 359 L190 359 L190 646 L458 646 L474 491 L477 491 L478 491 L478 653 L478 660 L475 660 L473 660 L473 660 Z " />
<glyph glyph-name="ebreve" unicode="&#x115;" horiz-adv-x="476" d="M148 712 C160 649 205 608 261 608 C317 608 362 649 374 712 L365 713 C357 670 316 641 261 641 C206 641 165 670 157 713 L148 712 L148 712 Z M425 41 L420 47 C405 34 349 25 279 25 C174 25 103 117 103 254 C103 279 105 302 109 324 L380 324 L427 324 C427 433 361 505 261 505 C134 505 50 397 50 235 C50 91 125 -5 238 -5 C317 -5 392 13 425 41 L425 41 Z M110 333 C129 430 184 491 258 491 C331 491 380 441 380 366 C380 352 371 342 356 342 L380 342 L110 333 L110 333 Z " />
<glyph glyph-name="Edot" unicode="&#x116;" horiz-adv-x="615" d="M303 730 C321 730 333 742 333 761 C333 779 321 791 303 791 C284 791 272 779 272 761 C272 742 284 730 303 730 L303 730 Z M473 660 L473 653 L471 653 L471 660 L190 660 L162 660 L135 660 L40 660 L40 657 L40 655 L135 655 L135 5 L40 5 L40 3 L40 0 L135 0 L162 0 L190 0 L478 0 L480 0 L481 0 L483 0 C483 2 484 5 484 7 C493 55 504 120 513 169 L512 169 L509 169 L466 14 L190 14 L190 345 L404 345 L412 240 L415 240 L416 240 L416 345 L416 352 L416 359 L416 454 L415 454 L412 454 L404 359 L190 359 L190 646 L458 646 L474 491 L477 491 L478 491 L478 653 L478 660 L475 660 L473 660 L473 660 Z " />
<glyph glyph-name="edot" unicode="&#x117;" horiz-adv-x="476" d="M261 570 C279 570 291 582 291 601 C291 619 279 631 261 631 C242 631 230 619 230 601 C230 582 242 570 261 570 L261 570 Z M425 41 L420 47 C405 34 349 25 279 25 C174 25 103 117 103 254 C103 279 105 302 109 324 L380 324 L427 324 C427 433 361 505 261 505 C134 505 50 397 50 235 C50 91 125 -5 238 -5 C317 -5 392 13 425 41 L425 41 Z M110 333 C129 430 184 491 258 491 C331 491 380 441 380 366 C380 352 371 342 356 342 L380 342 L110 333 L110 333 Z " />
<glyph glyph-name="Eogonek" unicode="&#x118;" horiz-adv-x="615" d="M473 660 L473 653 L471 653 L471 660 L190 660 L162 660 L135 660 L40 660 L40 657 L40 655 L135 655 L135 5 L40 5 L40 3 L40 0 L135 0 L162 0 L190 0 L459 0 C411 -29 338 -97 338 -155 C338 -202 379 -233 441 -233 C472 -233 504 -219 522 -198 L518 -194 C505 -209 479 -219 452 -219 C402 -219 369 -191 369 -149 C369 -84 448 -12 481 0 L483 0 C483 2 484 5 484 7 C493 55 504 120 513 169 L512 169 L509 169 L466 14 L190 14 L190 345 L404 345 L412 240 L415 240 L416 240 L416 345 L416 352 L416 359 L416 454 L415 454 L412 454 L404 359 L190 359 L190 646 L458 646 L474 491 L477 491 L478 491 L478 653 L478 660 L475 660 L473 660 L473 660 Z " />
<glyph glyph-name="eogonek" unicode="&#x119;" horiz-adv-x="476" d="M110 333 C129 430 184 491 258 491 C331 491 380 441 380 366 C380 352 371 342 356 342 L380 342 L110 333 L110 333 Z M109 324 L380 324 L427 324 C427 433 361 505 261 505 C134 505 50 397 50 235 C50 91 125 -5 238 -5 C240 -5 242 -5 244 -5 C196 -34 125 -101 125 -158 C125 -203 166 -233 229 -233 C259 -233 292 -219 309 -198 L305 -194 C293 -209 266 -219 240 -219 C189 -219 156 -192 156 -152 C156 -88 234 -16 267 -4 C335 0 396 17 425 41 L420 47 C405 34 349 25 279 25 C174 25 103 117 103 254 C103 279 105 302 109 324 L109 324 Z " />
<glyph glyph-name="Ecaron" unicode="&#x11a;" horiz-adv-x="615" d="M473 660 L473 653 L471 653 L471 660 L190 660 L162 660 L135 660 L40 660 L40 657 L40 655 L135 655 L135 5 L40 5 L40 3 L40 0 L135 0 L162 0 L190 0 L478 0 L480 0 L481 0 L483 0 C483 2 484 5 484 7 C493 55 504 120 513 169 L512 169 L509 169 L466 14 L190 14 L190 345 L404 345 L412 240 L415 240 L416 240 L416 345 L416 352 L416 359 L416 454 L415 454 L412 454 L404 359 L190 359 L190 646 L458 646 L474 491 L477 491 L478 491 L478 653 L478 660 L475 660 L473 660 L473 660 Z M303 768 L415 927 L420 922 L319 729 C317 725 310 715 303 715 C295 715 289 725 287 729 L186 922 L191 927 L303 768 L303 768 Z " />
<glyph glyph-name="ecaron" unicode="&#x11b;" horiz-adv-x="476" d="M425 41 L420 47 C405 34 349 25 279 25 C174 25 103 117 103 254 C103 279 105 302 109 324 L380 324 L427 324 C427 433 361 505 261 505 C134 505 50 397 50 235 C50 91 125 -5 238 -5 C317 -5 392 13 425 41 L425 41 Z M261 608 L373 767 L378 762 L277 569 C275 565 269 555 261 555 C253 555 247 565 245 569 L144 762 L149 767 L261 608 L261 608 Z M110 333 C129 430 184 491 258 491 C331 491 380 441 380 366 C380 352 371 342 356 342 L380 342 L110 333 L110 333 Z " />
<glyph glyph-name="Gcircumflex" unicode="&#x11c;" horiz-adv-x="829" d="M383 852 L495 693 L500 698 L399 891 C397 895 391 905 383 905 C376 905 370 895 367 891 L266 698 L271 693 L383 852 L383 852 Z M589 305 L589 49 C529 24 452 9 383 9 C227 9 123 137 123 330 C123 523 227 651 383 651 C455 651 542 644 609 634 C614 589 622 530 627 486 L630 486 L632 486 L632 645 L631 637 L631 637 L632 645 C566 656 466 664 383 664 C190 664 62 530 62 329 C62 128 190 -6 383 -6 C472 -6 574 19 639 56 L639 304 L733 304 L733 306 L733 309 L639 309 L614 309 L589 309 L494 309 L494 306 L494 304 L589 305 L589 305 Z " />
<glyph glyph-name="Gbreve" unicode="&#x11e;" horiz-adv-x="829" d="M271 872 C282 809 327 768 383 768 C439 768 484 809 496 872 L487 873 C479 830 438 801 383 801 C328 801 287 830 279 873 L271 872 L271 872 Z M589 305 L589 49 C529 24 452 9 383 9 C227 9 123 137 123 330 C123 523 227 651 383 651 C455 651 542 644 609 634 C614 589 622 530 627 486 L630 486 L632 486 L632 645 L631 637 L631 637 L632 645 C566 656 466 664 383 664 C190 664 62 530 62 329 C62 128 190 -6 383 -6 C472 -6 574 19 639 56 L639 304 L733 304 L733 306 L733 309 L639 309 L614 309 L589 309 L494 309 L494 306 L494 304 L589 305 L589 305 Z " />
<glyph glyph-name="gbreve" unicode="&#x11f;" horiz-adv-x="461" d="M131 712 C142 649 187 608 243 608 C300 608 345 649 356 712 L347 713 C340 670 298 641 243 641 C189 641 147 670 140 713 L131 712 L131 712 Z M462 500 L325 490 L325 490 C301 500 273 505 242 505 C138 505 68 443 68 350 C68 277 112 223 182 204 C103 202 51 167 51 114 C51 69 83 37 135 26 C68 -5 26 -55 26 -109 C26 -185 84 -236 172 -236 C333 -236 441 -160 441 -47 C441 24 370 72 264 72 L188 69 C126 65 84 91 84 133 C84 172 126 197 189 197 L242 197 C347 197 417 259 417 352 C417 403 396 445 359 472 L461 473 L462 500 L462 500 Z M115 351 C115 437 166 495 242 495 C318 495 369 437 369 351 C369 265 318 207 242 207 C166 207 115 265 115 351 L115 351 Z M146 23 C160 21 175 20 191 21 L251 23 C343 23 405 -16 405 -73 C405 -164 314 -224 177 -224 C106 -224 59 -176 59 -104 C59 -51 93 -4 147 23 L146 23 L146 23 Z " />
<glyph glyph-name="Gdot" unicode="&#x120;" horiz-adv-x="829" d="M383 730 C402 730 414 742 414 761 C414 779 402 791 383 791 C365 791 353 779 353 761 C353 742 365 730 383 730 L383 730 Z M589 305 L589 49 C529 24 452 9 383 9 C227 9 123 137 123 330 C123 523 227 651 383 651 C455 651 542 644 609 634 C614 589 622 530 627 486 L630 486 L632 486 L632 645 L631 637 L631 637 L632 645 C566 656 466 664 383 664 C190 664 62 530 62 329 C62 128 190 -6 383 -6 C472 -6 574 19 639 56 L639 304 L733 304 L733 306 L733 309 L639 309 L614 309 L589 309 L494 309 L494 306 L494 304 L589 305 L589 305 Z " />
<glyph glyph-name="gdot" unicode="&#x121;" horiz-adv-x="461" d="M243 570 C262 570 274 582 274 601 C274 619 262 631 243 631 C225 631 213 619 213 601 C213 582 225 570 243 570 L243 570 Z M462 500 L325 490 L325 490 C301 500 273 505 242 505 C138 505 68 443 68 350 C68 277 112 223 182 204 C103 202 51 167 51 114 C51 69 83 37 135 26 C68 -5 26 -55 26 -109 C26 -185 84 -236 172 -236 C333 -236 441 -160 441 -47 C441 24 370 72 264 72 L188 69 C126 65 84 91 84 133 C84 172 126 197 189 197 L242 197 C347 197 417 259 417 352 C417 403 396 445 359 472 L461 473 L462 500 L462 500 Z M115 351 C115 437 166 495 242 495 C318 495 369 437 369 351 C369 265 318 207 242 207 C166 207 115 265 115 351 L115 351 Z M146 23 C160 21 175 20 191 21 L251 23 C343 23 405 -16 405 -73 C405 -164 314 -224 177 -224 C106 -224 59 -176 59 -104 C59 -51 93 -4 147 23 L146 23 L146 23 Z " />
<glyph glyph-name="Hcircumflex" unicode="&#x124;" horiz-adv-x="802" d="M401 852 L513 693 L518 698 L417 891 C415 895 409 905 401 905 C394 905 388 895 386 891 L284 698 L290 693 L401 852 L401 852 Z M640 0 L668 0 L763 0 L763 3 L763 5 L668 5 L668 655 L763 655 L763 657 L763 660 L668 660 L640 660 L613 660 L518 660 L518 657 L518 655 L613 655 L613 354 L190 354 L190 655 L285 655 L285 657 L285 660 L190 660 L162 660 L135 660 L40 660 L40 657 L40 655 L135 655 L135 5 L40 5 L40 3 L40 0 L135 0 L162 0 L190 0 L285 0 L285 3 L285 5 L190 5 L190 340 L613 340 L613 5 L518 5 L518 3 L518 0 L613 0 L640 0 L640 0 Z " />
<glyph glyph-name="Itilde" unicode="&#x128;" horiz-adv-x="324" d="M24 755 C24 795 42 822 68 822 C127 822 184 759 243 759 C283 759 309 796 309 852 L301 852 C301 816 282 792 254 792 C195 792 138 855 79 855 C41 855 16 815 16 755 L24 755 L24 755 Z M162 0 L190 0 L285 0 L285 3 L285 5 L190 5 L190 655 L285 655 L285 657 L285 660 L190 660 L162 660 L135 660 L40 660 L40 657 L40 655 L135 655 L135 5 L40 5 L40 3 L40 0 L135 0 L162 0 L162 0 Z " />
<glyph glyph-name="itilde" unicode="&#x129;" horiz-adv-x="329" d="M26 595 C26 635 44 662 70 662 C130 662 186 599 245 599 C285 599 311 636 311 692 L303 692 C303 656 284 632 256 632 C197 632 140 695 81 695 C43 695 18 655 18 595 L26 595 L26 595 Z M165 0 L190 0 L284 0 L284 3 L284 5 L190 5 L190 491 L190 495 L190 508 L180 508 L45 469 L45 468 L45 466 L140 478 L140 5 L45 5 L45 3 L45 0 L140 0 L165 0 L165 0 Z " />
<glyph glyph-name="Imacron" unicode="&#x12a;" horiz-adv-x="324" d="M15 770 L310 770 L310 798 L15 798 L15 770 L15 770 Z M162 0 L190 0 L285 0 L285 3 L285 5 L190 5 L190 655 L285 655 L285 657 L285 660 L190 660 L162 660 L135 660 L40 660 L40 657 L40 655 L135 655 L135 5 L40 5 L40 3 L40 0 L135 0 L162 0 L162 0 Z " />
<glyph glyph-name="imacron" unicode="&#x12b;" horiz-adv-x="329" d="M17 610 L312 610 L312 638 L17 638 L17 610 L17 610 Z M165 0 L190 0 L284 0 L284 3 L284 5 L190 5 L190 491 L190 495 L190 508 L180 508 L45 469 L45 468 L45 466 L140 478 L140 5 L45 5 L45 3 L45 0 L140 0 L165 0 L165 0 Z " />
<glyph glyph-name="Ibreve" unicode="&#x12c;" horiz-adv-x="324" d="M50 872 C61 809 106 768 162 768 C219 768 264 809 275 872 L266 873 C259 830 217 801 162 801 C108 801 66 830 59 873 L50 872 L50 872 Z M162 0 L190 0 L285 0 L285 3 L285 5 L190 5 L190 655 L285 655 L285 657 L285 660 L190 660 L162 660 L135 660 L40 660 L40 657 L40 655 L135 655 L135 5 L40 5 L40 3 L40 0 L135 0 L162 0 L162 0 Z " />
<glyph glyph-name="ibreve" unicode="&#x12d;" horiz-adv-x="329" d="M52 712 C63 649 108 608 165 608 C221 608 266 649 277 712 L268 713 C261 670 219 641 165 641 C110 641 68 670 61 713 L52 712 L52 712 Z M165 0 L190 0 L284 0 L284 3 L284 5 L190 5 L190 491 L190 495 L190 508 L180 508 L45 469 L45 468 L45 466 L140 478 L140 5 L45 5 L45 3 L45 0 L140 0 L165 0 L165 0 Z " />
<glyph glyph-name="Idot" unicode="&#x130;" horiz-adv-x="324" d="M162 730 C181 730 193 742 193 761 C193 779 181 791 162 791 C144 791 132 779 132 761 C132 742 144 730 162 730 L162 730 Z M162 0 L190 0 L285 0 L285 3 L285 5 L190 5 L190 655 L285 655 L285 657 L285 660 L190 660 L162 660 L135 660 L40 660 L40 657 L40 655 L135 655 L135 5 L40 5 L40 3 L40 0 L135 0 L162 0 L162 0 Z " />
<glyph glyph-name="dotlessi" unicode="&#x131;" horiz-adv-x="329" d="M165 0 L190 0 L284 0 L284 3 L284 5 L190 5 L190 491 L190 495 L190 508 L180 508 L45 469 L45 468 L45 466 L140 478 L140 5 L45 5 L45 3 L45 0 L140 0 L165 0 L165 0 Z " />
<glyph glyph-name="Jcircumflex" unicode="&#x134;" horiz-adv-x="381" d="M219 852 L331 693 L336 698 L235 891 C233 895 227 905 219 905 C211 905 205 895 203 891 L102 698 L107 693 L219 852 L219 852 Z M191 655 L191 200 C191 57 168 1 109 1 C79 1 54 21 47 50 C44 63 34 72 22 72 C5 72 -4 63 0 50 C9 14 47 -10 95 -10 C204 -10 247 62 247 247 L247 655 L341 655 L341 657 L341 660 L247 660 L219 660 L191 660 L97 660 L97 657 L97 655 L191 655 L191 655 Z " />
<glyph glyph-name="Lacute" unicode="&#x139;" horiz-adv-x="615" d="M138 691 L248 820 C273 850 289 871 290 875 C290 881 270 895 261 895 C259 895 244 873 223 840 L132 695 L138 691 L138 691 Z M484 7 C493 57 505 124 514 175 C514 175 513 175 513 177 C511 180 509 182 509 183 L466 14 L190 14 L190 655 L285 655 L285 657 L285 660 L190 660 L162 660 L135 660 L40 660 L40 657 L40 655 L135 655 L135 5 L40 5 L40 3 L40 0 L135 0 L162 0 L190 0 L478 0 L480 0 L481 0 L483 0 C483 2 484 5 484 7 L484 7 Z M509 183 L509 183 L509 183 Z " />
<glyph glyph-name="Lcaron" unicode="&#x13d;" horiz-adv-x="615" d="M397 575 C418 628 432 676 432 682 C432 691 410 694 400 693 C390 694 375 632 366 587 L333 424 L340 422 L397 575 L397 575 Z M484 7 C493 57 505 124 514 175 C514 175 513 175 513 177 C511 180 509 182 509 183 L466 14 L190 14 L190 655 L285 655 L285 657 L285 660 L190 660 L162 660 L135 660 L40 660 L40 657 L40 655 L135 655 L135 5 L40 5 L40 3 L40 0 L135 0 L162 0 L190 0 L478 0 L480 0 L481 0 L483 0 C483 2 484 5 484 7 L484 7 Z M509 183 L509 183 L509 183 Z " />
<glyph glyph-name="lcaron" unicode="&#x13e;" horiz-adv-x="329" d="M302 605 C322 658 336 706 336 712 C336 721 314 724 305 723 C294 724 279 662 271 617 L238 454 L244 452 L302 605 L302 605 Z M165 0 L190 0 L284 0 L284 3 L284 5 L190 5 L190 704 L190 707 L190 720 L180 720 L45 681 L45 678 L140 690 L140 5 L45 5 L45 3 L45 0 L140 0 L165 0 L165 0 Z " />
<glyph glyph-name="Lslash" unicode="&#x141;" horiz-adv-x="615" d="M85 272 L135 292 L135 5 L40 5 L40 3 L40 0 L135 0 L162 0 L190 0 L478 0 L480 0 L481 0 L483 0 C483 2 484 5 484 7 C493 57 505 124 514 175 C514 175 513 175 513 177 C511 180 509 182 509 183 L466 14 L190 14 L190 314 L336 372 L336 388 L190 330 L190 655 L285 655 L285 657 L285 660 L190 660 L162 660 L135 660 L40 660 L40 657 L40 655 L135 655 L135 308 L85 288 L85 272 L85 272 Z M509 183 L509 183 L509 183 Z " />
<glyph glyph-name="lslash" unicode="&#x142;" horiz-adv-x="329" d="M40 302 L140 342 L140 5 L45 5 L45 3 L45 0 L140 0 L165 0 L190 0 L284 0 L284 3 L284 5 L190 5 L190 362 L290 402 L290 418 L190 378 L190 704 L190 707 L190 720 L180 720 L45 681 L45 678 L140 690 L140 358 L40 318 L40 302 L40 302 Z " />
<glyph glyph-name="Nacute" unicode="&#x143;" horiz-adv-x="738" d="M337 691 L447 820 C472 850 489 871 489 875 C489 881 469 895 460 895 C458 895 443 873 422 840 L332 695 L337 691 L337 691 Z M584 655 L584 82 L187 660 L154 637 L154 637 L187 660 L154 660 L146 660 L137 660 L43 660 L43 657 L43 655 L137 655 L137 5 L43 5 L43 3 L43 0 L137 0 L146 0 L154 0 L249 0 L249 3 L249 5 L154 5 L154 611 L559 22 L582 -11 L601 -11 L601 42 L601 655 L696 655 L696 657 L696 660 L601 660 L593 660 L584 660 L490 660 L490 657 L490 655 L584 655 L584 655 Z " />
<glyph glyph-name="nacute" unicode="&#x144;" horiz-adv-x="654" d="M252 531 L362 660 C387 690 404 711 404 715 C404 721 384 735 375 735 C373 735 358 713 336 680 L246 535 L252 531 L252 531 Z M470 5 L375 5 L375 3 L375 0 L470 0 L495 0 L520 0 L614 0 L614 3 L614 5 L520 5 L520 336 C520 438 485 505 395 505 C395 505 313 479 189 438 L189 482 L182 482 L189 484 L189 500 L179 500 L45 461 L45 458 L139 470 L139 5 L45 5 L45 3 L45 0 L139 0 L164 0 L189 0 L284 0 L284 3 L284 5 L189 5 L189 433 C262 456 329 471 357 471 C438 471 469 415 469 331 L470 5 L470 5 Z " />
<glyph glyph-name="Ncaron" unicode="&#x147;" horiz-adv-x="738" d="M369 768 L481 927 L486 922 L385 729 C383 725 377 715 369 715 C362 715 356 725 353 729 L252 922 L257 927 L369 768 L369 768 Z M584 655 L584 82 L187 660 L154 637 L154 637 L187 660 L154 660 L146 660 L137 660 L43 660 L43 657 L43 655 L137 655 L137 5 L43 5 L43 3 L43 0 L137 0 L146 0 L154 0 L249 0 L249 3 L249 5 L154 5 L154 611 L559 22 L582 -11 L601 -11 L601 42 L601 655 L696 655 L696 657 L696 660 L601 660 L593 660 L584 660 L490 660 L490 657 L490 655 L584 655 L584 655 Z " />
<glyph glyph-name="ncaron" unicode="&#x148;" horiz-adv-x="654" d="M329 608 L441 767 L446 762 L345 569 C343 565 337 555 329 555 C322 555 316 565 314 569 L212 762 L218 767 L329 608 L329 608 Z M470 5 L375 5 L375 3 L375 0 L470 0 L495 0 L520 0 L614 0 L614 3 L614 5 L520 5 L520 336 C520 438 485 505 395 505 C395 505 313 479 189 438 L189 482 L182 482 L189 484 L189 500 L179 500 L45 461 L45 458 L139 470 L139 5 L45 5 L45 3 L45 0 L139 0 L164 0 L189 0 L284 0 L284 3 L284 5 L189 5 L189 433 C262 456 329 471 357 471 C438 471 469 415 469 331 L470 5 L470 5 Z " />
<glyph glyph-name="Omacron" unicode="&#x14c;" horiz-adv-x="753" d="M235 770 L530 770 L530 798 L235 798 L235 770 L235 770 Z M383 9 C211 9 123 157 123 330 C123 503 211 651 383 651 C555 651 643 503 643 330 C643 157 555 9 383 9 L383 9 Z M62 330 C62 149 171 -5 383 -5 C595 -5 704 149 704 330 C704 511 595 665 383 665 C171 665 62 511 62 330 L62 330 Z " />
<glyph glyph-name="omacron" unicode="&#x14d;" horiz-adv-x="583" d="M144 610 L439 610 L439 638 L144 638 L144 610 L144 610 Z M292 6 C180 6 106 104 106 250 C106 396 180 494 292 494 C404 494 478 396 478 250 C478 104 404 6 292 6 L292 6 Z M50 250 C50 97 147 -5 292 -5 C437 -5 534 97 534 250 C534 403 437 505 292 505 C147 505 50 403 50 250 L50 250 Z " />
<glyph glyph-name="Obreve" unicode="&#x14e;" horiz-adv-x="753" d="M270 872 C281 809 326 768 383 768 C439 768 484 809 495 872 L487 873 C479 830 437 801 383 801 C328 801 287 830 279 873 L270 872 L270 872 Z M383 9 C211 9 123 157 123 330 C123 503 211 651 383 651 C555 651 643 503 643 330 C643 157 555 9 383 9 L383 9 Z M62 330 C62 149 171 -5 383 -5 C595 -5 704 149 704 330 C704 511 595 665 383 665 C171 665 62 511 62 330 L62 330 Z " />
<glyph glyph-name="obreve" unicode="&#x14f;" horiz-adv-x="583" d="M179 712 C190 649 235 608 292 608 C348 608 393 649 404 712 L396 713 C388 670 347 641 292 641 C237 641 196 670 188 713 L179 712 L179 712 Z M292 6 C180 6 106 104 106 250 C106 396 180 494 292 494 C404 494 478 396 478 250 C478 104 404 6 292 6 L292 6 Z M50 250 C50 97 147 -5 292 -5 C437 -5 534 97 534 250 C534 403 437 505 292 505 C147 505 50 403 50 250 L50 250 Z " />
<glyph glyph-name="Racute" unicode="&#x154;" horiz-adv-x="644" d="M265 691 L375 820 C400 850 416 871 417 875 C416 881 397 895 388 895 C386 895 371 873 349 840 L259 695 L265 691 L265 691 Z M644 0 L644 11 L639 11 C620 11 616 14 548 95 L360 320 C469 334 539 398 539 489 C539 591 459 659 339 659 L201 659 L174 659 L146 659 L51 659 L51 656 L51 654 L146 654 L146 4 L51 4 L51 2 L51 -1 L146 -1 L174 -1 L201 -1 L296 -1 L296 2 L296 4 L201 4 L201 316 L296 316 L472 105 C557 3 563 -1 623 -1 L644 0 L644 0 Z M312 329 L285 329 L201 329 L201 645 L339 645 C424 645 481 582 481 489 C481 393 413 329 312 329 L312 329 Z " />
<glyph glyph-name="Rcaron" unicode="&#x158;" horiz-adv-x="575" d="M342 768 L454 927 L459 922 L358 729 C356 725 350 715 342 715 C335 715 329 725 327 729 L225 922 L230 927 L342 768 L342 768 Z M312 317 C365 169 471 25 576 -43 L581 -35 C519 5 435 148 372 322 C474 339 539 402 539 490 C539 592 459 660 339 660 L201 660 L174 660 L146 660 L51 660 L51 657 L51 655 L146 655 L146 5 L51 5 L51 3 L51 0 L146 0 L174 0 L201 0 L296 0 L296 3 L296 5 L201 5 L201 317 L312 317 L312 317 Z M201 330 L201 646 L339 646 C424 646 481 583 481 490 C481 394 413 330 312 330 L201 330 L201 330 Z " />
<glyph glyph-name="rcaron" unicode="&#x159;" horiz-adv-x="429" d="M237 608 L349 767 L354 762 L253 569 C250 565 244 555 237 555 C229 555 223 565 221 569 L120 762 L125 767 L237 608 L237 608 Z M164 0 L189 0 L284 0 L284 3 L284 5 L189 5 L189 432 C237 454 279 468 294 468 C326 468 363 446 395 446 C409 446 419 455 419 470 C419 491 395 505 334 505 C334 505 276 479 189 439 L189 482 L182 482 L189 484 L182 500 L172 500 L45 461 L45 458 L139 470 L139 5 L45 5 L45 3 L45 0 L139 0 L164 0 L164 0 Z " />
<glyph glyph-name="Sacute" unicode="&#x15a;" horiz-adv-x="500" d="M189 691 L299 820 C324 850 341 871 341 875 C341 881 321 895 312 895 C310 895 294 873 273 840 L183 695 L189 691 L189 691 Z M396 640 C402 596 410 536 415 492 L417 492 L420 492 L420 656 L418 646 L418 646 L420 656 C389 661 316 665 239 665 C126 665 51 591 51 481 C51 410 122 341 229 308 C341 275 416 209 416 145 C416 64 357 9 268 9 C195 9 117 14 67 21 C62 65 54 125 49 169 L46 169 L44 169 L44 5 L46 15 L46 15 L44 5 C75 0 165 -4 268 -4 C381 -4 456 65 456 169 C456 246 382 319 272 353 C163 386 90 447 90 504 C90 593 148 652 236 652 C287 652 348 647 395 641 L396 640 L396 640 Z " />
<glyph glyph-name="sacute" unicode="&#x15b;" horiz-adv-x="418" d="M135 531 L245 660 C270 690 286 711 287 715 C286 721 266 735 258 735 C255 735 240 713 219 680 L129 535 L135 531 L135 531 Z M329 481 L329 481 C332 452 336 414 339 384 L342 384 L344 384 L344 496 C314 502 262 505 212 505 C125 505 67 454 67 378 C67 326 123 268 208 232 C279 203 327 157 327 117 C327 51 284 6 219 6 C162 6 106 9 70 14 L70 15 C65 47 59 89 54 122 L52 122 L50 122 L50 0 C63 -3 129 -4 217 -4 C309 -4 370 52 370 137 C370 185 320 238 244 269 C161 303 106 354 106 396 C106 455 149 495 213 495 C237 495 282 490 330 482 L329 481 L329 481 Z " />
<glyph glyph-name="Scircumflex" unicode="&#x15c;" horiz-adv-x="500" d="M236 852 L348 693 L353 698 L252 891 C250 895 244 905 236 905 C229 905 223 895 220 891 L119 698 L124 693 L236 852 L236 852 Z M396 640 C402 596 410 536 415 492 L417 492 L420 492 L420 656 L418 646 L418 646 L420 656 C389 661 316 665 239 665 C126 665 51 591 51 481 C51 410 122 341 229 308 C341 275 416 209 416 145 C416 64 357 9 268 9 C195 9 117 14 67 21 C62 65 54 125 49 169 L46 169 L44 169 L44 5 L46 15 L46 15 L44 5 C75 0 165 -4 268 -4 C381 -4 456 65 456 169 C456 246 382 319 272 353 C163 386 90 447 90 504 C90 593 148 652 236 652 C287 652 348 647 395 641 L396 640 L396 640 Z " />
<glyph glyph-name="Scedilla" unicode="&#x15e;" horiz-adv-x="500" d="M234 -84 L279 -5 C386 -1 456 67 456 168 C456 245 382 318 272 352 C163 385 90 446 90 503 C90 592 148 651 236 651 C287 651 348 646 395 640 C401 596 409 536 414 492 L416 492 L419 492 L419 656 L417 646 L417 646 L419 656 C388 661 315 665 238 665 C125 665 50 591 50 481 C50 410 121 341 228 308 C340 275 415 209 415 145 C415 64 356 9 267 9 C194 9 116 14 66 21 C61 65 53 125 48 169 L45 169 L43 169 L43 5 L45 15 L45 15 L43 5 C74 0 162 -4 263 -4 L225 -92 L228 -93 C247 -84 271 -78 290 -78 C327 -78 351 -100 351 -134 C351 -176 322 -204 280 -204 C243 -204 209 -198 196 -190 L194 -195 C214 -210 253 -219 290 -219 C345 -219 382 -185 382 -134 C382 -94 350 -68 302 -68 C278 -68 252 -74 234 -83 L234 -84 L234 -84 Z " />
<glyph glyph-name="scedilla" unicode="&#x15f;" horiz-adv-x="418" d="M183 -83 L228 -5 C313 0 369 55 369 136 C369 184 319 237 243 268 C160 302 105 353 105 395 C105 454 148 494 212 494 C236 494 281 489 329 481 L329 481 C332 452 336 414 339 384 L342 384 L344 384 L344 496 C314 502 262 505 212 505 C125 505 67 454 67 378 C67 326 123 268 208 232 C279 203 327 157 327 117 C327 51 284 6 219 6 C162 6 106 9 70 14 L70 15 C65 47 59 89 54 122 L52 122 L50 122 L50 0 C63 -3 127 -4 213 -4 L175 -92 L179 -93 C197 -84 222 -78 240 -78 C277 -78 302 -100 302 -134 C302 -176 273 -204 230 -204 C193 -204 160 -198 147 -190 L145 -195 C165 -210 204 -219 240 -219 C295 -219 332 -185 332 -134 C332 -94 300 -68 252 -68 C230 -68 204 -74 185 -82 L183 -83 L183 -83 Z " />
<glyph glyph-name="Scaron" unicode="&#x160;" horiz-adv-x="500" d="M236 768 L348 927 L353 922 L252 729 C250 725 244 715 236 715 C229 715 223 725 220 729 L119 922 L124 927 L236 768 L236 768 Z M396 640 C402 596 410 536 415 492 L417 492 L420 492 L420 656 L418 646 L418 646 L420 656 C389 661 316 665 239 665 C126 665 51 591 51 481 C51 410 122 341 229 308 C341 275 416 209 416 145 C416 64 357 9 268 9 C195 9 117 14 67 21 C62 65 54 125 49 169 L46 169 L44 169 L44 5 L46 15 L46 15 L44 5 C75 0 165 -4 268 -4 C381 -4 456 65 456 169 C456 246 382 319 272 353 C163 386 90 447 90 504 C90 593 148 652 236 652 C287 652 348 647 395 641 L396 640 L396 640 Z " />
<glyph glyph-name="scaron" unicode="&#x161;" horiz-adv-x="418" d="M212 608 L324 767 L329 762 L228 569 C226 565 220 555 212 555 C205 555 199 565 196 569 L95 762 L100 767 L212 608 L212 608 Z M329 481 L329 481 C332 452 336 414 339 384 L342 384 L344 384 L344 496 C314 502 262 505 212 505 C125 505 67 454 67 378 C67 326 123 268 208 232 C279 203 327 157 327 117 C327 51 284 6 219 6 C162 6 106 9 70 14 L70 15 C65 47 59 89 54 122 L52 122 L50 122 L50 0 C63 -3 129 -4 217 -4 C309 -4 370 52 370 137 C370 185 320 238 244 269 C161 303 106 354 106 396 C106 455 149 495 213 495 C237 495 282 490 330 482 L329 481 L329 481 Z " />
<glyph glyph-name="Tcaron" unicode="&#x164;" horiz-adv-x="614" d="M583 660 L583 653 L575 653 L575 660 L40 660 L40 653 L31 653 L32 660 L29 660 L27 660 C26 658 26 655 26 653 C21 600 15 530 11 476 L15 476 L47 646 L280 646 L280 5 L185 5 L185 3 L185 0 L280 0 L307 0 L335 0 L430 0 C429 0 429 1 430 3 C429 4 429 5 430 5 L335 5 L335 646 L568 646 L600 476 L604 476 C600 530 594 600 589 653 C589 655 588 658 588 660 L585 660 L583 660 L583 660 Z M307 768 L419 927 L424 922 L323 729 C321 725 315 715 307 715 C300 715 294 725 292 729 L190 922 L195 927 L307 768 L307 768 Z " />
<glyph glyph-name="tcaron" unicode="&#x165;" horiz-adv-x="345" d="M315 500 L153 500 L153 640 L145 640 L107 495 L107 495 L127 572 C115 527 75 492 27 486 L25 486 L25 481 L103 481 L103 111 C103 21 122 -5 191 -5 C250 -5 290 15 326 44 L322 48 C300 29 270 17 216 17 C167 17 153 36 153 102 L153 481 L315 481 L315 500 L315 500 Z M427 605 C448 658 461 706 461 712 C461 721 439 724 430 723 C419 724 404 662 396 617 L363 454 L369 452 L427 605 L427 605 Z " />
<glyph glyph-name="Utilde" unicode="&#x168;" horiz-adv-x="723" d="M228 755 C228 795 246 822 272 822 C331 822 388 759 447 759 C487 759 513 796 513 852 L504 852 C504 816 486 792 458 792 C399 792 342 855 283 855 C245 855 220 815 220 755 L228 755 L228 755 Z M136 655 L136 208 C136 80 202 -5 371 -5 C534 -5 597 68 597 178 L597 655 L701 655 L701 657 L701 660 L597 660 L588 660 L580 660 L470 660 L470 657 L470 655 L580 655 L580 184 C580 82 524 14 379 14 C244 14 191 87 191 197 L191 655 L286 655 L286 657 L286 660 L191 660 L164 660 L136 660 L41 660 L41 657 L41 655 L136 655 L136 655 Z " />
<glyph glyph-name="utilde" unicode="&#x169;" horiz-adv-x="619" d="M161 595 C161 635 179 662 205 662 C264 662 321 599 380 599 C420 599 446 636 446 692 L438 692 C438 656 419 632 391 632 C332 632 275 695 216 695 C178 695 153 655 153 595 L161 595 L161 595 Z M440 495 L440 68 C375 44 324 29 299 29 C207 29 159 82 159 162 L159 501 L134 501 L109 501 L15 501 L15 498 L15 496 L109 496 L109 157 C109 60 160 -4 260 -4 C260 -4 332 22 440 63 L440 17 L440 14 L440 1 L450 1 L584 40 L584 43 L490 31 L490 501 L465 501 L440 501 L345 501 L345 498 L345 496 L440 495 L440 495 Z " />
<glyph glyph-name="Umacron" unicode="&#x16a;" horiz-adv-x="723" d="M219 770 L514 770 L514 798 L219 798 L219 770 L219 770 Z M136 655 L136 208 C136 80 202 -5 371 -5 C534 -5 597 68 597 178 L597 655 L701 655 L701 657 L701 660 L597 660 L588 660 L580 660 L470 660 L470 657 L470 655 L580 655 L580 184 C580 82 524 14 379 14 C244 14 191 87 191 197 L191 655 L286 655 L286 657 L286 660 L191 660 L164 660 L136 660 L41 660 L41 657 L41 655 L136 655 L136 655 Z " />
<glyph glyph-name="umacron" unicode="&#x16b;" horiz-adv-x="619" d="M152 610 L447 610 L447 638 L152 638 L152 610 L152 610 Z M440 495 L440 68 C375 44 324 29 299 29 C207 29 159 82 159 162 L159 501 L134 501 L109 501 L15 501 L15 498 L15 496 L109 496 L109 157 C109 60 160 -4 260 -4 C260 -4 332 22 440 63 L440 17 L440 14 L440 1 L450 1 L584 40 L584 43 L490 31 L490 501 L465 501 L440 501 L345 501 L345 498 L345 496 L440 495 L440 495 Z " />
<glyph glyph-name="Ubreve" unicode="&#x16c;" horiz-adv-x="723" d="M254 872 C265 809 310 768 366 768 C422 768 467 809 479 872 L470 873 C462 830 421 801 366 801 C311 801 270 830 262 873 L254 872 L254 872 Z M136 655 L136 208 C136 80 202 -5 371 -5 C534 -5 597 68 597 178 L597 655 L701 655 L701 657 L701 660 L597 660 L588 660 L580 660 L470 660 L470 657 L470 655 L580 655 L580 184 C580 82 524 14 379 14 C244 14 191 87 191 197 L191 655 L286 655 L286 657 L286 660 L191 660 L164 660 L136 660 L41 660 L41 657 L41 655 L136 655 L136 655 Z " />
<glyph glyph-name="ubreve" unicode="&#x16d;" horiz-adv-x="619" d="M187 712 C198 649 243 608 299 608 C356 608 401 649 412 712 L403 713 C396 670 354 641 299 641 C245 641 203 670 196 713 L187 712 L187 712 Z M440 495 L440 68 C375 44 324 29 299 29 C207 29 159 82 159 162 L159 501 L134 501 L109 501 L15 501 L15 498 L15 496 L109 496 L109 157 C109 60 160 -4 260 -4 C260 -4 332 22 440 63 L440 17 L440 14 L440 1 L450 1 L584 40 L584 43 L490 31 L490 501 L465 501 L440 501 L345 501 L345 498 L345 496 L440 495 L440 495 Z " />
<glyph glyph-name="Uring" unicode="&#x16e;" horiz-adv-x="723" d="M366 706 C323 706 286 743 286 788 C286 836 318 869 366 869 C414 869 446 836 446 788 C446 743 409 706 366 706 L366 706 Z M272 788 C272 738 315 695 366 695 C417 695 460 738 460 788 C460 843 422 880 366 880 C310 880 272 843 272 788 L272 788 Z M136 655 L136 208 C136 80 202 -5 371 -5 C534 -5 597 68 597 178 L597 655 L701 655 L701 657 L701 660 L597 660 L588 660 L580 660 L470 660 L470 657 L470 655 L580 655 L580 184 C580 82 524 14 379 14 C244 14 191 87 191 197 L191 655 L286 655 L286 657 L286 660 L191 660 L164 660 L136 660 L41 660 L41 657 L41 655 L136 655 L136 655 Z " />
<glyph glyph-name="uring" unicode="&#x16f;" horiz-adv-x="619" d="M299 546 C256 546 219 583 219 628 C219 676 251 709 299 709 C348 709 380 676 380 628 C380 583 343 546 299 546 L299 546 Z M205 628 C205 578 248 535 299 535 C350 535 393 578 393 628 C393 683 356 720 299 720 C243 720 205 683 205 628 L205 628 Z M440 495 L440 68 C375 44 324 29 299 29 C207 29 159 82 159 162 L159 501 L134 501 L109 501 L15 501 L15 498 L15 496 L109 496 L109 157 C109 60 160 -4 260 -4 C260 -4 332 22 440 63 L440 17 L440 14 L440 1 L450 1 L584 40 L584 43 L490 31 L490 501 L465 501 L440 501 L345 501 L345 498 L345 496 L440 495 L440 495 Z " />
<glyph glyph-name="Wcircumflex" unicode="&#x174;" horiz-adv-x="945" d="M478 852 L590 693 L595 698 L494 891 C492 895 486 905 478 905 C471 905 465 895 462 891 L361 698 L366 693 L478 852 L478 852 Z M834 655 L671 74 L485 670 L471 670 L284 -15 L298 -15 L459 575 L646 -15 L660 -15 L851 655 L945 655 L945 657 L945 660 L852 660 L844 660 L835 660 L711 660 L711 657 L711 655 L834 655 L834 655 Z M70 655 L284 -15 L306 68 L130 655 L131 655 L239 655 L239 657 L239 660 L129 660 L98 660 L68 660 L-10 660 L-10 657 L-10 655 L70 655 L70 655 Z " />
<glyph glyph-name="Ycircumflex" unicode="&#x176;" horiz-adv-x="620" d="M533 655 L533 655 L334 294 L149 655 L149 655 L255 655 L255 657 L255 660 L146 660 L112 660 L79 660 L7 660 L7 657 L7 655 L82 655 L288 260 L288 5 L193 5 L193 3 L193 0 L288 0 L315 0 L343 0 L438 0 C437 0 437 1 438 3 C437 4 437 5 438 5 L343 5 L343 285 L343 285 L549 655 L633 655 L633 657 L633 660 L552 660 L543 660 L535 660 L405 660 L405 657 L405 655 L533 655 L533 655 Z M315 852 L427 693 L432 698 L331 891 C329 895 323 905 315 905 C308 905 302 895 300 891 L198 698 L203 693 L315 852 L315 852 Z " />
<glyph glyph-name="Ydieresis" unicode="&#x178;" horiz-adv-x="620" d="M405 730 C424 730 436 742 436 761 C436 779 424 791 405 791 C386 791 374 779 374 761 C374 742 386 730 405 730 L405 730 Z M228 730 C246 730 258 742 258 761 C258 779 246 791 228 791 C209 791 197 779 197 761 C197 742 209 730 228 730 L228 730 Z M533 655 L533 655 L334 294 L149 655 L149 655 L255 655 L255 657 L255 660 L146 660 L112 660 L79 660 L7 660 L7 657 L7 655 L82 655 L288 260 L288 5 L193 5 L193 3 L193 0 L288 0 L315 0 L343 0 L438 0 C437 0 437 1 438 3 C437 4 437 5 438 5 L343 5 L343 285 L343 285 L549 655 L633 655 L633 657 L633 660 L552 660 L543 660 L535 660 L405 660 L405 657 L405 655 L533 655 L533 655 Z " />
<glyph glyph-name="Zacute" unicode="&#x179;" horiz-adv-x="592" d="M327 691 L437 820 C461 850 478 871 478 875 C478 881 458 895 450 895 C447 895 432 873 411 840 L321 695 L327 691 L327 691 Z M511 7 C520 58 532 125 541 176 L540 177 C538 180 536 182 536 183 L493 14 L124 14 L524 660 L492 660 L461 660 L132 660 L132 653 L123 653 L124 660 L122 660 L119 660 C119 658 118 655 117 653 C106 609 90 551 78 506 L82 506 L137 646 L452 646 L52 0 L84 0 L115 0 L505 0 L507 0 L508 0 L510 0 C510 2 511 5 511 7 L511 7 Z M536 183 L536 183 L536 183 Z " />
<glyph glyph-name="zacute" unicode="&#x17a;" horiz-adv-x="478" d="M179 531 L289 660 C314 690 330 711 330 715 C330 721 310 735 302 735 C299 735 284 713 263 680 L173 535 L179 531 L179 531 Z M89 488 L89 488 L364 489 L56 0 L86 0 L115 0 L411 0 L414 0 L416 0 C417 2 417 4 417 6 C426 55 438 122 447 172 C447 173 446 173 446 174 C443 178 441 181 441 181 L399 11 L122 11 L428 500 L400 500 L371 500 L84 500 L84 494 L74 494 L76 500 L73 500 L71 500 C70 498 70 496 69 494 C60 459 47 413 38 379 L39 379 L42 379 L89 488 L89 488 Z " />
<glyph glyph-name="Zdot" unicode="&#x17b;" horiz-adv-x="592" d="M328 730 C347 730 359 742 359 761 C359 779 347 791 328 791 C310 791 298 779 298 761 C298 742 310 730 328 730 L328 730 Z M511 7 C520 58 532 125 541 176 L540 177 C538 180 536 182 536 183 L493 14 L124 14 L524 660 L492 660 L461 660 L132 660 L132 653 L123 653 L124 660 L122 660 L119 660 C119 658 118 655 117 653 C106 609 90 551 78 506 L82 506 L137 646 L452 646 L52 0 L84 0 L115 0 L505 0 L507 0 L508 0 L510 0 C510 2 511 5 511 7 L511 7 Z M536 183 L536 183 L536 183 Z " />
<glyph glyph-name="zdot" unicode="&#x17c;" horiz-adv-x="478" d="M256 570 C275 570 287 582 287 601 C287 619 275 631 256 631 C238 631 226 619 226 601 C226 582 238 570 256 570 L256 570 Z M89 488 L89 488 L364 489 L56 0 L86 0 L115 0 L411 0 L414 0 L416 0 C417 2 417 4 417 6 C426 55 438 122 447 172 C447 173 446 173 446 174 C443 178 441 181 441 181 L399 11 L122 11 L428 500 L400 500 L371 500 L84 500 L84 494 L74 494 L76 500 L73 500 L71 500 C70 498 70 496 69 494 C60 459 47 413 38 379 L39 379 L42 379 L89 488 L89 488 Z " />
<glyph glyph-name="Zcaron" unicode="&#x17d;" horiz-adv-x="592" d="M328 768 L440 927 L445 922 L344 729 C342 725 336 715 328 715 C321 715 315 725 312 729 L211 922 L216 927 L328 768 L328 768 Z M511 7 C520 58 532 125 541 176 L540 177 C538 180 536 182 536 183 L493 14 L124 14 L524 660 L492 660 L461 660 L132 660 L132 653 L123 653 L124 660 L122 660 L119 660 C119 658 118 655 117 653 C106 609 90 551 78 506 L82 506 L137 646 L452 646 L52 0 L84 0 L115 0 L505 0 L507 0 L508 0 L510 0 C510 2 511 5 511 7 L511 7 Z M536 183 L536 183 L536 183 Z " />
<glyph glyph-name="zcaron" unicode="&#x17e;" horiz-adv-x="478" d="M89 488 L89 488 L364 489 L56 0 L86 0 L115 0 L411 0 L414 0 L416 0 C417 2 417 4 417 6 C426 55 438 122 447 172 C447 173 446 173 446 174 C443 178 441 181 441 181 L399 11 L122 11 L428 500 L400 500 L371 500 L84 500 L84 494 L74 494 L76 500 L73 500 L71 500 C70 498 70 496 69 494 C60 459 47 413 38 379 L39 379 L42 379 L89 488 L89 488 Z M256 608 L368 767 L373 762 L272 569 C270 565 264 555 256 555 C249 555 243 565 240 569 L139 762 L144 767 L256 608 L256 608 Z " />
<glyph glyph-name="oogonek" unicode="&#x1eb;" horiz-adv-x="695" d="M708 -51 L704 -47 C680 -76 626 -95 570 -95 C485 -95 415 -59 359 -5 C548 -3 645 126 645 277 C645 429 546 558 354 558 C162 558 63 429 63 277 C63 129 157 2 340 -4 C415 -78 493 -126 564 -126 C611 -126 669 -96 707 -50 L708 -51 L708 -51 Z M353 9 C197 9 117 133 117 278 C117 423 197 547 353 547 C509 547 589 423 589 278 C589 133 509 9 353 9 L353 9 Z " />
<glyph glyph-name="Adotabove" unicode="&#x226;" horiz-adv-x="655" d="M323 730 C342 730 354 742 354 761 C354 779 342 791 323 791 C304 791 292 779 292 761 C292 742 304 730 323 730 L323 730 Z M109 5 L109 5 L185 236 L434 236 L516 5 L516 5 L390 5 L390 3 L390 0 L518 0 L548 0 L579 0 L658 0 L658 3 L658 5 L577 5 L331 675 L317 675 L92 5 L-3 5 L-3 3 L-3 0 L90 0 L99 0 L108 0 L238 0 L238 3 L238 5 L109 5 L109 5 Z M429 251 L191 251 L306 600 L429 251 L429 251 Z " />
<glyph glyph-name="G_sc" unicode="&#x262;" horiz-adv-x="772" d="M536 255 L536 49 C478 24 409 8 352 8 C212 8 118 115 118 277 C118 438 212 546 352 546 C410 546 487 540 552 530 L552 530 C557 486 565 426 570 382 L573 382 L575 382 L575 540 L574 533 L574 533 L575 540 C508 551 419 559 352 559 C179 559 63 446 63 278 C63 109 179 -4 352 -4 C425 -4 517 21 581 58 L581 256 L676 256 L676 258 L676 261 L581 261 L559 261 L536 261 L442 261 L442 258 L442 256 L536 255 L536 255 Z " />
<glyph glyph-name="I_sc" unicode="&#x26a;" horiz-adv-x="322" d="M162 0 L187 0 L282 0 L282 3 L282 5 L187 5 L187 548 L282 548 L282 551 L282 553 C246 554 198 554 162 553 C127 554 79 554 43 553 L43 551 L43 548 L137 548 L137 5 L43 5 L43 3 L43 0 L137 0 L162 0 L162 0 Z " />
<glyph glyph-name="N_sc" unicode="&#x274;" horiz-adv-x="678" d="M526 548 L526 72 L183 553 L153 533 L153 533 L183 553 L153 553 L145 553 C115 554 74 554 43 553 L43 551 L43 548 L138 548 L138 5 L43 5 L43 3 L43 0 L138 0 L145 0 L153 0 L247 0 L247 3 L247 5 L153 5 L153 510 L503 20 L524 -10 L541 -10 L541 38 L541 548 L636 548 L636 551 L636 553 C605 554 564 554 533 553 C503 554 462 554 431 553 L431 551 L431 548 L526 548 L526 548 Z " />
<glyph glyph-name="R_sc" unicode="&#x280;" horiz-adv-x="594" d="M594 0 L594 10 L589 10 C570 10 566 13 485 96 L317 268 C414 281 476 336 476 413 C476 498 402 554 291 554 L197 554 L172 554 C136 555 88 555 53 554 L53 552 L53 549 L147 549 L147 6 L53 6 L53 4 L53 1 L147 1 L172 1 L197 1 L292 1 C291 1 291 2 292 4 C291 5 291 6 292 6 L197 6 L197 266 L260 266 L416 107 C517 5 523 1 574 1 L594 0 L594 0 Z M272 279 L247 279 L197 279 L197 542 L291 542 C371 542 424 491 424 413 C424 333 363 279 272 279 L272 279 Z " />
<glyph glyph-name="Y_sc" unicode="&#x28f;" horiz-adv-x="556" d="M471 548 L471 548 L299 243 L145 548 L145 548 L251 548 L251 551 L251 553 C209 554 154 554 112 553 C81 554 40 554 10 553 L10 551 L10 548 L85 548 L260 221 L260 5 L166 5 L166 3 L166 0 L260 0 L285 0 L310 0 L405 0 L405 3 L405 5 L310 5 L310 241 L486 548 L570 548 C571 548 571 549 570 551 C571 552 571 554 570 553 C544 554 508 554 481 553 C440 554 385 554 344 553 L344 551 L344 548 L471 548 L471 548 Z " />
<glyph glyph-name="B_sc" unicode="&#x299;" horiz-adv-x="546" d="M300 301 C294 301 288 301 282 301 L226 299 L198 299 L198 541 L292 541 C371 541 424 496 424 427 C424 358 376 310 301 301 L300 301 L300 301 Z M339 298 C423 314 475 362 475 427 C475 503 402 553 293 553 L199 553 L174 553 C138 554 90 554 55 553 L55 551 L55 548 L149 548 L149 5 L55 5 L55 3 L55 0 L149 0 L174 0 L199 0 L313 0 C442 0 528 61 528 152 C528 229 454 284 339 297 L339 298 L339 298 Z M199 290 L268 290 C393 290 476 234 476 151 C476 67 409 12 308 12 L199 12 L199 290 L199 290 Z " />
<glyph glyph-name="H_sc" unicode="&#x29c;" horiz-adv-x="744" d="M585 0 L610 0 L704 0 C705 0 705 1 704 3 C705 4 705 5 704 5 L610 5 L610 548 L704 548 C705 548 705 549 704 551 C705 552 705 554 704 553 C669 554 621 554 585 553 C549 554 501 554 465 553 L465 551 L465 548 L560 548 L560 299 L186 299 L186 548 L281 548 L281 551 L281 553 C245 554 197 554 161 553 C125 554 77 554 41 553 L41 551 L41 548 L136 548 L136 5 L41 5 L41 3 L41 0 L136 0 L161 0 L186 0 L281 0 L281 3 L281 5 L186 5 L186 287 L560 287 L560 5 L465 5 L465 3 L465 0 L560 0 L585 0 L585 0 Z " />
<glyph glyph-name="L_sc" unicode="&#x29f;" horiz-adv-x="567" d="M436 6 C445 57 457 123 466 174 C466 174 465 174 465 175 C462 179 460 182 460 182 L417 13 L186 13 L186 548 L281 548 L281 551 L281 553 C245 554 197 554 161 553 C125 554 77 554 41 553 L41 551 L41 548 L136 548 L136 5 L41 5 L41 3 L41 0 L136 0 L161 0 L186 0 L430 0 L432 0 L433 0 L435 0 C435 2 436 4 436 6 L436 6 Z " />
<glyph glyph-name="A_sc" unicode="&#x1d00;" horiz-adv-x="591" d="M108 5 L108 5 L173 198 L386 198 L457 5 L457 5 L331 5 L331 3 L331 0 L459 0 L486 0 L513 0 L593 0 L593 3 L593 5 L511 5 L298 566 L286 566 L92 5 L91 5 L-3 5 L-3 3 L-3 0 L90 0 L98 0 L106 0 L236 0 L236 3 L236 5 L108 5 L108 5 Z M381 211 L177 211 L275 499 L381 211 L381 211 Z " />
<glyph glyph-name="C_sc" unicode="&#x1d04;" horiz-adv-x="655" d="M595 15 L595 172 L593 172 L590 172 C585 128 577 69 572 24 C506 14 425 7 363 7 C216 7 118 114 118 276 C118 437 216 545 363 545 C425 545 506 538 572 528 L572 528 C577 484 585 424 590 380 L593 380 L595 380 L595 538 L594 531 L594 531 L595 538 C528 549 435 557 363 557 C183 557 63 444 63 276 C63 107 183 -6 363 -6 C435 -6 528 2 595 14 L595 15 L595 15 Z " />
<glyph glyph-name="D_sc" unicode="&#x1d05;" horiz-adv-x="643" d="M172 0 L197 0 L311 0 C480 0 593 111 593 277 C593 442 469 553 283 553 L197 553 L172 553 C136 554 88 554 53 553 L53 551 L53 548 L147 548 L147 5 L53 5 L53 3 L53 0 L147 0 L172 0 L172 0 Z M197 13 L197 541 L283 541 C439 541 543 435 543 277 C543 118 450 13 311 13 L197 13 L197 13 Z " />
<glyph glyph-name="E_sc" unicode="&#x1d07;" horiz-adv-x="567" d="M424 553 L424 547 L423 547 L423 553 L186 553 L161 553 C125 554 77 554 41 553 L41 551 L41 548 L136 548 L136 5 L41 5 L41 3 L41 0 L136 0 L161 0 L186 0 L430 0 L432 0 L433 0 L435 0 C435 2 436 4 436 6 C444 55 456 119 464 167 L460 167 L417 13 L186 13 L186 289 L356 289 L364 184 L367 184 L368 184 L368 289 L368 295 L368 301 L368 396 L367 396 L364 396 L356 301 L186 301 L186 541 L409 541 L410 541 L425 386 L429 386 L429 547 L429 553 C429 554 428 554 427 553 C426 554 425 554 424 553 L424 553 Z " />
<glyph glyph-name="J_sc" unicode="&#x1d0a;" horiz-adv-x="323" d="M139 548 L139 168 C139 47 124 0 84 0 C67 0 50 20 42 50 C39 62 30 70 20 70 C5 70 -3 62 0 50 C9 14 38 -10 71 -10 C156 -10 189 52 189 210 L189 548 L283 548 L283 551 L283 553 C247 554 199 554 164 553 C128 554 80 554 44 553 L44 551 L44 548 L139 548 L139 548 Z " />
<glyph glyph-name="K_sc" unicode="&#x1d0b;" horiz-adv-x="595" d="M464 548 L465 548 L234 332 L234 332 L198 298 L198 548 L293 548 C292 548 292 549 293 551 C292 552 292 553 292 553 C256 554 208 554 172 553 C136 554 88 554 53 553 L53 551 L53 548 L147 548 L147 5 L53 5 L53 3 L53 0 L147 0 L172 0 L197 0 L292 0 C291 0 291 1 292 3 C291 4 291 5 292 5 L197 5 L197 298 L205 287 L206 288 L311 176 C433 46 504 -5 565 -5 L585 -5 L585 5 L580 5 C551 5 485 62 347 210 L242 322 L480 548 L574 548 L574 551 L574 553 C545 554 507 554 478 553 C447 554 406 554 376 553 C375 554 375 552 376 551 C375 549 375 548 376 548 L464 548 L464 548 Z M291 553 L291 553 L291 553 L291 553 Z " />
<glyph glyph-name="M_sc" unicode="&#x1d0d;" horiz-adv-x="800" d="M693 5 L693 5 L664 548 L758 548 L758 551 L758 553 C723 554 677 554 641 553 L636 553 L619 553 L417 54 L416 57 L199 553 L175 553 L168 553 C137 554 96 554 66 553 C65 554 65 552 66 551 C65 549 65 548 66 548 L160 548 L135 5 L135 5 L41 5 L41 3 L41 0 L135 0 L143 0 L150 0 L280 0 L280 3 L280 5 L150 5 L172 492 L382 20 L393 -5 L405 -5 L621 516 L644 5 L549 5 L549 3 L549 0 L644 0 L669 0 L694 0 L788 0 L788 3 L788 5 L693 5 L693 5 Z " />
<glyph glyph-name="O_sc" unicode="&#x1d0f;" horiz-adv-x="695" d="M354 8 C198 8 118 132 118 277 C118 422 198 546 354 546 C510 546 590 422 590 277 C590 132 510 8 354 8 L354 8 Z M63 277 C63 125 162 -5 354 -5 C546 -5 645 125 645 277 C645 429 546 558 354 558 C162 558 63 429 63 277 L63 277 Z " />
<glyph glyph-name="P_sc" unicode="&#x1d18;" horiz-adv-x="522" d="M172 0 L197 0 L292 0 C291 0 291 1 292 3 C291 4 291 5 292 5 L197 5 L197 250 L281 250 C414 250 503 310 503 400 C503 492 422 553 302 553 L197 553 L172 553 C136 554 88 554 53 553 L53 551 L53 548 L147 548 L147 5 L53 5 L53 3 L53 0 L147 0 L172 0 L172 0 Z M197 263 L197 541 L302 541 C391 541 450 485 450 400 C450 318 382 263 281 263 L197 263 L197 263 Z " />
<glyph glyph-name="T_sc" unicode="&#x1d1b;" horiz-adv-x="556" d="M523 553 L524 547 L516 547 L516 553 L40 553 L40 547 L33 547 L33 553 C33 554 31 554 31 553 C29 554 28 554 28 553 C28 552 28 549 27 547 C23 494 17 424 12 371 L16 371 L48 541 L253 541 L253 5 L159 5 L159 3 L159 0 L253 0 L278 0 L303 0 L398 0 C397 0 397 1 398 3 C397 4 397 5 398 5 L303 5 L303 541 L508 541 L540 371 L544 371 C539 424 533 494 529 547 C529 549 528 552 528 553 C528 554 527 554 526 553 C525 554 524 554 523 553 L523 553 Z " />
<glyph glyph-name="U_sc" unicode="&#x1d1c;" horiz-adv-x="666" d="M643 553 C609 554 564 554 531 553 C495 554 449 554 414 553 L414 551 L414 548 L523 548 L523 152 C523 68 474 12 349 12 C232 12 186 72 186 162 L186 548 L281 548 C280 548 280 549 281 551 C280 552 280 553 280 553 C244 554 196 554 160 553 C124 554 76 554 41 553 L41 551 L41 548 L135 548 L135 172 C135 66 192 -5 340 -5 C482 -5 537 56 537 147 L537 548 L642 548 C641 548 641 549 642 551 C641 552 641 553 641 553 L643 553 L643 553 Z M641 553 L641 553 L641 553 L641 553 Z M279 553 L279 553 L279 553 L279 553 Z " />
<glyph glyph-name="V_sc" unicode="&#x1d20;" horiz-adv-x="592" d="M488 548 L330 48 L137 548 L137 548 L255 548 L255 551 L255 553 C211 554 152 554 108 553 C77 554 35 554 3 553 L3 551 L3 548 L82 548 L310 -15 L322 -15 L502 548 L503 548 L597 548 C598 548 598 549 597 551 C598 552 598 554 597 553 C567 554 527 554 497 553 C453 554 394 554 350 553 L350 551 L350 548 L488 548 L488 548 Z " />
<glyph glyph-name="W_sc" unicode="&#x1d21;" horiz-adv-x="821" d="M712 548 L575 58 L420 563 L408 563 L252 -15 L264 -15 L399 486 L554 -15 L567 -15 L727 548 L727 548 L821 548 L821 551 L821 553 C791 554 751 554 721 553 C681 554 628 554 589 553 L589 551 L589 548 L712 548 L712 548 Z M70 548 L252 -15 L270 54 L124 548 L232 548 C233 548 233 549 232 551 C233 552 233 554 232 553 C191 554 136 554 95 553 C64 554 22 554 -10 553 L-10 551 L-10 548 L70 548 L70 548 Z " />
<glyph glyph-name="Z_sc" unicode="&#x1d22;" horiz-adv-x="534" d="M126 547 L127 553 C127 554 125 554 125 553 C123 554 122 554 122 553 C122 552 121 549 120 547 C109 503 93 445 81 401 L82 401 L85 401 L140 541 L401 541 L54 0 L82 0 L110 0 L448 0 L450 0 L451 0 L453 0 C453 2 454 4 454 6 L451 6 L451 7 L454 7 C463 57 475 124 484 174 C483 174 483 175 483 176 C480 180 478 183 478 183 L436 13 L118 13 L466 553 L437 553 L409 553 L134 553 L134 547 L126 547 L126 547 Z " />
<glyph glyph-name="Wgrave" unicode="&#x1e80;" horiz-adv-x="945" d="M464 840 C443 873 428 895 424 895 C416 895 396 881 396 875 C396 870 413 849 439 820 L552 691 L557 695 L464 840 L464 840 Z M834 655 L671 74 L485 670 L471 670 L284 -15 L298 -15 L459 575 L646 -15 L660 -15 L851 655 L945 655 L945 657 L945 660 L852 660 L844 660 L835 660 L711 660 L711 657 L711 655 L834 655 L834 655 Z M70 655 L284 -15 L306 68 L130 655 L131 655 L239 655 L239 657 L239 660 L129 660 L98 660 L68 660 L-10 660 L-10 657 L-10 655 L70 655 L70 655 Z " />
<glyph glyph-name="Wacute" unicode="&#x1e82;" horiz-adv-x="945" d="M416 691 L526 820 C551 850 567 871 568 875 C567 881 547 895 539 895 C536 895 521 873 500 840 L410 695 L416 691 L416 691 Z M834 655 L671 74 L485 670 L471 670 L284 -15 L298 -15 L459 575 L646 -15 L660 -15 L851 655 L945 655 L945 657 L945 660 L852 660 L844 660 L835 660 L711 660 L711 657 L711 655 L834 655 L834 655 Z M70 655 L284 -15 L306 68 L130 655 L131 655 L239 655 L239 657 L239 660 L129 660 L98 660 L68 660 L-10 660 L-10 657 L-10 655 L70 655 L70 655 Z " />
<glyph glyph-name="Wdieresis" unicode="&#x1e84;" horiz-adv-x="945" d="M567 730 C585 730 597 742 597 761 C597 779 585 791 567 791 C548 791 536 779 536 761 C536 742 548 730 567 730 L567 730 Z M390 730 C408 730 420 742 420 761 C420 779 408 791 390 791 C371 791 359 779 359 761 C359 742 371 730 390 730 L390 730 Z M834 655 L671 74 L485 670 L471 670 L284 -15 L298 -15 L459 575 L646 -15 L660 -15 L851 655 L945 655 L945 657 L945 660 L852 660 L844 660 L835 660 L711 660 L711 657 L711 655 L834 655 L834 655 Z M70 655 L284 -15 L306 68 L130 655 L131 655 L239 655 L239 657 L239 660 L129 660 L98 660 L68 660 L-10 660 L-10 657 L-10 655 L70 655 L70 655 Z " />
<glyph glyph-name="Etilde" unicode="&#x1ebc;" horiz-adv-x="615" d="M165 755 C165 795 182 822 209 822 C268 822 324 759 384 759 C423 759 449 796 449 852 L441 852 C441 816 422 792 395 792 C335 792 279 855 219 855 C181 855 156 815 156 755 L165 755 L165 755 Z M473 660 L473 653 L471 653 L471 660 L190 660 L162 660 L135 660 L40 660 L40 657 L40 655 L135 655 L135 5 L40 5 L40 3 L40 0 L135 0 L162 0 L190 0 L478 0 L480 0 L481 0 L483 0 C483 2 484 5 484 7 C493 55 504 120 513 169 L512 169 L509 169 L466 14 L190 14 L190 345 L404 345 L412 240 L415 240 L416 240 L416 345 L416 352 L416 359 L416 454 L415 454 L412 454 L404 359 L190 359 L190 646 L458 646 L474 491 L477 491 L478 491 L478 653 L478 660 L475 660 L473 660 L473 660 Z " />
<glyph glyph-name="Ygrave" unicode="&#x1ef2;" horiz-adv-x="620" d="M533 655 L533 655 L334 294 L149 655 L149 655 L255 655 L255 657 L255 660 L146 660 L112 660 L79 660 L7 660 L7 657 L7 655 L82 655 L288 260 L288 5 L193 5 L193 3 L193 0 L288 0 L315 0 L343 0 L438 0 C437 0 437 1 438 3 C437 4 437 5 438 5 L343 5 L343 285 L343 285 L549 655 L633 655 L633 657 L633 660 L552 660 L543 660 L535 660 L405 660 L405 657 L405 655 L533 655 L533 655 Z M301 840 C281 873 265 895 262 895 C253 895 233 881 233 875 C233 870 250 849 276 820 L389 691 L394 695 L301 840 L301 840 Z " />
<glyph glyph-name="quoteleft" unicode="&#x2018;" horiz-adv-x="188" d="M96 574 C94 574 92 574 90 574 C85 579 82 582 82 583 C82 618 98 648 121 659 L118 667 C78 648 52 605 53 558 C53 557 56 553 61 547 C60 544 60 541 60 538 C60 516 75 502 96 502 C118 502 132 516 132 538 C132 559 118 574 96 574 L96 574 Z " />
<glyph glyph-name="quoteright" unicode="&#x2019;" horiz-adv-x="188" d="M96 593 C98 593 100 593 102 593 C107 587 110 583 110 582 C110 548 94 518 71 506 L75 499 C114 518 140 561 140 607 C140 608 137 612 132 618 C133 621 133 624 133 627 C133 649 119 663 97 663 C75 663 61 649 61 627 C61 605 75 591 97 591 L96 593 L96 593 Z " />
<glyph glyph-name="quotedblleft" unicode="&#x201c;" horiz-adv-x="294" d="M96 574 C94 574 92 574 90 574 C85 579 82 582 82 583 C82 618 98 648 121 659 L118 667 C78 648 52 605 53 558 C53 557 56 553 61 547 C60 544 60 541 60 538 C60 516 75 502 96 502 C118 502 132 516 132 538 C132 559 118 574 96 574 L96 574 Z M181 568 C171 562 166 551 166 538 C166 516 180 502 202 502 C219 502 232 510 237 524 C242 519 248 513 254 507 L282 534 C227 593 190 612 190 583 C190 618 205 648 229 659 L225 667 C186 648 160 605 160 558 C160 571 168 574 181 568 L181 568 Z " />
<glyph glyph-name="quotedblright" unicode="&#x201d;" horiz-adv-x="294" d="M96 593 C98 593 100 593 102 593 C107 587 110 583 110 582 C110 548 94 518 71 506 L75 499 C114 518 140 561 140 607 C140 608 137 612 132 618 C132 619 132 620 132 621 C182 570 215 554 215 581 C215 547 199 517 176 505 L180 498 C219 517 245 560 245 606 C245 593 237 590 223 596 C233 602 239 613 239 627 C239 649 224 663 202 663 C185 663 172 654 167 640 C162 645 156 651 150 657 L130 638 C126 654 113 664 95 664 C73 664 59 650 59 628 C59 606 73 592 95 592 L96 593 L96 593 Z " />
<glyph glyph-name="ellipsis" unicode="&#x2026;" horiz-adv-x="450" d="M375 0 C397 0 411 14 411 36 C411 58 397 72 375 72 C353 72 339 58 339 36 C339 14 353 0 375 0 L375 0 Z M225 0 C247 0 261 14 261 36 C261 58 247 72 225 72 C203 72 189 58 189 36 C189 14 203 0 225 0 L225 0 Z M75 0 C97 0 111 14 111 36 C111 58 97 72 75 72 C53 72 39 58 39 36 C39 14 53 0 75 0 L75 0 Z " />
<glyph glyph-name="guilsinglleft" unicode="&#x2039;" horiz-adv-x="287" d="M72 251 L241 459 L235 464 L20 253 L20 248 L237 37 L242 42 L72 251 L72 251 Z " />
<glyph glyph-name="guilsinglright" unicode="&#x203a;" horiz-adv-x="287" d="M215 251 L46 459 L52 464 L267 253 L267 248 L50 37 L45 42 L215 251 L215 251 Z " />
<glyph glyph-name="Euro" unicode="&#x20ac;" horiz-adv-x="654" d="M571 73 L571 73 C500 35 425 10 379 10 C262 10 180 113 164 273 L417 273 L422 309 L161 309 C161 317 161 325 161 333 C161 341 161 349 161 357 L421 357 L426 392 L163 392 C179 549 261 650 378 650 C428 650 503 627 570 592 L570 592 C575 546 583 485 589 439 L591 439 L593 439 L593 596 C522 637 435 665 378 665 C228 665 123 558 103 393 L54 393 L49 358 L100 358 C100 350 100 342 100 334 C100 326 100 318 100 310 L49 310 L44 274 L103 274 C123 105 228 -3 379 -3 C431 -3 517 27 594 71 L594 228 L592 228 L590 228 C584 182 576 120 571 75 L571 73 L571 73 Z " />
<glyph glyph-name="F_sc" unicode="&#xa730;" horiz-adv-x="463" d="M454 553 L454 547 L453 547 L453 553 L186 553 L161 553 C125 554 77 554 41 553 L41 551 L41 548 L136 548 L136 5 L41 5 L41 3 L41 0 L136 0 L161 0 L186 0 L291 0 L291 3 L291 5 L186 5 L186 285 L346 285 L354 180 L357 180 L358 180 L358 285 L358 291 L358 297 L358 392 L357 392 L354 392 L346 297 L186 297 L186 541 L439 541 L440 541 L455 386 L459 386 L459 547 L459 553 C459 554 458 554 457 553 C456 554 455 554 454 553 L454 553 Z " />
<glyph glyph-name="S_sc" unicode="&#xa731;" horiz-adv-x="441" d="M338 536 C343 491 351 432 357 388 L359 388 L361 388 L361 550 L360 541 L360 541 L361 550 C332 555 271 558 211 558 C115 558 52 496 52 403 C52 343 111 285 200 258 C297 229 361 174 361 121 C361 53 310 8 235 8 C177 8 113 12 67 18 L67 18 C61 62 53 121 48 166 L46 166 L43 166 L43 4 C73 -2 149 -5 234 -5 C330 -5 395 53 395 141 C395 205 331 266 236 295 C146 322 86 373 86 423 C86 497 135 546 207 546 C245 546 295 542 337 535 L338 536 L338 536 Z " />
<glyph glyph-name="X_sc" unicode="&#xf078;" horiz-adv-x="580" d="M142 5 L142 5 L285 258 L445 5 L444 5 L328 5 L328 3 L328 0 L448 0 L476 0 L505 0 L576 0 L576 3 L576 5 L502 5 L312 306 L312 306 L471 548 L471 548 L565 548 C566 548 566 549 565 551 C566 552 566 554 565 553 C536 554 496 554 466 553 C425 554 370 554 329 553 L329 551 L329 548 L455 548 L306 316 L160 548 L161 548 L277 548 L277 551 L277 553 C232 554 173 554 129 553 C99 554 59 554 29 553 L29 551 L29 548 L103 548 L279 269 L279 269 L127 5 L33 5 L33 3 L33 0 L124 0 L132 0 L140 0 L269 0 L269 3 L269 5 L142 5 L142 5 Z " />
</font>
</svg>
