<?xml version="1.0" encoding="UTF-8"?>
<svg xmlns="http://www.w3.org/2000/svg" xmlns:xlink="http://www.w3.org/1999/xlink" version="1.2" >
<font id="Jesusa Regular">
<font-face  font-family="Jesusa" units-per-em="1024" ascent="936" descent="-280" font-style="normal" font-weight="400" font-stretch="normal" cap-height="660" x-height="500" underline-position="-125" underline-thickness="50" />
<missing-glyph  horiz-adv-x="650" d="" />
<glyph glyph-name="NULL" d="" />
<glyph glyph-name="CR" unicode="&#xd;" horiz-adv-x="256" d="" />
<glyph glyph-name="space" unicode="&#x20;" horiz-adv-x="248" d="" />
<glyph glyph-name="exclam" unicode="&#x21;" horiz-adv-x="157" d="M80 -5 C92 -5 100 3 100 15 C100 27 92 35 80 35 C68 35 60 27 60 15 C60 3 68 -5 80 -5 L80 -5 Z M98 620 C98 647 90 665 78 665 C65 665 57 647 58 620 L78 110 L81 110 L98 620 L98 620 Z " />
<glyph glyph-name="quotedbl" unicode="&#x22;" horiz-adv-x="212" d="M121 660 L143 489 L150 489 L172 660 L121 660 L121 660 Z M40 660 L62 489 L69 489 L91 660 L40 660 L40 660 Z " />
<glyph glyph-name="numbersign" unicode="&#x23;" horiz-adv-x="520" d="M385 690 L355 470 L206 470 L236 690 L226 690 L195 470 L61 470 L59 450 L193 450 L160 210 L24 210 L22 190 L157 190 L131 0 L142 0 L168 190 L317 190 L291 0 L301 0 L327 190 L455 190 L458 210 L330 210 L363 450 L498 450 L500 470 L365 470 L396 690 L385 690 L385 690 Z M203 450 L352 450 L319 210 L170 210 L203 450 L203 450 Z " />
<glyph glyph-name="dollar" unicode="&#x24;" horiz-adv-x="496" d="M263 735 L263 665 C252 665 241 665 230 665 C218 665 206 664 195 662 L195 735 L182 735 L182 660 C104 642 55 578 55 490 C55 433 104 377 182 340 L182 5 C137 7 97 10 67 14 L67 14 C62 58 54 117 48 161 L46 161 L44 161 L44 12 L45 12 L44 6 C68 2 119 -1 182 -3 L182 -74 L195 -74 L195 -3 C216 -3 239 -3 262 -3 L262 -73 L275 -73 L275 -3 C381 -3 451 63 451 163 C451 235 381 304 275 340 L275 660 C318 658 361 654 395 649 C401 604 409 545 414 501 L416 501 L419 501 L419 656 L418 650 L418 650 L419 656 C390 661 336 665 275 666 L275 736 L263 735 L263 735 Z M262 343 L262 343 C238 350 216 358 196 368 L196 656 C207 658 218 659 230 659 C241 659 252 659 263 659 L262 343 L262 343 Z M183 375 C117 409 77 455 77 501 C77 578 118 634 183 652 L183 375 L183 375 Z M196 334 C210 328 224 323 239 318 C247 316 255 313 263 310 L263 3 C240 3 217 3 195 4 L196 334 L196 334 Z M275 305 C369 269 429 209 429 149 C429 61 367 3 275 3 L275 305 L275 305 Z " />
<glyph glyph-name="ampersand" unicode="&#x26;" horiz-adv-x="692" d="M250 373 C368 397 446 466 446 548 C446 618 391 665 309 665 C227 665 172 602 172 507 C172 471 191 424 223 369 C119 333 50 251 50 162 C50 62 134 -5 259 -5 C346 -5 419 22 470 70 C563 -10 624 -12 692 0 L692 5 C634 -5 580 0 485 87 C525 133 548 194 548 266 L548 296 C548 363 560 376 578 376 L667 376 L667 378 L667 381 L550 381 L432 381 L432 378 L432 376 L521 376 C534 376 542 363 542 296 L542 266 C542 196 520 136 481 92 C449 122 412 162 369 214 C321 271 280 326 250 375 L250 373 L250 373 Z M248 378 C213 435 193 484 193 520 C193 604 239 660 307 660 C378 660 425 615 425 547 C425 467 355 401 248 377 L248 378 L248 378 Z M466 74 C419 31 353 7 274 7 C155 7 76 73 76 172 C76 256 136 332 226 364 C257 313 299 256 349 196 C393 143 431 103 465 73 L466 74 L466 74 Z " />
<glyph glyph-name="quotesingle" unicode="&#x27;" horiz-adv-x="130" d="M40 660 L62 489 L69 489 L91 660 L40 660 L40 660 Z " />
<glyph glyph-name="parenleft" unicode="&#x28;" horiz-adv-x="171" d="M158 690 C99 620 60 506 60 270 C60 34 99 -80 158 -150 L161 -147 C113 -89 81 20 81 270 C81 520 113 629 161 687 L158 690 L158 690 Z " />
<glyph glyph-name="parenright" unicode="&#x29;" horiz-adv-x="171" d="M10 -150 C69 -80 108 34 108 270 C108 506 69 620 10 690 L7 687 C55 629 87 520 87 270 C87 20 55 -89 7 -147 L10 -150 L10 -150 Z " />
<glyph glyph-name="asterisk" unicode="&#x2a;" horiz-adv-x="251" d="M148 540 L42 487 C36 484 34 479 37 475 C39 470 45 469 50 473 L149 538 L142 420 C141 413 145 409 150 409 C155 409 159 413 158 420 L151 538 L250 473 C255 469 261 470 263 475 C266 479 264 484 258 487 L152 540 L258 593 C264 596 266 601 263 605 C261 610 255 611 250 607 L151 542 L158 660 C159 667 155 671 150 671 C145 671 141 667 142 660 L149 542 L50 607 C45 611 39 610 37 605 C34 601 36 596 42 593 L148 540 L148 540 Z " />
<glyph glyph-name="plus" unicode="&#x2b;" horiz-adv-x="549" d="M266 447 L266 256 L75 256 L75 244 L266 244 L266 53 L279 53 L279 244 L470 244 L470 256 L279 256 L279 447 L266 447 L266 447 Z " />
<glyph glyph-name="comma" unicode="&#x2c;" horiz-adv-x="152" d="M80 -5 C82 -5 84 -5 86 -5 C87 -9 87 -14 87 -19 C87 -41 79 -60 66 -66 L68 -70 C89 -60 103 -34 103 -6 C103 3 102 12 100 19 C98 27 91 33 82 33 C70 33 62 25 62 14 C62 2 70 -6 82 -6 L80 -5 L80 -5 Z " />
<glyph glyph-name="hyphen" unicode="&#x2d;" horiz-adv-x="273" d="M20 224 L253 224 L253 246 L20 246 L20 224 L20 224 Z " />
<glyph glyph-name="period" unicode="&#x2e;" horiz-adv-x="205" d="M125 -5 C137 -5 145 3 145 15 C145 27 137 35 125 35 C113 35 105 27 105 15 C105 3 113 -5 125 -5 L125 -5 Z " />
<glyph glyph-name="slash" unicode="&#x2f;" horiz-adv-x="322" d="M0 -145 L12 -145 L322 710 L310 710 L0 -145 L0 -145 Z " />
<glyph glyph-name="zero" unicode="0" horiz-adv-x="587" d="M294 1 C165 1 80 101 80 250 C80 399 165 499 294 499 C422 499 507 399 507 250 C507 101 422 1 294 1 L294 1 Z M50 250 C50 97 147 -5 294 -5 C440 -5 537 97 537 250 C537 403 440 505 294 505 C147 505 50 403 50 250 L50 250 Z " />
<glyph glyph-name="one" unicode="1" horiz-adv-x="326" d="M163 0 L177 0 L271 0 L271 3 L271 5 L177 5 L177 495 L271 495 L271 497 L271 500 L177 500 L163 500 L150 500 L55 500 L55 497 L55 495 L150 495 L150 5 L55 5 L55 3 L55 0 L150 0 L163 0 L163 0 Z " />
<glyph glyph-name="two" unicode="2" horiz-adv-x="474" d="M441 16 C444 48 447 90 450 122 L448 122 L445 122 L437 27 L67 27 C276 161 413 232 413 347 C413 442 352 505 260 505 C184 505 109 446 73 358 L76 355 C108 433 176 485 247 485 C329 485 383 426 383 338 C383 209 240 146 26 6 L26 0 L441 0 L441 16 L441 16 Z " />
<glyph glyph-name="three" unicode="3" horiz-adv-x="445" d="M26 -215 C248 -203 396 -101 396 40 C396 142 314 210 191 210 C185 210 177 209 168 207 C276 253 345 318 345 379 C345 454 292 505 211 505 C142 505 62 453 11 376 L14 373 C59 440 132 485 198 485 C269 485 317 439 317 370 C317 305 242 238 128 197 C119 194 110 191 101 188 L101 183 C104 184 107 185 110 186 C130 192 159 196 186 196 C295 196 368 134 368 40 C368 -99 232 -198 27 -210 L26 -215 L26 -215 Z " />
<glyph glyph-name="four" unicode="4" horiz-adv-x="481" d="M40 12 L338 457 L338 12 L40 12 L40 12 Z M338 0 L338 -150 L365 -150 L365 0 L472 0 L472 12 L365 12 L365 457 L365 497 L365 505 L360 505 L25 5 L25 0 L31 0 L32 0 L338 0 L338 0 Z " />
<glyph glyph-name="five" unicode="5" horiz-adv-x="429" d="M69 238 L76 238 L139 238 C267 238 352 166 352 57 C352 -76 224 -170 31 -177 L31 -182 C240 -174 379 -75 379 66 C379 185 288 265 152 265 L78 265 L97 500 L89 500 L69 238 L69 238 Z M371 500 L97 500 L95 471 L367 471 L372 486 L372 486 C382 518 396 562 407 595 L405 595 L402 595 L371 500 L371 500 Z " />
<glyph glyph-name="six" unicode="6" horiz-adv-x="565" d="M509 715 C250 706 78 540 78 301 C78 284 79 268 80 252 C69 234 59 215 49 195 L55 195 C63 212 72 228 81 243 C97 92 178 -5 294 -5 C434 -5 523 83 516 215 C516 342 438 426 321 426 C250 426 172 376 110 294 C110 300 110 306 110 311 C110 543 270 703 509 712 L509 715 L509 715 Z M108 286 C169 369 246 420 316 420 C419 420 487 338 487 216 C494 89 418 5 297 5 C184 5 108 114 108 278 C108 281 108 284 108 287 L108 286 L108 286 Z " />
<glyph glyph-name="seven" unicode="7" horiz-adv-x="431" d="M29 486 C26 454 22 410 19 378 L22 378 L25 378 L33 472 L407 472 L135 -140 L165 -140 L412 472 L422 497 L420 500 L30 500 L29 486 L29 486 Z " />
<glyph glyph-name="eight" unicode="8" horiz-adv-x="534" d="M295 346 C288 347 280 348 272 349 C180 358 118 422 118 508 C118 599 180 659 273 659 C369 659 432 600 432 512 C432 420 377 355 294 346 L295 346 L295 346 Z M298 345 C391 355 453 422 453 515 C453 604 381 664 274 664 C166 664 94 597 94 496 C94 409 153 343 243 324 C139 322 69 259 69 164 C69 63 152 -5 276 -5 C401 -5 484 66 484 172 C484 258 411 324 298 344 L298 345 L298 345 Z M248 323 C255 322 262 321 269 320 C383 308 459 245 459 162 C459 65 387 0 279 0 C168 0 95 67 95 167 C95 261 156 323 248 324 L248 323 L248 323 Z " />
<glyph glyph-name="nine" unicode="9" horiz-adv-x="565" d="M57 -215 C316 -206 488 -40 488 199 C488 216 487 232 486 248 C497 266 507 285 517 305 L511 305 C503 288 494 272 485 257 C469 408 388 505 272 505 C132 505 43 417 50 285 C50 158 128 74 245 74 C316 74 394 124 456 206 C456 200 456 194 456 189 C456 -43 296 -203 57 -212 L57 -215 L57 -215 Z M458 214 C397 131 320 80 250 80 C147 80 79 162 78 284 C72 411 148 495 269 495 C382 495 458 386 458 222 C458 219 458 216 458 213 L458 214 L458 214 Z " />
<glyph glyph-name="colon" unicode="&#x3a;" horiz-adv-x="205" d="M125 347 C137 347 145 355 145 367 C145 379 137 387 125 387 C113 387 105 379 105 367 C105 355 113 347 125 347 L125 347 Z M125 -5 C137 -5 145 3 145 15 C145 27 137 35 125 35 C113 35 105 27 105 15 C105 3 113 -5 125 -5 L125 -5 Z " />
<glyph glyph-name="semicolon" unicode="&#x3b;" horiz-adv-x="152" d="M80 346 C92 346 100 354 100 366 C100 378 92 386 80 386 C68 386 60 378 60 366 C60 354 68 346 80 346 L80 346 Z M80 -5 C82 -5 84 -5 86 -5 C87 -9 87 -14 87 -19 C87 -41 79 -60 66 -66 L68 -70 C89 -60 103 -34 103 -6 C103 3 102 12 100 19 C98 27 91 33 82 33 C70 33 62 25 62 14 C62 2 70 -6 82 -6 L80 -5 L80 -5 Z " />
<glyph glyph-name="less" unicode="&#x3c;" horiz-adv-x="527" d="M453 500 L43 283 L40 281 L40 269 L43 267 L453 50 L453 64 L51 275 L453 486 L453 500 L453 500 Z " />
<glyph glyph-name="equal" unicode="&#x3d;" horiz-adv-x="518" d="M74 206 L74 194 L449 194 L449 206 L74 206 L74 206 Z M74 306 L74 294 L449 294 L449 306 L74 306 L74 306 Z " />
<glyph glyph-name="greater" unicode="&#x3e;" horiz-adv-x="524" d="M468 275 L75 64 L75 50 L475 267 L485 273 L485 277 L475 283 L75 500 L75 486 L468 275 L468 275 Z " />
<glyph glyph-name="question" unicode="&#x3f;" horiz-adv-x="360" d="M140 -5 C152 -5 160 3 160 15 C160 27 152 35 140 35 C128 35 120 27 120 15 C120 3 128 -5 140 -5 L140 -5 Z M148 343 L182 343 C302 343 325 415 325 455 C325 581 246 665 127 665 C77 665 44 637 44 596 C44 594 50 592 60 592 C93 592 102 644 135 644 C245 644 319 570 319 458 C319 424 296 364 173 364 L138 364 C134 364 132 362 132 360 L138 114 L142 114 L148 343 L148 343 Z " />
<glyph glyph-name="at" unicode="&#x40;" horiz-adv-x="1117" d="M1038 0 C971 -144 780 -240 562 -240 C270 -240 76 -40 76 259 C76 558 269 758 559 758 C849 758 1042 592 1042 343 C1042 138 962 2 843 2 C708 2 638 81 667 200 L737 480 L712 480 L685 373 C679 444 632 490 564 490 C406 490 301 374 301 200 C301 90 368 16 468 16 C539 16 603 69 636 153 C633 55 709 -8 838 -8 C973 -8 1063 132 1063 342 C1063 596 861 765 559 765 C257 765 55 562 55 258 C55 -46 258 -249 562 -249 C783 -249 977 -150 1047 -1 L1038 0 L1038 0 Z M681 354 L642 199 C617 98 553 30 482 30 C391 30 331 100 331 205 C331 371 424 482 563 482 C633 482 680 431 680 354 L681 354 L681 354 Z " />
<glyph glyph-name="A" unicode="A" horiz-adv-x="628" d="M549 5 L548 5 L319 675 L311 675 L93 5 L-2 5 L-2 3 L-2 0 L91 0 L96 0 L101 0 L231 0 L231 3 L231 5 L103 5 L103 5 L178 238 L438 238 L516 5 L516 5 L390 5 L390 3 L390 0 L518 0 L534 0 L550 0 L630 0 L630 3 L630 5 L549 5 L549 5 Z M436 246 L181 246 L306 634 L436 246 L436 246 Z " />
<glyph glyph-name="B" unicode="B" horiz-adv-x="588" d="M333 355 C321 356 309 356 296 356 L182 355 L182 652 L332 652 C425 652 487 597 487 514 C487 426 427 365 333 354 L333 355 L333 355 Z M315 348 C450 340 538 274 538 177 C538 74 465 6 355 6 L183 6 L183 347 L303 347 C307 347 311 347 315 347 L315 348 L315 348 Z M354 351 C454 366 517 427 517 512 C517 600 443 658 332 658 L182 658 L167 658 L152 658 L57 658 L57 655 L57 653 L152 653 L152 3 L57 3 L57 1 L57 -2 L152 -2 L167 -2 L182 -2 L357 -2 C484 -2 569 70 569 177 C569 270 485 336 354 351 L354 351 Z " />
<glyph glyph-name="C" unicode="C" horiz-adv-x="718" d="M659 16 L659 169 L656 169 L654 169 C649 124 641 65 635 20 C565 9 474 2 401 2 C222 2 102 133 102 329 C102 525 222 656 401 656 C474 656 565 649 635 638 C641 593 649 534 654 489 L656 489 L659 489 L659 642 C588 655 484 663 401 663 C202 663 69 529 69 328 C69 127 202 -7 401 -7 C484 -7 588 1 659 14 L659 16 L659 16 Z " />
<glyph glyph-name="D" unicode="D" horiz-adv-x="686" d="M167 0 L182 0 L350 0 C522 0 637 132 637 330 C637 528 505 660 308 660 L182 660 L167 660 L152 660 L57 660 L57 657 L57 655 L152 655 L152 5 L57 5 L57 3 L57 0 L152 0 L167 0 L167 0 Z M182 8 L182 652 L308 652 C487 652 607 523 607 330 C607 137 504 8 350 8 L182 8 L182 8 Z " />
<glyph glyph-name="E" unicode="E" horiz-adv-x="590" d="M457 4 C466 51 477 115 485 162 L481 162 L438 8 L165 8 L165 348 L378 348 L386 244 L390 244 L391 244 L391 348 L391 352 L391 356 L391 450 L390 450 L386 450 L378 356 L165 356 L165 652 L430 652 L445 498 L449 498 L449 656 L449 660 L447 660 L446 660 L444 660 L165 660 L150 660 L135 660 L40 660 L40 657 L40 655 L135 655 L135 5 L40 5 L40 3 L40 0 L135 0 L150 0 L165 0 L451 0 L454 0 L456 0 L457 0 L457 4 L457 4 Z " />
<glyph glyph-name="F" unicode="F" horiz-adv-x="485" d="M479 656 L479 660 L477 660 L476 660 L474 660 L165 660 L150 660 L135 660 L40 660 L40 657 L40 655 L135 655 L135 5 L40 5 L40 3 L40 0 L135 0 L150 0 L165 0 L269 0 L269 3 L269 5 L165 5 L165 343 L368 343 L376 239 L380 239 L381 239 L381 343 L381 347 L381 351 L381 445 L380 445 L376 445 L368 351 L165 351 L165 652 L460 652 L475 498 L479 498 L479 656 L479 656 Z " />
<glyph glyph-name="G" unicode="G" horiz-adv-x="835" d="M618 305 L618 54 C554 23 466 3 390 3 C217 3 102 134 102 330 C102 526 217 657 390 657 C459 657 546 650 615 639 C621 594 629 535 634 490 L636 490 L639 490 L639 643 C568 656 468 664 390 664 C197 664 69 530 69 329 C69 128 197 -6 390 -6 C477 -6 579 19 645 57 L645 304 L739 304 L739 306 L739 309 L645 309 L631 309 L618 309 L523 309 L523 306 L523 304 L618 305 L618 305 Z " />
<glyph glyph-name="H" unicode="H" horiz-adv-x="796" d="M647 0 L662 0 L756 0 C757 0 757 1 756 3 C757 4 757 5 756 5 L662 5 L662 655 L756 655 C757 655 757 656 756 657 C757 659 757 660 756 660 L662 660 L647 660 L632 660 L537 660 L537 657 L537 655 L632 655 L632 351 L165 351 L165 655 L259 655 L259 657 L259 660 L165 660 L150 660 L135 660 L40 660 L40 657 L40 655 L135 655 L135 5 L40 5 L40 3 L40 0 L135 0 L150 0 L165 0 L259 0 L259 3 L259 5 L165 5 L165 343 L632 343 L632 5 L537 5 L537 3 L537 0 L632 0 L647 0 L647 0 Z " />
<glyph glyph-name="I" unicode="I" horiz-adv-x="299" d="M150 0 L165 0 L259 0 L259 3 L259 5 L165 5 L165 655 L259 655 L259 657 L259 660 L165 660 L150 660 L135 660 L40 660 L40 657 L40 655 L135 655 L135 5 L40 5 L40 3 L40 0 L135 0 L150 0 L150 0 Z " />
<glyph glyph-name="J" unicode="J" horiz-adv-x="362" d="M198 655 L198 200 C198 53 169 -4 95 -4 C61 -4 34 18 25 50 C23 57 18 62 12 62 C3 62 -2 57 0 50 C9 14 44 -10 87 -10 C189 -10 228 56 228 225 L228 655 L322 655 L322 657 L322 660 L228 660 L213 660 L198 660 L103 660 L103 657 L103 655 L198 655 L198 655 Z " />
<glyph glyph-name="K" unicode="K" horiz-adv-x="644" d="M524 655 L524 655 L182 355 L182 655 L277 655 C276 655 276 656 277 657 C276 659 276 660 277 660 L182 660 L167 660 L152 660 L57 660 L57 657 L57 655 L152 655 L152 5 L57 5 L57 3 L57 0 L152 0 L167 0 L182 0 L277 0 C276 0 276 1 277 3 C276 4 276 5 277 5 L182 5 L182 355 L187 349 L188 350 L357 190 C505 50 579 -5 620 -5 L634 -5 L634 1 L629 1 C608 1 538 60 379 210 L211 370 L535 655 L630 655 L630 657 L630 660 L541 660 L536 660 L531 660 L436 660 L436 657 L436 655 L524 655 L524 655 Z " />
<glyph glyph-name="L" unicode="L" horiz-adv-x="590" d="M457 4 C466 53 478 119 486 169 C487 169 486 169 485 170 C483 174 481 177 481 177 L438 8 L165 8 L165 655 L259 655 L259 657 L259 660 L165 660 L150 660 L135 660 L40 660 L40 657 L40 655 L135 655 L135 5 L40 5 L40 3 L40 0 L135 0 L150 0 L165 0 L451 0 L454 0 L456 0 L457 0 L457 4 L457 4 Z " />
<glyph glyph-name="M" unicode="M" horiz-adv-x="839" d="M732 5 L732 5 L702 655 L796 655 L796 657 L796 660 L702 660 L688 660 L685 660 L675 660 L421 -5 L428 -5 L676 637 L702 5 L607 5 L607 3 L607 0 L702 0 L717 0 L732 0 L826 0 L826 3 L826 5 L732 5 L732 5 Z M160 655 L161 655 L136 5 L136 5 L41 5 L41 3 L41 0 L136 0 L140 0 L145 0 L274 0 L274 3 L274 5 L145 5 L168 620 L414 12 L421 -5 L435 32 L435 34 L184 660 L170 660 L165 660 L161 660 L66 660 L66 657 L66 655 L160 655 L160 655 Z " />
<glyph glyph-name="N" unicode="N" horiz-adv-x="730" d="M584 655 L584 44 L166 660 L148 647 L148 648 L166 660 L148 660 L144 660 L139 660 L45 660 L45 657 L45 655 L139 655 L139 5 L45 5 L45 3 L45 0 L139 0 L144 0 L148 0 L243 0 L243 3 L243 5 L148 5 L148 634 L571 12 L583 -6 L593 -6 L593 23 L593 655 L688 655 L688 657 L688 660 L593 660 L589 660 L584 660 L490 660 L490 657 L490 655 L584 655 L584 655 Z " />
<glyph glyph-name="O" unicode="O" horiz-adv-x="753" d="M386 3 C199 3 102 153 102 330 C102 507 199 657 386 657 C574 657 671 507 671 330 C671 153 574 3 386 3 L386 3 Z M69 330 C69 149 177 -5 386 -5 C596 -5 704 149 704 330 C704 511 596 665 386 665 C177 665 69 511 69 330 L69 330 Z " />
<glyph glyph-name="P" unicode="P" horiz-adv-x="570" d="M167 0 L182 0 L277 0 C276 0 276 1 277 3 C276 4 276 5 277 5 L182 5 L182 299 L315 299 C456 299 550 370 550 478 C550 587 469 660 348 660 L182 660 L167 660 L152 660 L57 660 L57 657 L57 655 L152 655 L152 5 L57 5 L57 3 L57 0 L152 0 L167 0 L167 0 Z M182 307 L182 652 L348 652 C451 652 519 582 519 478 C519 375 437 307 315 307 L182 307 L182 307 Z " />
<glyph glyph-name="Q" unicode="Q" horiz-adv-x="753" d="M793 -51 L790 -48 C762 -82 700 -104 636 -104 C532 -104 450 -65 388 -5 C596 -4 703 149 703 329 C703 510 595 664 385 664 C176 664 68 510 68 329 C68 150 174 -3 378 -6 C450 -78 536 -125 632 -125 C691 -125 755 -96 792 -52 L793 -51 L793 -51 Z M385 2 C198 2 101 152 101 329 C101 506 198 656 385 656 C573 656 670 506 670 329 C670 152 573 2 385 2 L385 2 Z " />
<glyph glyph-name="R" unicode="R" horiz-adv-x="625" d="M626 0 L626 6 L621 6 C609 6 606 10 524 100 L327 319 C443 327 520 394 520 491 C520 593 445 661 334 661 L183 661 L168 661 L153 661 L58 661 L58 658 L58 656 L153 656 L153 6 L58 6 L58 4 L58 1 L153 1 L168 1 L183 1 L278 1 C277 1 277 2 278 4 C277 5 277 6 278 6 L183 6 L183 319 L292 319 L484 107 C576 5 581 1 613 1 L626 0 L626 0 Z M304 327 L285 327 L183 327 L183 653 L334 653 C426 653 488 588 488 491 C488 392 414 327 304 327 L304 327 Z " />
<glyph glyph-name="S" unicode="S" horiz-adv-x="496" d="M45 11 L46 11 L45 5 C80 -1 173 -5 276 -5 C382 -5 452 61 452 161 C452 236 376 308 262 342 C151 375 77 438 77 501 C77 595 138 658 230 658 C287 658 350 654 396 648 C402 603 410 544 415 500 L417 500 L420 500 L420 655 L419 649 L419 649 L420 655 C384 661 309 665 231 665 C126 665 56 594 56 489 C56 419 129 351 239 318 C354 285 430 217 430 149 C430 61 368 3 276 3 C197 3 118 7 68 13 L68 13 C63 57 55 116 49 160 L47 160 L45 160 L45 11 L45 11 Z " />
<glyph glyph-name="T" unicode="T" horiz-adv-x="614" d="M577 660 L577 656 L575 656 L575 660 L40 660 L40 656 L38 656 L38 660 L35 660 L33 660 C33 659 33 657 32 656 C28 604 22 535 17 483 L18 483 L22 483 L54 652 L292 652 L292 5 L198 5 L198 3 L198 0 L292 0 L307 0 L322 0 L417 0 L417 3 L417 5 L322 5 L322 652 L561 652 L593 483 L597 483 C593 535 587 604 582 656 L582 660 L579 660 L577 660 L577 660 Z " />
<glyph glyph-name="U" unicode="U" horiz-adv-x="742" d="M142 655 L142 204 C142 79 208 -5 376 -5 C538 -5 601 67 601 174 L601 655 L706 655 L706 657 L706 660 L601 660 L597 660 L592 660 L482 660 L482 657 L482 655 L592 655 L592 177 C592 74 533 5 381 5 C230 5 172 82 172 199 L172 655 L267 655 C266 655 266 656 267 657 C266 659 266 660 267 660 L172 660 L157 660 L142 660 L47 660 L47 657 L47 655 L142 655 L142 655 Z " />
<glyph glyph-name="V" unicode="V" horiz-adv-x="674" d="M549 655 L550 655 L362 28 L136 655 L136 655 L253 655 C254 655 254 656 253 657 C254 659 254 660 253 660 L134 660 L117 660 L101 660 L23 660 L23 657 L23 655 L103 655 L349 -15 L356 -15 L558 655 L653 655 L653 657 L653 660 L560 660 L555 660 L551 660 L411 660 L411 657 L411 655 L549 655 L549 655 Z " />
<glyph glyph-name="W" unicode="W" horiz-adv-x="983" d="M852 655 L668 -15 L675 -15 L861 655 L861 655 L956 655 L956 657 L956 660 L862 660 L858 660 L853 660 L729 660 L729 657 L729 655 L852 655 L852 655 Z M668 -15 L681 33 L498 670 L490 670 L324 31 L144 655 L253 655 L253 657 L253 660 L143 660 L126 660 L110 660 L32 660 L32 657 L32 655 L111 655 L312 -15 L320 -15 L484 618 L668 -15 L668 -15 Z " />
<glyph glyph-name="X" unicode="X" horiz-adv-x="655" d="M144 5 L144 5 L319 318 L515 5 L514 5 L398 5 L398 3 L398 0 L518 0 L535 0 L552 0 L623 0 L623 3 L623 5 L549 5 L337 344 L337 344 L532 655 L532 655 L626 655 L626 657 L626 660 L535 660 L529 660 L523 660 L394 660 L394 657 L394 655 L520 655 L332 351 L142 655 L259 655 C258 655 258 656 259 657 C258 659 258 660 259 660 L139 660 L122 660 L105 660 L34 660 L34 657 L34 655 L108 655 L108 655 L315 325 L314 325 L133 5 L39 5 L39 3 L39 0 L130 0 L136 0 L141 0 L271 0 L271 3 L271 5 L144 5 L144 5 Z " />
<glyph glyph-name="Y" unicode="Y" horiz-adv-x="623" d="M530 655 L530 655 L329 264 L329 264 L331 268 L140 655 L247 655 C248 655 248 656 247 657 C248 659 248 660 247 660 L138 660 L120 660 L102 660 L30 660 L30 657 L30 655 L104 655 L104 655 L307 249 L307 5 L212 5 L212 3 L212 0 L307 0 L322 0 L337 0 L431 0 L431 3 L431 5 L337 5 L337 264 L539 655 L624 655 C623 655 623 656 624 657 C623 659 623 660 624 660 L542 660 L537 660 L533 660 L403 660 L403 657 L403 655 L530 655 L530 655 Z " />
<glyph glyph-name="Z" unicode="Z" horiz-adv-x="592" d="M517 4 C526 54 537 120 546 169 C546 169 545 169 545 170 C542 175 541 177 541 177 L498 8 L98 8 L524 660 L507 660 L490 660 L140 660 L140 656 L137 656 L138 660 L135 660 L132 660 C132 659 131 657 131 656 C120 613 104 556 93 513 L97 513 L152 652 L485 652 L60 0 L76 0 L93 0 L511 0 L514 0 L515 0 L516 0 C516 1 517 3 517 4 L517 4 Z " />
<glyph glyph-name="bracketleft" unicode="&#x5b;" horiz-adv-x="217" d="M103 654 L208 654 L208 660 L103 660 L82 660 L82 -120 L103 -120 L208 -120 L208 -114 L103 -114 L103 654 L103 654 Z " />
<glyph glyph-name="backslash" unicode="&#x5c;" horiz-adv-x="208" d="M199 -145 L209 -145 L-51 710 L-60 710 L199 -145 L199 -145 Z " />
<glyph glyph-name="bracketright" unicode="&#x5d;" horiz-adv-x="200" d="M110 654 L110 -114 L5 -114 L5 -120 L110 -120 L131 -120 L131 660 L110 660 L5 660 L5 654 L110 654 L110 654 Z " />
<glyph glyph-name="underscore" unicode="&#x5f;" horiz-adv-x="443" d="M5 -50 L5 -65 L438 -65 L438 -50 L5 -50 L5 -50 Z " />
<glyph glyph-name="a" unicode="a" horiz-adv-x="466" d="M445 35 C426 16 408 3 391 3 C360 3 352 25 352 59 L352 362 C352 448 306 505 237 505 C176 505 106 492 64 474 L91 474 C123 488 179 498 231 498 C287 498 324 446 324 368 L324 246 L193 228 C98 215 35 164 35 100 C35 37 79 -5 145 -5 C208 -5 277 28 324 78 L324 56 C324 16 335 -10 372 -10 C399 -10 423 6 448 31 L445 35 L445 35 Z M324 240 L324 83 C283 40 219 13 158 13 C101 13 62 51 62 108 C62 163 114 207 193 219 L324 240 L324 240 Z " />
<glyph glyph-name="b" unicode="b" horiz-adv-x="613" d="M130 0 L133 0 C133 1 133 2 133 3 C136 14 142 20 149 20 C191 20 231 3 282 -4 C295 -6 309 -7 323 -7 C463 -7 557 94 557 245 C557 400 468 503 336 503 C336 503 264 483 155 453 L155 702 L155 711 L155 718 L149 718 L33 685 L33 682 L128 695 L128 116 L130 0 L130 0 Z M155 448 C247 474 311 491 315 491 C443 491 528 388 528 232 C528 94 446 1 323 1 C222 1 155 47 155 116 L155 448 L155 448 Z " />
<glyph glyph-name="c" unicode="c" horiz-adv-x="453" d="M402 28 L399 31 C385 19 325 11 248 11 C147 11 79 106 79 248 C79 397 162 497 285 497 C336 497 373 460 378 403 C379 395 385 390 392 390 C399 390 404 395 404 402 C399 464 352 505 288 505 C145 505 50 398 50 237 C50 92 120 -5 226 -5 C308 -5 378 8 402 28 L402 28 Z " />
<glyph glyph-name="d" unicode="d" horiz-adv-x="584" d="M474 704 L474 713 L474 720 L469 720 L353 687 L353 684 L447 697 L447 478 C417 492 346 505 268 505 C140 505 55 394 55 227 C55 88 135 -5 256 -5 C256 -5 332 18 447 52 L447 17 L447 8 L447 1 L453 1 L569 34 L569 37 L474 24 L474 704 L474 704 Z M447 55 C359 29 289 12 271 12 C158 12 83 102 83 238 C83 394 156 498 267 498 C347 498 420 484 447 469 L447 55 L447 55 Z " />
<glyph glyph-name="e" unicode="e" horiz-adv-x="460" d="M408 28 L406 31 C392 19 331 11 252 11 C148 11 79 106 79 248 C79 277 82 304 87 329 L385 329 L411 329 C411 435 348 505 254 505 C131 505 50 398 50 237 C50 92 122 -5 229 -5 C313 -5 385 8 408 28 L408 28 Z M88 334 C110 434 170 497 252 497 C332 497 385 439 385 352 C385 344 380 339 373 339 L385 339 L88 334 L88 334 Z " />
<glyph glyph-name="f" unicode="f" horiz-adv-x="395" d="M166 0 L180 0 L275 0 L275 3 L275 5 L180 5 L180 489 L311 489 L311 500 L180 500 L180 533 C180 641 223 714 288 714 C320 714 343 693 346 660 C346 653 352 648 359 648 C366 648 371 653 371 660 C368 696 338 720 295 720 C215 720 158 647 154 539 L153 500 L65 500 L65 489 L153 489 L153 5 L58 5 L58 3 L58 0 L153 0 L166 0 L166 0 Z " />
<glyph glyph-name="g" unicode="g" horiz-adv-x="457" d="M458 500 L320 495 L320 495 C299 502 275 506 249 506 C144 506 74 445 74 352 C74 274 125 218 205 203 L196 203 C111 203 55 170 55 121 C55 71 98 38 166 34 C84 7 30 -47 30 -102 C30 -182 87 -236 173 -236 C332 -236 438 -164 438 -55 C438 15 368 62 262 62 L190 59 C120 56 74 84 74 131 C74 172 123 199 196 199 L250 199 C355 199 425 260 425 352 C425 413 395 460 345 485 L458 486 L458 500 L458 500 Z M100 352 C100 441 160 500 250 500 C276 500 300 495 320 486 L320 485 L320 485 C368 462 398 414 398 352 C398 264 338 205 249 205 C159 205 99 264 99 352 L100 352 L100 352 Z M174 34 C179 34 184 34 190 34 L254 37 C352 37 417 -5 417 -69 C417 -164 320 -228 175 -228 C99 -228 48 -176 48 -99 C48 -44 97 8 173 33 L174 34 L174 34 Z " />
<glyph glyph-name="h" unicode="h" horiz-adv-x="648" d="M487 5 L392 5 L392 3 L392 0 L487 0 L500 0 L514 0 L609 0 L609 3 L609 5 L514 5 L514 336 C514 437 478 505 384 505 C384 505 297 477 166 437 L166 704 L166 713 L166 720 L161 720 L45 687 L45 684 L139 697 L139 5 L45 5 L45 3 L45 0 L139 0 L153 0 L166 0 L261 0 L261 3 L261 5 L166 5 L166 434 C269 465 348 487 364 487 C453 487 488 425 488 333 L487 5 L487 5 Z " />
<glyph glyph-name="i" unicode="i" horiz-adv-x="306" d="M152 570 C164 570 172 578 172 590 C172 602 164 610 152 610 C140 610 132 602 132 590 C132 578 140 570 152 570 L152 570 Z M153 0 L167 0 L261 0 L261 3 L261 5 L167 5 L167 484 L167 493 L167 500 L161 500 L45 467 L45 464 L140 477 L140 5 L45 5 L45 3 L45 0 L140 0 L153 0 L153 0 Z " />
<glyph glyph-name="j" unicode="j" horiz-adv-x="305" d="M151 570 C163 570 171 578 171 590 C171 602 163 610 151 610 C139 610 131 602 131 590 C131 578 139 570 151 570 L151 570 Z M139 477 L138 11 C138 -133 112 -177 33 -226 L35 -230 C133 -168 166 -121 166 19 L166 484 L166 493 L166 500 L160 500 L44 467 L44 464 L139 477 L139 477 Z " />
<glyph glyph-name="k" unicode="k" horiz-adv-x="562" d="M491 0 L508 0 L597 0 L597 3 L597 5 L503 5 L206 289 L461 495 L461 495 L555 495 L555 497 L555 500 L467 500 L461 500 L455 500 L361 500 L361 497 L361 495 L449 495 L181 275 L181 704 L181 713 L181 720 L175 720 L59 687 L59 684 L154 697 L154 5 L59 5 L59 3 L59 0 L154 0 L167 0 L181 0 L275 0 C276 0 276 1 275 3 C276 4 276 5 275 5 L181 5 L181 275 L184 271 L185 272 L469 5 L380 5 L380 3 L380 0 L474 0 L491 0 L491 0 Z " />
<glyph glyph-name="l" unicode="l" horiz-adv-x="306" d="M153 0 L167 0 L261 0 L261 3 L261 5 L167 5 L167 704 L167 713 L167 720 L161 720 L45 687 L45 684 L140 697 L140 5 L45 5 L45 3 L45 0 L140 0 L153 0 L153 0 Z " />
<glyph glyph-name="m" unicode="m" horiz-adv-x="1015" d="M854 5 L760 5 L760 3 L760 0 L854 0 L868 0 L881 0 L976 0 L976 3 L976 5 L881 5 L881 336 C881 437 822 505 743 505 C743 505 649 469 510 416 C489 471 445 505 392 505 C392 505 302 477 167 436 L167 483 L167 487 L167 499 L162 499 L46 466 L46 463 L140 476 L140 4 L46 4 L46 2 L46 -1 L140 -1 L154 -1 L167 -1 L262 -1 L262 2 L262 4 L167 4 L167 433 C275 466 355 489 371 489 C443 489 498 427 498 333 L498 5 L403 5 L403 3 L403 0 L498 0 L511 0 L525 0 L620 0 L620 3 L620 5 L525 5 L525 336 C525 365 520 391 512 413 C630 458 713 488 724 488 C798 488 855 426 855 334 L854 5 L854 5 Z " />
<glyph glyph-name="n" unicode="n" horiz-adv-x="648" d="M487 5 L392 5 L392 3 L392 0 L487 0 L500 0 L514 0 L609 0 L609 3 L609 5 L514 5 L514 336 C514 437 478 505 384 505 C384 505 297 477 166 437 L166 484 L166 488 L166 500 L161 500 L45 467 L45 464 L139 477 L139 5 L45 5 L45 3 L45 0 L139 0 L153 0 L166 0 L261 0 L261 3 L261 5 L166 5 L166 434 C269 465 348 487 364 487 C453 487 488 425 488 333 L487 5 L487 5 Z " />
<glyph glyph-name="o" unicode="o" horiz-adv-x="577" d="M289 1 C163 1 80 101 80 250 C80 399 163 499 289 499 C414 499 497 399 497 250 C497 101 414 1 289 1 L289 1 Z M50 250 C50 97 145 -5 289 -5 C432 -5 527 97 527 250 C527 403 432 505 289 505 C145 505 50 403 50 250 L50 250 Z " />
<glyph glyph-name="p" unicode="p" horiz-adv-x="641" d="M153 -230 L166 -230 L261 -230 L261 -227 L261 -225 L166 -225 L166 67 C211 23 277 -5 342 -5 C489 -5 587 98 587 253 C587 404 502 505 375 505 C375 505 291 477 166 437 L166 484 L166 488 L165 488 L163 500 L157 500 L45 467 L45 464 L139 477 L139 -225 L45 -225 L45 -227 L45 -230 L139 -230 L153 -230 L153 -230 Z M166 107 L166 433 C267 465 343 487 355 487 C479 487 561 385 561 232 C561 95 474 3 343 3 C284 3 214 45 167 107 L166 107 L166 107 Z " />
<glyph glyph-name="q" unicode="q" horiz-adv-x="629" d="M476 -230 L489 -230 L584 -230 L584 -227 L584 -225 L489 -225 L489 417 L489 500 L486 500 C486 499 486 498 486 497 C483 489 476 484 468 484 C433 484 399 493 360 499 C340 503 317 505 292 505 C159 505 71 394 71 227 C71 88 150 -5 269 -5 C269 -5 346 22 462 62 L462 -226 L368 -226 L368 -228 L368 -231 L462 -231 L476 -230 L476 -230 Z M462 66 C368 33 297 11 284 11 C173 11 99 101 99 237 C99 392 176 496 292 496 C394 496 462 464 462 416 L462 66 L462 66 Z M346 500 C329 502 311 503 292 503 C311 503 329 502 346 500 L346 500 Z " />
<glyph glyph-name="r" unicode="r" horiz-adv-x="420" d="M153 0 L166 0 L261 0 L261 3 L261 5 L166 5 L166 433 C236 464 289 484 299 484 C331 484 366 456 398 456 C406 456 411 461 411 469 C411 490 386 504 320 504 C320 504 258 477 166 437 L166 484 L166 488 L165 488 L163 500 L157 500 L45 467 L45 464 L139 477 L139 5 L45 5 L45 3 L45 0 L139 0 L153 0 L153 0 Z " />
<glyph glyph-name="s" unicode="s" horiz-adv-x="418" d="M50 5 L50 5 L50 1 C69 -3 140 -5 228 -5 C312 -5 369 49 369 130 C369 177 316 229 236 260 C149 293 92 347 92 393 C92 457 137 499 205 499 C236 499 284 494 329 487 L329 487 C332 458 336 420 339 390 L342 390 L344 390 L344 494 C307 501 252 505 205 505 C125 505 71 456 71 384 C71 332 129 274 216 240 C294 210 346 162 346 120 C346 49 299 1 229 1 C165 1 105 4 69 8 L69 8 C64 40 58 82 54 115 L52 115 L50 115 L50 5 L50 5 Z " />
<glyph glyph-name="t" unicode="t" horiz-adv-x="345" d="M315 500 L136 500 L136 640 L131 640 L116 534 C110 512 75 496 26 492 L26 489 L110 489 L110 110 C110 20 129 -5 195 -5 C251 -5 291 15 326 44 L324 47 C296 23 262 7 208 7 C153 7 137 29 137 105 L137 489 L316 489 L315 500 L315 500 Z " />
<glyph glyph-name="u" unicode="u" horiz-adv-x="613" d="M109 495 L109 495 L110 156 C110 60 163 -5 267 -5 C267 -5 343 23 457 63 L457 16 L457 7 L457 0 L462 0 L579 33 L579 36 L484 23 L484 500 L470 500 L457 500 L362 500 L362 497 L362 495 L457 495 L457 66 C368 34 302 12 288 12 C188 12 136 70 136 158 L136 499 L123 499 L109 499 L15 499 L15 496 L15 494 L109 495 L109 495 Z " />
<glyph glyph-name="v" unicode="v" horiz-adv-x="553" d="M444 495 L444 495 L283 25 L131 496 L131 496 L223 496 C224 496 224 497 223 498 C224 500 224 501 223 501 L129 501 L113 501 L98 501 L5 501 L5 498 L5 496 L100 496 L271 -9 L276 -9 L453 496 L547 496 L547 498 L547 501 L455 501 L450 501 L446 501 L351 501 L351 498 L351 496 L444 495 L444 495 Z " />
<glyph glyph-name="w" unicode="w" horiz-adv-x="797" d="M344 495 L404 318 L403 318 L305 25 L153 495 L153 495 L257 495 L257 497 L257 500 L151 500 L150 500 L120 500 L42 500 L42 497 L42 495 L122 495 L293 -10 L298 -10 L406 310 L515 -10 L520 -10 L696 495 L697 495 L776 495 L776 497 L776 500 L698 500 L689 500 L671 500 L565 500 L565 497 L565 495 L652 495 L687 495 L687 495 L527 25 L375 495 L398 495 L487 495 L487 497 L487 500 L378 500 L373 500 L342 500 L269 500 L269 497 L269 495 L343 495 L344 495 L344 495 Z " />
<glyph glyph-name="x" unicode="x" horiz-adv-x="597" d="M455 495 L456 495 L314 282 L152 495 L152 495 L258 495 L258 497 L258 500 L148 500 L132 500 L115 500 L40 500 L40 497 L40 495 L119 495 L298 261 L132 5 L28 5 L28 3 L28 0 L129 0 L134 0 L138 0 L278 0 L278 3 L278 5 L141 5 L302 256 L493 5 L493 5 L402 5 L402 3 L402 0 L497 0 L514 0 L530 0 L596 0 L596 3 L596 5 L526 5 L318 278 L465 495 L559 495 L559 497 L559 500 L468 500 L463 500 L459 500 L339 500 L339 497 L339 495 L455 495 L455 495 Z " />
<glyph glyph-name="y" unicode="y" horiz-adv-x="575" d="M466 495 L466 495 L305 25 L153 496 L153 496 L245 496 C246 496 246 497 245 498 C246 500 246 501 245 501 L151 501 L135 501 L120 501 L27 501 L27 498 L27 496 L122 496 L292 -5 L269 -69 C233 -171 206 -211 171 -211 C151 -211 134 -188 114 -188 C105 -188 100 -192 100 -199 C100 -217 122 -229 154 -229 C202 -229 236 -185 276 -71 L298 -9 L475 496 L569 496 L569 498 L569 501 L477 501 L472 501 L468 501 L373 501 L373 498 L373 496 L466 495 L466 495 Z " />
<glyph glyph-name="z" unicode="z" horiz-adv-x="489" d="M434 3 C442 52 454 118 463 167 C463 167 462 168 462 169 C459 173 457 176 457 176 L414 6 L110 6 L440 500 L424 500 L408 500 L89 500 L89 497 L86 497 L87 500 L85 500 L82 500 C82 499 81 498 81 497 C72 463 60 418 51 384 L55 384 L102 494 L404 494 L74 0 L90 0 L106 0 L428 0 L430 0 L432 0 L433 0 C433 1 434 2 434 3 L434 3 Z " />
<glyph glyph-name="braceleft" unicode="&#x7b;" horiz-adv-x="233" d="M219 -120 L219 -115 L185 -115 C122 -115 80 -69 80 -1 L80 188 C80 233 59 264 27 270 C59 276 80 308 80 353 L80 541 C80 609 122 655 185 655 L219 655 L219 660 L179 660 C107 660 59 612 59 541 L59 338 C59 298 39 272 10 272 L5 272 L5 268 L10 268 C39 268 59 242 59 203 L59 -1 C59 -72 107 -120 179 -120 L219 -120 L219 -120 Z " />
<glyph glyph-name="bar" unicode="&#x7c;" horiz-adv-x="141" d="M60 770 L60 -234 L81 -234 L81 770 L60 770 L60 770 Z " />
<glyph glyph-name="braceright" unicode="&#x7d;" horiz-adv-x="233" d="M5 660 L5 655 L39 655 C102 655 144 609 144 541 L144 352 C144 307 165 276 197 270 C165 264 144 232 144 187 L144 -1 C144 -69 102 -115 39 -115 L5 -115 L5 -120 L45 -120 C117 -120 165 -72 165 -1 L165 202 C165 242 185 268 214 268 L219 268 L219 272 L214 272 C185 272 165 298 165 337 L165 541 C165 612 117 660 45 660 L5 660 L5 660 Z " />
<glyph glyph-name="asciitilde" unicode="&#x7e;" horiz-adv-x="515" d="M121 175 C121 218 138 246 163 246 C224 246 285 183 346 183 C378 183 400 214 400 261 L395 261 C395 225 378 201 352 201 C291 201 230 263 169 263 C138 263 117 228 117 175 L121 175 L121 175 Z " />
<glyph glyph-name="nbspace" unicode="&#xa0;" horiz-adv-x="214" d="" />
<glyph glyph-name="exclamdown" unicode="&#xa1;" horiz-adv-x="157" d="M78 505 C66 505 58 497 58 485 C58 473 66 465 78 465 C90 465 98 473 98 485 C98 497 90 505 78 505 L78 505 Z M60 -120 C59 -147 67 -165 80 -165 C93 -165 101 -147 100 -120 L80 390 L76 390 L60 -120 L60 -120 Z " />
<glyph glyph-name="cent" unicode="&#xa2;" horiz-adv-x="453" d="M267 575 L267 504 C136 494 50 390 50 237 C50 92 120 -5 226 -5 C240 -5 254 -5 267 -4 L267 -75 L280 -75 L280 -3 C338 1 384 12 403 27 L400 30 C388 20 342 13 281 11 L281 496 C283 496 285 496 287 496 C338 496 375 459 380 402 C381 394 387 389 394 389 C401 389 406 394 406 401 C401 463 354 504 290 504 C287 504 284 504 281 504 L281 574 L267 575 L267 575 Z M268 10 C262 10 256 10 250 10 C149 10 81 105 81 247 C81 389 156 486 269 495 L268 10 L268 10 Z " />
<glyph glyph-name="guillemotleft" unicode="&#xab;" horiz-adv-x="446" d="M211 250 L401 461 L398 464 L183 252 L183 248 L399 36 L402 39 L211 250 L211 250 Z M48 250 L238 461 L235 464 L20 252 L20 248 L236 36 L239 39 L48 250 L48 250 Z " />
<glyph glyph-name="guillemotright" unicode="&#xbb;" horiz-adv-x="446" d="M236 250 L46 461 L49 464 L264 252 L264 248 L48 36 L45 39 L236 250 L236 250 Z M399 250 L209 461 L212 464 L427 252 L427 248 L211 36 L208 39 L399 250 L399 250 Z " />
<glyph glyph-name="onequarter" unicode="&#xbc;" horiz-adv-x="796" d="M146 -10 L663 660 L651 670 L134 0 L146 -10 L146 -10 Z M464 60 L600 261 L600 261 L600 60 L464 60 L464 60 Z M600 50 L600 -3 L623 -3 L623 50 L677 50 L677 60 L623 60 L623 261 L623 295 L623 302 L619 302 L451 54 L451 50 L456 50 L457 50 L600 50 L600 50 Z M228 415 L239 415 L286 415 C287 415 287 416 286 416 C287 417 287 418 286 418 L239 418 L239 662 L286 662 C287 662 287 663 286 664 C287 664 287 665 286 665 L239 665 L228 665 L216 665 L169 665 L169 664 L169 662 L216 662 L216 418 L169 418 L169 416 L169 415 L216 415 L228 415 L228 415 Z " />
<glyph glyph-name="onehalf" unicode="&#xbd;" horiz-adv-x="796" d="M146 -10 L663 660 L651 670 L134 0 L146 -10 L146 -10 Z M664 12 L665 23 L665 23 C666 39 668 57 670 70 L668 70 L667 70 L663 23 L492 23 C590 85 653 120 652 174 C653 221 621 253 575 253 C535 253 497 223 480 179 L482 177 C497 212 529 236 563 236 C601 236 627 208 627 167 C627 101 558 72 456 5 L456 0 L664 0 L665 11 L665 11 L665 11 L664 12 L664 12 Z M229 414 L240 414 L287 414 C288 414 288 415 287 415 C288 416 288 417 287 417 L240 417 L240 661 L287 661 C288 661 288 662 287 663 C288 663 288 664 287 664 L240 664 L229 664 L217 664 L170 664 L170 663 L170 661 L217 661 L217 417 L170 417 L170 415 L170 414 L217 414 L229 414 L229 414 Z " />
<glyph glyph-name="threequarters" unicode="&#xbe;" horiz-adv-x="796" d="M115 340 C227 346 302 393 302 456 C302 502 261 532 200 533 C249 555 279 583 279 608 C279 644 252 668 210 668 C174 668 133 642 107 603 L110 601 C130 631 165 651 199 651 C233 651 256 631 256 601 C256 575 226 547 177 528 C170 526 162 523 153 519 L153 515 C156 516 159 517 162 518 C171 520 183 521 194 521 C246 521 280 495 280 455 C280 394 215 349 117 344 L115 340 L115 340 Z M148 -10 L665 660 L653 670 L136 0 L148 -10 L148 -10 Z M466 60 L602 261 L602 261 L602 60 L466 60 L466 60 Z M602 50 L602 -3 L625 -3 L625 50 L679 50 L679 60 L625 60 L625 261 L625 295 L625 302 L621 302 L453 54 L453 50 L458 50 L459 50 L602 50 L602 50 Z " />
<glyph glyph-name="questiondown" unicode="&#xbf;" horiz-adv-x="360" d="M221 505 C208 505 200 497 201 485 C200 473 208 465 221 465 C232 465 240 473 241 485 C240 497 232 505 221 505 L221 505 Z M228 140 L222 386 L219 386 L213 140 L213 157 L178 157 C58 157 35 85 35 45 C35 -81 115 -165 234 -165 C283 -165 316 -137 316 -96 C316 -94 310 -92 300 -92 C267 -92 258 -144 225 -144 C115 -144 41 -70 41 42 C41 76 65 136 187 136 L222 136 C226 136 228 138 228 140 L228 140 Z " />
<glyph glyph-name="Agrave" unicode="&#xc0;" horiz-adv-x="628" d="M549 5 L548 5 L319 675 L311 675 L93 5 L-2 5 L-2 3 L-2 0 L91 0 L96 0 L101 0 L231 0 L231 3 L231 5 L103 5 L103 5 L178 238 L438 238 L516 5 L516 5 L390 5 L390 3 L390 0 L518 0 L534 0 L550 0 L630 0 L630 3 L630 5 L549 5 L549 5 Z M293 833 C268 868 251 891 249 891 C244 891 233 883 233 879 C233 876 251 854 279 822 L390 691 L393 694 L293 833 L293 833 Z M436 246 L181 246 L306 634 L436 246 L436 246 Z " />
<glyph glyph-name="Aacute" unicode="&#xc1;" horiz-adv-x="628" d="M252 691 L360 822 C386 855 404 878 404 879 C404 883 393 891 389 891 C388 891 371 868 346 833 L249 694 L252 691 L252 691 Z M549 5 L548 5 L319 675 L311 675 L93 5 L-2 5 L-2 3 L-2 0 L91 0 L96 0 L101 0 L231 0 L231 3 L231 5 L103 5 L103 5 L178 238 L438 238 L516 5 L516 5 L390 5 L390 3 L390 0 L518 0 L534 0 L550 0 L630 0 L630 3 L630 5 L549 5 L549 5 Z M436 246 L181 246 L306 634 L436 246 L436 246 Z " />
<glyph glyph-name="Acircumflex" unicode="&#xc2;" horiz-adv-x="628" d="M549 5 L548 5 L319 675 L311 675 L93 5 L-2 5 L-2 3 L-2 0 L91 0 L96 0 L101 0 L231 0 L231 3 L231 5 L103 5 L103 5 L178 238 L438 238 L516 5 L516 5 L390 5 L390 3 L390 0 L518 0 L534 0 L550 0 L630 0 L630 3 L630 5 L549 5 L549 5 Z M315 875 L428 694 L431 696 L324 897 C323 900 320 905 315 905 C311 905 308 900 307 897 L200 696 L202 694 L315 875 L315 875 Z M436 246 L181 246 L306 634 L436 246 L436 246 Z " />
<glyph glyph-name="Atilde" unicode="&#xc3;" horiz-adv-x="628" d="M176 755 C176 798 194 826 222 826 C282 826 341 763 401 763 C436 763 459 794 459 841 L454 841 C454 805 435 781 407 781 C346 781 288 843 228 843 C194 843 172 808 172 755 L176 755 L176 755 Z M549 5 L548 5 L319 675 L311 675 L93 5 L-2 5 L-2 3 L-2 0 L91 0 L96 0 L101 0 L231 0 L231 3 L231 5 L103 5 L103 5 L178 238 L438 238 L516 5 L516 5 L390 5 L390 3 L390 0 L518 0 L534 0 L550 0 L630 0 L630 3 L630 5 L549 5 L549 5 Z M436 246 L181 246 L306 634 L436 246 L436 246 Z " />
<glyph glyph-name="Adieresis" unicode="&#xc4;" horiz-adv-x="628" d="M400 730 C412 730 420 738 420 750 C420 762 412 770 400 770 C388 770 380 762 380 750 C380 738 388 730 400 730 L400 730 Z M231 730 C243 730 251 738 251 750 C251 762 243 770 231 770 C219 770 211 762 211 750 C211 738 219 730 231 730 L231 730 Z M549 5 L548 5 L319 675 L311 675 L93 5 L-2 5 L-2 3 L-2 0 L91 0 L96 0 L101 0 L231 0 L231 3 L231 5 L103 5 L103 5 L178 238 L438 238 L516 5 L516 5 L390 5 L390 3 L390 0 L518 0 L534 0 L550 0 L630 0 L630 3 L630 5 L549 5 L549 5 Z M436 246 L181 246 L306 634 L436 246 L436 246 Z " />
<glyph glyph-name="Aring" unicode="&#xc5;" horiz-adv-x="628" d="M315 701 C269 701 229 741 229 788 C229 839 263 874 315 874 C367 874 401 839 401 788 C401 741 362 701 315 701 L315 701 Z M222 788 C222 738 265 695 315 695 C366 695 409 738 409 788 C409 843 371 880 315 880 C259 880 222 843 222 788 L222 788 Z M549 5 L548 5 L319 675 L311 675 L93 5 L-2 5 L-2 3 L-2 0 L91 0 L96 0 L101 0 L231 0 L231 3 L231 5 L103 5 L103 5 L178 238 L438 238 L516 5 L516 5 L390 5 L390 3 L390 0 L518 0 L534 0 L550 0 L630 0 L630 3 L630 5 L549 5 L549 5 Z M436 246 L181 246 L306 634 L436 246 L436 246 Z " />
<glyph glyph-name="Ccedilla" unicode="&#xc7;" horiz-adv-x="718" d="M365 -88 L407 -5 C489 -5 589 3 658 16 L658 169 L655 169 L653 169 C648 124 640 65 634 20 C564 9 473 2 400 2 C221 2 101 133 101 329 C101 525 221 656 400 656 C473 656 564 649 634 638 C640 593 648 534 653 489 L655 489 L658 489 L658 642 C587 655 483 663 400 663 C201 663 68 529 68 328 C68 128 200 -6 398 -7 L359 -96 L361 -97 C381 -88 407 -82 428 -82 C468 -82 495 -104 495 -137 C495 -183 466 -214 422 -214 C384 -214 347 -206 330 -195 L329 -198 C350 -212 389 -222 428 -222 C478 -222 511 -188 511 -137 C511 -100 480 -76 434 -76 C412 -76 385 -82 365 -91 L365 -88 L365 -88 Z " />
<glyph glyph-name="Egrave" unicode="&#xc8;" horiz-adv-x="590" d="M252 833 C228 868 211 891 208 891 C203 891 193 883 193 879 C193 876 211 854 238 822 L349 691 L352 694 L252 833 L252 833 Z M457 4 C466 51 477 115 485 162 L481 162 L438 8 L165 8 L165 348 L378 348 L386 244 L390 244 L391 244 L391 348 L391 352 L391 356 L391 450 L390 450 L386 450 L378 356 L165 356 L165 652 L430 652 L445 498 L449 498 L449 656 L449 660 L447 660 L446 660 L444 660 L165 660 L150 660 L135 660 L40 660 L40 657 L40 655 L135 655 L135 5 L40 5 L40 3 L40 0 L135 0 L150 0 L165 0 L451 0 L454 0 L456 0 L457 0 L457 4 L457 4 Z " />
<glyph glyph-name="Eacute" unicode="&#xc9;" horiz-adv-x="590" d="M258 691 L365 822 C392 855 410 878 409 879 C409 883 399 891 394 891 C393 891 376 868 351 833 L254 694 L258 691 L258 691 Z M457 4 C466 51 477 115 485 162 L481 162 L438 8 L165 8 L165 348 L378 348 L386 244 L390 244 L391 244 L391 348 L391 352 L391 356 L391 450 L390 450 L386 450 L378 356 L165 356 L165 652 L430 652 L445 498 L449 498 L449 656 L449 660 L447 660 L446 660 L444 660 L165 660 L150 660 L135 660 L40 660 L40 657 L40 655 L135 655 L135 5 L40 5 L40 3 L40 0 L135 0 L150 0 L165 0 L451 0 L454 0 L456 0 L457 0 L457 4 L457 4 Z " />
<glyph glyph-name="Ecircumflex" unicode="&#xca;" horiz-adv-x="590" d="M290 875 L403 694 L406 696 L299 897 C298 900 295 905 290 905 C286 905 283 900 282 897 L175 696 L177 694 L290 875 L290 875 Z M457 4 C466 51 477 115 485 162 L481 162 L438 8 L165 8 L165 348 L378 348 L386 244 L390 244 L391 244 L391 348 L391 352 L391 356 L391 450 L390 450 L386 450 L378 356 L165 356 L165 652 L430 652 L445 498 L449 498 L449 656 L449 660 L447 660 L446 660 L444 660 L165 660 L150 660 L135 660 L40 660 L40 657 L40 655 L135 655 L135 5 L40 5 L40 3 L40 0 L135 0 L150 0 L165 0 L451 0 L454 0 L456 0 L457 0 L457 4 L457 4 Z " />
<glyph glyph-name="Edieresis" unicode="&#xcb;" horiz-adv-x="590" d="M375 730 C387 730 395 738 395 750 C395 762 387 770 375 770 C363 770 355 762 355 750 C355 738 363 730 375 730 L375 730 Z M205 730 C217 730 225 738 225 750 C225 762 217 770 205 770 C193 770 185 762 185 750 C185 738 193 730 205 730 L205 730 Z M457 4 C466 51 477 115 485 162 L481 162 L438 8 L165 8 L165 348 L378 348 L386 244 L390 244 L391 244 L391 348 L391 352 L391 356 L391 450 L390 450 L386 450 L378 356 L165 356 L165 652 L430 652 L445 498 L449 498 L449 656 L449 660 L447 660 L446 660 L444 660 L165 660 L150 660 L135 660 L40 660 L40 657 L40 655 L135 655 L135 5 L40 5 L40 3 L40 0 L135 0 L150 0 L165 0 L451 0 L454 0 L456 0 L457 0 L457 4 L457 4 Z " />
<glyph glyph-name="Igrave" unicode="&#xcc;" horiz-adv-x="299" d="M127 833 C103 868 86 891 83 891 C79 891 68 883 68 879 C68 876 86 854 113 822 L224 691 L227 694 L127 833 L127 833 Z M150 0 L165 0 L259 0 L259 3 L259 5 L165 5 L165 655 L259 655 L259 657 L259 660 L165 660 L150 660 L135 660 L40 660 L40 657 L40 655 L135 655 L135 5 L40 5 L40 3 L40 0 L135 0 L150 0 L150 0 Z " />
<glyph glyph-name="Iacute" unicode="&#xcd;" horiz-adv-x="299" d="M87 691 L194 822 C221 855 238 878 239 879 C238 883 228 891 223 891 C222 891 205 868 181 833 L84 694 L87 691 L87 691 Z M150 0 L165 0 L259 0 L259 3 L259 5 L165 5 L165 655 L259 655 L259 657 L259 660 L165 660 L150 660 L135 660 L40 660 L40 657 L40 655 L135 655 L135 5 L40 5 L40 3 L40 0 L135 0 L150 0 L150 0 Z " />
<glyph glyph-name="Icircumflex" unicode="&#xce;" horiz-adv-x="299" d="M150 875 L263 694 L266 696 L159 897 C158 900 155 905 151 905 C146 905 143 900 142 897 L35 696 L38 694 L150 875 L150 875 Z M151 0 L166 0 L260 0 L260 3 L260 5 L166 5 L166 655 L260 655 L260 657 L260 660 L166 660 L151 660 L136 660 L41 660 L41 657 L41 655 L136 655 L136 5 L41 5 L41 3 L41 0 L136 0 L151 0 L151 0 Z " />
<glyph glyph-name="Idieresis" unicode="&#xcf;" horiz-adv-x="299" d="M234 730 C246 730 254 738 254 750 C254 762 246 770 234 770 C222 770 214 762 214 750 C214 738 222 730 234 730 L234 730 Z M65 730 C77 730 85 738 85 750 C85 762 77 770 65 770 C53 770 45 762 45 750 C45 738 53 730 65 730 L65 730 Z M150 0 L165 0 L259 0 L259 3 L259 5 L165 5 L165 655 L259 655 L259 657 L259 660 L165 660 L150 660 L135 660 L40 660 L40 657 L40 655 L135 655 L135 5 L40 5 L40 3 L40 0 L135 0 L150 0 L150 0 Z " />
<glyph glyph-name="Ntilde" unicode="&#xd1;" horiz-adv-x="730" d="M227 755 C227 798 246 826 273 826 C334 826 392 763 452 763 C487 763 510 794 510 841 L505 841 C505 805 486 781 458 781 C398 781 339 843 279 843 C245 843 223 808 223 755 L227 755 L227 755 Z M584 655 L584 44 L166 660 L148 647 L148 648 L166 660 L148 660 L144 660 L139 660 L45 660 L45 657 L45 655 L139 655 L139 5 L45 5 L45 3 L45 0 L139 0 L144 0 L148 0 L243 0 L243 3 L243 5 L148 5 L148 634 L571 12 L583 -6 L593 -6 L593 23 L593 655 L688 655 L688 657 L688 660 L593 660 L589 660 L584 660 L490 660 L490 657 L490 655 L584 655 L584 655 Z " />
<glyph glyph-name="Ograve" unicode="&#xd2;" horiz-adv-x="753" d="M386 3 C199 3 102 153 102 330 C102 507 199 657 386 657 C574 657 671 507 671 330 C671 153 574 3 386 3 L386 3 Z M69 330 C69 149 177 -5 386 -5 C596 -5 704 149 704 330 C704 511 596 665 386 665 C177 665 69 511 69 330 L69 330 Z M364 833 C339 868 322 891 320 891 C315 891 304 883 304 879 C304 876 322 854 350 822 L461 691 L464 694 L364 833 L364 833 Z " />
<glyph glyph-name="Oacute" unicode="&#xd3;" horiz-adv-x="753" d="M361 691 L469 822 C495 855 513 878 513 879 C513 883 502 891 498 891 C497 891 480 868 455 833 L358 694 L361 691 L361 691 Z M386 3 C199 3 102 153 102 330 C102 507 199 657 386 657 C574 657 671 507 671 330 C671 153 574 3 386 3 L386 3 Z M69 330 C69 149 177 -5 386 -5 C596 -5 704 149 704 330 C704 511 596 665 386 665 C177 665 69 511 69 330 L69 330 Z " />
<glyph glyph-name="Ocircumflex" unicode="&#xd4;" horiz-adv-x="753" d="M386 3 C199 3 102 153 102 330 C102 507 199 657 386 657 C574 657 671 507 671 330 C671 153 574 3 386 3 L386 3 Z M69 330 C69 149 177 -5 386 -5 C596 -5 704 149 704 330 C704 511 596 665 386 665 C177 665 69 511 69 330 L69 330 Z M386 875 L499 694 L502 696 L395 897 C394 900 391 905 386 905 C382 905 379 900 378 897 L271 696 L273 694 L386 875 L386 875 Z " />
<glyph glyph-name="Otilde" unicode="&#xd5;" horiz-adv-x="753" d="M247 755 C247 798 265 826 293 826 C353 826 412 763 472 763 C507 763 530 794 530 841 L525 841 C525 805 506 781 478 781 C417 781 359 843 299 843 C265 843 243 808 243 755 L247 755 L247 755 Z M386 3 C199 3 102 153 102 330 C102 507 199 657 386 657 C574 657 671 507 671 330 C671 153 574 3 386 3 L386 3 Z M69 330 C69 149 177 -5 386 -5 C596 -5 704 149 704 330 C704 511 596 665 386 665 C177 665 69 511 69 330 L69 330 Z " />
<glyph glyph-name="Odieresis" unicode="&#xd6;" horiz-adv-x="753" d="M471 730 C483 730 491 738 491 750 C491 762 483 770 471 770 C459 770 451 762 451 750 C451 738 459 730 471 730 L471 730 Z M302 730 C314 730 322 738 322 750 C322 762 314 770 302 770 C290 770 282 762 282 750 C282 738 290 730 302 730 L302 730 Z M386 3 C199 3 102 153 102 330 C102 507 199 657 386 657 C574 657 671 507 671 330 C671 153 574 3 386 3 L386 3 Z M69 330 C69 149 177 -5 386 -5 C596 -5 704 149 704 330 C704 511 596 665 386 665 C177 665 69 511 69 330 L69 330 Z " />
<glyph glyph-name="Oslash" unicode="&#xd8;" horiz-adv-x="753" d="M74 -10 L161 82 C214 28 289 -5 386 -5 C596 -5 704 149 704 330 C704 422 676 507 621 568 L708 660 L698 670 L611 578 C558 632 482 665 385 665 C176 665 68 511 68 330 C68 238 96 153 151 92 L64 0 L74 -10 L74 -10 Z M386 3 C294 3 224 39 176 97 L606 551 C649 492 671 414 671 330 C671 153 574 3 386 3 L386 3 Z M167 109 C124 168 102 246 102 330 C102 507 199 657 386 657 C479 657 550 621 598 563 L167 109 L167 109 Z " />
<glyph glyph-name="Ugrave" unicode="&#xd9;" horiz-adv-x="728" d="M349 833 C325 868 308 891 305 891 C301 891 290 883 290 879 C290 876 308 854 335 822 L446 691 L449 694 L349 833 L349 833 Z M142 655 L142 204 C142 79 208 -5 376 -5 C538 -5 601 67 601 174 L601 655 L706 655 L706 657 L706 660 L601 660 L597 660 L592 660 L482 660 L482 657 L482 655 L592 655 L592 177 C592 74 533 5 381 5 C230 5 172 82 172 199 L172 655 L267 655 C266 655 266 656 267 657 C266 659 266 660 267 660 L172 660 L157 660 L142 660 L47 660 L47 657 L47 655 L142 655 L142 655 Z " />
<glyph glyph-name="Uacute" unicode="&#xda;" horiz-adv-x="728" d="M369 691 L477 822 C503 855 521 878 521 879 C521 883 510 891 506 891 C505 891 488 868 463 833 L366 694 L369 691 L369 691 Z M142 655 L142 204 C142 79 208 -5 376 -5 C538 -5 601 67 601 174 L601 655 L706 655 L706 657 L706 660 L601 660 L597 660 L592 660 L482 660 L482 657 L482 655 L592 655 L592 177 C592 74 533 5 381 5 C230 5 172 82 172 199 L172 655 L267 655 C266 655 266 656 267 657 C266 659 266 660 267 660 L172 660 L157 660 L142 660 L47 660 L47 657 L47 655 L142 655 L142 655 Z " />
<glyph glyph-name="Ucircumflex" unicode="&#xdb;" horiz-adv-x="728" d="M372 875 L485 694 L488 696 L381 897 C380 900 377 905 373 905 C368 905 365 900 364 897 L257 696 L260 694 L372 875 L372 875 Z M143 655 L143 204 C143 79 209 -5 377 -5 C539 -5 602 67 602 174 L602 655 L707 655 L707 657 L707 660 L602 660 L598 660 L593 660 L483 660 L483 657 L483 655 L593 655 L593 177 C593 74 534 5 382 5 C231 5 173 82 173 199 L173 655 L268 655 C267 655 267 656 268 657 C267 659 267 660 268 660 L173 660 L158 660 L143 660 L48 660 L48 657 L48 655 L143 655 L143 655 Z " />
<glyph glyph-name="Udieresis" unicode="&#xdc;" horiz-adv-x="728" d="M456 730 C468 730 476 738 476 750 C476 762 468 770 456 770 C444 770 436 762 436 750 C436 738 444 730 456 730 L456 730 Z M287 730 C299 730 307 738 307 750 C307 762 299 770 287 770 C275 770 267 762 267 750 C267 738 275 730 287 730 L287 730 Z M142 655 L142 204 C142 79 208 -5 376 -5 C538 -5 601 67 601 174 L601 655 L706 655 L706 657 L706 660 L601 660 L597 660 L592 660 L482 660 L482 657 L482 655 L592 655 L592 177 C592 74 533 5 381 5 C230 5 172 82 172 199 L172 655 L267 655 C266 655 266 656 267 657 C266 659 266 660 267 660 L172 660 L157 660 L142 660 L47 660 L47 657 L47 655 L142 655 L142 655 Z " />
<glyph glyph-name="Yacute" unicode="&#xdd;" horiz-adv-x="595" d="M305 691 L413 822 C439 855 457 878 457 879 C457 883 446 891 442 891 C441 891 424 868 399 833 L302 694 L305 691 L305 691 Z M516 655 L516 655 L315 264 L315 264 L317 268 L126 655 L233 655 C234 655 234 656 233 657 C234 659 234 660 233 660 L124 660 L106 660 L88 660 L16 660 L16 657 L16 655 L90 655 L90 655 L293 249 L293 5 L198 5 L198 3 L198 0 L293 0 L308 0 L323 0 L417 0 L417 3 L417 5 L323 5 L323 264 L525 655 L610 655 C609 655 609 656 610 657 C609 659 609 660 610 660 L528 660 L523 660 L519 660 L389 660 L389 657 L389 655 L516 655 L516 655 Z " />
<glyph glyph-name="agrave" unicode="&#xe0;" horiz-adv-x="562" d="M220 673 C195 708 178 731 176 731 C171 731 160 723 161 719 C160 716 178 694 206 662 L317 531 L320 534 L220 673 L220 673 Z M448 5 L547 33 L547 36 L452 23 L452 470 L452 500 L445 500 L429 477 C410 492 337 506 254 506 C135 506 55 395 55 228 C55 89 130 -4 242 -4 C242 -4 315 44 425 116 L425 17 L425 8 L425 1 L425 -4 L430 -4 L448 5 L448 5 Z M425 120 C327 56 260 14 257 14 C153 14 83 104 83 240 C83 396 151 500 253 500 C336 500 408 486 425 472 L425 120 L425 120 Z " />
<glyph glyph-name="aacute" unicode="&#xe1;" horiz-adv-x="466" d="M175 531 L283 662 C310 695 327 718 327 719 C327 723 316 731 312 731 C310 731 293 708 269 673 L172 534 L175 531 L175 531 Z M445 35 C426 16 408 3 391 3 C360 3 352 25 352 59 L352 362 C352 448 306 505 237 505 C176 505 106 492 64 474 L91 474 C123 488 179 498 231 498 C287 498 324 446 324 368 L324 246 L193 228 C98 215 35 164 35 100 C35 37 79 -5 145 -5 C208 -5 277 28 324 78 L324 56 C324 16 335 -10 372 -10 C399 -10 423 6 448 31 L445 35 L445 35 Z M324 240 L324 83 C283 40 219 13 158 13 C101 13 62 51 62 108 C62 163 114 207 193 219 L324 240 L324 240 Z " />
<glyph glyph-name="acircumflex" unicode="&#xe2;" horiz-adv-x="562" d="M243 715 L356 534 L359 536 L252 737 C251 740 248 745 243 745 C239 745 236 740 235 737 L128 536 L131 534 L243 715 L243 715 Z M449 5 L548 33 L548 36 L453 23 L453 470 L453 500 L446 500 L430 477 C411 492 338 506 255 506 C136 506 56 395 56 228 C56 89 131 -4 243 -4 C243 -4 316 44 426 116 L426 17 L426 8 L426 1 L426 -4 L431 -4 L449 5 L449 5 Z M426 120 C328 56 261 14 258 14 C154 14 84 104 84 240 C84 396 152 500 254 500 C337 500 409 486 426 472 L426 120 L426 120 Z " />
<glyph glyph-name="atilde" unicode="&#xe3;" horiz-adv-x="562" d="M103 595 C103 638 122 666 149 666 C210 666 268 603 328 603 C363 603 386 634 386 681 L382 681 C382 645 363 621 334 621 C274 621 216 683 155 683 C121 683 99 648 99 595 L103 595 L103 595 Z M448 5 L547 33 L547 36 L452 23 L452 470 L452 500 L445 500 L429 477 C410 492 337 506 254 506 C135 506 55 395 55 228 C55 89 130 -4 242 -4 C242 -4 315 44 425 116 L425 17 L425 8 L425 1 L425 -4 L430 -4 L448 5 L448 5 Z M425 120 C327 56 260 14 257 14 C153 14 83 104 83 240 C83 396 151 500 253 500 C336 500 408 486 425 472 L425 120 L425 120 Z " />
<glyph glyph-name="adieresis" unicode="&#xe4;" horiz-adv-x="562" d="M327 570 C339 570 347 578 347 590 C347 602 339 610 327 610 C315 610 307 602 307 590 C307 578 315 570 327 570 L327 570 Z M158 570 C170 570 178 578 178 590 C178 602 170 610 158 610 C146 610 138 602 138 590 C138 578 146 570 158 570 L158 570 Z M448 5 L547 33 L547 36 L452 23 L452 470 L452 500 L445 500 L429 477 C410 492 337 506 254 506 C135 506 55 395 55 228 C55 89 130 -4 242 -4 C242 -4 315 44 425 116 L425 17 L425 8 L425 1 L425 -4 L430 -4 L448 5 L448 5 Z M425 120 C327 56 260 14 257 14 C153 14 83 104 83 240 C83 396 151 500 253 500 C336 500 408 486 425 472 L425 120 L425 120 Z " />
<glyph glyph-name="aring" unicode="&#xe5;" horiz-adv-x="562" d="M242 541 C196 541 157 581 157 628 C157 679 191 714 242 714 C294 714 328 679 328 628 C328 581 289 541 242 541 L242 541 Z M149 628 C149 578 192 535 242 535 C293 535 336 578 336 628 C336 683 299 720 242 720 C186 720 149 683 149 628 L149 628 Z M448 5 L547 33 L547 36 L452 23 L452 470 L452 500 L445 500 L429 477 C410 492 337 506 254 506 C135 506 55 395 55 228 C55 89 130 -4 242 -4 C242 -4 315 44 425 116 L425 17 L425 8 L425 1 L425 -4 L430 -4 L448 5 L448 5 Z M425 120 C327 56 260 14 257 14 C153 14 83 104 83 240 C83 396 151 500 253 500 C336 500 408 486 425 472 L425 120 L425 120 Z " />
<glyph glyph-name="ccedilla" unicode="&#xe7;" horiz-adv-x="453" d="M190 -88 L232 -5 C311 -4 378 9 401 28 L398 31 C384 19 324 11 247 11 C146 11 78 106 78 248 C78 397 161 497 284 497 C335 497 372 460 377 403 C378 395 384 390 391 390 C398 390 403 395 403 402 C398 464 351 505 287 505 C144 505 49 398 49 237 C49 93 118 -4 223 -5 L184 -94 L186 -95 C205 -86 232 -80 252 -80 C292 -80 319 -102 319 -135 C319 -181 290 -212 247 -212 C209 -212 172 -204 155 -193 L153 -196 C175 -210 214 -220 252 -220 C303 -220 336 -186 336 -135 C336 -98 305 -74 259 -74 C237 -74 209 -80 190 -89 L190 -88 L190 -88 Z " />
<glyph glyph-name="egrave" unicode="&#xe8;" horiz-adv-x="460" d="M408 28 L406 31 C392 19 331 11 252 11 C148 11 79 106 79 248 C79 277 82 304 87 329 L385 329 L411 329 C411 435 348 505 254 505 C131 505 50 398 50 237 C50 92 122 -5 229 -5 C313 -5 385 8 408 28 L408 28 Z M231 673 C206 708 189 731 187 731 C183 731 172 723 172 719 C172 716 190 694 217 662 L328 531 L331 534 L231 673 L231 673 Z M88 334 C110 434 170 497 252 497 C332 497 385 439 385 352 C385 344 380 339 373 339 L385 339 L88 334 L88 334 Z " />
<glyph glyph-name="eacute" unicode="&#xe9;" horiz-adv-x="460" d="M221 531 L329 662 C355 695 373 718 373 719 C373 723 362 731 357 731 C356 731 339 708 315 673 L218 534 L221 531 L221 531 Z M408 28 L406 31 C392 19 331 11 252 11 C148 11 79 106 79 248 C79 277 82 304 87 329 L385 329 L411 329 C411 435 348 505 254 505 C131 505 50 398 50 237 C50 92 122 -5 229 -5 C313 -5 385 8 408 28 L408 28 Z M88 334 C110 434 170 497 252 497 C332 497 385 439 385 352 C385 344 380 339 373 339 L385 339 L88 334 L88 334 Z " />
<glyph glyph-name="ecircumflex" unicode="&#xea;" horiz-adv-x="460" d="M408 28 L406 31 C392 19 331 11 252 11 C148 11 79 106 79 248 C79 277 82 304 87 329 L385 329 L411 329 C411 435 348 505 254 505 C131 505 50 398 50 237 C50 92 122 -5 229 -5 C313 -5 385 8 408 28 L408 28 Z M254 715 L367 534 L370 536 L263 737 C262 740 259 745 255 745 C250 745 247 740 246 737 L139 536 L142 534 L254 715 L254 715 Z M89 334 C111 434 171 497 253 497 C333 497 386 439 386 352 C386 344 381 339 374 339 L386 339 L89 334 L89 334 Z " />
<glyph glyph-name="edieresis" unicode="&#xeb;" horiz-adv-x="460" d="M338 570 C350 570 358 578 358 590 C358 602 350 610 338 610 C326 610 318 602 318 590 C318 578 326 570 338 570 L338 570 Z M169 570 C181 570 189 578 189 590 C189 602 181 610 169 610 C157 610 149 602 149 590 C149 578 157 570 169 570 L169 570 Z M408 28 L406 31 C392 19 331 11 252 11 C148 11 79 106 79 248 C79 277 82 304 87 329 L385 329 L411 329 C411 435 348 505 254 505 C131 505 50 398 50 237 C50 92 122 -5 229 -5 C313 -5 385 8 408 28 L408 28 Z M88 334 C110 434 170 497 252 497 C332 497 385 439 385 352 C385 344 380 339 373 339 L385 339 L88 334 L88 334 Z " />
<glyph glyph-name="igrave" unicode="&#xec;" horiz-adv-x="306" d="M131 673 C106 708 89 731 87 731 C82 731 71 723 71 719 C71 716 89 694 117 662 L227 531 L230 534 L131 673 L131 673 Z M153 0 L167 0 L261 0 L261 3 L261 5 L167 5 L167 485 L167 495 L167 502 L161 502 L45 469 L45 466 L140 478 L140 5 L45 5 L45 3 L45 0 L140 0 L153 0 L153 0 Z " />
<glyph glyph-name="iacute" unicode="&#xed;" horiz-adv-x="306" d="M75 531 L183 662 C209 695 227 718 227 719 C227 723 216 731 211 731 C210 731 194 708 169 673 L72 534 L75 531 L75 531 Z M153 0 L167 0 L261 0 L261 3 L261 5 L167 5 L167 485 L167 495 L167 502 L161 502 L45 469 L45 466 L140 478 L140 5 L45 5 L45 3 L45 0 L140 0 L153 0 L153 0 Z " />
<glyph glyph-name="icircumflex" unicode="&#xee;" horiz-adv-x="306" d="M153 715 L266 534 L269 536 L162 737 C161 740 158 745 153 745 C149 745 146 740 145 737 L38 536 L40 534 L153 715 L153 715 Z M153 0 L167 0 L261 0 L261 3 L261 5 L167 5 L167 485 L167 495 L167 502 L161 502 L45 469 L45 466 L140 478 L140 5 L45 5 L45 3 L45 0 L140 0 L153 0 L153 0 Z " />
<glyph glyph-name="idieresis" unicode="&#xef;" horiz-adv-x="306" d="M238 570 C250 570 258 578 258 590 C258 602 250 610 238 610 C226 610 218 602 218 590 C218 578 226 570 238 570 L238 570 Z M68 570 C80 570 88 578 88 590 C88 602 80 610 68 610 C56 610 48 602 48 590 C48 578 56 570 68 570 L68 570 Z M153 0 L167 0 L261 0 L261 3 L261 5 L167 5 L167 485 L167 495 L167 502 L161 502 L45 469 L45 466 L140 478 L140 5 L45 5 L45 3 L45 0 L140 0 L153 0 L153 0 Z " />
<glyph glyph-name="ntilde" unicode="&#xf1;" horiz-adv-x="648" d="M188 595 C188 638 206 666 234 666 C294 666 352 603 412 603 C447 603 470 634 470 681 L466 681 C466 645 447 621 418 621 C358 621 300 683 239 683 C206 683 183 648 183 595 L188 595 L188 595 Z M487 5 L392 5 L392 3 L392 0 L487 0 L500 0 L514 0 L609 0 L609 3 L609 5 L514 5 L514 336 C514 437 478 505 384 505 C384 505 297 477 166 437 L166 484 L166 488 L166 500 L161 500 L45 467 L45 464 L139 477 L139 5 L45 5 L45 3 L45 0 L139 0 L153 0 L166 0 L261 0 L261 3 L261 5 L166 5 L166 434 C269 465 348 487 364 487 C453 487 488 425 488 333 L487 5 L487 5 Z " />
<glyph glyph-name="ograve" unicode="&#xf2;" horiz-adv-x="577" d="M289 1 C163 1 80 101 80 250 C80 399 163 499 289 499 C414 499 497 399 497 250 C497 101 414 1 289 1 L289 1 Z M50 250 C50 97 145 -5 289 -5 C432 -5 527 97 527 250 C527 403 432 505 289 505 C145 505 50 403 50 250 L50 250 Z M266 673 C242 708 225 731 222 731 C218 731 207 723 207 719 C207 716 225 694 252 662 L363 531 L366 534 L266 673 L266 673 Z " />
<glyph glyph-name="oacute" unicode="&#xf3;" horiz-adv-x="577" d="M256 531 L364 662 C390 695 408 718 408 719 C408 723 397 731 392 731 C391 731 374 708 350 673 L253 534 L256 531 L256 531 Z M289 1 C163 1 80 101 80 250 C80 399 163 499 289 499 C414 499 497 399 497 250 C497 101 414 1 289 1 L289 1 Z M50 250 C50 97 145 -5 289 -5 C432 -5 527 97 527 250 C527 403 432 505 289 505 C145 505 50 403 50 250 L50 250 Z " />
<glyph glyph-name="ocircumflex" unicode="&#xf4;" horiz-adv-x="577" d="M289 1 C163 1 80 101 80 250 C80 399 163 499 289 499 C414 499 497 399 497 250 C497 101 414 1 289 1 L289 1 Z M50 250 C50 97 145 -5 289 -5 C432 -5 527 97 527 250 C527 403 432 505 289 505 C145 505 50 403 50 250 L50 250 Z M289 715 L402 534 L405 536 L298 737 C297 740 294 745 290 745 C285 745 282 740 281 737 L174 536 L177 534 L289 715 L289 715 Z " />
<glyph glyph-name="otilde" unicode="&#xf5;" horiz-adv-x="577" d="M149 595 C149 638 168 666 196 666 C256 666 314 603 374 603 C409 603 432 634 432 681 L428 681 C428 645 409 621 380 621 C320 621 262 683 201 683 C168 683 145 648 145 595 L149 595 L149 595 Z M289 1 C163 1 80 101 80 250 C80 399 163 499 289 499 C414 499 497 399 497 250 C497 101 414 1 289 1 L289 1 Z M50 250 C50 97 145 -5 289 -5 C432 -5 527 97 527 250 C527 403 432 505 289 505 C145 505 50 403 50 250 L50 250 Z " />
<glyph glyph-name="odieresis" unicode="&#xf6;" horiz-adv-x="577" d="M373 570 C385 570 393 578 393 590 C393 602 385 610 373 610 C361 610 353 602 353 590 C353 578 361 570 373 570 L373 570 Z M204 570 C216 570 224 578 224 590 C224 602 216 610 204 610 C192 610 184 602 184 590 C184 578 192 570 204 570 L204 570 Z M289 1 C163 1 80 101 80 250 C80 399 163 499 289 499 C414 499 497 399 497 250 C497 101 414 1 289 1 L289 1 Z M50 250 C50 97 145 -5 289 -5 C432 -5 527 97 527 250 C527 403 432 505 289 505 C145 505 50 403 50 250 L50 250 Z " />
<glyph glyph-name="oslash" unicode="&#xf8;" horiz-adv-x="577" d="M53 -8 L118 62 C160 19 219 -5 289 -5 C432 -5 527 97 527 250 C527 325 504 388 464 432 L530 502 L524 508 L459 438 C418 481 360 505 290 505 C146 505 51 403 51 250 C51 175 74 112 114 68 L48 -2 L53 -8 L53 -8 Z M290 1 C224 1 170 29 133 77 L451 417 C481 374 498 317 498 250 C498 101 415 1 290 1 L290 1 Z M128 83 C98 126 81 183 81 250 C81 399 164 499 290 499 C356 499 410 471 447 423 L128 83 L128 83 Z " />
<glyph glyph-name="ugrave" unicode="&#xf9;" horiz-adv-x="613" d="M109 495 L109 495 L110 156 C110 60 163 -5 267 -5 C267 -5 343 23 457 63 L457 16 L457 7 L457 0 L462 0 L579 33 L579 36 L484 23 L484 500 L470 500 L457 500 L362 500 L362 497 L362 495 L457 495 L457 66 C368 34 302 12 288 12 C188 12 136 70 136 158 L136 499 L123 499 L109 499 L15 499 L15 496 L15 494 L109 495 L109 495 Z M274 672 C250 707 233 730 230 730 C226 730 215 722 215 718 C215 715 233 693 260 661 L371 530 L374 533 L274 672 L274 672 Z " />
<glyph glyph-name="uacute" unicode="&#xfa;" horiz-adv-x="613" d="M264 531 L372 662 C398 695 416 718 416 719 C416 723 405 731 401 731 C399 731 382 708 358 673 L261 534 L264 531 L264 531 Z M109 495 L109 495 L110 156 C110 60 163 -5 267 -5 C267 -5 343 23 457 63 L457 16 L457 7 L457 0 L462 0 L579 33 L579 36 L484 23 L484 500 L470 500 L457 500 L362 500 L362 497 L362 495 L457 495 L457 66 C368 34 302 12 288 12 C188 12 136 70 136 158 L136 499 L123 499 L109 499 L15 499 L15 496 L15 494 L109 495 L109 495 Z " />
<glyph glyph-name="ucircumflex" unicode="&#xfb;" horiz-adv-x="613" d="M109 495 L109 495 L110 156 C110 60 163 -5 267 -5 C267 -5 343 23 457 63 L457 16 L457 7 L457 0 L462 0 L579 33 L579 36 L484 23 L484 500 L470 500 L457 500 L362 500 L362 497 L362 495 L457 495 L457 66 C368 34 302 12 288 12 C188 12 136 70 136 158 L136 499 L123 499 L109 499 L15 499 L15 496 L15 494 L109 495 L109 495 Z M297 714 L410 533 L412 535 L305 736 C304 739 301 744 297 744 C292 744 289 739 288 736 L181 535 L184 533 L297 714 L297 714 Z " />
<glyph glyph-name="udieresis" unicode="&#xfc;" horiz-adv-x="613" d="M381 570 C393 570 401 578 401 590 C401 602 393 610 381 610 C369 610 361 602 361 590 C361 578 369 570 381 570 L381 570 Z M212 570 C224 570 232 578 232 590 C232 602 224 610 212 610 C200 610 192 602 192 590 C192 578 200 570 212 570 L212 570 Z M109 495 L109 495 L110 156 C110 60 163 -5 267 -5 C267 -5 343 23 457 63 L457 16 L457 7 L457 0 L462 0 L579 33 L579 36 L484 23 L484 500 L470 500 L457 500 L362 500 L362 497 L362 495 L457 495 L457 66 C368 34 302 12 288 12 C188 12 136 70 136 158 L136 499 L123 499 L109 499 L15 499 L15 496 L15 494 L109 495 L109 495 Z " />
<glyph glyph-name="ydieresis" unicode="&#xff;" horiz-adv-x="487" d="M361 570 C373 570 381 578 381 590 C381 602 373 610 361 610 C349 610 341 602 341 590 C341 578 349 570 361 570 L361 570 Z M192 570 C204 570 212 578 212 590 C212 602 204 610 192 610 C180 610 172 602 172 590 C172 578 180 570 192 570 L192 570 Z M444 495 L444 495 L283 25 L131 496 L131 496 L223 496 C224 496 224 497 223 498 C224 500 224 501 223 501 L129 501 L113 501 L98 501 L5 501 L5 498 L5 496 L100 496 L270 -5 L247 -69 C211 -171 184 -211 149 -211 C129 -211 112 -188 92 -188 C83 -188 78 -192 78 -199 C78 -217 100 -229 132 -229 C180 -229 214 -185 254 -71 L276 -9 L453 496 L547 496 L547 498 L547 501 L455 501 L450 501 L446 501 L351 501 L351 498 L351 496 L444 495 L444 495 Z " />
<glyph glyph-name="Amacron" unicode="&#x100;" horiz-adv-x="628" d="M168 773 L463 773 L463 788 L168 788 L168 773 L168 773 Z M549 5 L548 5 L319 675 L311 675 L93 5 L-2 5 L-2 3 L-2 0 L91 0 L96 0 L101 0 L231 0 L231 3 L231 5 L103 5 L103 5 L178 238 L438 238 L516 5 L516 5 L390 5 L390 3 L390 0 L518 0 L534 0 L550 0 L630 0 L630 3 L630 5 L549 5 L549 5 Z M436 246 L181 246 L306 634 L436 246 L436 246 Z " />
<glyph glyph-name="amacron" unicode="&#x101;" horiz-adv-x="562" d="M95 613 L390 613 L390 628 L95 628 L95 613 L95 613 Z M448 5 L547 33 L547 36 L452 23 L452 470 L452 500 L445 500 L429 477 C410 492 337 506 254 506 C135 506 55 395 55 228 C55 89 130 -4 242 -4 C242 -4 315 44 425 116 L425 17 L425 8 L425 1 L425 -4 L430 -4 L448 5 L448 5 Z M425 120 C327 56 260 14 257 14 C153 14 83 104 83 240 C83 396 151 500 253 500 C336 500 408 486 425 472 L425 120 L425 120 Z " />
<glyph glyph-name="Abreve" unicode="&#x102;" horiz-adv-x="628" d="M209 872 C214 816 256 779 315 779 C374 779 416 816 422 872 L417 872 C413 828 372 798 315 798 C259 798 218 828 213 872 L209 872 L209 872 Z M549 5 L548 5 L319 675 L311 675 L93 5 L-2 5 L-2 3 L-2 0 L91 0 L96 0 L101 0 L231 0 L231 3 L231 5 L103 5 L103 5 L178 238 L438 238 L516 5 L516 5 L390 5 L390 3 L390 0 L518 0 L534 0 L550 0 L630 0 L630 3 L630 5 L549 5 L549 5 Z M436 246 L181 246 L306 634 L436 246 L436 246 Z " />
<glyph glyph-name="abreve" unicode="&#x103;" horiz-adv-x="562" d="M136 682 C141 626 184 589 242 589 C301 589 344 626 349 682 L344 682 C340 638 299 608 242 608 C186 608 145 638 141 682 L136 682 L136 682 Z M448 5 L547 33 L547 36 L452 23 L452 470 L452 500 L445 500 L429 477 C410 492 337 506 254 506 C135 506 55 395 55 228 C55 89 130 -4 242 -4 C242 -4 315 44 425 116 L425 17 L425 8 L425 1 L425 -4 L430 -4 L448 5 L448 5 Z M425 120 C327 56 260 14 257 14 C153 14 83 104 83 240 C83 396 151 500 253 500 C336 500 408 486 425 472 L425 120 L425 120 Z " />
<glyph glyph-name="Aogonek" unicode="&#x104;" horiz-adv-x="628" d="M549 5 L548 5 L319 675 L311 675 L93 5 L-2 5 L-2 3 L-2 0 L91 0 L96 0 L101 0 L231 0 L231 3 L231 5 L103 5 L103 5 L178 238 L438 238 L516 5 L516 5 L391 5 L391 3 L391 0 L506 0 C462 -24 386 -95 386 -156 C386 -202 422 -232 477 -232 C507 -232 538 -218 555 -197 L553 -195 C539 -212 511 -224 483 -224 C435 -224 403 -196 403 -154 C403 -87 484 -13 519 0 L535 0 L551 0 L631 0 L631 3 L631 5 L549 5 L549 5 Z M437 246 L182 246 L307 634 L437 246 L437 246 Z " />
<glyph glyph-name="aogonek" unicode="&#x105;" horiz-adv-x="466" d="M417 12 C422 16 427 19 431 22 C426 18 422 15 418 12 L417 12 L417 12 Z M398 4 C396 4 394 4 392 4 C361 4 353 26 353 60 L353 363 C353 449 307 506 238 506 C177 506 107 493 65 475 L92 475 C124 489 180 499 232 499 C288 499 325 447 325 369 L325 247 L194 229 C99 216 36 165 36 101 C36 38 80 -4 146 -4 C209 -4 278 29 325 79 L325 57 C325 17 336 -9 373 -9 C377 -9 381 -9 385 -8 C350 -42 317 -90 317 -134 C317 -192 353 -231 407 -231 C437 -231 468 -217 486 -196 L484 -194 C469 -211 441 -223 413 -223 C365 -223 333 -186 333 -131 C333 -85 366 -36 399 -4 C416 3 432 16 449 33 L449 39 C436 34 417 22 398 5 L398 4 L398 4 Z M325 241 L325 84 C284 41 220 14 159 14 C102 14 63 52 63 109 C63 164 115 208 194 220 L325 241 L325 241 Z " />
<glyph glyph-name="Cacute" unicode="&#x106;" horiz-adv-x="718" d="M353 691 L461 822 C488 855 505 878 505 879 C505 883 495 891 490 891 C489 891 472 868 447 833 L350 694 L353 691 L353 691 Z M659 16 L659 169 L656 169 L654 169 C649 124 641 65 635 20 C565 9 474 2 401 2 C222 2 102 133 102 329 C102 525 222 656 401 656 C474 656 565 649 635 638 C641 593 649 534 654 489 L656 489 L659 489 L659 642 C588 655 484 663 401 663 C202 663 69 529 69 328 C69 127 202 -7 401 -7 C484 -7 588 1 659 14 L659 16 L659 16 Z " />
<glyph glyph-name="cacute" unicode="&#x107;" horiz-adv-x="453" d="M210 531 L318 662 C344 695 362 718 362 719 C362 723 351 731 347 731 C346 731 329 708 304 673 L207 534 L210 531 L210 531 Z M402 28 L399 31 C385 19 325 11 248 11 C147 11 79 106 79 248 C79 397 162 497 285 497 C336 497 373 460 378 403 C379 395 385 390 392 390 C399 390 404 395 404 402 C399 464 352 505 288 505 C145 505 50 398 50 237 C50 92 120 -5 226 -5 C308 -5 378 8 402 28 L402 28 Z " />
<glyph glyph-name="Ccircumflex" unicode="&#x108;" horiz-adv-x="718" d="M401 875 L514 694 L517 696 L410 897 C409 900 406 905 401 905 C397 905 394 900 393 897 L286 696 L288 694 L401 875 L401 875 Z M659 16 L659 169 L656 169 L654 169 C649 124 641 65 635 20 C565 9 474 2 401 2 C222 2 102 133 102 329 C102 525 222 656 401 656 C474 656 565 649 635 638 C641 593 649 534 654 489 L656 489 L659 489 L659 642 C588 655 484 663 401 663 C202 663 69 529 69 328 C69 127 202 -7 401 -7 C484 -7 588 1 659 14 L659 16 L659 16 Z " />
<glyph glyph-name="Cdot" unicode="&#x10a;" horiz-adv-x="718" d="M401 730 C413 730 421 738 421 750 C421 762 413 770 401 770 C389 770 381 762 381 750 C381 738 389 730 401 730 L401 730 Z M659 16 L659 169 L656 169 L654 169 C649 124 641 65 635 20 C565 9 474 2 401 2 C222 2 102 133 102 329 C102 525 222 656 401 656 C474 656 565 649 635 638 C641 593 649 534 654 489 L656 489 L659 489 L659 642 C588 655 484 663 401 663 C202 663 69 529 69 328 C69 127 202 -7 401 -7 C484 -7 588 1 659 14 L659 16 L659 16 Z " />
<glyph glyph-name="cdot" unicode="&#x10b;" horiz-adv-x="453" d="M288 570 C300 570 308 578 308 590 C308 602 300 610 288 610 C276 610 268 602 268 590 C268 578 276 570 288 570 L288 570 Z M402 28 L399 31 C385 19 325 11 248 11 C147 11 79 106 79 248 C79 397 162 497 285 497 C336 497 373 460 378 403 C379 395 385 390 392 390 C399 390 404 395 404 402 C399 464 352 505 288 505 C145 505 50 398 50 237 C50 92 120 -5 226 -5 C308 -5 378 8 402 28 L402 28 Z " />
<glyph glyph-name="Ccaron" unicode="&#x10c;" horiz-adv-x="718" d="M401 745 L514 926 L517 924 L410 723 C409 720 406 715 401 715 C397 715 394 720 393 723 L286 924 L288 926 L401 745 L401 745 Z M659 16 L659 169 L656 169 L654 169 C649 124 641 65 635 20 C565 9 474 2 401 2 C222 2 102 133 102 329 C102 525 222 656 401 656 C474 656 565 649 635 638 C641 593 649 534 654 489 L656 489 L659 489 L659 642 C588 655 484 663 401 663 C202 663 69 529 69 328 C69 127 202 -7 401 -7 C484 -7 588 1 659 14 L659 16 L659 16 Z " />
<glyph glyph-name="ccaron" unicode="&#x10d;" horiz-adv-x="453" d="M402 28 L399 31 C385 19 325 11 248 11 C147 11 79 106 79 248 C79 397 162 497 285 497 C336 497 373 460 378 403 C379 395 385 390 392 390 C399 390 404 395 404 402 C399 464 352 505 288 505 C145 505 50 398 50 237 C50 92 120 -5 226 -5 C308 -5 378 8 402 28 L402 28 Z M289 585 L402 766 L405 764 L298 563 C297 560 294 555 289 555 C285 555 282 560 281 563 L174 764 L177 766 L289 585 L289 585 Z " />
<glyph glyph-name="Dcaron" unicode="&#x10e;" horiz-adv-x="686" d="M380 745 L493 926 L496 924 L389 723 C388 720 385 715 380 715 C376 715 373 720 372 723 L265 924 L268 926 L380 745 L380 745 Z M168 0 L183 0 L351 0 C523 0 638 132 638 330 C638 528 506 660 309 660 L183 660 L168 660 L153 660 L58 660 L58 657 L58 655 L153 655 L153 5 L58 5 L58 3 L58 0 L153 0 L168 0 L168 0 Z M183 8 L183 652 L309 652 C488 652 608 523 608 330 C608 137 505 8 351 8 L183 8 L183 8 Z " />
<glyph glyph-name="dcaron" unicode="&#x10f;" horiz-adv-x="584" d="M576 642 C594 698 606 744 606 748 C606 752 594 754 589 754 C584 754 569 693 559 648 L523 487 L527 486 L576 642 L576 642 Z M474 704 L474 713 L474 720 L469 720 L353 687 L353 684 L447 697 L447 478 C417 492 346 505 268 505 C140 505 55 394 55 227 C55 88 135 -5 256 -5 C256 -5 332 18 447 52 L447 17 L447 8 L447 1 L453 1 L569 34 L569 37 L474 24 L474 704 L474 704 Z M447 55 C359 29 289 12 271 12 C158 12 83 102 83 238 C83 394 156 498 267 498 C347 498 420 484 447 469 L447 55 L447 55 Z " />
<glyph glyph-name="Emacron" unicode="&#x112;" horiz-adv-x="590" d="M143 773 L437 773 L437 788 L143 788 L143 773 L143 773 Z M457 4 C466 51 477 115 485 162 L481 162 L438 8 L165 8 L165 348 L378 348 L386 244 L390 244 L391 244 L391 348 L391 352 L391 356 L391 450 L390 450 L386 450 L378 356 L165 356 L165 652 L430 652 L445 498 L449 498 L449 656 L449 660 L447 660 L446 660 L444 660 L165 660 L150 660 L135 660 L40 660 L40 657 L40 655 L135 655 L135 5 L40 5 L40 3 L40 0 L135 0 L150 0 L165 0 L451 0 L454 0 L456 0 L457 0 L457 4 L457 4 Z " />
<glyph glyph-name="emacron" unicode="&#x113;" horiz-adv-x="460" d="M106 613 L401 613 L401 628 L106 628 L106 613 L106 613 Z M408 28 L406 31 C392 19 331 11 252 11 C148 11 79 106 79 248 C79 277 82 304 87 329 L385 329 L411 329 C411 435 348 505 254 505 C131 505 50 398 50 237 C50 92 122 -5 229 -5 C313 -5 385 8 408 28 L408 28 Z M88 334 C110 434 170 497 252 497 C332 497 385 439 385 352 C385 344 380 339 373 339 L385 339 L88 334 L88 334 Z " />
<glyph glyph-name="Ebreve" unicode="&#x114;" horiz-adv-x="590" d="M184 872 C189 816 231 779 290 779 C349 779 391 816 397 872 L392 872 C388 828 347 798 290 798 C234 798 193 828 188 872 L184 872 L184 872 Z M457 4 C466 51 477 115 485 162 L481 162 L438 8 L165 8 L165 348 L378 348 L386 244 L390 244 L391 244 L391 348 L391 352 L391 356 L391 450 L390 450 L386 450 L378 356 L165 356 L165 652 L430 652 L445 498 L449 498 L449 656 L449 660 L447 660 L446 660 L444 660 L165 660 L150 660 L135 660 L40 660 L40 657 L40 655 L135 655 L135 5 L40 5 L40 3 L40 0 L135 0 L150 0 L165 0 L451 0 L454 0 L456 0 L457 0 L457 4 L457 4 Z " />
<glyph glyph-name="ebreve" unicode="&#x115;" horiz-adv-x="460" d="M147 712 C152 656 195 619 254 619 C312 619 355 656 360 712 L355 712 C351 668 310 638 254 638 C197 638 156 668 152 712 L147 712 L147 712 Z M408 28 L406 31 C392 19 331 11 252 11 C148 11 79 106 79 248 C79 277 82 304 87 329 L385 329 L411 329 C411 435 348 505 254 505 C131 505 50 398 50 237 C50 92 122 -5 229 -5 C313 -5 385 8 408 28 L408 28 Z M88 334 C110 434 170 497 252 497 C332 497 385 439 385 352 C385 344 380 339 373 339 L385 339 L88 334 L88 334 Z " />
<glyph glyph-name="Edot" unicode="&#x116;" horiz-adv-x="590" d="M290 730 C302 730 310 738 310 750 C310 762 302 770 290 770 C278 770 270 762 270 750 C270 738 278 730 290 730 L290 730 Z M457 4 C466 51 477 115 485 162 L481 162 L438 8 L165 8 L165 348 L378 348 L386 244 L390 244 L391 244 L391 348 L391 352 L391 356 L391 450 L390 450 L386 450 L378 356 L165 356 L165 652 L430 652 L445 498 L449 498 L449 656 L449 660 L447 660 L446 660 L444 660 L165 660 L150 660 L135 660 L40 660 L40 657 L40 655 L135 655 L135 5 L40 5 L40 3 L40 0 L135 0 L150 0 L165 0 L451 0 L454 0 L456 0 L457 0 L457 4 L457 4 Z " />
<glyph glyph-name="edot" unicode="&#x117;" horiz-adv-x="460" d="M254 570 C266 570 274 578 274 590 C274 602 266 610 254 610 C242 610 234 602 234 590 C234 578 242 570 254 570 L254 570 Z M408 28 L406 31 C392 19 331 11 252 11 C148 11 79 106 79 248 C79 277 82 304 87 329 L385 329 L411 329 C411 435 348 505 254 505 C131 505 50 398 50 237 C50 92 122 -5 229 -5 C313 -5 385 8 408 28 L408 28 Z M88 334 C110 434 170 497 252 497 C332 497 385 439 385 352 C385 344 380 339 373 339 L385 339 L88 334 L88 334 Z " />
<glyph glyph-name="Eogonek" unicode="&#x118;" horiz-adv-x="590" d="M457 4 C466 51 477 115 485 162 L481 162 L438 8 L165 8 L165 348 L378 348 L386 244 L390 244 L391 244 L391 348 L391 352 L391 356 L391 450 L390 450 L386 450 L378 356 L165 356 L165 652 L430 652 L445 498 L449 498 L449 656 L449 660 L447 660 L446 660 L444 660 L165 660 L150 660 L135 660 L40 660 L40 657 L40 655 L135 655 L135 5 L40 5 L40 3 L40 0 L135 0 L150 0 L165 0 L443 0 C399 -24 323 -95 323 -156 C323 -202 359 -232 414 -232 C444 -232 475 -218 492 -197 L490 -195 C476 -212 448 -224 420 -224 C372 -224 340 -196 340 -154 C340 -87 421 -13 456 0 L457 0 L457 4 L457 4 Z " />
<glyph glyph-name="eogonek" unicode="&#x119;" horiz-adv-x="460" d="M88 334 C110 434 170 497 252 497 C332 497 385 439 385 352 C385 344 380 339 373 339 L385 339 L88 334 L88 334 Z M87 329 L385 329 L411 329 C411 435 348 505 254 505 C131 505 50 398 50 237 C50 92 122 -5 229 -5 C237 -5 245 -5 253 -5 C209 -29 135 -99 135 -160 C135 -204 171 -233 226 -233 C256 -233 287 -219 304 -198 L302 -196 C288 -213 259 -225 232 -225 C184 -225 152 -198 152 -157 C152 -91 233 -18 267 -5 C334 -2 388 10 407 27 L405 30 C391 18 330 10 251 10 C147 10 78 105 78 247 C78 276 81 303 86 328 L87 329 L87 329 Z " />
<glyph glyph-name="Ecaron" unicode="&#x11a;" horiz-adv-x="590" d="M290 745 L403 926 L406 924 L299 723 C298 720 295 715 290 715 C286 715 283 720 282 723 L175 924 L177 926 L290 745 L290 745 Z M457 4 C466 51 477 115 485 162 L481 162 L438 8 L165 8 L165 348 L378 348 L386 244 L390 244 L391 244 L391 348 L391 352 L391 356 L391 450 L390 450 L386 450 L378 356 L165 356 L165 652 L430 652 L445 498 L449 498 L449 656 L449 660 L447 660 L446 660 L444 660 L165 660 L150 660 L135 660 L40 660 L40 657 L40 655 L135 655 L135 5 L40 5 L40 3 L40 0 L135 0 L150 0 L165 0 L451 0 L454 0 L456 0 L457 0 L457 4 L457 4 Z " />
<glyph glyph-name="ecaron" unicode="&#x11b;" horiz-adv-x="460" d="M408 28 L406 31 C392 19 331 11 252 11 C148 11 79 106 79 248 C79 277 82 304 87 329 L385 329 L411 329 C411 435 348 505 254 505 C131 505 50 398 50 237 C50 92 122 -5 229 -5 C313 -5 385 8 408 28 L408 28 Z M254 585 L367 766 L370 764 L263 563 C262 560 259 555 255 555 C250 555 247 560 246 563 L139 764 L142 766 L254 585 L254 585 Z M89 334 C111 434 171 497 253 497 C333 497 386 439 386 352 C386 344 381 339 374 339 L386 339 L89 334 L89 334 Z " />
<glyph glyph-name="Gcircumflex" unicode="&#x11c;" horiz-adv-x="835" d="M390 875 L503 694 L506 696 L399 897 C398 900 394 905 390 905 C385 905 382 900 381 897 L274 696 L277 694 L390 875 L390 875 Z M618 305 L618 54 C554 23 466 3 390 3 C217 3 102 134 102 330 C102 526 217 657 390 657 C459 657 546 650 615 639 C621 594 629 535 634 490 L636 490 L639 490 L639 643 C568 656 468 664 390 664 C197 664 69 530 69 329 C69 128 197 -6 390 -6 C477 -6 579 19 645 57 L645 304 L739 304 L739 306 L739 309 L645 309 L631 309 L618 309 L523 309 L523 306 L523 304 L618 305 L618 305 Z " />
<glyph glyph-name="Gbreve" unicode="&#x11e;" horiz-adv-x="835" d="M283 872 C289 816 331 779 390 779 C449 779 491 816 496 872 L492 872 C488 828 447 798 390 798 C333 798 292 828 288 872 L283 872 L283 872 Z M618 305 L618 54 C554 23 466 3 390 3 C217 3 102 134 102 330 C102 526 217 657 390 657 C459 657 546 650 615 639 C621 594 629 535 634 490 L636 490 L639 490 L639 643 C568 656 468 664 390 664 C197 664 69 530 69 329 C69 128 197 -6 390 -6 C477 -6 579 19 645 57 L645 304 L739 304 L739 306 L739 309 L645 309 L631 309 L618 309 L523 309 L523 306 L523 304 L618 305 L618 305 Z " />
<glyph glyph-name="gbreve" unicode="&#x11f;" horiz-adv-x="457" d="M143 712 C148 656 191 619 250 619 C308 619 351 656 356 712 L351 712 C347 668 306 638 250 638 C193 638 152 668 148 712 L143 712 L143 712 Z M458 500 L320 495 L320 495 C299 502 275 506 249 506 C144 506 74 445 74 352 C74 274 125 218 205 203 L196 203 C111 203 55 170 55 121 C55 71 98 38 166 34 C84 7 30 -47 30 -102 C30 -182 87 -236 173 -236 C332 -236 438 -164 438 -55 C438 15 368 62 262 62 L190 59 C120 56 74 84 74 131 C74 172 123 199 196 199 L250 199 C355 199 425 260 425 352 C425 413 395 460 345 485 L458 486 L458 500 L458 500 Z M100 352 C100 441 160 500 250 500 C276 500 300 495 320 486 L320 485 L320 485 C368 462 398 414 398 352 C398 264 338 205 249 205 C159 205 99 264 99 352 L100 352 L100 352 Z M174 34 C179 34 184 34 190 34 L254 37 C352 37 417 -5 417 -69 C417 -164 320 -228 175 -228 C99 -228 48 -176 48 -99 C48 -44 97 8 173 33 L174 34 L174 34 Z " />
<glyph glyph-name="Gdot" unicode="&#x120;" horiz-adv-x="835" d="M390 730 C402 730 410 738 410 750 C410 762 402 770 390 770 C378 770 370 762 370 750 C370 738 378 730 390 730 L390 730 Z M618 305 L618 54 C554 23 466 3 390 3 C217 3 102 134 102 330 C102 526 217 657 390 657 C459 657 546 650 615 639 C621 594 629 535 634 490 L636 490 L639 490 L639 643 C568 656 468 664 390 664 C197 664 69 530 69 329 C69 128 197 -6 390 -6 C477 -6 579 19 645 57 L645 304 L739 304 L739 306 L739 309 L645 309 L631 309 L618 309 L523 309 L523 306 L523 304 L618 305 L618 305 Z " />
<glyph glyph-name="gdot" unicode="&#x121;" horiz-adv-x="457" d="M250 570 C262 570 270 578 270 590 C270 602 262 610 250 610 C238 610 230 602 230 590 C230 578 238 570 250 570 L250 570 Z M458 500 L320 495 L320 495 C299 502 275 506 249 506 C144 506 74 445 74 352 C74 274 125 218 205 203 L196 203 C111 203 55 170 55 121 C55 71 98 38 166 34 C84 7 30 -47 30 -102 C30 -182 87 -236 173 -236 C332 -236 438 -164 438 -55 C438 15 368 62 262 62 L190 59 C120 56 74 84 74 131 C74 172 123 199 196 199 L250 199 C355 199 425 260 425 352 C425 413 395 460 345 485 L458 486 L458 500 L458 500 Z M100 352 C100 441 160 500 250 500 C276 500 300 495 320 486 L320 485 L320 485 C368 462 398 414 398 352 C398 264 338 205 249 205 C159 205 99 264 99 352 L100 352 L100 352 Z M174 34 C179 34 184 34 190 34 L254 37 C352 37 417 -5 417 -69 C417 -164 320 -228 175 -228 C99 -228 48 -176 48 -99 C48 -44 97 8 173 33 L174 34 L174 34 Z " />
<glyph glyph-name="Hcircumflex" unicode="&#x124;" horiz-adv-x="796" d="M398 875 L511 694 L514 696 L407 897 C406 900 403 905 398 905 C394 905 391 900 390 897 L283 696 L285 694 L398 875 L398 875 Z M647 0 L662 0 L756 0 C757 0 757 1 756 3 C757 4 757 5 756 5 L662 5 L662 655 L756 655 C757 655 757 656 756 657 C757 659 757 660 756 660 L662 660 L647 660 L632 660 L537 660 L537 657 L537 655 L632 655 L632 351 L165 351 L165 655 L259 655 L259 657 L259 660 L165 660 L150 660 L135 660 L40 660 L40 657 L40 655 L135 655 L135 5 L40 5 L40 3 L40 0 L135 0 L150 0 L165 0 L259 0 L259 3 L259 5 L165 5 L165 343 L632 343 L632 5 L537 5 L537 3 L537 0 L632 0 L647 0 L647 0 Z " />
<glyph glyph-name="Itilde" unicode="&#x128;" horiz-adv-x="299" d="M10 755 C10 798 29 826 57 826 C117 826 175 763 235 763 C270 763 293 794 293 841 L289 841 C289 805 270 781 241 781 C181 781 123 843 62 843 C29 843 6 808 6 755 L10 755 L10 755 Z M150 0 L165 0 L259 0 L259 3 L259 5 L165 5 L165 655 L259 655 L259 657 L259 660 L165 660 L150 660 L135 660 L40 660 L40 657 L40 655 L135 655 L135 5 L40 5 L40 3 L40 0 L135 0 L150 0 L150 0 Z " />
<glyph glyph-name="itilde" unicode="&#x129;" horiz-adv-x="306" d="M14 595 C14 638 32 666 60 666 C120 666 179 603 239 603 C274 603 297 634 297 681 L292 681 C292 645 273 621 245 621 C184 621 126 683 66 683 C32 683 9 648 9 595 L14 595 L14 595 Z M153 0 L167 0 L261 0 L261 3 L261 5 L167 5 L167 485 L167 495 L167 502 L161 502 L45 469 L45 466 L140 478 L140 5 L45 5 L45 3 L45 0 L140 0 L153 0 L153 0 Z " />
<glyph glyph-name="Imacron" unicode="&#x12a;" horiz-adv-x="299" d="M2 773 L297 773 L297 788 L2 788 L2 773 L2 773 Z M150 0 L165 0 L259 0 L259 3 L259 5 L165 5 L165 655 L259 655 L259 657 L259 660 L165 660 L150 660 L135 660 L40 660 L40 657 L40 655 L135 655 L135 5 L40 5 L40 3 L40 0 L135 0 L150 0 L150 0 Z " />
<glyph glyph-name="imacron" unicode="&#x12b;" horiz-adv-x="306" d="M6 613 L300 613 L300 628 L6 628 L6 613 L6 613 Z M153 0 L167 0 L261 0 L261 3 L261 5 L167 5 L167 485 L167 495 L167 502 L161 502 L45 469 L45 466 L140 478 L140 5 L45 5 L45 3 L45 0 L140 0 L153 0 L153 0 Z " />
<glyph glyph-name="Ibreve" unicode="&#x12c;" horiz-adv-x="299" d="M43 872 C48 816 91 779 150 779 C208 779 251 816 256 872 L251 872 C247 828 206 798 150 798 C93 798 52 828 48 872 L43 872 L43 872 Z M150 0 L165 0 L259 0 L259 3 L259 5 L165 5 L165 655 L259 655 L259 657 L259 660 L165 660 L150 660 L135 660 L40 660 L40 657 L40 655 L135 655 L135 5 L40 5 L40 3 L40 0 L135 0 L150 0 L150 0 Z " />
<glyph glyph-name="ibreve" unicode="&#x12d;" horiz-adv-x="306" d="M47 712 C52 656 94 619 153 619 C212 619 254 656 260 712 L255 712 C251 668 210 638 153 638 C96 638 55 668 51 712 L47 712 L47 712 Z M153 0 L167 0 L261 0 L261 3 L261 5 L167 5 L167 485 L167 495 L167 502 L161 502 L45 469 L45 466 L140 478 L140 5 L45 5 L45 3 L45 0 L140 0 L153 0 L153 0 Z " />
<glyph glyph-name="Idot" unicode="&#x130;" horiz-adv-x="299" d="M150 730 C162 730 170 738 170 750 C170 762 162 770 150 770 C138 770 130 762 130 750 C130 738 138 730 150 730 L150 730 Z M150 0 L165 0 L259 0 L259 3 L259 5 L165 5 L165 655 L259 655 L259 657 L259 660 L165 660 L150 660 L135 660 L40 660 L40 657 L40 655 L135 655 L135 5 L40 5 L40 3 L40 0 L135 0 L150 0 L150 0 Z " />
<glyph glyph-name="dotlessi" unicode="&#x131;" horiz-adv-x="306" d="M153 0 L167 0 L261 0 L261 3 L261 5 L167 5 L167 485 L167 495 L167 502 L161 502 L45 469 L45 466 L140 478 L140 5 L45 5 L45 3 L45 0 L140 0 L153 0 L153 0 Z " />
<glyph glyph-name="Jcircumflex" unicode="&#x134;" horiz-adv-x="362" d="M213 875 L326 694 L329 696 L222 897 C221 900 218 905 214 905 C209 905 206 900 205 897 L98 696 L101 694 L213 875 L213 875 Z M199 655 L199 200 C199 53 170 -4 96 -4 C62 -4 35 18 26 50 C24 57 19 62 13 62 C4 62 -1 57 1 50 C10 14 45 -10 88 -10 C190 -10 229 56 229 225 L229 655 L323 655 L323 657 L323 660 L229 660 L214 660 L199 660 L104 660 L104 657 L104 655 L199 655 L199 655 Z " />
<glyph glyph-name="Lacute" unicode="&#x139;" horiz-adv-x="590" d="M125 691 L232 822 C259 855 276 878 277 879 C276 883 266 891 261 891 C260 891 243 868 219 833 L122 694 L125 691 L125 691 Z M457 4 C466 53 478 119 486 169 C487 169 486 169 485 170 C483 174 481 177 481 177 L438 8 L165 8 L165 655 L259 655 L259 657 L259 660 L165 660 L150 660 L135 660 L40 660 L40 657 L40 655 L135 655 L135 5 L40 5 L40 3 L40 0 L135 0 L150 0 L165 0 L451 0 L454 0 L456 0 L457 0 L457 4 L457 4 Z " />
<glyph glyph-name="Lcaron" unicode="&#x13d;" horiz-adv-x="590" d="M361 582 C379 638 391 684 391 688 C391 692 379 694 374 694 C369 694 354 633 344 588 L308 427 L312 426 L361 582 L361 582 Z M457 4 C466 53 478 119 486 169 C487 169 486 169 485 170 C483 174 481 177 481 177 L438 8 L165 8 L165 655 L259 655 L259 657 L259 660 L165 660 L150 660 L135 660 L40 660 L40 657 L40 655 L135 655 L135 5 L40 5 L40 3 L40 0 L135 0 L150 0 L165 0 L451 0 L454 0 L456 0 L457 0 L457 4 L457 4 Z " />
<glyph glyph-name="lcaron" unicode="&#x13e;" horiz-adv-x="306" d="M268 612 C287 668 299 714 299 718 C299 722 287 724 282 724 C276 724 261 663 252 618 L216 457 L219 456 L268 612 L268 612 Z M153 0 L167 0 L261 0 L261 3 L261 5 L167 5 L167 704 L167 713 L167 720 L161 720 L45 687 L45 684 L140 697 L140 5 L45 5 L45 3 L45 0 L140 0 L153 0 L153 0 Z " />
<glyph glyph-name="Lslash" unicode="&#x141;" horiz-adv-x="590" d="M85 275 L135 297 L135 5 L40 5 L40 3 L40 0 L135 0 L150 0 L165 0 L451 0 L454 0 L456 0 L457 0 L457 4 C466 53 478 119 486 169 C487 169 486 169 485 170 C483 174 481 177 481 177 L438 8 L165 8 L165 311 L310 375 L310 385 L165 321 L165 655 L259 655 L259 657 L259 660 L165 660 L150 660 L135 660 L40 660 L40 657 L40 655 L135 655 L135 307 L85 285 L85 275 L85 275 Z " />
<glyph glyph-name="lslash" unicode="&#x142;" horiz-adv-x="306" d="M40 305 L140 349 L140 5 L45 5 L45 3 L45 0 L140 0 L153 0 L167 0 L261 0 L261 3 L261 5 L167 5 L167 361 L267 405 L267 415 L167 371 L167 704 L167 713 L167 720 L161 720 L45 687 L45 684 L140 697 L140 359 L40 315 L40 305 L40 305 Z " />
<glyph glyph-name="Nacute" unicode="&#x143;" horiz-adv-x="730" d="M334 691 L441 822 C468 855 486 878 486 879 C486 883 475 891 470 891 C469 891 452 868 428 833 L331 694 L334 691 L334 691 Z M584 655 L584 44 L166 660 L148 647 L148 648 L166 660 L148 660 L144 660 L139 660 L45 660 L45 657 L45 655 L139 655 L139 5 L45 5 L45 3 L45 0 L139 0 L144 0 L148 0 L243 0 L243 3 L243 5 L148 5 L148 634 L571 12 L583 -6 L593 -6 L593 23 L593 655 L688 655 L688 657 L688 660 L593 660 L589 660 L584 660 L490 660 L490 657 L490 655 L584 655 L584 655 Z " />
<glyph glyph-name="nacute" unicode="&#x144;" horiz-adv-x="648" d="M248 531 L356 662 C382 695 400 718 400 719 C400 723 389 731 385 731 C384 731 367 708 342 673 L245 534 L248 531 L248 531 Z M487 5 L392 5 L392 3 L392 0 L487 0 L500 0 L514 0 L609 0 L609 3 L609 5 L514 5 L514 336 C514 437 478 505 384 505 C384 505 297 477 166 437 L166 484 L166 488 L166 500 L161 500 L45 467 L45 464 L139 477 L139 5 L45 5 L45 3 L45 0 L139 0 L153 0 L166 0 L261 0 L261 3 L261 5 L166 5 L166 434 C269 465 348 487 364 487 C453 487 488 425 488 333 L487 5 L487 5 Z " />
<glyph glyph-name="Ncaron" unicode="&#x147;" horiz-adv-x="730" d="M367 745 L480 926 L483 924 L376 723 C375 720 372 715 367 715 C363 715 360 720 359 723 L252 924 L255 926 L367 745 L367 745 Z M585 655 L585 44 L167 660 L149 647 L149 648 L167 660 L149 660 L145 660 L140 660 L46 660 L46 657 L46 655 L140 655 L140 5 L46 5 L46 3 L46 0 L140 0 L145 0 L149 0 L244 0 L244 3 L244 5 L149 5 L149 634 L572 12 L584 -6 L594 -6 L594 23 L594 655 L689 655 L689 657 L689 660 L594 660 L590 660 L585 660 L491 660 L491 657 L491 655 L585 655 L585 655 Z " />
<glyph glyph-name="ncaron" unicode="&#x148;" horiz-adv-x="648" d="M327 585 L440 766 L442 764 L335 563 C334 560 331 555 327 555 C322 555 319 560 318 563 L211 764 L214 766 L327 585 L327 585 Z M487 5 L392 5 L392 3 L392 0 L487 0 L500 0 L514 0 L609 0 L609 3 L609 5 L514 5 L514 336 C514 437 478 505 384 505 C384 505 297 477 166 437 L166 484 L166 488 L166 500 L161 500 L45 467 L45 464 L139 477 L139 5 L45 5 L45 3 L45 0 L139 0 L153 0 L166 0 L261 0 L261 3 L261 5 L166 5 L166 434 C269 465 348 487 364 487 C453 487 488 425 488 333 L487 5 L487 5 Z " />
<glyph glyph-name="Omacron" unicode="&#x14c;" horiz-adv-x="753" d="M239 773 L534 773 L534 788 L239 788 L239 773 L239 773 Z M386 3 C199 3 102 153 102 330 C102 507 199 657 386 657 C574 657 671 507 671 330 C671 153 574 3 386 3 L386 3 Z M69 330 C69 149 177 -5 386 -5 C596 -5 704 149 704 330 C704 511 596 665 386 665 C177 665 69 511 69 330 L69 330 Z " />
<glyph glyph-name="omacron" unicode="&#x14d;" horiz-adv-x="577" d="M141 613 L436 613 L436 628 L141 628 L141 613 L141 613 Z M289 1 C163 1 80 101 80 250 C80 399 163 499 289 499 C414 499 497 399 497 250 C497 101 414 1 289 1 L289 1 Z M50 250 C50 97 145 -5 289 -5 C432 -5 527 97 527 250 C527 403 432 505 289 505 C145 505 50 403 50 250 L50 250 Z " />
<glyph glyph-name="Obreve" unicode="&#x14e;" horiz-adv-x="753" d="M280 872 C285 816 327 779 386 779 C445 779 487 816 493 872 L488 872 C484 828 443 798 386 798 C330 798 289 828 285 872 L280 872 L280 872 Z M386 3 C199 3 102 153 102 330 C102 507 199 657 386 657 C574 657 671 507 671 330 C671 153 574 3 386 3 L386 3 Z M69 330 C69 149 177 -5 386 -5 C596 -5 704 149 704 330 C704 511 596 665 386 665 C177 665 69 511 69 330 L69 330 Z " />
<glyph glyph-name="obreve" unicode="&#x14f;" horiz-adv-x="577" d="M182 712 C187 656 230 619 289 619 C347 619 390 656 395 712 L390 712 C386 668 345 638 289 638 C232 638 191 668 187 712 L182 712 L182 712 Z M289 1 C163 1 80 101 80 250 C80 399 163 499 289 499 C414 499 497 399 497 250 C497 101 414 1 289 1 L289 1 Z M50 250 C50 97 145 -5 289 -5 C432 -5 527 97 527 250 C527 403 432 505 289 505 C145 505 50 403 50 250 L50 250 Z " />
<glyph glyph-name="Racute" unicode="&#x154;" horiz-adv-x="625" d="M257 691 L365 822 C391 855 409 878 409 879 C409 883 398 891 394 891 C393 891 376 868 351 833 L254 694 L257 691 L257 691 Z M626 0 L626 6 L621 6 C609 6 606 10 524 100 L327 319 C443 327 520 394 520 491 C520 593 445 661 334 661 L183 661 L168 661 L153 661 L58 661 L58 658 L58 656 L153 656 L153 6 L58 6 L58 4 L58 1 L153 1 L168 1 L183 1 L278 1 C277 1 277 2 278 4 C277 5 277 6 278 6 L183 6 L183 319 L292 319 L484 107 C576 5 581 1 613 1 L626 0 L626 0 Z M304 327 L285 327 L183 327 L183 653 L334 653 C426 653 488 588 488 491 C488 392 414 327 304 327 L304 327 Z " />
<glyph glyph-name="Rcaron" unicode="&#x158;" horiz-adv-x="556" d="M336 745 L449 926 L452 924 L345 723 C344 720 341 715 337 715 C332 715 329 720 328 723 L221 924 L224 926 L336 745 L336 745 Z M304 318 C360 164 461 20 557 -42 L560 -38 C487 10 397 153 337 320 C448 331 520 397 520 491 C520 593 445 661 334 661 L183 661 L168 661 L153 661 L58 661 L58 658 L58 656 L153 656 L153 6 L58 6 L58 4 L58 1 L153 1 L168 1 L183 1 L278 1 C277 1 277 2 278 4 C277 5 277 6 278 6 L183 6 L183 319 L304 318 L304 318 Z M183 327 L183 653 L334 653 C426 653 488 588 488 491 C488 392 414 327 304 327 L183 327 L183 327 Z " />
<glyph glyph-name="rcaron" unicode="&#x159;" horiz-adv-x="420" d="M230 585 L343 766 L346 764 L239 563 C238 560 234 555 230 555 C225 555 222 560 221 563 L114 764 L117 766 L230 585 L230 585 Z M153 0 L166 0 L261 0 L261 3 L261 5 L166 5 L166 433 C236 464 289 484 299 484 C331 484 366 456 398 456 C406 456 411 461 411 469 C411 490 386 504 320 504 C320 504 258 477 166 437 L166 484 L166 488 L165 488 L163 500 L157 500 L45 467 L45 464 L139 477 L139 5 L45 5 L45 3 L45 0 L139 0 L153 0 L153 0 Z " />
<glyph glyph-name="Sacute" unicode="&#x15a;" horiz-adv-x="496" d="M182 691 L290 822 C316 855 334 878 334 879 C334 883 323 891 318 891 C317 891 300 868 276 833 L179 694 L182 691 L182 691 Z M45 11 L46 11 L45 5 C80 -1 173 -5 276 -5 C382 -5 452 61 452 161 C452 236 376 308 262 342 C151 375 77 438 77 501 C77 595 138 658 230 658 C287 658 350 654 396 648 C402 603 410 544 415 500 L417 500 L420 500 L420 655 L419 649 L419 649 L420 655 C384 661 309 665 231 665 C126 665 56 594 56 489 C56 419 129 351 239 318 C354 285 430 217 430 149 C430 61 368 3 276 3 C197 3 118 7 68 13 L68 13 C63 57 55 116 49 160 L47 160 L45 160 L45 11 L45 11 Z " />
<glyph glyph-name="sacute" unicode="&#x15b;" horiz-adv-x="418" d="M127 531 L235 662 C261 695 279 718 279 719 C279 723 268 731 264 731 C262 731 246 708 221 673 L124 534 L127 531 L127 531 Z M50 5 L50 5 L50 1 C69 -3 140 -5 228 -5 C312 -5 369 49 369 130 C369 177 316 229 236 260 C149 293 92 347 92 393 C92 457 137 499 205 499 C236 499 284 494 329 487 L329 487 C332 458 336 420 339 390 L342 390 L344 390 L344 494 C307 501 252 505 205 505 C125 505 71 456 71 384 C71 332 129 274 216 240 C294 210 346 162 346 120 C346 49 299 1 229 1 C165 1 105 4 69 8 L69 8 C64 40 58 82 54 115 L52 115 L50 115 L50 5 L50 5 Z " />
<glyph glyph-name="Scircumflex" unicode="&#x15c;" horiz-adv-x="496" d="M230 875 L343 694 L345 696 L238 897 C237 900 234 905 230 905 C225 905 222 900 221 897 L114 696 L117 694 L230 875 L230 875 Z M45 11 L46 11 L45 5 C80 -1 173 -5 276 -5 C382 -5 452 61 452 161 C452 236 376 308 262 342 C151 375 77 438 77 501 C77 595 138 658 230 658 C287 658 350 654 396 648 C402 603 410 544 415 500 L417 500 L420 500 L420 655 L419 649 L419 649 L420 655 C384 661 309 665 231 665 C126 665 56 594 56 489 C56 419 129 351 239 318 C354 285 430 217 430 149 C430 61 368 3 276 3 C197 3 118 7 68 13 L68 13 C63 57 55 116 49 160 L47 160 L45 160 L45 11 L45 11 Z " />
<glyph glyph-name="Scedilla" unicode="&#x15e;" horiz-adv-x="496" d="M240 -88 L282 -5 C384 -2 451 63 451 161 C451 236 375 308 261 342 C150 375 76 438 76 501 C76 595 137 658 229 658 C286 658 349 654 395 648 C401 603 409 544 414 500 L416 500 L419 500 L419 655 L418 649 L418 649 L419 655 C383 661 308 665 230 665 C125 665 55 594 55 489 C55 419 128 351 238 318 C353 285 429 217 429 149 C429 61 367 3 275 3 C196 3 117 7 67 13 L67 13 C62 57 54 116 48 160 L46 160 L44 160 L44 11 L45 11 L44 5 C79 -1 171 -5 273 -5 L234 -94 L236 -95 C256 -86 282 -80 303 -80 C343 -80 370 -102 370 -135 C370 -181 341 -212 297 -212 C259 -212 222 -204 205 -193 L204 -196 C225 -210 264 -220 303 -220 C353 -220 386 -186 386 -135 C386 -98 355 -74 309 -74 C287 -74 260 -80 240 -89 L240 -88 L240 -88 Z " />
<glyph glyph-name="scedilla" unicode="&#x15f;" horiz-adv-x="418" d="M191 -89 L233 -5 C314 -3 369 50 369 129 C369 176 316 228 236 259 C149 292 92 346 92 392 C92 456 137 498 205 498 C236 498 284 493 329 486 L329 486 C332 457 336 419 339 389 L342 389 L344 389 L344 493 C307 500 252 504 205 504 C125 504 71 455 71 383 C71 331 129 273 216 239 C294 209 346 161 346 119 C346 48 299 0 229 0 C165 0 105 3 69 7 L69 7 C64 39 58 81 54 114 L52 114 L50 114 L50 4 L50 4 L50 0 C69 -4 138 -6 224 -6 L186 -95 L187 -96 C207 -87 234 -81 254 -81 C294 -81 321 -103 321 -136 C321 -182 292 -213 249 -213 C211 -213 174 -205 157 -194 L155 -197 C177 -211 216 -221 254 -221 C305 -221 338 -187 338 -136 C338 -99 307 -75 261 -75 C237 -75 209 -81 190 -90 L191 -89 L191 -89 Z " />
<glyph glyph-name="Scaron" unicode="&#x160;" horiz-adv-x="496" d="M230 745 L343 926 L345 924 L238 723 C237 720 234 715 230 715 C225 715 222 720 221 723 L114 924 L117 926 L230 745 L230 745 Z M45 11 L46 11 L45 5 C80 -1 173 -5 276 -5 C382 -5 452 61 452 161 C452 236 376 308 262 342 C151 375 77 438 77 501 C77 595 138 658 230 658 C287 658 350 654 396 648 C402 603 410 544 415 500 L417 500 L420 500 L420 655 L419 649 L419 649 L420 655 C384 661 309 665 231 665 C126 665 56 594 56 489 C56 419 129 351 239 318 C354 285 430 217 430 149 C430 61 368 3 276 3 C197 3 118 7 68 13 L68 13 C63 57 55 116 49 160 L47 160 L45 160 L45 11 L45 11 Z " />
<glyph glyph-name="scaron" unicode="&#x161;" horiz-adv-x="418" d="M205 585 L318 766 L321 764 L214 563 C213 560 210 555 205 555 C201 555 198 560 197 563 L90 764 L92 766 L205 585 L205 585 Z M50 5 L50 5 L50 1 C69 -3 140 -5 228 -5 C312 -5 369 49 369 130 C369 177 316 229 236 260 C149 293 92 347 92 393 C92 457 137 499 205 499 C236 499 284 494 329 487 L329 487 C332 458 336 420 339 390 L342 390 L344 390 L344 494 C307 501 252 505 205 505 C125 505 71 456 71 384 C71 332 129 274 216 240 C294 210 346 162 346 120 C346 49 299 1 229 1 C165 1 105 4 69 8 L69 8 C64 40 58 82 54 115 L52 115 L50 115 L50 5 L50 5 Z " />
<glyph glyph-name="Tcaron" unicode="&#x164;" horiz-adv-x="614" d="M577 660 L577 656 L575 656 L575 660 L40 660 L40 656 L38 656 L38 660 L35 660 L33 660 C33 659 33 657 32 656 C28 604 22 535 17 483 L18 483 L22 483 L54 652 L292 652 L292 5 L198 5 L198 3 L198 0 L292 0 L307 0 L322 0 L417 0 L417 3 L417 5 L322 5 L322 652 L561 652 L593 483 L597 483 C593 535 587 604 582 656 L582 660 L579 660 L577 660 L577 660 Z M308 745 L421 926 L424 924 L317 723 C316 720 313 715 308 715 C304 715 301 720 300 723 L193 924 L196 926 L308 745 L308 745 Z " />
<glyph glyph-name="tcaron" unicode="&#x165;" horiz-adv-x="345" d="M315 500 L136 500 L136 640 L131 640 L116 534 C110 512 75 496 26 492 L26 489 L110 489 L110 110 C110 20 129 -5 195 -5 C251 -5 291 15 326 44 L324 47 C296 23 262 7 208 7 C153 7 137 29 137 105 L137 489 L316 489 L315 500 L315 500 Z M418 612 C436 668 448 714 448 718 C448 722 436 724 431 724 C425 724 410 663 401 618 L365 457 L368 456 L418 612 L418 612 Z " />
<glyph glyph-name="Utilde" unicode="&#x168;" horiz-adv-x="728" d="M232 755 C232 798 251 826 279 826 C339 826 397 763 457 763 C492 763 515 794 515 841 L511 841 C511 805 492 781 463 781 C403 781 345 843 284 843 C251 843 228 808 228 755 L232 755 L232 755 Z M142 655 L142 204 C142 79 208 -5 376 -5 C538 -5 601 67 601 174 L601 655 L706 655 L706 657 L706 660 L601 660 L597 660 L592 660 L482 660 L482 657 L482 655 L592 655 L592 177 C592 74 533 5 381 5 C230 5 172 82 172 199 L172 655 L267 655 C266 655 266 656 267 657 C266 659 266 660 267 660 L172 660 L157 660 L142 660 L47 660 L47 657 L47 655 L142 655 L142 655 Z " />
<glyph glyph-name="utilde" unicode="&#x169;" horiz-adv-x="613" d="M158 595 C158 638 176 666 204 666 C264 666 322 603 382 603 C417 603 440 634 440 681 L436 681 C436 645 417 621 388 621 C328 621 270 683 209 683 C176 683 153 648 153 595 L158 595 L158 595 Z M109 495 L109 495 L110 156 C110 60 163 -5 267 -5 C267 -5 343 23 457 63 L457 16 L457 7 L457 0 L462 0 L579 33 L579 36 L484 23 L484 500 L470 500 L457 500 L362 500 L362 497 L362 495 L457 495 L457 66 C368 34 302 12 288 12 C188 12 136 70 136 158 L136 499 L123 499 L109 499 L15 499 L15 496 L15 494 L109 495 L109 495 Z " />
<glyph glyph-name="Umacron" unicode="&#x16a;" horiz-adv-x="728" d="M224 773 L519 773 L519 788 L224 788 L224 773 L224 773 Z M142 655 L142 204 C142 79 208 -5 376 -5 C538 -5 601 67 601 174 L601 655 L706 655 L706 657 L706 660 L601 660 L597 660 L592 660 L482 660 L482 657 L482 655 L592 655 L592 177 C592 74 533 5 381 5 C230 5 172 82 172 199 L172 655 L267 655 C266 655 266 656 267 657 C266 659 266 660 267 660 L172 660 L157 660 L142 660 L47 660 L47 657 L47 655 L142 655 L142 655 Z " />
<glyph glyph-name="umacron" unicode="&#x16b;" horiz-adv-x="613" d="M149 613 L444 613 L444 628 L149 628 L149 613 L149 613 Z M109 495 L109 495 L110 156 C110 60 163 -5 267 -5 C267 -5 343 23 457 63 L457 16 L457 7 L457 0 L462 0 L579 33 L579 36 L484 23 L484 500 L470 500 L457 500 L362 500 L362 497 L362 495 L457 495 L457 66 C368 34 302 12 288 12 C188 12 136 70 136 158 L136 499 L123 499 L109 499 L15 499 L15 496 L15 494 L109 495 L109 495 Z " />
<glyph glyph-name="Ubreve" unicode="&#x16c;" horiz-adv-x="728" d="M265 872 C270 816 313 779 372 779 C430 779 473 816 478 872 L473 872 C469 828 428 798 372 798 C315 798 274 828 270 872 L265 872 L265 872 Z M142 655 L142 204 C142 79 208 -5 376 -5 C538 -5 601 67 601 174 L601 655 L706 655 L706 657 L706 660 L601 660 L597 660 L592 660 L482 660 L482 657 L482 655 L592 655 L592 177 C592 74 533 5 381 5 C230 5 172 82 172 199 L172 655 L267 655 C266 655 266 656 267 657 C266 659 266 660 267 660 L172 660 L157 660 L142 660 L47 660 L47 657 L47 655 L142 655 L142 655 Z " />
<glyph glyph-name="ubreve" unicode="&#x16d;" horiz-adv-x="613" d="M190 712 C195 656 238 619 297 619 C355 619 398 656 403 712 L398 712 C394 668 353 638 297 638 C240 638 199 668 195 712 L190 712 L190 712 Z M109 495 L109 495 L110 156 C110 60 163 -5 267 -5 C267 -5 343 23 457 63 L457 16 L457 7 L457 0 L462 0 L579 33 L579 36 L484 23 L484 500 L470 500 L457 500 L362 500 L362 497 L362 495 L457 495 L457 66 C368 34 302 12 288 12 C188 12 136 70 136 158 L136 499 L123 499 L109 499 L15 499 L15 496 L15 494 L109 495 L109 495 Z " />
<glyph glyph-name="Uring" unicode="&#x16e;" horiz-adv-x="728" d="M372 701 C325 701 286 741 286 788 C286 839 320 874 372 874 C423 874 457 839 457 788 C457 741 418 701 372 701 L372 701 Z M278 788 C278 738 321 695 372 695 C422 695 465 738 465 788 C465 843 428 880 372 880 C315 880 278 843 278 788 L278 788 Z M142 655 L142 204 C142 79 208 -5 376 -5 C538 -5 601 67 601 174 L601 655 L706 655 L706 657 L706 660 L601 660 L597 660 L592 660 L482 660 L482 657 L482 655 L592 655 L592 177 C592 74 533 5 381 5 C230 5 172 82 172 199 L172 655 L267 655 C266 655 266 656 267 657 C266 659 266 660 267 660 L172 660 L157 660 L142 660 L47 660 L47 657 L47 655 L142 655 L142 655 Z " />
<glyph glyph-name="uring" unicode="&#x16f;" horiz-adv-x="613" d="M297 541 C250 541 211 581 211 628 C211 679 245 714 297 714 C348 714 383 679 383 628 C383 581 343 541 297 541 L297 541 Z M203 628 C203 578 246 535 297 535 C347 535 390 578 390 628 C390 683 353 720 297 720 C240 720 203 683 203 628 L203 628 Z M109 495 L109 495 L110 156 C110 60 163 -5 267 -5 C267 -5 343 23 457 63 L457 16 L457 7 L457 0 L462 0 L579 33 L579 36 L484 23 L484 500 L470 500 L457 500 L362 500 L362 497 L362 495 L457 495 L457 66 C368 34 302 12 288 12 C188 12 136 70 136 158 L136 499 L123 499 L109 499 L15 499 L15 496 L15 494 L109 495 L109 495 Z " />
<glyph glyph-name="Wcircumflex" unicode="&#x174;" horiz-adv-x="913" d="M452 875 L565 694 L567 696 L460 897 C459 900 456 905 452 905 C447 905 444 900 443 897 L336 696 L339 694 L452 875 L452 875 Z M810 655 L626 -15 L633 -15 L819 655 L819 655 L914 655 L914 657 L914 660 L820 660 L816 660 L811 660 L687 660 L687 657 L687 655 L810 655 L810 655 Z M626 -15 L639 33 L456 670 L448 670 L282 31 L102 655 L211 655 L211 657 L211 660 L101 660 L84 660 L68 660 L-10 660 L-10 657 L-10 655 L69 655 L270 -15 L278 -15 L442 618 L626 -15 L626 -15 Z " />
<glyph glyph-name="Ycircumflex" unicode="&#x176;" horiz-adv-x="595" d="M516 655 L516 655 L315 264 L315 264 L317 268 L126 655 L233 655 C234 655 234 656 233 657 C234 659 234 660 233 660 L124 660 L106 660 L88 660 L16 660 L16 657 L16 655 L90 655 L90 655 L293 249 L293 5 L198 5 L198 3 L198 0 L293 0 L308 0 L323 0 L417 0 L417 3 L417 5 L323 5 L323 264 L525 655 L610 655 C609 655 609 656 610 657 C609 659 609 660 610 660 L528 660 L523 660 L519 660 L389 660 L389 657 L389 655 L516 655 L516 655 Z M308 875 L421 694 L423 696 L316 897 C315 900 312 905 308 905 C303 905 300 900 299 897 L192 696 L195 694 L308 875 L308 875 Z " />
<glyph glyph-name="Ydieresis" unicode="&#x178;" horiz-adv-x="595" d="M392 730 C404 730 412 738 412 750 C412 762 404 770 392 770 C380 770 372 762 372 750 C372 738 380 730 392 730 L392 730 Z M223 730 C235 730 243 738 243 750 C243 762 235 770 223 770 C211 770 203 762 203 750 C203 738 211 730 223 730 L223 730 Z M516 655 L516 655 L315 264 L315 264 L317 268 L126 655 L233 655 C234 655 234 656 233 657 C234 659 234 660 233 660 L124 660 L106 660 L88 660 L16 660 L16 657 L16 655 L90 655 L90 655 L293 249 L293 5 L198 5 L198 3 L198 0 L293 0 L308 0 L323 0 L417 0 L417 3 L417 5 L323 5 L323 264 L525 655 L610 655 C609 655 609 656 610 657 C609 659 609 660 610 660 L528 660 L523 660 L519 660 L389 660 L389 657 L389 655 L516 655 L516 655 Z " />
<glyph glyph-name="Zacute" unicode="&#x179;" horiz-adv-x="592" d="M329 691 L437 822 C463 855 481 878 481 879 C481 883 470 891 466 891 C465 891 448 868 423 833 L326 694 L329 691 L329 691 Z M517 4 C526 54 537 120 546 169 C546 169 545 169 545 170 C542 175 541 177 541 177 L498 8 L98 8 L524 660 L507 660 L490 660 L140 660 L140 656 L137 656 L138 660 L135 660 L132 660 C132 659 131 657 131 656 C120 613 104 556 93 513 L97 513 L152 652 L485 652 L60 0 L76 0 L93 0 L511 0 L514 0 L515 0 L516 0 C516 1 517 3 517 4 L517 4 Z " />
<glyph glyph-name="zacute" unicode="&#x17a;" horiz-adv-x="478" d="M175 531 L283 662 C309 695 327 718 327 719 C327 723 316 731 312 731 C310 731 294 708 269 673 L172 534 L175 531 L175 531 Z M423 3 C431 52 443 118 452 167 C452 167 451 168 451 169 C448 173 446 176 446 176 L403 6 L99 6 L429 500 L413 500 L397 500 L78 500 L78 497 L75 497 L76 500 L74 500 L71 500 C71 499 70 498 70 497 C61 463 49 418 40 384 L44 384 L91 494 L393 494 L63 0 L79 0 L95 0 L417 0 L419 0 L421 0 L422 0 C422 1 423 2 423 3 L423 3 Z " />
<glyph glyph-name="Zdot" unicode="&#x17b;" horiz-adv-x="592" d="M332 730 C344 730 352 738 352 750 C352 762 344 770 332 770 C320 770 312 762 312 750 C312 738 320 730 332 730 L332 730 Z M517 4 C526 54 537 120 546 169 C546 169 545 169 545 170 C542 175 541 177 541 177 L498 8 L98 8 L524 660 L507 660 L490 660 L140 660 L140 656 L137 656 L138 660 L135 660 L132 660 C132 659 131 657 131 656 C120 613 104 556 93 513 L97 513 L152 652 L485 652 L60 0 L76 0 L93 0 L511 0 L514 0 L515 0 L516 0 C516 1 517 3 517 4 L517 4 Z " />
<glyph glyph-name="zdot" unicode="&#x17c;" horiz-adv-x="478" d="M253 570 C265 570 273 578 273 590 C273 602 265 610 253 610 C241 610 233 602 233 590 C233 578 241 570 253 570 L253 570 Z M423 3 C431 52 443 118 452 167 C452 167 451 168 451 169 C448 173 446 176 446 176 L403 6 L99 6 L429 500 L413 500 L397 500 L78 500 L78 497 L75 497 L76 500 L74 500 L71 500 C71 499 70 498 70 497 C61 463 49 418 40 384 L44 384 L91 494 L393 494 L63 0 L79 0 L95 0 L417 0 L419 0 L421 0 L422 0 C422 1 423 2 423 3 L423 3 Z " />
<glyph glyph-name="Zcaron" unicode="&#x17d;" horiz-adv-x="592" d="M332 745 L445 926 L447 924 L340 723 C339 720 336 715 332 715 C327 715 324 720 323 723 L216 924 L219 926 L332 745 L332 745 Z M517 4 C526 54 537 120 546 169 C546 169 545 169 545 170 C542 175 541 177 541 177 L498 8 L98 8 L524 660 L507 660 L490 660 L140 660 L140 656 L137 656 L138 660 L135 660 L132 660 C132 659 131 657 131 656 C120 613 104 556 93 513 L97 513 L152 652 L485 652 L60 0 L76 0 L93 0 L511 0 L514 0 L515 0 L516 0 C516 1 517 3 517 4 L517 4 Z " />
<glyph glyph-name="zcaron" unicode="&#x17e;" horiz-adv-x="478" d="M253 585 L366 766 L369 764 L262 563 C261 560 258 555 253 555 C249 555 246 560 245 563 L138 764 L140 766 L253 585 L253 585 Z M423 3 C431 52 443 118 452 167 C452 167 451 168 451 169 C448 173 446 176 446 176 L403 6 L99 6 L429 500 L413 500 L397 500 L78 500 L78 497 L75 497 L76 500 L74 500 L71 500 C71 499 70 498 70 497 C61 463 49 418 40 384 L44 384 L91 494 L393 494 L63 0 L79 0 L95 0 L417 0 L419 0 L421 0 L422 0 C422 1 423 2 423 3 L423 3 Z " />
<glyph glyph-name="oogonek" unicode="&#x1eb;" horiz-adv-x="695" d="M708 -51 L705 -48 C676 -83 623 -106 573 -106 C493 -106 421 -65 359 -5 C548 -4 645 126 645 277 C645 429 547 558 357 558 C168 558 70 429 70 277 C70 127 166 -2 350 -5 C422 -75 498 -123 570 -123 C616 -123 671 -94 708 -51 L708 -51 Z M357 2 C187 2 99 128 99 277 C99 425 187 552 357 552 C528 552 616 425 616 277 C616 128 528 2 357 2 L357 2 Z " />
<glyph glyph-name="Adotabove" unicode="&#x226;" horiz-adv-x="628" d="M315 730 C327 730 335 738 335 750 C335 762 327 770 315 770 C303 770 295 762 295 750 C295 738 303 730 315 730 L315 730 Z M549 5 L548 5 L319 675 L311 675 L93 5 L-2 5 L-2 3 L-2 0 L91 0 L96 0 L101 0 L231 0 L231 3 L231 5 L103 5 L103 5 L178 238 L438 238 L516 5 L516 5 L390 5 L390 3 L390 0 L518 0 L534 0 L550 0 L630 0 L630 3 L630 5 L549 5 L549 5 Z M436 246 L181 246 L306 634 L436 246 L436 246 Z " />
<glyph glyph-name="G_sc" unicode="&#x262;" horiz-adv-x="777" d="M581 534 L581 534 L581 537 C509 550 420 558 358 558 C185 558 70 445 70 277 C70 108 185 -5 358 -5 C429 -5 521 20 587 59 L587 255 L682 255 L682 257 L682 260 L587 260 L575 260 L563 260 L468 260 L468 257 L468 255 L563 255 L563 53 C500 22 421 2 358 2 C203 2 99 112 99 277 C99 442 203 552 358 552 C411 552 489 545 558 534 C563 489 571 430 577 385 L579 385 L581 385 L581 534 L581 534 Z " />
<glyph glyph-name="I_sc" unicode="&#x26a;" horiz-adv-x="297" d="M257 553 C224 554 181 554 149 553 C116 554 73 554 41 553 L41 551 L41 548 L135 548 L135 5 L41 5 L41 3 L41 0 L135 0 L149 0 L162 0 L257 0 C256 0 256 1 257 3 C256 4 256 5 257 5 L162 5 L162 548 L257 548 C256 548 256 549 257 551 C256 552 256 553 256 553 L257 553 L257 553 Z M256 553 L256 553 L256 553 L256 553 Z " />
<glyph glyph-name="N_sc" unicode="&#x274;" horiz-adv-x="671" d="M526 548 L526 40 L164 553 L148 553 L144 553 C114 554 74 554 45 553 L45 551 L45 548 L140 548 L140 5 L45 5 L45 3 L45 0 L140 0 L144 0 L148 0 L242 0 L242 3 L242 5 L148 5 L148 530 L514 12 L525 -4 L534 -4 L534 22 L534 549 L629 549 L629 552 L629 554 C599 555 559 555 530 554 C501 555 461 555 431 554 L431 552 L431 549 L526 548 L526 548 Z " />
<glyph glyph-name="R_sc" unicode="&#x280;" horiz-adv-x="581" d="M582 0 L582 5 L577 5 C566 5 562 9 463 101 L283 268 C389 274 458 330 458 412 C458 497 388 553 283 553 L180 553 L166 553 C134 554 90 554 58 553 L58 551 L58 548 L153 548 L153 5 L58 5 L58 3 L58 0 L153 0 L166 0 L180 0 L274 0 C275 0 275 1 274 3 C275 4 275 5 274 5 L180 5 L180 267 L251 267 L426 106 C536 4 542 0 569 0 L582 0 L582 0 Z M262 273 L244 273 L180 273 L180 547 L283 547 C371 547 430 493 430 412 C430 329 363 273 262 273 L262 273 Z " />
<glyph glyph-name="Y_sc" unicode="&#x28f;" horiz-adv-x="534" d="M455 548 L455 548 L284 223 L123 548 L124 548 L231 548 L231 551 L231 553 C193 554 143 554 105 553 C79 554 44 554 17 553 L17 551 L17 548 L91 548 L92 548 L264 211 L264 5 L169 5 L169 3 L169 0 L264 0 L278 0 L291 0 L386 0 L386 3 L386 5 L291 5 L291 222 L463 548 L464 548 L548 548 L548 551 L548 553 C522 554 488 554 462 553 C422 554 369 554 329 553 L329 551 L329 548 L455 548 L455 548 Z " />
<glyph glyph-name="B_sc" unicode="&#x299;" horiz-adv-x="528" d="M299 299 C287 300 275 300 262 300 L180 298 L180 547 L283 547 C371 547 429 500 429 430 C429 360 378 310 299 298 L299 299 L299 299 Z M286 292 C404 284 480 230 480 151 C480 64 408 7 301 7 L180 7 L180 292 L262 292 C270 292 278 292 286 293 L286 292 L286 292 Z M318 297 C402 312 455 361 455 430 C455 504 386 553 282 553 L179 553 L165 553 C133 554 89 554 57 553 L57 551 L57 548 L152 548 L152 5 L57 5 L57 3 L57 0 L152 0 L165 0 L179 0 L303 0 C425 0 507 60 507 151 C507 228 434 283 318 296 L318 297 L318 297 Z " />
<glyph glyph-name="H_sc" unicode="&#x29c;" horiz-adv-x="738" d="M590 0 L603 0 L698 0 L698 3 L698 5 L603 5 L603 548 L698 548 L698 551 L698 553 C665 554 622 554 590 553 C558 554 514 554 482 553 L482 551 L482 548 L576 548 L576 296 L162 296 L162 548 L257 548 L257 551 L257 553 C224 554 181 554 149 553 C117 554 73 554 41 553 L41 551 L41 548 L135 548 L135 5 L41 5 L41 3 L41 0 L135 0 L149 0 L162 0 L257 0 L257 3 L257 5 L162 5 L162 289 L576 289 L576 5 L482 5 L482 3 L482 0 L576 0 L590 0 L590 0 Z " />
<glyph glyph-name="L_sc" unicode="&#x29f;" horiz-adv-x="544" d="M411 3 C420 53 432 118 440 168 L439 169 C437 174 435 176 435 176 L392 7 L162 7 L162 548 L257 548 L257 551 L257 553 C224 554 181 554 149 553 C117 554 73 554 41 553 L41 551 L41 548 L135 548 L135 5 L41 5 L41 3 L41 0 L135 0 L149 0 L162 0 L405 0 L408 0 L410 0 L411 0 L411 3 L411 3 Z " />
<glyph glyph-name="A_sc" unicode="&#x1d00;" horiz-adv-x="566" d="M102 5 L102 5 L166 199 L390 199 L457 5 L457 5 L332 5 L332 3 L332 0 L459 0 L474 0 L489 0 L568 0 L568 3 L568 5 L487 5 L288 566 L282 566 L94 5 L93 5 L-1 5 L-1 3 L-1 0 L92 0 L96 0 L100 0 L230 0 L230 3 L230 5 L102 5 L102 5 Z M388 206 L169 206 L277 530 L388 206 L388 206 Z " />
<glyph glyph-name="C_sc" unicode="&#x1d04;" horiz-adv-x="661" d="M578 20 L578 20 C508 10 427 3 368 3 C206 3 98 113 98 278 C98 443 206 553 368 553 C427 553 508 546 578 535 C583 490 591 431 597 386 L599 386 L601 386 L601 535 L601 535 L601 538 C529 551 436 559 369 559 C190 559 70 446 70 278 C70 109 190 -4 369 -4 C436 -4 529 4 601 17 L600 21 L601 21 L601 169 L599 169 L597 169 C591 125 583 65 578 21 L578 20 L578 20 Z " />
<glyph glyph-name="D_sc" unicode="&#x1d05;" horiz-adv-x="626" d="M166 0 L180 0 L302 0 C466 0 576 111 576 277 C576 442 454 553 271 553 L180 553 L166 553 C134 554 90 554 58 553 L58 551 L58 548 L153 548 L153 5 L58 5 L58 3 L58 0 L153 0 L166 0 L166 0 Z M180 7 L180 547 L271 547 C438 547 549 439 549 277 C549 115 450 7 302 7 L180 7 L180 7 Z " />
<glyph glyph-name="E_sc" unicode="&#x1d07;" horiz-adv-x="544" d="M411 3 C420 51 431 114 439 161 L435 161 L392 7 L162 7 L162 292 L332 292 L340 187 L344 187 L345 187 L345 292 L345 295 L345 298 L345 393 L344 393 L340 393 L332 298 L162 298 L162 547 L383 547 L399 392 L402 392 L403 392 L403 550 L403 553 C403 554 402 554 400 553 C400 554 399 554 397 553 L162 553 L149 553 C117 554 73 554 41 553 L41 551 L41 548 L135 548 L135 5 L41 5 L41 3 L41 0 L135 0 L149 0 L162 0 L405 0 L408 0 L410 0 L411 0 L411 3 L411 3 Z " />
<glyph glyph-name="J_sc" unicode="&#x1d0a;" horiz-adv-x="305" d="M144 548 L144 168 C144 43 124 -5 71 -5 C50 -5 31 17 23 50 C21 57 16 61 11 61 C2 61 -2 57 0 50 C9 14 35 -10 65 -10 C141 -10 171 46 171 190 L171 548 L266 548 L266 551 L266 553 C233 554 190 554 158 553 C126 554 82 554 50 553 L50 551 L50 548 L144 548 L144 548 Z " />
<glyph glyph-name="K_sc" unicode="&#x1d0b;" horiz-adv-x="583" d="M466 548 L466 548 L200 316 L200 316 L180 298 L180 548 L274 548 C275 548 275 549 274 551 C275 552 275 554 274 553 C242 554 199 554 166 553 C134 554 90 554 58 553 L58 551 L58 548 L153 548 L153 5 L58 5 L58 3 L58 0 L153 0 L166 0 L180 0 L274 0 C275 0 275 1 274 3 C275 4 275 5 274 5 L180 5 L180 298 L184 292 L185 293 L292 192 C443 50 518 -5 560 -5 L573 -5 L573 0 L568 0 C545 0 473 59 313 210 L205 311 L474 548 L568 548 C569 548 569 549 568 551 C569 552 569 554 568 553 C540 554 503 554 476 553 C446 554 407 554 377 553 L377 551 L377 548 L466 548 L466 548 Z " />
<glyph glyph-name="M_sc" unicode="&#x1d0d;" horiz-adv-x="777" d="M657 0 L671 0 L765 0 L765 3 L765 5 L671 5 L642 548 L736 548 L736 551 L736 553 C704 554 662 554 629 553 L627 553 L617 553 L406 27 L405 31 L183 553 L170 553 L166 553 C136 554 97 554 67 553 L67 551 L67 548 L162 548 L137 5 L137 5 L43 5 L43 3 L43 0 L137 0 L141 0 L145 0 L275 0 L275 3 L275 5 L145 5 L168 520 L386 11 L393 -5 L400 -5 L618 531 L645 5 L644 5 L550 5 L550 3 L550 0 L645 0 L657 0 L657 0 Z " />
<glyph glyph-name="O_sc" unicode="&#x1d0f;" horiz-adv-x="695" d="M357 2 C187 2 99 128 99 277 C99 425 187 552 357 552 C528 552 616 425 616 277 C616 128 528 2 357 2 L357 2 Z M70 277 C70 125 168 -5 357 -5 C547 -5 645 125 645 277 C645 429 547 558 357 558 C168 558 70 429 70 277 L70 277 Z " />
<glyph glyph-name="P_sc" unicode="&#x1d18;" horiz-adv-x="510" d="M166 0 L180 0 L274 0 C275 0 275 1 274 3 C275 4 275 5 274 5 L180 5 L180 252 L273 252 C403 252 490 311 490 400 C490 492 413 553 296 553 L180 553 L166 553 C134 554 90 554 58 553 L58 551 L58 548 L153 548 L153 5 L58 5 L58 3 L58 0 L153 0 L166 0 L166 0 Z M180 258 L180 547 L296 547 C396 547 462 488 462 400 C462 315 386 258 273 258 L180 258 L180 258 Z " />
<glyph glyph-name="T_sc" unicode="&#x1d1b;" horiz-adv-x="556" d="M517 553 L518 550 L516 550 L516 553 L40 553 L40 550 L39 550 L39 553 C38 554 37 554 36 553 C35 554 34 554 33 553 L33 550 C29 498 23 429 18 377 L22 377 L54 547 L265 547 L265 5 L170 5 L170 3 L170 0 L265 0 L278 0 L292 0 L386 0 L386 3 L386 5 L292 5 L292 547 L502 547 L534 377 L538 377 C534 429 527 498 523 550 L523 553 C523 554 522 554 520 553 C519 554 518 554 517 553 L517 553 Z " />
<glyph glyph-name="U_sc" unicode="&#x1d1c;" horiz-adv-x="670" d="M143 548 L143 170 C143 65 200 -5 347 -5 C488 -5 543 55 543 145 L543 548 L648 548 L648 551 L648 553 C615 554 572 554 539 553 C505 554 459 554 425 553 L425 551 L425 548 L535 548 L535 148 C535 61 483 4 351 4 C221 4 170 68 170 165 L170 548 L264 548 C265 548 265 549 264 551 C265 552 265 554 264 553 C232 554 189 554 156 553 C124 554 80 554 48 553 L48 551 L48 548 L143 548 L143 548 Z " />
<glyph glyph-name="V_sc" unicode="&#x1d20;" horiz-adv-x="571" d="M475 548 L475 548 L305 -15 L312 -15 L483 548 L578 548 C577 548 577 549 578 551 C577 552 577 553 577 553 C548 554 509 554 480 553 C437 554 379 554 336 553 L336 551 L336 548 L475 548 L475 548 Z M576 553 L576 553 L576 553 L576 553 Z M89 548 L304 -15 L314 20 L118 548 L118 548 L236 548 L236 551 L236 553 C196 554 142 554 102 553 C74 554 37 554 9 553 L9 551 L9 548 L89 548 L89 548 Z " />
<glyph glyph-name="W_sc" unicode="&#x1d21;" horiz-adv-x="793" d="M690 548 L691 548 L547 25 L394 563 L387 563 L249 23 L100 548 L208 548 L208 551 L208 553 C171 554 121 554 84 553 C56 554 19 554 -9 553 L-9 551 L-9 548 L71 548 L240 -15 L247 -15 L384 521 L537 -15 L544 -15 L700 548 L794 548 L794 551 L794 553 C765 554 726 554 697 553 C658 554 607 554 568 553 L568 551 L568 548 L690 548 L690 548 Z " />
<glyph glyph-name="Z_sc" unicode="&#x1d22;" horiz-adv-x="534" d="M459 4 C468 53 480 119 488 168 C488 168 488 169 487 170 C485 174 483 177 483 177 L440 7 L96 7 L465 553 L450 553 L435 553 L140 553 L140 550 L138 550 L139 553 C139 554 138 554 137 553 C135 554 134 554 134 553 C134 552 134 551 133 550 C122 507 106 450 95 407 L99 407 L154 547 L431 547 L60 0 L76 0 L91 0 L453 0 L456 0 L458 0 L459 0 L459 4 L459 4 Z " />
<glyph glyph-name="Wgrave" unicode="&#x1e80;" horiz-adv-x="913" d="M429 833 C405 868 388 891 385 891 C381 891 370 883 370 879 C370 876 388 854 415 822 L526 691 L529 694 L429 833 L429 833 Z M810 655 L626 -15 L633 -15 L819 655 L819 655 L914 655 L914 657 L914 660 L820 660 L816 660 L811 660 L687 660 L687 657 L687 655 L810 655 L810 655 Z M626 -15 L639 33 L456 670 L448 670 L282 31 L102 655 L211 655 L211 657 L211 660 L101 660 L84 660 L68 660 L-10 660 L-10 657 L-10 655 L69 655 L270 -15 L278 -15 L442 618 L626 -15 L626 -15 Z " />
<glyph glyph-name="Wacute" unicode="&#x1e82;" horiz-adv-x="913" d="M389 691 L496 822 C523 855 540 878 541 879 C541 883 530 891 525 891 C524 891 507 868 483 833 L386 694 L389 691 L389 691 Z M810 655 L626 -15 L633 -15 L819 655 L819 655 L914 655 L914 657 L914 660 L820 660 L816 660 L811 660 L687 660 L687 657 L687 655 L810 655 L810 655 Z M626 -15 L639 33 L456 670 L448 670 L282 31 L102 655 L211 655 L211 657 L211 660 L101 660 L84 660 L68 660 L-10 660 L-10 657 L-10 655 L69 655 L270 -15 L278 -15 L442 618 L626 -15 L626 -15 Z " />
<glyph glyph-name="Wdieresis" unicode="&#x1e84;" horiz-adv-x="913" d="M536 730 C548 730 556 738 556 750 C556 762 548 770 536 770 C524 770 516 762 516 750 C516 738 524 730 536 730 L536 730 Z M367 730 C379 730 387 738 387 750 C387 762 379 770 367 770 C355 770 347 762 347 750 C347 738 355 730 367 730 L367 730 Z M810 655 L626 -15 L633 -15 L819 655 L819 655 L914 655 L914 657 L914 660 L820 660 L816 660 L811 660 L687 660 L687 657 L687 655 L810 655 L810 655 Z M626 -15 L639 33 L456 670 L448 670 L282 31 L102 655 L211 655 L211 657 L211 660 L101 660 L84 660 L68 660 L-10 660 L-10 657 L-10 655 L69 655 L270 -15 L278 -15 L442 618 L626 -15 L626 -15 Z " />
<glyph glyph-name="Etilde" unicode="&#x1ebc;" horiz-adv-x="590" d="M151 755 C151 798 169 826 197 826 C257 826 316 763 376 763 C411 763 434 794 434 841 L429 841 C429 805 410 781 382 781 C321 781 263 843 203 843 C169 843 146 808 146 755 L151 755 L151 755 Z M457 4 C466 51 477 115 485 162 L481 162 L438 8 L165 8 L165 348 L378 348 L386 244 L390 244 L391 244 L391 348 L391 352 L391 356 L391 450 L390 450 L386 450 L378 356 L165 356 L165 652 L430 652 L445 498 L449 498 L449 656 L449 660 L447 660 L446 660 L444 660 L165 660 L150 660 L135 660 L40 660 L40 657 L40 655 L135 655 L135 5 L40 5 L40 3 L40 0 L135 0 L150 0 L165 0 L451 0 L454 0 L456 0 L457 0 L457 4 L457 4 Z " />
<glyph glyph-name="Ygrave" unicode="&#x1ef2;" horiz-adv-x="595" d="M516 655 L516 655 L315 264 L315 264 L317 268 L126 655 L233 655 C234 655 234 656 233 657 C234 659 234 660 233 660 L124 660 L106 660 L88 660 L16 660 L16 657 L16 655 L90 655 L90 655 L293 249 L293 5 L198 5 L198 3 L198 0 L293 0 L308 0 L323 0 L417 0 L417 3 L417 5 L323 5 L323 264 L525 655 L610 655 C609 655 609 656 610 657 C609 659 609 660 610 660 L528 660 L523 660 L519 660 L389 660 L389 657 L389 655 L516 655 L516 655 Z M285 833 C261 868 244 891 241 891 C237 891 226 883 226 879 C226 876 244 854 271 822 L382 691 L385 694 L285 833 L285 833 Z " />
<glyph glyph-name="quoteleft" unicode="&#x2018;" horiz-adv-x="152" d="M80 602 C78 602 76 602 74 602 C73 606 73 611 73 616 C73 638 81 657 94 663 L92 667 C71 657 57 631 57 603 C57 593 58 584 60 578 C62 570 69 565 79 565 C90 565 98 573 98 584 C98 596 90 604 79 604 L80 602 L80 602 Z " />
<glyph glyph-name="quoteright" unicode="&#x2019;" horiz-adv-x="152" d="M80 626 C82 626 84 626 86 626 C87 622 87 617 87 612 C87 590 79 571 66 565 L68 561 C89 571 103 597 103 625 C103 635 101 645 98 652 C95 659 88 663 80 663 C68 663 60 655 60 643 C60 632 68 624 80 624 L80 626 L80 626 Z " />
<glyph glyph-name="quotedblleft" unicode="&#x201c;" horiz-adv-x="209" d="M137 602 C135 602 133 602 131 601 C130 605 130 610 130 615 C130 637 138 656 151 662 L149 666 C128 656 114 630 114 602 C114 590 116 579 120 573 C123 567 129 563 137 563 C149 563 157 571 156 582 C157 594 149 602 137 602 L137 602 Z M80 602 C78 602 76 602 74 602 C73 606 73 611 73 616 C73 638 81 657 94 663 L92 667 C71 657 57 631 57 603 C57 593 58 584 60 578 C62 570 69 565 79 565 C90 565 98 573 98 584 C98 596 90 604 79 604 L80 602 L80 602 Z " />
<glyph glyph-name="quotedblright" unicode="&#x201d;" horiz-adv-x="209" d="M137 626 C139 626 141 626 143 627 C144 623 144 618 144 613 C144 591 136 572 123 566 L125 562 C146 572 160 598 160 626 C160 639 157 652 153 658 C150 663 144 666 137 666 C125 666 117 658 117 646 C117 635 125 627 137 627 L137 626 L137 626 Z M80 627 C82 627 84 627 86 627 C87 623 87 618 87 613 C87 591 79 572 66 566 L68 562 C89 572 103 598 103 626 C103 636 101 646 98 653 C95 660 88 664 80 664 C68 664 60 656 60 644 C60 633 68 625 80 625 L80 627 L80 627 Z " />
<glyph glyph-name="ellipsis" unicode="&#x2026;" horiz-adv-x="420" d="M350 0 C362 0 370 8 370 20 C370 32 362 40 350 40 C338 40 330 32 330 20 C330 8 338 0 350 0 L350 0 Z M210 0 C222 0 230 8 230 20 C230 32 222 40 210 40 C198 40 190 32 190 20 C190 8 198 0 210 0 L210 0 Z M70 0 C82 0 90 8 90 20 C90 32 82 40 70 40 C58 40 50 32 50 20 C50 8 58 0 70 0 L70 0 Z " />
<glyph glyph-name="guilsinglleft" unicode="&#x2039;" horiz-adv-x="284" d="M49 251 L239 461 L236 464 L20 252 L20 249 L237 37 L240 40 L49 251 L49 251 Z " />
<glyph glyph-name="guilsinglright" unicode="&#x203a;" horiz-adv-x="284" d="M235 251 L46 461 L49 464 L265 252 L265 249 L48 37 L45 40 L235 251 L235 251 Z " />
<glyph glyph-name="Euro" unicode="&#x20ac;" horiz-adv-x="653" d="M47 288 L102 288 C117 110 224 -5 378 -5 C429 -5 515 25 593 70 L591 74 L591 74 L593 70 L593 222 L591 222 L589 222 C583 175 575 113 570 67 L570 67 C498 29 423 4 378 4 C242 4 148 116 134 289 L418 289 L420 309 L133 309 C133 317 133 325 133 333 C133 341 133 349 133 357 L420 357 L423 376 L134 376 C148 545 242 656 378 656 C427 656 501 633 569 598 L569 598 C574 552 582 490 588 443 L590 443 L592 443 L592 595 L590 591 L590 591 L592 595 C520 637 433 665 377 665 C223 665 116 551 101 377 L52 377 L49 358 L100 358 C100 350 100 342 100 334 C100 326 100 318 100 310 L49 310 L47 288 L47 288 Z " />
<glyph glyph-name="F_sc" unicode="&#xa730;" horiz-adv-x="439" d="M433 550 L433 553 C433 554 432 554 430 553 C430 554 429 554 427 553 L162 553 L149 553 C117 554 73 554 41 553 L41 551 L41 548 L135 548 L135 5 L41 5 L41 3 L41 0 L135 0 L149 0 L162 0 L267 0 L267 3 L267 5 L162 5 L162 288 L322 288 L330 183 L334 183 L335 183 L335 288 L335 291 L335 294 L335 389 L334 389 L330 389 L322 294 L162 294 L162 547 L413 547 L429 392 L432 392 L433 392 L433 550 L433 550 Z " />
<glyph glyph-name="S_sc" unicode="&#xa731;" horiz-adv-x="437" d="M45 10 L45 10 L45 6 C81 -1 160 -5 242 -5 C333 -5 393 51 393 135 C393 197 327 257 229 287 C136 314 75 367 75 421 C75 499 126 552 203 552 C245 552 296 548 339 541 C344 497 352 437 358 393 L360 393 L362 393 L362 547 C326 553 263 557 205 557 C116 557 57 498 57 409 C57 350 118 292 210 266 C308 237 374 179 374 123 C374 50 322 1 243 1 C181 1 115 5 69 11 L69 11 C64 55 56 114 50 159 L48 159 L46 159 L45 10 L45 10 Z " />
<glyph glyph-name="X_sc" unicode="&#xf078;" horiz-adv-x="567" d="M463 548 L464 548 L301 298 L141 548 L257 548 L257 551 L257 553 C217 554 163 554 122 553 C96 554 61 554 36 553 L36 551 L36 548 L110 548 L110 548 L287 273 L136 5 L41 5 L41 3 L41 0 L133 0 L137 0 L141 0 L271 0 L271 3 L271 5 L144 5 L144 5 L291 267 L459 5 L458 5 L342 5 L342 3 L342 0 L462 0 L477 0 L493 0 L564 0 L564 3 L564 5 L490 5 L305 293 L305 293 L473 548 L473 548 L567 548 L567 551 L567 553 C539 554 500 554 472 553 C432 554 378 554 338 553 L338 551 L338 548 L463 548 L463 548 Z " />
</font>
</svg>
