<?xml version="1.0" encoding="UTF-8"?>
<svg xmlns="http://www.w3.org/2000/svg" xmlns:xlink="http://www.w3.org/1999/xlink" version="1.2" >
<font id="Karoll Bold Round">
<font-face  font-family="Karoll" units-per-em="1024" ascent="975" descent="-300" font-style="normal" font-weight="700" font-stretch="normal" cap-height="924" x-height="488" underline-position="-125" underline-thickness="50" />
<missing-glyph  horiz-adv-x="100" d="" />
<glyph glyph-name="NULL" d="" />
<glyph glyph-name="CR" unicode="&#xd;" horiz-adv-x="256" d="" />
<glyph glyph-name="space" unicode="&#x20;" horiz-adv-x="248" d="" />
<glyph glyph-name="exclam" unicode="&#x21;" horiz-adv-x="283" d="M149 -10 C197 -10 229 22 229 70 C229 118 197 150 149 150 C101 150 69 118 69 70 C69 22 101 -10 149 -10 L149 -10 Z M88.7543 591.558 L133.224 243.887 C134.196 236.284 141.335 230 149 230 C156.665 230 163.804 236.284 164.776 243.887 L209.246 591.558 C214.039 629.03 186.778 660 149 660 C111.222 660 83.9612 629.03 88.7543 591.558 L88.7543 591.558 Z " />
<glyph glyph-name="quotedbl" unicode="&#x22;" horiz-adv-x="528" d="M331.649 676.753 L366.156 504.218 C367.695 496.523 375.652 490 383.5 490 C391.348 490 399.305 496.523 400.844 504.218 L435.351 676.753 C442.197 710.985 418.411 740 383.5 740 C348.589 740 324.803 710.985 331.649 676.753 L331.649 676.753 Z M92.6495 676.753 L127.156 504.218 C128.695 496.523 136.652 490 144.5 490 C152.348 490 160.305 496.523 161.844 504.218 L196.351 676.753 C203.197 710.985 179.411 740 144.5 740 C109.589 740 85.8029 710.985 92.6495 676.753 L92.6495 676.753 Z " />
<glyph glyph-name="numbersign" unicode="&#x23;" horiz-adv-x="498" d="M131.921 340.731 L120.931 303.182 C114.081 279.777 86.3518 259 61.9649 259 L34 259 C15.233 259 0 243.767 0 225 C0 206.233 15.233 191 34 191 L44.5 191 C68.0705 191 83.1115 170.916 76.4799 148.298 L43.1286 34.5458 C37.7638 16.2478 49.9318 0 69 0 C88.0682 0 109.764 16.2478 115.129 34.5458 L148.054 146.846 C154.911 170.233 182.641 191 207.013 191 L209 191 C234.424 191 250.648 169.336 243.495 144.939 L211.129 34.5458 C205.764 16.2478 217.932 0 237 0 C256.068 0 277.764 16.2478 283.129 34.5458 L316.054 146.846 C322.911 170.233 350.641 191 375.013 191 L406 191 C424.767 191 440 206.233 440 225 C440 243.767 424.767 259 406 259 L394 259 C369.632 259 354.076 279.761 360.921 303.148 L371.069 337.818 C377.919 361.223 405.648 382 430.035 382 L464 382 C482.767 382 498 397.233 498 416 C498 434.767 482.767 450 464 450 L451 450 C426.087 450 410.161 471.21 417.11 495.134 L454.958 625.429 C460.281 643.754 448.082 660 429 660 C409.918 660 388.281 643.754 382.958 625.429 L344.869 494.302 C338.047 470.819 310.32 450 285.867 450 L284 450 C258.557 450 242.292 471.662 249.389 496.095 L286.958 625.429 C292.281 643.754 280.082 660 261 660 C241.918 660 220.281 643.754 214.958 625.429 L176.869 494.302 C170.047 470.819 142.32 450 117.867 450 L92 450 C73.233 450 58 434.767 58 416 C58 397.233 73.233 382 92 382 L101 382 C123.779 382 138.32 362.593 131.921 340.731 L131.921 340.731 Z M262.035 382 L264 382 C289.428 382 305.66 360.337 298.517 335.933 L288.931 303.182 C282.081 279.777 254.352 259 229.965 259 L228 259 C202.572 259 186.34 280.663 193.483 305.067 L203.069 337.818 C209.919 361.223 237.648 382 262.035 382 L262.035 382 Z " />
<glyph glyph-name="dollar" unicode="&#x24;" horiz-adv-x="508" d="M284 710.996 L284 676.519 C284 673.021 280.617 670.262 277.123 670.436 C268.732 670.855 260.414 670.855 252.441 670.436 C249.227 670.267 246 672.803 246 676.021 L246 712 C246 728.007 233.007 741 217 741 C200.993 741 188 728.007 188 712 L188 700.5 C188 683.688 167.523 653.832 152.367 646.557 C89.2925 616.283 51 558.95 51 485 C51 408.875 86.2188 355.719 155.986 313.473 C169.97 305.005 188 274.188 188 257.841 L188 85.4629 C188 78.5439 182.83 75.0385 177.613 79.5827 C161.126 93.9416 152 114.865 152 140 L152 167 C151 167 147 171 147 171 C147 171 147.941 171 144.172 171 L87 171 C64 171 48 159 48 140 C48 76.25 87.015 27.6725 151.534 4.70763 C167.129 -0.843296 188 -25.9464 188 -42.5 L188 -51 C188 -67.0071 200.993 -80 217 -80 C233.007 -80 246 -67.0071 246 -51 L246 -16.5 C246 -13.0098 249.388 -10.0015 252.877 -9.90657 C261.268 -9.6782 269.586 -9.03114 277.559 -7.9654 C280.752 -7.53863 284 -9.86169 284 -13.0828 L284 -51 C284 -67.0071 296.993 -80 313 -80 C329.007 -80 342 -67.0071 342 -51 L342 -31.462 C342 -16.8949 365.513 18.7607 377.661 26.7987 C429.372 61.0125 460 116.7 460 186 C460 245.5 429.375 304.234 369.465 350.814 C359.125 358.853 342 390.864 342 403.961 L342 511.798 C342 513.178 343.422 513.862 344.5 513 C345.362 512.31 349.098 511 350.202 511 L406 511 C429 511 445 523 445 541 C445 588.025 418.456 625.521 373.228 647.312 C360.879 653.262 342 678.534 342 692.242 L342 709.996 C342 726.003 329.005 739.224 313 739.5 C296.995 739.776 284 727.003 284 710.996 L284 710.996 Z M246 442.708 L246 592.481 C246 596.271 249.165 599.255 252.954 599.348 C261.513 599.559 270.196 599.005 277.918 597.96 C281.09 597.53 284 594.611 284 591.41 L284 421.708 C284 411.221 274.179 405.427 265 410.5 C255.821 415.573 246 432.221 246 442.708 L246 442.708 Z M183.486 496.034 C178.007 514.257 177.184 535.61 182.94 553.365 C184.095 556.925 188 555.533 188 551.79 L188 497.2 C188 494.087 184.383 493.052 183.486 496.034 L183.486 496.034 Z M252.229 260.397 C261.803 254.781 270.814 249.092 278.918 242.986 C281.551 241.002 284 235.19 284 231.894 L284 67.7009 C284 64.4818 281.136 61.2145 277.995 60.5107 C270.441 58.818 262.123 57.618 253.313 57.1814 C249.263 56.9807 246 59.945 246 64 L246 255.938 C246 259.827 248.875 262.364 252.229 260.397 L252.229 260.397 Z M344.826 161.223 C348.081 148.617 348.172 135.383 345.415 122.777 C345.037 121.047 342.862 121.714 342.831 123.485 L342.172 160.345 C342.139 162.22 344.358 163.039 344.826 161.223 L344.826 161.223 Z " />
<glyph glyph-name="ampersand" unicode="&#x26;" horiz-adv-x="696" d="M500.044 445.331 L519.307 424.075 C523.587 419.352 522.697 418.205 527.705 422.148 C539.859 431.719 559 470 559 470 C559 470 540.584 470 531.049 470 L503 470 C498.032 470 494 465.968 494 461 C494 457.664 497.804 447.803 500.044 445.331 L500.044 445.331 Z M742.96 20.9219 L666.436 45.6572 C663.198 46.7037 645.264 57.4177 642.808 59.7727 L534.798 163.344 C520.734 176.83 517.731 209.103 526.615 226.445 C553.283 278.506 578.4 337.65 604.254 402.733 C608.71 413.949 630.851 435.284 642.3 439.1 L672.462 449.154 C676.933 450.644 681 456.287 681 461 C681 465.968 676.968 470 672 470 L600.767 470 C579.404 470 550.962 449.656 543.056 429.809 C518.633 368.498 495.876 312.944 473.413 264.863 C465.28 247.454 447.071 246.489 433.232 259.82 L330.663 358.613 C313.623 375.025 317.561 404.007 337.053 417.416 C396.607 458.386 432 503.575 432 544 C432 620 366 670 267 670 C153 670 77 605 77 508 C77 456.85 96.7381 414.548 130.599 372.672 C140.873 359.966 137.517 338.28 123.275 330.272 C38.63 282.68 20 231.2 20 170 C20 61 96 -11 210 -11 C289.2 -11 350.704 12.8219 402.372 55.9735 C418.141 69.1424 450.077 71.1202 465.154 57.1658 L510.336 15.3489 C516.959 9.21925 543.045 -1 552.069 -1 L742.5 -1 C747.744 -1 752 3.25628 752 8.5 C752 13.4895 747.708 19.3873 742.96 20.9219 L742.96 20.9219 Z M199 301 L208 293 L372.255 142.282 C383.128 132.305 383.851 118.574 372.908 108.673 C345.566 83.9319 315.825 71 282 71 C204 71 152 125 152 205 C152 243.7 157.67 275.92 181.403 300.931 C186.529 306.333 193.434 305.947 199 301 L199 301 Z M239.826 446.957 C216.293 473.167 202 498 202 531 C202 579 224 611 256 611 C287 611 308 581 308 536 C308 504.65 295.068 473.3 272.012 446.442 C262.515 435.38 249.566 436.108 239.826 446.957 L239.826 446.957 Z " />
<glyph glyph-name="quotesingle" unicode="&#x27;" horiz-adv-x="289" d="M92.6495 676.753 L127.156 504.218 C128.695 496.523 136.652 490 144.5 490 C152.348 490 160.305 496.523 161.844 504.218 L196.351 676.753 C203.197 710.985 179.411 740 144.5 740 C109.589 740 85.8029 710.985 92.6495 676.753 L92.6495 676.753 Z " />
<glyph glyph-name="parenleft" unicode="&#x28;" horiz-adv-x="303" d="M252.703 731.342 C132.853 618.359 53 488.05 53 295 C53 101.95 132.852 -28.3587 252.703 -141.342 C257.751 -146.102 273.062 -150 280 -150 C286.62 -150 289.547 -142.076 284.871 -137.39 C203.15 -55.5025 149 66.05 149 295 C149 523.95 203.15 645.503 284.871 727.39 C289.547 732.076 286.62 740 280 740 C273.062 740 257.751 736.102 252.703 731.342 L252.703 731.342 Z " />
<glyph glyph-name="parenright" unicode="&#x29;" horiz-adv-x="303" d="M64.2975 -141.342 C184.147 -28.3588 264 101.95 264 295 C264 488.05 184.148 618.359 64.2975 731.342 C59.2491 736.102 43.938 740 37 740 C30.3805 740 27.4527 732.076 32.1286 727.39 C113.85 645.502 168 523.95 168 295 C168 66.05 113.85 -55.5025 32.1286 -137.39 C27.4527 -142.076 30.3805 -150 37 -150 C43.938 -150 59.2491 -146.102 64.2975 -141.342 L64.2975 -141.342 Z " />
<glyph glyph-name="plus" unicode="&#x2b;" horiz-adv-x="510" d="M218 445 L218 369.44 C218 335.527 190.473 308 156.56 308 L76 308 C56.1291 308 40 291.871 40 272 C40 252.129 56.1291 236 76 236 L156.56 236 C190.473 236 218 208.473 218 174.56 L218 89 C218 68.5771 234.577 52 255 52 C275.423 52 292 68.5771 292 89 L292 174.56 C292 208.473 319.527 236 353.44 236 L434 236 C453.871 236 470 252.129 470 272 C470 291.871 453.871 308 434 308 L353.44 308 C319.527 308 292 335.527 292 369.44 L292 445 C292 465.423 275.423 482 255 482 C234.577 482 218 465.423 218 445 L218 445 Z " />
<glyph glyph-name="comma" unicode="&#x2c;" horiz-adv-x="269" d="M90 0 C124 -16 147 -52 147 -90 C147 -120.6 118.65 -153.63 75.072 -174.51 C69.1038 -177.37 60 -188.882 60 -195.5 C60 -203.176 66.9875 -207.284 74.0134 -204.192 C161.24 -165.802 219 -97.45 219 -30 C219 35 189 92 143 113 C110 130 101 129 81 97 L47.4851 40.8399 C46.0571 38.447 45.1805 31.1633 46 28.5 C46.784 25.9519 51.6627 20.0814 54.0243 18.8444 L90 0 L90 0 Z " />
<glyph glyph-name="hyphen" unicode="&#x2d;" horiz-adv-x="375" d="M100 202 L275 202 C302.599 202 325 224.402 325 252 C325 279.599 302.599 302 275 302 L100 302 C72.4015 302 50 279.599 50 252 C50 224.402 72.4015 202 100 202 L100 202 Z " />
<glyph glyph-name="period" unicode="&#x2e;" horiz-adv-x="290" d="M145 -10 C193 -10 225 22 225 70 C225 118 193 150 145 150 C97 150 65 118 65 70 C65 22 97 -10 145 -10 L145 -10 Z " />
<glyph glyph-name="slash" unicode="&#x2f;" horiz-adv-x="272" d="M36 -120 C55.3658 -120 75.7267 -103.789 80.0655 -84.9151 L263.935 714.915 C268.273 733.789 255.366 750 236 750 C216.634 750 196.273 733.789 191.935 714.915 L8.06549 -84.9151 C3.72675 -103.789 16.6342 -120 36 -120 L36 -120 Z " />
<glyph glyph-name="zero" unicode="0" horiz-adv-x="536" d="M170 371 C170 510 199 602 243 602 C322 602 375 478 375 292 C375 153 341 60 291 60 C218 60 170 184 170 371 L170 371 Z M33 327 C33 125 127 -10 268 -10 C409 -10 503 130 503 339 C503 538 409 670 268 670 C127 670 33 533 33 327 L33 327 Z " />
<glyph glyph-name="one" unicode="1" horiz-adv-x="536" d="M431 9 C431 13.4569 426.924 20.0066 422.925 21.9752 L398.5 34 C382.406 41.9234 366 68.286 366 86.225 L366 645.5 C366 653.504 359.504 660 351.5 660 C347.742 660 327.516 654.956 324.198 653.191 L92.0725 529.739 C81.3158 524.018 70 505.183 70 493 C70 480.073 81.3099 472.225 93.4193 476.749 L161.059 502.016 C203.945 518.037 244 490.242 244 444.461 L244 86.225 C244 68.286 227.594 41.9234 211.5 34 L187.075 21.9752 C183.076 20.0066 179 13.4569 179 9 C179 4.03227 183.032 0 188 0 L422 0 C426.968 0 431 4.03227 431 9 L431 9 Z " />
<glyph glyph-name="two" unicode="2" horiz-adv-x="480" d="M456.3 61.799 C459.899 95.6693 463.479 139.543 466.309 174.467 C466.686 179.128 463.176 183 458.5 183 C454.477 183 447.697 179.161 445.627 175.711 L428.898 147.829 C420.426 133.711 392.678 118 376.213 118 L315.5 118 C276.707 118 253.102 154.139 279.078 182.951 C406.172 323.922 459 395.125 459 487 C459 597 387 670 278 670 C136 670 41 601 41 497 C41 461 64 437 99 437 L162.464 437 C163.844 437 167.524 438.524 168.5 439.5 C169.476 440.476 171 444.156 171 445.536 L171 481 C171 501.849 191.052 525.04 170.832 519.958 C167.152 519.033 103.968 503.236 61.5774 498.397 C59.7017 498.183 58.3428 500.068 60.2018 500.397 L146.875 515.732 C157.039 517.53 171.252 534.034 173.233 544.164 C180.148 579.539 202.65 602 234 602 C285 602 319 555 319 484 C319 306.55 247.703 252.681 64.3276 51.7508 C59.7903 46.7792 50 24.7308 50 18 C50 8.06454 58.0645 0 68 0 L426.5 0 C442.783 0 456 13.2169 456 29.5 L456 55.6886 C456 55.8785 456.28 61.6101 456.3 61.799 L456.3 61.799 Z " />
<glyph glyph-name="three" unicode="3" horiz-adv-x="509" d="M162 120 L162 151.222 C162 154.258 158.647 162.353 156.5 164.5 C154.353 166.647 146.258 170 143.222 170 L94.6164 170 C92.1941 170 85.1552 170.862 82.906 169.963 C80.4819 168.994 32 149.25 32 120 C32 42 118 -10 246 -10 C390 -10 486 64 486 175 C486 261.7 444.818 320.223 364.295 349.953 C353.592 353.905 351.387 375.022 361.635 380.035 C423.691 410.39 455 457.25 455 515 C455 609 381 671 269 671 C139 671 53 612 53 524 C53 494 110 474 110 474 C110 474 86.5531 474 120.466 474 L162.222 474 C165.258 474 173.353 477.353 175.5 479.5 C177.647 481.647 181 489.742 181 492.778 L181 540 C181 580 204 606 239 606 C285 606 316 565 316 503 C316 432 271 382 183 373 C182.868 372.987 180.974 372.987 180.842 372.985 C172.877 372.877 164.338 372.195 155.711 371.426 C152.682 371.155 151 368.519 151 365.477 L151 339.5 C151 323.152 162.837 308.991 179.185 309.115 C290.673 309.963 348 264.8 348 176 C348 104 307 56 246 56 C196 56 162 81.5 162 120.5 L162 120 Z " />
<glyph glyph-name="four" unicode="4" horiz-adv-x="501" d="M435.925 21.9752 L411.5 34 C395.406 41.9234 379 68.286 379 86.225 L379 131.5 C379 161.582 403.418 186 433.5 186 L440 186 C466.495 186 488 207.505 488 234 C488 260.495 466.495 282 440 282 L433 282 C402.642 282 378 306.642 378 337 L378 538 L378.881 645.5 C378.947 653.504 372.503 660 364.5 660 C358.16 660 345.02 653.536 341.15 648.514 L256 538 C175.075 433.675 93.1994 329.35 14.0806 223.171 C11.2169 219.328 8 205.293 8 200.5 C8 192.496 14.4964 186 22.5 186 L194.56 186 C228.473 186 256 158.473 256 124.56 L256 86.225 C256 68.286 239.594 41.9234 223.5 34 L199.075 21.9752 C195.076 20.0066 191 13.4569 191 9 C191 4.03227 195.032 0 200 0 L435 0 C439.968 0 444 4.03227 444 9 C444 13.4569 439.924 20.0066 435.925 21.9752 L435.925 21.9752 Z M256 360 L256 337 C256 306.642 231.358 282 201 282 C176.189 282 163.397 306.673 177.695 326.949 L211.051 374.254 C225.348 394.531 256 384.811 256 360 L256 360 Z " />
<glyph glyph-name="five" unicode="5" horiz-adv-x="504" d="M353.5 660 L147.44 660 C113.527 660 86 632.473 86 598.56 L86 337.44 C86 332.23 91.1455 328.498 96.234 329.62 C116.722 334.136 146.077 337 174 337 C283 337 356 274 356 180 C356 108 314 60 251 60 C206.35 60 161.7 90.685 141.914 129.763 C140.359 132.834 134.942 136 131.5 136 L124 136 C109 136 73 98 73 98 C73 98 97.0275 114.988 69.3571 95.3808 C56.4028 86.2014 48 81.0833 48 60 C48 51.6429 51.449 41.5612 57.5463 33.7584 C57.548 33.7562 60.4135 30.1423 60.4152 30.1401 C79.6556 6.16063 131.55 -10 192 -10 C352 -10 459 90 459 239 C459 366 353 451 194 451 C180.667 451 168.028 450.306 159.556 449.495 C157.414 449.291 155 450.88 155 453.031 L155 499 C155 526.598 177.402 549 205 549 L353.5 549 C384.134 549 409 573.866 409 604.5 C409 635.134 384.134 660 353.5 660 L353.5 660 Z " />
<glyph glyph-name="six" unicode="6" horiz-adv-x="512" d="M414.447 665.065 C188.199 598.185 38 426 38 231 C38 86 128 -10 263 -10 C394 -10 482 76 482 204 C482 314 417 388 319 388 C274.45 388 233.984 374.387 201.532 350.532 C195.452 346.062 184.804 348.161 186.541 355.504 C216.716 483.018 299.176 582.709 412.781 620.313 C423.02 623.703 432 637.215 432 648 C432 659.971 425.927 668.458 414.447 665.065 L414.447 665.065 Z M176.249 241.443 C187.312 271.176 220.45 290 263 290 C315 290 350 243 350 172 C350 102 315 55 263 55 C213.275 55 178.285 122.494 174.713 225.97 C174.624 228.524 175.358 239.048 176.249 241.443 L176.249 241.443 Z " />
<glyph glyph-name="seven" unicode="7" horiz-adv-x="500" d="M50 604.5 C50 573.866 74.8657 549 105.5 549 L251.364 549 C301.149 549 329.889 504.021 306.588 460.025 C185.052 230.545 103.708 65.385 87.132 13.185 C83.9766 3.24809 88.0741 -1 98.5 -1 L183.56 -1 C213.289 -1 245.28 27.6598 248.947 57.1621 C266.651 199.577 342.607 410.178 450.406 612.199 C452.149 615.465 460 640.797 460 644.5 C460 652.504 453.504 659.016 445.5 659.035 L105.5 659.865 C74.8657 659.939 50 635.134 50 604.5 L50 604.5 Z " />
<glyph glyph-name="eight" unicode="8" horiz-adv-x="502" d="M284 394.5 L281 396 C203 433 172 484 172 541 C172 579 198 604 238 604 C293 604 329 560 329 493 C329 452.05 314.741 417.754 289.002 394.747 C287.686 393.571 285.579 393.71 284 394.5 L284 394.5 Z M380.186 373.98 C426.775 402.659 454 447.725 454 503 C454 604 373 671 252 671 C127 671 44 602 44 498 C44 443.6 65.675 391.368 117.009 344.987 C127.428 335.573 126.067 310.163 114.814 301.763 C68.225 266.987 41 211.3 41 142 C41 51 125 -10 252 -10 C379 -10 463 64 463 174 C463 231.75 432.758 289.5 374.953 337.871 C364.39 346.711 368.456 366.759 380.186 373.98 L380.186 373.98 Z M217 279.5 L226 275 C304 239 344 184 344 131 C344 83 311 51 261 51 C208 51 172 101 172 177 C172 217.5 182.53 251.52 201.403 276.144 C205.042 280.892 211.65 282.175 217 279.5 L217 279.5 Z " />
<glyph glyph-name="nine" unicode="9" horiz-adv-x="509" d="M97.5525 -9.8085 C323.801 -4.80187 474 99.45 474 429 C474 574 384 670 249 670 C118 670 30 600 30 465 C30 347 98 269 199 269 C241.9 269 282.077 284.654 314.479 312.033 C320.886 317.447 331.665 307.915 330.569 299.598 C306.531 117.142 220.769 41.1185 99.5305 33.6215 C88.4005 32.9333 79.2407 22.6482 79.5 11.5 C79.7822 -0.632867 85.4193 -10.077 97.5525 -9.8085 L97.5525 -9.8085 Z M334.144 417.108 C320.872 385.535 289.075 365 253 365 C201 365 166 405 166 465 C166 557 199 604 248 604 C297.725 604 332.715 536.506 336.287 433.03 C336.395 429.91 335.354 419.986 334.144 417.108 L334.144 417.108 Z " />
<glyph glyph-name="colon" unicode="&#x3a;" horiz-adv-x="290" d="M145 290 C193 290 225 322 225 370 C225 418 193 450 145 450 C97 450 65 418 65 370 C65 322 97 290 145 290 L145 290 Z M145 -10 C193 -10 225 22 225 70 C225 118 193 150 145 150 C97 150 65 118 65 70 C65 22 97 -10 145 -10 L145 -10 Z " />
<glyph glyph-name="semicolon" unicode="&#x3b;" horiz-adv-x="269" d="M133 290 C181 290 213 322 213 370 C213 418 181 450 133 450 C85 450 53 418 53 370 C53 322 85 290 133 290 L133 290 Z M90 0 C124 -16 147 -52 147 -90 C147 -120.6 118.65 -153.63 75.072 -174.51 C69.1038 -177.37 60 -188.882 60 -195.5 C60 -203.176 66.9875 -207.284 74.0134 -204.192 C161.24 -165.802 219 -97.45 219 -30 C219 35 189 92 143 113 C110 130 101 129 81 97 L47.4851 40.8399 C46.0571 38.447 45.1805 31.1633 46 28.5 C46.784 25.9519 51.6627 20.0814 54.0243 18.8444 L90 0 L90 0 Z " />
<glyph glyph-name="equal" unicode="&#x3d;" horiz-adv-x="500" d="M40 159 C40 139.129 56.1291 123 76 123 L424 123 C443.871 123 460 139.129 460 159 C460 178.871 443.871 195 424 195 L76 195 C56.1291 195 40 178.871 40 159 L40 159 Z M40 385 C40 365.129 56.1291 349 76 349 L424 349 C443.871 349 460 365.129 460 385 C460 404.871 443.871 421 424 421 L76 421 C56.1291 421 40 404.871 40 385 L40 385 Z " />
<glyph glyph-name="question" unicode="&#x3f;" horiz-adv-x="488" d="M232 -5 C280 -5 312 27 312 75 C312 123 280 155 232 155 C184 155 152 123 152 75 C152 27 184 -5 232 -5 L232 -5 Z M165.837 519.976 C162.17 519.437 97.4164 509.976 56.3242 507.559 C45.2466 506.907 39.299 500.997 41.9623 490.225 C48.0369 465.654 67.775 450 95 450 L146.938 450 C150.753 450 153.242 446.977 155.159 450.275 C156.299 452.236 163.25 464 166 464 L166 492 C166 507.279 180.954 522.197 165.837 519.976 L165.837 519.976 Z M167.432 545.56 C171.876 582.859 186.375 606 207 606 C263 606 301 558 301 485 C301 446.15 259.93 395.321 195.993 354.674 C187.132 349.041 180.103 337.238 182.248 326.959 C190.267 288.522 217 230 217 230 C217 230 219.045 230 231.5 230 L243.307 230 C244.723 230 245.587 228.909 246.09 230.232 C246.441 231.158 247.777 234.826 249.254 240.814 C249.655 242.441 256.759 248.119 258.18 249.006 C363.604 314.789 433 407.975 433 485 C433 596 361 670 252 670 C147.225 670 71.0363 625.759 47.5789 555.247 C36.7086 522.57 54.4861 508.495 88.7413 512.029 L140.137 517.332 C152.487 518.606 165.964 533.233 167.432 545.56 L167.432 545.56 Z " />
<glyph glyph-name="A" unicode="A" horiz-adv-x="758" d="M265.539 20.9295 L208.281 43.4113 C199.027 47.0448 193.965 56.9905 197.271 66.3665 C208.532 98.3022 223.537 140.72 242.285 191.373 C242.585 192.183 244 192.364 244 191.5 C244 189.016 246.016 187.009 248.5 187.02 L442.302 187.889 C454.917 187.946 472.116 174.953 476.777 163.231 C488.974 132.564 501.455 101.897 513.629 71.2308 C518.681 58.5031 511.658 46.2393 498.789 41.5596 L442.458 21.0757 C438.071 19.4802 434 13.6686 434 9 C434 4.03227 438.032 0 443 0 L677 0 L715 0 C719.416 0 723 3.58424 723 8 C723 12.0326 719.377 17.6165 715.694 19.2595 L680.292 35.0543 C671.78 38.852 651.717 60.12 648.159 68.7352 C580.743 231.997 421 630 421 630 L414 647.5 C410.413 656.469 397.811 665 388.152 665 L356.116 665 C348.931 665 339.447 658.971 336.653 652.351 C327.459 630.568 318.378 608.784 310 587 C213.8 349.275 140.702 167.166 102.577 73.1215 C98.7466 63.6718 79.5693 46.0797 70.1357 42.2095 L24.3265 23.416 C20.0745 21.6716 16 15.596 16 11 C16 6.03227 20.0323 2 25 2 L263.984 2 C268.4 2 272.225 5.59284 272.5 10 C272.763 14.2029 269.459 19.3904 265.539 20.9295 L265.539 20.9295 Z M354 268 L304.708 268 C287.289 268 277.717 285.624 283.962 301.886 C300.452 344.824 318.558 391.342 338.006 440.617 C343.807 455.316 363.5 456.621 369.237 441.897 L406.864 345.336 C422.363 305.562 396.687 268 354 268 L354 268 Z " />
<glyph glyph-name="B" unicode="B" horiz-adv-x="666" d="M487.024 382.33 C533.136 413.487 559 455.5 559 505 C559 599 487 661 347 661 L73.5 661 C68.2563 661 64 656.744 64 651.5 C64 646.718 68.3026 640.064 72.6633 638.102 L107.773 622.302 C126.008 614.096 144 586.27 144 566.274 L144 95.7262 C144 75.7299 126.008 47.9035 107.773 39.6978 L72.6633 23.8985 C68.3026 21.9362 64 15.2819 64 10.5 C64 5.25628 68.2563 1 73.5 1 L344 1 C507 1 616 81 616 202 C616 269.375 574.273 322.586 492.16 352.924 C481.21 356.97 477.351 375.794 487.024 382.33 L487.024 382.33 Z M273 426.003 L273 561.5 C273 572.815 282.185 582 293.5 582 L314 582 C386 582 423 537 423 470 C423 427.1 382.163 395.43 317.333 385.098 C289.255 380.623 273 397.571 273 426.003 L273 426.003 Z M273 116 L273 263.5 C273 284.751 290.249 302 311.5 302 L350 302 C436 302 480 258 480 191 C480 125 425 81 343 81 L308 81 C288.681 81 273 96.681 273 116 L273 116 Z " />
<glyph glyph-name="C" unicode="C" horiz-adv-x="721" d="M632.273 60.1653 L640.835 216.005 C640.922 217.589 640.072 218.988 638.487 219.055 C633.571 219.265 629.286 220 625 220 C609 192 588 154 572 126 C567 118 560 110 554 106 C510 79 453 61 403 61 C283 61 203 177 203 350 C203 498 287 597 414 597 C455 597 502 580 536 554 C543 549 550 540 554 533 C571 501 592 459 609 427 C609.728 425.63 609.701 426.987 611.252 427.043 C615.764 427.207 620.346 427.793 625.42 427.957 C627.289 428.017 627.934 429.628 627.858 431.497 L621.081 598.39 C620.682 608.217 609.278 612.07 603 604.5 L607.805 610.294 C616.319 620.561 615.629 629.788 603.893 636.126 C567.107 655.995 495.75 669 415 669 C208 669 70 524 70 306 C70 116 204 -11 404 -11 C488.15 -11 566.52 3.08875 610.86 24.5109 C623.702 30.7151 631.49 45.9248 632.273 60.1653 L632.273 60.1653 Z " />
<glyph glyph-name="D" unicode="D" horiz-adv-x="785" d="M381 0 C581 7 715 131 715 363 C715 559 572 660 357 660 L73.5 660 C68.2563 660 64 655.744 64 650.5 C64 645.718 68.3026 639.064 72.6633 637.102 L107.773 621.302 C126.008 613.096 144 585.27 144 565.274 L144 94.7262 C144 74.7299 126.008 46.9035 107.773 38.6978 L72.6633 22.8985 C68.3026 20.9362 64 14.2819 64 9.5 C64 4.25628 68.2563 0 73.5 0 L381 0 L381 0 Z M274 131.002 L274 558 C274 570.695 284.305 581 297 581 L320 581 C476 581 580 490 580 313 C580 163 499 82 378 78 L326 78.5 C297.299 78.776 274 102.3 274 131.002 L274 131.002 Z " />
<glyph glyph-name="E" unicode="E" horiz-adv-x="658" d="M579.5 204 C575.244 204 569.214 200.15 567.422 196.29 L529.509 114.58 C521.243 96.7652 493.416 79 473.776 79 L335.44 79 C301.527 79 274 106.527 274 140.44 L274 238.56 C274 272.473 301.527 300 335.44 300 L375.863 300 C394.013 300 421.826 283.189 430.262 267.119 L449.654 230.182 C452.267 225.206 460.88 220 466.5 220 C472.848 220 478 225.152 478 231.5 L478 448.5 C478 454.848 472.848 460 466.5 460 C460.88 460 452.267 454.794 449.654 449.818 L430.262 412.881 C421.826 396.811 394.013 380 375.863 380 L335.44 380 C301.527 380 274 407.527 274 441.44 L274 519.56 C274 553.473 301.527 581 335.44 581 L450.175 581 C468.817 581 496.639 563.872 505.033 547.227 L542.172 473.589 C544.059 469.849 550.311 466 554.5 466 C559.192 466 563 469.808 563 474.5 L563 598.56 C563 632.473 535.473 660 501.56 660 L73.5 660 C68.2563 660 64 655.744 64 650.5 C64 645.718 68.3026 639.064 72.6633 637.102 L107.773 621.302 C126.008 613.096 144 585.27 144 565.274 L144 94.7262 C144 74.7299 126.008 46.9035 107.773 38.6978 L72.6633 22.8985 C68.3026 20.9362 64 14.2819 64 9.5 C64 4.25628 68.2563 0 73.5 0 L526.56 0 C560.473 0 588 27.527 588 61.44 L588 195.5 C588 200.192 584.192 204 579.5 204 L579.5 204 Z " />
<glyph glyph-name="F" unicode="F" horiz-adv-x="623" d="M430.262 267.119 L449.654 230.182 C452.267 225.206 460.88 220 466.5 220 C472.848 220 478 225.152 478 231.5 L478 448.5 C478 454.848 472.848 460 466.5 460 C460.88 460 452.267 454.794 449.654 449.818 L430.262 412.881 C421.826 396.811 394.013 380 375.863 380 L335.44 380 C301.527 380 274 407.527 274 441.44 L274 519.56 C274 553.473 301.527 581 335.44 581 L440.175 581 C458.817 581 486.639 563.872 495.033 547.227 L532.172 473.589 C534.059 469.849 540.311 466 544.5 466 C549.192 466 553 469.808 553 474.5 L553 598.56 C553 632.473 525.473 660 491.56 660 L73.5 660 C68.2563 660 64 655.744 64 650.5 C64 645.718 68.3026 639.064 72.6633 637.102 L107.773 621.302 C126.008 613.096 144 585.27 144 565.274 L144 94.7262 C144 74.7299 126.008 46.9035 107.773 38.6978 L72.6633 22.8985 C68.3026 20.9362 64 14.2819 64 9.5 C64 4.25628 68.2563 0 73.5 0 L359.5 0 C364.744 0 369 4.25628 369 9.5 C369 14.4035 364.702 20.6288 360.116 22.3664 L313.668 39.9678 C293.193 47.7267 274 75.5253 274 97.421 L274 238.56 C274 272.473 301.527 300 335.44 300 L375.863 300 C394.013 300 421.826 283.189 430.262 267.119 L430.262 267.119 Z " />
<glyph glyph-name="G" unicode="G" horiz-adv-x="779" d="M694.149 251.871 L725.436 266.889 C729.697 268.935 734 275.773 734 280.5 C734 285.744 729.744 290 724.5 290 L454.5 290 C449.256 290 445 285.744 445 280.5 C445 275.671 449.302 269.178 453.748 267.295 L492.521 250.873 C511.57 242.806 530 214.986 530 194.298 L530 105 C530 97.6748 525.144 89.9101 518.203 87.5702 C496.501 80.2548 471.105 76 445 76 C300 76 204 186 204 352 C204 500 292 599 425 599 C471 599 523 581 561 553 C567 548 572 541 575 534 C592 502 613 460 630 428 C630.728 426.63 630.701 427.987 632.252 428.043 C636.764 428.207 641.346 428.793 646.42 428.957 C648.289 429.017 648.934 430.628 648.858 432.497 L642.081 599.39 C641.682 609.217 630.278 613.07 624 605.5 L628.087 610.428 C636.866 621.015 635.773 630.952 623.483 637.126 C583.93 656.995 509.3 670 426 670 C213 670 71 525 71 307 C71 117 205 -10 406 -10 C493.875 -10 587.739 29.3588 646.438 89.0814 C653.383 96.1481 659.903 116.702 659.827 126.61 L659.298 196.013 C659.149 215.484 676.595 243.445 694.149 251.871 L694.149 251.871 Z " />
<glyph glyph-name="H" unicode="H" horiz-adv-x="819" d="M754 9.5 C754 14.2819 749.697 20.9362 745.337 22.8985 L710.227 38.6978 C691.992 46.9035 674 74.7299 674 94.7262 L674 565.274 C674 585.27 691.992 613.096 710.227 621.302 L745.337 637.102 C749.697 639.064 754 645.718 754 650.5 C754 655.744 749.744 660 744.5 660 L474.5 660 C469.256 660 465 655.744 465 650.5 C465 645.718 469.303 639.064 473.663 637.102 L508.773 621.302 C527.008 613.096 545 585.27 545 565.274 L545 441.44 C545 407.527 517.473 380 483.56 380 L335.44 380 C301.527 380 274 407.527 274 441.44 L274 565.274 C274 585.27 291.992 613.096 310.227 621.302 L345.337 637.102 C349.697 639.064 354 645.718 354 650.5 C354 655.744 349.744 660 344.5 660 L73.5 660 C68.2563 660 64 655.744 64 650.5 C64 645.718 68.3026 639.064 72.6633 637.102 L107.773 621.302 C126.008 613.096 144 585.27 144 565.274 L144 94.7262 C144 74.7299 126.008 46.9035 107.773 38.6978 L72.6633 22.8985 C68.3026 20.9362 64 14.2819 64 9.5 C64 4.25628 68.2563 0 73.5 0 L344.5 0 C349.744 0 354 4.25628 354 9.5 C354 14.2819 349.697 20.9362 345.337 22.8985 L310.227 38.6978 C291.992 46.9035 274 74.7299 274 94.7262 L274 238.56 C274 272.473 301.527 300 335.44 300 L483.56 300 C517.473 300 545 272.473 545 238.56 L545 94.7262 C545 74.7299 527.008 46.9035 508.773 38.6978 L473.663 22.8985 C469.303 20.9362 465 14.2819 465 9.5 C465 4.25628 469.256 0 474.5 0 L744.5 0 C749.744 0 754 4.25628 754 9.5 L754 9.5 Z " />
<glyph glyph-name="I" unicode="I" horiz-adv-x="429" d="M359 9.5 C359 14.2819 354.697 20.9362 350.337 22.8985 L315.227 38.6978 C296.992 46.9035 279 74.7299 279 94.7262 L279 565.274 C279 585.27 296.992 613.096 315.227 621.302 L350.337 637.102 C354.697 639.064 359 645.718 359 650.5 C359 655.744 354.744 660 349.5 660 L79.5 660 C74.2563 660 70 655.744 70 650.5 C70 645.718 74.3026 639.064 78.6633 637.102 L113.773 621.302 C132.008 613.096 150 585.27 150 565.274 L150 94.7262 C150 74.7299 132.008 46.9035 113.773 38.6978 L78.6633 22.8985 C74.3026 20.9362 70 14.2819 70 9.5 C70 4.25628 74.2563 0 79.5 0 L349.5 0 C354.744 0 359 4.25628 359 9.5 L359 9.5 Z " />
<glyph glyph-name="J" unicode="J" horiz-adv-x="429" d="M150 565.274 L150 50 C150 -19.225 130.988 -66.5856 101.304 -68.9104 C100.724 -68.9558 99.4911 -69.0529 98.9129 -68.9907 C96.719 -68.7543 53.5741 -64.0507 25.2077 -56.5943 C24.8191 -56.4922 20.4018 -56 20 -56 C18.3712 -56 17.269 -54.5383 16.9742 -56.1402 C16.3087 -59.7556 3 -132.125 3 -137 C3 -159 22 -173 50 -173 C187 -173 279 -13 279 228 L279 565.274 C279 585.27 296.992 613.096 315.227 621.302 L350.337 637.102 C354.697 639.064 359 645.718 359 650.5 C359 655.744 354.744 660 349.5 660 L79.5 660 C74.2563 660 70 655.744 70 650.5 C70 645.718 74.3026 639.064 78.6633 637.102 L113.773 621.302 C132.008 613.096 150 585.27 150 565.274 L150 565.274 Z " />
<glyph glyph-name="K" unicode="K" horiz-adv-x="779" d="M712.5 660 L447 660 C442.032 660 438 655.968 438 651 C438 646.422 442.075 640.284 446.295 638.507 L476.762 625.679 C496.34 617.436 499.993 593.883 486.007 577.894 C441.781 527.331 396.55 476.325 352 426 L310.387 378.364 C291.652 356.917 291.177 320.679 309.344 298.748 L537.572 23.2449 C545.405 13.7894 572.608 1 584.886 1 L745 1 C748.864 1 752 4.13621 752 8 C752 11.5716 748.831 16.3079 745.529 17.6704 L702.315 35.5051 C699.048 36.8531 681.842 49.1808 679.515 51.8401 L439.776 325.828 C418.974 349.602 420.19 387.263 442.483 409.644 L643.937 611.901 C645.941 613.913 662.307 624.666 664.949 625.707 L712.952 644.618 C716.058 645.841 719 650.162 719 653.5 C719 657.088 716.088 660 712.5 660 L712.5 660 Z M355 10.5 C355 15.2819 350.697 21.9362 346.337 23.8985 L311.227 39.6978 C292.992 47.9035 275 75.7299 275 95.7262 L275 566.274 C275 586.27 292.992 614.096 311.227 622.302 L346.337 638.102 C350.697 640.064 355 646.718 355 651.5 C355 656.744 350.744 661 345.5 661 L75.5 661 C70.2563 661 66 656.744 66 651.5 C66 646.718 70.3026 640.064 74.6633 638.102 L109.773 622.302 C128.008 614.096 146 586.27 146 566.274 L146 95.7262 C146 75.7299 128.008 47.9035 109.773 39.6978 L74.6633 23.8985 C70.3026 21.9362 66 15.2819 66 10.5 C66 5.25628 70.2563 1 75.5 1 L345.5 1 C350.744 1 355 5.25628 355 10.5 L355 10.5 Z " />
<glyph glyph-name="L" unicode="L" horiz-adv-x="642" d="M563 244 C558.35 244 552.47 239.928 550.834 235.575 L506.966 118.829 C499.233 98.2494 471.437 79 449.452 79 L335.44 79 C301.527 79 274 106.527 274 140.44 L274 564.298 C274 584.986 292.43 612.806 311.479 620.873 L350.252 637.295 C354.698 639.178 359 645.671 359 650.5 C359 655.744 354.744 660 349.5 660 L73.5 660 C68.2563 660 64 655.744 64 650.5 C64 645.718 68.3026 639.064 72.6633 637.102 L107.773 621.302 C126.008 613.096 144 585.27 144 565.274 L144 94.7262 C144 74.7299 126.008 46.9035 107.773 38.6978 L72.6633 22.8985 C68.3026 20.9362 64 14.2819 64 9.5 C64 4.25628 68.2563 0 73.5 0 L510.56 0 C544.473 0 572 27.527 572 61.44 L572 235 C572 239.968 567.968 244 563 244 L563 244 Z " />
<glyph glyph-name="M" unicode="M" horiz-adv-x="973" d="M81.3428 637.587 L121.382 621.207 C141.896 612.815 160.287 584.371 159.522 562.221 L143.327 93.4131 C142.668 74.3465 124.31 47.138 106.877 39.3897 L69.6812 22.8583 C65.3024 20.9122 61 14.2918 61 9.5 C61 4.25628 65.2563 0 70.5 0 L301.5 0 C306.744 0 311 4.25628 311 9.5 C311 14.3197 306.698 20.8436 302.268 22.7422 L265.203 38.6274 C245.63 47.0157 227.479 75.2632 227.982 96.5517 L232 266.5 C233.107 313.321 299.481 325.585 317.245 282.25 L430.841 5.1464 C433.013 -0.153874 439.165 -1.08365 443.271 2.91135 C453.734 13.0934 464.123 23.7639 474.157 33.5167 C474.297 33.6528 474.884 33.8837 474.746 33.7457 L457.981 16.981 C449.011 8.01146 454.815 -6 467.5 -6 C484.031 -6 506.201 8.71559 512.62 23.9496 L619.977 278.72 C638.91 323.653 707.131 311.223 709 262.5 L715.428 94.9624 C716.229 74.0853 698.75 45.5769 679.78 36.8217 L647.626 21.9811 C643.303 19.9859 639 13.2611 639 8.5 C639 3.25628 643.256 -1 648.5 -1 L901.5 -1 C906.744 -1 911 3.25628 911 8.5 C911 13.1769 906.698 20.1812 902.527 22.2962 L872.231 37.6573 C856.682 45.5414 839.286 72.6906 838.621 90.1115 L820.633 561.244 C819.787 583.379 838.068 611.89 858.536 620.36 L897.222 636.368 C901.699 638.22 906 644.655 906 649.5 C906 654.744 901.744 659 896.5 659 L735.391 659 C714.218 659 686.405 640.263 678.451 620.641 L553.796 313.116 C531.928 259.167 461.92 259.105 439.957 313.015 L314.587 620.741 C306.619 640.298 278.806 659 257.688 659 L81.0139 659 C76.0461 659 72.2244 654.96 72.5 650 C72.7492 645.514 77.1839 639.288 81.3428 637.587 L81.3428 637.587 Z " />
<glyph glyph-name="N" unicode="N" horiz-adv-x="811" d="M74.5763 636.883 L106.147 621.729 C123.49 613.405 141 585.578 141 566.34 L141 94.7262 C141 74.7299 123.008 46.9035 104.773 38.6978 L69.6633 22.8985 C65.3026 20.9362 61 14.2819 61 9.5 C61 4.25628 65.2563 0 70.5 0 L332.5 0 C337.744 0 342 4.25628 342 9.5 C342 14.4337 337.704 20.5467 333.062 22.2178 L282.629 40.3735 C261.529 47.9697 242 75.7556 242 98.1817 L242 353.283 C242 388.059 285.959 398.97 308.15 372.195 C405.8 254.371 503.45 136.442 601.1 17.9426 C607.87 9.72755 634.355 -5 645 -5 C658.799 -5 670 6.20075 670 20 L670 566.34 C670 585.578 687.51 613.405 704.853 621.729 L736.436 636.889 C740.697 638.935 745 645.773 745 650.5 C745 655.744 740.744 660 735.5 660 L479.5 660 C474.256 660 470 655.744 470 650.5 C470 645.566 474.296 639.453 478.938 637.782 L529.371 619.626 C550.471 612.03 570 584.244 570 561.818 L570 430.75 C570 370.619 499.201 345.293 461.061 391.78 L259.435 637.531 C251.568 647.119 224.338 660 211.936 660 L74.5131 660 C69.2694 660 65.2244 655.736 65.5 650.5 C65.7422 645.898 70.4222 638.877 74.5763 636.883 L74.5763 636.883 Z " />
<glyph glyph-name="O" unicode="O" horiz-adv-x="817" d="M208 375 C208 510 278 600 383 600 C519 600 610 471 610 277 C610 148 541 62 438 62 C300 62 208 187 208 375 L208 375 Z M70 324 C70 124 206 -10 409 -10 C612 -10 747 125 747 328 C747 533 612 670 409 670 C206 670 70 532 70 324 L70 324 Z " />
<glyph glyph-name="P" unicode="P" horiz-adv-x="666" d="M369 9.5 C369 14.4035 364.702 20.6288 360.116 22.3664 L313.668 39.9678 C293.193 47.7267 274 75.5253 274 97.421 L274 245.5 C274 262.887 288.113 277 305.5 277 L337 277 C492 277 596 355 596 472 C596 585 502 660 362 660 L73.5 660 C68.2563 660 64 655.744 64 650.5 C64 645.718 68.3026 639.064 72.6633 637.102 L107.773 621.302 C126.008 613.096 144 585.27 144 565.274 L144 94.7262 C144 74.7299 126.008 46.9035 107.773 38.6978 L72.6633 22.8985 C68.3026 20.9362 64 14.2819 64 9.5 C64 4.25628 68.2563 0 73.5 0 L359.5 0 C364.744 0 369 4.25628 369 9.5 L369 9.5 Z M274 384.5 L274 553.5 C274 568.679 286.321 581 301.5 581 L329 581 C405 581 456 533 456 461 C456 398 420 356 365 356 C365 356 340.157 356.681 300.579 356.919 C285.491 357.01 274 369.412 274 384.5 L274 384.5 Z " />
<glyph glyph-name="Q" unicode="Q" horiz-adv-x="817" d="M845 -108 L845 -105.062 C845 -101.6 840.332 -99.3783 837.077 -100.557 C820.795 -106.454 793.316 -110 763 -110 C713.7 -110 646.337 -42.085 584.249 -2.0585 C572.99 5.20011 575.103 25.9078 586.863 32.323 C687.06 86.98 747 192.1 747 328 C747 533 612 670 409 670 C206 670 70 532 70 324 C70 123.15 207.841 -14.0081 416.788 -9.61819 C423.178 -9.48393 446.755 -17.9509 452.02 -21.576 C530.643 -75.7156 613.8 -157 673 -157 C730.35 -157 793.262 -143.738 834.825 -123.545 C840.076 -120.994 845 -113.837 845 -108 L845 -108 Z M207 376 C207 511 277 601 382 601 C518 601 609 472 609 278 C609 149 540 63 437 63 C299 63 207 188 207 376 L207 376 Z " />
<glyph glyph-name="R" unicode="R" horiz-adv-x="708" d="M695 9 C695 13.5396 690.924 19.8116 686.776 21.6552 L648.387 38.7168 C643.755 40.7756 623.958 58.0129 621.101 62.2003 C579.723 122.843 511.706 214.238 460.568 282.113 C449.449 296.873 458.885 320.997 474.765 330.447 C530.44 363.582 574 415.825 574 481 C574 588 486 660 353 660 L73.5 660 C68.2563 660 64 655.744 64 650.5 C64 645.718 68.3026 639.064 72.6633 637.102 L107.773 621.302 C126.008 613.096 144 585.27 144 565.274 L144 94.7262 C144 74.7299 126.008 46.9035 107.773 38.6978 L72.6633 22.8985 C68.3026 20.9362 64 14.2819 64 9.5 C64 4.25628 68.2563 0 73.5 0 L339.5 0 C344.744 0 349 4.25628 349 9.5 C349 14.2273 344.697 21.0653 340.436 23.1109 L308.853 38.2706 C291.51 46.5954 274 74.4223 274 93.6601 L274 281.5 C274 286.192 277.808 290 282.5 290 C286.22 290 289.114 292.45 291.383 289.502 C300.509 277.644 469.692 57.6169 495.665 8.49937 C497.04 5.90094 506.061 0 509 0 L686 0 C690.968 0 695 4.03227 695 9 L695 9 Z M274 378.25 L274 558 C274 570.695 284.305 581 297 581 L320 581 C388 581 433 537 433 470 C433 410 350 370 290 370 L281.75 370 C277.196 370 274 373.696 274 378.25 L274 378.25 Z " />
<glyph glyph-name="S" unicode="S" horiz-adv-x="546" d="M451 461.5 L452.951 461.695 C453.118 461.712 458.896 462 459.064 462 L461.5 462 C464.53 462 466.852 464.465 466.671 467.49 L457.995 612.379 C457.334 623.415 453.498 633.679 444.174 639.619 C414.63 658.44 356.15 670 289 670 C165 670 83 596 83 484 C83 402 134 343 234 292 C322 247 367 206 367 159 C367 98 333 58 282 58 C239 58 184 79 141 112 C134 117 127 126 123 134 L81.2472 217.506 C80.0881 219.824 76.579 221.758 74 221.5 L72.0492 221.305 C71.8817 221.288 66.1039 221 65.9356 221 L63.5 221 C60.4676 221 58.118 218.535 58.263 215.506 L66.0508 52.8267 C66.6717 39.8572 72.5397 27.7848 84.1315 21.9345 C123.07 2.2825 197.7 -10 281 -10 C406 -10 490 71 490 192 C490 280 434 343 325 399 C249 438 210 478 210 531 C210 573 236 601 275 601 C311 601 350 587 379 564 C404.65 543.1 424.434 499.186 442.638 466.554 C443.896 464.298 448.43 461.243 451 461.5 L451 461.5 Z " />
<glyph glyph-name="T" unicode="T" horiz-adv-x="684" d="M507 9.5 C507 14.4337 502.704 20.5467 498.062 22.2178 L447.629 40.3735 C426.529 47.9697 407 75.7556 407 98.1817 L407 519.56 C407 553.473 434.527 581 468.44 581 L518.45 581 C539.03 581 566.851 562.638 574.942 543.715 L617.462 444.275 C619.257 440.075 625.432 436 630 436 C634.968 436 639 440.032 639 445 L639 598.56 C639 632.473 611.473 660 577.56 660 L106.44 660 C72.527 660 45 632.473 45 598.56 L45 445 C45 440.032 49.0323 436 54 436 C58.5677 436 64.7426 440.075 66.5384 444.275 L109.058 543.715 C117.149 562.638 144.97 581 165.55 581 L215.56 581 C249.473 581 277 553.473 277 519.56 L277 98.1817 C277 75.7556 257.471 47.9697 236.371 40.3735 L185.938 22.2178 C181.296 20.5467 177 14.4337 177 9.5 C177 4.25628 181.256 0 186.5 0 L497.5 0 C502.744 0 507 4.25628 507 9.5 L507 9.5 Z " />
<glyph glyph-name="U" unicode="U" horiz-adv-x="808" d="M135 565.274 L135 234 C135 88 241 -10 399 -10 C557 -10 663 88 663 234 L663 565.274 C663 585.27 680.992 613.096 699.227 621.302 L734.337 637.102 C738.697 639.064 743 645.718 743 650.5 C743 655.744 738.744 660 733.5 660 L472.5 660 C467.256 660 463 655.744 463 650.5 C463 645.566 467.296 639.453 471.938 637.782 L522.371 619.626 C543.471 612.03 563 584.244 563 561.818 L563 203 C563 125 513 73 438 73 C334 73 264 147 264 257 L264 565.274 C264 585.27 281.992 613.096 300.227 621.302 L335.337 637.102 C339.697 639.064 344 645.718 344 650.5 C344 655.744 339.744 660 334.5 660 L64.5 660 C59.2563 660 55 655.744 55 650.5 C55 645.718 59.3026 639.064 63.6633 637.102 L98.7728 621.302 C117.008 613.096 135 585.27 135 565.274 L135 565.274 Z " />
<glyph glyph-name="V" unicode="V" horiz-adv-x="742" d="M314.5 660 L41 660 C36.0323 660 32 655.968 32 651 C32 646.517 36.0762 640.053 40.1213 638.121 L76.5461 620.724 C85.1706 616.605 104.336 595.633 107.663 586.673 L317 23 L322 9 C324.599 1.72261 334.138 -5 341.866 -5 L358.5 -5 C374.526 -5 396.002 9.2627 402.218 24.0341 L643.787 598.106 C647.208 606.235 666.545 626.289 674.544 630.003 L702.651 643.052 C705.83 644.528 709 649.496 709 653 C709 656.864 705.864 660 702 660 L483.5 660 C478.256 660 474 655.744 474 650.5 C474 645.739 478.303 639.014 482.626 637.019 L513 623 C534.501 613.077 544.792 587.125 535.937 565.163 L439.39 325.726 C417.054 270.334 343.06 272.586 324.134 329.234 L247.653 558.149 C239.024 583.976 252.642 613.077 278 623 L315.153 637.538 C319.701 639.318 324 645.617 324 650.5 C324 655.744 319.744 660 314.5 660 L314.5 660 Z " />
<glyph glyph-name="W" unicode="W" horiz-adv-x="986" d="M302.448 660 L27 660 C22.0323 660 18 655.968 18 651 C18 646.571 22.0753 639.93 26.0242 637.924 L56.5801 622.404 C66.5935 617.318 86.341 590.103 89.2571 579.257 C138.84 394.84 189.112 211.112 237.885 25.8854 C241.755 11.191 259.305 -5 274.5 -5 C289.046 -5 306.698 4.166 312.172 17.6426 C359.67 134.592 408.819 250.971 457.293 367.245 C468.364 393.801 507.549 394.472 516.851 367.245 C556.576 250.971 596.586 134.592 635.485 17.6426 C640.025 3.9948 656.117 -5 670.5 -5 L687.405 -5 C692.925 -5 699.677 -0.209815 701.5 5 L705 15 L893.223 593.044 C896.909 604.365 917.2 626.273 928.205 630.815 L958.529 643.33 C961.831 644.692 965 649.428 965 653 C965 656.864 961.864 660 958 660 L727.5 660 C722.256 660 718 655.744 718 650.5 C718 645.689 722.302 639.134 726.716 637.22 L759.5 623 C782.256 613.13 795.071 585.448 787.872 561.711 L703.225 282.584 C696.071 258.993 662.536 262.699 655.249 286.249 C619.806 400.806 584.095 515.095 549.382 630.382 C544.746 645.783 524.583 665 508.5 665 C492.819 665 474.652 656.619 468.872 642.043 C421.82 523.392 376.419 404.171 330.343 284.845 C321.26 261.321 286.825 260.115 281.479 284.759 L223.068 553.985 C217.017 581.875 234.212 613.16 261 623 L301.033 637.706 C305.475 639.338 310.505 645.794 311 650.5 C311.549 655.715 307.691 660 302.448 660 L302.448 660 Z " />
<glyph glyph-name="X" unicode="X" horiz-adv-x="754" d="M423.548 0 L710 0 C714.416 0 718 3.58424 718 8 C718 11.988 714.377 17.7226 710.775 19.4349 L671.294 38.2047 C667.482 40.0168 650.23 54.4271 647.768 57.8553 L469.768 305.724 C455.6 325.454 456.249 360.062 471.147 379.246 L645.796 604.148 C648.138 607.163 665.163 620.678 668.632 622.275 L710.733 641.655 C714.377 643.332 718 648.989 718 653 C718 657.416 714.416 661 710 661 L486.5 661 C481.256 661 477 656.744 477 651.5 C477 646.75 481.303 639.988 485.606 637.976 L515.5 624 C536.191 614.326 541.834 590.558 527.698 572.617 L423.072 439.822 C409.824 423.007 385.645 425.336 373.168 442.731 C342.263 485.819 310.882 529.181 280.399 572.269 C267.723 590.186 272.667 614.5 292.681 623.507 L327.337 639.102 C331.697 641.064 336 647.718 336 652.5 C336 657.744 331.744 662 326.5 662 L46 662 C41.0323 662 37 657.968 37 653 C37 648.571 41.0753 641.93 45.0242 639.924 L86.2463 618.986 C89.8324 617.164 106.522 602.645 108.822 599.346 L272.462 364.63 C285.87 345.399 285.196 311.091 271.043 292.401 L98.3503 64.3478 C95.9037 61.1168 78.5995 47.2455 74.9135 45.5605 L27.1853 23.7418 C23.0762 21.8634 19 15.518 19 11 C19 6.03227 23.0323 2 28 2 L271.5 2 C276.744 2 281 6.25628 281 11.5 C281 16.3611 276.7 22.7395 272.193 24.5623 L236.5 39 C212.723 48.6176 205.314 74.9568 220.59 95.5595 L293.125 193.385 C319.748 229.292 367.296 228.604 392.869 191.942 L463.973 90.0112 C476.549 71.9824 470.661 48.8306 451 39 L424.434 25.717 C420.018 23.5091 414.468 15.4147 414 10.5 C413.451 4.73042 417.752 0 423.548 0 L423.548 0 Z " />
<glyph glyph-name="Y" unicode="Y" horiz-adv-x="725" d="M293.5 660 L39 660 C34.0323 660 30 655.968 30 651 C30 646.571 34.0753 639.93 38.0242 637.924 L79.5414 616.836 C82.984 615.088 99.5181 600.85 101.758 597.705 L294.601 327.001 C298.252 321.877 306 297.645 306 291.354 L306 96.5969 C306 75.2789 287.172 47.4686 267.378 39.5513 L224.821 22.5282 C220.3 20.72 216 14.3687 216 9.5 C216 4.25628 220.256 0 225.5 0 L515.5 0 C520.744 0 525 4.25628 525 9.5 C525 14.3687 520.7 20.72 516.179 22.5282 L473.622 39.5513 C453.828 47.4686 435 75.2789 435 96.5969 L435 297.705 C435 303.222 441.885 326.538 444.9 331.157 C504.302 422.143 563.745 513.857 623.957 604.843 C626.799 609.136 645.303 625.156 649.987 627.292 L684.631 643.095 C687.83 644.554 691 649.485 691 653 C691 656.864 687.864 660 684 660 L458.5 660 C453.256 660 449 655.744 449 650.5 C449 645.728 453.303 639.039 457.645 637.061 L488.5 623 C510.07 613.17 517.306 588.451 504.44 568.542 L414.883 429.957 C402.593 410.939 377.051 412.039 363.619 430.27 C328.324 478.174 292.733 525.999 257.461 573.436 C244.799 590.464 249.687 613.185 268.5 623 L294.577 636.606 C298.699 638.756 303 645.851 303 650.5 C303 655.744 298.744 660 293.5 660 L293.5 660 Z " />
<glyph glyph-name="Z" unicode="Z" horiz-adv-x="646" d="M104 456 C108.45 456 115.022 460.076 116.999 464.063 L158.067 546.861 C166.44 563.742 194.264 581 213.108 581 L291.191 581 C341.391 581 366.339 529.066 341.476 485.455 C258.482 339.88 175.793 194.416 91.8713 49.5769 C89.5803 45.6229 84 24.0388 84 19.4691 L84 18 C84 8.06454 92.0645 0 102 0 L495.56 0 C529.473 0 557 27.527 557 61.44 L557 205 C557 209.968 552.968 214 548 214 C543.486 214 537.128 209.924 535.244 205.821 L493.441 114.798 C485.194 96.8417 457.367 79 437.607 79 L340.461 79 C291.923 79 269.194 131.64 293.3 173.769 C375.93 318.179 458.128 462.59 541 607 C543.239 610.902 541 618.877 541 623.377 L541 633.5 C541 648.127 529.127 660 514.5 660 L156.44 660 C122.527 660 95 632.473 95 598.56 L95 465 C95 460.032 99.0323 456 104 456 L104 456 Z " />
<glyph glyph-name="bracketleft" unicode="&#x5b;" horiz-adv-x="277" d="M214 707 L255.5 707 C264.608 707 272 714.392 272 723.5 C272 732.608 264.608 740 255.5 740 L128.44 740 C94.527 740 67 712.473 67 678.56 L67 -88.56 C67 -122.473 94.527 -150 128.44 -150 L255.5 -150 C264.608 -150 272 -142.608 272 -133.5 C272 -124.392 264.608 -117 255.5 -117 L214 -117 C181.986 -117 156 -91.0143 156 -59 L156 649 C156 681.014 181.986 707 214 707 L214 707 Z " />
<glyph glyph-name="backslash" unicode="&#x5c;" horiz-adv-x="294" d="M258 -120 C277.254 -120 289.86 -103.774 285.099 -85.1177 L80.901 715.118 C76.1405 733.774 55.254 750 36 750 C16.746 750 4.14045 733.774 8.90099 715.118 L213.099 -85.1177 C217.86 -103.774 238.746 -120 258 -120 L258 -120 Z " />
<glyph glyph-name="bracketright" unicode="&#x5d;" horiz-adv-x="272" d="M118 650.5 L118 -60.5 C118 -91.6863 92.6863 -117 61.5 -117 L21.5 -117 C12.3925 -117 5 -124.392 5 -133.5 C5 -142.608 12.3925 -150 21.5 -150 L145.56 -150 C179.473 -150 207 -122.473 207 -88.56 L207 678.56 C207 712.473 179.473 740 145.56 740 L21.5 740 C12.3925 740 5 732.608 5 723.5 C5 714.392 12.3925 707 21.5 707 L61.5 707 C92.6863 707 118 681.686 118 650.5 L118 650.5 Z " />
<glyph glyph-name="asciicircum" unicode="&#x5e;" horiz-adv-x="340" d="M322.622 536.582 L194.491 693.385 C190.435 698.349 176.411 705 170 705 C163.499 705 149.738 698.327 145.712 693.222 L22.2633 536.674 C19.9821 533.782 21.8159 530 25.5 530 C27.8788 530 39.2761 533.104 41.3264 534.31 L139.404 592.002 C154.034 600.608 186.11 600.859 200.874 592.483 L303.607 534.195 C305.621 533.052 317.185 530 319.5 530 C323.133 530 324.92 533.769 322.622 536.582 L322.622 536.582 Z " />
<glyph glyph-name="underscore" unicode="&#x5f;" horiz-adv-x="500" d="M25 -121.5 C25 -141.095 40.9051 -157 60.5 -157 L439.5 -157 C459.095 -157 475 -141.095 475 -121.5 C475 -101.905 459.095 -86 439.5 -86 L60.5 -86 C40.9051 -86 25 -101.905 25 -121.5 L25 -121.5 Z " />
<glyph glyph-name="grave" unicode="&#x60;" horiz-adv-x="340" d="M173.25 537.628 L106.878 672.662 C98.5171 689.672 70.6919 707 51.7386 707 L12.3664 707 C-7.83923 707 -29.3676 726.586 -24.9701 706.865 C-24.1944 703.386 -8.375 633.625 16 619 L152.77 534.469 C154.868 533.172 166.033 530 168.5 530 C172.711 530 175.108 533.85 173.25 537.628 L173.25 537.628 Z " />
<glyph glyph-name="a" unicode="a" horiz-adv-x="497" d="M169 339 C169 370 183 393 201 393 C250 393 275 365 275 322 L275 290.5 C275 274.489 256.55 254.345 241.184 249.845 C107.45 210.683 39 153.125 39 93 C39 31 81 -10 144 -10 C191.25 -10 236.969 5.3125 271.107 35.2676 C276.924 40.3718 290.512 37.7221 295.016 31.4291 C313.237 5.97375 342.875 -9 380 -9 C426.8 -9 470.748 20.4694 489.6 65.5052 C490.452 67.5418 489.67 71.1278 488.5 73 L486 77 C485 74 474 72 458 72 C417 72 389 80 389 91 C389 251 390 354 390 354 C390 418 338 461 237 461 C130 461 49 406 49 332 C49 307 61 291 79 292 L159.464 292 C160.844 292 164.524 293.524 165.5 294.5 C166.452 295.452 168.052 299.188 168.084 300.535 L169 339 L169 339 Z M274 164.418 L274 101 L274 95 C274 91.6948 271.611 87.8576 268.536 86.6457 C252.22 80.2152 231.414 77 209 77 C174 77 150 95 150 123 C150 149.4 178.586 174.439 234.636 195.309 C257.161 203.696 274 188.454 274 164.418 L274 164.418 Z " />
<glyph glyph-name="b" unicode="b" horiz-adv-x="570" d="M104.5 -10 C105.888 -10 107.926 -10.7197 109.079 -9.94714 C110.127 -9.24505 121.485 -1.60167 136.324 9.79683 C140.737 13.1865 154.041 15.0526 159.029 12.5859 C187.672 -1.57813 236.125 -10 293 -10 C429 -10 520 96 520 255 C520 378 452 460 351 460 C308.925 460 267.531 449.11 234.117 430.699 C225.979 426.216 214 430.913 214 440.204 L214 738.5 C214 744.848 208.848 750 202.5 750 C200.104 750 182.57 746.563 180.351 745.659 L36.778 687.132 C35.3581 686.554 34 684.533 34 683 C34 681.754 35.3199 678.845 36.2577 678.024 L58 659 C83 638 99 624 99 624 C99 624 98.9963 626.328 99.0168 613.37 L99.9929 -5.50001 C99.9968 -7.98386 102.016 -10 104.5 -10 L104.5 -10 Z M214 131.002 L214 349.394 C214 352.569 214.067 353.802 216.784 355.443 C224.429 360.061 244.143 363 269 363 C350 363 404 307 404 224 C404 125 374 59 330 59 C286.25 59 244.797 75.8438 222.389 102.832 C217.392 108.85 214 123.181 214 131.002 L214 131.002 Z " />
<glyph glyph-name="c" unicode="c" horiz-adv-x="477" d="M424.12 135.311 C392.727 112.343 352.4 97 322 97 C227 97 164 164 164 265 C164 342 195 393 241 393 C267 393 296 376 313 351 L345.005 304.876 C345.91 303.572 348.913 302 350.5 302 C351.385 302 356.325 303.198 357.111 303.603 L415.6 333.733 C417.642 334.785 421.491 337.529 422.744 339.454 C428.271 347.946 432 363.727 432 381 C432 390 427 403 420 413 C400 441 345 460 281 460 C142 460 50 356 50 200 C50 74 134 -10 261 -10 C330.225 -10 397.549 41.3338 430.531 119.903 C431.303 121.742 432.303 130.529 432 132.5 C431.527 135.572 426.629 137.146 424.12 135.311 L424.12 135.311 Z " />
<glyph glyph-name="d" unicode="d" horiz-adv-x="583" d="M535 9 C535 13.518 530.924 19.8634 526.815 21.7418 L500 34 C482.43 42.032 465 69.1648 465 88.4838 L465 740.5 C465 746.848 459.848 752 453.5 752 L451.182 752 C449.7 752 434.636 749.749 433.219 749.315 L285 704 L285 699 L319 671 C338 656 350 646 350 646 C350 646 350 647.394 350 638.19 L350 466.112 C350 460.734 346.385 456.566 341.045 457.205 C323.756 459.274 305.741 460 287 460 C144 460 48 352 48 191 C48 70 113 -10 211 -10 C260.95 -10 310.044 9.67938 343.246 41.1236 C346.188 43.9104 351.819 43.9517 352.665 39.9883 C356.653 21.3061 364 0 364 0 C364 0 367.463 0 379.338 0 L526 0 C530.968 0 535 4.03227 535 9 L535 9 Z M350 304.895 L350 110.322 C350 105.599 347.577 100.338 343.333 98.2666 C329.734 91.6283 311.593 88 292 88 C214 88 162 144 162 229 C162 317.2 196.02 378.67 249.48 390.082 C259.365 392.192 274.936 387.432 283.378 381.873 L322.351 356.208 C335.097 347.814 350 320.156 350 304.895 L350 304.895 Z " />
<glyph glyph-name="e" unicode="e" horiz-adv-x="483" d="M173.428 333.437 C186.137 371.859 210.825 395 243 395 C275.175 395 300.544 372.539 315.176 333.795 C321.158 317.954 311.786 307 294.853 307 L194.372 307 C177.554 307 168.146 317.47 173.428 333.437 L173.428 333.437 Z M385.158 240.571 L406.5 243.5 C421.786 245.598 432.137 259.681 430.85 275.057 C421.459 387.272 355.275 460 260 460 C133 460 49 356 49 200 C49 74 133 -10 260 -10 C329.225 -10 396.549 41.3338 429.531 119.903 C430.303 121.742 431.303 130.529 431 132.5 C430.528 135.567 427.615 137.136 425.106 135.311 C393.532 112.343 351.4 97 321 97 C249.225 97 195.827 135.115 173.72 197.307 C164.086 224.413 179.019 240 207.786 240 L376.803 240 C377.118 240 384.846 240.528 385.158 240.571 L385.158 240.571 Z " />
<glyph glyph-name="f" unicode="f" horiz-adv-x="393" d="M291 9 C291 13.4569 286.924 20.0066 282.925 21.9752 L258.5 34 C242.406 41.9234 226 68.286 226 86.225 L226 320.56 C226 354.473 253.527 382 287.44 382 L324 382 C342.767 382 358 397.233 358 416 C358 434.767 342.767 450 324 450 L287.44 450 C253.527 450 226 477.527 226 511.44 L226 620 L226 616 C226 616 224.656 616.349 224.656 616.349 L228.544 615.41 C228.544 615.41 227.2 615.759 227.2 615.759 C231.35 623.944 246 631 267 631 C293 631 319 627 332 621 C346 614 359 610 359 610 C359 610 349.652 610 362.5 610 C364.298 610 366.622 611.584 367.28 613.258 L399 694 C406 716 401 727 375 739 C375 739 351 749 340 749 C230 749 110 614 110 489 L110 469 C110 457.961 101.039 449 90 449 L73 449 C54.233 449 39 433.767 39 415 C39 396.233 54.233 381 73 381 L74.5 381 C94.0949 381 110 365.095 110 345.5 L110 85.225 C110 67.286 93.5944 40.9234 77.5 33 L53.0745 20.9752 C49.0759 19.0066 45 12.4569 45 8 C45 3.03231 49.0323 -0.983609 53.9999 -0.963415 L282 -0.0365851 C286.968 -0.0163914 291 4.03231 291 9 L291 9 Z " />
<glyph glyph-name="g" unicode="g" horiz-adv-x="554" d="M465.858 444.759 L390.33 434.381 C386.039 433.792 360.457 438.886 356.526 440.704 C329.516 453.194 297.3 460 261 460 C140 460 78 396 78 300 C78 251.325 95.6963 210.818 126.597 182.408 C133.833 175.755 134.12 159.942 125.544 155.138 C85.8425 132.9 62 101.45 62 70 C62 34.525 81.0575 6.53688 112.996 -9.47225 C118.935 -12.4491 118.977 -25.4762 113.376 -29.0486 C75.12 -53.45 52 -95.95 52 -124 C52 -193 127 -239 240 -239 C379 -239 472 -163 472 -48 C472 26 436 76 344 76 L218 76 C185 76 163 92 163 117 C163 130.474 168.673 141.82 177.631 146.859 C180.751 148.613 185.739 148.036 189.158 146.976 C210.604 140.325 234.471 137 260 137 C381 137 444 203 444 303 C444 326.059 439.931 347.083 431.792 366.073 C429.612 371.16 432.981 377.552 438.504 377.198 L465.579 375.463 C486.743 374.106 504 390.293 504 411.5 C504 432.553 486.715 447.625 465.858 444.759 L465.858 444.759 Z M197 305 C197 364 216 404 252 404 C297 404 327 362 327 299 C327 237 310 195 278 195 C229 195 197 239 197 305 L197 305 Z M183 -24 L287 -24 C345 -24 368 -46 368 -79 C368 -150 323 -198 256 -198 C196 -198 156 -162 156 -108 C156 -63 167 -24 183 -24 L183 -24 Z " />
<glyph glyph-name="h" unicode="h" horiz-adv-x="599" d="M559 9 C559 13.4569 554.924 20.0066 550.925 21.9752 L526.5 34 C510.406 41.9234 494 68.286 494 86.225 L494 343 C494 413 443 460 367 460 C328.225 460 290.811 440.262 254.197 408.085 C245.368 400.326 231 405.714 231 417.468 L231 738.5 C231 744.848 225.848 750 219.5 750 C217.104 750 199.57 746.563 197.351 745.659 L53.778 687.132 C52.3581 686.554 51 684.533 51 683 C51 681.754 52.3199 678.845 53.2577 678.024 L75 659 C100 638 116 624 116 624 C116 624 116 626.301 116 613.37 L116 86.225 C116 68.286 99.5944 41.9234 83.5 34 L59.0745 21.9752 C55.0759 20.0066 51 13.4569 51 9 C51 4.03227 55.0323 0 60 0 L287 0 C291.968 0 296 4.03227 296 9 C296 13.4569 291.924 20.0066 287.925 21.9752 L263.5 34 C247.406 41.9234 231 68.286 231 86.225 L231 331.292 C231 336.819 234.956 343.761 239.871 346.289 C255.238 354.194 276 359 305 359 C350 359 380 326 380 277 L380 86.225 C380 68.286 363.594 41.9234 347.5 34 L323.075 21.9752 C319.076 20.0066 315 13.4569 315 9 C315 4.03227 319.032 0 324 0 L550 0 C554.968 0 559 4.03227 559 9 L559 9 Z " />
<glyph glyph-name="i" unicode="i" horiz-adv-x="352" d="M170 610 C218 610 250 642 250 690 C250 738 218 770 170 770 C122 770 90 738 90 690 C90 642 122 610 170 610 L170 610 Z M304 9 C304 13.518 299.924 19.8634 295.815 21.7418 L269 34 C251.43 42.032 234 69.1648 234 88.4838 L234 448.5 C234 454.848 228.848 460 222.5 460 C220.104 460 202.57 456.563 200.351 455.659 L56.778 397.132 C55.3581 396.554 54 394.533 54 393 C54 391.754 55.3199 388.845 56.2577 388.024 L78 369 C103 348 119 334 119 334 C119 334 119 336.301 119 323.37 L119 86.225 C119 68.286 102.594 41.9234 86.5 34 L62.0745 21.9752 C58.0759 20.0066 54 13.4569 54 9 C54 4.03227 58.0323 0 63 0 L295 0 C299.968 0 304 4.03227 304 9 L304 9 Z " />
<glyph glyph-name="j" unicode="j" horiz-adv-x="352" d="M177 610 C225 610 257 642 257 690 C257 738 225 770 177 770 C129 770 97 738 97 690 C97 642 129 610 177 610 L177 610 Z M56 -223.5 C56 -229.386 62.9962 -231.607 67.9496 -228.428 C219.741 -130.99 234 -72.1 234 2 L234 448.5 C234 454.848 228.848 460 222.5 460 C220.104 460 202.57 456.563 200.351 455.659 L56.778 397.132 C55.3581 396.554 54 394.533 54 393 C54 391.754 55.3199 388.845 56.2577 388.024 L78 369 C103 348 119 334 119 334 C119 334 119 336.301 119 323.37 L119 -14 C119 -104.25 125.318 -161.108 65.933 -204.292 C61.7738 -207.317 56 -218.357 56 -223.5 L56 -223.5 Z " />
<glyph glyph-name="k" unicode="k" horiz-adv-x="582" d="M528.485 450 L331.5 450 C325.704 450 321 445.296 321 439.5 C321 434.665 325.726 425.876 329.759 423.21 L350.5 409.5 C366.261 399.082 367.759 378.983 353.715 366.344 L305 322.5 C274.229 294.806 230 314.504 230 355.902 L230 748.5 C230 754.848 224.848 760 218.5 760 C216.104 760 198.57 756.563 196.351 755.659 L52.778 697.132 C51.3581 696.554 50 694.533 50 693 C50 691.754 51.3199 688.845 52.2577 688.024 L74 669 C99 648 115 634 115 634 C115 634 115 636.301 115 623.37 L115 86.225 C115 68.286 98.5944 41.9234 82.5 34 L58.0745 21.9752 C54.0759 20.0066 50 13.4569 50 9 C50 4.03227 54.0323 0 59 0 L291 0 C295.968 0 300 4.03227 300 9 C300 13.518 295.924 19.8634 291.815 21.7418 L265 34 C247.43 42.032 230 69.1648 230 88.4838 L230 141.5 C230 169.846 265.445 180.73 281.354 157.27 L369.72 26.9574 C378.071 14.6422 405.691 0 420.571 0 L547 0 C551.968 0 556 4.03227 556 9 C556 13.3496 551.928 20.2465 548.12 22.3477 L509.904 43.4322 C507.132 44.9617 491.846 58.4207 489.978 60.9771 L345.475 258.718 C335.317 272.618 339.861 294.239 353.3 305 C393.263 337 432.795 369 473 401 C473.61 401.485 478.243 403.581 478.942 403.925 L530.361 429.239 C534.247 431.152 537.754 437.176 537.5 441.5 C537.224 446.184 533.177 450 528.485 450 L528.485 450 Z " />
<glyph glyph-name="l" unicode="l" horiz-adv-x="333" d="M289 9 C289 13.4569 284.924 20.0066 280.925 21.9752 L256.5 34 C240.406 41.9234 224 68.286 224 86.225 L224 748.5 C224 754.848 218.848 760 212.5 760 C210.104 760 192.57 756.563 190.351 755.659 L46.778 697.132 C45.3581 696.554 44 694.533 44 693 C44 691.754 45.3199 688.845 46.2577 688.024 L68 669 C93 648 109 634 109 634 C109 634 109 636.301 109 623.37 L109 86.225 C109 68.286 92.5944 41.9234 76.5 34 L52.0745 21.9752 C48.0759 20.0066 44 13.4569 44 9 C44 4.03227 48.0323 0 53 0 L280 0 C284.968 0 289 4.03227 289 9 L289 9 Z " />
<glyph glyph-name="m" unicode="m" horiz-adv-x="846" d="M806 9 C806 13.4569 801.924 20.0066 797.925 21.9752 L773.5 34 C757.406 41.9234 741 68.286 741 86.225 L741 343 C741 413 692 460 618 460 C576.875 460 534.984 434.734 492.328 394.252 C484.909 387.211 469.212 391.933 464.402 400.96 C445.079 437.22 406.325 459 356 459 C316.4 459 275.18 434.7 234.527 396.306 C229.574 391.628 220.639 394.866 220.399 401.674 C219.361 431.094 218 459 218 459 C218 459 213.165 459 206.5 459 C204.023 459 186.692 455.479 184.412 454.512 L46.7621 396.171 C45.3584 395.576 44 393.525 44 392 C44 390.754 45.3199 387.845 46.2577 387.024 L68 368 C93 347 109 333 109 333 C109 333 109 335.301 109 322.37 L109 85.225 C109 67.286 92.5944 40.9234 76.5 33 L52.0745 20.9752 C48.0759 19.0066 44 12.4569 44 8 C44 3.03227 48.0323 -1 53 -1 L280 -1 C284.968 -1 289 3.03227 289 8 C289 12.4569 284.924 19.0066 280.925 20.9752 L256.5 33 C240.406 40.9234 224 67.286 224 85.225 L224 330.292 C224 335.62 227.017 342.173 231.7 344.714 C246.896 352.961 266.848 358 294 358 C336 358 364 325 364 276 L364 87.4838 C364 68.1648 346.57 41.032 329 33 L302.185 20.7418 C298.076 18.8634 294 12.518 294 8 C294 3.03227 298.032 -1 303 -1 L540 -1 C544.968 -1 549 3.03227 549 8 C549 12.518 544.924 18.8634 540.815 20.7418 L514 33 C496.43 41.032 479 68.1648 479 87.4838 L479 323.598 C479 329.783 483.233 338.353 488.519 341.565 C505.278 351.75 526.667 358 555 358 C598 358 626 325 626 276 L626 87.4838 C626 68.1648 608.57 41.032 591 33 L564.185 20.7418 C560.076 18.8634 556 12.518 556 8 C556 3.03231 560.032 -0.983871 565 -0.964 L797 -0.0359997 C801.968 -0.0161291 806 4.03231 806 9 L806 9 Z " />
<glyph glyph-name="n" unicode="n" horiz-adv-x="599" d="M559 9 C559 13.4569 554.924 20.0066 550.925 21.9752 L526.5 34 C510.406 41.9234 494 68.286 494 86.225 L494 343 C494 413 443 460 367 460 C323.8 460 281.41 435.7 240.559 397.306 C235.6 392.646 226.639 395.874 226.399 402.674 C225.361 432.094 224 460 224 460 C224 460 219.165 460 212.5 460 C210.023 460 192.692 456.479 190.412 455.512 L52.7621 397.171 C51.3584 396.576 50 394.525 50 393 C50 391.754 51.3199 388.845 52.2577 388.024 L74 369 C99 348 115 334 115 334 C115 334 115 336.301 115 323.37 L115 86.225 C115 68.286 98.5944 41.9234 82.5 34 L58.0745 21.9752 C54.0759 20.0066 50 13.4569 50 9 C50 4.03227 54.0323 0 59 0 L291 0 C295.968 0 300 4.03227 300 9 C300 13.518 295.924 19.8634 291.815 21.7418 L265 34 C247.43 42.032 230 69.1648 230 88.4838 L230 331.292 C230 336.819 233.956 343.761 238.871 346.289 C254.238 354.194 275 359 304 359 C349 359 379 326 379 277 L379 88.4838 C379 69.1648 361.57 42.032 344 34 L317.185 21.7418 C313.076 19.8634 309 13.518 309 9 C309 4.03227 313.032 0 318 0 L550 0 C554.968 0 559 4.03227 559 9 L559 9 Z " />
<glyph glyph-name="o" unicode="o" horiz-adv-x="548" d="M182 225 C182 330 206 400 254 400 C321 400 366 330 366 225 C366 120 342 50 294 50 C227 50 182 120 182 225 L182 225 Z M50 225 C50 84 140 -10 274 -10 C422 -10 498 84 498 225 C498 366 408 460 274 460 C126 460 50 366 50 225 L50 225 Z " />
<glyph glyph-name="p" unicode="p" horiz-adv-x="581" d="M225.051 426.434 L224.371 447.506 C224.166 453.847 218.844 459 212.5 459 C210.023 459 192.692 455.479 190.412 454.512 L52.7621 396.171 C51.3584 395.576 50 393.525 50 392 C50 390.754 51.3199 387.845 52.2577 387.024 L74 368 C99 347 115 333 115 333 C115 333 115 335.301 115 322.37 L115 -144.775 C115 -162.714 98.5944 -189.077 82.5 -197 L58.0745 -209.025 C54.0759 -210.993 50 -217.543 50 -222 C50 -226.968 54.0323 -231 59 -231 L291 -231 C295.968 -231 300 -226.968 300 -222 C300 -217.482 295.924 -211.137 291.815 -209.258 L265 -197 C247.43 -188.968 230 -161.835 230 -142.516 L230 -18.0139 C230 -13.0638 233.254 -9.18523 238.198 -9.44119 C254.288 -10.2743 272.556 -11 293 -11 C436 -11 531 95 531 253 C531 377 468 459 374 459 C336.875 459 290.902 442.325 250.68 415.151 C240.684 408.398 225.439 414.377 225.051 426.434 L225.051 426.434 Z M230 119.526 L230 341.056 C230 346.183 232.481 351.347 237.268 353.184 C252.592 359.061 272.429 362 293 362 C369 362 420 298 420 201 C420 115 385 58 332 58 C306.425 58 274.384 69.5706 247.107 87.6582 C238.529 93.3471 230 109.232 230 119.526 L230 119.526 Z " />
<glyph glyph-name="q" unicode="q" horiz-adv-x="589" d="M549 -221 C549 -216.543 544.924 -209.993 540.925 -208.025 L516.5 -196 C500.406 -188.077 484 -161.714 484 -143.775 L484 455.5 C484 457.984 481.984 460 479.5 460 C478.434 460 471.898 458.526 470.935 458.069 L449.593 447.932 C444.915 445.71 425.167 444.6 420.197 446.056 C389.865 454.943 346.6 460 299 460 C150 460 50 352 50 191 C50 70 118 -10 221 -10 C254 -10 298.571 7.01562 341.797 34.8702 C353.144 42.1823 369 35.3978 369 21.8986 L369 -141.516 C369 -160.835 351.57 -187.968 334 -196 L307.185 -208.258 C303.076 -210.137 299 -216.482 299 -221 C299 -225.968 303.032 -230 308 -230 L540 -230 C544.968 -230 549 -225.968 549 -221 L549 -221 Z M369 320.995 L369 115.977 C369 109.874 364.582 102.406 359.042 99.8472 C341.75 91.8611 321.333 87 303 87 C220 87 164 143 164 228 C164 326 211 391 281 391 C294.2 391 318.971 379.089 349.135 359.198 C358.826 352.808 369 332.603 369 320.995 L369 320.995 Z " />
<glyph glyph-name="r" unicode="r" horiz-adv-x="419" d="M335 460 C307.7 460 272.795 426.728 233.066 375.941 C232.242 374.888 229.574 373.703 229.25 375 C229.172 375.313 228.348 380.766 228.331 381.088 L224.63 448.517 C224.283 454.846 218.838 460 212.5 460 C210.023 460 192.692 456.479 190.412 455.512 L52.7621 397.171 C51.3584 396.576 50 394.525 50 393 C50 391.754 51.3199 388.845 52.2577 388.024 L74 369 C99 348 115 334 115 334 C115 334 115 336.301 115 323.37 L115 86.225 C115 68.286 98.5944 41.9234 82.5 34 L58.0745 21.9752 C54.0759 20.0066 50 13.4569 50 9 C50 4.03227 54.0323 0 59 0 L291 0 C295.968 0 300 4.03227 300 9 C300 13.518 295.924 19.8634 291.815 21.7418 L265 34 C247.43 42.032 230 69.1648 230 88.4838 L230 313.075 C230 317.276 234.626 328.257 237.568 331.256 C247.36 341.24 256 347 264 347 C288 347 316 342 334 334 C346 328 372 313 372 313 C372 313 368.285 313 375.5 313 C377.241 313 380.022 315.089 380.785 316.654 C403.79 363.882 419 400.225 419 409 C419 422 409 438 393 448 C381 456 353 459.5 335 459.5 L335 460 Z " />
<glyph glyph-name="s" unicode="s" horiz-adv-x="443" d="M358 308 L358 407.277 C358 418.669 351.615 430.933 341.181 435.507 C306.735 450.608 258.2 460 214 460 C131 460 75 407 75 327 C75 244 110 202 179 183 C240 166 271 139 271 91 C271 61 246 41 209 41 C159 41 119 72 99 109 C92.913 121.174 83.8015 136.372 76.9255 149.335 C75.3688 152.27 70.3222 155 67 155 C63.1362 155 60 151.864 60 148 L60 37.906 C60 26.2625 66.9171 14.5968 77.9145 10.7719 C114.787 -2.0525 167.7 -10 217 -10 C311 -10 373 45 373 128 C373 216 334 261 258 282 C205 297 177 323 177 370 C177 390 195 404 221 404 C222 404 238 403 238 402 C277 395 315 362 333 319 C334.778 313.667 338.926 307.543 341.23 302.034 C341.804 300.662 343.675 300 345.162 300 L350 300 C354.416 300 358 303.584 358 308 L358 308 Z " />
<glyph glyph-name="t" unicode="t" horiz-adv-x="393" d="M361 89 L359 96 C357 92 330 90 292 90 C248 90 219 112 219 144 L219 320.56 C219 354.473 246.527 382 280.44 382 L317 382 C335.767 382 351 397.233 351 416 C351 434.767 335.767 450 317 450 L280.44 450 C246.527 450 219 477.527 219 511.44 L219 568.5 C219 570.984 216.984 573 214.5 573 C212.618 573 208.291 571.016 207.062 569.591 L109.207 456.042 C108.473 455.191 98.3498 446.124 97.4228 445.488 L21.7107 393.546 C20.0218 392.387 18 388.548 18 386.5 C18 384.016 20.0161 382 22.5 382 L61 382 C84.7347 382 104 362.735 104 339 L104 120 C104 42 154 -10 230 -10 C281.3 -10 331.697 23.3925 358.901 73.8874 C360.338 76.5551 361.832 86.0863 361 89 L361 89 Z " />
<glyph glyph-name="u" unicode="u" horiz-adv-x="561" d="M355 361.264 L355 116.394 C355 110.884 352.08 105.524 346.87 103.73 C329.972 97.91 306.441 95 280 95 C235 95 205 127 205 176 L205 388.56 C205 422.473 177.473 450 143.56 450 L34 450 C29.0323 450 25 445.968 25 441 C25 436.543 29.0759 429.993 33.0745 428.025 L57.5 416 C73.5944 408.077 90 381.714 90 363.775 L90 107 C90 37 140 -10 214 -10 C248.85 -10 290.925 6.6175 332.241 38.6242 C341.217 45.5775 354 39.3539 354 28 C354 11.9929 366.993 -1 383 -1 L530 -1 C534.968 -1 539 3.03227 539 8 C539 12.518 534.924 18.8634 530.815 20.7418 L504 33 C486.43 41.032 469 68.1648 469 87.4838 L469 387.56 C469 421.473 441.473 449 407.56 449 L293 449 C288.032 449 284 444.968 284 440 C284 435.447 288.076 429.22 292.248 427.399 L319.5 415.5 C337.458 407.659 355 380.859 355 361.264 L355 361.264 Z " />
<glyph glyph-name="v" unicode="v" horiz-adv-x="485" d="M296.111 426.848 L326.5 413 C348.266 403.081 358.967 376.824 350.335 354.517 L321.5 280 C304.062 234.936 246.409 233.466 226.697 277.583 L191.099 357.254 C180.584 380.788 191.775 407.191 216 416 L251.542 428.924 C255.929 430.52 260 436.331 260 441 C260 445.968 255.968 450 251 450 L-14 450 C-18.9677 450 -23 445.968 -23 441 C-23 436.493 -18.9237 430.11 -14.8353 428.213 L25.2502 409.623 C32.7683 406.136 51.5886 387.602 54.9857 380.043 C110.315 256.932 164.189 133.094 221.357 10.9037 C224.647 3.87294 233.738 1 241.5 1 C249.3 1 260.163 8.02002 263.368 15.1314 L425.714 375.393 C429.036 382.764 448.12 402.215 455.427 405.676 L502.414 427.933 C506.697 429.962 511 436.761 511 441.5 C511 446.744 506.744 451 501.5 451 L298.012 451 C292.493 451 287.776 446.513 287.5 441 C287.243 435.869 291.436 428.978 296.111 426.848 L296.111 426.848 Z " />
<glyph glyph-name="w" unicode="w" horiz-adv-x="759" d="M566.619 426.672 L597 413 C619.034 403.085 630.074 376.557 621.579 353.937 L594 280.5 C576.398 233.631 517.884 230.205 494.933 274.7 L409.501 440.335 C406.802 445.567 397.887 451 392 451 L386.325 451 C383.013 451 379.047 448.142 378 445 L377.067 442.202 C377.003 442.008 374.674 436.12 374.589 435.935 L265.591 199.204 C259.016 184.926 239.13 188.151 234.193 203.076 C216.938 255.244 199.207 307.612 182.374 359.357 C175.244 381.276 186.381 406.981 208.176 414.48 L253.49 430.072 C257.932 431.6 262 437.303 262 442 C262 446.968 257.968 451 253 451 L-10 451 C-14.9677 451 -19 446.968 -19 442 C-19 437.53 -14.9239 431.024 -10.9017 429.074 L24.0693 412.118 C33.046 407.766 50.64 390.474 53.8929 381.043 C95.2096 261.257 135.838 140.743 177.965 20.9573 C181.079 12.1012 193.612 1 203 1 C211.905 1 225.032 9.15172 228.981 17.134 L336.899 235.3 C347.135 255.992 374.251 253.691 384.523 233.018 C420.548 160.519 456.003 87.3447 493.679 15.8219 C496.997 9.52446 508.382 2 515.5 2 C522.831 2 532.876 8.56656 535.817 15.282 L693.784 375.957 C697.121 383.578 716.243 403.273 723.761 406.834 L770.414 428.933 C774.697 430.962 779 437.761 779 442.5 C779 447.744 774.744 452 769.5 452 L565.548 452 C559.752 452 555.451 447.27 556 441.5 C556.48 436.464 562.005 428.748 566.619 426.672 L566.619 426.672 Z " />
<glyph glyph-name="x" unicode="x" horiz-adv-x="538" d="M280.5 0 L510 0 C514.968 0 519 4.03227 519 9 C519 13.2527 514.936 20.4537 511.295 22.6518 L476.826 43.4635 C474.466 44.8884 460.241 58.0396 458.635 60.2807 L334.599 233.433 C325.272 246.452 327.431 270.908 337.462 283.393 C366.692 319.773 395.923 356.533 425.154 392.762 C426.908 394.936 439.775 404.603 442.249 405.901 L484.03 427.819 C487.926 429.863 492 436.601 492 441 C492 445.968 487.968 450 483 450 L315 450 C310.032 450 306 445.968 306 441 C306 436.617 310.074 429.827 313.941 427.765 L336 416 C352.428 407.238 357.116 387.444 346.362 372.245 L303.422 311.556 C296.971 302.44 283.995 303.795 277.453 312.846 C260.59 336.179 243.442 359.513 226.602 382.846 C219.784 392.293 224.046 402.912 234.739 407.536 L280.739 427.428 C284.924 429.238 289 435.44 289 440 C289 444.968 284.968 449 280 449 L44 449 C39.0323 449 35 444.968 35 440 C35 435.747 39.064 428.546 42.7046 426.348 L76.8129 405.754 C79.326 404.237 93.7917 390.686 95.4698 388.277 L187.212 256.583 C200.104 238.077 199.894 204.071 186.774 185.725 L97.1014 60.3287 C95.1731 57.6323 79.708 43.8734 76.8055 42.272 L38.8802 21.3477 C35.0718 19.2465 31 12.3496 31 8 C31 3.03227 35.0323 -1 40 -1 L220 -1 C224.968 -1 229 3.03227 229 8 C229 12.5498 224.924 18.7867 220.757 20.6133 L192.5 33 C172.59 41.7275 165.725 64.2823 177.396 82.6223 L225.552 158.295 C232.929 169.889 248.36 169.137 256.27 157.9 C276.4 129.3 296.456 100.7 316.163 72.1 C324.491 60.0155 321.455 43.3758 308.506 36.4696 L279.5 21 C275.847 19.0519 272 12.6398 272 8.5 C272 3.80825 275.808 0 280.5 0 L280.5 0 Z " />
<glyph glyph-name="y" unicode="y" horiz-adv-x="483" d="M249 450 L-16 450 C-20.9677 450 -25 445.968 -25 441 C-25 436.493 -20.9237 430.11 -16.8353 428.213 L22.897 409.787 C30.6115 406.209 49.9191 386.481 53.3296 378.691 L202.489 38.0076 C206.677 28.4429 206.952 -0.560287 202.947 -10.2028 L186 -51 C167 -101 144 -120 103 -120 L39.8284 -120 C38.7245 -120 35.7806 -121.219 35 -122 C34.2194 -122.781 33 -125.724 33 -126.828 L33 -198 C33 -228 47 -240 82 -240 C148 -240 192 -193 239 -71 L423.993 373.365 C427.304 381.318 446.361 401.413 454.127 405.141 L499.436 426.889 C503.697 428.935 508 435.773 508 440.5 C508 445.744 503.744 450 498.5 450 L303.5 450 C298.256 450 294 445.744 294 440.5 C294 435.75 298.303 428.988 302.606 426.976 L332.5 413 C353.73 403.074 363.7 377.389 354.725 355.74 L290.719 201.333 C284.064 185.278 262.593 187.071 255.63 202.995 C232.9 254.975 210.244 306.881 187.937 358.438 C178.509 380.227 188.103 406.583 210.414 414.696 L249.542 428.924 C253.929 430.52 258 436.331 258 441 C258 445.968 253.968 450 249 450 L249 450 Z " />
<glyph glyph-name="z" unicode="z" horiz-adv-x="489" d="M78.75 455.5 L78.5 451 L78 432 L77 419 C74.1538 381.051 68.6075 331.402 65.4844 292.253 C65.1107 287.569 68.8008 286 73.5 286 C77.8257 286 83.6164 289.849 85.2915 293.837 L108.188 348.352 C116.235 367.511 144.053 386 164.834 386 L192 386 C225.083 386 241.998 352.224 226.481 323.005 C175.512 227.03 124.959 131.166 73.7982 35.9269 C72.1929 32.9386 69 17.3922 69 14 C69 6.82439 74.8244 1 82 1 L399.992 1 C408.824 1 416.224 8.17279 416.5 17 L417 33 L417.938 162.5 C417.972 167.192 414.192 171 409.5 171 C405.024 171 399.793 167.161 398.451 162.891 L381.52 109.019 C374.401 86.3661 346.652 66 322.907 66 L286.882 66 C254.347 66 237.722 99.2196 252.999 127.945 C301.624 219.371 349.964 310.692 399.415 401.443 C401.393 405.073 409 430.572 409 434.706 L409 435 C409 443.832 401.832 451 393 451 L138.752 451 C137.689 451 124.521 452.661 123.491 452.925 L98.3149 459.381 C97.1928 459.669 86.655 460.589 85.5 460.5 L83.4937 460.346 C81.035 460.157 78.8868 457.962 78.75 455.5 L78.75 455.5 Z " />
<glyph glyph-name="bar" unicode="&#x7c;" horiz-adv-x="236" d="M100 -260 C119.871 -260 136 -243.871 136 -224 L136 724 C136 743.871 119.871 760 100 760 C80.1291 760 64 743.871 64 724 L64 -224 C64 -243.871 80.1291 -260 100 -260 L100 -260 Z " />
<glyph glyph-name="asciitilde" unicode="&#x7e;" horiz-adv-x="340" d="M38.5156 235.157 C47.3391 259.429 56.9412 275 79 275 C123 275 183 214 227 214 C273.8 214 295.884 265.334 321.984 343.903 C323.557 348.639 319.49 350 314.5 350 C309.716 350 303.157 344.286 301.551 339.78 C292.531 314.474 282.257 298 261 298 C217 298 157 359 113 359 C67.4 359 44.3625 310.265 19.881 236.802 C18.2958 232.045 20.4861 225 25.5 225 C30.2897 225 36.8792 230.655 38.5156 235.157 L38.5156 235.157 Z " />
<glyph glyph-name="exclamdown" unicode="&#xa1;" horiz-adv-x="283" d="M149 460 C101 460 69 428 69 380 C69 332 101 300 149 300 C197 300 229 332 229 380 C229 428 197 460 149 460 L149 460 Z M149 -210 C186.778 -210 214.039 -179.03 209.246 -141.558 L164.776 206.113 C163.804 213.716 156.665 220 149 220 C141.335 220 134.196 213.716 133.224 206.113 L88.7543 -141.558 C83.9612 -179.03 111.222 -210 149 -210 L149 -210 Z " />
<glyph glyph-name="guillemotleft" unicode="&#xab;" horiz-adv-x="432" d="M390.009 419.698 L247.842 293.88 C219.429 268.735 219.371 227.2 247.713 201.975 L390.024 75.3186 C392.217 73.3669 401.064 70 404 70 C408.094 70 410.535 73.6214 409 77.4163 L349.345 224.896 C345.752 233.78 345.78 262.208 349.391 271.085 L408.986 417.59 C410.527 421.378 408.09 425 404 425 C401.074 425 392.201 421.638 390.009 419.698 L390.009 419.698 Z M207.009 419.698 L64.8419 293.88 C36.4293 268.735 36.3713 227.2 64.7134 201.975 L207.024 75.3186 C209.217 73.3669 218.064 70 221 70 C225.094 70 227.535 73.6214 226 77.4163 L166.345 224.896 C162.752 233.78 162.78 262.208 166.391 271.085 L225.986 417.59 C227.527 421.378 225.09 425 221 425 C218.074 425 209.201 421.638 207.009 419.698 L207.009 419.698 Z " />
<glyph glyph-name="acute" unicode="&#xb4;" horiz-adv-x="340" d="M177.5 530 C179.967 530 191.132 533.172 193.23 534.469 L330 619 C355 634 371 707 371 707 C371 707 350.228 707 333.634 707 L294.261 707 C275.308 707 247.483 689.672 239.122 672.662 L172.75 537.628 C170.892 533.85 173.289 530 177.5 530 L177.5 530 Z " />
<glyph glyph-name="periodcentered" unicode="&#xb7;" horiz-adv-x="290" d="M145 210 C193 210 225 242 225 290 C225 338 193 370 145 370 C97 370 65 338 65 290 C65 242 97 210 145 210 L145 210 Z " />
<glyph glyph-name="guillemotright" unicode="&#xbb;" horiz-adv-x="452" d="M214.191 417.664 L277.368 272.44 C281.653 262.59 281.683 233.397 277.418 223.538 L214.176 77.3425 C212.567 73.6228 214.947 70 219 70 C221.895 70 230.855 73.3469 233.041 75.2451 L378.42 201.477 C407.69 226.892 407.632 269.04 378.291 294.373 L233.055 419.772 C230.871 421.658 221.886 425 219 425 C214.951 425 212.576 421.377 214.191 417.664 L214.191 417.664 Z M23.1913 417.664 L86.3677 272.44 C90.653 262.59 90.683 233.397 86.418 223.538 L23.1762 77.3425 C21.5671 73.6228 23.9472 70 28 70 C30.8951 70 39.8546 73.3469 42.0406 75.2451 L187.42 201.477 C216.69 226.892 216.632 269.04 187.291 294.373 L42.0552 419.772 C39.871 421.658 30.8858 425 28 425 C23.9508 425 21.576 421.377 23.1913 417.664 L23.1913 417.664 Z " />
<glyph glyph-name="questiondown" unicode="&#xbf;" horiz-adv-x="488" d="M256 455 C208 455 176 423 176 375 C176 327 208 295 256 295 C304 295 336 327 336 375 C336 423 304 455 256 455 L256 455 Z M322.163 -69.976 C325.83 -69.4373 390.584 -59.9758 431.676 -57.5586 C442.753 -56.907 448.701 -50.9974 446.038 -40.2249 C439.963 -15.6544 420.225 0 393 0 L341.062 0 C337.247 0 334.758 3.02314 332.841 -0.275463 C331.701 -2.23611 324.75 -14 322 -14 L322 -42 C322 -57.2787 307.046 -72.1968 322.163 -69.976 L322.163 -69.976 Z M320.568 -95.5605 C316.124 -132.859 301.625 -156 281 -156 C225 -156 187 -108 187 -35 C187 3.85 228.07 54.6788 292.007 95.3256 C300.868 100.959 307.897 112.762 305.752 123.04 C297.733 161.477 271 220 271 220 C271 220 268.955 220 256.5 220 L244.693 220 C243.277 220 242.413 221.091 241.91 219.768 C241.559 218.842 240.223 215.174 238.746 209.186 C238.345 207.559 231.241 201.881 229.82 200.994 C124.396 135.211 55 42.025 55 -35 C55 -146 127 -220 236 -220 C340.775 -220 416.964 -175.759 440.421 -105.247 C451.291 -72.5703 433.514 -58.4946 399.259 -62.0289 L347.863 -67.3316 C335.513 -68.6058 322.036 -83.2326 320.568 -95.5605 L320.568 -95.5605 Z " />
<glyph glyph-name="Agrave" unicode="&#xc0;" horiz-adv-x="758" d="M375.92 712.457 L310.481 832.052 C302.016 847.522 274.216 864 256.582 864 L211.956 864 C193.684 864 173.654 881.619 178.03 863.878 C178.806 860.733 194.625 797.675 219 785 L355.57 709.128 C357.561 708.021 369.221 705 371.5 705 C375.616 705 377.896 708.846 375.92 712.457 L375.92 712.457 Z M265.539 20.9295 L208.281 43.4113 C199.027 47.0448 193.965 56.9905 197.271 66.3665 C208.532 98.3022 223.537 140.72 242.285 191.373 C242.585 192.183 244 192.364 244 191.5 C244 189.016 246.016 187.009 248.5 187.02 L442.302 187.889 C454.917 187.946 472.116 174.953 476.777 163.231 C488.974 132.564 501.455 101.897 513.629 71.2308 C518.681 58.5031 511.658 46.2393 498.789 41.5596 L442.458 21.0757 C438.071 19.4802 434 13.6686 434 9 C434 4.03227 438.032 0 443 0 L677 0 L715 0 C719.416 0 723 3.58424 723 8 C723 12.0326 719.377 17.6165 715.694 19.2595 L680.292 35.0543 C671.78 38.852 651.717 60.12 648.159 68.7352 C580.743 231.997 421 630 421 630 L414 647.5 C410.413 656.469 397.811 665 388.152 665 L356.116 665 C348.931 665 339.447 658.971 336.653 652.351 C327.459 630.568 318.378 608.784 310 587 C213.8 349.275 140.702 167.166 102.577 73.1215 C98.7466 63.6718 79.5693 46.0797 70.1357 42.2095 L24.3265 23.416 C20.0745 21.6716 16 15.596 16 11 C16 6.03227 20.0323 2 25 2 L263.984 2 C268.4 2 272.225 5.59284 272.5 10 C272.763 14.2029 269.459 19.3904 265.539 20.9295 L265.539 20.9295 Z M354 268 L304.708 268 C287.289 268 277.717 285.624 283.962 301.886 C300.452 344.824 318.558 391.342 338.006 440.617 C343.807 455.316 363.5 456.621 369.237 441.897 L406.864 345.336 C422.363 305.562 396.687 268 354 268 L354 268 Z " />
<glyph glyph-name="Aacute" unicode="&#xc1;" horiz-adv-x="758" d="M379.5 705 C381.779 705 393.439 708.021 395.43 709.128 L532 785 C557 799 573 865 573 865 C573 865 553.786 865 539.044 865 L494.473 865 C476.799 865 448.998 848.496 440.535 832.981 L375.07 712.962 C373.098 709.346 375.381 705 379.5 705 L379.5 705 Z M265.539 20.9295 L208.281 43.4113 C199.027 47.0448 193.965 56.9905 197.271 66.3665 C208.532 98.3022 223.537 140.72 242.285 191.373 C242.585 192.183 244 192.364 244 191.5 C244 189.016 246.016 187.009 248.5 187.02 L442.302 187.889 C454.917 187.946 472.116 174.953 476.777 163.231 C488.974 132.564 501.455 101.897 513.629 71.2308 C518.681 58.5031 511.658 46.2393 498.789 41.5596 L442.458 21.0757 C438.071 19.4802 434 13.6686 434 9 C434 4.03227 438.032 0 443 0 L677 0 L715 0 C719.416 0 723 3.58424 723 8 C723 12.0326 719.377 17.6165 715.694 19.2595 L680.292 35.0543 C671.78 38.852 651.717 60.12 648.159 68.7352 C580.743 231.997 421 630 421 630 L414 647.5 C410.413 656.469 397.811 665 388.152 665 L356.116 665 C348.931 665 339.447 658.971 336.653 652.351 C327.459 630.568 318.378 608.784 310 587 C213.8 349.275 140.702 167.166 102.577 73.1215 C98.7466 63.6718 79.5693 46.0797 70.1357 42.2095 L24.3265 23.416 C20.0745 21.6716 16 15.596 16 11 C16 6.03227 20.0323 2 25 2 L263.984 2 C268.4 2 272.225 5.59284 272.5 10 C272.763 14.2029 269.459 19.3904 265.539 20.9295 L265.539 20.9295 Z M354 268 L304.708 268 C287.289 268 277.717 285.624 283.962 301.886 C300.452 344.824 318.558 391.342 338.006 440.617 C343.807 455.316 363.5 456.621 369.237 441.897 L406.864 345.336 C422.363 305.562 396.687 268 354 268 L354 268 Z " />
<glyph glyph-name="Acircumflex" unicode="&#xc2;" horiz-adv-x="758" d="M536 705 L535 706 L536 706 L536 705 L536 705 Z M265.539 20.9295 L208.281 43.4113 C199.027 47.0448 193.965 56.9905 197.271 66.3665 C208.532 98.3022 223.537 140.72 242.285 191.373 C242.585 192.183 244 192.364 244 191.5 C244 189.016 246.016 187.009 248.5 187.02 L442.302 187.889 C454.917 187.946 472.116 174.953 476.777 163.231 C488.974 132.564 501.455 101.897 513.629 71.2308 C518.681 58.5031 511.658 46.2393 498.789 41.5596 L442.458 21.0757 C438.071 19.4802 434 13.6686 434 9 C434 4.03227 438.032 0 443 0 L677 0 L715 0 C719.416 0 723 3.58424 723 8 C723 12.0326 719.377 17.6165 715.694 19.2595 L680.292 35.0543 C671.78 38.852 651.717 60.12 648.159 68.7352 C580.743 231.997 421 630 421 630 L414 647.5 C410.413 656.469 397.811 665 388.152 665 L356.116 665 C348.931 665 339.447 658.971 336.653 652.351 C327.459 630.568 318.378 608.784 310 587 C213.8 349.275 140.702 167.166 102.577 73.1215 C98.7466 63.6718 79.5693 46.0797 70.1357 42.2095 L24.3265 23.416 C20.0745 21.6716 16 15.596 16 11 C16 6.03227 20.0323 2 25 2 L263.984 2 C268.4 2 272.225 5.59284 272.5 10 C272.763 14.2029 269.459 19.3904 265.539 20.9295 L265.539 20.9295 Z M377 865 C370.801 865 356.166 858.411 352.057 853.769 L228.966 714.739 C226.5 711.954 228.281 708 232 708 C234.338 708 246.878 711.135 248.941 712.235 L347.705 764.909 C360.518 771.743 391.627 772.02 404.56 765.416 L509.43 711.866 C511.33 710.895 523.366 708 525.5 708 C528.98 708 530.632 711.723 528.298 714.304 L402.062 853.875 C397.943 858.429 383.141 865 377 865 L377 865 Z M354 268 L304.708 268 C287.289 268 277.717 285.624 283.962 301.886 C300.452 344.824 318.558 391.342 338.006 440.617 C343.807 455.316 363.5 456.621 369.237 441.897 L406.864 345.336 C422.363 305.562 396.687 268 354 268 L354 268 Z " />
<glyph glyph-name="Atilde" unicode="&#xc3;" horiz-adv-x="758" d="M251.734 737.686 C260.484 759.219 270 773 291 773 C336 773 395 718 440 718 C484.65 718 506.738 762.223 531.984 830.09 C533.709 834.728 531.448 841 526.5 841 C521.815 841 514.96 835.294 513.225 830.941 C504.297 808.547 494.125 794 474 794 C429 794 370 849 325 849 C280.35 849 257.36 804.778 232.881 738.624 C231.16 733.973 233.541 728 238.5 728 C243.198 728 249.966 733.333 251.734 737.686 L251.734 737.686 Z M265.539 20.9295 L208.281 43.4113 C199.027 47.0448 193.965 56.9905 197.271 66.3665 C208.532 98.3022 223.537 140.72 242.285 191.373 C242.585 192.183 244 192.364 244 191.5 C244 189.016 246.016 187.009 248.5 187.02 L442.302 187.889 C454.917 187.946 472.116 174.953 476.777 163.231 C488.974 132.564 501.455 101.897 513.629 71.2308 C518.681 58.5031 511.658 46.2393 498.789 41.5596 L442.458 21.0757 C438.071 19.4802 434 13.6686 434 9 C434 4.03227 438.032 0 443 0 L677 0 L715 0 C719.416 0 723 3.58424 723 8 C723 12.0326 719.377 17.6165 715.694 19.2595 L680.292 35.0543 C671.78 38.852 651.717 60.12 648.159 68.7352 C580.743 231.997 421 630 421 630 L414 647.5 C410.413 656.469 397.811 665 388.152 665 L356.116 665 C348.931 665 339.447 658.971 336.653 652.351 C327.459 630.568 318.378 608.784 310 587 C213.8 349.275 140.702 167.166 102.577 73.1215 C98.7466 63.6718 79.5693 46.0797 70.1357 42.2095 L24.3265 23.416 C20.0745 21.6716 16 15.596 16 11 C16 6.03227 20.0323 2 25 2 L263.984 2 C268.4 2 272.225 5.59284 272.5 10 C272.763 14.2029 269.459 19.3904 265.539 20.9295 L265.539 20.9295 Z M354 268 L304.708 268 C287.289 268 277.717 285.624 283.962 301.886 C300.452 344.824 318.558 391.342 338.006 440.617 C343.807 455.316 363.5 456.621 369.237 441.897 L406.864 345.336 C422.363 305.562 396.687 268 354 268 L354 268 Z " />
<glyph glyph-name="Adieresis" unicode="&#xc4;" horiz-adv-x="758" d="M485 735 C528 735 557 764 557 807 C557 850 528 879 485 879 C442 879 413 850 413 807 C413 764 442 735 485 735 L485 735 Z M270 735 C313 735 342 764 342 807 C342 850 313 879 270 879 C227 879 198 850 198 807 C198 764 227 735 270 735 L270 735 Z M265.539 20.9295 L208.281 43.4113 C199.027 47.0448 193.965 56.9905 197.271 66.3665 C208.532 98.3022 223.537 140.72 242.285 191.373 C242.585 192.183 244 192.364 244 191.5 C244 189.016 246.016 187.009 248.5 187.02 L442.302 187.889 C454.917 187.946 472.116 174.953 476.777 163.231 C488.974 132.564 501.455 101.897 513.629 71.2308 C518.681 58.5031 511.658 46.2393 498.789 41.5596 L442.458 21.0757 C438.071 19.4802 434 13.6686 434 9 C434 4.03227 438.032 0 443 0 L677 0 L715 0 C719.416 0 723 3.58424 723 8 C723 12.0326 719.377 17.6165 715.694 19.2595 L680.292 35.0543 C671.78 38.852 651.717 60.12 648.159 68.7352 C580.743 231.997 421 630 421 630 L414 647.5 C410.413 656.469 397.811 665 388.152 665 L356.116 665 C348.931 665 339.447 658.971 336.653 652.351 C327.459 630.568 318.378 608.784 310 587 C213.8 349.275 140.702 167.166 102.577 73.1215 C98.7466 63.6718 79.5693 46.0797 70.1357 42.2095 L24.3265 23.416 C20.0745 21.6716 16 15.596 16 11 C16 6.03227 20.0323 2 25 2 L263.984 2 C268.4 2 272.225 5.59284 272.5 10 C272.763 14.2029 269.459 19.3904 265.539 20.9295 L265.539 20.9295 Z M354 268 L304.708 268 C287.289 268 277.717 285.624 283.962 301.886 C300.452 344.824 318.558 391.342 338.006 440.617 C343.807 455.316 363.5 456.621 369.237 441.897 L406.864 345.336 C422.363 305.562 396.687 268 354 268 L354 268 Z " />
<glyph glyph-name="Aring" unicode="&#xc5;" horiz-adv-x="758" d="M358 809 C358 835 364 853 374 853 C388 853 397 828 397 790 C397 765 391 744 383 744 C370 744 358 774 358 809 L358 809 Z M287 799 C287 751 329 710 378 710 C427 710 468 752 468 802 C468 853 432 887 378 887 C323 887 287 852 287 799 L287 799 Z M265.539 20.9295 L208.281 43.4113 C199.027 47.0448 193.965 56.9905 197.271 66.3665 C208.532 98.3022 223.537 140.72 242.285 191.373 C242.585 192.183 244 192.364 244 191.5 C244 189.016 246.016 187.009 248.5 187.02 L442.302 187.889 C454.917 187.946 472.116 174.953 476.777 163.231 C488.974 132.564 501.455 101.897 513.629 71.2308 C518.681 58.5031 511.658 46.2393 498.789 41.5596 L442.458 21.0757 C438.071 19.4802 434 13.6686 434 9 C434 4.03227 438.032 0 443 0 L677 0 L715 0 C719.416 0 723 3.58424 723 8 C723 12.0326 719.377 17.6165 715.694 19.2595 L680.292 35.0543 C671.78 38.852 651.717 60.12 648.159 68.7352 C580.743 231.997 421 630 421 630 L414 647.5 C410.413 656.469 397.811 665 388.152 665 L356.116 665 C348.931 665 339.447 658.971 336.653 652.351 C327.459 630.568 318.378 608.784 310 587 C213.8 349.275 140.702 167.166 102.577 73.1215 C98.7466 63.6718 79.5693 46.0797 70.1357 42.2095 L24.3265 23.416 C20.0745 21.6716 16 15.596 16 11 C16 6.03227 20.0323 2 25 2 L263.984 2 C268.4 2 272.225 5.59284 272.5 10 C272.763 14.2029 269.459 19.3904 265.539 20.9295 L265.539 20.9295 Z M354 268 L304.708 268 C287.289 268 277.717 285.624 283.962 301.886 C300.452 344.824 318.558 391.342 338.006 440.617 C343.807 455.316 363.5 456.621 369.237 441.897 L406.864 345.336 C422.363 305.562 396.687 268 354 268 L354 268 Z " />
<glyph glyph-name="Ccedilla" unicode="&#xc7;" horiz-adv-x="721" d="M423.245 -46.088 C430.309 -31.4688 435.784 -20.4453 439.314 -13.373 C440.263 -11.4722 445.233 -9.79183 447.354 -9.67386 C517.01 -5.79997 578.668 7.48356 615.484 26.2461 C626.423 31.8209 633.462 45.4101 634.136 57.6691 L642.835 216.005 C642.922 217.589 642.072 218.988 640.487 219.055 C635.571 219.265 631.286 220 627 220 C611 192 590 154 574 126 C569 118 562 110 556 106 C512 79 455 61 405 61 C285 61 205 177 205 350 C205 498 289 597 416 597 C457 597 504 580 538 554 C545 549 552 540 556 533 C573 501 594 459 611 427 C611.728 425.63 611.701 426.987 613.252 427.043 C617.764 427.207 622.346 427.793 627.42 427.957 C629.289 428.017 629.934 429.628 629.858 431.497 L623.081 598.39 C622.682 608.217 611.278 612.07 605 604.5 L609.805 610.294 C618.319 620.561 617.629 629.788 605.893 636.126 C569.107 655.995 497.75 669 417 669 C210 669 72 524 72 306 C72 125.625 192.729 2.2875 375.796 -9.3278 C379.895 -9.58785 388.511 -13.1909 386.777 -16.9141 C379.16 -33.2734 364.652 -64.5391 345.785 -105.648 C340.473 -117.224 345.396 -131.251 357 -136.5 L368.446 -141.678 C369.046 -141.949 387.824 -147.482 388.466 -147.631 C405.71 -151.622 417 -161.4 417 -174 C417 -190 402 -200 380 -200 C355.613 -200 333.502 -193.931 320.934 -184.437 C318.874 -182.881 316 -184.919 316 -187.5 C316 -190.659 319.336 -198.677 321.561 -200.919 C345.055 -224.599 375.95 -240 400 -240 C462 -240 504 -204 504 -151 C504 -108.45 475.764 -74.8841 430.373 -59.7996 C424.217 -57.7538 420.423 -51.929 423.245 -46.088 L423.245 -46.088 Z " />
<glyph glyph-name="Egrave" unicode="&#xc8;" horiz-adv-x="658" d="M341.92 712.457 L276.481 832.052 C268.016 847.522 240.216 864 222.582 864 L177.956 864 C159.684 864 139.654 881.619 144.03 863.878 C144.806 860.733 160.625 797.675 185 785 L321.57 709.128 C323.561 708.021 335.221 705 337.5 705 C341.616 705 343.896 708.846 341.92 712.457 L341.92 712.457 Z M579.5 204 C575.244 204 569.214 200.15 567.422 196.29 L529.509 114.58 C521.243 96.7652 493.416 79 473.776 79 L335.44 79 C301.527 79 274 106.527 274 140.44 L274 238.56 C274 272.473 301.527 300 335.44 300 L375.863 300 C394.013 300 421.826 283.189 430.262 267.119 L449.654 230.182 C452.267 225.206 460.88 220 466.5 220 C472.848 220 478 225.152 478 231.5 L478 448.5 C478 454.848 472.848 460 466.5 460 C460.88 460 452.267 454.794 449.654 449.818 L430.262 412.881 C421.826 396.811 394.013 380 375.863 380 L335.44 380 C301.527 380 274 407.527 274 441.44 L274 519.56 C274 553.473 301.527 581 335.44 581 L450.175 581 C468.817 581 496.639 563.872 505.033 547.227 L542.172 473.589 C544.059 469.849 550.311 466 554.5 466 C559.192 466 563 469.808 563 474.5 L563 598.56 C563 632.473 535.473 660 501.56 660 L73.5 660 C68.2563 660 64 655.744 64 650.5 C64 645.718 68.3026 639.064 72.6633 637.102 L107.773 621.302 C126.008 613.096 144 585.27 144 565.274 L144 94.7262 C144 74.7299 126.008 46.9035 107.773 38.6978 L72.6633 22.8985 C68.3026 20.9362 64 14.2819 64 9.5 C64 4.25628 68.2563 0 73.5 0 L526.56 0 C560.473 0 588 27.527 588 61.44 L588 195.5 C588 200.192 584.192 204 579.5 204 L579.5 204 Z " />
<glyph glyph-name="Eacute" unicode="&#xc9;" horiz-adv-x="658" d="M345.5 705 C347.779 705 359.439 708.021 361.43 709.128 L498 785 C523 799 539 865 539 865 C539 865 519.786 865 505.044 865 L460.473 865 C442.799 865 414.998 848.496 406.535 832.981 L341.07 712.962 C339.098 709.346 341.381 705 345.5 705 L345.5 705 Z M579.5 204 C575.244 204 569.214 200.15 567.422 196.29 L529.509 114.58 C521.243 96.7652 493.416 79 473.776 79 L335.44 79 C301.527 79 274 106.527 274 140.44 L274 238.56 C274 272.473 301.527 300 335.44 300 L375.863 300 C394.013 300 421.826 283.189 430.262 267.119 L449.654 230.182 C452.267 225.206 460.88 220 466.5 220 C472.848 220 478 225.152 478 231.5 L478 448.5 C478 454.848 472.848 460 466.5 460 C460.88 460 452.267 454.794 449.654 449.818 L430.262 412.881 C421.826 396.811 394.013 380 375.863 380 L335.44 380 C301.527 380 274 407.527 274 441.44 L274 519.56 C274 553.473 301.527 581 335.44 581 L450.175 581 C468.817 581 496.639 563.872 505.033 547.227 L542.172 473.589 C544.059 469.849 550.311 466 554.5 466 C559.192 466 563 469.808 563 474.5 L563 598.56 C563 632.473 535.473 660 501.56 660 L73.5 660 C68.2563 660 64 655.744 64 650.5 C64 645.718 68.3026 639.064 72.6633 637.102 L107.773 621.302 C126.008 613.096 144 585.27 144 565.274 L144 94.7262 C144 74.7299 126.008 46.9035 107.773 38.6978 L72.6633 22.8985 C68.3026 20.9362 64 14.2819 64 9.5 C64 4.25628 68.2563 0 73.5 0 L526.56 0 C560.473 0 588 27.527 588 61.44 L588 195.5 C588 200.192 584.192 204 579.5 204 L579.5 204 Z " />
<glyph glyph-name="Ecircumflex" unicode="&#xca;" horiz-adv-x="658" d="M497 705 L496 706 L497 706 L497 705 L497 705 Z M339 863 C332.801 863 318.166 856.411 314.057 851.769 L190.966 712.739 C188.5 709.954 190.281 706 194 706 C196.338 706 208.878 709.135 210.941 710.235 L309.705 762.909 C322.518 769.743 353.627 770.02 366.56 763.416 L471.43 709.866 C473.33 708.895 485.366 706 487.5 706 C490.98 706 492.632 709.723 490.298 712.304 L364.062 851.875 C359.943 856.429 345.141 863 339 863 L339 863 Z M579.5 204 C575.244 204 569.214 200.15 567.422 196.29 L529.509 114.58 C521.243 96.7652 493.416 79 473.776 79 L335.44 79 C301.527 79 274 106.527 274 140.44 L274 238.56 C274 272.473 301.527 300 335.44 300 L375.863 300 C394.013 300 421.826 283.189 430.262 267.119 L449.654 230.182 C452.267 225.206 460.88 220 466.5 220 C472.848 220 478 225.152 478 231.5 L478 448.5 C478 454.848 472.848 460 466.5 460 C460.88 460 452.267 454.794 449.654 449.818 L430.262 412.881 C421.826 396.811 394.013 380 375.863 380 L335.44 380 C301.527 380 274 407.527 274 441.44 L274 519.56 C274 553.473 301.527 581 335.44 581 L450.175 581 C468.817 581 496.639 563.872 505.033 547.227 L542.172 473.589 C544.059 469.849 550.311 466 554.5 466 C559.192 466 563 469.808 563 474.5 L563 598.56 C563 632.473 535.473 660 501.56 660 L73.5 660 C68.2563 660 64 655.744 64 650.5 C64 645.718 68.3026 639.064 72.6633 637.102 L107.773 621.302 C126.008 613.096 144 585.27 144 565.274 L144 94.7262 C144 74.7299 126.008 46.9035 107.773 38.6978 L72.6633 22.8985 C68.3026 20.9362 64 14.2819 64 9.5 C64 4.25628 68.2563 0 73.5 0 L526.56 0 C560.473 0 588 27.527 588 61.44 L588 195.5 C588 200.192 584.192 204 579.5 204 L579.5 204 Z " />
<glyph glyph-name="Edieresis" unicode="&#xcb;" horiz-adv-x="658" d="M446 735 C489 735 518 764 518 807 C518 850 489 879 446 879 C403 879 374 850 374 807 C374 764 403 735 446 735 L446 735 Z M231 735 C274 735 303 764 303 807 C303 850 274 879 231 879 C188 879 159 850 159 807 C159 764 188 735 231 735 L231 735 Z M579.5 204 C575.244 204 569.214 200.15 567.422 196.29 L529.509 114.58 C521.243 96.7652 493.416 79 473.776 79 L335.44 79 C301.527 79 274 106.527 274 140.44 L274 238.56 C274 272.473 301.527 300 335.44 300 L375.863 300 C394.013 300 421.826 283.189 430.262 267.119 L449.654 230.182 C452.267 225.206 460.88 220 466.5 220 C472.848 220 478 225.152 478 231.5 L478 448.5 C478 454.848 472.848 460 466.5 460 C460.88 460 452.267 454.794 449.654 449.818 L430.262 412.881 C421.826 396.811 394.013 380 375.863 380 L335.44 380 C301.527 380 274 407.527 274 441.44 L274 519.56 C274 553.473 301.527 581 335.44 581 L450.175 581 C468.817 581 496.639 563.872 505.033 547.227 L542.172 473.589 C544.059 469.849 550.311 466 554.5 466 C559.192 466 563 469.808 563 474.5 L563 598.56 C563 632.473 535.473 660 501.56 660 L73.5 660 C68.2563 660 64 655.744 64 650.5 C64 645.718 68.3026 639.064 72.6633 637.102 L107.773 621.302 C126.008 613.096 144 585.27 144 565.274 L144 94.7262 C144 74.7299 126.008 46.9035 107.773 38.6978 L72.6633 22.8985 C68.3026 20.9362 64 14.2819 64 9.5 C64 4.25628 68.2563 0 73.5 0 L526.56 0 C560.473 0 588 27.527 588 61.44 L588 195.5 C588 200.192 584.192 204 579.5 204 L579.5 204 Z " />
<glyph glyph-name="Igrave" unicode="&#xcc;" horiz-adv-x="429" d="M217.92 712.457 L152.481 832.052 C144.016 847.522 116.216 864 98.582 864 L53.9559 864 C35.6836 864 15.6541 881.619 20.0299 863.878 C20.8056 860.733 36.625 797.675 61 785 L197.57 709.128 C199.561 708.021 211.221 705 213.5 705 C217.616 705 219.896 708.846 217.92 712.457 L217.92 712.457 Z M359 9.5 C359 14.2819 354.697 20.9362 350.337 22.8985 L315.227 38.6978 C296.992 46.9035 279 74.7299 279 94.7262 L279 565.274 C279 585.27 296.992 613.096 315.227 621.302 L350.337 637.102 C354.697 639.064 359 645.718 359 650.5 C359 655.744 354.744 660 349.5 660 L79.5 660 C74.2563 660 70 655.744 70 650.5 C70 645.718 74.3026 639.064 78.6633 637.102 L113.773 621.302 C132.008 613.096 150 585.27 150 565.274 L150 94.7262 C150 74.7299 132.008 46.9035 113.773 38.6978 L78.6633 22.8985 C74.3026 20.9362 70 14.2819 70 9.5 C70 4.25628 74.2563 0 79.5 0 L349.5 0 C354.744 0 359 4.25628 359 9.5 L359 9.5 Z " />
<glyph glyph-name="Iacute" unicode="&#xcd;" horiz-adv-x="429" d="M222.5 705 C224.779 705 236.439 708.021 238.43 709.128 L375 785 C400 799 416 865 416 865 C416 865 396.786 865 382.044 865 L337.473 865 C319.799 865 291.998 848.496 283.535 832.981 L218.07 712.962 C216.098 709.346 218.381 705 222.5 705 L222.5 705 Z M359 9.5 C359 14.2819 354.697 20.9362 350.337 22.8985 L315.227 38.6978 C296.992 46.9035 279 74.7299 279 94.7262 L279 565.274 C279 585.27 296.992 613.096 315.227 621.302 L350.337 637.102 C354.697 639.064 359 645.718 359 650.5 C359 655.744 354.744 660 349.5 660 L79.5 660 C74.2563 660 70 655.744 70 650.5 C70 645.718 74.3026 639.064 78.6633 637.102 L113.773 621.302 C132.008 613.096 150 585.27 150 565.274 L150 94.7262 C150 74.7299 132.008 46.9035 113.773 38.6978 L78.6633 22.8985 C74.3026 20.9362 70 14.2819 70 9.5 C70 4.25628 74.2563 0 79.5 0 L349.5 0 C354.744 0 359 4.25628 359 9.5 L359 9.5 Z " />
<glyph glyph-name="Icircumflex" unicode="&#xce;" horiz-adv-x="429" d="M373 705 L372 706 L373 706 L373 705 L373 705 Z M215 863 C208.781 863 194.203 856.404 190.097 851.734 L67.6117 712.384 C65.2852 709.737 66.9761 706 70.5 706 C72.6952 706 84.5721 708.95 86.5122 709.977 L186.765 763.052 C199.523 769.806 230.596 770.036 243.453 763.471 L348.875 709.638 C350.664 708.725 361.992 706 364 706 C367.275 706 368.83 709.504 366.634 711.933 L240.062 851.875 C235.943 856.429 221.141 863 215 863 L215 863 Z M359 9.5 C359 14.2819 354.697 20.9362 350.337 22.8985 L315.227 38.6978 C296.992 46.9035 279 74.7299 279 94.7262 L279 565.274 C279 585.27 296.992 613.096 315.227 621.302 L350.337 637.102 C354.697 639.064 359 645.718 359 650.5 C359 655.744 354.744 660 349.5 660 L79.5 660 C74.2563 660 70 655.744 70 650.5 C70 645.718 74.3026 639.064 78.6633 637.102 L113.773 621.302 C132.008 613.096 150 585.27 150 565.274 L150 94.7262 C150 74.7299 132.008 46.9035 113.773 38.6978 L78.6633 22.8985 C74.3026 20.9362 70 14.2819 70 9.5 C70 4.25628 74.2563 0 79.5 0 L349.5 0 C354.744 0 359 4.25628 359 9.5 L359 9.5 Z " />
<glyph glyph-name="Idieresis" unicode="&#xcf;" horiz-adv-x="429" d="M323 735 C366 735 394 764 394 807 C394 850 366 879 323 879 C280 879 251 850 251 807 C251 764 280 735 323 735 L323 735 Z M108 735 C151 735 179 764 179 807 C179 850 151 879 108 879 C65 879 36 850 36 807 C36 764 65 735 108 735 L108 735 Z M359 9.5 C359 14.2819 354.697 20.9362 350.337 22.8985 L315.227 38.6978 C296.992 46.9035 279 74.7299 279 94.7262 L279 565.274 C279 585.27 296.992 613.096 315.227 621.302 L350.337 637.102 C354.697 639.064 359 645.718 359 650.5 C359 655.744 354.744 660 349.5 660 L79.5 660 C74.2563 660 70 655.744 70 650.5 C70 645.718 74.3026 639.064 78.6633 637.102 L113.773 621.302 C132.008 613.096 150 585.27 150 565.274 L150 94.7262 C150 74.7299 132.008 46.9035 113.773 38.6978 L78.6633 22.8985 C74.3026 20.9362 70 14.2819 70 9.5 C70 4.25628 74.2563 0 79.5 0 L349.5 0 C354.744 0 359 4.25628 359 9.5 L359 9.5 Z " />
<glyph glyph-name="Ntilde" unicode="&#xd1;" horiz-adv-x="811" d="M289.736 737.686 C298.5 759.219 308.125 773 330 773 C374 773 434 718 478 718 C523.6 718 545.735 762.223 570.984 830.09 C572.709 834.728 570.448 841 565.5 841 C560.808 841 554.072 835.593 552.339 831.233 C543.37 808.673 533.091 794 512 794 C468 794 408 849 364 849 C318.4 849 295.362 804.778 270.881 738.624 C269.16 733.973 271.541 728 276.5 728 C281.194 728 287.967 733.338 289.736 737.686 L289.736 737.686 Z M74.5763 636.883 L106.147 621.729 C123.49 613.405 141 585.578 141 566.34 L141 94.7262 C141 74.7299 123.008 46.9035 104.773 38.6978 L69.6633 22.8985 C65.3026 20.9362 61 14.2819 61 9.5 C61 4.25628 65.2563 0 70.5 0 L332.5 0 C337.744 0 342 4.25628 342 9.5 C342 14.4337 337.704 20.5467 333.062 22.2178 L282.629 40.3735 C261.529 47.9697 242 75.7556 242 98.1817 L242 353.283 C242 388.059 285.959 398.97 308.15 372.195 C405.8 254.371 503.45 136.442 601.1 17.9426 C607.87 9.72755 634.355 -5 645 -5 C658.799 -5 670 6.20075 670 20 L670 566.34 C670 585.578 687.51 613.405 704.853 621.729 L736.436 636.889 C740.697 638.935 745 645.773 745 650.5 C745 655.744 740.744 660 735.5 660 L479.5 660 C474.256 660 470 655.744 470 650.5 C470 645.566 474.296 639.453 478.938 637.782 L529.371 619.626 C550.471 612.03 570 584.244 570 561.818 L570 430.75 C570 370.619 499.201 345.293 461.061 391.78 L259.435 637.531 C251.568 647.119 224.338 660 211.936 660 L74.5131 660 C69.2694 660 65.2244 655.736 65.5 650.5 C65.7422 645.898 70.4222 638.877 74.5763 636.883 L74.5763 636.883 Z " />
<glyph glyph-name="Ograve" unicode="&#xd2;" horiz-adv-x="817" d="M396.92 712.457 L331.481 832.052 C323.016 847.522 295.216 864 277.582 864 L232.956 864 C214.684 864 194.654 881.619 199.03 863.878 C199.806 860.733 215.625 797.675 240 785 L376.57 709.128 C378.561 708.021 390.221 705 392.5 705 C396.616 705 398.896 708.846 396.92 712.457 L396.92 712.457 Z M208 375 C208 510 278 600 383 600 C519 600 610 471 610 277 C610 148 541 62 438 62 C300 62 208 187 208 375 L208 375 Z M70 324 C70 124 206 -10 409 -10 C612 -10 747 125 747 328 C747 533 612 670 409 670 C206 670 70 532 70 324 L70 324 Z " />
<glyph glyph-name="Oacute" unicode="&#xd3;" horiz-adv-x="817" d="M400.5 705 C402.779 705 414.439 708.021 416.43 709.128 L553 785 C578 799 594 865 594 865 C594 865 574.786 865 560.044 865 L515.473 865 C497.799 865 469.998 848.496 461.535 832.981 L396.07 712.962 C394.098 709.346 396.381 705 400.5 705 L400.5 705 Z M208 375 C208 510 278 600 383 600 C519 600 610 471 610 277 C610 148 541 62 438 62 C300 62 208 187 208 375 L208 375 Z M70 324 C70 124 206 -10 409 -10 C612 -10 747 125 747 328 C747 533 612 670 409 670 C206 670 70 532 70 324 L70 324 Z " />
<glyph glyph-name="Ocircumflex" unicode="&#xd4;" horiz-adv-x="817" d="M552 705 L551 706 L552 706 L552 705 L552 705 Z M208 375 C208 510 278 600 383 600 C519 600 610 471 610 277 C610 148 541 62 438 62 C300 62 208 187 208 375 L208 375 Z M70 324 C70 124 206 -10 409 -10 C612 -10 747 125 747 328 C747 533 612 670 409 670 C206 670 70 532 70 324 L70 324 Z M394 863 C387.801 863 373.166 856.411 369.057 851.769 L245.966 712.739 C243.5 709.954 245.281 706 249 706 C251.338 706 263.878 709.135 265.941 710.235 L364.705 762.909 C377.518 769.743 408.627 770.02 421.56 763.416 L526.43 709.866 C528.33 708.895 540.366 706 542.5 706 C545.98 706 547.632 709.723 545.298 712.304 L419.062 851.875 C414.943 856.429 400.141 863 394 863 L394 863 Z " />
<glyph glyph-name="Otilde" unicode="&#xd5;" horiz-adv-x="817" d="M262.734 737.686 C271.484 759.219 281 773 302 773 C347 773 406 718 451 718 C495.65 718 517.737 762.223 542.984 830.09 C544.709 834.728 542.448 841 537.5 841 C532.815 841 525.96 835.294 524.225 830.941 C515.297 808.547 505.125 794 485 794 C440 794 381 849 336 849 C291.35 849 268.36 804.778 243.881 738.624 C242.16 733.973 244.541 728 249.5 728 C254.198 728 260.966 733.333 262.734 737.686 L262.734 737.686 Z M208 375 C208 510 278 600 383 600 C519 600 610 471 610 277 C610 148 541 62 438 62 C300 62 208 187 208 375 L208 375 Z M70 324 C70 124 206 -10 409 -10 C612 -10 747 125 747 328 C747 533 612 670 409 670 C206 670 70 532 70 324 L70 324 Z " />
<glyph glyph-name="Odieresis" unicode="&#xd6;" horiz-adv-x="817" d="M501 735 C544 735 573 764 573 807 C573 850 544 879 501 879 C458 879 429 850 429 807 C429 764 458 735 501 735 L501 735 Z M286 735 C329 735 358 764 358 807 C358 850 329 879 286 879 C243 879 214 850 214 807 C214 764 243 735 286 735 L286 735 Z M208 375 C208 510 278 600 383 600 C519 600 610 471 610 277 C610 148 541 62 438 62 C300 62 208 187 208 375 L208 375 Z M70 324 C70 124 206 -10 409 -10 C612 -10 747 125 747 328 C747 533 612 670 409 670 C206 670 70 532 70 324 L70 324 Z " />
<glyph glyph-name="Oslash" unicode="&#xd8;" horiz-adv-x="817" d="M70 324 C70 245.625 91.0994 177.459 128.806 123.434 C139.3 108.399 141.213 74.7795 129.338 60.8095 L102.059 28.716 C88.5758 12.8539 98.6819 -9 119.5 -9 L140.504 -9 C152.511 -9 179.651 3.5872 187.407 12.7533 L192.663 18.9655 C202.43 30.508 228.47 33.2924 242.003 26.5496 C289.406 2.93187 345.3 -10 408 -10 C611 -10 746 125 746 328 C746 408.85 724.901 479.491 686.632 534.868 C676.091 550.123 674.125 584.589 686.146 598.706 L713.909 631.312 C727.396 647.151 717.303 669 696.5 669 L675.433 669 C663.469 669 636.341 656.446 628.597 647.326 L622.377 640 C612.593 628.476 586.532 625.706 573.002 632.45 C525.624 656.068 469.875 669 408 669 C205 669 69.5 531.5 69.5 323.5 L70 324 Z M511.429 509.129 L260.518 213.631 C251.231 202.693 236.785 206.335 231.86 219.811 C215.848 263.626 207 315.25 207 373 C207 508 277 598 382 598 C430.675 598 473.905 581.665 508.882 551.803 C522.749 539.964 523.23 523.027 511.429 509.129 L511.429 509.129 Z M583.579 437.052 C600.152 391.324 609 337.225 609 277 C609 148 540 62 437 62 C387.5 62 343.445 78.335 307.643 108.197 C293.501 119.993 292.877 137.08 304.814 151.103 L553.733 443.539 C563.449 454.954 578.471 451.145 583.579 437.052 L583.579 437.052 Z " />
<glyph glyph-name="Ugrave" unicode="&#xd9;" horiz-adv-x="808" d="M411.92 712.457 L346.481 832.052 C338.016 847.522 310.216 864 292.582 864 L247.956 864 C229.684 864 209.654 881.619 214.03 863.878 C214.806 860.733 230.625 797.675 255 785 L391.57 709.128 C393.561 708.021 405.221 705 407.5 705 C411.616 705 413.896 708.846 411.92 712.457 L411.92 712.457 Z M135 565.274 L135 234 C135 88 241 -10 399 -10 C557 -10 663 88 663 234 L663 565.274 C663 585.27 680.992 613.096 699.227 621.302 L734.337 637.102 C738.697 639.064 743 645.718 743 650.5 C743 655.744 738.744 660 733.5 660 L472.5 660 C467.256 660 463 655.744 463 650.5 C463 645.566 467.296 639.453 471.938 637.782 L522.371 619.626 C543.471 612.03 563 584.244 563 561.818 L563 203 C563 125 513 73 438 73 C334 73 264 147 264 257 L264 565.274 C264 585.27 281.992 613.096 300.227 621.302 L335.337 637.102 C339.697 639.064 344 645.718 344 650.5 C344 655.744 339.744 660 334.5 660 L64.5 660 C59.2563 660 55 655.744 55 650.5 C55 645.718 59.3026 639.064 63.6633 637.102 L98.7728 621.302 C117.008 613.096 135 585.27 135 565.274 L135 565.274 Z " />
<glyph glyph-name="Uacute" unicode="&#xda;" horiz-adv-x="808" d="M406.5 705 C408.779 705 420.439 708.021 422.43 709.128 L559 785 C584 799 600 865 600 865 C600 865 580.786 865 566.044 865 L521.473 865 C503.799 865 475.998 848.496 467.535 832.981 L402.07 712.962 C400.098 709.346 402.381 705 406.5 705 L406.5 705 Z M135 565.274 L135 234 C135 88 241 -10 399 -10 C557 -10 663 88 663 234 L663 565.274 C663 585.27 680.992 613.096 699.227 621.302 L734.337 637.102 C738.697 639.064 743 645.718 743 650.5 C743 655.744 738.744 660 733.5 660 L472.5 660 C467.256 660 463 655.744 463 650.5 C463 645.566 467.296 639.453 471.938 637.782 L522.371 619.626 C543.471 612.03 563 584.244 563 561.818 L563 203 C563 125 513 73 438 73 C334 73 264 147 264 257 L264 565.274 C264 585.27 281.992 613.096 300.227 621.302 L335.337 637.102 C339.697 639.064 344 645.718 344 650.5 C344 655.744 339.744 660 334.5 660 L64.5 660 C59.2563 660 55 655.744 55 650.5 C55 645.718 59.3026 639.064 63.6633 637.102 L98.7728 621.302 C117.008 613.096 135 585.27 135 565.274 L135 565.274 Z " />
<glyph glyph-name="Ucircumflex" unicode="&#xdb;" horiz-adv-x="808" d="M567 705 L566 706 L567 706 L567 705 L567 705 Z M409 863 C402.781 863 388.203 856.404 384.097 851.734 L261.612 712.384 C259.285 709.737 260.976 706 264.5 706 C266.695 706 278.572 708.95 280.512 709.977 L380.765 763.052 C393.523 769.806 424.596 770.036 437.453 763.471 L542.875 709.638 C544.664 708.725 555.992 706 558 706 C561.275 706 562.83 709.504 560.634 711.933 L434.062 851.875 C429.943 856.429 415.141 863 409 863 L409 863 Z M135 565.274 L135 234 C135 88 241 -10 399 -10 C557 -10 663 88 663 234 L663 565.274 C663 585.27 680.992 613.096 699.227 621.302 L734.337 637.102 C738.697 639.064 743 645.718 743 650.5 C743 655.744 738.744 660 733.5 660 L472.5 660 C467.256 660 463 655.744 463 650.5 C463 645.566 467.296 639.453 471.938 637.782 L522.371 619.626 C543.471 612.03 563 584.244 563 561.818 L563 203 C563 125 513 73 438 73 C334 73 264 147 264 257 L264 565.274 C264 585.27 281.992 613.096 300.227 621.302 L335.337 637.102 C339.697 639.064 344 645.718 344 650.5 C344 655.744 339.744 660 334.5 660 L64.5 660 C59.2563 660 55 655.744 55 650.5 C55 645.718 59.3026 639.064 63.6633 637.102 L98.7728 621.302 C117.008 613.096 135 585.27 135 565.274 L135 565.274 Z " />
<glyph glyph-name="Udieresis" unicode="&#xdc;" horiz-adv-x="808" d="M517 735 C560 735 588 764 588 807 C588 850 560 879 517 879 C474 879 445 850 445 807 C445 764 474 735 517 735 L517 735 Z M302 735 C345 735 373 764 373 807 C373 850 345 879 302 879 C259 879 230 850 230 807 C230 764 259 735 302 735 L302 735 Z M135 565.274 L135 234 C135 88 241 -10 399 -10 C557 -10 663 88 663 234 L663 565.274 C663 585.27 680.992 613.096 699.227 621.302 L734.337 637.102 C738.697 639.064 743 645.718 743 650.5 C743 655.744 738.744 660 733.5 660 L472.5 660 C467.256 660 463 655.744 463 650.5 C463 645.566 467.296 639.453 471.938 637.782 L522.371 619.626 C543.471 612.03 563 584.244 563 561.818 L563 203 C563 125 513 73 438 73 C334 73 264 147 264 257 L264 565.274 C264 585.27 281.992 613.096 300.227 621.302 L335.337 637.102 C339.697 639.064 344 645.718 344 650.5 C344 655.744 339.744 660 334.5 660 L64.5 660 C59.2563 660 55 655.744 55 650.5 C55 645.718 59.3026 639.064 63.6633 637.102 L98.7728 621.302 C117.008 613.096 135 585.27 135 565.274 L135 565.274 Z " />
<glyph glyph-name="Yacute" unicode="&#xdd;" horiz-adv-x="725" d="M366.5 705 C368.779 705 380.439 708.021 382.43 709.128 L519 785 C544 799 560 865 560 865 C560 865 540.786 865 526.044 865 L481.473 865 C463.799 865 435.998 848.496 427.535 832.981 L362.07 712.962 C360.098 709.346 362.381 705 366.5 705 L366.5 705 Z M293.5 660 L39 660 C34.0323 660 30 655.968 30 651 C30 646.571 34.0753 639.93 38.0242 637.924 L79.5414 616.836 C82.984 615.088 99.5181 600.85 101.758 597.705 L294.601 327.001 C298.252 321.877 306 297.645 306 291.354 L306 96.5969 C306 75.2789 287.172 47.4686 267.378 39.5513 L224.821 22.5282 C220.3 20.72 216 14.3687 216 9.5 C216 4.25628 220.256 0 225.5 0 L515.5 0 C520.744 0 525 4.25628 525 9.5 C525 14.3687 520.7 20.72 516.179 22.5282 L473.622 39.5513 C453.828 47.4686 435 75.2789 435 96.5969 L435 297.705 C435 303.222 441.885 326.538 444.9 331.157 C504.302 422.143 563.745 513.857 623.957 604.843 C626.799 609.136 645.303 625.156 649.987 627.292 L684.631 643.095 C687.83 644.554 691 649.485 691 653 C691 656.864 687.864 660 684 660 L458.5 660 C453.256 660 449 655.744 449 650.5 C449 645.728 453.303 639.039 457.645 637.061 L488.5 623 C510.07 613.17 517.306 588.451 504.44 568.542 L414.883 429.957 C402.593 410.939 377.051 412.039 363.619 430.27 C328.324 478.174 292.733 525.999 257.461 573.436 C244.799 590.464 249.687 613.185 268.5 623 L294.577 636.606 C298.699 638.756 303 645.851 303 650.5 C303 655.744 298.744 660 293.5 660 L293.5 660 Z " />
<glyph glyph-name="agrave" unicode="&#xe0;" horiz-adv-x="497" d="M241.25 537.628 L174.878 672.662 C166.517 689.672 138.692 707 119.739 707 L80.3664 707 C60.1608 707 38.6324 726.586 43.0299 706.865 C43.8056 703.386 59.625 633.625 84 619 L220.77 534.469 C222.868 533.172 234.033 530 236.5 530 C240.711 530 243.108 533.85 241.25 537.628 L241.25 537.628 Z M169 339 C169 370 183 393 201 393 C250 393 275 365 275 322 L275 290.5 C275 274.489 256.55 254.345 241.184 249.845 C107.45 210.683 39 153.125 39 93 C39 31 81 -10 144 -10 C191.25 -10 236.969 5.3125 271.107 35.2676 C276.924 40.3718 290.512 37.7221 295.016 31.4291 C313.237 5.97375 342.875 -9 380 -9 C426.8 -9 470.748 20.4694 489.6 65.5052 C490.452 67.5418 489.67 71.1278 488.5 73 L486 77 C485 74 474 72 458 72 C417 72 389 80 389 91 C389 251 390 354 390 354 C390 418 338 461 237 461 C130 461 49 406 49 332 C49 307 61 291 79 292 L159.464 292 C160.844 292 164.524 293.524 165.5 294.5 C166.452 295.452 168.052 299.188 168.084 300.535 L169 339 L169 339 Z M274 164.418 L274 101 L274 95 C274 91.6948 271.611 87.8576 268.536 86.6457 C252.22 80.2152 231.414 77 209 77 C174 77 150 95 150 123 C150 149.4 178.586 174.439 234.636 195.309 C257.161 203.696 274 188.454 274 164.418 L274 164.418 Z " />
<glyph glyph-name="aacute" unicode="&#xe1;" horiz-adv-x="497" d="M245.5 530 C247.967 530 259.132 533.172 261.23 534.469 L398 619 C423 634 439 707 439 707 C439 707 418.228 707 401.634 707 L362.261 707 C343.308 707 315.483 689.672 307.122 672.662 L240.75 537.628 C238.892 533.85 241.289 530 245.5 530 L245.5 530 Z M169 339 C169 370 183 393 201 393 C250 393 275 365 275 322 L275 290.5 C275 274.489 256.55 254.345 241.184 249.845 C107.45 210.683 39 153.125 39 93 C39 31 81 -10 144 -10 C191.25 -10 236.969 5.3125 271.107 35.2676 C276.924 40.3718 290.512 37.7221 295.016 31.4291 C313.237 5.97375 342.875 -9 380 -9 C426.8 -9 470.748 20.4694 489.6 65.5052 C490.452 67.5418 489.67 71.1278 488.5 73 L486 77 C485 74 474 72 458 72 C417 72 389 80 389 91 C389 251 390 354 390 354 C390 418 338 461 237 461 C130 461 49 406 49 332 C49 307 61 291 79 292 L159.464 292 C160.844 292 164.524 293.524 165.5 294.5 C166.452 295.452 168.052 299.188 168.084 300.535 L169 339 L169 339 Z M274 164.418 L274 101 L274 95 C274 91.6948 271.611 87.8576 268.536 86.6457 C252.22 80.2152 231.414 77 209 77 C174 77 150 95 150 123 C150 149.4 178.586 174.439 234.636 195.309 C257.161 203.696 274 188.454 274 164.418 L274 164.418 Z " />
<glyph glyph-name="acircumflex" unicode="&#xe2;" horiz-adv-x="497" d="M390.622 536.582 L262.491 693.385 C258.435 698.349 244.411 705 238 705 C231.499 705 217.738 698.327 213.712 693.222 L90.2633 536.674 C87.9821 533.782 89.8159 530 93.5 530 C95.8788 530 107.276 533.104 109.326 534.31 L207.404 592.002 C222.034 600.608 254.11 600.859 268.874 592.483 L371.607 534.195 C373.621 533.052 385.185 530 387.5 530 C391.133 530 392.92 533.769 390.622 536.582 L390.622 536.582 Z M169 339 C169 370 183 393 201 393 C250 393 275 365 275 322 L275 290.5 C275 274.489 256.55 254.345 241.184 249.845 C107.45 210.683 39 153.125 39 93 C39 31 81 -10 144 -10 C191.25 -10 236.969 5.3125 271.107 35.2676 C276.924 40.3718 290.512 37.7221 295.016 31.4291 C313.237 5.97375 342.875 -9 380 -9 C426.8 -9 470.748 20.4694 489.6 65.5052 C490.452 67.5418 489.67 71.1278 488.5 73 L486 77 C485 74 474 72 458 72 C417 72 389 80 389 91 C389 251 390 354 390 354 C390 418 338 461 237 461 C130 461 49 406 49 332 C49 307 61 291 79 292 L159.464 292 C160.844 292 164.524 293.524 165.5 294.5 C166.452 295.452 168.052 299.188 168.084 300.535 L169 339 L169 339 Z M274 164.418 L274 101 L274 95 C274 91.6948 271.611 87.8576 268.536 86.6457 C252.22 80.2152 231.414 77 209 77 C174 77 150 95 150 123 C150 149.4 178.586 174.439 234.636 195.309 C257.161 203.696 274 188.454 274 164.418 L274 164.418 Z " />
<glyph glyph-name="atilde" unicode="&#xe3;" horiz-adv-x="497" d="M91.5156 565.157 C100.339 589.429 109.941 605 132 605 C176 605 236 544 280 544 C326.8 544 348.884 595.334 374.984 673.903 C376.557 678.639 372.49 680 367.5 680 C362.716 680 356.157 674.286 354.551 669.78 C345.531 644.474 335.257 628 314 628 C270 628 210 689 166 689 C120.4 689 97.3625 640.265 72.881 566.802 C71.2958 562.045 73.4861 555 78.5 555 C83.2897 555 89.8792 560.655 91.5156 565.157 L91.5156 565.157 Z M169 339 C169 370 183 393 201 393 C250 393 275 365 275 322 L275 290.5 C275 274.489 256.55 254.345 241.184 249.845 C107.45 210.683 39 153.125 39 93 C39 31 81 -10 144 -10 C191.25 -10 236.969 5.3125 271.107 35.2676 C276.924 40.3718 290.512 37.7221 295.016 31.4291 C313.237 5.97375 342.875 -9 380 -9 C426.8 -9 470.748 20.4694 489.6 65.5052 C490.452 67.5418 489.67 71.1278 488.5 73 L486 77 C485 74 474 72 458 72 C417 72 389 80 389 91 C389 251 390 354 390 354 C390 418 338 461 237 461 C130 461 49 406 49 332 C49 307 61 291 79 292 L159.464 292 C160.844 292 164.524 293.524 165.5 294.5 C166.452 295.452 168.052 299.188 168.084 300.535 L169 339 L169 339 Z M274 164.418 L274 101 L274 95 C274 91.6948 271.611 87.8576 268.536 86.6457 C252.22 80.2152 231.414 77 209 77 C174 77 150 95 150 123 C150 149.4 178.586 174.439 234.636 195.309 C257.161 203.696 274 188.454 274 164.418 L274 164.418 Z " />
<glyph glyph-name="adieresis" unicode="&#xe4;" horiz-adv-x="497" d="M331 570 C374 570 402 599 402 642 C402 685 374 714 331 714 C288 714 259 685 259 642 C259 599 288 570 331 570 L331 570 Z M116 570 C159 570 187 599 187 642 C187 685 159 714 116 714 C73 714 44 685 44 642 C44 599 73 570 116 570 L116 570 Z M169 339 C169 370 183 393 201 393 C250 393 275 365 275 322 L275 290.5 C275 274.489 256.55 254.345 241.184 249.845 C107.45 210.683 39 153.125 39 93 C39 31 81 -10 144 -10 C191.25 -10 236.969 5.3125 271.107 35.2676 C276.924 40.3718 290.512 37.7221 295.016 31.4291 C313.237 5.97375 342.875 -9 380 -9 C426.8 -9 470.748 20.4694 489.6 65.5052 C490.452 67.5418 489.67 71.1278 488.5 73 L486 77 C485 74 474 72 458 72 C417 72 389 80 389 91 C389 251 390 354 390 354 C390 418 338 461 237 461 C130 461 49 406 49 332 C49 307 61 291 79 292 L159.464 292 C160.844 292 164.524 293.524 165.5 294.5 C166.452 295.452 168.052 299.188 168.084 300.535 L169 339 L169 339 Z M274 164.418 L274 101 L274 95 C274 91.6948 271.611 87.8576 268.536 86.6457 C252.22 80.2152 231.414 77 209 77 C174 77 150 95 150 123 C150 149.4 178.586 174.439 234.636 195.309 C257.161 203.696 274 188.454 274 164.418 L274 164.418 Z " />
<glyph glyph-name="aring" unicode="&#xe5;" horiz-adv-x="497" d="M208 634 C208 660 215 678 225 678 C239 678 248 653 248 615 C248 590 242 569 234 569 C220 569 208 599 208 634 L208 634 Z M137 624 C137 576 179 535 228 535 C277 535 319 577 319 627 C319 678 283 712 228 712 C173 712 137 677 137 624 L137 624 Z M169 339 C169 370 183 393 201 393 C250 393 275 365 275 322 L275 290.5 C275 274.489 256.55 254.345 241.184 249.845 C107.45 210.683 39 153.125 39 93 C39 31 81 -10 144 -10 C191.25 -10 236.969 5.3125 271.107 35.2676 C276.924 40.3718 290.512 37.7221 295.016 31.4291 C313.237 5.97375 342.875 -9 380 -9 C426.8 -9 470.748 20.4694 489.6 65.5052 C490.452 67.5418 489.67 71.1278 488.5 73 L486 77 C485 74 474 72 458 72 C417 72 389 80 389 91 C389 251 390 354 390 354 C390 418 338 461 237 461 C130 461 49 406 49 332 C49 307 61 291 79 292 L159.464 292 C160.844 292 164.524 293.524 165.5 294.5 C166.452 295.452 168.052 299.188 168.084 300.535 L169 339 L169 339 Z M274 164.418 L274 101 L274 95 C274 91.6948 271.611 87.8576 268.536 86.6457 C252.22 80.2152 231.414 77 209 77 C174 77 150 95 150 123 C150 149.4 178.586 174.439 234.636 195.309 C257.161 203.696 274 188.454 274 164.418 L274 164.418 Z " />
<glyph glyph-name="ccedilla" unicode="&#xe7;" horiz-adv-x="477" d="M281.48 -42.5337 C290.666 -22.0179 296.357 -9.28571 298 -6 C353.575 8.625 403.446 54.6206 430.003 119.011 C430.75 120.82 431.298 128.565 431 130.5 C430.528 133.567 427.615 135.136 425.106 133.311 C393.532 110.342 351.4 95 321 95 C226 95 163 162 163 263 C163 340 194 391 240 391 C266 391 295 374 312 349 L344.005 302.876 C344.91 301.572 347.913 300 349.5 300 C350.385 300 355.325 301.198 356.111 301.603 L414.6 331.733 C416.642 332.785 420.491 335.529 421.744 337.454 C427.271 345.946 431 361.727 431 379 C431 388 426 401 419 411 C399 439 344 458 280 458 C141 458 49 354 49 198 C49 80.025 122.198 -0.875625 235.227 -11.3349 C239.358 -11.7172 242.528 -15.1532 240.777 -18.9141 C233.16 -35.2734 218.652 -66.5391 199.785 -107.648 C194.473 -119.224 199.396 -133.251 211 -138.5 L222.446 -143.678 C223.046 -143.949 241.824 -149.482 242.466 -149.631 C259.71 -153.622 271 -163.4 271 -176 C271 -192 256 -202 234 -202 C209.613 -202 187.502 -195.931 174.934 -186.437 C172.874 -184.881 170 -186.919 170 -189.5 C170 -192.659 173.336 -200.677 175.561 -202.919 C199.055 -226.599 229.95 -242 254 -242 C316 -242 358 -206 358 -153 C358 -111.6 332.485 -77.895 289.474 -62.091 C282.105 -59.3833 278.272 -49.699 281.48 -42.5337 L281.48 -42.5337 Z " />
<glyph glyph-name="egrave" unicode="&#xe8;" horiz-adv-x="483" d="M255.25 537.628 L188.878 672.662 C180.517 689.672 152.692 707 133.739 707 L94.3664 707 C74.1608 707 52.6324 726.586 57.0299 706.865 C57.8056 703.386 73.625 633.625 98 619 L234.77 534.469 C236.868 533.172 248.033 530 250.5 530 C254.711 530 257.108 533.85 255.25 537.628 L255.25 537.628 Z M173.428 333.437 C186.137 371.859 210.825 395 243 395 C275.175 395 300.544 372.539 315.176 333.795 C321.158 317.954 311.786 307 294.853 307 L194.372 307 C177.554 307 168.146 317.47 173.428 333.437 L173.428 333.437 Z M385.158 240.571 L406.5 243.5 C421.786 245.598 432.137 259.681 430.85 275.057 C421.459 387.272 355.275 460 260 460 C133 460 49 356 49 200 C49 74 133 -10 260 -10 C329.225 -10 396.549 41.3338 429.531 119.903 C430.303 121.742 431.303 130.529 431 132.5 C430.528 135.567 427.615 137.136 425.106 135.311 C393.532 112.343 351.4 97 321 97 C249.225 97 195.827 135.115 173.72 197.307 C164.086 224.413 179.019 240 207.786 240 L376.803 240 C377.118 240 384.846 240.528 385.158 240.571 L385.158 240.571 Z " />
<glyph glyph-name="eacute" unicode="&#xe9;" horiz-adv-x="483" d="M258.5 530 C260.967 530 272.132 533.172 274.23 534.469 L411 619 C436 634 452 707 452 707 C452 707 431.228 707 414.634 707 L375.261 707 C356.308 707 328.483 689.672 320.122 672.662 L253.75 537.628 C251.892 533.85 254.289 530 258.5 530 L258.5 530 Z M173.428 333.437 C186.137 371.859 210.825 395 243 395 C275.175 395 300.544 372.539 315.176 333.795 C321.158 317.954 311.786 307 294.853 307 L194.372 307 C177.554 307 168.146 317.47 173.428 333.437 L173.428 333.437 Z M385.158 240.571 L406.5 243.5 C421.786 245.598 432.137 259.681 430.85 275.057 C421.459 387.272 355.275 460 260 460 C133 460 49 356 49 200 C49 74 133 -10 260 -10 C329.225 -10 396.549 41.3338 429.531 119.903 C430.303 121.742 431.303 130.529 431 132.5 C430.528 135.567 427.615 137.136 425.106 135.311 C393.532 112.343 351.4 97 321 97 C249.225 97 195.827 135.115 173.72 197.307 C164.086 224.413 179.019 240 207.786 240 L376.803 240 C377.118 240 384.846 240.528 385.158 240.571 L385.158 240.571 Z " />
<glyph glyph-name="ecircumflex" unicode="&#xea;" horiz-adv-x="483" d="M404.305 536.969 L276.491 693.385 C272.435 698.349 258.411 705 252 705 C245.517 705 231.703 698.331 227.671 693.254 L103.598 537.047 C101.178 534.001 103.11 530 107 530 C109.519 530 121.586 533.286 123.757 534.563 L221.295 591.938 C236.004 600.59 268.113 600.792 282.929 592.326 L384.186 534.465 C386.326 533.242 398.535 530 401 530 C404.847 530 406.739 533.99 404.305 536.969 L404.305 536.969 Z M173.428 333.437 C186.137 371.859 210.825 395 243 395 C275.175 395 300.544 372.539 315.176 333.795 C321.158 317.954 311.786 307 294.853 307 L194.372 307 C177.554 307 168.146 317.47 173.428 333.437 L173.428 333.437 Z M385.158 240.571 L406.5 243.5 C421.786 245.598 432.137 259.681 430.85 275.057 C421.459 387.272 355.275 460 260 460 C133 460 49 356 49 200 C49 74 133 -10 260 -10 C329.225 -10 396.549 41.3338 429.531 119.903 C430.303 121.742 431.303 130.529 431 132.5 C430.528 135.567 427.615 137.136 425.106 135.311 C393.532 112.343 351.4 97 321 97 C249.225 97 195.827 135.115 173.72 197.307 C164.086 224.413 179.019 240 207.786 240 L376.803 240 C377.118 240 384.846 240.528 385.158 240.571 L385.158 240.571 Z " />
<glyph glyph-name="edieresis" unicode="&#xeb;" horiz-adv-x="483" d="M359 570 C402 570 431 599 431 642 C431 685 402 714 359 714 C316 714 287 685 287 642 C287 599 316 570 359 570 L359 570 Z M144 570 C187 570 216 599 216 642 C216 685 187 714 144 714 C101 714 72 685 72 642 C72 599 101 570 144 570 L144 570 Z M173.428 333.437 C186.137 371.859 210.825 395 243 395 C275.175 395 300.544 372.539 315.176 333.795 C321.158 317.954 311.786 307 294.853 307 L194.372 307 C177.554 307 168.146 317.47 173.428 333.437 L173.428 333.437 Z M385.158 240.571 L406.5 243.5 C421.786 245.598 432.137 259.681 430.85 275.057 C421.459 387.272 355.275 460 260 460 C133 460 49 356 49 200 C49 74 133 -10 260 -10 C329.225 -10 396.549 41.3338 429.531 119.903 C430.303 121.742 431.303 130.529 431 132.5 C430.528 135.567 427.615 137.136 425.106 135.311 C393.532 112.343 351.4 97 321 97 C249.225 97 195.827 135.115 173.72 197.307 C164.086 224.413 179.019 240 207.786 240 L376.803 240 C377.118 240 384.846 240.528 385.158 240.571 L385.158 240.571 Z " />
<glyph glyph-name="igrave" unicode="&#xec;" horiz-adv-x="352" d="M175.25 537.628 L108.878 672.662 C100.517 689.672 72.6919 707 53.7386 707 L14.3664 707 C-5.83923 707 -27.3676 726.586 -22.9701 706.865 C-22.1944 703.386 -6.375 633.625 18 619 L154.77 534.469 C156.868 533.172 168.033 530 170.5 530 C174.711 530 177.108 533.85 175.25 537.628 L175.25 537.628 Z M299 9 C299 13.4569 294.924 20.0066 290.925 21.9752 L266.5 34 C250.406 41.9234 234 68.286 234 86.225 L234 448.5 C234 454.848 228.848 460 222.5 460 C220.104 460 202.57 456.563 200.351 455.659 L56.778 397.132 C55.3581 396.554 54 394.533 54 393 C54 391.754 55.3199 388.845 56.2577 388.024 L78 369 C103 348 119 334 119 334 C119 334 119 336.301 119 323.37 L119 86.225 C119 68.286 102.594 41.9234 86.5 34 L62.0745 21.9752 C58.0759 20.0066 54 13.4569 54 9 C54 4.03227 58.0323 0 63 0 L290 0 C294.968 0 299 4.03227 299 9 L299 9 Z " />
<glyph glyph-name="iacute" unicode="&#xed;" horiz-adv-x="352" d="M179.5 530 C181.967 530 193.132 533.172 195.23 534.469 L332 619 C357 634 373 707 373 707 C373 707 352.228 707 335.634 707 L296.261 707 C277.308 707 249.483 689.672 241.122 672.662 L174.75 537.628 C172.892 533.85 175.289 530 179.5 530 L179.5 530 Z M299 9 C299 13.4569 294.924 20.0066 290.925 21.9752 L266.5 34 C250.406 41.9234 234 68.286 234 86.225 L234 448.5 C234 454.848 228.848 460 222.5 460 C220.104 460 202.57 456.563 200.351 455.659 L56.778 397.132 C55.3581 396.554 54 394.533 54 393 C54 391.754 55.3199 388.845 56.2577 388.024 L78 369 C103 348 119 334 119 334 C119 334 119 336.301 119 323.37 L119 86.225 C119 68.286 102.594 41.9234 86.5 34 L62.0745 21.9752 C58.0759 20.0066 54 13.4569 54 9 C54 4.03227 58.0323 0 63 0 L290 0 C294.968 0 299 4.03227 299 9 L299 9 Z " />
<glyph glyph-name="icircumflex" unicode="&#xee;" horiz-adv-x="352" d="M324.622 536.582 L196.491 693.385 C192.435 698.349 178.411 705 172 705 C165.499 705 151.738 698.327 147.712 693.222 L24.2633 536.674 C21.9821 533.782 23.8159 530 27.5 530 C29.8788 530 41.2761 533.104 43.3264 534.31 L141.404 592.002 C156.034 600.608 188.11 600.859 202.874 592.483 L305.607 534.195 C307.621 533.052 319.185 530 321.5 530 C325.133 530 326.92 533.769 324.622 536.582 L324.622 536.582 Z M299 9 C299 13.4569 294.924 20.0066 290.925 21.9752 L266.5 34 C250.406 41.9234 234 68.286 234 86.225 L234 448.5 C234 454.848 228.848 460 222.5 460 C220.104 460 202.57 456.563 200.351 455.659 L56.778 397.132 C55.3581 396.554 54 394.533 54 393 C54 391.754 55.3199 388.845 56.2577 388.024 L78 369 C103 348 119 334 119 334 C119 334 119 336.301 119 323.37 L119 86.225 C119 68.286 102.594 41.9234 86.5 34 L62.0745 21.9752 C58.0759 20.0066 54 13.4569 54 9 C54 4.03227 58.0323 0 63 0 L290 0 C294.968 0 299 4.03227 299 9 L299 9 Z " />
<glyph glyph-name="idieresis" unicode="&#xef;" horiz-adv-x="352" d="M280 570 C323 570 351 599 351 642 C351 685 323 714 280 714 C237 714 208 685 208 642 C208 599 237 570 280 570 L280 570 Z M65 570 C108 570 136 599 136 642 C136 685 108 714 65 714 C22 714 -7 685 -7 642 C-7 599 22 570 65 570 L65 570 Z M299 9 C299 13.4569 294.924 20.0066 290.925 21.9752 L266.5 34 C250.406 41.9234 234 68.286 234 86.225 L234 448.5 C234 454.848 228.848 460 222.5 460 C220.104 460 202.57 456.563 200.351 455.659 L56.778 397.132 C55.3581 396.554 54 394.533 54 393 C54 391.754 55.3199 388.845 56.2577 388.024 L78 369 C103 348 119 334 119 334 C119 334 119 336.301 119 323.37 L119 86.225 C119 68.286 102.594 41.9234 86.5 34 L62.0745 21.9752 C58.0759 20.0066 54 13.4569 54 9 C54 4.03227 58.0323 0 63 0 L290 0 C294.968 0 299 4.03227 299 9 L299 9 Z " />
<glyph glyph-name="ntilde" unicode="&#xf1;" horiz-adv-x="599" d="M173.514 565.157 C182.325 589.429 191.824 605 213 605 C258 605 317 544 362 544 C407.825 544 429.884 595.334 455.984 673.903 C457.557 678.639 453.49 680 448.5 680 C443.714 680 437.157 674.289 435.552 669.78 C426.544 644.474 416.371 628 396 628 C351 628 292 689 247 689 C202.35 689 179.36 640.265 154.881 566.802 C153.296 562.045 155.486 555 160.5 555 C165.293 555 171.879 560.652 173.514 565.157 L173.514 565.157 Z M559 9 C559 13.4569 554.924 20.0066 550.925 21.9752 L526.5 34 C510.406 41.9234 494 68.286 494 86.225 L494 343 C494 413 443 460 367 460 C323.8 460 281.41 435.7 240.559 397.306 C235.6 392.646 226.639 395.874 226.399 402.674 C225.361 432.094 224 460 224 460 C224 460 219.165 460 212.5 460 C210.023 460 192.692 456.479 190.412 455.512 L52.7621 397.171 C51.3584 396.576 50 394.525 50 393 C50 391.754 51.3199 388.845 52.2577 388.024 L74 369 C99 348 115 334 115 334 C115 334 115 336.301 115 323.37 L115 86.225 C115 68.286 98.5944 41.9234 82.5 34 L58.0745 21.9752 C54.0759 20.0066 50 13.4569 50 9 C50 4.03227 54.0323 0 59 0 L291 0 C295.968 0 300 4.03227 300 9 C300 13.518 295.924 19.8634 291.815 21.7418 L265 34 C247.43 42.032 230 69.1648 230 88.4838 L230 331.292 C230 336.819 233.956 343.761 238.871 346.289 C254.238 354.194 275 359 304 359 C349 359 379 326 379 277 L379 88.4838 C379 69.1648 361.57 42.032 344 34 L317.185 21.7418 C313.076 19.8634 309 13.518 309 9 C309 4.03227 313.032 0 318 0 L550 0 C554.968 0 559 4.03227 559 9 L559 9 Z " />
<glyph glyph-name="ograve" unicode="&#xf2;" horiz-adv-x="548" d="M277.25 537.628 L210.878 672.662 C202.517 689.672 174.692 707 155.739 707 L116.366 707 C96.1608 707 74.6324 726.586 79.0299 706.865 C79.8056 703.386 95.625 633.625 120 619 L256.77 534.469 C258.868 533.172 270.033 530 272.5 530 C276.711 530 279.108 533.85 277.25 537.628 L277.25 537.628 Z M182 225 C182 330 206 400 254 400 C321 400 366 330 366 225 C366 120 342 50 294 50 C227 50 182 120 182 225 L182 225 Z M50 225 C50 84 140 -10 274 -10 C422 -10 498 84 498 225 C498 366 408 460 274 460 C126 460 50 366 50 225 L50 225 Z " />
<glyph glyph-name="oacute" unicode="&#xf3;" horiz-adv-x="548" d="M281.5 530 C283.967 530 295.132 533.172 297.23 534.469 L434 619 C459 634 475 707 475 707 C475 707 454.228 707 437.634 707 L398.261 707 C379.308 707 351.483 689.672 343.122 672.662 L276.75 537.628 C274.892 533.85 277.289 530 281.5 530 L281.5 530 Z M182 225 C182 330 206 400 254 400 C321 400 366 330 366 225 C366 120 342 50 294 50 C227 50 182 120 182 225 L182 225 Z M50 225 C50 84 140 -10 274 -10 C422 -10 498 84 498 225 C498 366 408 460 274 460 C126 460 50 366 50 225 L50 225 Z " />
<glyph glyph-name="ocircumflex" unicode="&#xf4;" horiz-adv-x="548" d="M426.622 536.582 L298.491 693.385 C294.435 698.349 280.411 705 274 705 C267.499 705 253.738 698.327 249.712 693.222 L126.263 536.674 C123.982 533.782 125.816 530 129.5 530 C131.879 530 143.276 533.104 145.326 534.31 L243.404 592.002 C258.034 600.608 290.11 600.859 304.874 592.483 L407.607 534.195 C409.621 533.052 421.185 530 423.5 530 C427.133 530 428.92 533.769 426.622 536.582 L426.622 536.582 Z M182 225 C182 330 206 400 254 400 C321 400 366 330 366 225 C366 120 342 50 294 50 C227 50 182 120 182 225 L182 225 Z M50 225 C50 84 140 -10 274 -10 C422 -10 498 84 498 225 C498 366 408 460 274 460 C126 460 50 366 50 225 L50 225 Z " />
<glyph glyph-name="otilde" unicode="&#xf5;" horiz-adv-x="548" d="M142.516 565.157 C151.339 589.429 160.941 605 183 605 C227 605 287 544 331 544 C377.8 544 399.884 595.334 425.984 673.903 C427.557 678.639 423.49 680 418.5 680 C413.716 680 407.157 674.286 405.551 669.78 C396.531 644.474 386.257 628 365 628 C321 628 261 689 217 689 C171.4 689 148.363 640.265 123.881 566.802 C122.296 562.045 124.486 555 129.5 555 C134.29 555 140.879 560.655 142.516 565.157 L142.516 565.157 Z M182 225 C182 330 206 400 254 400 C321 400 366 330 366 225 C366 120 342 50 294 50 C227 50 182 120 182 225 L182 225 Z M50 225 C50 84 140 -10 274 -10 C422 -10 498 84 498 225 C498 366 408 460 274 460 C126 460 50 366 50 225 L50 225 Z " />
<glyph glyph-name="odieresis" unicode="&#xf6;" horiz-adv-x="548" d="M382 570 C425 570 453 599 453 642 C453 685 425 714 382 714 C339 714 310 685 310 642 C310 599 339 570 382 570 L382 570 Z M167 570 C210 570 238 599 238 642 C238 685 210 714 167 714 C124 714 95 685 95 642 C95 599 124 570 167 570 L167 570 Z M182 225 C182 330 206 400 254 400 C321 400 366 330 366 225 C366 120 342 50 294 50 C227 50 182 120 182 225 L182 225 Z M50 225 C50 84 140 -10 274 -10 C422 -10 498 84 498 225 C498 366 408 460 274 460 C126 460 50 366 50 225 L50 225 Z " />
<glyph glyph-name="oslash" unicode="&#xf8;" horiz-adv-x="548" d="M50 225 C50 170.55 63.6125 122.906 88.0299 84.8763 C94.5724 74.6865 96.0675 50.1441 88.7807 40.4725 L77.5 25.5 C65.3766 9.40897 75.5532 -11 95.7001 -11 L129.3 -11 C136.199 -11 150.325 -3.99322 154.5 1.5 C159.214 7.70212 171.536 10.2582 178.734 7.27925 C207.19 -4.4975 239.15 -11 274 -11 C422 -11 498 83 498 224 C498 278.45 484.387 326.094 459.97 364.124 C453.428 374.314 451.933 398.856 459.219 408.527 L470.5 423.5 C482.623 439.591 472.447 460 452.3 460 L418.7 460 C411.801 460 397.675 452.993 393.5 447.5 C388.786 441.298 376.464 438.742 369.266 441.721 C340.81 453.498 308.85 460 274 460 C126 460 50 366 50 225 L50 225 Z M319.601 348.424 L192.167 177.914 C190.054 175.086 186.138 176.086 185.662 179.583 C183.694 194.028 183 209.167 183 225 C183 330 207 400 255 400 C279.615 400 301.201 390.575 318.653 373.381 C325.732 366.406 325.55 356.384 319.601 348.424 L319.601 348.424 Z M364.338 269.417 C366.306 254.972 367 239.833 367 224 C367 119 343 49 295 49 C270.385 49 248.462 58.4254 230.89 75.6189 C223.756 82.5991 223.439 92.5699 229.441 100.544 L357.81 271.104 C359.939 273.933 363.86 272.926 364.338 269.417 L364.338 269.417 Z " />
<glyph glyph-name="ugrave" unicode="&#xf9;" horiz-adv-x="561" d="M279.25 537.628 L212.878 672.662 C204.517 689.672 176.692 707 157.739 707 L118.366 707 C98.1608 707 76.6324 726.586 81.0299 706.865 C81.8056 703.386 97.625 633.625 122 619 L258.77 534.469 C260.868 533.172 272.033 530 274.5 530 C278.711 530 281.108 533.85 279.25 537.628 L279.25 537.628 Z M355 361.264 L355 116.394 C355 110.884 352.08 105.524 346.87 103.73 C329.972 97.91 306.441 95 280 95 C235 95 205 127 205 176 L205 388.56 C205 422.473 177.473 450 143.56 450 L34 450 C29.0323 450 25 445.968 25 441 C25 436.543 29.0759 429.993 33.0745 428.025 L57.5 416 C73.5944 408.077 90 381.714 90 363.775 L90 107 C90 37 140 -10 214 -10 C248.85 -10 290.925 6.6175 332.241 38.6242 C341.217 45.5775 354 39.3539 354 28 C354 11.9929 366.993 -1 383 -1 L530 -1 C534.968 -1 539 3.03227 539 8 C539 12.518 534.924 18.8634 530.815 20.7418 L504 33 C486.43 41.032 469 68.1648 469 87.4838 L469 387.56 C469 421.473 441.473 449 407.56 449 L293 449 C288.032 449 284 444.968 284 440 C284 435.447 288.076 429.22 292.248 427.399 L319.5 415.5 C337.458 407.659 355 380.859 355 361.264 L355 361.264 Z " />
<glyph glyph-name="uacute" unicode="&#xfa;" horiz-adv-x="561" d="M282.5 530 C284.967 530 296.132 533.172 298.23 534.469 L435 619 C460 634 476 707 476 707 C476 707 455.228 707 438.634 707 L399.261 707 C380.308 707 352.483 689.672 344.122 672.662 L277.75 537.628 C275.892 533.85 278.289 530 282.5 530 L282.5 530 Z M355 361.264 L355 116.394 C355 110.884 352.08 105.524 346.87 103.73 C329.972 97.91 306.441 95 280 95 C235 95 205 127 205 176 L205 388.56 C205 422.473 177.473 450 143.56 450 L34 450 C29.0323 450 25 445.968 25 441 C25 436.543 29.0759 429.993 33.0745 428.025 L57.5 416 C73.5944 408.077 90 381.714 90 363.775 L90 107 C90 37 140 -10 214 -10 C248.85 -10 290.925 6.6175 332.241 38.6242 C341.217 45.5775 354 39.3539 354 28 C354 11.9929 366.993 -1 383 -1 L530 -1 C534.968 -1 539 3.03227 539 8 C539 12.518 534.924 18.8634 530.815 20.7418 L504 33 C486.43 41.032 469 68.1648 469 87.4838 L469 387.56 C469 421.473 441.473 449 407.56 449 L293 449 C288.032 449 284 444.968 284 440 C284 435.447 288.076 429.22 292.248 427.399 L319.5 415.5 C337.458 407.659 355 380.859 355 361.264 L355 361.264 Z " />
<glyph glyph-name="ucircumflex" unicode="&#xfb;" horiz-adv-x="561" d="M428.305 536.969 L300.491 693.385 C296.435 698.349 282.411 705 276 705 C269.517 705 255.703 698.331 251.671 693.254 L127.598 537.047 C125.178 534.001 127.11 530 131 530 C133.519 530 145.586 533.286 147.757 534.563 L245.295 591.938 C260.004 600.59 292.113 600.792 306.929 592.326 L408.186 534.465 C410.326 533.242 422.535 530 425 530 C428.847 530 430.739 533.99 428.305 536.969 L428.305 536.969 Z M355 361.264 L355 116.394 C355 110.884 352.08 105.524 346.87 103.73 C329.972 97.91 306.441 95 280 95 C235 95 205 127 205 176 L205 388.56 C205 422.473 177.473 450 143.56 450 L34 450 C29.0323 450 25 445.968 25 441 C25 436.543 29.0759 429.993 33.0745 428.025 L57.5 416 C73.5944 408.077 90 381.714 90 363.775 L90 107 C90 37 140 -10 214 -10 C248.85 -10 290.925 6.6175 332.241 38.6242 C341.217 45.5775 354 39.3539 354 28 C354 11.9929 366.993 -1 383 -1 L530 -1 C534.968 -1 539 3.03227 539 8 C539 12.518 534.924 18.8634 530.815 20.7418 L504 33 C486.43 41.032 469 68.1648 469 87.4838 L469 387.56 C469 421.473 441.473 449 407.56 449 L293 449 C288.032 449 284 444.968 284 440 C284 435.447 288.076 429.22 292.248 427.399 L319.5 415.5 C337.458 407.659 355 380.859 355 361.264 L355 361.264 Z " />
<glyph glyph-name="udieresis" unicode="&#xfc;" horiz-adv-x="561" d="M383 570 C426 570 455 599 455 642 C455 685 426 714 383 714 C340 714 311 685 311 642 C311 599 340 570 383 570 L383 570 Z M168 570 C211 570 240 599 240 642 C240 685 211 714 168 714 C125 714 96 685 96 642 C96 599 125 570 168 570 L168 570 Z M355 361.264 L355 116.394 C355 110.884 352.08 105.524 346.87 103.73 C329.972 97.91 306.441 95 280 95 C235 95 205 127 205 176 L205 388.56 C205 422.473 177.473 450 143.56 450 L34 450 C29.0323 450 25 445.968 25 441 C25 436.543 29.0759 429.993 33.0745 428.025 L57.5 416 C73.5944 408.077 90 381.714 90 363.775 L90 107 C90 37 140 -10 214 -10 C248.85 -10 290.925 6.6175 332.241 38.6242 C341.217 45.5775 354 39.3539 354 28 C354 11.9929 366.993 -1 383 -1 L530 -1 C534.968 -1 539 3.03227 539 8 C539 12.518 534.924 18.8634 530.815 20.7418 L504 33 C486.43 41.032 469 68.1648 469 87.4838 L469 387.56 C469 421.473 441.473 449 407.56 449 L293 449 C288.032 449 284 444.968 284 440 C284 435.447 288.076 429.22 292.248 427.399 L319.5 415.5 C337.458 407.659 355 380.859 355 361.264 L355 361.264 Z " />
<glyph glyph-name="yacute" unicode="&#xfd;" horiz-adv-x="483" d="M294.5 530 C296.967 530 308.132 533.172 310.23 534.469 L447 619 C472 634 488 707 488 707 C488 707 467.228 707 450.634 707 L411.261 707 C392.308 707 364.483 689.672 356.122 672.662 L289.75 537.628 C287.892 533.85 290.289 530 294.5 530 L294.5 530 Z M249 450 L-16 450 C-20.9677 450 -25 445.968 -25 441 C-25 436.493 -20.9237 430.11 -16.8353 428.213 L22.897 409.787 C30.6115 406.209 49.9191 386.481 53.3296 378.691 L202.489 38.0076 C206.677 28.4429 206.952 -0.560287 202.947 -10.2028 L186 -51 C167 -101 144 -120 103 -120 L39.8284 -120 C38.7245 -120 35.7806 -121.219 35 -122 C34.2194 -122.781 33 -125.724 33 -126.828 L33 -198 C33 -228 47 -240 82 -240 C148 -240 192 -193 239 -71 L423.993 373.365 C427.304 381.318 446.361 401.413 454.127 405.141 L499.436 426.889 C503.697 428.935 508 435.773 508 440.5 C508 445.744 503.744 450 498.5 450 L303.5 450 C298.256 450 294 445.744 294 440.5 C294 435.75 298.303 428.988 302.606 426.976 L332.5 413 C353.73 403.074 363.7 377.389 354.725 355.74 L290.719 201.333 C284.064 185.278 262.593 187.071 255.63 202.995 C232.9 254.975 210.244 306.881 187.937 358.438 C178.509 380.227 188.103 406.583 210.414 414.696 L249.542 428.924 C253.929 430.52 258 436.331 258 441 C258 445.968 253.968 450 249 450 L249 450 Z " />
<glyph glyph-name="ydieresis" unicode="&#xff;" horiz-adv-x="483" d="M395 570 C438 570 466 599 466 642 C466 685 438 714 395 714 C352 714 323 685 323 642 C323 599 352 570 395 570 L395 570 Z M180 570 C223 570 251 599 251 642 C251 685 223 714 180 714 C137 714 108 685 108 642 C108 599 137 570 180 570 L180 570 Z M249 450 L-16 450 C-20.9677 450 -25 445.968 -25 441 C-25 436.493 -20.9237 430.11 -16.8353 428.213 L22.897 409.787 C30.6115 406.209 49.9191 386.481 53.3296 378.691 L202.489 38.0076 C206.677 28.4429 206.952 -0.560287 202.947 -10.2028 L186 -51 C167 -101 144 -120 103 -120 L39.8284 -120 C38.7245 -120 35.7806 -121.219 35 -122 C34.2194 -122.781 33 -125.724 33 -126.828 L33 -198 C33 -228 47 -240 82 -240 C148 -240 192 -193 239 -71 L423.993 373.365 C427.304 381.318 446.361 401.413 454.127 405.141 L499.436 426.889 C503.697 428.935 508 435.773 508 440.5 C508 445.744 503.744 450 498.5 450 L303.5 450 C298.256 450 294 445.744 294 440.5 C294 435.75 298.303 428.988 302.606 426.976 L332.5 413 C353.73 403.074 363.7 377.389 354.725 355.74 L290.719 201.333 C284.064 185.278 262.593 187.071 255.63 202.995 C232.9 254.975 210.244 306.881 187.937 358.438 C178.509 380.227 188.103 406.583 210.414 414.696 L249.542 428.924 C253.929 430.52 258 436.331 258 441 C258 445.968 253.968 450 249 450 L249 450 Z " />
<glyph glyph-name="Amacron" unicode="&#x100;" horiz-adv-x="758" d="M281 763 L475 763 C494.871 763 511 779.129 511 799 C511 818.871 494.871 835 475 835 L281 835 C261.129 835 245 818.871 245 799 C245 779.129 261.129 763 281 763 L281 763 Z M265.539 20.9295 L208.281 43.4113 C199.027 47.0448 193.965 56.9905 197.271 66.3665 C208.532 98.3022 223.537 140.72 242.285 191.373 C242.585 192.183 244 192.364 244 191.5 C244 189.016 246.016 187.009 248.5 187.02 L442.302 187.889 C454.917 187.946 472.116 174.953 476.777 163.231 C488.974 132.564 501.455 101.897 513.629 71.2308 C518.681 58.5031 511.658 46.2393 498.789 41.5596 L442.458 21.0757 C438.071 19.4802 434 13.6686 434 9 C434 4.03227 438.032 0 443 0 L677 0 L715 0 C719.416 0 723 3.58424 723 8 C723 12.0326 719.377 17.6165 715.694 19.2595 L680.292 35.0543 C671.78 38.852 651.717 60.12 648.159 68.7352 C580.743 231.997 421 630 421 630 L414 647.5 C410.413 656.469 397.811 665 388.152 665 L356.116 665 C348.931 665 339.447 658.971 336.653 652.351 C327.459 630.568 318.378 608.784 310 587 C213.8 349.275 140.702 167.166 102.577 73.1215 C98.7466 63.6718 79.5693 46.0797 70.1357 42.2095 L24.3265 23.416 C20.0745 21.6716 16 15.596 16 11 C16 6.03227 20.0323 2 25 2 L263.984 2 C268.4 2 272.225 5.59284 272.5 10 C272.763 14.2029 269.459 19.3904 265.539 20.9295 L265.539 20.9295 Z M354 268 L304.708 268 C287.289 268 277.717 285.624 283.962 301.886 C300.452 344.824 318.558 391.342 338.006 440.617 C343.807 455.316 363.5 456.621 369.237 441.897 L406.864 345.336 C422.363 305.562 396.687 268 354 268 L354 268 Z " />
<glyph glyph-name="amacron" unicode="&#x101;" horiz-adv-x="497" d="M131 593 L325 593 C344.871 593 361 609.129 361 629 C361 648.871 344.871 665 325 665 L131 665 C111.129 665 95 648.871 95 629 C95 609.129 111.129 593 131 593 L131 593 Z M169 339 C169 370 183 393 201 393 C250 393 275 365 275 322 L275 290.5 C275 274.489 256.55 254.345 241.184 249.845 C107.45 210.683 39 153.125 39 93 C39 31 81 -10 144 -10 C191.25 -10 236.969 5.3125 271.107 35.2676 C276.924 40.3718 290.512 37.7221 295.016 31.4291 C313.237 5.97375 342.875 -9 380 -9 C426.8 -9 470.748 20.4694 489.6 65.5052 C490.452 67.5418 489.67 71.1278 488.5 73 L486 77 C485 74 474 72 458 72 C417 72 389 80 389 91 C389 251 390 354 390 354 C390 418 338 461 237 461 C130 461 49 406 49 332 C49 307 61 291 79 292 L159.464 292 C160.844 292 164.524 293.524 165.5 294.5 C166.452 295.452 168.052 299.188 168.084 300.535 L169 339 L169 339 Z M274 164.418 L274 101 L274 95 C274 91.6948 271.611 87.8576 268.536 86.6457 C252.22 80.2152 231.414 77 209 77 C174 77 150 95 150 123 C150 149.4 178.586 174.439 234.636 195.309 C257.161 203.696 274 188.454 274 164.418 L274 164.418 Z " />
<glyph glyph-name="Abreve" unicode="&#x102;" horiz-adv-x="758" d="M228 868 C222.763 868 219.175 864.707 221.01 859.802 C260.269 754.877 304.875 714 378 714 C450.15 714 494.732 754.877 533.99 859.802 C535.825 864.707 532.237 868 527 868 C522.482 868 514.539 861.559 512.602 857.477 C493.047 816.257 454.775 800 378 800 C301.225 800 262.097 816.257 242.414 857.477 C240.475 861.538 232.5 868 228 868 L228 868 Z M265.539 20.9295 L208.281 43.4113 C199.027 47.0448 193.965 56.9905 197.271 66.3665 C208.532 98.3022 223.537 140.72 242.285 191.373 C242.585 192.183 244 192.364 244 191.5 C244 189.016 246.016 187.009 248.5 187.02 L442.302 187.889 C454.917 187.946 472.116 174.953 476.777 163.231 C488.974 132.564 501.455 101.897 513.629 71.2308 C518.681 58.5031 511.658 46.2393 498.789 41.5596 L442.458 21.0757 C438.071 19.4802 434 13.6686 434 9 C434 4.03227 438.032 0 443 0 L677 0 L715 0 C719.416 0 723 3.58424 723 8 C723 12.0326 719.377 17.6165 715.694 19.2595 L680.292 35.0543 C671.78 38.852 651.717 60.12 648.159 68.7352 C580.743 231.997 421 630 421 630 L414 647.5 C410.413 656.469 397.811 665 388.152 665 L356.116 665 C348.931 665 339.447 658.971 336.653 652.351 C327.459 630.568 318.378 608.784 310 587 C213.8 349.275 140.702 167.166 102.577 73.1215 C98.7466 63.6718 79.5693 46.0797 70.1357 42.2095 L24.3265 23.416 C20.0745 21.6716 16 15.596 16 11 C16 6.03227 20.0323 2 25 2 L263.984 2 C268.4 2 272.225 5.59284 272.5 10 C272.763 14.2029 269.459 19.3904 265.539 20.9295 L265.539 20.9295 Z M354 268 L304.708 268 C287.289 268 277.717 285.624 283.962 301.886 C300.452 344.824 318.558 391.342 338.006 440.617 C343.807 455.316 363.5 456.621 369.237 441.897 L406.864 345.336 C422.363 305.562 396.687 268 354 268 L354 268 Z " />
<glyph glyph-name="abreve" unicode="&#x103;" horiz-adv-x="497" d="M78 711 C72.7083 711 69.3171 706.929 71.0098 701.915 C110.269 585.63 154.875 540 228 540 C301.125 540 345.731 585.63 384.99 701.915 C386.683 706.929 383.292 711 378 711 C373.17 711 366.923 707.635 365.14 703.146 C345.99 654.952 306.85 636 228 636 C149.15 636 110.01 654.953 90.8604 703.146 C89.0767 707.635 82.8303 711 78 711 L78 711 Z M169 339 C169 370 183 393 201 393 C250 393 275 365 275 322 L275 290.5 C275 274.489 256.55 254.345 241.184 249.845 C107.45 210.683 39 153.125 39 93 C39 31 81 -10 144 -10 C191.25 -10 236.969 5.3125 271.107 35.2676 C276.924 40.3718 290.512 37.7221 295.016 31.4291 C313.237 5.97375 342.875 -9 380 -9 C426.8 -9 470.748 20.4694 489.6 65.5052 C490.452 67.5418 489.67 71.1278 488.5 73 L486 77 C485 74 474 72 458 72 C417 72 389 80 389 91 C389 251 390 354 390 354 C390 418 338 461 237 461 C130 461 49 406 49 332 C49 307 61 291 79 292 L159.464 292 C160.844 292 164.524 293.524 165.5 294.5 C166.452 295.452 168.052 299.188 168.084 300.535 L169 339 L169 339 Z M274 164.418 L274 101 L274 95 C274 91.6948 271.611 87.8576 268.536 86.6457 C252.22 80.2152 231.414 77 209 77 C174 77 150 95 150 123 C150 149.4 178.586 174.439 234.636 195.309 C257.161 203.696 274 188.454 274 164.418 L274 164.418 Z " />
<glyph glyph-name="Cacute" unicode="&#x106;" horiz-adv-x="721" d="M377.5 705 C379.779 705 391.439 708.021 393.43 709.128 L530 785 C555 799 571 865 571 865 C571 865 551.786 865 537.044 865 L492.473 865 C474.799 865 446.998 848.496 438.535 832.981 L373.07 712.962 C371.098 709.346 373.381 705 377.5 705 L377.5 705 Z M632.273 60.1653 L640.835 216.005 C640.922 217.589 640.072 218.988 638.487 219.055 C633.571 219.265 629.286 220 625 220 C609 192 588 154 572 126 C567 118 560 110 554 106 C510 79 453 61 403 61 C283 61 203 177 203 350 C203 498 287 597 414 597 C455 597 502 580 536 554 C543 549 550 540 554 533 C571 501 592 459 609 427 C609.728 425.63 609.701 426.987 611.252 427.043 C615.764 427.207 620.346 427.793 625.42 427.957 C627.289 428.017 627.934 429.628 627.858 431.497 L621.081 598.39 C620.682 608.217 609.278 612.07 603 604.5 L607.805 610.294 C616.319 620.561 615.629 629.788 603.893 636.126 C567.107 655.995 495.75 669 415 669 C208 669 70 524 70 306 C70 116 204 -11 404 -11 C488.15 -11 566.52 3.08875 610.86 24.5109 C623.702 30.7151 631.49 45.9248 632.273 60.1653 L632.273 60.1653 Z " />
<glyph glyph-name="cacute" unicode="&#x107;" horiz-adv-x="477" d="M267.5 530 C269.967 530 281.132 533.172 283.23 534.469 L420 619 C445 634 461 707 461 707 C461 707 440.228 707 423.634 707 L384.261 707 C365.308 707 337.483 689.672 329.122 672.662 L262.75 537.628 C260.892 533.85 263.289 530 267.5 530 L267.5 530 Z M424.12 135.311 C392.727 112.343 352.4 97 322 97 C227 97 164 164 164 265 C164 342 195 393 241 393 C267 393 296 376 313 351 L345.005 304.876 C345.91 303.572 348.913 302 350.5 302 C351.385 302 356.325 303.198 357.111 303.603 L415.6 333.733 C417.642 334.785 421.491 337.529 422.744 339.454 C428.271 347.946 432 363.727 432 381 C432 390 427 403 420 413 C400 441 345 460 281 460 C142 460 50 356 50 200 C50 74 134 -10 261 -10 C330.225 -10 397.549 41.3338 430.531 119.903 C431.303 121.742 432.303 130.529 432 132.5 C431.527 135.572 426.629 137.146 424.12 135.311 L424.12 135.311 Z " />
<glyph glyph-name="Ccaron" unicode="&#x10c;" horiz-adv-x="721" d="M548 867 L547 867 L548 868 L548 867 L548 867 Z M390 710.5 C395.918 710.5 410.278 716.846 414.262 721.221 L541.614 861.085 C543.812 863.499 542.265 867 539 867 C536.992 867 525.664 864.275 523.875 863.362 L418.453 809.529 C405.596 802.964 374.523 803.194 361.765 809.948 L261.512 863.023 C259.572 864.05 247.695 867 245.5 867 C241.976 867 240.285 863.263 242.612 860.616 L365.427 720.891 C369.396 716.376 383.989 710.5 390 710.5 L390 710.5 Z M632.273 60.1653 L640.835 216.005 C640.922 217.589 640.072 218.988 638.487 219.055 C633.571 219.265 629.286 220 625 220 C609 192 588 154 572 126 C567 118 560 110 554 106 C510 79 453 61 403 61 C283 61 203 177 203 350 C203 498 287 597 414 597 C455 597 502 580 536 554 C543 549 550 540 554 533 C571 501 592 459 609 427 C609.728 425.63 609.701 426.987 611.252 427.043 C615.764 427.207 620.346 427.793 625.42 427.957 C627.289 428.017 627.934 429.628 627.858 431.497 L621.081 598.39 C620.682 608.217 609.278 612.07 603 604.5 L607.805 610.294 C616.319 620.561 615.629 629.788 603.893 636.126 C567.107 655.995 495.75 669 415 669 C208 669 70 524 70 306 C70 116 204 -11 404 -11 C488.15 -11 566.52 3.08875 610.86 24.5109 C623.702 30.7151 631.49 45.9248 632.273 60.1653 L632.273 60.1653 Z " />
<glyph glyph-name="ccaron" unicode="&#x10d;" horiz-adv-x="477" d="M284.491 546.615 L412.622 703.418 C414.92 706.231 413.133 710 409.5 710 C407.185 710 395.621 706.948 393.607 705.805 L290.874 647.517 C276.11 639.141 244.034 639.392 229.404 647.998 L131.326 705.69 C129.276 706.896 117.879 710 115.5 710 C111.816 710 109.982 706.218 112.263 703.326 L235.712 546.778 C239.738 541.673 253.499 535 260 535 C266.411 535 280.435 541.651 284.491 546.615 L284.491 546.615 Z M424.12 135.311 C392.727 112.343 352.4 97 322 97 C227 97 164 164 164 265 C164 342 195 393 241 393 C267 393 296 376 313 351 L345.005 304.876 C345.91 303.572 348.913 302 350.5 302 C351.385 302 356.325 303.198 357.111 303.603 L415.6 333.733 C417.642 334.785 421.491 337.529 422.744 339.454 C428.271 347.946 432 363.727 432 381 C432 390 427 403 420 413 C400 441 345 460 281 460 C142 460 50 356 50 200 C50 74 134 -10 261 -10 C330.225 -10 397.549 41.3338 430.531 119.903 C431.303 121.742 432.303 130.529 432 132.5 C431.527 135.572 426.629 137.146 424.12 135.311 L424.12 135.311 Z " />
<glyph glyph-name="Dcaron" unicode="&#x10e;" horiz-adv-x="785" d="M598 867 L597 867 L598 868 L598 867 L598 867 Z M440 710.5 C445.918 710.5 460.278 716.846 464.262 721.221 L591.277 860.715 C593.613 863.28 591.969 867 588.5 867 C586.366 867 574.33 864.105 572.43 863.134 L467.56 809.584 C454.627 802.98 423.518 803.257 410.705 810.091 L311.941 862.765 C309.878 863.865 297.338 867 295 867 C291.281 867 289.5 863.046 291.966 860.261 L415.388 720.856 C419.36 716.37 434.008 710.5 440 710.5 L440 710.5 Z M381 0 C581 7 715 131 715 363 C715 559 572 660 357 660 L73.5 660 C68.2563 660 64 655.744 64 650.5 C64 645.718 68.3026 639.064 72.6633 637.102 L107.773 621.302 C126.008 613.096 144 585.27 144 565.274 L144 94.7262 C144 74.7299 126.008 46.9035 107.773 38.6978 L72.6633 22.8985 C68.3026 20.9362 64 14.2819 64 9.5 C64 4.25628 68.2563 0 73.5 0 L381 0 L381 0 Z M274 131.002 L274 558 C274 570.695 284.305 581 297 581 L320 581 C476 581 580 490 580 313 C580 163 499 82 378 78 L326 78.5 C297.299 78.776 274 102.3 274 131.002 L274 131.002 Z " />
<glyph glyph-name="dcaron" unicode="&#x10f;" horiz-adv-x="583" d="M663 750 L608.773 750 C579.354 750 551.773 725.861 547.875 696.701 L531.126 571.425 C530.51 566.816 533.85 563 538.5 563 C542.385 563 549.588 566.821 551.766 570.038 L675 752 C672 749 670.5 750 662.5 750 L663 750 Z M674 752 L680.552 761.464 C680.572 761.492 681.28 762.542 681.26 762.514 C677.5 757.031 675.75 753.75 674 752 L674 752 Z M683 765 L684 767 C684 766 684 765 684 764 L683 765 L683 765 Z M535 9 C535 13.518 530.924 19.8634 526.815 21.7418 L500 34 C482.43 42.032 465 69.1648 465 88.4838 L465 740.5 C465 746.848 459.848 752 453.5 752 L451.182 752 C449.7 752 434.636 749.749 433.219 749.315 L285 704 L285 699 L319 671 C338 656 350 646 350 646 C350 646 350 647.394 350 638.19 L350 466.112 C350 460.734 346.385 456.566 341.045 457.205 C323.756 459.274 305.741 460 287 460 C144 460 48 352 48 191 C48 70 113 -10 211 -10 C260.95 -10 310.044 9.67938 343.246 41.1236 C346.188 43.9104 351.819 43.9517 352.665 39.9883 C356.653 21.3061 364 0 364 0 C364 0 367.463 0 379.338 0 L526 0 C530.968 0 535 4.03227 535 9 L535 9 Z M350 304.895 L350 110.322 C350 105.599 347.577 100.338 343.333 98.2666 C329.734 91.6283 311.593 88 292 88 C214 88 162 144 162 229 C162 317.2 196.02 378.67 249.48 390.082 C259.365 392.192 274.936 387.432 283.378 381.873 L322.351 356.208 C335.097 347.814 350 320.156 350 304.895 L350 304.895 Z " />
<glyph glyph-name="Emacron" unicode="&#x112;" horiz-adv-x="658" d="M242 763 L436 763 C455.871 763 472 779.129 472 799 C472 818.871 455.871 835 436 835 L242 835 C222.129 835 206 818.871 206 799 C206 779.129 222.129 763 242 763 L242 763 Z M579.5 204 C575.244 204 569.214 200.15 567.422 196.29 L529.509 114.58 C521.243 96.7652 493.416 79 473.776 79 L335.44 79 C301.527 79 274 106.527 274 140.44 L274 238.56 C274 272.473 301.527 300 335.44 300 L375.863 300 C394.013 300 421.826 283.189 430.262 267.119 L449.654 230.182 C452.267 225.206 460.88 220 466.5 220 C472.848 220 478 225.152 478 231.5 L478 448.5 C478 454.848 472.848 460 466.5 460 C460.88 460 452.267 454.794 449.654 449.818 L430.262 412.881 C421.826 396.811 394.013 380 375.863 380 L335.44 380 C301.527 380 274 407.527 274 441.44 L274 519.56 C274 553.473 301.527 581 335.44 581 L450.175 581 C468.817 581 496.639 563.872 505.033 547.227 L542.172 473.589 C544.059 469.849 550.311 466 554.5 466 C559.192 466 563 469.808 563 474.5 L563 598.56 C563 632.473 535.473 660 501.56 660 L73.5 660 C68.2563 660 64 655.744 64 650.5 C64 645.718 68.3026 639.064 72.6633 637.102 L107.773 621.302 C126.008 613.096 144 585.27 144 565.274 L144 94.7262 C144 74.7299 126.008 46.9035 107.773 38.6978 L72.6633 22.8985 C68.3026 20.9362 64 14.2819 64 9.5 C64 4.25628 68.2563 0 73.5 0 L526.56 0 C560.473 0 588 27.527 588 61.44 L588 195.5 C588 200.192 584.192 204 579.5 204 L579.5 204 Z " />
<glyph glyph-name="emacron" unicode="&#x113;" horiz-adv-x="483" d="M160 593 L354 593 C373.871 593 390 609.129 390 629 C390 648.871 373.871 665 354 665 L160 665 C140.129 665 124 648.871 124 629 C124 609.129 140.129 593 160 593 L160 593 Z M173.428 333.437 C186.137 371.859 210.825 395 243 395 C275.175 395 300.544 372.539 315.176 333.795 C321.158 317.954 311.786 307 294.853 307 L194.372 307 C177.554 307 168.146 317.47 173.428 333.437 L173.428 333.437 Z M385.158 240.571 L406.5 243.5 C421.786 245.598 432.137 259.681 430.85 275.057 C421.459 387.272 355.275 460 260 460 C133 460 49 356 49 200 C49 74 133 -10 260 -10 C329.225 -10 396.549 41.3338 429.531 119.903 C430.303 121.742 431.303 130.529 431 132.5 C430.528 135.567 427.615 137.136 425.106 135.311 C393.532 112.343 351.4 97 321 97 C249.225 97 195.827 135.115 173.72 197.307 C164.086 224.413 179.019 240 207.786 240 L376.803 240 C377.118 240 384.846 240.528 385.158 240.571 L385.158 240.571 Z " />
<glyph glyph-name="Edot" unicode="&#x116;" horiz-adv-x="658" d="M344 725 C392 725 424 757 424 805 C424 853 392 885 344 885 C296 885 264 853 264 805 C264 757 296 725 344 725 L344 725 Z M579.5 204 C575.244 204 569.214 200.15 567.422 196.29 L529.509 114.58 C521.243 96.7652 493.416 79 473.776 79 L335.44 79 C301.527 79 274 106.527 274 140.44 L274 238.56 C274 272.473 301.527 300 335.44 300 L375.863 300 C394.013 300 421.826 283.189 430.262 267.119 L449.654 230.182 C452.267 225.206 460.88 220 466.5 220 C472.848 220 478 225.152 478 231.5 L478 448.5 C478 454.848 472.848 460 466.5 460 C460.88 460 452.267 454.794 449.654 449.818 L430.262 412.881 C421.826 396.811 394.013 380 375.863 380 L335.44 380 C301.527 380 274 407.527 274 441.44 L274 519.56 C274 553.473 301.527 581 335.44 581 L450.175 581 C468.817 581 496.639 563.872 505.033 547.227 L542.172 473.589 C544.059 469.849 550.311 466 554.5 466 C559.192 466 563 469.808 563 474.5 L563 598.56 C563 632.473 535.473 660 501.56 660 L73.5 660 C68.2563 660 64 655.744 64 650.5 C64 645.718 68.3026 639.064 72.6633 637.102 L107.773 621.302 C126.008 613.096 144 585.27 144 565.274 L144 94.7262 C144 74.7299 126.008 46.9035 107.773 38.6978 L72.6633 22.8985 C68.3026 20.9362 64 14.2819 64 9.5 C64 4.25628 68.2563 0 73.5 0 L526.56 0 C560.473 0 588 27.527 588 61.44 L588 195.5 C588 200.192 584.192 204 579.5 204 L579.5 204 Z " />
<glyph glyph-name="edot" unicode="&#x117;" horiz-adv-x="483" d="M262 583 C310 583 342 615 342 663 C342 711 310 743 262 743 C214 743 182 711 182 663 C182 615 214 583 262 583 L262 583 Z M173.428 333.437 C186.137 371.859 210.825 395 243 395 C275.175 395 300.544 372.539 315.176 333.795 C321.158 317.954 311.786 307 294.853 307 L194.372 307 C177.554 307 168.146 317.47 173.428 333.437 L173.428 333.437 Z M385.158 240.571 L406.5 243.5 C421.786 245.598 432.137 259.681 430.85 275.057 C421.459 387.272 355.275 460 260 460 C133 460 49 356 49 200 C49 74 133 -10 260 -10 C329.225 -10 396.549 41.3338 429.531 119.903 C430.303 121.742 431.303 130.529 431 132.5 C430.528 135.567 427.615 137.136 425.106 135.311 C393.532 112.343 351.4 97 321 97 C249.225 97 195.827 135.115 173.72 197.307 C164.086 224.413 179.019 240 207.786 240 L376.803 240 C377.118 240 384.846 240.528 385.158 240.571 L385.158 240.571 Z " />
<glyph glyph-name="Ecaron" unicode="&#x11a;" horiz-adv-x="658" d="M497 867 L496 867 L497 868 L497 867 L497 867 Z M339 710.5 C344.918 710.5 359.278 716.846 363.262 721.221 L490.277 860.715 C492.613 863.28 490.969 867 487.5 867 C485.366 867 473.33 864.105 471.43 863.134 L366.56 809.584 C353.627 802.98 322.518 803.257 309.705 810.091 L210.941 862.765 C208.878 863.865 196.338 867 194 867 C190.281 867 188.5 863.046 190.966 860.261 L314.388 720.856 C318.36 716.37 333.008 710.5 339 710.5 L339 710.5 Z M579.5 204 C575.244 204 569.214 200.15 567.422 196.29 L529.509 114.58 C521.243 96.7652 493.416 79 473.776 79 L335.44 79 C301.527 79 274 106.527 274 140.44 L274 238.56 C274 272.473 301.527 300 335.44 300 L375.863 300 C394.013 300 421.826 283.189 430.262 267.119 L449.654 230.182 C452.267 225.206 460.88 220 466.5 220 C472.848 220 478 225.152 478 231.5 L478 448.5 C478 454.848 472.848 460 466.5 460 C460.88 460 452.267 454.794 449.654 449.818 L430.262 412.881 C421.826 396.811 394.013 380 375.863 380 L335.44 380 C301.527 380 274 407.527 274 441.44 L274 519.56 C274 553.473 301.527 581 335.44 581 L450.175 581 C468.817 581 496.639 563.872 505.033 547.227 L542.172 473.589 C544.059 469.849 550.311 466 554.5 466 C559.192 466 563 469.808 563 474.5 L563 598.56 C563 632.473 535.473 660 501.56 660 L73.5 660 C68.2563 660 64 655.744 64 650.5 C64 645.718 68.3026 639.064 72.6633 637.102 L107.773 621.302 C126.008 613.096 144 585.27 144 565.274 L144 94.7262 C144 74.7299 126.008 46.9035 107.773 38.6978 L72.6633 22.8985 C68.3026 20.9362 64 14.2819 64 9.5 C64 4.25628 68.2563 0 73.5 0 L526.56 0 C560.473 0 588 27.527 588 61.44 L588 195.5 C588 200.192 584.192 204 579.5 204 L579.5 204 Z " />
<glyph glyph-name="ecaron" unicode="&#x11b;" horiz-adv-x="483" d="M276.491 546.615 L404.305 703.031 C406.739 706.01 404.847 710 401 710 C398.535 710 386.326 706.758 384.186 705.535 L282.929 647.674 C268.113 639.208 236.004 639.41 221.295 648.062 L123.757 705.437 C121.586 706.714 109.519 710 107 710 C103.11 710 101.178 705.999 103.598 702.953 L227.671 546.746 C231.703 541.669 245.517 535 252 535 C258.411 535 272.435 541.651 276.491 546.615 L276.491 546.615 Z M173.428 333.437 C186.137 371.859 210.825 395 243 395 C275.175 395 300.544 372.539 315.176 333.795 C321.158 317.954 311.786 307 294.853 307 L194.372 307 C177.554 307 168.146 317.47 173.428 333.437 L173.428 333.437 Z M385.158 240.571 L406.5 243.5 C421.786 245.598 432.137 259.681 430.85 275.057 C421.459 387.272 355.275 460 260 460 C133 460 49 356 49 200 C49 74 133 -10 260 -10 C329.225 -10 396.549 41.3338 429.531 119.903 C430.303 121.742 431.303 130.529 431 132.5 C430.528 135.567 427.615 137.136 425.106 135.311 C393.532 112.343 351.4 97 321 97 C249.225 97 195.827 135.115 173.72 197.307 C164.086 224.413 179.019 240 207.786 240 L376.803 240 C377.118 240 384.846 240.528 385.158 240.571 L385.158 240.571 Z " />
<glyph glyph-name="Gbreve" unicode="&#x11e;" horiz-adv-x="779" d="M250 868 C244.763 868 241.175 864.707 243.01 859.802 C282.269 754.877 326.875 714 400 714 C473.125 714 517.731 754.877 556.99 859.802 C558.825 864.707 555.237 868 550 868 C545.5 868 537.525 861.538 535.586 857.477 C515.903 816.257 476.775 800 400 800 C323.225 800 284.098 816.257 264.414 857.477 C262.475 861.538 254.5 868 250 868 L250 868 Z M694.149 251.871 L725.436 266.889 C729.697 268.935 734 275.773 734 280.5 C734 285.744 729.744 290 724.5 290 L454.5 290 C449.256 290 445 285.744 445 280.5 C445 275.671 449.302 269.178 453.748 267.295 L492.521 250.873 C511.57 242.806 530 214.986 530 194.298 L530 105 C530 97.6748 525.144 89.9101 518.203 87.5702 C496.501 80.2548 471.105 76 445 76 C300 76 204 186 204 352 C204 500 292 599 425 599 C471 599 523 581 561 553 C567 548 572 541 575 534 C592 502 613 460 630 428 C630.728 426.63 630.701 427.987 632.252 428.043 C636.764 428.207 641.346 428.793 646.42 428.957 C648.289 429.017 648.934 430.628 648.858 432.497 L642.081 599.39 C641.682 609.217 630.278 613.07 624 605.5 L628.087 610.428 C636.866 621.015 635.773 630.952 623.483 637.126 C583.93 656.995 509.3 670 426 670 C213 670 71 525 71 307 C71 117 205 -10 406 -10 C493.875 -10 587.739 29.3588 646.438 89.0814 C653.383 96.1481 659.903 116.702 659.827 126.61 L659.298 196.013 C659.149 215.484 676.595 243.445 694.149 251.871 L694.149 251.871 Z " />
<glyph glyph-name="gbreve" unicode="&#x11f;" horiz-adv-x="554" d="M117 711 C111.708 711 108.317 706.929 110.01 701.915 C149.269 585.63 193.875 540 267 540 C340.125 540 384.731 585.63 423.99 701.915 C425.683 706.929 422.292 711 417 711 C412.17 711 405.923 707.635 404.14 703.146 C384.99 654.952 345.85 636 267 636 C188.15 636 149.01 654.953 129.86 703.146 C128.077 707.635 121.83 711 117 711 L117 711 Z M465.858 444.759 L390.33 434.381 C386.039 433.792 360.457 438.886 356.526 440.704 C329.516 453.194 297.3 460 261 460 C140 460 78 396 78 300 C78 251.325 95.6963 210.818 126.597 182.408 C133.833 175.755 134.12 159.942 125.544 155.138 C85.8425 132.9 62 101.45 62 70 C62 34.525 81.0575 6.53688 112.996 -9.47225 C118.935 -12.4491 118.977 -25.4762 113.376 -29.0486 C75.12 -53.45 52 -95.95 52 -124 C52 -193 127 -239 240 -239 C379 -239 472 -163 472 -48 C472 26 436 76 344 76 L218 76 C185 76 163 92 163 117 C163 130.474 168.673 141.82 177.631 146.859 C180.751 148.613 185.739 148.036 189.158 146.976 C210.604 140.325 234.471 137 260 137 C381 137 444 203 444 303 C444 326.059 439.931 347.083 431.792 366.073 C429.612 371.16 432.981 377.552 438.504 377.198 L465.579 375.463 C486.743 374.106 504 390.293 504 411.5 C504 432.553 486.715 447.625 465.858 444.759 L465.858 444.759 Z M197 305 C197 364 216 404 252 404 C297 404 327 362 327 299 C327 237 310 195 278 195 C229 195 197 239 197 305 L197 305 Z M183 -24 L287 -24 C345 -24 368 -46 368 -79 C368 -150 323 -198 256 -198 C196 -198 156 -162 156 -108 C156 -63 167 -24 183 -24 L183 -24 Z " />
<glyph glyph-name="Itilde" unicode="&#x128;" horiz-adv-x="429" d="M83.5156 715.157 C92.3391 739.429 101.941 755 124 755 C168 755 228 694 272 694 C318.8 694 340.884 745.334 366.984 823.903 C368.557 828.639 364.49 830 359.5 830 C354.716 830 348.157 824.286 346.551 819.78 C337.531 794.474 327.257 778 306 778 C262 778 202 839 158 839 C112.4 839 89.3625 790.265 64.881 716.802 C63.2958 712.045 65.4861 705 70.5 705 C75.2897 705 81.8792 710.655 83.5156 715.157 L83.5156 715.157 Z M359 9.5 C359 14.2819 354.697 20.9362 350.337 22.8985 L315.227 38.6978 C296.992 46.9035 279 74.7299 279 94.7262 L279 565.274 C279 585.27 296.992 613.096 315.227 621.302 L350.337 637.102 C354.697 639.064 359 645.718 359 650.5 C359 655.744 354.744 660 349.5 660 L79.5 660 C74.2563 660 70 655.744 70 650.5 C70 645.718 74.3026 639.064 78.6633 637.102 L113.773 621.302 C132.008 613.096 150 585.27 150 565.274 L150 94.7262 C150 74.7299 132.008 46.9035 113.773 38.6978 L78.6633 22.8985 C74.3026 20.9362 70 14.2819 70 9.5 C70 4.25628 74.2563 0 79.5 0 L349.5 0 C354.744 0 359 4.25628 359 9.5 L359 9.5 Z " />
<glyph glyph-name="itilde" unicode="&#x129;" horiz-adv-x="352" d="M45.5156 540.157 C54.3391 564.429 63.9412 580 86 580 C130 580 190 519 234 519 C280.8 519 302.884 570.334 328.984 648.903 C330.557 653.639 326.49 655 321.5 655 C316.716 655 310.157 649.286 308.551 644.78 C299.531 619.474 289.257 603 268 603 C224 603 164 664 120 664 C74.4 664 51.3625 615.265 26.881 541.802 C25.2958 537.045 27.4861 530 32.5 530 C37.2897 530 43.8792 535.655 45.5156 540.157 L45.5156 540.157 Z M299 9 C299 13.4569 294.924 20.0066 290.925 21.9752 L266.5 34 C250.406 41.9234 234 68.286 234 86.225 L234 448.5 C234 454.848 228.848 460 222.5 460 C220.104 460 202.57 456.563 200.351 455.659 L56.778 397.132 C55.3581 396.554 54 394.533 54 393 C54 391.754 55.3199 388.845 56.2577 388.024 L78 369 C103 348 119 334 119 334 C119 334 119 336.301 119 323.37 L119 86.225 C119 68.286 102.594 41.9234 86.5 34 L62.0745 21.9752 C58.0759 20.0066 54 13.4569 54 9 C54 4.03227 58.0323 0 63 0 L290 0 C294.968 0 299 4.03227 299 9 L299 9 Z " />
<glyph glyph-name="Imacron" unicode="&#x12a;" horiz-adv-x="429" d="M118 763 L312 763 C331.871 763 348 779.129 348 799 C348 818.871 331.871 835 312 835 L118 835 C98.1291 835 82 818.871 82 799 C82 779.129 98.1291 763 118 763 L118 763 Z M359 9.5 C359 14.2819 354.697 20.9362 350.337 22.8985 L315.227 38.6978 C296.992 46.9035 279 74.7299 279 94.7262 L279 565.274 C279 585.27 296.992 613.096 315.227 621.302 L350.337 637.102 C354.697 639.064 359 645.718 359 650.5 C359 655.744 354.744 660 349.5 660 L79.5 660 C74.2563 660 70 655.744 70 650.5 C70 645.718 74.3026 639.064 78.6633 637.102 L113.773 621.302 C132.008 613.096 150 585.27 150 565.274 L150 94.7262 C150 74.7299 132.008 46.9035 113.773 38.6978 L78.6633 22.8985 C74.3026 20.9362 70 14.2819 70 9.5 C70 4.25628 74.2563 0 79.5 0 L349.5 0 C354.744 0 359 4.25628 359 9.5 L359 9.5 Z " />
<glyph glyph-name="imacron" unicode="&#x12b;" horiz-adv-x="352" d="M75 593 L269 593 C288.871 593 305 609.129 305 629 C305 648.871 288.871 665 269 665 L75 665 C55.1291 665 39 648.871 39 629 C39 609.129 55.1291 593 75 593 L75 593 Z M299 9 C299 13.4569 294.924 20.0066 290.925 21.9752 L266.5 34 C250.406 41.9234 234 68.286 234 86.225 L234 448.5 C234 454.848 228.848 460 222.5 460 C220.104 460 202.57 456.563 200.351 455.659 L56.778 397.132 C55.3581 396.554 54 394.533 54 393 C54 391.754 55.3199 388.845 56.2577 388.024 L78 369 C103 348 119 334 119 334 C119 334 119 336.301 119 323.37 L119 86.225 C119 68.286 102.594 41.9234 86.5 34 L62.0745 21.9752 C58.0759 20.0066 54 13.4569 54 9 C54 4.03227 58.0323 0 63 0 L290 0 C294.968 0 299 4.03227 299 9 L299 9 Z " />
<glyph glyph-name="Idot" unicode="&#x130;" horiz-adv-x="429" d="M215 725 C263 725 295 757 295 805 C295 853 263 885 215 885 C167 885 135 853 135 805 C135 757 167 725 215 725 L215 725 Z M359 9.5 C359 14.2819 354.697 20.9362 350.337 22.8985 L315.227 38.6978 C296.992 46.9035 279 74.7299 279 94.7262 L279 565.274 C279 585.27 296.992 613.096 315.227 621.302 L350.337 637.102 C354.697 639.064 359 645.718 359 650.5 C359 655.744 354.744 660 349.5 660 L79.5 660 C74.2563 660 70 655.744 70 650.5 C70 645.718 74.3026 639.064 78.6633 637.102 L113.773 621.302 C132.008 613.096 150 585.27 150 565.274 L150 94.7262 C150 74.7299 132.008 46.9035 113.773 38.6978 L78.6633 22.8985 C74.3026 20.9362 70 14.2819 70 9.5 C70 4.25628 74.2563 0 79.5 0 L349.5 0 C354.744 0 359 4.25628 359 9.5 L359 9.5 Z " />
<glyph glyph-name="dotlessi" unicode="&#x131;" horiz-adv-x="352" d="M299 9 C299 13.4569 294.924 20.0066 290.925 21.9752 L266.5 34 C250.406 41.9234 234 68.286 234 86.225 L234 448.5 C234 454.848 228.848 460 222.5 460 C220.104 460 202.57 456.563 200.351 455.659 L56.778 397.132 C55.3581 396.554 54 394.533 54 393 C54 391.754 55.3199 388.845 56.2577 388.024 L78 369 C103 348 119 334 119 334 C119 334 119 336.301 119 323.37 L119 86.225 C119 68.286 102.594 41.9234 86.5 34 L62.0745 21.9752 C58.0759 20.0066 54 13.4569 54 9 C54 4.03227 58.0323 0 63 0 L290 0 C294.968 0 299 4.03227 299 9 L299 9 Z " />
<glyph glyph-name="Lacute" unicode="&#x139;" horiz-adv-x="642" d="M201.5 705 C203.779 705 215.439 708.021 217.43 709.128 L354 785 C379 799 395 865 395 865 C395 865 375.786 865 361.044 865 L316.473 865 C298.799 865 270.998 848.496 262.535 832.981 L197.07 712.962 C195.098 709.346 197.381 705 201.5 705 L201.5 705 Z M563 244 C558.35 244 552.47 239.928 550.834 235.575 L506.966 118.829 C499.233 98.2494 471.437 79 449.452 79 L335.44 79 C301.527 79 274 106.527 274 140.44 L274 564.298 C274 584.986 292.43 612.806 311.479 620.873 L350.252 637.295 C354.698 639.178 359 645.671 359 650.5 C359 655.744 354.744 660 349.5 660 L73.5 660 C68.2563 660 64 655.744 64 650.5 C64 645.718 68.3026 639.064 72.6633 637.102 L107.773 621.302 C126.008 613.096 144 585.27 144 565.274 L144 94.7262 C144 74.7299 126.008 46.9035 107.773 38.6978 L72.6633 22.8985 C68.3026 20.9362 64 14.2819 64 9.5 C64 4.25628 68.2563 0 73.5 0 L510.56 0 C544.473 0 572 27.527 572 61.44 L572 235 C572 239.968 567.968 244 563 244 L563 244 Z " />
<glyph glyph-name="lacute" unicode="&#x13a;" horiz-adv-x="333" d="M159 765 C161.326 765 173.898 768.125 175.953 769.213 L319 845 C346 859 363 925 363 925 C363 925 343.501 925 328.923 925 L277.586 925 C260.548 925 232.77 908.911 224.292 894.133 L154.978 773.307 C152.834 769.569 154.691 765 159 765 L159 765 Z M289 9 C289 13.4569 284.924 20.0066 280.925 21.9752 L256.5 34 C240.406 41.9234 224 68.286 224 86.225 L224 748.5 C224 754.848 218.848 760 212.5 760 C210.104 760 192.57 756.563 190.351 755.659 L46.778 697.132 C45.3581 696.554 44 694.533 44 693 C44 691.754 45.3199 688.845 46.2577 688.024 L68 669 C93 648 109 634 109 634 C109 634 109 636.301 109 623.37 L109 86.225 C109 68.286 92.5944 41.9234 76.5 34 L52.0745 21.9752 C48.0759 20.0066 44 13.4569 44 9 C44 4.03227 48.0323 0 53 0 L280 0 C284.968 0 289 4.03227 289 9 L289 9 Z " />
<glyph glyph-name="Lcaron" unicode="&#x13d;" horiz-adv-x="642" d="M520 660 L465.773 660 C436.354 660 408.773 635.861 404.875 606.701 L388.126 481.425 C387.51 476.816 390.85 473 395.5 473 C399.385 473 406.588 476.821 408.766 480.038 L532 662 C529 659 527.5 660 519.5 660 L520 660 Z M531 662 L537.552 671.464 C537.572 671.492 538.28 672.542 538.26 672.514 C534.5 667.031 532.75 663.75 531 662 L531 662 Z M540 675 L541 677 C541 676 541 675 541 674 L540 675 L540 675 Z M563 244 C558.35 244 552.47 239.928 550.834 235.575 L506.966 118.829 C499.233 98.2494 471.437 79 449.452 79 L335.44 79 C301.527 79 274 106.527 274 140.44 L274 564.298 C274 584.986 292.43 612.806 311.479 620.873 L350.252 637.295 C354.698 639.178 359 645.671 359 650.5 C359 655.744 354.744 660 349.5 660 L73.5 660 C68.2563 660 64 655.744 64 650.5 C64 645.718 68.3026 639.064 72.6633 637.102 L107.773 621.302 C126.008 613.096 144 585.27 144 565.274 L144 94.7262 C144 74.7299 126.008 46.9035 107.773 38.6978 L72.6633 22.8985 C68.3026 20.9362 64 14.2819 64 9.5 C64 4.25628 68.2563 0 73.5 0 L510.56 0 C544.473 0 572 27.527 572 61.44 L572 235 C572 239.968 567.968 244 563 244 L563 244 Z " />
<glyph glyph-name="lcaron" unicode="&#x13e;" horiz-adv-x="333" d="M422 750 L367.773 750 C338.354 750 310.773 725.861 306.875 696.701 L290.126 571.425 C289.51 566.816 292.85 563 297.5 563 C301.385 563 308.588 566.821 310.766 570.038 L434 752 C431 749 429.5 750 421.5 750 L422 750 Z M433 752 L439.552 761.464 C439.572 761.492 440.28 762.542 440.26 762.514 C436.5 757.031 434.75 753.75 433 752 L433 752 Z M442 765 L443 767 C443 766 443 765 443 764 L442 765 L442 765 Z M289 9 C289 13.4569 284.924 20.0066 280.925 21.9752 L256.5 34 C240.406 41.9234 224 68.286 224 86.225 L224 748.5 C224 754.848 218.848 760 212.5 760 C210.104 760 192.57 756.563 190.351 755.659 L46.778 697.132 C45.3581 696.554 44 694.533 44 693 C44 691.754 45.3199 688.845 46.2577 688.024 L68 669 C93 648 109 634 109 634 C109 634 109 636.301 109 623.37 L109 86.225 C109 68.286 92.5944 41.9234 76.5 34 L52.0745 21.9752 C48.0759 20.0066 44 13.4569 44 9 C44 4.03227 48.0323 0 53 0 L280 0 C284.968 0 289 4.03227 289 9 L289 9 Z " />
<glyph glyph-name="Nacute" unicode="&#x143;" horiz-adv-x="811" d="M423.5 705 C425.779 705 437.439 708.021 439.43 709.128 L576 785 C601 799 617 865 617 865 C617 865 597.786 865 583.044 865 L538.473 865 C520.799 865 492.998 848.496 484.535 832.981 L419.07 712.962 C417.098 709.346 419.381 705 423.5 705 L423.5 705 Z M74.5763 636.883 L106.147 621.729 C123.49 613.405 141 585.578 141 566.34 L141 94.7262 C141 74.7299 123.008 46.9035 104.773 38.6978 L69.6633 22.8985 C65.3026 20.9362 61 14.2819 61 9.5 C61 4.25628 65.2563 0 70.5 0 L332.5 0 C337.744 0 342 4.25628 342 9.5 C342 14.4337 337.704 20.5467 333.062 22.2178 L282.629 40.3735 C261.529 47.9697 242 75.7556 242 98.1817 L242 353.283 C242 388.059 285.959 398.97 308.15 372.195 C405.8 254.371 503.45 136.442 601.1 17.9426 C607.87 9.72755 634.355 -5 645 -5 C658.799 -5 670 6.20075 670 20 L670 566.34 C670 585.578 687.51 613.405 704.853 621.729 L736.436 636.889 C740.697 638.935 745 645.773 745 650.5 C745 655.744 740.744 660 735.5 660 L479.5 660 C474.256 660 470 655.744 470 650.5 C470 645.566 474.296 639.453 478.938 637.782 L529.371 619.626 C550.471 612.03 570 584.244 570 561.818 L570 430.75 C570 370.619 499.201 345.293 461.061 391.78 L259.435 637.531 C251.568 647.119 224.338 660 211.936 660 L74.5131 660 C69.2694 660 65.2244 655.736 65.5 650.5 C65.7422 645.898 70.4222 638.877 74.5763 636.883 L74.5763 636.883 Z " />
<glyph glyph-name="nacute" unicode="&#x144;" horiz-adv-x="599" d="M311.5 530 C313.967 530 325.132 533.172 327.23 534.469 L464 619 C489 634 505 707 505 707 C505 707 484.228 707 467.634 707 L428.261 707 C409.308 707 381.483 689.672 373.122 672.662 L306.75 537.628 C304.892 533.85 307.289 530 311.5 530 L311.5 530 Z M559 9 C559 13.4569 554.924 20.0066 550.925 21.9752 L526.5 34 C510.406 41.9234 494 68.286 494 86.225 L494 343 C494 413 443 460 367 460 C323.8 460 281.41 435.7 240.559 397.306 C235.6 392.646 226.639 395.874 226.399 402.674 C225.361 432.094 224 460 224 460 C224 460 219.165 460 212.5 460 C210.023 460 192.692 456.479 190.412 455.512 L52.7621 397.171 C51.3584 396.576 50 394.525 50 393 C50 391.754 51.3199 388.845 52.2577 388.024 L74 369 C99 348 115 334 115 334 C115 334 115 336.301 115 323.37 L115 86.225 C115 68.286 98.5944 41.9234 82.5 34 L58.0745 21.9752 C54.0759 20.0066 50 13.4569 50 9 C50 4.03227 54.0323 0 59 0 L291 0 C295.968 0 300 4.03227 300 9 C300 13.518 295.924 19.8634 291.815 21.7418 L265 34 C247.43 42.032 230 69.1648 230 88.4838 L230 331.292 C230 336.819 233.956 343.761 238.871 346.289 C254.238 354.194 275 359 304 359 C349 359 379 326 379 277 L379 88.4838 C379 69.1648 361.57 42.032 344 34 L317.185 21.7418 C313.076 19.8634 309 13.518 309 9 C309 4.03227 313.032 0 318 0 L550 0 C554.968 0 559 4.03227 559 9 L559 9 Z " />
<glyph glyph-name="Ncaron" unicode="&#x147;" horiz-adv-x="811" d="M574 867 L573 867 L574 868 L574 867 L574 867 Z M416 710.5 C421.918 710.5 436.278 716.846 440.262 721.221 L567.614 861.085 C569.812 863.499 568.265 867 565 867 C562.992 867 551.664 864.275 549.875 863.362 L444.453 809.529 C431.596 802.964 400.523 803.194 387.765 809.948 L287.512 863.023 C285.572 864.05 273.695 867 271.5 867 C267.976 867 266.285 863.263 268.612 860.616 L391.427 720.891 C395.396 716.376 409.989 710.5 416 710.5 L416 710.5 Z M74.5763 636.883 L106.147 621.729 C123.49 613.405 141 585.578 141 566.34 L141 94.7262 C141 74.7299 123.008 46.9035 104.773 38.6978 L69.6633 22.8985 C65.3026 20.9362 61 14.2819 61 9.5 C61 4.25628 65.2563 0 70.5 0 L332.5 0 C337.744 0 342 4.25628 342 9.5 C342 14.4337 337.704 20.5467 333.062 22.2178 L282.629 40.3735 C261.529 47.9697 242 75.7556 242 98.1817 L242 353.283 C242 388.059 285.959 398.97 308.15 372.195 C405.8 254.371 503.45 136.442 601.1 17.9426 C607.87 9.72755 634.355 -5 645 -5 C658.799 -5 670 6.20075 670 20 L670 566.34 C670 585.578 687.51 613.405 704.853 621.729 L736.436 636.889 C740.697 638.935 745 645.773 745 650.5 C745 655.744 740.744 660 735.5 660 L479.5 660 C474.256 660 470 655.744 470 650.5 C470 645.566 474.296 639.453 478.938 637.782 L529.371 619.626 C550.471 612.03 570 584.244 570 561.818 L570 430.75 C570 370.619 499.201 345.293 461.061 391.78 L259.435 637.531 C251.568 647.119 224.338 660 211.936 660 L74.5131 660 C69.2694 660 65.2244 655.736 65.5 650.5 C65.7422 645.898 70.4222 638.877 74.5763 636.883 L74.5763 636.883 Z " />
<glyph glyph-name="ncaron" unicode="&#x148;" horiz-adv-x="599" d="M329.491 546.615 L457.305 703.031 C459.739 706.01 457.847 710 454 710 C451.535 710 439.326 706.758 437.186 705.535 L335.929 647.674 C321.113 639.208 289.004 639.41 274.295 648.062 L176.757 705.437 C174.586 706.714 162.519 710 160 710 C156.11 710 154.178 705.999 156.598 702.953 L280.671 546.746 C284.703 541.669 298.517 535 305 535 C311.411 535 325.435 541.651 329.491 546.615 L329.491 546.615 Z M559 9 C559 13.4569 554.924 20.0066 550.925 21.9752 L526.5 34 C510.406 41.9234 494 68.286 494 86.225 L494 343 C494 413 443 460 367 460 C323.8 460 281.41 435.7 240.559 397.306 C235.6 392.646 226.639 395.874 226.399 402.674 C225.361 432.094 224 460 224 460 C224 460 219.165 460 212.5 460 C210.023 460 192.692 456.479 190.412 455.512 L52.7621 397.171 C51.3584 396.576 50 394.525 50 393 C50 391.754 51.3199 388.845 52.2577 388.024 L74 369 C99 348 115 334 115 334 C115 334 115 336.301 115 323.37 L115 86.225 C115 68.286 98.5944 41.9234 82.5 34 L58.0745 21.9752 C54.0759 20.0066 50 13.4569 50 9 C50 4.03227 54.0323 0 59 0 L291 0 C295.968 0 300 4.03227 300 9 C300 13.518 295.924 19.8634 291.815 21.7418 L265 34 C247.43 42.032 230 69.1648 230 88.4838 L230 331.292 C230 336.819 233.956 343.761 238.871 346.289 C254.238 354.194 275 359 304 359 C349 359 379 326 379 277 L379 88.4838 C379 69.1648 361.57 42.032 344 34 L317.185 21.7418 C313.076 19.8634 309 13.518 309 9 C309 4.03227 313.032 0 318 0 L550 0 C554.968 0 559 4.03227 559 9 L559 9 Z " />
<glyph glyph-name="Omacron" unicode="&#x14c;" horiz-adv-x="817" d="M297 763 L491 763 C510.871 763 527 779.129 527 799 C527 818.871 510.871 835 491 835 L297 835 C277.129 835 261 818.871 261 799 C261 779.129 277.129 763 297 763 L297 763 Z M208 375 C208 510 278 600 383 600 C519 600 610 471 610 277 C610 148 541 62 438 62 C300 62 208 187 208 375 L208 375 Z M70 324 C70 124 206 -10 409 -10 C612 -10 747 125 747 328 C747 533 612 670 409 670 C206 670 70 532 70 324 L70 324 Z " />
<glyph glyph-name="omacron" unicode="&#x14d;" horiz-adv-x="548" d="M177 593 L371 593 C390.871 593 407 609.129 407 629 C407 648.871 390.871 665 371 665 L177 665 C157.129 665 141 648.871 141 629 C141 609.129 157.129 593 177 593 L177 593 Z M182 225 C182 330 206 400 254 400 C321 400 366 330 366 225 C366 120 342 50 294 50 C227 50 182 120 182 225 L182 225 Z M50 225 C50 84 140 -10 274 -10 C422 -10 498 84 498 225 C498 366 408 460 274 460 C126 460 50 366 50 225 L50 225 Z " />
<glyph glyph-name="Racute" unicode="&#x154;" horiz-adv-x="708" d="M301.5 705 C303.779 705 315.439 708.021 317.43 709.128 L454 785 C479 799 495 865 495 865 C495 865 475.786 865 461.044 865 L416.473 865 C398.799 865 370.998 848.496 362.535 832.981 L297.07 712.962 C295.098 709.346 297.381 705 301.5 705 L301.5 705 Z M695 9 C695 13.5396 690.924 19.8116 686.776 21.6552 L648.387 38.7168 C643.755 40.7756 623.958 58.0129 621.101 62.2003 C579.723 122.843 511.706 214.238 460.568 282.113 C449.449 296.873 458.885 320.997 474.765 330.447 C530.44 363.582 574 415.825 574 481 C574 588 486 660 353 660 L73.5 660 C68.2563 660 64 655.744 64 650.5 C64 645.718 68.3026 639.064 72.6633 637.102 L107.773 621.302 C126.008 613.096 144 585.27 144 565.274 L144 94.7262 C144 74.7299 126.008 46.9035 107.773 38.6978 L72.6633 22.8985 C68.3026 20.9362 64 14.2819 64 9.5 C64 4.25628 68.2563 0 73.5 0 L339.5 0 C344.744 0 349 4.25628 349 9.5 C349 14.2273 344.697 21.0653 340.436 23.1109 L308.853 38.2706 C291.51 46.5954 274 74.4223 274 93.6601 L274 281.5 C274 286.192 277.808 290 282.5 290 C286.22 290 289.114 292.45 291.383 289.502 C300.509 277.644 469.692 57.6169 495.665 8.49937 C497.04 5.90094 506.061 0 509 0 L686 0 C690.968 0 695 4.03227 695 9 L695 9 Z M274 378.25 L274 558 C274 570.695 284.305 581 297 581 L320 581 C388 581 433 537 433 470 C433 410 350 370 290 370 L281.75 370 C277.196 370 274 373.696 274 378.25 L274 378.25 Z " />
<glyph glyph-name="racute" unicode="&#x155;" horiz-adv-x="419" d="M269.5 530 C271.967 530 283.132 533.172 285.23 534.469 L422 619 C447 634 463 707 463 707 C463 707 442.228 707 425.634 707 L386.261 707 C367.308 707 339.483 689.672 331.122 672.662 L264.75 537.628 C262.892 533.85 265.289 530 269.5 530 L269.5 530 Z M335 460 C307.7 460 272.795 426.728 233.066 375.941 C232.242 374.888 229.574 373.703 229.25 375 C229.172 375.313 228.348 380.766 228.331 381.088 L224.63 448.517 C224.283 454.846 218.838 460 212.5 460 C210.023 460 192.692 456.479 190.412 455.512 L52.7621 397.171 C51.3584 396.576 50 394.525 50 393 C50 391.754 51.3199 388.845 52.2577 388.024 L74 369 C99 348 115 334 115 334 C115 334 115 336.301 115 323.37 L115 86.225 C115 68.286 98.5944 41.9234 82.5 34 L58.0745 21.9752 C54.0759 20.0066 50 13.4569 50 9 C50 4.03227 54.0323 0 59 0 L291 0 C295.968 0 300 4.03227 300 9 C300 13.518 295.924 19.8634 291.815 21.7418 L265 34 C247.43 42.032 230 69.1648 230 88.4838 L230 313.075 C230 317.276 234.626 328.257 237.568 331.256 C247.36 341.24 256 347 264 347 C288 347 316 342 334 334 C346 328 372 313 372 313 C372 313 368.285 313 375.5 313 C377.241 313 380.022 315.089 380.785 316.654 C403.79 363.882 419 400.225 419 409 C419 422 409 438 393 448 C381 456 353 459.5 335 459.5 L335 460 Z " />
<glyph glyph-name="Rcaron" unicode="&#x158;" horiz-adv-x="708" d="M462 867 L461 867 L462 868 L462 867 L462 867 Z M304 710.5 C309.918 710.5 324.278 716.846 328.262 721.221 L455.614 861.085 C457.812 863.499 456.265 867 453 867 C450.992 867 439.664 864.275 437.875 863.362 L332.453 809.529 C319.596 802.964 288.523 803.194 275.765 809.948 L175.512 863.023 C173.572 864.05 161.695 867 159.5 867 C155.976 867 154.285 863.263 156.612 860.616 L279.427 720.891 C283.396 716.376 297.989 710.5 304 710.5 L304 710.5 Z M695 9 C695 13.5396 690.924 19.8116 686.776 21.6552 L648.387 38.7168 C643.755 40.7756 623.958 58.0129 621.101 62.2003 C579.723 122.843 511.706 214.238 460.568 282.113 C449.449 296.873 458.885 320.997 474.765 330.447 C530.44 363.582 574 415.825 574 481 C574 588 486 660 353 660 L73.5 660 C68.2563 660 64 655.744 64 650.5 C64 645.718 68.3026 639.064 72.6633 637.102 L107.773 621.302 C126.008 613.096 144 585.27 144 565.274 L144 94.7262 C144 74.7299 126.008 46.9035 107.773 38.6978 L72.6633 22.8985 C68.3026 20.9362 64 14.2819 64 9.5 C64 4.25628 68.2563 0 73.5 0 L339.5 0 C344.744 0 349 4.25628 349 9.5 C349 14.2273 344.697 21.0653 340.436 23.1109 L308.853 38.2706 C291.51 46.5954 274 74.4223 274 93.6601 L274 281.5 C274 286.192 277.808 290 282.5 290 C286.22 290 289.114 292.45 291.383 289.502 C300.509 277.644 469.692 57.6169 495.665 8.49937 C497.04 5.90094 506.061 0 509 0 L686 0 C690.968 0 695 4.03227 695 9 L695 9 Z M274 378.25 L274 558 C274 570.695 284.305 581 297 581 L320 581 C388 581 433 537 433 470 C433 410 350 370 290 370 L281.75 370 C277.196 370 274 373.696 274 378.25 L274 378.25 Z " />
<glyph glyph-name="rcaron" unicode="&#x159;" horiz-adv-x="419" d="M286.491 546.615 L414.622 703.418 C416.92 706.231 415.133 710 411.5 710 C409.185 710 397.621 706.948 395.607 705.805 L292.874 647.517 C278.11 639.141 246.034 639.392 231.404 647.998 L133.326 705.69 C131.276 706.896 119.879 710 117.5 710 C113.816 710 111.982 706.218 114.263 703.326 L237.712 546.778 C241.738 541.673 255.499 535 262 535 C268.411 535 282.435 541.651 286.491 546.615 L286.491 546.615 Z M335 460 C307.7 460 272.795 426.728 233.066 375.941 C232.242 374.888 229.574 373.703 229.25 375 C229.172 375.313 228.348 380.766 228.331 381.088 L224.63 448.517 C224.283 454.846 218.838 460 212.5 460 C210.023 460 192.692 456.479 190.412 455.512 L52.7621 397.171 C51.3584 396.576 50 394.525 50 393 C50 391.754 51.3199 388.845 52.2577 388.024 L74 369 C99 348 115 334 115 334 C115 334 115 336.301 115 323.37 L115 86.225 C115 68.286 98.5944 41.9234 82.5 34 L58.0745 21.9752 C54.0759 20.0066 50 13.4569 50 9 C50 4.03227 54.0323 0 59 0 L291 0 C295.968 0 300 4.03227 300 9 C300 13.518 295.924 19.8634 291.815 21.7418 L265 34 C247.43 42.032 230 69.1648 230 88.4838 L230 313.075 C230 317.276 234.626 328.257 237.568 331.256 C247.36 341.24 256 347 264 347 C288 347 316 342 334 334 C346 328 372 313 372 313 C372 313 368.285 313 375.5 313 C377.241 313 380.022 315.089 380.785 316.654 C403.79 363.882 419 400.225 419 409 C419 422 409 438 393 448 C381 456 353 459.5 335 459.5 L335 460 Z " />
<glyph glyph-name="Sacute" unicode="&#x15a;" horiz-adv-x="546" d="M240.5 705 C242.779 705 254.439 708.021 256.43 709.128 L393 785 C418 799 434 865 434 865 C434 865 414.786 865 400.044 865 L355.473 865 C337.799 865 309.998 848.496 301.535 832.981 L236.07 712.962 C234.098 709.346 236.381 705 240.5 705 L240.5 705 Z M451 461.5 L452.951 461.695 C453.118 461.712 458.896 462 459.064 462 L461.5 462 C464.53 462 466.852 464.465 466.671 467.49 L457.995 612.379 C457.334 623.415 453.498 633.679 444.174 639.619 C414.63 658.44 356.15 670 289 670 C165 670 83 596 83 484 C83 402 134 343 234 292 C322 247 367 206 367 159 C367 98 333 58 282 58 C239 58 184 79 141 112 C134 117 127 126 123 134 L81.2472 217.506 C80.0881 219.824 76.579 221.758 74 221.5 L72.0492 221.305 C71.8817 221.288 66.1039 221 65.9356 221 L63.5 221 C60.4676 221 58.118 218.535 58.263 215.506 L66.0508 52.8267 C66.6717 39.8572 72.5397 27.7848 84.1315 21.9345 C123.07 2.2825 197.7 -10 281 -10 C406 -10 490 71 490 192 C490 280 434 343 325 399 C249 438 210 478 210 531 C210 573 236 601 275 601 C311 601 350 587 379 564 C404.65 543.1 424.434 499.186 442.638 466.554 C443.896 464.298 448.43 461.243 451 461.5 L451 461.5 Z " />
<glyph glyph-name="sacute" unicode="&#x15b;" horiz-adv-x="443" d="M223.5 530 C225.967 530 237.132 533.172 239.23 534.469 L376 619 C401 634 417 707 417 707 C417 707 396.228 707 379.634 707 L340.261 707 C321.308 707 293.483 689.672 285.122 672.662 L218.75 537.628 C216.892 533.85 219.289 530 223.5 530 L223.5 530 Z M358 308 L358 407.277 C358 418.669 351.615 430.933 341.181 435.507 C306.735 450.608 258.2 460 214 460 C131 460 75 407 75 327 C75 244 110 202 179 183 C240 166 271 139 271 91 C271 61 246 41 209 41 C159 41 119 72 99 109 C92.913 121.174 83.8015 136.372 76.9255 149.335 C75.3688 152.27 70.3222 155 67 155 C63.1362 155 60 151.864 60 148 L60 37.906 C60 26.2625 66.9171 14.5968 77.9145 10.7719 C114.787 -2.0525 167.7 -10 217 -10 C311 -10 373 45 373 128 C373 216 334 261 258 282 C205 297 177 323 177 370 C177 390 195 404 221 404 C222 404 238 403 238 402 C277 395 315 362 333 319 C334.778 313.667 338.926 307.543 341.23 302.034 C341.804 300.662 343.675 300 345.162 300 L350 300 C354.416 300 358 303.584 358 308 L358 308 Z " />
<glyph glyph-name="Scedilla" unicode="&#x15e;" horiz-adv-x="546" d="M307.388 -32.7395 L307.5 -32.5 C311.927 -23.0688 331.841 -6.18072 341.988 -3.81598 C433.818 17.5856 492 90.175 492 191 C492 279 436 342 327 398 C251 437 212 477 212 530 C212 572 238 600 277 600 C313 600 352 586 381 563 C406.65 542.1 425.982 498.637 444.142 466.05 C445.4 463.793 449.428 461.243 452 461.5 L453.951 461.695 C454.118 461.712 459.896 462 460.064 462 L462.5 462 C465.53 462 467.852 464.465 467.671 467.49 L458.995 612.379 C458.334 623.415 454.498 633.679 445.174 639.619 C415.63 658.44 357.15 670 290 670 C166 670 84 596 84 484 C84 402 135 343 235 292 C323 247 368 206 368 159 C368 98 334 58 283 58 C240 58 185 79 142 112 C135 117 128 126 124 134 L82.2472 217.506 C81.0881 219.824 77.579 221.758 75 221.5 L73.0492 221.305 C72.8817 221.288 67.1039 221 66.9356 221 L64.5 221 C61.4676 221 59.118 218.535 59.263 215.506 L67.1025 51.7469 C67.6822 39.6391 73.1962 27.9819 83.9109 22.3136 C118.909 3.79856 184.638 -8.55684 259.198 -10.822 C263.352 -10.9482 264.532 -14.1465 262.777 -17.9141 C255.16 -34.2734 240.652 -65.5391 221.785 -106.648 C216.473 -118.224 221.396 -132.251 233 -137.5 L244.446 -142.678 C245.046 -142.949 263.824 -148.482 264.466 -148.631 C281.71 -152.622 293 -162.4 293 -175 C293 -191 278 -201 256 -201 C231.613 -201 209.502 -194.931 196.934 -185.437 C194.874 -183.881 192 -185.919 192 -188.5 C192 -191.659 195.336 -199.677 197.561 -201.919 C221.055 -225.599 251.95 -241 276 -241 C338 -241 380 -205 380 -152 C380 -114.05 358.22 -82.9063 321.398 -65.8685 C310.292 -60.7295 302.188 -43.8174 307.388 -32.7395 L307.388 -32.7395 Z " />
<glyph glyph-name="scedilla" unicode="&#x15f;" horiz-adv-x="443" d="M358 308.062 L358 407.277 C358 418.669 351.615 430.933 341.181 435.507 C306.735 450.608 258.2 460 214 460 C131 460 75 407 75 327 C75 244 110 202 179 183 C240 166 271 139 271 91 C271 61 246 41 209 41 C159 41 119 72 99 109 C92.913 121.174 83.8015 136.372 76.9255 149.335 C75.3688 152.27 70.3222 155 67 155 C63.1362 155 60 151.864 60 148 L60 36.1246 C60 25.726 66.4405 14.9757 76.254 11.5369 C107.502 0.586875 150.526 -7.32312 193.038 -9.63312 C197.193 -9.85888 199.534 -13.1421 197.777 -16.9141 C190.16 -33.2734 175.652 -64.5391 156.785 -105.648 C151.473 -117.224 156.396 -131.251 168 -136.5 L179.446 -141.678 C180.046 -141.949 198.824 -147.482 199.466 -147.631 C216.71 -151.622 228 -161.4 228 -174 C228 -190 213 -200 191 -200 C166.613 -200 144.502 -193.931 131.934 -184.437 C129.874 -182.881 127 -184.919 127 -187.5 C127 -190.659 130.336 -198.677 132.561 -200.919 C156.055 -224.599 186.95 -240 211 -240 C273 -240 315 -204 315 -151 C315 -109.6 289.08 -76.3 245.988 -60.577 C239.324 -58.1454 234.49 -48.4425 237.472 -42.0056 C244.288 -27.2931 249.312 -16.5105 252.264 -9.93719 C252.923 -8.46876 257.848 -5.28158 259.424 -4.95402 C329.271 9.56313 373 59.8 373 130 C373 218 334 263 258 284 C205 299 177 325 177 372 C177 392 195 406 221 406 C222 406 238 405 238 404 C277 397 315 364 333 321 C334.778 315.667 338.926 309.543 341.23 304.034 C341.768 302.75 343.756 301.78 345.138 301.608 L350 301 C354.382 300.452 358 303.646 358 308.062 L358 308.062 Z " />
<glyph glyph-name="Scaron" unicode="&#x160;" horiz-adv-x="546" d="M407 867 L406 867 L407 868 L407 867 L407 867 Z M249 710.5 C254.918 710.5 269.278 716.846 273.262 721.221 L400.277 860.715 C402.613 863.28 400.969 867 397.5 867 C395.366 867 383.33 864.105 381.43 863.134 L276.56 809.584 C263.627 802.98 232.518 803.257 219.705 810.091 L120.941 862.765 C118.878 863.865 106.338 867 104 867 C100.281 867 98.5004 863.046 100.966 860.261 L224.388 720.856 C228.36 716.37 243.008 710.5 249 710.5 L249 710.5 Z M451 461.5 L452.951 461.695 C453.118 461.712 458.896 462 459.064 462 L461.5 462 C464.53 462 466.852 464.465 466.671 467.49 L457.995 612.379 C457.334 623.415 453.498 633.679 444.174 639.619 C414.63 658.44 356.15 670 289 670 C165 670 83 596 83 484 C83 402 134 343 234 292 C322 247 367 206 367 159 C367 98 333 58 282 58 C239 58 184 79 141 112 C134 117 127 126 123 134 L81.2472 217.506 C80.0881 219.824 76.579 221.758 74 221.5 L72.0492 221.305 C71.8817 221.288 66.1039 221 65.9356 221 L63.5 221 C60.4676 221 58.118 218.535 58.263 215.506 L66.0508 52.8267 C66.6717 39.8572 72.5397 27.7848 84.1315 21.9345 C123.07 2.2825 197.7 -10 281 -10 C406 -10 490 71 490 192 C490 280 434 343 325 399 C249 438 210 478 210 531 C210 573 236 601 275 601 C311 601 350 587 379 564 C404.65 543.1 424.434 499.186 442.638 466.554 C443.896 464.298 448.43 461.243 451 461.5 L451 461.5 Z " />
<glyph glyph-name="scaron" unicode="&#x161;" horiz-adv-x="443" d="M240.491 546.615 L368.622 703.418 C370.92 706.231 369.133 710 365.5 710 C363.185 710 351.621 706.948 349.607 705.805 L246.874 647.517 C232.11 639.141 200.034 639.392 185.404 647.998 L87.3264 705.69 C85.2761 706.896 73.8788 710 71.5 710 C67.8159 710 65.9821 706.218 68.2633 703.326 L191.712 546.778 C195.738 541.673 209.499 535 216 535 C222.411 535 236.435 541.651 240.491 546.615 L240.491 546.615 Z M358 308 L358 407.277 C358 418.669 351.615 430.933 341.181 435.507 C306.735 450.608 258.2 460 214 460 C131 460 75 407 75 327 C75 244 110 202 179 183 C240 166 271 139 271 91 C271 61 246 41 209 41 C159 41 119 72 99 109 C92.913 121.174 83.8015 136.372 76.9255 149.335 C75.3688 152.27 70.3222 155 67 155 C63.1362 155 60 151.864 60 148 L60 37.906 C60 26.2625 66.9171 14.5968 77.9145 10.7719 C114.787 -2.0525 167.7 -10 217 -10 C311 -10 373 45 373 128 C373 216 334 261 258 282 C205 297 177 323 177 370 C177 390 195 404 221 404 C222 404 238 403 238 402 C277 395 315 362 333 319 C334.778 313.667 338.926 307.543 341.23 302.034 C341.804 300.662 343.675 300 345.162 300 L350 300 C354.416 300 358 303.584 358 308 L358 308 Z " />
<glyph glyph-name="Tcaron" unicode="&#x164;" horiz-adv-x="684" d="M500 867 L499 867 L500 868 L500 867 L500 867 Z M342 710.5 C347.918 710.5 362.278 716.846 366.262 721.221 L493.614 861.085 C495.812 863.499 494.265 867 491 867 C488.992 867 477.664 864.275 475.875 863.362 L370.453 809.529 C357.596 802.964 326.523 803.194 313.765 809.948 L213.512 863.023 C211.572 864.05 199.695 867 197.5 867 C193.976 867 192.285 863.263 194.612 860.616 L317.427 720.891 C321.396 716.376 335.989 710.5 342 710.5 L342 710.5 Z M507 9.5 C507 14.4337 502.704 20.5467 498.062 22.2178 L447.629 40.3735 C426.529 47.9697 407 75.7556 407 98.1817 L407 519.56 C407 553.473 434.527 581 468.44 581 L518.45 581 C539.03 581 566.851 562.638 574.942 543.715 L617.462 444.275 C619.257 440.075 625.432 436 630 436 C634.968 436 639 440.032 639 445 L639 598.56 C639 632.473 611.473 660 577.56 660 L106.44 660 C72.527 660 45 632.473 45 598.56 L45 445 C45 440.032 49.0323 436 54 436 C58.5677 436 64.7426 440.075 66.5384 444.275 L109.058 543.715 C117.149 562.638 144.97 581 165.55 581 L215.56 581 C249.473 581 277 553.473 277 519.56 L277 98.1817 C277 75.7556 257.471 47.9697 236.371 40.3735 L185.938 22.2178 C181.296 20.5467 177 14.4337 177 9.5 C177 4.25628 181.256 0 186.5 0 L497.5 0 C502.744 0 507 4.25628 507 9.5 L507 9.5 Z " />
<glyph glyph-name="tcaron" unicode="&#x165;" horiz-adv-x="393" d="M417 750 L362.773 750 C333.354 750 305.773 725.861 301.875 696.701 L285.126 571.425 C284.51 566.816 287.85 563 292.5 563 C296.385 563 303.588 566.821 305.766 570.038 L429 752 C426 749 424.5 750 416.5 750 L417 750 Z M360 89 L358 96 C356 92 329 90 291 90 C247 90 218 112 218 144 L218 320.56 C218 354.473 245.527 382 279.44 382 L316 382 C334.767 382 350 397.233 350 416 C350 434.767 334.767 450 316 450 L279.44 450 C245.527 450 218 477.527 218 511.44 L218 568.5 C218 570.984 215.984 573 213.5 573 C211.618 573 207.291 571.016 206.062 569.591 L108.207 456.042 C107.473 455.191 97.3498 446.124 96.4228 445.488 L20.7107 393.546 C19.0218 392.387 17 388.548 17 386.5 C17 384.016 19.0161 382 21.5 382 L60 382 C83.7347 382 103 362.735 103 339 L103 120 C103 42 153 -10 229 -10 C280.3 -10 330.697 23.3925 357.901 73.8874 C359.338 76.5551 360.832 86.0863 360 89 L360 89 Z M428 752 L434.552 761.464 C434.572 761.492 435.28 762.542 435.26 762.514 C431.5 757.031 429.75 753.75 428 752 L428 752 Z M437 765 L438 767 C438 766 438 765 438 764 L437 765 L437 765 Z " />
<glyph glyph-name="Utilde" unicode="&#x168;" horiz-adv-x="808" d="M267.516 715.157 C276.339 739.429 285.941 755 308 755 C352 755 412 694 456 694 C502.8 694 524.884 745.334 550.984 823.903 C552.557 828.639 548.49 830 543.5 830 C538.716 830 532.157 824.286 530.551 819.78 C521.531 794.474 511.257 778 490 778 C446 778 386 839 342 839 C296.4 839 273.363 790.265 248.881 716.802 C247.296 712.045 249.486 705 254.5 705 C259.29 705 265.879 710.655 267.516 715.157 L267.516 715.157 Z M135 565.274 L135 234 C135 88 241 -10 399 -10 C557 -10 663 88 663 234 L663 565.274 C663 585.27 680.992 613.096 699.227 621.302 L734.337 637.102 C738.697 639.064 743 645.718 743 650.5 C743 655.744 738.744 660 733.5 660 L472.5 660 C467.256 660 463 655.744 463 650.5 C463 645.566 467.296 639.453 471.938 637.782 L522.371 619.626 C543.471 612.03 563 584.244 563 561.818 L563 203 C563 125 513 73 438 73 C334 73 264 147 264 257 L264 565.274 C264 585.27 281.992 613.096 300.227 621.302 L335.337 637.102 C339.697 639.064 344 645.718 344 650.5 C344 655.744 339.744 660 334.5 660 L64.5 660 C59.2563 660 55 655.744 55 650.5 C55 645.718 59.3026 639.064 63.6633 637.102 L98.7728 621.302 C117.008 613.096 135 585.27 135 565.274 L135 565.274 Z " />
<glyph glyph-name="utilde" unicode="&#x169;" horiz-adv-x="561" d="M144.514 545.157 C153.325 569.429 162.824 585 184 585 C229 585 288 524 333 524 C378.825 524 400.884 575.334 426.984 653.903 C428.557 658.639 424.49 660 419.5 660 C414.714 660 408.157 654.289 406.552 649.78 C397.544 624.474 387.371 608 367 608 C322 608 263 669 218 669 C173.35 669 150.36 620.265 125.881 546.802 C124.296 542.045 126.486 535 131.5 535 C136.293 535 142.879 540.652 144.514 545.157 L144.514 545.157 Z M355 361.264 L355 116.394 C355 110.884 352.08 105.524 346.87 103.73 C329.972 97.91 306.441 95 280 95 C235 95 205 127 205 176 L205 388.56 C205 422.473 177.473 450 143.56 450 L34 450 C29.0323 450 25 445.968 25 441 C25 436.543 29.0759 429.993 33.0745 428.025 L57.5 416 C73.5944 408.077 90 381.714 90 363.775 L90 107 C90 37 140 -10 214 -10 C248.85 -10 290.925 6.6175 332.241 38.6242 C341.217 45.5775 354 39.3539 354 28 C354 11.9929 366.993 -1 383 -1 L530 -1 C534.968 -1 539 3.03227 539 8 C539 12.518 534.924 18.8634 530.815 20.7418 L504 33 C486.43 41.032 469 68.1648 469 87.4838 L469 387.56 C469 421.473 441.473 449 407.56 449 L293 449 C288.032 449 284 444.968 284 440 C284 435.447 288.076 429.22 292.248 427.399 L319.5 415.5 C337.458 407.659 355 380.859 355 361.264 L355 361.264 Z " />
<glyph glyph-name="Umacron" unicode="&#x16a;" horiz-adv-x="808" d="M312 763 L506 763 C525.871 763 542 779.129 542 799 C542 818.871 525.871 835 506 835 L312 835 C292.129 835 276 818.871 276 799 C276 779.129 292.129 763 312 763 L312 763 Z M135 565.274 L135 234 C135 88 241 -10 399 -10 C557 -10 663 88 663 234 L663 565.274 C663 585.27 680.992 613.096 699.227 621.302 L734.337 637.102 C738.697 639.064 743 645.718 743 650.5 C743 655.744 738.744 660 733.5 660 L472.5 660 C467.256 660 463 655.744 463 650.5 C463 645.566 467.296 639.453 471.938 637.782 L522.371 619.626 C543.471 612.03 563 584.244 563 561.818 L563 203 C563 125 513 73 438 73 C334 73 264 147 264 257 L264 565.274 C264 585.27 281.992 613.096 300.227 621.302 L335.337 637.102 C339.697 639.064 344 645.718 344 650.5 C344 655.744 339.744 660 334.5 660 L64.5 660 C59.2563 660 55 655.744 55 650.5 C55 645.718 59.3026 639.064 63.6633 637.102 L98.7728 621.302 C117.008 613.096 135 585.27 135 565.274 L135 565.274 Z " />
</font>
</svg>
