<?xml version="1.0" encoding="UTF-8"?>
<svg xmlns="http://www.w3.org/2000/svg" xmlns:xlink="http://www.w3.org/1999/xlink" version="1.2" >
<font id="Karoll Light Round">
<font-face  font-family="Karoll" units-per-em="1024" ascent="975" descent="-300" font-style="normal" font-weight="300" font-stretch="normal" cap-height="924" x-height="488" underline-position="-125" underline-thickness="50" />
<missing-glyph  horiz-adv-x="100" d="" />
<glyph glyph-name="NULL" d="" />
<glyph glyph-name="CR" unicode="&#xd;" horiz-adv-x="256" d="" />
<glyph glyph-name="space" unicode="&#x20;" horiz-adv-x="248" d="" />
<glyph glyph-name="exclam" unicode="&#x21;" horiz-adv-x="204" d="M142 28 C142 76 67 77 67 28 C67 -22 142 -21 142 28 L142 28 Z M71.873 625.551 L97.6471 151.49 C97.8416 147.913 100.917 145 104.5 145 C108.083 145 111.158 147.913 111.353 151.49 L137.127 625.551 C138.159 644.538 123.515 660 104.5 660 C85.4851 660 70.8407 644.538 71.873 625.551 L71.873 625.551 Z " />
<glyph glyph-name="quotedbl" unicode="&#x22;" horiz-adv-x="382" d="M249.155 712.178 L267.324 551.962 C267.695 548.692 270.709 546 274 546 C277.291 546 280.305 548.692 280.676 551.962 L298.845 712.178 C300.575 727.437 289.357 740 274 740 C258.643 740 247.425 727.437 249.155 712.178 L249.155 712.178 Z M83.155 712.178 L101.324 551.962 C101.695 548.692 104.709 546 108 546 C111.291 546 114.305 548.692 114.676 551.962 L132.845 712.178 C134.575 727.437 123.357 740 108 740 C92.6433 740 81.4246 727.437 83.155 712.178 L83.155 712.178 Z " />
<glyph glyph-name="numbersign" unicode="&#x23;" horiz-adv-x="498" d="M149.966 369.656 L124.935 284.174 C118.083 260.774 90.3537 240 65.9709 240 L14 240 C5.72045 240 -1 233.28 -1 225 C-1 216.72 5.72045 210 14 210 L51 210 C78.5631 210 96.1834 186.533 88.4948 160.064 L46.3237 14.8848 C44.0319 6.99493 49.2841 0 57.5 0 C65.7159 0 75.0319 6.99493 77.3237 14.8848 L121.131 165.698 C127.953 189.181 155.68 210 180.133 210 L213 210 C254.875 210 281.644 174.348 269.963 134.136 L235.324 14.8848 C233.032 6.99493 238.284 0 246.5 0 C254.716 0 264.032 6.99493 266.324 14.8848 L310.131 165.698 C316.953 189.181 344.68 210 369.133 210 L424 210 C432.28 210 439 216.72 439 225 C439 233.28 432.28 240 424 240 L385.5 240 C357.16 240 339.07 264.146 347.034 291.344 L372.065 376.826 C378.917 400.226 406.646 421 431.029 421 L483.5 421 C491.504 421 498 427.496 498 435.5 C498 443.504 491.504 450 483.5 450 L446 450 C418.437 450 400.817 473.467 408.505 499.936 L450.676 645.115 C452.968 653.005 447.716 660 439.5 660 C431.284 660 421.968 653.005 419.676 645.115 L375.869 494.302 C369.047 470.819 341.32 450 316.867 450 L284 450 C242.125 450 215.356 485.652 227.037 525.864 L261.676 645.115 C263.968 653.005 258.716 660 250.5 660 C242.284 660 232.968 653.005 230.676 645.115 L186.869 494.302 C180.047 470.819 152.32 450 127.867 450 L72.5 450 C64.4964 450 58 443.504 58 435.5 C58 427.496 64.4964 421 72.5 421 L111.5 421 C139.84 421 157.93 396.854 149.966 369.656 L149.966 369.656 Z M242.029 421 L275 421 C316.848 421 343.56 385.346 331.8 345.183 L313.935 284.174 C307.083 260.774 279.354 240 254.971 240 L222 240 C180.152 240 153.44 275.654 165.2 315.817 L183.065 376.826 C189.917 400.226 217.646 421 242.029 421 L242.029 421 Z " />
<glyph glyph-name="dollar" unicode="&#x24;" horiz-adv-x="492" d="M292 727 L292 679.102 C292 673.284 286.872 668.707 281.076 669.217 C265.44 670.594 248.56 670.594 232.924 669.217 C227.128 668.707 222 673.284 222 679.102 L222 727 C222 734.176 216.176 740 209 740 C201.824 740 196 734.176 196 727 L196 701.5 C196 685.188 174.116 657.508 159.088 651.165 C93.7375 623.582 54 567.1 54 494 C54 423.45 88.68 376.743 156.812 345.28 C174.692 337.023 196 305.262 196 285.567 L196 55.0663 C196 34.7735 183.854 24.3366 165.129 32.1596 C120.225 50.9206 93 89.675 93 140 L92.25 149 C91.8398 153.923 87.4142 158.21 82.4807 158.463 L72 159 C58 159 48 151 48 140 C48 70.875 92.4063 19.3594 163.801 -0.478516 C179.814 -4.92802 196 -26.38 196 -43 L196 -66 C196 -73.1756 201.824 -79 209 -79 C216.176 -79 222 -73.1756 222 -66 L222 -21.51 C222 -14.8668 227.302 -9.24095 233.945 -9.24974 C250.461 -9.27159 266.133 -7.91675 281.273 -5.18522 C287.032 -4.14603 292 -8.42784 292 -14.2805 L292 -66 C292 -73.1756 297.824 -79 305 -79 C312.176 -79 318 -73.1756 318 -66 L318 -37.1096 C318 -21.407 342.51 13.1796 356.097 21.0501 C411.33 53.0431 444 108.875 444 179 C444 237.65 412.933 290.52 352.64 327.784 C338.959 336.24 318 369.796 318 385.879 L318 607.171 C318 619.825 327.067 626.046 338.007 619.687 C366.984 602.844 384 575.825 384 542 L384.75 533.25 C385.159 528.484 389.487 524.193 394.256 523.826 L405 523 C419 523 429 531 429 542 C429 592.325 399.733 631.76 351.307 653.005 C337.971 658.856 318 684.366 318 698.928 L318 727 C318 734.176 312.176 740 305 740 C297.824 740 292 734.176 292 727 L292 727 Z M281.363 360.619 C265.349 365.756 247.783 370.244 232.241 375.381 C226.378 377.319 222 384.061 222 390.236 L222 625.82 C222 632.361 226.492 637.869 232.989 638.623 C248.791 640.459 266.074 640.459 281.417 638.623 C287.655 637.877 292 632.594 292 626.311 L292 368.705 C292 362.797 286.988 358.814 281.363 360.619 L281.363 360.619 Z M168.653 405.31 C129.738 431.201 110 465.975 110 513 C110 560.025 132.461 597.521 170.082 619.312 C184.46 627.64 196 619.629 196 603.013 L196 421.536 C196 404.418 182.904 395.828 168.653 405.31 L168.653 405.31 Z M233.968 318.576 C251.198 313.351 267.011 307.254 281.405 300.61 C286.672 298.18 291 290.621 291 284.82 L291 37.9202 C291 31.7067 286.667 25.7172 280.609 24.3351 C265.745 20.9438 249.579 19.0032 232.42 18.8241 C224.881 18.7454 220.036 24.4699 220.086 32.0093 L221.911 308.537 C221.96 315.899 226.923 320.713 233.968 318.576 L233.968 318.576 Z M340.473 262.88 C375.304 233.208 393 198.125 393 161 C393 113.975 373.262 75.7981 339.401 50.9615 C327.531 42.2548 316 48.8919 316 63.613 L316 250.627 C316 265.662 329.028 272.63 340.473 262.88 L340.473 262.88 Z " />
<glyph glyph-name="ampersand" unicode="&#x26;" horiz-adv-x="686" d="M530.541 444.908 L546.306 424.728 C550.307 419.607 549.876 418.371 555.164 422.148 C568.563 431.719 590 470 590 470 C590 470 570.617 470 561.347 470 L534 470 C529.032 470 525 465.968 525 461 C525 457.942 528.658 447.318 530.541 444.908 L530.541 444.908 Z M587.364 463.314 C583.358 453.008 579.769 443.119 576.253 433.303 C575.51 431.229 570.359 424.683 568.5 423.5 L566.796 422.416 C565.671 421.7 566.166 420 567.5 420 C569.821 420 569.841 414.395 569.004 412.23 C536.081 327.094 504.349 252.966 468.194 193.779 C456.223 174.183 435.906 174.737 419.427 190.728 L286.729 319.504 C266.454 339.18 271.931 374.126 295.52 389.675 C369.079 438.163 414 494.325 414 543 C414 619 352 670 258 670 C149 670 77 606 77 511 C77 459.025 103.544 419.301 147.649 373.299 C162.015 358.314 159.566 334.159 141.5 323.934 C41.06 267.09 20 213 20 150 C20 54 94 -10 206 -10 C287.675 -10 350.293 15.8637 402.275 62.5376 C418.279 76.9068 450.451 79.2133 465.97 64.3216 L515.171 17.109 C521.985 10.5704 548.267 0 557.71 0 L653 0 C657.968 0 662 4.03227 662 9 C662 13.7224 657.934 19.3278 653.445 20.7936 L577.645 45.5444 C574.308 46.6341 556.25 57.5848 553.741 60.0403 L501.913 110.766 C485.891 126.447 480.586 157.567 491.936 176.9 C528.821 239.725 561.47 316.425 595.937 404.206 C600.257 415.209 621.636 435.449 632.799 439.339 L663.501 450.038 C667.931 451.582 672 457.309 672 462 C672 466.967 667.968 470.951 663.001 470.89 L598.077 470.099 C593.898 470.048 588.878 467.21 587.364 463.314 L587.364 463.314 Z M201.5 322.5 L209 315 L385.791 144.305 C402.073 128.584 402.226 107.816 384.772 93.4068 C340.357 56.7381 287.825 37 221 37 C135 37 78 89 78 167 C78 227.45 96.0619 277.918 186.87 325.82 C191.91 328.479 197.471 326.529 201.5 322.5 L201.5 322.5 Z M202.045 403.205 C159.864 445.151 134 477.45 134 522 C134 596 182 645 255 645 C320 645 363 603 363 540 C363 491.55 325.791 439.126 265.499 396.239 C245.123 381.746 219.776 385.573 202.045 403.205 L202.045 403.205 Z " />
<glyph glyph-name="quotesingle" unicode="&#x27;" horiz-adv-x="216" d="M83.155 712.178 L101.324 551.962 C101.695 548.692 104.709 546 108 546 C111.291 546 114.305 548.692 114.676 551.962 L132.845 712.178 C134.575 727.437 123.357 740 108 740 C92.6433 740 81.4246 727.437 83.155 712.178 L83.155 712.178 Z " />
<glyph glyph-name="parenleft" unicode="&#x28;" horiz-adv-x="217" d="M189.678 732.3 C108.186 631.546 54 504.625 54 295 C54 85.375 108.186 -41.5456 189.678 -142.3 C191.878 -145.021 200.501 -150 204 -150 C207.343 -150 208.898 -146.298 206.795 -143.699 C139.729 -60.7775 96 61.975 96 295 C96 528.025 139.729 650.778 206.795 733.699 C208.898 736.298 207.343 740 204 740 C200.501 740 191.878 735.021 189.678 732.3 L189.678 732.3 Z " />
<glyph glyph-name="parenright" unicode="&#x29;" horiz-adv-x="217" d="M61.322 -142.3 C142.814 -41.5456 197 85.375 197 295 C197 504.625 142.814 631.546 61.322 732.3 C59.1217 735.021 50.499 740 47 740 C43.657 740 42.1024 736.298 44.2047 733.699 C111.271 650.778 155 528.025 155 295 C155 61.975 111.271 -60.7775 44.2047 -143.699 C42.1024 -146.298 43.657 -150 47 -150 C50.499 -150 59.1217 -145.021 61.322 -142.3 L61.322 -142.3 Z " />
<glyph glyph-name="plus" unicode="&#x2b;" horiz-adv-x="510" d="M239 466 L239 349.44 C239 315.527 211.473 288 177.56 288 L56 288 C47.1685 288 40 280.832 40 272 C40 263.168 47.1685 256 56 256 L177.56 256 C211.473 256 239 228.473 239 194.56 L239 68 C239 59.1685 246.168 52 255 52 C263.832 52 271 59.1685 271 68 L271 194.56 C271 228.473 298.527 256 332.44 256 L454 256 C462.832 256 470 263.168 470 272 C470 280.832 462.832 288 454 288 L332.44 288 C298.527 288 271 315.527 271 349.44 L271 466 C271 474.832 263.832 482 255 482 C246.168 482 239 474.832 239 466 L239 466 Z " />
<glyph glyph-name="comma" unicode="&#x2c;" horiz-adv-x="215" d="M90 0 C113 -11 129 -44 129 -83 C129 -121.95 103.73 -164.51 66.0506 -192.675 C63.8667 -194.308 60 -200.773 60 -203.5 C60 -206.516 62.2086 -208.532 64.6853 -206.811 C125.074 -164.856 165 -103.675 165 -52 C165 0 145 43 116 57 C98 66 95 66 85 50 L68.8278 22.1479 C68.101 20.8962 67.6024 16.8917 68 15.5 C68.3856 14.1505 70.9419 10.8904 72.1605 10.194 L90 0 L90 0 Z " />
<glyph glyph-name="hyphen" unicode="&#x2d;" horiz-adv-x="375" d="M72 230 L303 230 C315.143 230 325 239.857 325 252 C325 264.143 315.143 274 303 274 L72 274 C59.8567 274 50 264.143 50 252 C50 239.857 59.8567 230 72 230 L72 230 Z " />
<glyph glyph-name="period" unicode="&#x2e;" horiz-adv-x="205" d="M140 28 C140 77 65 76 65 28 C65 -21 140 -22 140 28 L140 28 Z " />
<glyph glyph-name="slash" unicode="&#x2f;" horiz-adv-x="231" d="M15.5 -120 C23.8381 -120 32.6046 -113.02 34.4726 -104.894 L227.527 734.894 C229.395 743.02 223.838 750 215.5 750 C207.162 750 198.395 743.02 196.527 734.894 L3.47264 -104.894 C1.60457 -113.02 7.16195 -120 15.5 -120 L15.5 -120 Z " />
<glyph glyph-name="zero" unicode="0" horiz-adv-x="518" d="M93 352 C93 525 155 641 248 641 C357 641 429 512 429 318 C429 139 365 20 269 20 C163 20 93 153 93 352 L93 352 Z M33 333 C33 127 123 -10 259 -10 C395 -10 485 129 485 338 C485 537 395 670 259 670 C123 670 33 535 33 333 L33 333 Z " />
<glyph glyph-name="one" unicode="1" horiz-adv-x="468" d="M363 9 C363 13.4569 358.924 20.0066 354.925 21.9752 L330.5 34 C314.406 41.9234 298 68.286 298 86.225 L298 654 C298 657.312 295.312 660 292 660 C290.061 660 282.708 657.622 281.136 656.487 L78.9175 510.44 C74.9272 507.559 70 497.922 70 493 C70 487.873 74.9593 485.146 79.289 487.892 L157.5 537.5 C198.285 563.369 245 537.68 245 489.383 L245 86.225 C245 68.286 228.594 41.9234 212.5 34 L188.075 21.9752 C184.076 20.0066 180 13.4569 180 9 C180 4.03227 184.032 0 189 0 L354 0 C358.968 0 363 4.03227 363 9 L363 9 Z " />
<glyph glyph-name="two" unicode="2" horiz-adv-x="480" d="M452.5 25 C454.346 49.9231 457.47 83.3669 459.513 109.601 C459.878 114.282 456.195 116 451.5 116 C447.477 116 440.697 112.161 438.627 108.711 L421.898 80.8294 C413.426 66.7108 385.678 51 369.213 51 L246.535 51 C191.307 51 163.073 106.782 197.785 149.738 C369.094 361.734 438 449.125 438 499 C438 602 369 670 265 670 C130 670 40 602 40 501 C40 485 50 475 65 475 L88.4645 475 C89.8444 475 93.5242 476.524 94.5 477.5 C95.4758 478.476 97 482.156 97 483.536 L97 495 C97 503.068 104.766 511.736 96.8916 509.976 C94.9554 509.543 67.5204 503.451 49.0922 501.557 C48.3603 501.482 47.6693 502.211 48.396 502.326 L68.5 505.5 C80.4949 507.394 97.3475 526.407 99.752 538.311 C112.453 601.188 168.125 641 246 641 C325 641 378 584 378 498 C378 410 286 310 50 16 C48.2696 13.8444 50 10.7642 50 8 C50 3.58424 53.5842 0 58 0 L439.5 0 C446.4 0 452 5.60037 452 12.5 L452 25 L452.5 25 Z " />
<glyph glyph-name="three" unicode="3" horiz-adv-x="486" d="M89 120 L89 133.464 C89 134.844 87.4758 138.524 86.5 139.5 C85.5242 140.476 81.8444 142 80.4645 142 L66.8849 142 C64.2309 142 57.2833 142.97 54.8405 141.933 C52.855 141.09 33 132.35 33 120 C33 42 114 -10 236 -10 C372 -10 463 64 463 175 C463 265.95 413.87 323.665 318.067 346.917 C309.103 349.092 308.702 369.075 317.256 372.525 C394.524 403.693 434 458.7 434 528 C434 613 364 670 258 670 C134 670 52 612 52 525 C52 512 77 503 77 503 C77 503 53.8093 503 87.7224 503 L99.4645 503 C100.844 503 104.524 504.524 105.5 505.5 C106.476 506.476 108 510.156 108 511.536 L108 532 C108 598 162 642 244 642 C322 642 374 594 374 523 C374 433 311 371 189 359 C188.861 358.986 186.921 358.993 186.781 358.992 C175.648 358.911 163.924 358.24 152.101 357.47 C147.963 357.2 145 353.63 145 349.483 L145 343.5 C145 336.19 150.294 330.393 157.594 330.778 C319.296 339.312 402 286.15 402 175 C402 81 335 18 235 18 C147 18 88.5 59 88.5 120 L89 120 Z " />
<glyph glyph-name="four" unicode="4" horiz-adv-x="501" d="M345.372 655.221 L308 606 L11.944 218.167 C10.6231 216.436 8 208.677 8 206.5 C8 202.912 10.9122 200 14.5 200 L246.56 200 C280.473 200 308 172.473 308 138.56 L308 86.225 C308 68.286 291.594 41.9234 275.5 34 L251.075 21.9752 C247.076 20.0066 243 13.4569 243 9 C243 4.03227 247.032 0 252 0 L417 0 C421.968 0 426 4.03227 426 9 C426 13.4569 421.924 20.0066 417.925 21.9752 L393.5 34 C377.406 41.9234 361 68.286 361 86.225 L361 138.56 C361 172.473 388.527 200 422.44 200 L467.5 200 C478.815 200 488 209.185 488 220.5 C488 231.815 478.815 241 467.5 241 L422.44 241 C388.527 241 361 268.527 361 302.44 L361 654 C361 657.312 358.312 660 355 660 C352.362 660 346.967 657.322 345.372 655.221 L345.372 655.221 Z M308 402.5 L308 302.698 C308 268.643 280.358 241.116 246.303 241.258 L188.5 241.5 C135.371 241.722 108.558 295.295 140.223 337.957 L211.746 434.318 C243.411 476.98 308 455.63 308 402.5 L308 402.5 Z " />
<glyph glyph-name="five" unicode="5" horiz-adv-x="497" d="M377.5 660 L147.44 660 C113.527 660 86 632.473 86 598.56 L86 369.92 C86 364.473 91.3866 360.48 96.7257 361.558 C119.255 366.11 153.85 369 187 369 C320 369 408 304 408 207 C408 95 333 21 221 21 C175 21 130 42 108 73 C106 73 102 84 102 84 C102 84 101.364 84 99 84 L96 84 C89 84 73 67 73 67 C73 67 89.1888 78.0013 69.168 64.376 C64.56 61.24 62 59 62 51 C62 47 64 43 67 39 C88 10 139 -10 195 -10 C349 -10 452 87 452 233 C452 345 350 419 196 419 C169.306 419 141.87 416.775 123.909 412.965 C119.586 412.048 116 415.441 116 419.86 L116 549.56 C116 583.473 143.527 611 177.44 611 L377.5 611 C391.023 611 402 621.977 402 635.5 C402 649.023 391.023 660 377.5 660 L377.5 660 Z " />
<glyph glyph-name="six" unicode="6" horiz-adv-x="491" d="M394.267 665.286 C178.594 601.233 36 429.95 36 233 C36 87 122 -10 251 -10 C377 -10 461 74 461 199 C461 312 389 388 282 388 C215.175 388 157.879 362.817 120.219 320.312 C115.245 314.699 103.647 321.999 105.167 329.342 C136.424 480.279 245.765 600.779 398.198 646.375 C403.113 647.845 411 654.871 411 660 C411 665.448 399.489 666.837 394.267 665.286 L394.267 665.286 Z M97.2182 238.982 C114.261 303.172 178.05 345 258 345 C346 345 404 281 404 185 C404 85 343 18 251 18 C161.3 18 100.119 99.7537 96.1889 224.333 C96.1439 225.759 96.8523 237.603 97.2182 238.982 L97.2182 238.982 Z " />
<glyph glyph-name="seven" unicode="7" horiz-adv-x="500" d="M50 636 C50 622.753 60.7527 612 74 612 L303.849 612 C354.737 612 378.902 557.108 353.431 513.054 C205.759 257.646 106.151 72.254 85.839 15.246 C82.1274 4.82903 85.9416 0 97 0 L117 0 C131.606 0 154.083 22.0468 157.646 36.2109 C183.719 139.844 298.125 373.25 460 648 C460.853 649.448 460 652.319 460 654 C460 657.309 457.311 660.103 454.004 660.231 L440.5 660.75 L74 660.046 C60.7527 660.021 50 649.247 50 636 L50 636 Z " />
<glyph glyph-name="eight" unicode="8" horiz-adv-x="485" d="M275 358.5 L261 363 C158 392 118 451 118 522 C118 593 168 641 244 641 C324 641 378 583 378 497 C378 433.175 348.909 383.896 301.015 359.451 C295.172 356.468 281.246 356.492 275 358.5 L275 358.5 Z M348.701 358.895 C402.011 385.912 434 436.65 434 501 C434 602 361 670 251 670 C138 670 63 603 63 503 C63 444.425 87.5025 391.976 145.492 352.952 C156.27 345.699 155.146 320.389 143.43 314.775 C80.115 284.434 42 224.725 42 148 C42 54 123 -9 245 -9 C366 -9 447 62 447 169 C447 231.05 413.765 286.959 349.751 326.286 C339.95 332.308 338.44 353.695 348.701 358.895 L348.701 358.895 Z M214.083 319.579 C224.361 315.667 235.333 312.333 247 309 C344 282 394 221 394 150 C394 71 335 18 247 18 C158 18 98 76 98 163 C98 239.05 138.402 297.038 202.521 320.281 C204.722 321.079 211.896 320.411 214.083 319.579 L214.083 319.579 Z " />
<glyph glyph-name="nine" unicode="9" horiz-adv-x="490" d="M96.7332 -9.80487 C312.406 -4.70562 455 101.35 455 427 C455 573 369 670 240 670 C114 670 30 600 30 465 C30 351 106 275 220 275 C281.05 275 335.974 301.544 373.543 345.649 C379.272 352.375 393.166 345.182 392.374 336.382 C371.129 100.218 257.177 13.5742 92.4654 9.17758 C87.3564 9.0412 79.2314 4.60381 79.5 -0.5 C79.7825 -5.86701 91.3603 -9.93191 96.7332 -9.80487 L96.7332 -9.80487 Z M391.696 415.418 C368.875 355.808 310.45 317 243 317 C151 317 89 376 89 465 C89 581 149 641 239 641 C329.675 641 390.405 559.246 395.239 434.667 C395.345 431.933 392.674 417.972 391.696 415.418 L391.696 415.418 Z " />
<glyph glyph-name="colon" unicode="&#x3a;" horiz-adv-x="205" d="M140 244 C140 293 65 292 65 244 C65 195 140 194 140 244 L140 244 Z M140 28 C140 77 65 76 65 28 C65 -21 140 -22 140 28 L140 28 Z " />
<glyph glyph-name="semicolon" unicode="&#x3b;" horiz-adv-x="215" d="M144 244 C144 292 69 293 69 244 C69 194 144 195 144 244 L144 244 Z M90 0 C113 -11 129 -44 129 -83 C129 -121.95 103.73 -164.51 66.0506 -192.675 C63.8667 -194.308 60 -200.773 60 -203.5 C60 -206.516 62.2086 -208.532 64.6853 -206.811 C125.074 -164.856 165 -103.675 165 -52 C165 0 145 43 116 57 C98 66 95 66 85 50 L68.8278 22.1479 C68.101 20.8962 67.6024 16.8917 68 15.5 C68.3856 14.1505 70.9419 10.8904 72.1605 10.194 L90 0 L90 0 Z " />
<glyph glyph-name="equal" unicode="&#x3d;" horiz-adv-x="500" d="M40 179.5 C40 170.944 46.9445 164 55.5 164 L444.5 164 C453.056 164 460 170.944 460 179.5 C460 188.056 453.056 195 444.5 195 L55.5 195 C46.9445 195 40 188.056 40 179.5 L40 179.5 Z M40 364.5 C40 355.944 46.9445 349 55.5 349 L444.5 349 C453.056 349 460 355.944 460 364.5 C460 373.056 453.056 380 444.5 380 L55.5 380 C46.9445 380 40 373.056 40 364.5 L40 364.5 Z " />
<glyph glyph-name="question" unicode="&#x3f;" horiz-adv-x="469" d="M234 33 C234 81 159 82 159 33 C159 -17 234 -16 234 33 L234 33 Z M94.8834 513.985 C92.8787 513.723 65.4823 510.171 47.5028 509.228 C42.6688 508.975 39.6561 507.01 40.7243 502.288 C43.2576 491.091 52.2105 484 64 484 L86.0949 484 C87.7508 484 91.4399 485.728 92.5 487 C93.3834 488.06 95 492.525 95 493.905 L95 502 C95 508.562 101.39 514.834 94.8834 513.985 L94.8834 513.985 Z M97.3398 541.607 C108.141 602.953 155.5 642 222 642 C303 642 357 587 357 504 C357 432.9 297.06 373.95 204.882 351.207 C189.755 347.475 173.18 328.9 174.033 313.342 C177.717 246.15 190 145 190 145 C190 145 192.262 145 196 145 C199.305 145 201.782 141.863 202.011 145.16 C202.254 148.652 206.427 208.875 209.478 266.308 C210.284 281.476 232.134 301.938 246.573 306.656 C349.2 340.19 414 413.9 414 503 C414 603 345 669 242 669 C133.1 669 56.6 617.16 42.389 536.079 C39.3666 518.835 50.0962 509.101 67.5 511 C79.7 512.331 95.2118 529.521 97.3398 541.607 L97.3398 541.607 Z " />
<glyph glyph-name="A" unicode="A" horiz-adv-x="739" d="M209.179 21.5282 L178 34 C155.921 42.8317 129.192 28.2143 138.105 50.2608 C140.41 55.9606 179.961 153.783 205.662 216.825 C211.524 231.203 232.743 246.974 248.27 246.946 L472.577 246.544 C485.058 246.521 501.167 236.611 505.979 225.094 C530.766 165.758 579 49 579 49 C579 49 558.585 41.4911 535.5 33 L500.447 20.1068 C496.071 18.4974 492 12.6623 492 8 C492 3.03227 496.032 -1 501 -1 L696 -1 C700.416 -1 704 2.58424 704 7 C704 11.0221 700.377 16.6418 696.713 18.3018 L661.906 34.0737 C653.673 37.8045 633.275 59.9607 629.772 68.2936 C559.377 235.752 387 650 387 650 L384 657 C382.478 660.551 377.248 664 373.384 664 L367 664 C359.869 664 346.506 648.445 343.758 641.865 C233.566 377.925 148.929 175.019 105.885 72.5122 C102.012 63.2879 81.6179 43.1743 72.3452 39.4183 L25.3416 20.3789 C21.0741 18.6503 17 12.6043 17 8 C17 3.03227 21.0323 -1 26 -1 L208.5 -1 C213.744 -1 218 3.25628 218 8.5 C218 13.3687 213.7 19.72 209.179 21.5282 L209.179 21.5282 Z M420.115 279 L277.888 279 C253.828 279 238.232 296.987 247.28 319.281 C275.279 388.271 307.525 466.403 342.753 551.565 C347.973 564.184 365.441 565.94 370.713 553.342 C393.489 498.909 425.583 421.489 458.69 341.688 C471.167 311.614 452.675 279 420.115 279 L420.115 279 Z " />
<glyph glyph-name="B" unicode="B" horiz-adv-x="648" d="M287 358 L243.5 358 C219.489 358 200 377.489 200 401.5 L200 608 C200 618.493 208.062 627.002 218.555 626.997 C255.782 626.977 302.15 626.85 303 626 C420 626 481 571 481 489 C481 415 404.5 364.5 286.5 358.5 L287 358 Z M440.408 369.597 C503.246 399.39 540 446.25 540 504 C540 598 464 661 317 661 L73.5 661 C68.2563 661 64 656.744 64 651.5 C64 646.718 68.3026 640.064 72.6633 638.102 L107.773 622.302 C126.008 614.096 144 586.27 144 566.274 L144 95.7262 C144 75.7299 126.008 47.9035 107.773 39.6978 L72.6633 23.8985 C68.3026 21.9362 64 15.2819 64 10.5 C64 5.25628 68.2563 1 73.5 1 L313 1 C483 1 597 76 597 189 C597 262.5 544.938 318.391 443.492 343.943 C433.689 346.413 431.273 365.266 440.408 369.597 L440.408 369.597 Z M200 91.5 L200 264 C200 297.118 226.882 324 260 324 L320 324 C464 324 538 268 538 183 C538 94 448 35 313 35 L256.5 35 C225.314 35 200 60.3137 200 91.5 L200 91.5 Z " />
<glyph glyph-name="C" unicode="C" horiz-adv-x="714" d="M545.606 49.59 C501.253 31.4569 447.75 21 399 21 C236 21 128 145 128 332 C128 516 242 639 412 639 C453.8 639 495.6 630.877 530.541 617.205 C532.016 616.627 538.947 611.684 540 610.5 C540.673 609.743 546.414 600.512 546.823 599.586 C564.546 559.396 587.923 507.897 605 469 C609.286 469 614.306 469.735 619.431 469.945 C621.02 470.01 621.944 471.409 621.881 472.998 L616.887 598.674 C616.341 612.415 609.684 626.776 597.602 633.345 C557.265 655.273 486.8 669 412 669 C207 669 70 526 70 312 C70 118 202 -11 399 -11 C476.35 -11 552.977 3.45 601.247 26.8229 C615.451 33.7009 624.654 51.1105 625.58 66.8655 L631.824 173.005 C631.917 174.589 631.072 175.988 629.487 176.055 C624.571 176.265 620.286 177 616 177 C598 141 575 94 557 58 C556 55 549 50 549 50 C549 50 565.437 57.6974 545.606 49.59 L545.606 49.59 Z " />
<glyph glyph-name="D" unicode="D" horiz-adv-x="767" d="M334 0 C552 8 697 129 697 356 C697 557 549 660 326 660 L74.5 660 C69.2563 660 65 655.744 65 650.5 C65 645.718 69.3026 639.064 73.6633 637.102 L108.773 621.302 C127.008 613.096 145 585.27 145 565.274 L145 94.7262 C145 74.7299 127.008 46.9035 108.773 38.6978 L73.6633 22.8985 C69.3026 20.9362 65 14.2819 65 9.5 C65 4.25628 69.2563 0 74.5 0 L334 0 L334 0 Z M201 95.44 L201 571.5 C201 601.582 225.418 626 255.5 626 L310 626 C507 626 638 527 638 335 C638 143 516 40 332 34 L262.44 34 C228.527 34 201 61.527 201 95.44 L201 95.44 Z " />
<glyph glyph-name="E" unicode="E" horiz-adv-x="650" d="M571.5 159 C567.244 159 561.214 155.15 559.422 151.29 L521.509 69.58 C513.243 51.7652 485.416 34 465.776 34 L262.44 34 C228.527 34 201 61.527 201 95.44 L201 261.56 C201 295.473 228.527 323 262.44 323 L367.863 323 C386.013 323 413.826 306.189 422.262 290.119 L441.654 253.182 C444.267 248.206 452.88 243 458.5 243 C464.848 243 470 248.152 470 254.5 L470 425.5 C470 431.848 464.848 437 458.5 437 C452.88 437 444.267 431.794 441.654 426.818 L422.262 389.881 C413.826 373.811 386.013 357 367.863 357 L262.44 357 C228.527 357 201 384.527 201 418.44 L201 564.56 C201 598.473 228.527 626 262.44 626 L442.175 626 C460.817 626 488.639 608.872 497.033 592.227 L534.172 518.589 C536.059 514.849 542.311 511 546.5 511 C551.192 511 555 514.808 555 519.5 L555 598.56 C555 632.473 527.473 660 493.56 660 L74.5 660 C69.2563 660 65 655.744 65 650.5 C65 645.718 69.3026 639.064 73.6633 637.102 L108.773 621.302 C127.008 613.096 145 585.27 145 565.274 L145 94.7262 C145 74.7299 127.008 46.9035 108.773 38.6978 L73.6633 22.8985 C69.3026 20.9362 65 14.2819 65 9.5 C65 4.25628 69.2563 0 74.5 0 L518.56 0 C552.473 0 580 27.527 580 61.44 L580 150.5 C580 155.192 576.192 159 571.5 159 L571.5 159 Z " />
<glyph glyph-name="F" unicode="F" horiz-adv-x="615" d="M422.262 290.119 L441.654 253.182 C444.267 248.206 452.88 243 458.5 243 C464.848 243 470 248.152 470 254.5 L470 425.5 C470 431.848 464.848 437 458.5 437 C452.88 437 444.267 431.794 441.654 426.818 L422.262 389.881 C413.826 373.811 386.013 357 367.863 357 L262.44 357 C228.527 357 201 384.527 201 418.44 L201 564.56 C201 598.473 228.527 626 262.44 626 L432.175 626 C450.817 626 478.639 608.872 487.033 592.227 L524.172 518.589 C526.059 514.849 532.311 511 536.5 511 C541.192 511 545 514.808 545 519.5 L545 598.56 C545 632.473 517.473 660 483.56 660 L74.5 660 C69.2563 660 65 655.744 65 650.5 C65 645.718 69.3026 639.064 73.6633 637.102 L108.773 621.302 C127.008 613.096 145 585.27 145 565.274 L145 94.7262 C145 74.7299 127.008 46.9035 108.773 38.6978 L73.6633 22.8985 C69.3026 20.9362 65 14.2819 65 9.5 C65 4.25628 69.2563 0 74.5 0 L286.5 0 C291.744 0 296 4.25628 296 9.5 C296 14.4035 291.702 20.6288 287.116 22.3664 L240.668 39.9678 C220.193 47.7267 201 75.5253 201 97.421 L201 261.56 C201 295.473 228.527 323 262.44 323 L367.863 323 C386.013 323 413.826 306.189 422.262 290.119 L422.262 290.119 Z " />
<glyph glyph-name="G" unicode="G" horiz-adv-x="770" d="M684.612 251.614 L716.436 266.889 C720.697 268.935 725 275.773 725 280.5 C725 285.744 720.744 290 715.5 290 L518.5 290 C513.256 290 509 285.744 509 280.5 C509 275.671 513.302 269.178 517.748 267.295 L556.521 250.873 C575.57 242.806 594 214.986 594 194.298 L594 87.36 C594 74.8168 587.245 61.447 575.846 56.2136 C537.998 38.8375 480.75 28 417 28 C244 28 128 150 128 333 C128 517 246 640 423 640 C469.8 640 517.551 631.444 555.13 616.187 C556.336 615.697 559.743 612.56 560.5 611.5 C560.781 611.107 564.204 605.261 564.398 604.819 C582.277 564.189 606.462 510.949 624 471 C628.286 471 633.306 471.735 638.431 471.945 C640.02 472.01 640.944 473.409 640.881 474.998 L635.887 600.674 C635.332 614.654 628.699 628.784 616.342 635.345 C575.042 657.272 501.05 671 422 671 C210 671 69 528 69 314 C69 120 201 -9 399 -9 C496.2 -9 586.92 18.54 634.71 60.498 C643.261 68.0058 649.067 85.7837 649.139 97.163 L649.76 196.608 C649.879 215.655 667.441 243.371 684.612 251.614 L684.612 251.614 Z " />
<glyph glyph-name="H" unicode="H" horiz-adv-x="802" d="M737 9.5 C737 14.2819 732.697 20.9362 728.337 22.8985 L693.227 38.6978 C674.992 46.9035 657 74.7299 657 94.7262 L657 565.274 C657 585.27 674.992 613.096 693.227 621.302 L728.337 637.102 C732.697 639.064 737 645.718 737 650.5 C737 655.744 732.744 660 727.5 660 L530.5 660 C525.256 660 521 655.744 521 650.5 C521 645.718 525.303 639.064 529.663 637.102 L564.773 621.302 C583.008 613.096 601 585.27 601 565.274 L601 418.44 C601 384.527 573.473 357 539.56 357 L262.44 357 C228.527 357 201 384.527 201 418.44 L201 565.274 C201 585.27 218.992 613.096 237.227 621.302 L272.337 637.102 C276.697 639.064 281 645.718 281 650.5 C281 655.744 276.744 660 271.5 660 L74.5 660 C69.2563 660 65 655.744 65 650.5 C65 645.718 69.3026 639.064 73.6633 637.102 L108.773 621.302 C127.008 613.096 145 585.27 145 565.274 L145 94.7262 C145 74.7299 127.008 46.9035 108.773 38.6978 L73.6633 22.8985 C69.3026 20.9362 65 14.2819 65 9.5 C65 4.25628 69.2563 0 74.5 0 L271.5 0 C276.744 0 281 4.25628 281 9.5 C281 14.2819 276.697 20.9362 272.337 22.8985 L237.227 38.6978 C218.992 46.9035 201 74.7299 201 94.7262 L201 261.56 C201 295.473 228.527 323 262.44 323 L539.56 323 C573.473 323 601 295.473 601 261.56 L601 94.7262 C601 74.7299 583.008 46.9035 564.773 38.6978 L529.663 22.8985 C525.303 20.9362 521 14.2819 521 9.5 C521 4.25628 525.256 0 530.5 0 L727.5 0 C732.744 0 737 4.25628 737 9.5 L737 9.5 Z " />
<glyph glyph-name="I" unicode="I" horiz-adv-x="356" d="M286 9.5 C286 14.2819 281.697 20.9362 277.337 22.8985 L242.227 38.6978 C223.992 46.9035 206 74.7299 206 94.7262 L206 565.274 C206 585.27 223.992 613.096 242.227 621.302 L277.337 637.102 C281.697 639.064 286 645.718 286 650.5 C286 655.744 281.744 660 276.5 660 L79.5 660 C74.2563 660 70 655.744 70 650.5 C70 645.718 74.3026 639.064 78.6633 637.102 L113.773 621.302 C132.008 613.096 150 585.27 150 565.274 L150 94.7262 C150 74.7299 132.008 46.9035 113.773 38.6978 L78.6633 22.8985 C74.3026 20.9362 70 14.2819 70 9.5 C70 4.25628 74.2563 0 79.5 0 L276.5 0 C281.744 0 286 4.25628 286 9.5 L286 9.5 Z " />
<glyph glyph-name="J" unicode="J" horiz-adv-x="356" d="M150 565.274 L150 50 C150 -51.65 121.12 -120.81 77.9354 -127.472 C75.0847 -127.912 73.6246 -128.705 70.8389 -127.956 C68.8225 -127.415 48.35 -122 36 -122 C36 -127 15 -173 50 -173 C144 -173 206 -35 206 171 L206 565.274 C206 585.27 223.992 613.096 242.227 621.302 L277.337 637.102 C281.697 639.064 286 645.718 286 650.5 C286 655.744 281.744 660 276.5 660 L79.5 660 C74.2563 660 70 655.744 70 650.5 C70 645.718 74.3026 639.064 78.6633 637.102 L113.773 621.302 C132.008 613.096 150 585.27 150 565.274 L150 565.274 Z " />
<glyph glyph-name="K" unicode="K" horiz-adv-x="702" d="M665.433 16.4746 L614.077 35.8261 C611.805 36.6821 596.058 46.3519 594.267 47.9905 L311.803 306.432 C284.435 331.473 284.542 372.409 312.041 397.307 L549.348 612.167 C551.099 613.752 566.711 623.282 568.921 624.115 L620.45 643.532 C623.833 644.807 627 649.384 627 653 C627 656.864 623.864 660 620 660 L428 660 C423.032 660 419 655.968 419 651 C419 646.505 423.076 640.082 427.143 638.168 L453 626 C470.482 617.773 476.081 599.609 462.1 586.273 C387.4 515.02 312.7 443.2 238 373 L220 355.5 C210.076 345.852 210.233 330.313 220.35 320.867 L546.294 16.5322 C552.964 10.3046 579.099 0 588.224 0 L663.982 0 C667.846 0 671.225 3.14603 671.5 7 C671.765 10.7035 668.907 15.1653 665.433 16.4746 L665.433 16.4746 Z M281 9.5 C281 14.2819 276.697 20.9362 272.337 22.8985 L237.227 38.6978 C218.992 46.9035 201 74.7299 201 94.7262 L201 565.274 C201 585.27 218.992 613.096 237.227 621.302 L272.337 637.102 C276.697 639.064 281 645.718 281 650.5 C281 655.744 276.744 660 271.5 660 L73.5 660 C68.2563 660 64 655.744 64 650.5 C64 645.718 68.3026 639.064 72.6633 637.102 L107.773 621.302 C126.008 613.096 144 585.27 144 565.274 L144 94.7262 C144 74.7299 126.008 46.9035 107.773 38.6978 L72.6633 22.8985 C68.3026 20.9362 64 14.2819 64 9.5 C64 4.25628 68.2563 0 73.5 0 L271.5 0 C276.744 0 281 4.25628 281 9.5 L281 9.5 Z " />
<glyph glyph-name="L" unicode="L" horiz-adv-x="630" d="M551 199 C546.35 199 540.47 194.928 538.834 190.575 L494.966 73.8288 C487.233 53.2494 459.437 34 437.452 34 L262.44 34 C228.527 34 201 61.527 201 95.44 L201 564.298 C201 584.986 219.43 612.806 238.479 620.873 L277.252 637.295 C281.698 639.178 286 645.671 286 650.5 C286 655.744 281.744 660 276.5 660 L74.5 660 C69.2563 660 65 655.744 65 650.5 C65 645.718 69.3026 639.064 73.6633 637.102 L108.773 621.302 C127.008 613.096 145 585.27 145 565.274 L145 94.7262 C145 74.7299 127.008 46.9035 108.773 38.6978 L73.6633 22.8985 C69.3026 20.9362 65 14.2819 65 9.5 C65 4.25628 69.2563 0 74.5 0 L498.56 0 C532.473 0 560 27.527 560 61.44 L560 190 C560 194.968 555.968 199 551 199 L551 199 Z " />
<glyph glyph-name="M" unicode="M" horiz-adv-x="955" d="M84.8049 637.398 L124.225 621.271 C144.848 612.835 163.276 586.074 162.425 563.809 C156.47 408.141 150.461 251.859 143.784 96.191 C142.977 77.3841 124.435 47.1934 107.233 39.5482 L69.6812 22.8583 C65.3024 20.9122 61 14.2918 61 9.5 C61 4.25628 65.2563 0 70.5 0 L253.5 0 C258.744 0 263 4.25628 263 9.5 C263 14.3107 258.698 20.866 254.284 22.7802 L218.449 38.3235 C198.69 46.8936 180.727 75.359 181.496 96.8827 L189.532 321.885 C191.829 386.217 280.828 403.508 307.046 344.716 L457.298 7.78623 C460.172 1.34049 469.942 -5 477 -5 C484.064 -5 493.813 1.3404 496.678 7.79696 L644.261 340.426 C670.184 398.853 758.571 381.874 761 318 L769.443 95.9476 C770.236 75.081 752.754 46.5788 733.794 37.8282 L701.626 22.9811 C697.303 20.9859 693 14.2611 693 9.5 C693 4.25628 697.256 0 702.5 0 L885.5 0 C890.744 0 895 4.25628 895 9.5 C895 14.1769 890.698 21.1812 886.527 23.2962 L856.231 38.6573 C840.682 46.5414 823.286 73.6906 822.621 91.1115 L804.633 562.244 C803.787 584.379 822.068 612.89 842.536 621.36 L881.222 637.368 C885.699 639.22 890 645.655 890 650.5 C890 655.744 885.744 660 880.5 660 L788.163 660 C767.857 660 740.033 641.811 731.885 623.211 L545.632 198.005 C522.885 146.074 456.477 145.792 433.289 197.527 L242.275 623.69 C234.077 641.979 206.251 660 186.209 660 L86.5131 660 C81.2694 660 76.7756 655.736 76.5 650.5 C76.2394 645.549 80.2162 639.275 84.8049 637.398 L84.8049 637.398 Z " />
<glyph glyph-name="N" unicode="N" horiz-adv-x="799" d="M76.5645 636.889 L108.147 621.729 C125.49 613.405 143 585.578 143 566.34 L143 94.7262 C143 74.7299 125.008 46.9035 106.773 38.6978 L71.6633 22.8985 C67.3026 20.9362 63 14.2819 63 9.5 C63 4.25628 67.2563 0 72.5 0 L277.5 0 C282.744 0 287 4.25628 287 9.5 C287 14.4337 282.704 20.5467 278.062 22.2178 L227.629 40.3735 C206.529 47.9697 187 75.7556 187 98.1817 L187 445.57 C187 486.943 242.245 496.734 267.854 464.239 C391.173 307.763 514.923 151.718 638 -5 C640.815 -8.58475 643.942 -5 648.5 -5 C654.296 -5 659 -0.295685 659 5.5 L659 566.34 C659 585.578 676.51 613.405 693.853 621.729 L725.436 636.889 C729.697 638.935 734 645.773 734 650.5 C734 655.744 729.744 660 724.5 660 L524.5 660 C519.256 660 515 655.744 515 650.5 C515 645.566 519.296 639.453 523.938 637.782 L574.371 619.626 C595.471 612.03 615 584.244 615 561.818 L615 292.712 C615 232.128 542.658 207.117 505.239 254.765 L205.449 636.507 C197.44 646.706 170.096 660 157.129 660 L77.5 660 C72.2563 660 68 655.744 68 650.5 C68 645.773 72.3027 638.935 76.5645 636.889 L76.5645 636.889 Z " />
<glyph glyph-name="O" unicode="O" horiz-adv-x="798" d="M130 353 C130 525 233 639 388 639 C556 639 668 506 668 307 C668 135 566 21 412 21 C243 21 130 154 130 353 L130 353 Z M70 332 C70 127 202 -10 399 -10 C596 -10 728 125 728 328 C728 533 596 670 399 670 C202 670 70 535 70 332 L70 332 Z " />
<glyph glyph-name="P" unicode="P" horiz-adv-x="647" d="M296 9.5 C296 14.4035 291.702 20.6288 287.116 22.3664 L240.668 39.9678 C220.193 47.7267 201 75.5253 201 97.421 L201 246.5 C201 276.03 224.97 300 254.5 300 L308 300 C469 300 577 372 577 481 C577 588 479 660 333 660 L74.5 660 C69.2563 660 65 655.744 65 650.5 C65 645.718 69.3026 639.064 73.6633 637.102 L108.773 621.302 C127.008 613.096 145 585.27 145 565.274 L145 94.7262 C145 74.7299 127.008 46.9035 108.773 38.6978 L73.6633 22.8985 C69.3026 20.9362 65 14.2819 65 9.5 C65 4.25628 69.2563 0 74.5 0 L286.5 0 C291.744 0 296 4.25628 296 9.5 L296 9.5 Z M201 393.5 L201 605 C201 616.597 210.109 626.002 221.706 625.997 C263.557 625.977 317.15 625.85 318 625 C437 625 517 565 517 476 C517 391 438 334 320 334 L260.5 334 C227.658 334 201 360.658 201 393.5 L201 393.5 Z " />
<glyph glyph-name="Q" unicode="Q" horiz-adv-x="798" d="M774 -119 L774 -117.606 C774 -116.165 772.359 -114.955 771.011 -115.463 C762.992 -118.488 746.13 -120 727 -120 C660.7 -120 587.898 -52.085 520.875 -15.7433 C511.679 -10.7568 518.947 9.15062 528.74 12.83 C651.86 59.09 728 174.2 728 329 C728 534 596 671 399 671 C202 671 70 536 70 333 C70 126.3 204.038 -14.8069 409.088 -8.757 C413.089 -8.63894 434.088 -12.1695 437.673 -13.9514 C518.377 -54.0675 607.25 -138 688 -138 C720.375 -138 751.894 -133.722 769.895 -125.166 C772.382 -123.983 774 -121.754 774 -119 L774 -119 Z M130 355 C130 527 233 641 388 641 C556 641 668 508 668 309 C668 137 566 23 412 23 C243 23 130 156 130 355 L130 355 Z " />
<glyph glyph-name="R" unicode="R" horiz-adv-x="662" d="M567 50 C565.298 50 559.359 54.3547 558.269 55.6622 C505.358 119.158 424.268 221.84 373.399 286.782 C362.836 300.267 366.579 321.59 382.875 326.867 C461.734 352.406 536 411.25 536 490 C536 593 448 661 316 661 L74.5 661 C69.2563 661 65 656.744 65 651.5 C65 646.718 69.3026 640.064 73.6633 638.102 L108.773 622.302 C127.008 614.096 145 586.27 145 566.274 L145 95.7262 C145 75.7299 127.008 47.9035 108.773 39.6978 L73.6633 23.8985 C69.3026 21.9362 65 15.2819 65 10.5 C65 5.25628 69.2563 1 74.5 1 L266.5 1 C271.744 1 276 5.25628 276 10.5 C276 15.2273 271.697 22.0653 267.436 24.1109 L235.853 39.2706 C218.51 47.5954 201 75.4223 201 94.6601 L201 274 C201 296.079 218.921 314 241 314 L250.935 314 C264.029 314 273.437 323.725 281.476 313.388 C293.424 298.024 526.576 -1.56058 538.524 0.222453 C538.581 0.230929 548.443 1 548.5 1 L610.5 1 L639 1 C643.968 1 648 5.03227 648 10 C648 14.6083 643.926 20.6402 639.651 22.3612 L574.711 48.5061 C573.946 48.8141 567.825 50 567 50 L567 50 Z M201 388.5 L201 608 C201 618.493 209.001 627.002 219.494 626.997 C256.505 626.977 302.15 626.85 303 626 C406 626 475 570 475 485 C475 403 363 348 282 348 L241.5 348 C219.145 348 201 366.145 201 388.5 L201 388.5 Z " />
<glyph glyph-name="S" unicode="S" horiz-adv-x="511" d="M347 617 C355 613 362 606 365 599 C376.692 570.744 392.182 533.943 404.069 505.248 C405.085 502.796 407.359 503.236 410 503.5 L411.951 503.695 C412.118 503.712 417.896 504 418.064 504 L420.5 504 C423.531 504 425.857 506.465 425.682 509.491 L420.299 602.538 C419.593 614.754 411.928 630.479 401.281 636.512 C365.135 656.995 314.9 670 269 670 C159 670 86 599 86 493 C86 411 139 360 243 323 C348 286 402 239 402 167 C402 78 347 19 265 19 C238.675 19 191.436 33.2594 139.967 56.217 C138.801 56.7371 132.403 61.5972 131.5 62.5 C130.501 63.4989 125.485 70.853 124.97 72.1684 C112.61 103.708 97.1922 144.423 85.0078 175.438 C84.0306 177.925 81.659 177.766 79 177.5 L77.0492 177.305 C76.8817 177.288 71.1039 177 70.9356 177 L68.5 177 C65.468 177 63.1241 174.535 63.2766 171.507 L68.4364 69.0492 C69.2922 52.0541 80.4947 32.2835 96.1675 25.6554 C148.017 3.7275 212.15 -10 264 -10 C379 -10 455 66 455 181 C455 271 397 326 285 366 C190 400 141 444 141 513 C141 589 190 640 263 640 C286 640 316.5 631.5 346.5 617.5 L347 617 Z " />
<glyph glyph-name="T" unicode="T" horiz-adv-x="675" d="M466 9.5 C466 14.4337 461.704 20.5467 457.062 22.2178 L406.629 40.3735 C385.529 47.9697 366 75.7556 366 98.1817 L366 564.56 C366 598.473 393.527 626 427.44 626 L509.45 626 C530.03 626 557.851 607.638 565.942 588.715 L608.462 489.275 C610.257 485.075 616.432 481 621 481 C625.968 481 630 485.032 630 490 L630 598.56 C630 632.473 602.473 660 568.56 660 L106.44 660 C72.527 660 45 632.473 45 598.56 L45 490 C45 485.032 49.0323 481 54 481 C58.5677 481 64.7426 485.075 66.5384 489.275 L109.058 588.715 C117.149 607.638 144.97 626 165.55 626 L247.56 626 C281.473 626 309 598.473 309 564.56 L309 98.1817 C309 75.7556 289.471 47.9697 268.371 40.3735 L217.938 22.2178 C213.296 20.5467 209 14.4337 209 9.5 C209 4.25628 213.256 0 218.5 0 L456.5 0 C461.744 0 466 4.25628 466 9.5 L466 9.5 Z " />
<glyph glyph-name="U" unicode="U" horiz-adv-x="812" d="M153 565.274 L153 234 C153 88 256 -10 410 -10 C564 -10 667 88 667 234 L667 565.274 C667 585.27 684.992 613.096 703.227 621.302 L738.337 637.102 C742.697 639.064 747 645.718 747 650.5 C747 655.744 742.744 660 737.5 660 L532.5 660 C527.256 660 523 655.744 523 650.5 C523 645.566 527.296 639.453 531.938 637.782 L582.371 619.626 C603.471 612.03 623 584.244 623 561.818 L623 221 C623 104 545 26 427 26 C296 26 209 113 209 244 L209 565.274 C209 585.27 226.992 613.096 245.227 621.302 L280.337 637.102 C284.697 639.064 289 645.718 289 650.5 C289 655.744 284.744 660 279.5 660 L82.5 660 C77.2563 660 73 655.744 73 650.5 C73 645.718 77.3026 639.064 81.6633 637.102 L116.773 621.302 C135.008 613.096 153 585.27 153 565.274 L153 565.274 Z " />
<glyph glyph-name="V" unicode="V" horiz-adv-x="728" d="M239.487 660 L42 660 C37.0323 660 33 655.968 33 651 C33 646.493 37.0763 640.11 41.1647 638.213 L80.196 620.112 C88.3624 616.325 107.726 596.1 111.155 587.777 L350 8 L352.5 1.5 C353.788 -1.84866 358.376 -5 361.964 -5 L368.5 -5 C375.389 -5 385.818 4.23472 388.448 10.6018 C470.102 208.248 550.922 406.752 633.479 604.398 C636.84 612.446 653.437 626.352 661.323 630.08 L688.671 643.008 C691.83 644.501 695 649.507 695 653 C695 656.864 691.864 660 688 660 L524.5 660 C519.256 660 515 655.744 515 650.5 C515 645.739 519.303 639.014 523.626 637.019 L554 623 C575.504 613.075 585.744 587.149 576.825 565.208 L415.629 168.652 C401.857 134.77 356.084 139.068 342.119 172.87 C287.902 304.097 233.32 435.225 179.216 565.834 C169.267 589.85 182.48 613.061 206.5 623 L241.21 637.363 C245.784 639.256 249.76 645.556 249.5 650.5 C249.224 655.736 244.731 660 239.487 660 L239.487 660 Z " />
<glyph glyph-name="W" unicode="W" horiz-adv-x="973" d="M225.955 660 L29 660 C24.0323 660 20 655.968 20 651 C20 646.543 24.0759 639.993 28.0745 638.025 L61.6346 621.503 C70.8822 616.95 91.7461 589.066 94.9142 579.257 C156.135 389.718 218.811 200.906 278.193 10.4463 C279.524 6.17471 287.026 -5 291.5 -5 C295.936 -5 303.34 4.6106 304.794 8.80184 C355.876 156.041 405.102 303.888 454.52 451.319 C465.084 482.832 510.49 482.723 521.802 451.47 C575.015 304.452 628.836 157.626 680.193 8.94444 C681.724 4.51181 689.31 -5 694 -5 C698.761 -5 704.211 -0.937376 705.571 3.62499 L880.633 590.931 C884.221 602.967 904.465 625.382 916.075 630.174 L945.529 642.33 C948.831 643.692 952 648.428 952 652 C952 655.864 948.864 659 945 659 L767.5 659 C762.256 659 758 654.744 758 649.5 C758 644.68 762.302 638.156 766.732 636.258 L800 622 C823.004 612.141 836.275 584.142 829.342 560.094 L751.397 289.741 C734.401 230.789 655.485 228.154 634.593 285.839 L500.724 655.478 C499.31 659.382 494.152 663 490 663 C485.796 663 478.844 653.059 477.569 649.052 C428.773 495.643 378.002 342.897 327.504 190.253 C318.754 163.806 280.984 167.153 272.543 193.701 C234.447 313.513 195.759 433.575 158.385 552.743 C150.226 578.76 163.609 610.064 189 620 L224.714 633.975 C229.792 635.962 235.506 643.569 236 649 C236.55 655.047 232.026 660 225.955 660 L225.955 660 Z " />
<glyph glyph-name="X" unicode="X" horiz-adv-x="729" d="M259.988 660 L67 660 C62.0323 660 58 655.968 58 651 C58 646.543 62.0759 639.993 66.0745 638.025 L110.103 616.349 C113.261 614.795 129.601 601.382 131.741 598.588 L310.23 365.561 C325.583 345.516 325.493 310.553 310.036 290.589 L132.268 60.9716 C129.891 57.9014 112.762 44.3197 109.231 42.7054 L61.1853 20.7418 C57.0762 18.8634 53 12.518 53 8 C53 3.03227 57.0323 -1 62 -1 L248.5 -1 C253.744 -1 258 3.25628 258 8.5 C258 13.3533 253.699 19.7594 249.207 21.597 L214 36 C190.589 45.5773 183.598 71.6054 199.059 91.624 L311.246 236.877 C337.266 270.565 382.659 270.508 408.592 236.753 L525.562 84.5067 C538.316 67.9056 533.502 45.7952 515 36 L489.396 22.4449 C485.3 20.2766 481 13.1343 481 8.5 C481 3.25628 485.256 -1 490.5 -1 L683 -1 C687.416 -1 691 2.58424 691 7 C691 11.0112 687.377 16.6679 683.733 18.3451 L641.567 37.7549 C638.129 39.3373 621.141 52.7923 618.814 55.7762 L429.126 298.944 C414.255 318.008 413.472 352.574 427.465 372.292 L589.734 600.944 C592.23 604.461 609.564 619.022 613.459 620.874 L652.775 639.565 C656.377 641.277 660 647.012 660 651 C660 655.416 656.416 659 652 659 L479.5 659 C474.256 659 470 654.744 470 649.5 C470 644.708 474.302 638.088 478.681 636.142 L510.5 622 C532.423 612.257 539.268 587.397 525.424 567.805 L409.609 403.902 C393.969 381.769 363.568 383.126 346.93 404.52 C304.426 459.174 262.001 513.749 219.964 567.936 C205.932 586.023 209.762 612.305 230.5 622 L259.93 635.759 C264.354 637.828 269.256 645.123 269.5 650 C269.776 655.513 265.507 660 259.988 660 L259.988 660 Z " />
<glyph glyph-name="Y" unicode="Y" horiz-adv-x="711" d="M220 660 L41 660 C36.0323 660 32 655.968 32 651 C32 646.557 36.0757 639.962 40.0498 637.975 L83.4439 616.278 C86.4538 614.773 102.526 601.555 104.584 598.892 L321.177 318.595 C325.504 312.994 334 288.106 334 281.028 L334 95.5969 C334 74.2789 315.172 46.4686 295.378 38.5513 L252.821 21.5282 C248.3 19.72 244 13.3687 244 8.5 C244 3.25628 248.256 -1 253.5 -1 L470.5 -1 C475.744 -1 480 3.25628 480 8.5 C480 13.3687 475.7 19.72 471.179 21.5282 L428.622 38.5513 C408.828 46.4686 390 74.2789 390 95.5969 L390 283.219 C390 289.589 397.824 313.892 401.54 319.065 L607.219 605.384 C609.961 609.201 628.041 623.865 632.342 625.761 L669.594 642.177 C672.83 643.603 676 648.464 676 652 C676 655.864 672.864 659 669 659 L499.5 659 C494.256 659 490 654.744 490 649.5 C490 644.773 494.303 637.935 498.564 635.889 L527.5 622 C547.873 612.221 553.881 588.596 540.655 570.272 L420.622 403.976 C395.34 368.951 349.348 367.96 322.581 401.864 L186.565 574.151 C173.757 590.375 178.292 612.217 196.5 622 L221.191 635.267 C225.474 637.568 230 645.138 230 650 C230 655.52 225.52 660 220 660 L220 660 Z " />
<glyph glyph-name="Z" unicode="Z" horiz-adv-x="646" d="M118 501 C122.45 501 129.022 505.076 130.999 509.063 L172.067 591.861 C180.44 608.742 208.264 626 227.108 626 L357.935 626 C409.408 626 438.3 578.625 411.647 534.589 C307.077 361.822 202.4 188.55 97 16 C95.8001 14.0356 97 10.3018 97 8 C97 3.58424 100.584 0 105 0 L494.56 0 C528.473 0 556 27.527 556 61.44 L556 160 C556 164.968 551.968 169 547 169 C542.486 169 536.128 164.924 534.244 160.821 L492.441 69.798 C484.194 51.8417 456.367 34 436.607 34 L276.148 34 C224.602 34 196.507 82.6087 223.307 126.639 C329.755 301.522 436.6 475.9 542 651 C542.661 652.097 542 654.219 542 655.5 C542 657.984 539.984 660 537.5 660 L171.055 660 C137.355 660 109.828 632.645 109.616 598.946 L109.057 510 C109.025 505.032 113.032 501 118 501 L118 501 Z " />
<glyph glyph-name="bracketleft" unicode="&#x5b;" horiz-adv-x="226" d="M163 726 L214 726 C217.864 726 221 729.136 221 733 C221 736.864 217.864 740 214 740 L127.44 740 C93.527 740 66 712.473 66 678.56 L66 -88.56 C66 -122.473 93.527 -150 127.44 -150 L214 -150 C217.864 -150 221 -146.864 221 -143 C221 -139.136 217.864 -136 214 -136 L163 -136 C130.986 -136 105 -110.014 105 -78 L105 668 C105 700.014 130.986 726 163 726 L163 726 Z " />
<glyph glyph-name="backslash" unicode="&#x5c;" horiz-adv-x="212" d="M196.5 -120 C204.876 -120 210.549 -113.026 208.843 -104.825 L34.1571 734.825 C32.451 743.026 23.8762 750 15.5 750 C7.12382 750 1.45101 743.026 3.15711 734.825 L177.843 -104.825 C179.549 -113.026 188.124 -120 196.5 -120 L196.5 -120 Z " />
<glyph glyph-name="bracketright" unicode="&#x5d;" horiz-adv-x="221" d="M117 670 L117 -80 C117 -110.91 91.9103 -136 61 -136 L12 -136 C8.13621 -136 5 -139.136 5 -143 C5 -146.864 8.13621 -150 12 -150 L94.56 -150 C128.473 -150 156 -122.473 156 -88.56 L156 678.56 C156 712.473 128.473 740 94.56 740 L12 740 C8.13621 740 5 736.864 5 733 C5 729.136 8.13621 726 12 726 L61 726 C91.9103 726 117 700.91 117 670 L117 670 Z " />
<glyph glyph-name="asciicircum" unicode="&#x5e;" horiz-adv-x="340" d="M306.913 532.81 L184.367 697.775 C181.989 700.976 173.988 705 170 705 C165.958 705 158.118 700.966 155.769 697.676 L38.0343 532.848 C37.1206 531.569 37.928 530 39.5 530 C40.8094 530 44.6106 531.485 45.5734 532.372 L129.835 610.051 C152.459 630.908 189.737 631.123 212.6 610.528 L299.399 532.342 C300.36 531.477 304.207 530 305.5 530 C307.051 530 307.838 531.565 306.913 532.81 L306.913 532.81 Z " />
<glyph glyph-name="underscore" unicode="&#x5f;" horiz-adv-x="500" d="M25 -109.5 C25 -118.056 31.9445 -125 40.5 -125 L459.5 -125 C468.056 -125 475 -118.056 475 -109.5 C475 -100.944 468.056 -94 459.5 -94 L40.5 -94 C31.9445 -94 25 -100.944 25 -109.5 L25 -109.5 Z " />
<glyph glyph-name="grave" unicode="&#x60;" horiz-adv-x="340" d="M173.236 533.59 L99.028 684.564 C93.5651 695.678 75.3841 707 63 707 L50.5 707 C43.8468 707 36.1386 713.243 38.0395 706.867 C38.6163 704.932 45.4783 682.391 56 669 L164.504 533.126 C165.581 531.778 169.275 530 171 530 C172.981 530 174.11 531.812 173.236 533.59 L173.236 533.59 Z " />
<glyph glyph-name="a" unicode="a" horiz-adv-x="482" d="M119 336 C119 390 163 431 221 431 C290 431 325 393 325 335 L325 296.5 C325 276.699 305.596 253.878 286.404 249.004 C133.718 210.227 55 149.825 55 86 C55 28 100 -10 168 -10 C222.25 -10 274.203 7.60938 311.131 41.4883 C316.326 46.255 328.623 43.509 331.112 36.9121 C342.137 7.69625 366.825 -10 399 -10 C429.4 -10 457.093 10.3062 470.932 38.9155 C470.974 39.0028 470.371 39.3806 470.308 39.3068 C463.308 31.1023 448.273 27 431 27 C397 27 375 44 375 69 L375 348 C375 415 328 460 237 460 C140 460 67 405 67 332 C67 322.833 70.4722 316.444 76.2593 315.148 C77.0595 314.969 83.005 315 83.8251 315 L110.464 315 C111.844 315 115.524 316.524 116.5 317.5 C117.476 318.476 119 322.156 119 323.536 L119 336 L119 336 Z M325 159.779 L325 95.225 C325 82.9223 318.079 66.3915 308.104 59.1896 C279.047 38.2094 238.725 28 195 28 C140 28 103 56 103 98 C103 142.55 154.047 185.398 254.456 217 C295.947 230.058 325 203.276 325 159.779 L325 159.779 Z " />
<glyph glyph-name="b" unicode="b" horiz-adv-x="554" d="M102.088 -9.93422 C103.492 -8.88889 121.301 4.44444 134.523 17.7778 C137.84 21.1225 146.37 23.4143 150.521 21.1875 C186.328 1.97875 231.375 -10 273 -10 C412 -10 504 94 504 250 C504 376 430 460 320 460 C266.375 460 212.75 440.262 173.724 408.085 C165.985 401.704 151 405.744 151 415.774 L151 745 C151 747.76 148.76 750 146 750 C144.996 750 137.278 748.546 136.342 748.181 L38.7945 710.091 C37.3577 709.53 36 707.542 36 706 C36 704.739 37.3243 701.873 38.2846 701.056 L83 663 C94 654 101 647 101 647 C101 647 101.002 648.632 100.992 642.05 L100.026 6.80028 C100.014 -0.652619 96.1112 -14.386 102.088 -9.93422 L102.088 -9.93422 Z M151 106.907 L151 334.397 C151 343.309 155.989 360.42 162.01 366.99 C190.516 398.094 237.875 418 286 418 C387 418 454 346 454 237 C454 107 389 20 291 20 C254.7 20 210.233 36.335 173.32 62.2668 C161.719 70.417 151 92.7291 151 106.907 L151 106.907 Z " />
<glyph glyph-name="c" unicode="c" horiz-adv-x="477" d="M432 381 L431 383 C432 383 432 382 432 381 L432 381 Z M425.824 98.1727 C384.208 61.7162 329.925 37 288 37 C175 37 99 117 99 237 C99 355 163 434 260 434 C302 434 346 414 368 383 L393.721 350.183 C395.499 347.915 398.602 347.831 400.5 350 L404 354 L432 381 C432 386 424 396 414 409 C392 439 339 459 281 459 C142 459 50 359 50 208 C50 77 134 -11 261 -11 C328.275 -11 395.55 28.9262 430.385 89.3147 C431.099 90.5529 432.42 95.8838 432 97.25 C431.505 98.8587 427.09 99.2818 425.824 98.1727 L425.824 98.1727 Z " />
<glyph glyph-name="d" unicode="d" horiz-adv-x="567" d="M519 9 C519 13.518 514.924 19.8634 510.815 21.7418 L484 34 C466.43 42.032 449 69.1648 449 88.4838 L449 751 C449 753.76 446.76 756 444 756 C443.219 756 434.954 754.806 434.205 754.584 L334 725 L334 720 L386 678 L392.5 673 C395.344 670.812 399 663.387 399 659.799 L399 462.742 C399 452.012 388.335 444.926 377.891 447.391 C344.667 455.236 311.75 460 287 460 C144 460 48 354 48 196 C48 72 122 -10 232 -10 C294.7 -10 357.4 14.3675 393.521 51.9566 C395.774 54.3008 399.146 51.1655 399.328 47.9196 C400.44 28.0527 404 1 404 1 C404 1 410.996 0.939162 423.163 0.833365 L510 0.0782579 C514.968 0.0350635 519 4.03246 519 9 L519 9 Z M398 348.254 L398 99.8116 C398 88.8234 392.992 74.2994 384.24 67.6554 C355.355 45.7275 310.9 32 265 32 C164 32 96 104 96 212 C96 339.725 164.445 425.623 268.895 429.838 C271.48 429.942 274.661 430.861 277.089 429.967 C278.978 429.272 310.915 417.52 361.636 399.321 C380.536 392.539 398 368.334 398 348.254 L398 348.254 Z " />
<glyph glyph-name="e" unicode="e" horiz-adv-x="483" d="M110.797 321.003 C132.335 390.801 182 433 248 433 C310.7 433 358.426 390.121 377.702 320.646 C386.084 290.436 368.686 273 337.335 273 L150.308 273 C118.801 273 101.507 290.897 110.797 321.003 L110.797 321.003 Z M428 101 C386 63 330 37 287 37 C192.125 37 123.794 93.4919 104.469 182.892 C95.7893 223.043 117.893 244 158.972 244 L406.83 244 C407.141 244 414.823 244.521 415.132 244.563 L422 245.5 C428.204 246.346 433.042 250.26 432.871 256.519 C429.529 379.197 361.425 460 261 460 C134 460 50 360 50 209 C50 78 134 -10 261 -10 C328.275 -10 395.55 29.9262 430.385 90.3147 C430.823 91.0743 433 97.123 433 98 L433 101 L428 101 L428 101 Z " />
<glyph glyph-name="f" unicode="f" horiz-adv-x="345" d="M243 9 C243 13.4569 238.924 20.0066 234.925 21.9752 L210.5 34 C194.406 41.9234 178 68.286 178 86.225 L178 358.56 C178 392.473 205.527 420 239.44 420 L295.5 420 C303.504 420 310 426.496 310 434.5 C310 442.504 303.504 449 295.5 449 L228 449 C200.402 449 178 471.402 178 499 L178 549 C178 620 239 697 331 697 C343 697 360 693 373 687 C387 680 400 676 400 676 C400 676 390.652 676 403.5 676 C405.207 676 407.839 677.584 408.638 679.093 L414.582 690.321 C414.721 690.583 416.771 694.963 416.874 695.241 C424.496 715.828 417.138 727.414 393 739 C393 739 369 749 358 749 C248 749 128 614 128 489 L128 469 C128 457.961 119.039 449 108 449 L54.5 449 C46.4964 449 40 442.504 40 434.5 C40 426.496 46.4964 420 54.5 420 L84 420 C108.287 420 128 400.287 128 376 L128 85.225 C128 67.286 111.594 40.9234 95.5 33 L71.0745 20.9752 C67.0759 19.0066 63 12.4569 63 8 C63 3.03235 67.0323 -0.977598 71.9999 -0.950001 L234 -0.0499992 C238.968 -0.0224016 243 4.03235 243 9 L243 9 Z " />
<glyph glyph-name="g" unicode="g" horiz-adv-x="539" d="M131 302 C131 382 171 435 250 435 C327 435 378 381 378 300 C378 218 339 164 262 164 C183 164 131 219 131 302 L131 302 Z M80 301 C80 245.75 102.397 201.338 141.051 173.29 C148.715 167.728 145.503 153.502 137.001 149.333 C99.1412 130.769 76 104.225 76 77 C76 46.475 97.78 22.7563 133.479 11.4589 C138.211 9.96132 138.907 -1.72797 134.651 -4.28137 C93.2875 -29.095 68 -82.05 68 -122 C68 -192 135 -239 235 -239 C378 -239 473 -175 473 -78 C473 -2 431 48 323 48 L203 48 C154 48 121 68 121 99 C121 120.6 140.44 140.58 169.843 150.921 C173.582 152.236 186.403 151.766 190.203 150.639 C209.622 144.88 231.091 142 254 142 C370 142 429 206 429 303 C429 344.25 415.387 380.055 391.532 407.046 C386.973 412.204 390.124 422.337 397.002 422.035 L472.016 418.745 C481.382 418.334 489 425.626 489 435 C489 444.379 481.383 451.753 472.009 451.448 L347.533 447.407 C345.532 447.342 325.065 450.934 323.171 451.583 C302.917 458.528 280 462 255 462 C140 462 80 397 80 302 L80 301 Z M187 5 L298 5 C392 5 428 -33 428 -90 C428 -168 353 -220 241 -220 C164 -220 112 -177 112 -113 C112 -59 142 5 187 5 L187 5 Z " />
<glyph glyph-name="h" unicode="h" horiz-adv-x="583" d="M543 9 C543 13.4569 538.924 20.0066 534.925 21.9752 L510.5 34 C494.406 41.9234 478 68.286 478 86.225 L478 343 C478 413 420 460 332 460 C278.375 460 232.237 437.539 190.778 401.602 C181.154 393.26 165 398.919 165 411.655 L165 745 C165 747.76 162.76 750 160 750 C158.996 750 151.278 748.546 150.342 748.181 L52.7945 710.091 C51.3577 709.53 50 707.542 50 706 C50 704.739 51.3243 701.873 52.2846 701.056 L97 663 C108 654 115 647 115 647 C115 647 115 648.646 115 642.05 L115 86.225 C115 68.286 98.5944 41.9234 82.5 34 L58.0745 21.9752 C54.0759 20.0066 50 13.4569 50 9 C50 4.03227 54.0323 0 59 0 L221 0 C225.968 0 230 4.03227 230 9 C230 13.4569 225.924 20.0066 221.925 21.9752 L197.5 34 C181.406 41.9234 165 68.286 165 86.225 L165 333.602 C165 345.937 174.211 367.463 183.806 375.214 C214.921 400.346 253.675 416 304 416 C378 416 428 375 428 314 L428 86.225 C428 68.286 411.594 41.9234 395.5 34 L371.075 21.9752 C367.076 20.0066 363 13.4569 363 9 C363 4.03227 367.032 0 372 0 L534 0 C538.968 0 543 4.03227 543 9 L543 9 Z " />
<glyph glyph-name="i" unicode="i" horiz-adv-x="287" d="M179 648 C179 696 104 697 104 648 C104 598 179 599 179 648 L179 648 Z M239 9 C239 13.518 234.924 19.8634 230.815 21.7418 L204 34 C186.43 42.032 169 69.1648 169 88.4838 L169 455 C169 457.76 166.76 460 164 460 C162.996 460 155.278 458.546 154.342 458.181 L56.7945 420.091 C55.3577 419.53 54 417.542 54 416 C54 414.739 55.3243 411.873 56.2846 411.056 L101 373 C112 364 119 357 119 357 C119 357 119 358.646 119 352.05 L119 86.225 C119 68.286 102.594 41.9234 86.5 34 L62.0745 21.9752 C58.0759 20.0066 54 13.4569 54 9 C54 4.03227 58.0323 0 63 0 L230 0 C234.968 0 239 4.03227 239 9 L239 9 Z " />
<glyph glyph-name="j" unicode="j" horiz-adv-x="287" d="M182 648 C182 696 107 697 107 648 C107 598 182 599 182 648 L182 648 Z M56 -227.5 C56 -230.105 62.0148 -229.186 64.1936 -227.759 C168.049 -159.731 169 -95.6 169 -2 L169 455 C169 457.76 166.76 460 164 460 C162.996 460 155.278 458.546 154.342 458.181 L56.7945 420.091 C55.3577 419.53 54 417.542 54 416 C54 414.739 55.3243 411.873 56.2846 411.056 L101 373 C112 364 119 357 119 357 C119 357 119 358.646 119 352.05 L119 -10 C119 -111.4 127.556 -173.824 61.2495 -218.591 C59.2501 -219.941 56 -225.088 56 -227.5 L56 -227.5 Z " />
<glyph glyph-name="k" unicode="k" horiz-adv-x="512" d="M460.5 450 L312.5 450 C306.704 450 302 445.296 302 439.5 C302 435.163 306.612 424.912 309.858 422.035 L324 409.5 C335.89 398.961 335.17 381.923 322.435 372.424 L255.5 322.5 C215.458 292.634 165 317.947 165 367.9 L165 755 C165 757.76 162.76 760 160 760 C158.996 760 151.278 758.546 150.342 758.181 L52.7945 720.091 C51.3577 719.53 50 717.542 50 716 C50 714.739 51.3243 711.873 52.2846 711.056 L97 673 C108 664 115 657 115 657 C115 657 115 658.646 115 652.05 L115 86.225 C115 68.286 98.5944 41.9234 82.5 34 L58.0745 21.9752 C54.0759 20.0066 50 13.4569 50 9 C50 4.03227 54.0323 0 59 0 L226 0 C230.968 0 235 4.03227 235 9 C235 13.518 230.924 19.8634 226.815 21.7418 L200 34 C182.43 42.032 165 69.1648 165 88.4838 L165 148 C165 185.53 206.954 202.452 232.993 175.425 L383.876 18.8123 C391.08 11.3343 417.739 0 428.122 0 L473 0 C477.968 0 482 4.03227 482 9 C482 13.4569 477.924 20.0066 473.925 21.9752 L426.789 45.1809 C424.928 46.0968 410.9 56.3944 409.469 57.8948 L259.055 215.576 C232.262 243.662 236.311 285.655 267.976 308.105 L394.276 397.651 C394.763 397.996 403.724 403.159 404.267 403.408 L461.269 429.466 C465.15 431.24 469 437.233 469 441.5 C469 446.192 465.192 450 460.5 450 L460.5 450 Z " />
<glyph glyph-name="l" unicode="l" horiz-adv-x="268" d="M224 9 C224 13.4569 219.924 20.0066 215.925 21.9752 L191.5 34 C175.406 41.9234 159 68.286 159 86.225 L159 755 C159 757.76 156.76 760 154 760 C152.996 760 145.278 758.546 144.342 758.181 L46.7945 720.091 C45.3577 719.53 44 717.542 44 716 C44 714.739 45.3243 711.873 46.2846 711.056 L91 673 C102 664 109 657 109 657 C109 657 109 658.646 109 652.05 L109 86.225 C109 68.286 92.5944 41.9234 76.5 34 L52.0745 21.9752 C48.0759 20.0066 44 13.4569 44 9 C44 4.03227 48.0323 0 53 0 L215 0 C219.968 0 224 4.03227 224 9 L224 9 Z " />
<glyph glyph-name="m" unicode="m" horiz-adv-x="879" d="M839 9 C839 13.4569 834.924 20.0066 830.925 21.9752 L806.5 34 C790.406 41.9234 774 68.286 774 86.225 L774 343 C774 413 717 460 632 460 C576 460 526.125 432.438 480.365 388.701 C472.832 381.502 455.663 386.849 450.602 395.957 C428.807 435.178 382.05 459 321 459 C260 459 208 426 160 376 C159.269 375.239 159.855 377.45 159.75 378.5 L159.5 381 L157.16 454.003 C157.072 456.76 154.758 459 152 459 C150.971 459 143.316 457.519 142.361 457.135 L47.7835 419.119 C46.358 418.546 45 416.536 45 415 C45 413.739 46.3243 410.873 47.2846 410.056 L92 372 C103 363 110 356 110 356 C110 356 110 357.646 110 351.05 L110 85.225 C110 67.286 93.5944 40.9234 77.5 33 L53.0745 20.9752 C49.0759 19.0066 45 12.4569 45 8 C45 3.03227 49.0323 -1 54 -1 L216 -1 C220.968 -1 225 3.03227 225 8 C225 12.4569 220.924 19.0066 216.925 20.9752 L192.5 33 C176.406 40.9234 160 67.286 160 85.225 L160 332.602 C160 344.799 169.257 366.499 178.704 374.214 C209.479 399.346 246.975 415 294 415 C365 415 413 374 413 313 L413 87.4838 C413 68.1648 395.57 41.032 378 33 L351.185 20.7418 C347.076 18.8634 343 12.518 343 8 C343 3.03227 347.032 -1 352 -1 L524 -1 C528.968 -1 533 3.03227 533 8 C533 12.518 528.924 18.8634 524.815 20.7418 L498 33 C480.43 41.032 463 68.1648 463 87.4838 L463 342 L463 346.5 C463 348.294 464.521 352.558 465.79 353.825 C502.259 390.234 546.5 414 605 414 C676 414 724 373 724 312 L724 86.4838 C724 67.1648 706.57 40.032 689 32 L662.185 19.7418 C658.076 17.8634 654 11.518 654 7 C654 2.03256 658.032 -1.95641 662.999 -1.90271 L830.001 -0.0972916 C834.968 -0.0435927 839 4.03256 839 9 L839 9 Z " />
<glyph glyph-name="n" unicode="n" horiz-adv-x="583" d="M543 9 C543 13.4569 538.924 20.0066 534.925 21.9752 L510.5 34 C494.406 41.9234 478 68.286 478 86.225 L478 343 C478 413 420 460 332 460 C267 460 213 427 165 377 C164.269 376.239 164.855 378.45 164.75 379.5 L164.5 382 L162.16 455.003 C162.072 457.76 159.758 460 157 460 C155.971 460 148.316 458.519 147.361 458.135 L52.7835 420.119 C51.358 419.546 50 417.536 50 416 C50 414.739 51.3243 411.873 52.2846 411.056 L97 373 C108 364 115 357 115 357 C115 357 115 358.646 115 352.05 L115 86.225 C115 68.286 98.5944 41.9234 82.5 34 L58.0745 21.9752 C54.0759 20.0066 50 13.4569 50 9 C50 4.03227 54.0323 0 59 0 L226 0 C230.968 0 235 4.03227 235 9 C235 13.518 230.924 19.8634 226.815 21.7418 L200 34 C182.43 42.032 165 69.1648 165 88.4838 L165 333.602 C165 345.937 174.211 367.463 183.806 375.214 C214.921 400.346 253.675 416 304 416 C378 416 428 375 428 314 L428 88.4838 C428 69.1648 410.57 42.032 393 34 L366.185 21.7418 C362.076 19.8634 358 13.518 358 9 C358 4.03227 362.032 0 367 0 L534 0 C538.968 0 543 4.03227 543 9 L543 9 Z " />
<glyph glyph-name="o" unicode="o" horiz-adv-x="529" d="M108 225 C108 350 158 434 256 434 C356 434 422 350 422 225 C422 100 371 16 273 16 C174 16 108 100 108 225 L108 225 Z M50 225 C50 84 136 -10 265 -10 C406 -10 479 84 479 225 C479 366 393 460 265 460 C123 460 50 366 50 225 L50 225 Z " />
<glyph glyph-name="p" unicode="p" horiz-adv-x="565" d="M163.53 403.829 C162.709 430.925 162 460 162 460 C162 460 159.828 460 157 460 C155.971 460 148.316 458.519 147.361 458.135 L52.7835 420.119 C51.358 419.546 50 417.536 50 416 C50 414.739 51.3243 411.873 52.2846 411.056 L97 373 C108 364 115 357 115 357 C115 357 115 358.646 115 352.05 L115 -143.775 C115 -161.714 98.5944 -188.077 82.5 -196 L58.0745 -208.025 C54.0759 -209.993 50 -216.543 50 -221 C50 -225.968 54.0323 -230 59 -230 L226 -230 C230.968 -230 235 -225.968 235 -221 C235 -216.482 230.924 -210.137 226.815 -208.258 L200 -196 C182.43 -187.968 165 -160.835 165 -141.516 L165 -8.86607 C165 -1.58153 171.608 3.6687 178.643 1.77675 C206.313 -5.665 244.35 -10 286 -10 C423 -10 515 93 515 247 C515 375 444 460 337 460 C284.275 460 222.138 436.043 175.124 398.416 C170.29 394.547 163.718 397.639 163.53 403.829 L163.53 403.829 Z M165 81.5256 L165 347.656 C165 359.753 171.442 375.722 181.566 382.345 C215.087 404.272 260.35 418 302 418 C400 418 466 340 466 224 C466 102 400 20 302 20 C257.8 20 211.433 32.2825 180.093 51.3204 C170.637 57.0645 165 70.4618 165 81.5256 L165 81.5256 Z " />
<glyph glyph-name="q" unicode="q" horiz-adv-x="541" d="M501 -221 C501 -216.543 496.924 -209.993 492.925 -208.025 L468.5 -196 C452.43 -188.089 435.943 -161.686 435.887 -143.775 L434.062 440.302 C434.03 450.252 425.092 456.041 416 452 L411.585 450.038 C407.378 448.168 388.868 447.017 384.425 448.223 C357.01 455.665 319.95 460 280 460 C142 460 50 354 50 196 C50 72 120 -10 226 -10 C262.3 -10 311.532 9.0575 357.412 39.3113 C369.091 47.013 386 40.1784 386 26.188 L386 -141.516 C386 -160.835 368.57 -187.968 351 -196 L324.185 -208.258 C320.076 -210.137 316 -216.482 316 -221 C316 -225.968 320.032 -230 325 -230 L492 -230 C496.968 -230 501 -225.968 501 -221 L501 -221 Z M386 370.398 L386 106.207 C386 93.3683 375.934 74.083 365.081 67.2223 C330.898 45.6125 291.525 32 261 32 C164 32 100 104 100 212 C100 343 169 430 272 430 C304.3 430 341.658 418.44 371.176 400.233 C380.095 394.732 386 380.877 386 370.398 L386 370.398 Z " />
<glyph glyph-name="r" unicode="r" horiz-adv-x="343" d="M261 460 C235.65 460 203.646 423.876 167.767 367.385 C166.763 365.804 164.828 367.129 164.75 369 L164.5 375 C163.5 405 162 460 162 460 C162 460 159.836 460 157 460 C155.971 460 148.316 458.519 147.361 458.135 L52.7835 420.119 C51.358 419.546 50 417.536 50 416 C50 414.739 51.3243 411.873 52.2846 411.056 L97 373 C108 364 115 357 115 357 C115 357 115 358.646 115 352.05 L115 86.225 C115 68.286 98.5944 41.9234 82.5 34 L58.0745 21.9752 C54.0759 20.0066 50 13.4569 50 9 C50 4.03227 54.0323 0 59 0 L226 0 C230.968 0 235 4.03227 235 9 C235 13.518 230.924 19.8634 226.815 21.7418 L200 34 C182.43 42.032 165 69.1648 165 88.4838 L165 323.955 C165 329.723 171.671 352.279 174.889 357.066 C197.406 390.563 216 412 230 412 C246 412 268 407 285 400 C296 395 323 384 323 384 C323 384 316.638 384 326.5 384 C328.27 384 330.409 384.804 331.177 386.399 C338.487 401.582 343 416.45 343 425 C343 443 287 460.5 261 460.5 L261 460 Z " />
<glyph glyph-name="s" unicode="s" horiz-adv-x="414" d="M66.2664 19.1959 C106.667 1.7325 160.2 -10 202 -10 C287 -10 344 41 344 117 C344 181 303 221 224 252 C155 279 119 310 119 355 C119 404.4 156.003 440.262 209.43 436.009 C212.263 435.783 215.621 436.275 218.126 434.933 C221.368 433.196 286.425 397.95 303 357 C306 351 309 343 312 337 C312.741 335.519 313.698 337 315.354 337 L320.5 337 C325.192 337 329 340.808 329 345.5 L329 401.046 C329 413.01 321.908 427.247 311.11 432.4 C275.993 449.163 234.3 460 202 460 C126 460 76 410 76 336 C76 278 114 240 187 212 C262 183 301 149 301 101 C301 48 261 12 200 12 C152 12 119 36 100 72 C93.913 84.1739 84.8015 99.3724 77.9255 112.335 C76.3688 115.27 71.3222 118 68 118 C64.1362 118 61 114.864 61 111 L61 38 L60.5 30 C60.233 25.7285 62.3378 20.894 66.2664 19.1959 L66.2664 19.1959 Z " />
<glyph glyph-name="t" unicode="t" horiz-adv-x="320" d="M289 56 C288.626 57.1207 286.923 56.9734 286.293 55.9742 C276.012 39.6678 251.229 29 222 29 C176 29 146 58 146 101 L146 359.56 C146 393.473 173.527 421 207.44 421 L263.5 421 C271.504 421 278 427.496 278 435.5 C278 443.504 271.504 450 263.5 450 L195.51 450 C168.188 450 145.552 472.183 145 499.5 C144.749 511.914 127.817 515.623 122.4 504.45 L107.114 472.922 C102.773 463.969 81.3293 444.922 71.9269 441.667 L54.8666 435.762 C47.7194 433.287 49.4392 422.194 57 422 C78.5198 421.448 96 403.514 96 381.987 L96 90 C96 30 133 -10 189 -10 C229.95 -10 269.949 13.7656 288.607 50.1746 C289.201 51.3341 289.412 54.7639 289 56 L289 56 Z " />
<glyph glyph-name="u" unicode="u" horiz-adv-x="545" d="M404 361.516 L404 123.31 C404 110.01 394.654 88.0481 384.093 79.9641 C345.535 50.45 302.1 36 263 36 C190 36 141 76 141 137 L141 392.5 C141 424.238 115.238 450 83.5 450 L35 450 C30.0323 450 26 445.968 26 441 C26 436.543 30.0759 429.993 34.0745 428.025 L58.5 416 C74.5944 408.077 91 381.714 91 363.775 L91 107 C91 37 148 -10 234 -10 C275.65 -10 326.693 10.9525 377.301 52.8575 C388.54 62.163 404 53.0908 404 38.5 C404 17.2492 421.249 0 442.5 0 L515 0 C519.968 0 524 4.03227 524 9 C524 13.518 519.924 19.8634 515.815 21.7418 L489 34 C471.43 42.032 454 69.1648 454 88.4838 L454 390 C454 423.118 427.118 450 394 450 L343 450 C338.032 450 334 445.968 334 441 C334 436.482 338.076 430.137 342.185 428.258 L369 416 C386.57 407.968 404 380.835 404 361.516 L404 361.516 Z " />
<glyph glyph-name="v" unicode="v" horiz-adv-x="475" d="M326.606 426.976 L356.5 413 C377.736 403.071 387.571 377.45 378.432 355.862 L310.57 195.55 C288.535 143.495 222.513 142.175 198.414 193.308 L120.76 358.074 C109.895 381.126 120.582 407.203 144.5 416 L179.553 428.893 C183.929 430.503 188 436.338 188 441 C188 445.968 183.968 450 179 450 L-15 450 C-19.9677 450 -24 445.968 -24 441 C-24 436.482 -19.9238 430.137 -15.8147 428.258 L25.5379 409.354 C32.8317 406.02 52.1667 386.9 55.5824 379.644 L231 7 L232.5 3.5 C233.261 1.72431 235.876 0 237.808 0 L240.5 0 C243.774 0 248.319 2.94384 249.658 5.9317 L414.727 374.306 C418.052 381.727 437.145 401.226 444.494 404.708 L491.414 426.933 C495.697 428.962 500 435.761 500 440.5 C500 445.744 495.744 450 490.5 450 L327.5 450 C322.256 450 318 445.744 318 440.5 C318 435.75 322.303 428.988 326.606 426.976 L326.606 426.976 Z " />
<glyph glyph-name="w" unicode="w" horiz-adv-x="748" d="M595.606 426.976 L625.5 413 C646.728 403.075 656.731 377.374 647.798 355.71 L505.452 10.5203 C504.879 9.13182 504.908 4.88049 505.5 3.5 C506.261 1.72431 508.876 0 510.808 0 L513.5 0 C516.785 0 523.029 6.89278 524.35 9.89998 C578 131.999 631.65 254.077 685.3 375.343 C688.632 382.875 707.191 401.248 714.635 404.774 L761.414 426.933 C765.697 428.962 770 435.761 770 440.5 C770 445.744 765.744 450 760.5 450 L596.5 450 C591.256 450 587 445.744 587 440.5 C587 435.75 591.303 428.988 595.606 426.976 L595.606 426.976 Z M185 450 L-10 450 C-14.9677 450 -19 445.968 -19 441 C-19 436.517 -14.9238 430.053 -10.8787 428.121 L25.2332 410.874 C34.0648 406.656 53.2361 385.472 56.5545 376.264 L190 6 L191 3 C191.524 1.42907 193.506 0 195.162 0 L200 0 C204.082 0 209.495 3.62188 211.053 7.39461 L385.094 428.961 C386.241 431.738 386.184 440.238 385 443 C383.478 446.551 378.248 450 374.384 450 L369.64 450 C367.708 450 365.531 448.358 365 446.5 L364.847 445.966 C364.801 445.802 362.923 440.292 362.86 440.134 L239.222 129.347 C231.452 109.815 204.665 112.927 197.53 132.7 C171.226 205.6 145.001 278.5 119.164 351.4 C110.163 376.796 122.552 407.148 148 416 L185.5 429.043 C189.931 430.585 194 436.308 194 441 C194 445.968 189.968 450 185 450 L185 450 Z M518 41.5 L522.692 53.0627 C526.254 61.8398 526.325 90.1886 522.807 98.9834 L401.242 402.896 C396.16 415.6 379.681 415.665 374.5 403 L370.34 392.831 C366.775 384.117 366.59 355.809 370.041 347.049 L490.353 41.6413 C495.547 28.4579 512.672 28.3703 518 41.5 L518 41.5 Z " />
<glyph glyph-name="x" unicode="x" horiz-adv-x="480" d="M301.552 0 L452 0 C456.968 0 461 4.03227 461 9 C461 13.2737 456.934 20.4095 453.257 22.5882 L417.617 43.7084 C415.354 45.0494 401.206 57.7925 399.636 59.9033 L289.584 207.904 C274.955 227.578 275.151 262.274 290.002 281.782 L371.87 389.321 C373.741 391.779 389.117 404.862 391.843 406.316 L432.059 427.765 C435.926 429.827 440 436.617 440 441 C440 445.968 435.968 450 431 450 L300 450 C295.032 450 291 445.968 291 441 C291 436.617 295.074 429.827 298.941 427.765 L321 416 C337.429 407.238 342.12 387.442 331.369 372.24 L300.939 329.207 C275.267 292.903 227.969 292.349 201.454 328.043 L171.765 368.008 C158.98 385.219 164.864 407.393 184.5 416 L212.757 428.387 C216.924 430.213 221 436.45 221 441 C221 445.968 216.968 450 212 450 L49 450 C44.0323 450 40 445.968 40 441 C40 436.726 44.066 429.591 47.7426 427.412 L83.2631 406.363 C85.5754 404.992 99.809 392.116 101.403 389.952 L193.543 264.905 C207.428 246.062 207.673 211.761 194.058 192.721 L100.102 61.3295 C98.1732 58.6328 82.7076 44.8732 79.8049 43.2717 L41.8802 22.3477 C38.0718 20.2465 34 13.3496 34 9 C34 4.03227 38.0323 0 43 0 L185 0 C189.968 0 194 4.03227 194 9 C194 13.529 189.924 19.8371 185.795 21.6981 L158.5 34 C139.174 42.7102 132.862 64.7477 144.645 82.3687 L183.495 140.465 C208.701 178.159 256.948 179.32 283.939 142.883 L332.285 77.6146 C343.071 63.0546 338.865 43.7531 323 35 L302.364 23.6146 C298.577 21.5255 293.453 13.8009 293 9.5 C292.451 4.2851 296.309 0 301.552 0 L301.552 0 Z " />
<glyph glyph-name="y" unicode="y" horiz-adv-x="474" d="M329.626 427.019 L360 413 C381.503 403.075 391.752 377.145 382.845 355.2 L207 -78 C176 -157 143 -188 91 -188 L67.8284 -188 C66.7245 -188 63.7806 -189.219 63 -190 C62.2194 -190.781 61 -193.724 61 -194.828 L61 -222 C61 -235 67 -240 82 -240 C145 -240 187 -197 230 -87 C291.75 65.95 353.5 218.9 415.25 370.993 C418.521 379.049 438.361 401.5 446.179 405.304 L490.457 426.844 C494.697 428.907 499 435.785 499 440.5 C499 445.744 494.744 450 489.5 450 L330.5 450 C325.256 450 321 445.744 321 440.5 C321 435.739 325.303 429.014 329.626 427.019 L329.626 427.019 Z M179 450 L-15 450 C-19.9677 450 -24 445.968 -24 441 C-24 436.471 -19.9239 430.163 -15.7949 428.302 L26.8759 409.07 C33.945 405.884 53.3256 387.153 56.7508 380.197 L226.235 35.9873 C232.308 23.6528 248.358 24.249 253.5 37 L255.793 42.6878 C259.993 53.1015 258.751 82.8874 253.818 92.9746 C210.401 181.77 165.943 270.518 123.006 358.705 C112.035 381.237 122.046 407.17 145.5 416 L179.577 428.829 C183.928 430.467 188 436.351 188 441 C188 445.968 183.968 450 179 450 L179 450 Z " />
<glyph glyph-name="z" unicode="z" horiz-adv-x="480" d="M88.5338 455.524 L86.5 436 C83.6538 403.744 80.3577 360.686 77.4653 327.322 C77.0623 322.673 80.833 322 85.5 322 C89.8257 322 95.6164 325.849 97.2915 329.837 L120.188 384.352 C128.235 403.511 156.053 422 176.834 422 L241.423 422 C279.267 422 296.612 380.776 277.3 348.231 C208.512 232.308 139.265 116.385 70.7712 0.461538 C69.9861 -0.867292 77 7.04345 77 5.5 C77 2.46416 79.4642 0 82.5 0 L389.998 0 C397.725 0 403.888 6.27365 403.75 14 L403.5 28 L403.04 124.5 C403.018 129.192 399.192 133 394.5 133 C390.024 133 384.793 129.161 383.451 124.891 L366.52 71.0187 C359.401 48.3661 331.652 28 307.907 28 L249 28 C199.589 28 172.787 74.9873 197.938 117.518 L378 422 L387 436 C391.179 442.5 387.084 450 379.357 450 L144.752 450 C143.689 450 130.521 451.661 129.491 451.925 L102.359 458.882 C101.761 459.036 94.1169 460 93.5 460 C91.0295 460 88.7897 457.981 88.5338 455.524 L88.5338 455.524 Z " />
<glyph glyph-name="bar" unicode="&#x7c;" horiz-adv-x="216" d="M100 -260 C108.832 -260 116 -252.832 116 -244 L116 744 C116 752.832 108.832 760 100 760 C91.1685 760 84 752.832 84 744 L84 -244 C84 -252.832 91.1685 -260 100 -260 L100 -260 Z " />
<glyph glyph-name="asciitilde" unicode="&#x7e;" horiz-adv-x="340" d="M27.9773 228.05 C40.7194 267.382 55.125 294 99 294 C137 294 189 233 227 233 C278.675 233 298.979 273.877 319.426 336.167 C320.084 338.17 319.108 341 317 341 C314.917 341 312.606 339.78 311.95 337.803 C298.281 296.618 283.9 270 241 270 C203 270 151 330 113 330 C60.35 330 40.0213 290.074 20.5005 229.685 C19.8508 227.675 20.8875 225 23 225 C25.0867 225 27.3342 226.065 27.9773 228.05 L27.9773 228.05 Z " />
<glyph glyph-name="exclamdown" unicode="&#xa1;" horiz-adv-x="204" d="M67 422 C67 373 142 374 142 422 C142 471 67 472 67 422 L67 422 Z M104.5 -210 C123.515 -210 138.159 -194.538 137.127 -175.551 L111.353 298.51 C111.158 302.087 108.083 305 104.5 305 C100.917 305 97.8416 302.087 97.6471 298.51 L71.873 -175.551 C70.8407 -194.538 85.4851 -210 104.5 -210 L104.5 -210 Z " />
<glyph glyph-name="guillemotleft" unicode="&#xab;" horiz-adv-x="431" d="M401.379 422.68 L255.842 293.88 C227.429 268.735 227.371 227.2 255.713 201.975 L401.386 72.3269 C402.345 71.473 406.216 70 407.5 70 C408.998 70 409.735 71.5523 408.789 72.7136 L297.699 209.086 C280.554 230.134 280.603 265.826 297.807 286.826 L408.782 422.293 C409.729 423.449 408.994 425 407.5 425 C406.22 425 402.338 423.529 401.379 422.68 L401.379 422.68 Z M214.379 422.68 L68.8419 293.88 C40.4293 268.735 40.3713 227.2 68.7134 201.975 L214.386 72.3269 C215.345 71.473 219.216 70 220.5 70 C221.998 70 222.735 71.5523 221.789 72.7136 L110.699 209.086 C93.554 230.134 93.6033 265.826 110.807 286.826 L221.782 422.293 C222.729 423.449 221.994 425 220.5 425 C219.22 425 215.338 423.529 214.379 422.68 L214.379 422.68 Z " />
<glyph glyph-name="acute" unicode="&#xb4;" horiz-adv-x="340" d="M175 530 C176.725 530 180.419 531.778 181.496 533.126 L290 669 C301 683 308 707 308 707 C308 707 300.675 707 295.5 707 L283 707 C270.616 707 252.435 695.678 246.972 684.564 L172.764 533.59 C171.89 531.812 173.019 530 175 530 L175 530 Z " />
<glyph glyph-name="periodcentered" unicode="&#xb7;" horiz-adv-x="205" d="M140 248 C140 297 65 296 65 248 C65 199 140 198 140 248 L140 248 Z " />
<glyph glyph-name="guillemotright" unicode="&#xbb;" horiz-adv-x="412" d="M193.152 422.24 L299.629 285.671 C315.341 265.52 315.389 230.443 299.732 210.249 L193.144 72.7661 C192.209 71.5594 192.973 70 194.5 70 C195.806 70 199.617 71.4832 200.579 72.3662 L342.52 202.601 C369.724 227.561 369.667 268.376 342.393 293.26 L200.586 422.641 C199.624 423.519 195.802 425 194.5 425 C192.976 425 192.215 423.441 193.152 422.24 L193.152 422.24 Z M22.152 422.24 L128.629 285.671 C144.341 265.52 144.389 230.443 128.732 210.249 L22.1445 72.7661 C21.209 71.5594 21.9732 70 23.5 70 C24.8061 70 28.6166 71.4832 29.5789 72.3662 L171.52 202.601 C198.724 227.561 198.667 268.376 171.393 293.26 L29.5856 422.641 C28.6237 423.519 24.8021 425 23.5 425 C21.9764 425 21.2152 423.441 22.152 422.24 L22.152 422.24 Z " />
<glyph glyph-name="questiondown" unicode="&#xbf;" horiz-adv-x="469" d="M235 417 C235 369 310 368 310 417 C310 467 235 466 235 417 L235 417 Z M374.117 -63.9847 C376.121 -63.7229 403.518 -60.1708 421.497 -59.2283 C426.331 -58.9748 429.344 -57.0097 428.276 -52.2884 C425.742 -41.0914 416.789 -34 405 -34 L382.905 -34 C381.249 -34 377.56 -35.7279 376.5 -37 C375.617 -38.0601 374 -42.5252 374 -43.9051 L374 -52 C374 -58.5615 367.61 -64.8345 374.117 -63.9847 L374.117 -63.9847 Z M371.66 -91.6074 C360.859 -152.953 313.5 -192 247 -192 C166 -192 112 -137 112 -54 C112 17.1 171.94 76.05 264.118 98.793 C279.245 102.525 295.82 121.1 294.967 136.657 C291.282 203.85 279 305 279 305 C279 305 276.738 305 273 305 C269.695 305 267.218 308.137 266.989 304.84 C266.746 301.348 262.573 241.125 259.522 183.692 C258.716 168.524 236.866 148.062 222.427 143.344 C119.8 109.81 55 36.1 55 -53 C55 -153 124 -219 227 -219 C335.9 -219 412.4 -167.16 426.611 -86.079 C429.633 -68.8348 418.904 -59.1014 401.5 -61 C389.3 -62.3309 373.788 -79.521 371.66 -91.6074 L371.66 -91.6074 Z " />
<glyph glyph-name="Agrave" unicode="&#xc0;" horiz-adv-x="739" d="M362.076 708.516 L289 842.068 C283.189 852.688 264.106 864 252 864 L238.543 864 C232.442 864 225.155 869.668 227.043 863.867 C227.645 862.019 234.5 841.409 245 829 L353.339 706.997 C354.496 705.694 358.261 704.141 360 704.25 C361.999 704.375 363.038 706.759 362.076 708.516 L362.076 708.516 Z M209.179 21.5282 L178 34 C155.921 42.8317 129.192 28.2143 138.105 50.2608 C140.41 55.9606 179.961 153.783 205.662 216.825 C211.524 231.203 232.743 246.974 248.27 246.946 L472.577 246.544 C485.058 246.521 501.167 236.611 505.979 225.094 C530.766 165.758 579 49 579 49 C579 49 558.585 41.4911 535.5 33 L500.447 20.1068 C496.071 18.4974 492 12.6623 492 8 C492 3.03227 496.032 -1 501 -1 L696 -1 C700.416 -1 704 2.58424 704 7 C704 11.0221 700.377 16.6418 696.713 18.3018 L661.906 34.0737 C653.673 37.8045 633.275 59.9607 629.772 68.2936 C559.377 235.752 387 650 387 650 L384 657 C382.478 660.551 377.248 664 373.384 664 L367 664 C359.869 664 346.506 648.445 343.758 641.865 C233.566 377.925 148.929 175.019 105.885 72.5122 C102.012 63.2879 81.6179 43.1743 72.3452 39.4183 L25.3416 20.3789 C21.0741 18.6503 17 12.6043 17 8 C17 3.03227 21.0323 -1 26 -1 L208.5 -1 C213.744 -1 218 3.25628 218 8.5 C218 13.3687 213.7 19.72 209.179 21.5282 L209.179 21.5282 Z M420.115 279 L277.888 279 C253.828 279 238.232 296.987 247.28 319.281 C275.279 388.271 307.525 466.403 342.753 551.565 C347.973 564.184 365.441 565.94 370.713 553.342 C393.489 498.909 425.583 421.489 458.69 341.688 C471.167 311.614 452.675 279 420.115 279 L420.115 279 Z " />
<glyph glyph-name="Aacute" unicode="&#xc1;" horiz-adv-x="739" d="M364 705 C365.651 705 369.56 706.757 370.656 707.991 L479 830 C490 843 497 865 497 865 C497 865 490.116 865 485.457 865 L472 865 C459.886 865 440.83 853.688 435.029 843.053 L361.915 709.012 C360.987 707.31 362.062 705 364 705 L364 705 Z M209.179 21.5282 L178 34 C155.921 42.8317 129.192 28.2143 138.105 50.2608 C140.41 55.9606 179.961 153.783 205.662 216.825 C211.524 231.203 232.743 246.974 248.27 246.946 L472.577 246.544 C485.058 246.521 501.167 236.611 505.979 225.094 C530.766 165.758 579 49 579 49 C579 49 558.585 41.4911 535.5 33 L500.447 20.1068 C496.071 18.4974 492 12.6623 492 8 C492 3.03227 496.032 -1 501 -1 L696 -1 C700.416 -1 704 2.58424 704 7 C704 11.0221 700.377 16.6418 696.713 18.3018 L661.906 34.0737 C653.673 37.8045 633.275 59.9607 629.772 68.2936 C559.377 235.752 387 650 387 650 L384 657 C382.478 660.551 377.248 664 373.384 664 L367 664 C359.869 664 346.506 648.445 343.758 641.865 C233.566 377.925 148.929 175.019 105.885 72.5122 C102.012 63.2879 81.6179 43.1743 72.3452 39.4183 L25.3416 20.3789 C21.0741 18.6503 17 12.6043 17 8 C17 3.03227 21.0323 -1 26 -1 L208.5 -1 C213.744 -1 218 3.25628 218 8.5 C218 13.3687 213.7 19.72 209.179 21.5282 L209.179 21.5282 Z M420.115 279 L277.888 279 C253.828 279 238.232 296.987 247.28 319.281 C275.279 388.271 307.525 466.403 342.753 551.565 C347.973 564.184 365.441 565.94 370.713 553.342 C393.489 498.909 425.583 421.489 458.69 341.688 C471.167 311.614 452.675 279 420.115 279 L420.115 279 Z " />
<glyph glyph-name="Acircumflex" unicode="&#xc2;" horiz-adv-x="739" d="M503 705 L502 706 L503 706 L503 705 L503 705 Z M209.179 21.5282 L178 34 C155.921 42.8317 129.192 28.2143 138.105 50.2608 C140.41 55.9606 179.961 153.783 205.662 216.825 C211.524 231.203 232.743 246.974 248.27 246.946 L472.577 246.544 C485.058 246.521 501.167 236.611 505.979 225.094 C530.766 165.758 579 49 579 49 C579 49 558.585 41.4911 535.5 33 L500.447 20.1068 C496.071 18.4974 492 12.6623 492 8 C492 3.03227 496.032 -1 501 -1 L696 -1 C700.416 -1 704 2.58424 704 7 C704 11.0221 700.377 16.6418 696.713 18.3018 L661.906 34.0737 C653.673 37.8045 633.275 59.9607 629.772 68.2936 C559.377 235.752 387 650 387 650 L384 657 C382.478 660.551 377.248 664 373.384 664 L367 664 C359.869 664 346.506 648.445 343.758 641.865 C233.566 377.925 148.929 175.019 105.885 72.5122 C102.012 63.2879 81.6179 43.1743 72.3452 39.4183 L25.3416 20.3789 C21.0741 18.6503 17 12.6043 17 8 C17 3.03227 21.0323 -1 26 -1 L208.5 -1 C213.744 -1 218 3.25628 218 8.5 C218 13.3687 213.7 19.72 209.179 21.5282 L209.179 21.5282 Z M364 862 C360.114 862 351.815 857.999 349.394 854.959 L232.18 707.738 C231.239 706.556 231.989 705 233.5 705 C234.732 705 238.747 706.446 239.696 707.232 L326.264 778.921 C347.224 796.279 382.942 796.482 404.098 779.363 L493.668 706.887 C494.478 706.232 497.958 705 499 705 C500.279 705 500.908 706.329 500.095 707.318 L378.714 855.046 C376.277 858.012 367.838 862 364 862 L364 862 Z M420.115 279 L277.888 279 C253.828 279 238.232 296.987 247.28 319.281 C275.279 388.271 307.525 466.403 342.753 551.565 C347.973 564.184 365.441 565.94 370.713 553.342 C393.489 498.909 425.583 421.489 458.69 341.688 C471.167 311.614 452.675 279 420.115 279 L420.115 279 Z " />
<glyph glyph-name="Atilde" unicode="&#xc3;" horiz-adv-x="739" d="M226.977 730.679 C239.719 765.234 254.125 789 298 789 C336 789 388 734 426 734 C477.675 734 497.979 771.074 518.426 827.613 C519.136 829.576 518.087 832 516 832 C513.941 832 511.658 831.035 510.95 829.101 C497.281 791.766 482.9 768 440 768 C402 768 350 822 312 822 C259.35 822 239.021 785.876 219.501 731.239 C218.812 729.313 219.959 727.122 222 727.25 C224.005 727.375 226.282 728.794 226.977 730.679 L226.977 730.679 Z M209.179 21.5282 L178 34 C155.921 42.8317 129.192 28.2143 138.105 50.2608 C140.41 55.9606 179.961 153.783 205.662 216.825 C211.524 231.203 232.743 246.974 248.27 246.946 L472.577 246.544 C485.058 246.521 501.167 236.611 505.979 225.094 C530.766 165.758 579 49 579 49 C579 49 558.585 41.4911 535.5 33 L500.447 20.1068 C496.071 18.4974 492 12.6623 492 8 C492 3.03227 496.032 -1 501 -1 L696 -1 C700.416 -1 704 2.58424 704 7 C704 11.0221 700.377 16.6418 696.713 18.3018 L661.906 34.0737 C653.673 37.8045 633.275 59.9607 629.772 68.2936 C559.377 235.752 387 650 387 650 L384 657 C382.478 660.551 377.248 664 373.384 664 L367 664 C359.869 664 346.506 648.445 343.758 641.865 C233.566 377.925 148.929 175.019 105.885 72.5122 C102.012 63.2879 81.6179 43.1743 72.3452 39.4183 L25.3416 20.3789 C21.0741 18.6503 17 12.6043 17 8 C17 3.03227 21.0323 -1 26 -1 L208.5 -1 C213.744 -1 218 3.25628 218 8.5 C218 13.3687 213.7 19.72 209.179 21.5282 L209.179 21.5282 Z M420.115 279 L277.888 279 C253.828 279 238.232 296.987 247.28 319.281 C275.279 388.271 307.525 466.403 342.753 551.565 C347.973 564.184 365.441 565.94 370.713 553.342 C393.489 498.909 425.583 421.489 458.69 341.688 C471.167 311.614 452.675 279 420.115 279 L420.115 279 Z " />
<glyph glyph-name="Adieresis" unicode="&#xc4;" horiz-adv-x="739" d="M470 766 C470 808 408 808 408 766 C408 725 470 725 470 766 L470 766 Z M320 766 C320 808 258 808 258 766 C258 725 320 725 320 766 L320 766 Z M209.179 21.5282 L178 34 C155.921 42.8317 129.192 28.2143 138.105 50.2608 C140.41 55.9606 179.961 153.783 205.662 216.825 C211.524 231.203 232.743 246.974 248.27 246.946 L472.577 246.544 C485.058 246.521 501.167 236.611 505.979 225.094 C530.766 165.758 579 49 579 49 C579 49 558.585 41.4911 535.5 33 L500.447 20.1068 C496.071 18.4974 492 12.6623 492 8 C492 3.03227 496.032 -1 501 -1 L696 -1 C700.416 -1 704 2.58424 704 7 C704 11.0221 700.377 16.6418 696.713 18.3018 L661.906 34.0737 C653.673 37.8045 633.275 59.9607 629.772 68.2936 C559.377 235.752 387 650 387 650 L384 657 C382.478 660.551 377.248 664 373.384 664 L367 664 C359.869 664 346.506 648.445 343.758 641.865 C233.566 377.925 148.929 175.019 105.885 72.5122 C102.012 63.2879 81.6179 43.1743 72.3452 39.4183 L25.3416 20.3789 C21.0741 18.6503 17 12.6043 17 8 C17 3.03227 21.0323 -1 26 -1 L208.5 -1 C213.744 -1 218 3.25628 218 8.5 C218 13.3687 213.7 19.72 209.179 21.5282 L209.179 21.5282 Z M420.115 279 L277.888 279 C253.828 279 238.232 296.987 247.28 319.281 C275.279 388.271 307.525 466.403 342.753 551.565 C347.973 564.184 365.441 565.94 370.713 553.342 C393.489 498.909 425.583 421.489 458.69 341.688 C471.167 311.614 452.675 279 420.115 279 L420.115 279 Z " />
<glyph glyph-name="Aring" unicode="&#xc5;" horiz-adv-x="739" d="M314 793 C314 828 334 851 363 851 C394 851 414 824 414 784 C414 752 392 725 367 725 C338 725 314 756 314 793 L314 793 Z M283 788 C283 746 320 710 364 710 C408 710 445 746 445 789 C445 835 413 866 364 866 C315 866 283 835 283 788 L283 788 Z M209.179 21.5282 L178 34 C155.921 42.8317 129.192 28.2143 138.105 50.2608 C140.41 55.9606 179.961 153.783 205.662 216.825 C211.524 231.203 232.743 246.974 248.27 246.946 L472.577 246.544 C485.058 246.521 501.167 236.611 505.979 225.094 C530.766 165.758 579 49 579 49 C579 49 558.585 41.4911 535.5 33 L500.447 20.1068 C496.071 18.4974 492 12.6623 492 8 C492 3.03227 496.032 -1 501 -1 L696 -1 C700.416 -1 704 2.58424 704 7 C704 11.0221 700.377 16.6418 696.713 18.3018 L661.906 34.0737 C653.673 37.8045 633.275 59.9607 629.772 68.2936 C559.377 235.752 387 650 387 650 L384 657 C382.478 660.551 377.248 664 373.384 664 L367 664 C359.869 664 346.506 648.445 343.758 641.865 C233.566 377.925 148.929 175.019 105.885 72.5122 C102.012 63.2879 81.6179 43.1743 72.3452 39.4183 L25.3416 20.3789 C21.0741 18.6503 17 12.6043 17 8 C17 3.03227 21.0323 -1 26 -1 L208.5 -1 C213.744 -1 218 3.25628 218 8.5 C218 13.3687 213.7 19.72 209.179 21.5282 L209.179 21.5282 Z M420.115 279 L277.888 279 C253.828 279 238.232 296.987 247.28 319.281 C275.279 388.271 307.525 466.403 342.753 551.565 C347.973 564.184 365.441 565.94 370.713 553.342 C393.489 498.909 425.583 421.489 458.69 341.688 C471.167 311.614 452.675 279 420.115 279 L420.115 279 Z " />
<glyph glyph-name="Ccedilla" unicode="&#xc7;" horiz-adv-x="714" d="M545.606 49.59 C501.253 31.4569 447.75 21 399 21 C236 21 128 145 128 332 C128 516 242 639 412 639 C453.8 639 495.6 630.877 530.541 617.205 C532.016 616.627 538.947 611.684 540 610.5 C540.673 609.743 546.414 600.512 546.823 599.586 C564.546 559.396 587.923 507.897 605 469 C609.286 469 614.306 469.735 619.431 469.945 C621.02 470.01 621.944 471.409 621.881 472.998 L616.887 598.674 C616.341 612.415 609.684 626.776 597.602 633.345 C557.265 655.273 486.8 669 412 669 C207 669 70 526 70 312 C70 120 199 -8 392 -11 C395.383 -11.0526 390.762 -13.9244 389.391 -17.0176 C382.069 -33.5305 364.538 -71.2278 341.289 -121.687 C339.014 -126.626 341.031 -132.792 346 -135 L351.549 -137.466 C351.75 -137.555 358.21 -139.992 358.42 -140.057 C402.481 -153.897 431 -171.35 431 -185 C431 -208 415 -224 392 -224 C361.75 -224 334.021 -218.958 320.366 -211.186 C319.112 -210.472 317 -211.056 317 -212.5 C317 -214.195 318.7 -217.26 320.103 -218.212 C340.39 -231.975 372.5 -241 401 -241 C441 -241 468 -215 468 -175 C468 -152.9 440.545 -127.91 396.689 -109.856 C384.633 -104.893 377.393 -89.4839 382.885 -77.6595 C396.485 -48.3824 406.311 -26.7371 410.992 -15.8105 C412.013 -13.427 416.852 -10.9042 419.444 -10.8182 C490.25 -8.47059 558.369 5.32856 602.461 26.6486 C615.785 33.0914 624.629 49.7008 625.499 64.4756 L631.824 172.005 C631.917 173.589 631.072 174.988 629.487 175.055 C624.571 175.265 620.286 176 616 176 C598 140 575 93 557 57 C556 54 549 49.5 549 49.5 C549 49.5 570.29 59.6817 545.606 49.59 L545.606 49.59 Z " />
<glyph glyph-name="Egrave" unicode="&#xc8;" horiz-adv-x="650" d="M338.076 708.516 L265 842.068 C259.189 852.688 240.106 864 228 864 L214.543 864 C208.442 864 201.155 869.668 203.043 863.867 C203.645 862.019 210.5 841.409 221 829 L329.339 706.997 C330.496 705.694 334.261 704.141 336 704.25 C337.999 704.375 339.038 706.759 338.076 708.516 L338.076 708.516 Z M571.5 159 C567.244 159 561.214 155.15 559.422 151.29 L521.509 69.58 C513.243 51.7652 485.416 34 465.776 34 L262.44 34 C228.527 34 201 61.527 201 95.44 L201 261.56 C201 295.473 228.527 323 262.44 323 L367.863 323 C386.013 323 413.826 306.189 422.262 290.119 L441.654 253.182 C444.267 248.206 452.88 243 458.5 243 C464.848 243 470 248.152 470 254.5 L470 425.5 C470 431.848 464.848 437 458.5 437 C452.88 437 444.267 431.794 441.654 426.818 L422.262 389.881 C413.826 373.811 386.013 357 367.863 357 L262.44 357 C228.527 357 201 384.527 201 418.44 L201 564.56 C201 598.473 228.527 626 262.44 626 L442.175 626 C460.817 626 488.639 608.872 497.033 592.227 L534.172 518.589 C536.059 514.849 542.311 511 546.5 511 C551.192 511 555 514.808 555 519.5 L555 598.56 C555 632.473 527.473 660 493.56 660 L74.5 660 C69.2563 660 65 655.744 65 650.5 C65 645.718 69.3026 639.064 73.6633 637.102 L108.773 621.302 C127.008 613.096 145 585.27 145 565.274 L145 94.7262 C145 74.7299 127.008 46.9035 108.773 38.6978 L73.6633 22.8985 C69.3026 20.9362 65 14.2819 65 9.5 C65 4.25628 69.2563 0 74.5 0 L518.56 0 C552.473 0 580 27.527 580 61.44 L580 150.5 C580 155.192 576.192 159 571.5 159 L571.5 159 Z " />
<glyph glyph-name="Eacute" unicode="&#xc9;" horiz-adv-x="650" d="M340 705 C341.651 705 345.56 706.757 346.656 707.991 L455 830 C466 843 473 865 473 865 C473 865 466.116 865 461.457 865 L448 865 C435.886 865 416.83 853.688 411.029 843.053 L337.915 709.012 C336.987 707.31 338.062 705 340 705 L340 705 Z M571.5 159 C567.244 159 561.214 155.15 559.422 151.29 L521.509 69.58 C513.243 51.7652 485.416 34 465.776 34 L262.44 34 C228.527 34 201 61.527 201 95.44 L201 261.56 C201 295.473 228.527 323 262.44 323 L367.863 323 C386.013 323 413.826 306.189 422.262 290.119 L441.654 253.182 C444.267 248.206 452.88 243 458.5 243 C464.848 243 470 248.152 470 254.5 L470 425.5 C470 431.848 464.848 437 458.5 437 C452.88 437 444.267 431.794 441.654 426.818 L422.262 389.881 C413.826 373.811 386.013 357 367.863 357 L262.44 357 C228.527 357 201 384.527 201 418.44 L201 564.56 C201 598.473 228.527 626 262.44 626 L442.175 626 C460.817 626 488.639 608.872 497.033 592.227 L534.172 518.589 C536.059 514.849 542.311 511 546.5 511 C551.192 511 555 514.808 555 519.5 L555 598.56 C555 632.473 527.473 660 493.56 660 L74.5 660 C69.2563 660 65 655.744 65 650.5 C65 645.718 69.3026 639.064 73.6633 637.102 L108.773 621.302 C127.008 613.096 145 585.27 145 565.274 L145 94.7262 C145 74.7299 127.008 46.9035 108.773 38.6978 L73.6633 22.8985 C69.3026 20.9362 65 14.2819 65 9.5 C65 4.25628 69.2563 0 74.5 0 L518.56 0 C552.473 0 580 27.527 580 61.44 L580 150.5 C580 155.192 576.192 159 571.5 159 L571.5 159 Z " />
<glyph glyph-name="Ecircumflex" unicode="&#xca;" horiz-adv-x="650" d="M474 705 L473 706 L474 706 L474 705 L474 705 Z M335 863 C331.114 863 322.815 858.999 320.394 855.959 L203.18 708.738 C202.239 707.556 202.989 706 204.5 706 C205.732 706 209.747 707.446 210.696 708.232 L297.264 779.921 C318.224 797.279 353.942 797.482 375.098 780.363 L464.668 707.887 C465.478 707.232 468.958 706 470 706 C471.279 706 471.908 707.329 471.095 708.318 L349.714 856.046 C347.277 859.012 338.838 863 335 863 L335 863 Z M571.5 159 C567.244 159 561.214 155.15 559.422 151.29 L521.509 69.58 C513.243 51.7652 485.416 34 465.776 34 L262.44 34 C228.527 34 201 61.527 201 95.44 L201 261.56 C201 295.473 228.527 323 262.44 323 L367.863 323 C386.013 323 413.826 306.189 422.262 290.119 L441.654 253.182 C444.267 248.206 452.88 243 458.5 243 C464.848 243 470 248.152 470 254.5 L470 425.5 C470 431.848 464.848 437 458.5 437 C452.88 437 444.267 431.794 441.654 426.818 L422.262 389.881 C413.826 373.811 386.013 357 367.863 357 L262.44 357 C228.527 357 201 384.527 201 418.44 L201 564.56 C201 598.473 228.527 626 262.44 626 L442.175 626 C460.817 626 488.639 608.872 497.033 592.227 L534.172 518.589 C536.059 514.849 542.311 511 546.5 511 C551.192 511 555 514.808 555 519.5 L555 598.56 C555 632.473 527.473 660 493.56 660 L74.5 660 C69.2563 660 65 655.744 65 650.5 C65 645.718 69.3026 639.064 73.6633 637.102 L108.773 621.302 C127.008 613.096 145 585.27 145 565.274 L145 94.7262 C145 74.7299 127.008 46.9035 108.773 38.6978 L73.6633 22.8985 C69.3026 20.9362 65 14.2819 65 9.5 C65 4.25628 69.2563 0 74.5 0 L518.56 0 C552.473 0 580 27.527 580 61.44 L580 150.5 C580 155.192 576.192 159 571.5 159 L571.5 159 Z " />
<glyph glyph-name="Edieresis" unicode="&#xcb;" horiz-adv-x="650" d="M441 766 C441 808 379 808 379 766 C379 725 441 725 441 766 L441 766 Z M291 766 C291 808 229 808 229 766 C229 725 291 725 291 766 L291 766 Z M571.5 159 C567.244 159 561.214 155.15 559.422 151.29 L521.509 69.58 C513.243 51.7652 485.416 34 465.776 34 L262.44 34 C228.527 34 201 61.527 201 95.44 L201 261.56 C201 295.473 228.527 323 262.44 323 L367.863 323 C386.013 323 413.826 306.189 422.262 290.119 L441.654 253.182 C444.267 248.206 452.88 243 458.5 243 C464.848 243 470 248.152 470 254.5 L470 425.5 C470 431.848 464.848 437 458.5 437 C452.88 437 444.267 431.794 441.654 426.818 L422.262 389.881 C413.826 373.811 386.013 357 367.863 357 L262.44 357 C228.527 357 201 384.527 201 418.44 L201 564.56 C201 598.473 228.527 626 262.44 626 L442.175 626 C460.817 626 488.639 608.872 497.033 592.227 L534.172 518.589 C536.059 514.849 542.311 511 546.5 511 C551.192 511 555 514.808 555 519.5 L555 598.56 C555 632.473 527.473 660 493.56 660 L74.5 660 C69.2563 660 65 655.744 65 650.5 C65 645.718 69.3026 639.064 73.6633 637.102 L108.773 621.302 C127.008 613.096 145 585.27 145 565.274 L145 94.7262 C145 74.7299 127.008 46.9035 108.773 38.6978 L73.6633 22.8985 C69.3026 20.9362 65 14.2819 65 9.5 C65 4.25628 69.2563 0 74.5 0 L518.56 0 C552.473 0 580 27.527 580 61.44 L580 150.5 C580 155.192 576.192 159 571.5 159 L571.5 159 Z " />
<glyph glyph-name="Igrave" unicode="&#xcc;" horiz-adv-x="356" d="M181.076 708.516 L108 842.068 C102.189 852.688 83.1056 864 71 864 L57.5434 864 C51.4423 864 44.1547 869.668 46.0431 863.867 C46.6446 862.019 53.5 841.409 64 829 L172.339 706.997 C173.496 705.694 177.261 704.141 179 704.25 C180.999 704.375 182.038 706.759 181.076 708.516 L181.076 708.516 Z M286 9.5 C286 14.2819 281.697 20.9362 277.337 22.8985 L242.227 38.6978 C223.992 46.9035 206 74.7299 206 94.7262 L206 565.274 C206 585.27 223.992 613.096 242.227 621.302 L277.337 637.102 C281.697 639.064 286 645.718 286 650.5 C286 655.744 281.744 660 276.5 660 L79.5 660 C74.2563 660 70 655.744 70 650.5 C70 645.718 74.3026 639.064 78.6633 637.102 L113.773 621.302 C132.008 613.096 150 585.27 150 565.274 L150 94.7262 C150 74.7299 132.008 46.9035 113.773 38.6978 L78.6633 22.8985 C74.3026 20.9362 70 14.2819 70 9.5 C70 4.25628 74.2563 0 79.5 0 L276.5 0 C281.744 0 286 4.25628 286 9.5 L286 9.5 Z " />
<glyph glyph-name="Iacute" unicode="&#xcd;" horiz-adv-x="356" d="M183 705 C184.651 705 188.56 706.757 189.656 707.991 L298 830 C309 843 316 865 316 865 C316 865 309.116 865 304.457 865 L291 865 C278.886 865 259.83 853.688 254.029 843.053 L180.915 709.012 C179.987 707.31 181.062 705 183 705 L183 705 Z M286 9.5 C286 14.2819 281.697 20.9362 277.337 22.8985 L242.227 38.6978 C223.992 46.9035 206 74.7299 206 94.7262 L206 565.274 C206 585.27 223.992 613.096 242.227 621.302 L277.337 637.102 C281.697 639.064 286 645.718 286 650.5 C286 655.744 281.744 660 276.5 660 L79.5 660 C74.2563 660 70 655.744 70 650.5 C70 645.718 74.3026 639.064 78.6633 637.102 L113.773 621.302 C132.008 613.096 150 585.27 150 565.274 L150 94.7262 C150 74.7299 132.008 46.9035 113.773 38.6978 L78.6633 22.8985 C74.3026 20.9362 70 14.2819 70 9.5 C70 4.25628 74.2563 0 79.5 0 L276.5 0 C281.744 0 286 4.25628 286 9.5 L286 9.5 Z " />
<glyph glyph-name="Icircumflex" unicode="&#xce;" horiz-adv-x="356" d="M317 705 L316 706 L317 706 L317 705 L317 705 Z M178 863 C174.114 863 165.815 858.999 163.394 855.959 L46.18 708.738 C45.2387 707.556 45.9886 706 47.5 706 C48.7322 706 52.7466 707.446 53.6957 708.232 L140.264 779.921 C161.224 797.279 196.942 797.482 218.098 780.363 L307.668 707.887 C308.478 707.232 311.958 706 313 706 C314.279 706 314.908 707.329 314.095 708.318 L192.714 856.046 C190.277 859.012 181.838 863 178 863 L178 863 Z M286 9.5 C286 14.2819 281.697 20.9362 277.337 22.8985 L242.227 38.6978 C223.992 46.9035 206 74.7299 206 94.7262 L206 565.274 C206 585.27 223.992 613.096 242.227 621.302 L277.337 637.102 C281.697 639.064 286 645.718 286 650.5 C286 655.744 281.744 660 276.5 660 L79.5 660 C74.2563 660 70 655.744 70 650.5 C70 645.718 74.3026 639.064 78.6633 637.102 L113.773 621.302 C132.008 613.096 150 585.27 150 565.274 L150 94.7262 C150 74.7299 132.008 46.9035 113.773 38.6978 L78.6633 22.8985 C74.3026 20.9362 70 14.2819 70 9.5 C70 4.25628 74.2563 0 79.5 0 L276.5 0 C281.744 0 286 4.25628 286 9.5 L286 9.5 Z " />
<glyph glyph-name="Idieresis" unicode="&#xcf;" horiz-adv-x="356" d="M284 766 C284 808 222 808 222 766 C222 725 284 725 284 766 L284 766 Z M134 766 C134 808 72 808 72 766 C72 725 134 725 134 766 L134 766 Z M286 9.5 C286 14.2819 281.697 20.9362 277.337 22.8985 L242.227 38.6978 C223.992 46.9035 206 74.7299 206 94.7262 L206 565.274 C206 585.27 223.992 613.096 242.227 621.302 L277.337 637.102 C281.697 639.064 286 645.718 286 650.5 C286 655.744 281.744 660 276.5 660 L79.5 660 C74.2563 660 70 655.744 70 650.5 C70 645.718 74.3026 639.064 78.6633 637.102 L113.773 621.302 C132.008 613.096 150 585.27 150 565.274 L150 94.7262 C150 74.7299 132.008 46.9035 113.773 38.6978 L78.6633 22.8985 C74.3026 20.9362 70 14.2819 70 9.5 C70 4.25628 74.2563 0 79.5 0 L276.5 0 C281.744 0 286 4.25628 286 9.5 L286 9.5 Z " />
<glyph glyph-name="Ntilde" unicode="&#xd1;" horiz-adv-x="799" d="M273.977 730.679 C286.719 765.234 301.125 789 345 789 C383 789 435 734 473 734 C524.675 734 544.979 771.074 565.426 827.613 C566.136 829.576 565.087 832 563 832 C560.941 832 558.658 831.035 557.95 829.101 C544.281 791.766 529.9 768 487 768 C449 768 397 822 359 822 C306.35 822 286.021 785.876 266.501 731.239 C265.812 729.313 266.959 727.122 269 727.25 C271.005 727.375 273.282 728.794 273.977 730.679 L273.977 730.679 Z M76.5645 636.889 L108.147 621.729 C125.49 613.405 143 585.578 143 566.34 L143 94.7262 C143 74.7299 125.008 46.9035 106.773 38.6978 L71.6633 22.8985 C67.3026 20.9362 63 14.2819 63 9.5 C63 4.25628 67.2563 0 72.5 0 L277.5 0 C282.744 0 287 4.25628 287 9.5 C287 14.4337 282.704 20.5467 278.062 22.2178 L227.629 40.3735 C206.529 47.9697 187 75.7556 187 98.1817 L187 445.57 C187 486.943 242.245 496.734 267.854 464.239 C391.173 307.763 514.923 151.718 638 -5 C640.815 -8.58475 643.942 -5 648.5 -5 C654.296 -5 659 -0.295685 659 5.5 L659 566.34 C659 585.578 676.51 613.405 693.853 621.729 L725.436 636.889 C729.697 638.935 734 645.773 734 650.5 C734 655.744 729.744 660 724.5 660 L524.5 660 C519.256 660 515 655.744 515 650.5 C515 645.566 519.296 639.453 523.938 637.782 L574.371 619.626 C595.471 612.03 615 584.244 615 561.818 L615 292.712 C615 232.128 542.658 207.117 505.239 254.765 L205.449 636.507 C197.44 646.706 170.096 660 157.129 660 L77.5 660 C72.2563 660 68 655.744 68 650.5 C68 645.773 72.3027 638.935 76.5645 636.889 L76.5645 636.889 Z " />
<glyph glyph-name="Ograve" unicode="&#xd2;" horiz-adv-x="798" d="M387.076 708.516 L314 842.068 C308.189 852.688 289.106 864 277 864 L263.543 864 C257.442 864 250.155 869.668 252.043 863.867 C252.645 862.019 259.5 841.409 270 829 L378.339 706.997 C379.496 705.694 383.261 704.141 385 704.25 C386.999 704.375 388.038 706.759 387.076 708.516 L387.076 708.516 Z M130 353 C130 525 233 639 388 639 C556 639 668 506 668 307 C668 135 566 21 412 21 C243 21 130 154 130 353 L130 353 Z M70 332 C70 127 202 -10 399 -10 C596 -10 728 125 728 328 C728 533 596 670 399 670 C202 670 70 535 70 332 L70 332 Z " />
<glyph glyph-name="Oacute" unicode="&#xd3;" horiz-adv-x="798" d="M389 705 C390.651 705 394.56 706.757 395.656 707.991 L504 830 C515 843 522 865 522 865 C522 865 515.116 865 510.457 865 L497 865 C484.886 865 465.83 853.688 460.029 843.053 L386.915 709.012 C385.987 707.31 387.062 705 389 705 L389 705 Z M130 353 C130 525 233 639 388 639 C556 639 668 506 668 307 C668 135 566 21 412 21 C243 21 130 154 130 353 L130 353 Z M70 332 C70 127 202 -10 399 -10 C596 -10 728 125 728 328 C728 533 596 670 399 670 C202 670 70 535 70 332 L70 332 Z " />
<glyph glyph-name="Ocircumflex" unicode="&#xd4;" horiz-adv-x="798" d="M523 705 L522 706 L523 706 L523 705 L523 705 Z M130 353 C130 525 233 639 388 639 C556 639 668 506 668 307 C668 135 566 21 412 21 C243 21 130 154 130 353 L130 353 Z M70 332 C70 127 202 -10 399 -10 C596 -10 728 125 728 328 C728 533 596 670 399 670 C202 670 70 535 70 332 L70 332 Z M384 863 C380.114 863 371.815 858.999 369.394 855.959 L252.18 708.738 C251.239 707.556 251.989 706 253.5 706 C254.732 706 258.747 707.446 259.696 708.232 L346.264 779.921 C367.224 797.279 402.942 797.482 424.098 780.363 L513.668 707.887 C514.478 707.232 517.958 706 519 706 C520.279 706 520.908 707.329 520.095 708.318 L398.714 856.046 C396.277 859.012 387.838 863 384 863 L384 863 Z " />
<glyph glyph-name="Otilde" unicode="&#xd5;" horiz-adv-x="798" d="M241.977 730.679 C254.719 765.234 269.125 789 313 789 C351 789 403 734 441 734 C492.675 734 512.979 771.074 533.426 827.613 C534.136 829.576 533.087 832 531 832 C528.941 832 526.658 831.035 525.95 829.101 C512.281 791.766 497.9 768 455 768 C417 768 365 822 327 822 C274.35 822 254.021 785.876 234.501 731.239 C233.812 729.313 234.959 727.122 237 727.25 C239.005 727.375 241.282 728.794 241.977 730.679 L241.977 730.679 Z M130 353 C130 525 233 639 388 639 C556 639 668 506 668 307 C668 135 566 21 412 21 C243 21 130 154 130 353 L130 353 Z M70 332 C70 127 202 -10 399 -10 C596 -10 728 125 728 328 C728 533 596 670 399 670 C202 670 70 535 70 332 L70 332 Z " />
<glyph glyph-name="Odieresis" unicode="&#xd6;" horiz-adv-x="798" d="M490 766 C490 808 428 808 428 766 C428 725 490 725 490 766 L490 766 Z M340 766 C340 808 278 808 278 766 C278 725 340 725 340 766 L340 766 Z M130 353 C130 525 233 639 388 639 C556 639 668 506 668 307 C668 135 566 21 412 21 C243 21 130 154 130 353 L130 353 Z M70 332 C70 127 202 -10 399 -10 C596 -10 728 125 728 328 C728 533 596 670 399 670 C202 670 70 535 70 332 L70 332 Z " />
<glyph glyph-name="Oslash" unicode="&#xd8;" horiz-adv-x="798" d="M70 332 C70 248.675 91.78 176.921 130.848 120.667 C141.729 104.999 143.244 70.7354 130.427 56.6071 L84.4461 5.92356 C78.5405 -0.586086 82.7107 -10 91.5 -10 C100.292 -10 121.536 -0.585292 127.441 5.92792 L156.229 37.6794 C168.029 50.6934 197.367 51.3157 212.108 41.7615 C263.617 8.37687 327.225 -10 399 -10 C596 -10 728 125 728 328 C728 411.325 706.22 483.079 667.152 539.333 C656.271 555.001 654.756 589.265 667.573 603.393 L713.554 654.076 C719.46 660.586 715.289 670 706.5 670 C697.708 670 676.464 660.585 670.559 654.072 L641.771 622.321 C629.971 609.307 600.633 608.684 585.892 618.238 C534.383 651.623 470.775 670 399 670 C202 670 70 535 70 332 L70 332 Z M559.265 530.757 L218.746 154.256 C204.553 138.562 184.943 141.205 174.717 159.73 C145.654 212.379 130 277.925 130 353 C130 525 233 639 388 639 C453.175 639 510.523 618.581 555.551 582.236 C573.118 568.057 574.408 547.5 559.265 530.757 L559.265 530.757 Z M621.844 500.27 C650.346 447.621 666 382.075 666 307 C666 135 564 21 410 21 C344 21 286.848 41.4187 241.352 78.3256 C223.527 92.7858 222.823 113.733 238.24 130.738 L578.421 505.99 C592.437 521.451 611.909 518.622 621.844 500.27 L621.844 500.27 Z " />
<glyph glyph-name="Ugrave" unicode="&#xd9;" horiz-adv-x="812" d="M423.076 708.516 L350 842.068 C344.189 852.688 325.106 864 313 864 L299.543 864 C293.442 864 286.155 869.668 288.043 863.867 C288.645 862.019 295.5 841.409 306 829 L414.339 706.997 C415.496 705.694 419.261 704.141 421 704.25 C422.999 704.375 424.038 706.759 423.076 708.516 L423.076 708.516 Z M153 565.274 L153 234 C153 88 256 -10 410 -10 C564 -10 667 88 667 234 L667 565.274 C667 585.27 684.992 613.096 703.227 621.302 L738.337 637.102 C742.697 639.064 747 645.718 747 650.5 C747 655.744 742.744 660 737.5 660 L532.5 660 C527.256 660 523 655.744 523 650.5 C523 645.566 527.296 639.453 531.938 637.782 L582.371 619.626 C603.471 612.03 623 584.244 623 561.818 L623 221 C623 104 545 26 427 26 C296 26 209 113 209 244 L209 565.274 C209 585.27 226.992 613.096 245.227 621.302 L280.337 637.102 C284.697 639.064 289 645.718 289 650.5 C289 655.744 284.744 660 279.5 660 L82.5 660 C77.2563 660 73 655.744 73 650.5 C73 645.718 77.3026 639.064 81.6633 637.102 L116.773 621.302 C135.008 613.096 153 585.27 153 565.274 L153 565.274 Z " />
<glyph glyph-name="Uacute" unicode="&#xda;" horiz-adv-x="812" d="M415 705 C416.651 705 420.56 706.757 421.656 707.991 L530 830 C541 843 548 865 548 865 C548 865 541.116 865 536.457 865 L523 865 C510.886 865 491.83 853.688 486.029 843.053 L412.915 709.012 C411.987 707.31 413.062 705 415 705 L415 705 Z M153 565.274 L153 234 C153 88 256 -10 410 -10 C564 -10 667 88 667 234 L667 565.274 C667 585.27 684.992 613.096 703.227 621.302 L738.337 637.102 C742.697 639.064 747 645.718 747 650.5 C747 655.744 742.744 660 737.5 660 L532.5 660 C527.256 660 523 655.744 523 650.5 C523 645.566 527.296 639.453 531.938 637.782 L582.371 619.626 C603.471 612.03 623 584.244 623 561.818 L623 221 C623 104 545 26 427 26 C296 26 209 113 209 244 L209 565.274 C209 585.27 226.992 613.096 245.227 621.302 L280.337 637.102 C284.697 639.064 289 645.718 289 650.5 C289 655.744 284.744 660 279.5 660 L82.5 660 C77.2563 660 73 655.744 73 650.5 C73 645.718 77.3026 639.064 81.6633 637.102 L116.773 621.302 C135.008 613.096 153 585.27 153 565.274 L153 565.274 Z " />
<glyph glyph-name="Ucircumflex" unicode="&#xdb;" horiz-adv-x="812" d="M559 705 L558 706 L559 706 L559 705 L559 705 Z M420 863 C416.114 863 407.815 858.999 405.394 855.959 L288.18 708.738 C287.239 707.556 287.989 706 289.5 706 C290.732 706 294.747 707.446 295.696 708.232 L382.264 779.921 C403.224 797.279 438.942 797.482 460.098 780.363 L549.668 707.887 C550.478 707.232 553.958 706 555 706 C556.279 706 556.908 707.329 556.095 708.318 L434.714 856.046 C432.277 859.012 423.838 863 420 863 L420 863 Z M153 565.274 L153 234 C153 88 256 -10 410 -10 C564 -10 667 88 667 234 L667 565.274 C667 585.27 684.992 613.096 703.227 621.302 L738.337 637.102 C742.697 639.064 747 645.718 747 650.5 C747 655.744 742.744 660 737.5 660 L532.5 660 C527.256 660 523 655.744 523 650.5 C523 645.566 527.296 639.453 531.938 637.782 L582.371 619.626 C603.471 612.03 623 584.244 623 561.818 L623 221 C623 104 545 26 427 26 C296 26 209 113 209 244 L209 565.274 C209 585.27 226.992 613.096 245.227 621.302 L280.337 637.102 C284.697 639.064 289 645.718 289 650.5 C289 655.744 284.744 660 279.5 660 L82.5 660 C77.2563 660 73 655.744 73 650.5 C73 645.718 77.3026 639.064 81.6633 637.102 L116.773 621.302 C135.008 613.096 153 585.27 153 565.274 L153 565.274 Z " />
<glyph glyph-name="Udieresis" unicode="&#xdc;" horiz-adv-x="812" d="M526 766 C526 808 464 808 464 766 C464 725 526 725 526 766 L526 766 Z M376 766 C376 808 314 808 314 766 C314 725 376 725 376 766 L376 766 Z M153 565.274 L153 234 C153 88 256 -10 410 -10 C564 -10 667 88 667 234 L667 565.274 C667 585.27 684.992 613.096 703.227 621.302 L738.337 637.102 C742.697 639.064 747 645.718 747 650.5 C747 655.744 742.744 660 737.5 660 L532.5 660 C527.256 660 523 655.744 523 650.5 C523 645.566 527.296 639.453 531.938 637.782 L582.371 619.626 C603.471 612.03 623 584.244 623 561.818 L623 221 C623 104 545 26 427 26 C296 26 209 113 209 244 L209 565.274 C209 585.27 226.992 613.096 245.227 621.302 L280.337 637.102 C284.697 639.064 289 645.718 289 650.5 C289 655.744 284.744 660 279.5 660 L82.5 660 C77.2563 660 73 655.744 73 650.5 C73 645.718 77.3026 639.064 81.6633 637.102 L116.773 621.302 C135.008 613.096 153 585.27 153 565.274 L153 565.274 Z " />
<glyph glyph-name="Yacute" unicode="&#xdd;" horiz-adv-x="711" d="M357 705 C358.651 705 362.56 706.757 363.656 707.991 L472 830 C483 843 490 865 490 865 C490 865 483.116 865 478.457 865 L465 865 C452.886 865 433.83 853.688 428.029 843.053 L354.915 709.012 C353.987 707.31 355.062 705 357 705 L357 705 Z M220 660 L41 660 C36.0323 660 32 655.968 32 651 C32 646.557 36.0757 639.962 40.0498 637.975 L83.4439 616.278 C86.4538 614.773 102.526 601.555 104.584 598.892 L321.177 318.595 C325.504 312.994 334 288.106 334 281.028 L334 95.5969 C334 74.2789 315.172 46.4686 295.378 38.5513 L252.821 21.5282 C248.3 19.72 244 13.3687 244 8.5 C244 3.25628 248.256 -1 253.5 -1 L470.5 -1 C475.744 -1 480 3.25628 480 8.5 C480 13.3687 475.7 19.72 471.179 21.5282 L428.622 38.5513 C408.828 46.4686 390 74.2789 390 95.5969 L390 283.219 C390 289.589 397.824 313.892 401.54 319.065 L607.219 605.384 C609.961 609.201 628.041 623.865 632.342 625.761 L669.594 642.177 C672.83 643.603 676 648.464 676 652 C676 655.864 672.864 659 669 659 L499.5 659 C494.256 659 490 654.744 490 649.5 C490 644.773 494.303 637.935 498.564 635.889 L527.5 622 C547.873 612.221 553.881 588.596 540.655 570.272 L420.622 403.976 C395.34 368.951 349.348 367.96 322.581 401.864 L186.565 574.151 C173.757 590.375 178.292 612.217 196.5 622 L221.191 635.267 C225.474 637.568 230 645.138 230 650 C230 655.52 225.52 660 220 660 L220 660 Z " />
<glyph glyph-name="agrave" unicode="&#xe0;" horiz-adv-x="482" d="M240.236 533.59 L166.028 684.564 C160.565 695.678 142.384 707 130 707 L117.5 707 C110.847 707 103.139 713.243 105.039 706.867 C105.616 704.932 112.478 682.391 123 669 L231.504 533.126 C232.581 531.778 236.275 530 238 530 C239.981 530 241.11 531.812 240.236 533.59 L240.236 533.59 Z M119 336 C119 390 163 431 221 431 C290 431 325 393 325 335 L325 296.5 C325 276.699 305.596 253.878 286.404 249.004 C133.718 210.227 55 149.825 55 86 C55 28 100 -10 168 -10 C222.25 -10 274.203 7.60938 311.131 41.4883 C316.326 46.255 328.623 43.509 331.112 36.9121 C342.137 7.69625 366.825 -10 399 -10 C429.4 -10 457.093 10.3062 470.932 38.9155 C470.974 39.0028 470.371 39.3806 470.308 39.3068 C463.308 31.1023 448.273 27 431 27 C397 27 375 44 375 69 L375 348 C375 415 328 460 237 460 C140 460 67 405 67 332 C67 322.833 70.4722 316.444 76.2593 315.148 C77.0595 314.969 83.005 315 83.8251 315 L110.464 315 C111.844 315 115.524 316.524 116.5 317.5 C117.476 318.476 119 322.156 119 323.536 L119 336 L119 336 Z M325 159.779 L325 95.225 C325 82.9223 318.079 66.3915 308.104 59.1896 C279.047 38.2094 238.725 28 195 28 C140 28 103 56 103 98 C103 142.55 154.047 185.398 254.456 217 C295.947 230.058 325 203.276 325 159.779 L325 159.779 Z " />
<glyph glyph-name="aacute" unicode="&#xe1;" horiz-adv-x="482" d="M242 530 C243.725 530 247.419 531.778 248.496 533.126 L357 669 C368 683 375 707 375 707 C375 707 367.675 707 362.5 707 L350 707 C337.616 707 319.435 695.678 313.972 684.564 L239.764 533.59 C238.89 531.812 240.019 530 242 530 L242 530 Z M119 336 C119 390 163 431 221 431 C290 431 325 393 325 335 L325 296.5 C325 276.699 305.596 253.878 286.404 249.004 C133.718 210.227 55 149.825 55 86 C55 28 100 -10 168 -10 C222.25 -10 274.203 7.60938 311.131 41.4883 C316.326 46.255 328.623 43.509 331.112 36.9121 C342.137 7.69625 366.825 -10 399 -10 C429.4 -10 457.093 10.3062 470.932 38.9155 C470.974 39.0028 470.371 39.3806 470.308 39.3068 C463.308 31.1023 448.273 27 431 27 C397 27 375 44 375 69 L375 348 C375 415 328 460 237 460 C140 460 67 405 67 332 C67 322.833 70.4722 316.444 76.2593 315.148 C77.0595 314.969 83.005 315 83.8251 315 L110.464 315 C111.844 315 115.524 316.524 116.5 317.5 C117.476 318.476 119 322.156 119 323.536 L119 336 L119 336 Z M325 159.779 L325 95.225 C325 82.9223 318.079 66.3915 308.104 59.1896 C279.047 38.2094 238.725 28 195 28 C140 28 103 56 103 98 C103 142.55 154.047 185.398 254.456 217 C295.947 230.058 325 203.276 325 159.779 L325 159.779 Z " />
<glyph glyph-name="acircumflex" unicode="&#xe2;" horiz-adv-x="482" d="M373.913 532.81 L251.367 697.775 C248.989 700.976 240.988 705 237 705 C232.958 705 225.118 700.966 222.769 697.676 L105.034 532.848 C104.121 531.569 104.928 530 106.5 530 C107.809 530 111.611 531.485 112.573 532.372 L196.835 610.051 C219.459 630.908 256.737 631.123 279.6 610.528 L366.399 532.342 C367.36 531.477 371.207 530 372.5 530 C374.051 530 374.838 531.565 373.913 532.81 L373.913 532.81 Z M119 336 C119 390 163 431 221 431 C290 431 325 393 325 335 L325 296.5 C325 276.699 305.596 253.878 286.404 249.004 C133.718 210.227 55 149.825 55 86 C55 28 100 -10 168 -10 C222.25 -10 274.203 7.60938 311.131 41.4883 C316.326 46.255 328.623 43.509 331.112 36.9121 C342.137 7.69625 366.825 -10 399 -10 C429.4 -10 457.093 10.3062 470.932 38.9155 C470.974 39.0028 470.371 39.3806 470.308 39.3068 C463.308 31.1023 448.273 27 431 27 C397 27 375 44 375 69 L375 348 C375 415 328 460 237 460 C140 460 67 405 67 332 C67 322.833 70.4722 316.444 76.2593 315.148 C77.0595 314.969 83.005 315 83.8251 315 L110.464 315 C111.844 315 115.524 316.524 116.5 317.5 C117.476 318.476 119 322.156 119 323.536 L119 336 L119 336 Z M325 159.779 L325 95.225 C325 82.9223 318.079 66.3915 308.104 59.1896 C279.047 38.2094 238.725 28 195 28 C140 28 103 56 103 98 C103 142.55 154.047 185.398 254.456 217 C295.947 230.058 325 203.276 325 159.779 L325 159.779 Z " />
<glyph glyph-name="atilde" unicode="&#xe3;" horiz-adv-x="482" d="M79.9773 558.05 C92.7194 597.382 107.125 624 151 624 C189 624 241 563 279 563 C330.675 563 350.979 603.877 371.426 666.167 C372.084 668.17 371.108 671 369 671 C366.917 671 364.606 669.78 363.95 667.803 C350.281 626.617 335.9 600 293 600 C255 600 203 660 165 660 C112.35 660 92.0212 620.074 72.5005 559.685 C71.8508 557.675 72.8875 555 75 555 C77.0867 555 79.3342 556.065 79.9773 558.05 L79.9773 558.05 Z M119 336 C119 390 163 431 221 431 C290 431 325 393 325 335 L325 296.5 C325 276.699 305.596 253.878 286.404 249.004 C133.718 210.227 55 149.825 55 86 C55 28 100 -10 168 -10 C222.25 -10 274.203 7.60938 311.131 41.4883 C316.326 46.255 328.623 43.509 331.112 36.9121 C342.137 7.69625 366.825 -10 399 -10 C429.4 -10 457.093 10.3062 470.932 38.9155 C470.974 39.0028 470.371 39.3806 470.308 39.3068 C463.308 31.1023 448.273 27 431 27 C397 27 375 44 375 69 L375 348 C375 415 328 460 237 460 C140 460 67 405 67 332 C67 322.833 70.4722 316.444 76.2593 315.148 C77.0595 314.969 83.005 315 83.8251 315 L110.464 315 C111.844 315 115.524 316.524 116.5 317.5 C117.476 318.476 119 322.156 119 323.536 L119 336 L119 336 Z M325 159.779 L325 95.225 C325 82.9223 318.079 66.3915 308.104 59.1896 C279.047 38.2094 238.725 28 195 28 C140 28 103 56 103 98 C103 142.55 154.047 185.398 254.456 217 C295.947 230.058 325 203.276 325 159.779 L325 159.779 Z " />
<glyph glyph-name="adieresis" unicode="&#xe4;" horiz-adv-x="482" d="M328 601 C328 643 266 643 266 601 C266 560 328 560 328 601 L328 601 Z M178 601 C178 643 116 643 116 601 C116 560 178 560 178 601 L178 601 Z M119 336 C119 390 163 431 221 431 C290 431 325 393 325 335 L325 296.5 C325 276.699 305.596 253.878 286.404 249.004 C133.718 210.227 55 149.825 55 86 C55 28 100 -10 168 -10 C222.25 -10 274.203 7.60938 311.131 41.4883 C316.326 46.255 328.623 43.509 331.112 36.9121 C342.137 7.69625 366.825 -10 399 -10 C429.4 -10 457.093 10.3062 470.932 38.9155 C470.974 39.0028 470.371 39.3806 470.308 39.3068 C463.308 31.1023 448.273 27 431 27 C397 27 375 44 375 69 L375 348 C375 415 328 460 237 460 C140 460 67 405 67 332 C67 322.833 70.4722 316.444 76.2593 315.148 C77.0595 314.969 83.005 315 83.8251 315 L110.464 315 C111.844 315 115.524 316.524 116.5 317.5 C117.476 318.476 119 322.156 119 323.536 L119 336 L119 336 Z M325 159.779 L325 95.225 C325 82.9223 318.079 66.3915 308.104 59.1896 C279.047 38.2094 238.725 28 195 28 C140 28 103 56 103 98 C103 142.55 154.047 185.398 254.456 217 C295.947 230.058 325 203.276 325 159.779 L325 159.779 Z " />
<glyph glyph-name="aring" unicode="&#xe5;" horiz-adv-x="482" d="M177 618 C177 653 197 676 226 676 C257 676 277 649 277 609 C277 577 255 550 230 550 C201 550 177 581 177 618 L177 618 Z M146 613 C146 571 183 535 227 535 C271 535 308 571 308 614 C308 660 276 691 227 691 C178 691 146 660 146 613 L146 613 Z M119 336 C119 390 163 431 221 431 C290 431 325 393 325 335 L325 296.5 C325 276.699 305.596 253.878 286.404 249.004 C133.718 210.227 55 149.825 55 86 C55 28 100 -10 168 -10 C222.25 -10 274.203 7.60938 311.131 41.4883 C316.326 46.255 328.623 43.509 331.112 36.9121 C342.137 7.69625 366.825 -10 399 -10 C429.4 -10 457.093 10.3062 470.932 38.9155 C470.974 39.0028 470.371 39.3806 470.308 39.3068 C463.308 31.1023 448.273 27 431 27 C397 27 375 44 375 69 L375 348 C375 415 328 460 237 460 C140 460 67 405 67 332 C67 322.833 70.4722 316.444 76.2593 315.148 C77.0595 314.969 83.005 315 83.8251 315 L110.464 315 C111.844 315 115.524 316.524 116.5 317.5 C117.476 318.476 119 322.156 119 323.536 L119 336 L119 336 Z M325 159.779 L325 95.225 C325 82.9223 318.079 66.3915 308.104 59.1896 C279.047 38.2094 238.725 28 195 28 C140 28 103 56 103 98 C103 142.55 154.047 185.398 254.456 217 C295.947 230.058 325 203.276 325 159.779 L325 159.779 Z " />
<glyph glyph-name="ccedilla" unicode="&#xe7;" horiz-adv-x="477" d="M425.824 98.1727 C384.208 61.7162 329.925 37 288 37 C175 37 99 117 99 237 C99 355 163 434 260 434 C302 434 346 414 368 383 L393.721 350.183 C395.499 347.915 398.602 347.831 400.5 350 L404 354 L431.25 382.563 C430.25 386.563 423 397 413 410 C391 440 338 460 280 460 C141 460 49 360 49 209 C49 83.225 126.001 -2.62375 243.854 -9.61816 C247.165 -9.81462 251.735 -12.986 250.391 -16.0176 C243.069 -32.5305 225.537 -70.2278 202.289 -120.687 C200.014 -125.626 202.031 -131.792 207 -134 L212.549 -136.466 C212.75 -136.555 219.21 -138.992 219.42 -139.057 C263.481 -152.897 292 -170.35 292 -184 C292 -207 276 -223 253 -223 C222.75 -223 195.021 -217.958 181.366 -210.186 C180.112 -209.472 178 -210.056 178 -211.5 C178 -213.195 179.7 -216.26 181.103 -217.212 C201.39 -230.975 233.5 -240 262 -240 C302 -240 329 -214 329 -174 C329 -152.55 303.136 -128.378 261.516 -110.467 C247.669 -104.508 239.339 -86.0856 245.588 -72.3677 L260.676 -39.2483 C265.2 -29.3169 296.754 -6.74305 307.266 -3.812 C357.22 10.116 402.758 44.012 429.544 89.684 C430.209 90.818 431.546 95.969 431.25 97.25 C430.892 98.802 427.022 99.2223 425.824 98.1727 L425.824 98.1727 Z " />
<glyph glyph-name="egrave" unicode="&#xe8;" horiz-adv-x="483" d="M254.456 533.141 L180.028 684.564 C174.565 695.678 156.384 707 144 707 L131.981 707 C125.049 707 117.13 713.525 119.039 706.861 C119.616 704.849 126.478 681.435 137 669 L246.804 532.725 C247.748 531.554 250.996 530 252.5 530 C254.234 530 255.221 531.585 254.456 533.141 L254.456 533.141 Z M110.797 321.003 C132.335 390.801 182 433 248 433 C310.7 433 358.426 390.121 377.702 320.646 C386.084 290.436 368.686 273 337.335 273 L150.308 273 C118.801 273 101.507 290.897 110.797 321.003 L110.797 321.003 Z M428 101 C386 63 330 37 287 37 C192.125 37 123.794 93.4919 104.469 182.892 C95.7893 223.043 117.893 244 158.972 244 L406.83 244 C407.141 244 414.823 244.521 415.132 244.563 L422 245.5 C428.204 246.346 433.042 250.26 432.871 256.519 C429.529 379.197 361.425 460 261 460 C134 460 50 360 50 209 C50 78 134 -10 261 -10 C328.275 -10 395.55 29.9262 430.385 90.3147 C430.823 91.0743 433 97.123 433 98 L433 101 L428 101 L428 101 Z " />
<glyph glyph-name="eacute" unicode="&#xe9;" horiz-adv-x="483" d="M256.5 530 C258.004 530 261.252 531.554 262.196 532.725 L372 669 C383 682 390 707 390 707 C390 707 382.454 707 377.019 707 L365 707 C352.616 707 334.435 695.678 328.972 684.564 L254.544 533.141 C253.779 531.585 254.766 530 256.5 530 L256.5 530 Z M110.797 321.003 C132.335 390.801 182 433 248 433 C310.7 433 358.426 390.121 377.702 320.646 C386.084 290.436 368.686 273 337.335 273 L150.308 273 C118.801 273 101.507 290.897 110.797 321.003 L110.797 321.003 Z M428 101 C386 63 330 37 287 37 C192.125 37 123.794 93.4919 104.469 182.892 C95.7893 223.043 117.893 244 158.972 244 L406.83 244 C407.141 244 414.823 244.521 415.132 244.563 L422 245.5 C428.204 246.346 433.042 250.26 432.871 256.519 C429.529 379.197 361.425 460 261 460 C134 460 50 360 50 209 C50 78 134 -10 261 -10 C328.275 -10 395.55 29.9262 430.385 90.3147 C430.823 91.0743 433 97.123 433 98 L433 101 L428 101 L428 101 Z " />
<glyph glyph-name="ecircumflex" unicode="&#xea;" horiz-adv-x="483" d="M388.615 533.211 L266.665 697.374 C264.155 700.753 255.709 705 251.5 705 C247.233 705 238.958 700.742 236.478 697.27 L119.325 533.255 C118.281 531.793 119.203 530 121 530 C122.503 530 126.829 531.7 127.93 532.723 L210.822 609.741 C233.462 630.775 270.802 631.064 293.763 610.381 L380.028 532.677 C381.126 531.688 385.522 530 387 530 C388.772 530 389.672 531.788 388.615 533.211 L388.615 533.211 Z M110.797 321.003 C132.335 390.801 182 433 248 433 C310.7 433 358.426 390.121 377.702 320.646 C386.084 290.436 368.686 273 337.335 273 L150.308 273 C118.801 273 101.507 290.897 110.797 321.003 L110.797 321.003 Z M428 101 C386 63 330 37 287 37 C192.125 37 123.794 93.4919 104.469 182.892 C95.7893 223.043 117.893 244 158.972 244 L406.83 244 C407.141 244 414.823 244.521 415.132 244.563 L422 245.5 C428.204 246.346 433.042 250.26 432.871 256.519 C429.529 379.197 361.425 460 261 460 C134 460 50 360 50 209 C50 78 134 -10 261 -10 C328.275 -10 395.55 29.9262 430.385 90.3147 C430.823 91.0743 433 97.123 433 98 L433 101 L428 101 L428 101 Z " />
<glyph glyph-name="edieresis" unicode="&#xeb;" horiz-adv-x="483" d="M358 601 C358 643 295 642 295 601 C295 561 358 560 358 601 L358 601 Z M208 601 C208 643 145 642 145 601 C145 561 208 560 208 601 L208 601 Z M110.797 321.003 C132.335 390.801 182 433 248 433 C310.7 433 358.426 390.121 377.702 320.646 C386.084 290.436 368.686 273 337.335 273 L150.308 273 C118.801 273 101.507 290.897 110.797 321.003 L110.797 321.003 Z M428 101 C386 63 330 37 287 37 C192.125 37 123.794 93.4919 104.469 182.892 C95.7893 223.043 117.893 244 158.972 244 L406.83 244 C407.141 244 414.823 244.521 415.132 244.563 L422 245.5 C428.204 246.346 433.042 250.26 432.871 256.519 C429.529 379.197 361.425 460 261 460 C134 460 50 360 50 209 C50 78 134 -10 261 -10 C328.275 -10 395.55 29.9262 430.385 90.3147 C430.823 91.0743 433 97.123 433 98 L433 101 L428 101 L428 101 Z " />
<glyph glyph-name="igrave" unicode="&#xec;" horiz-adv-x="287" d="M142.236 533.59 L68.028 684.564 C62.5651 695.678 44.3841 707 32 707 L19.5 707 C12.8468 707 5.13862 713.243 7.03945 706.867 C7.61626 704.932 14.4783 682.391 25 669 L133.504 533.126 C134.581 531.778 138.275 530 140 530 C141.981 530 143.11 531.812 142.236 533.59 L142.236 533.59 Z M234 9 C234 13.4569 229.924 20.0066 225.925 21.9752 L201.5 34 C185.406 41.9234 169 68.286 169 86.225 L169 455 C169 457.76 166.76 460 164 460 C162.996 460 155.278 458.546 154.342 458.181 L56.7945 420.091 C55.3577 419.53 54 417.542 54 416 C54 414.739 55.3243 411.873 56.2846 411.056 L101 373 C112 364 119 357 119 357 C119 357 119 358.646 119 352.05 L119 86.225 C119 68.286 102.594 41.9234 86.5 34 L62.0745 21.9752 C58.0759 20.0066 54 13.4569 54 9 C54 4.03227 58.0323 0 63 0 L225 0 C229.968 0 234 4.03227 234 9 L234 9 Z " />
<glyph glyph-name="iacute" unicode="&#xed;" horiz-adv-x="287" d="M144 530 C145.725 530 149.419 531.778 150.496 533.126 L259 669 C270 683 277 707 277 707 C277 707 269.675 707 264.5 707 L252 707 C239.616 707 221.435 695.678 215.972 684.564 L141.764 533.59 C140.89 531.812 142.019 530 144 530 L144 530 Z M234 9 C234 13.4569 229.924 20.0066 225.925 21.9752 L201.5 34 C185.406 41.9234 169 68.286 169 86.225 L169 455 C169 457.76 166.76 460 164 460 C162.996 460 155.278 458.546 154.342 458.181 L56.7945 420.091 C55.3577 419.53 54 417.542 54 416 C54 414.739 55.3243 411.873 56.2846 411.056 L101 373 C112 364 119 357 119 357 C119 357 119 358.646 119 352.05 L119 86.225 C119 68.286 102.594 41.9234 86.5 34 L62.0745 21.9752 C58.0759 20.0066 54 13.4569 54 9 C54 4.03227 58.0323 0 63 0 L225 0 C229.968 0 234 4.03227 234 9 L234 9 Z " />
<glyph glyph-name="icircumflex" unicode="&#xee;" horiz-adv-x="287" d="M275.913 532.81 L153.367 697.775 C150.989 700.976 142.988 705 139 705 C134.958 705 127.118 700.966 124.769 697.676 L7.03433 532.848 C6.1206 531.569 6.92795 530 8.5 530 C9.80944 530 13.6106 531.485 14.5734 532.372 L98.8351 610.051 C121.459 630.908 158.737 631.123 181.6 610.528 L268.399 532.342 C269.36 531.477 273.207 530 274.5 530 C276.051 530 276.838 531.565 275.913 532.81 L275.913 532.81 Z M234 9 C234 13.4569 229.924 20.0066 225.925 21.9752 L201.5 34 C185.406 41.9234 169 68.286 169 86.225 L169 455 C169 457.76 166.76 460 164 460 C162.996 460 155.278 458.546 154.342 458.181 L56.7945 420.091 C55.3577 419.53 54 417.542 54 416 C54 414.739 55.3243 411.873 56.2846 411.056 L101 373 C112 364 119 357 119 357 C119 357 119 358.646 119 352.05 L119 86.225 C119 68.286 102.594 41.9234 86.5 34 L62.0745 21.9752 C58.0759 20.0066 54 13.4569 54 9 C54 4.03227 58.0323 0 63 0 L225 0 C229.968 0 234 4.03227 234 9 L234 9 Z " />
<glyph glyph-name="idieresis" unicode="&#xef;" horiz-adv-x="287" d="M245 601 C245 643 183 643 183 601 C183 560 245 560 245 601 L245 601 Z M95 601 C95 643 33 643 33 601 C33 560 95 560 95 601 L95 601 Z M234 9 C234 13.4569 229.924 20.0066 225.925 21.9752 L201.5 34 C185.406 41.9234 169 68.286 169 86.225 L169 455 C169 457.76 166.76 460 164 460 C162.996 460 155.278 458.546 154.342 458.181 L56.7945 420.091 C55.3577 419.53 54 417.542 54 416 C54 414.739 55.3243 411.873 56.2846 411.056 L101 373 C112 364 119 357 119 357 C119 357 119 358.646 119 352.05 L119 86.225 C119 68.286 102.594 41.9234 86.5 34 L62.0745 21.9752 C58.0759 20.0066 54 13.4569 54 9 C54 4.03227 58.0323 0 63 0 L225 0 C229.968 0 234 4.03227 234 9 L234 9 Z " />
<glyph glyph-name="ntilde" unicode="&#xf1;" horiz-adv-x="583" d="M154.977 558.05 C167.719 597.382 182.1 624 225 624 C263 624 315 563 353 563 C405.65 563 425.979 603.877 446.426 666.167 C447.166 668.42 445.872 671 443.5 671 C441.157 671 438.688 670.027 437.95 667.803 C424.282 626.617 409.925 600 368 600 C330 600 278 660 240 660 C186.375 660 166.022 620.074 146.501 559.685 C145.77 557.424 147.123 555 149.5 555 C151.848 555 154.254 555.817 154.977 558.05 L154.977 558.05 Z M543 9 C543 13.4569 538.924 20.0066 534.925 21.9752 L510.5 34 C494.406 41.9234 478 68.286 478 86.225 L478 343 C478 413 420 460 332 460 C267 460 213 427 165 377 C164.269 376.239 164.855 378.45 164.75 379.5 L164.5 382 L162.16 455.003 C162.072 457.76 159.758 460 157 460 C155.971 460 148.316 458.519 147.361 458.135 L52.7835 420.119 C51.358 419.546 50 417.536 50 416 C50 414.739 51.3243 411.873 52.2846 411.056 L97 373 C108 364 115 357 115 357 C115 357 115 358.646 115 352.05 L115 86.225 C115 68.286 98.5944 41.9234 82.5 34 L58.0745 21.9752 C54.0759 20.0066 50 13.4569 50 9 C50 4.03227 54.0323 0 59 0 L226 0 C230.968 0 235 4.03227 235 9 C235 13.518 230.924 19.8634 226.815 21.7418 L200 34 C182.43 42.032 165 69.1648 165 88.4838 L165 333.602 C165 345.937 174.211 367.463 183.806 375.214 C214.921 400.346 253.675 416 304 416 C378 416 428 375 428 314 L428 88.4838 C428 69.1648 410.57 42.032 393 34 L366.185 21.7418 C362.076 19.8634 358 13.518 358 9 C358 4.03227 362.032 0 367 0 L534 0 C538.968 0 543 4.03227 543 9 L543 9 Z " />
<glyph glyph-name="ograve" unicode="&#xf2;" horiz-adv-x="529" d="M267.456 533.141 L193.028 684.564 C187.565 695.678 169.384 707 157 707 L144.981 707 C138.049 707 130.13 713.525 132.039 706.861 C132.616 704.849 139.478 681.435 150 669 L259.804 532.725 C260.748 531.554 263.996 530 265.5 530 C267.234 530 268.221 531.585 267.456 533.141 L267.456 533.141 Z M108 225 C108 350 158 434 256 434 C356 434 422 350 422 225 C422 100 371 16 273 16 C174 16 108 100 108 225 L108 225 Z M50 225 C50 84 136 -10 265 -10 C406 -10 479 84 479 225 C479 366 393 460 265 460 C123 460 50 366 50 225 L50 225 Z " />
<glyph glyph-name="oacute" unicode="&#xf3;" horiz-adv-x="529" d="M269.5 530 C271.004 530 274.252 531.554 275.196 532.725 L385 669 C396 682 403 707 403 707 C403 707 395.454 707 390.019 707 L378 707 C365.616 707 347.435 695.678 341.972 684.564 L267.544 533.141 C266.779 531.585 267.766 530 269.5 530 L269.5 530 Z M108 225 C108 350 158 434 256 434 C356 434 422 350 422 225 C422 100 371 16 273 16 C174 16 108 100 108 225 L108 225 Z M50 225 C50 84 136 -10 265 -10 C406 -10 479 84 479 225 C479 366 393 460 265 460 C123 460 50 366 50 225 L50 225 Z " />
<glyph glyph-name="ocircumflex" unicode="&#xf4;" horiz-adv-x="529" d="M401.615 533.211 L279.665 697.374 C277.155 700.753 268.709 705 264.5 705 C260.233 705 251.958 700.742 249.478 697.27 L132.325 533.255 C131.281 531.793 132.203 530 134 530 C135.503 530 139.829 531.7 140.93 532.723 L223.822 609.741 C246.462 630.775 283.802 631.064 306.763 610.381 L393.028 532.677 C394.126 531.688 398.522 530 400 530 C401.772 530 402.672 531.788 401.615 533.211 L401.615 533.211 Z M108 225 C108 350 158 434 256 434 C356 434 422 350 422 225 C422 100 371 16 273 16 C174 16 108 100 108 225 L108 225 Z M50 225 C50 84 136 -10 265 -10 C406 -10 479 84 479 225 C479 366 393 460 265 460 C123 460 50 366 50 225 L50 225 Z " />
<glyph glyph-name="otilde" unicode="&#xf5;" horiz-adv-x="529" d="M122.977 558.05 C135.719 597.382 150.1 624 193 624 C231 624 283 563 321 563 C373.65 563 393.979 603.877 414.426 666.167 C415.166 668.42 413.872 671 411.5 671 C409.157 671 406.688 670.027 405.95 667.803 C392.282 626.617 377.925 600 336 600 C298 600 246 660 208 660 C154.375 660 134.022 620.074 114.501 559.685 C113.77 557.424 115.123 555 117.5 555 C119.848 555 122.254 555.817 122.977 558.05 L122.977 558.05 Z M108 225 C108 350 158 434 256 434 C356 434 422 350 422 225 C422 100 371 16 273 16 C174 16 108 100 108 225 L108 225 Z M50 225 C50 84 136 -10 265 -10 C406 -10 479 84 479 225 C479 366 393 460 265 460 C123 460 50 366 50 225 L50 225 Z " />
<glyph glyph-name="odieresis" unicode="&#xf6;" horiz-adv-x="529" d="M371 601 C371 643 308 642 308 601 C308 561 371 560 371 601 L371 601 Z M221 601 C221 643 158 642 158 601 C158 561 221 560 221 601 L221 601 Z M108 225 C108 350 158 434 256 434 C356 434 422 350 422 225 C422 100 371 16 273 16 C174 16 108 100 108 225 L108 225 Z M50 225 C50 84 136 -10 265 -10 C406 -10 479 84 479 225 C479 366 393 460 265 460 C123 460 50 366 50 225 L50 225 Z " />
<glyph glyph-name="oslash" unicode="&#xf8;" horiz-adv-x="529" d="M50 225 C50 168.075 63.6125 119.318 88.5914 80.9736 C95.3589 70.5851 96.539 46.5117 88.6573 36.941 L63.032 5.82457 C57.4793 -0.918 61.7653 -10 70.5 -10 C79.2237 -10 98.5001 -0.920946 104.056 5.80472 L114.279 18.1801 C121.381 26.7765 139.321 27.8446 148.808 21.9855 C181.345 1.89 220.45 -9 265 -9 C406 -9 479 85 479 226 C479 282.925 465.387 332.363 440.409 370.945 C433.696 381.313 432.491 405.525 440.343 415.059 L465.968 446.175 C471.521 452.918 467.235 462 458.5 462 C449.776 462 430.5 452.921 424.944 446.195 L414.721 433.82 C407.617 425.22 389.686 424.15 380.197 430.015 C347.686 450.11 308.725 461 265 461 C123 461 50 366.5 50 225.5 L50 225 Z M358.755 364.785 L150.415 113.004 C143.586 104.751 133.015 106.91 128.776 116.747 C115.487 147.584 108 184.75 108 226 C108 351 158 435 256 435 C295.6 435 329.755 422.068 356.78 398.45 C367.537 389.051 367.862 375.791 358.755 364.785 L358.755 364.785 Z M401.662 336.247 C415.513 305.386 423 268.075 423 226 C423 101 372 17 274 17 C234.4 17 200.245 29.9319 173.22 53.5496 C162.464 62.9492 162.127 76.2183 171.215 87.2392 L379.453 339.783 C386.449 348.268 397.159 346.281 401.662 336.247 L401.662 336.247 Z " />
<glyph glyph-name="ugrave" unicode="&#xf9;" horiz-adv-x="545" d="M270.456 533.141 L196.028 684.564 C190.565 695.678 172.384 707 160 707 L147.981 707 C141.049 707 133.13 713.525 135.039 706.861 C135.616 704.849 142.478 681.435 153 669 L262.804 532.725 C263.748 531.554 266.996 530 268.5 530 C270.234 530 271.221 531.585 270.456 533.141 L270.456 533.141 Z M404 361.516 L404 123.31 C404 110.01 394.654 88.0481 384.093 79.9641 C345.535 50.45 302.1 36 263 36 C190 36 141 76 141 137 L141 392.5 C141 424.238 115.238 450 83.5 450 L35 450 C30.0323 450 26 445.968 26 441 C26 436.543 30.0759 429.993 34.0745 428.025 L58.5 416 C74.5944 408.077 91 381.714 91 363.775 L91 107 C91 37 148 -10 234 -10 C275.65 -10 326.693 10.9525 377.301 52.8575 C388.54 62.163 404 53.0908 404 38.5 C404 17.2492 421.249 0 442.5 0 L515 0 C519.968 0 524 4.03227 524 9 C524 13.518 519.924 19.8634 515.815 21.7418 L489 34 C471.43 42.032 454 69.1648 454 88.4838 L454 390 C454 423.118 427.118 450 394 450 L343 450 C338.032 450 334 445.968 334 441 C334 436.482 338.076 430.137 342.185 428.258 L369 416 C386.57 407.968 404 380.835 404 361.516 L404 361.516 Z " />
<glyph glyph-name="uacute" unicode="&#xfa;" horiz-adv-x="545" d="M272.5 530 C274.004 530 277.252 531.554 278.196 532.725 L388 669 C399 682 406 707 406 707 C406 707 398.454 707 393.019 707 L381 707 C368.616 707 350.435 695.678 344.972 684.564 L270.544 533.141 C269.779 531.585 270.766 530 272.5 530 L272.5 530 Z M404 361.516 L404 123.31 C404 110.01 394.654 88.0481 384.093 79.9641 C345.535 50.45 302.1 36 263 36 C190 36 141 76 141 137 L141 392.5 C141 424.238 115.238 450 83.5 450 L35 450 C30.0323 450 26 445.968 26 441 C26 436.543 30.0759 429.993 34.0745 428.025 L58.5 416 C74.5944 408.077 91 381.714 91 363.775 L91 107 C91 37 148 -10 234 -10 C275.65 -10 326.693 10.9525 377.301 52.8575 C388.54 62.163 404 53.0908 404 38.5 C404 17.2492 421.249 0 442.5 0 L515 0 C519.968 0 524 4.03227 524 9 C524 13.518 519.924 19.8634 515.815 21.7418 L489 34 C471.43 42.032 454 69.1648 454 88.4838 L454 390 C454 423.118 427.118 450 394 450 L343 450 C338.032 450 334 445.968 334 441 C334 436.482 338.076 430.137 342.185 428.258 L369 416 C386.57 407.968 404 380.835 404 361.516 L404 361.516 Z " />
<glyph glyph-name="ucircumflex" unicode="&#xfb;" horiz-adv-x="545" d="M404.615 533.211 L282.665 697.374 C280.155 700.753 271.709 705 267.5 705 C263.233 705 254.958 700.742 252.478 697.27 L135.325 533.255 C134.281 531.793 135.203 530 137 530 C138.503 530 142.829 531.7 143.93 532.723 L226.822 609.741 C249.462 630.775 286.802 631.064 309.763 610.381 L396.028 532.677 C397.126 531.688 401.522 530 403 530 C404.772 530 405.672 531.788 404.615 533.211 L404.615 533.211 Z M404 361.516 L404 123.31 C404 110.01 394.654 88.0481 384.093 79.9641 C345.535 50.45 302.1 36 263 36 C190 36 141 76 141 137 L141 392.5 C141 424.238 115.238 450 83.5 450 L35 450 C30.0323 450 26 445.968 26 441 C26 436.543 30.0759 429.993 34.0745 428.025 L58.5 416 C74.5944 408.077 91 381.714 91 363.775 L91 107 C91 37 148 -10 234 -10 C275.65 -10 326.693 10.9525 377.301 52.8575 C388.54 62.163 404 53.0908 404 38.5 C404 17.2492 421.249 0 442.5 0 L515 0 C519.968 0 524 4.03227 524 9 C524 13.518 519.924 19.8634 515.815 21.7418 L489 34 C471.43 42.032 454 69.1648 454 88.4838 L454 390 C454 423.118 427.118 450 394 450 L343 450 C338.032 450 334 445.968 334 441 C334 436.482 338.076 430.137 342.185 428.258 L369 416 C386.57 407.968 404 380.835 404 361.516 L404 361.516 Z " />
<glyph glyph-name="udieresis" unicode="&#xfc;" horiz-adv-x="545" d="M374 601 C374 643 311 642 311 601 C311 561 374 560 374 601 L374 601 Z M224 601 C224 643 161 642 161 601 C161 561 224 560 224 601 L224 601 Z M404 361.516 L404 123.31 C404 110.01 394.654 88.0481 384.093 79.9641 C345.535 50.45 302.1 36 263 36 C190 36 141 76 141 137 L141 392.5 C141 424.238 115.238 450 83.5 450 L35 450 C30.0323 450 26 445.968 26 441 C26 436.543 30.0759 429.993 34.0745 428.025 L58.5 416 C74.5944 408.077 91 381.714 91 363.775 L91 107 C91 37 148 -10 234 -10 C275.65 -10 326.693 10.9525 377.301 52.8575 C388.54 62.163 404 53.0908 404 38.5 C404 17.2492 421.249 0 442.5 0 L515 0 C519.968 0 524 4.03227 524 9 C524 13.518 519.924 19.8634 515.815 21.7418 L489 34 C471.43 42.032 454 69.1648 454 88.4838 L454 390 C454 423.118 427.118 450 394 450 L343 450 C338.032 450 334 445.968 334 441 C334 436.482 338.076 430.137 342.185 428.258 L369 416 C386.57 407.968 404 380.835 404 361.516 L404 361.516 Z " />
<glyph glyph-name="yacute" unicode="&#xfd;" horiz-adv-x="474" d="M252.5 530 C254.004 530 257.252 531.554 258.196 532.725 L368 669 C379 682 386 707 386 707 C386 707 378.454 707 373.019 707 L361 707 C348.616 707 330.435 695.678 324.972 684.564 L250.544 533.141 C249.779 531.585 250.766 530 252.5 530 L252.5 530 Z M329.626 427.019 L360 413 C381.503 403.075 391.752 377.145 382.845 355.2 L207 -78 C176 -157 143 -188 91 -188 L67.8284 -188 C66.7245 -188 63.7806 -189.219 63 -190 C62.2194 -190.781 61 -193.724 61 -194.828 L61 -222 C61 -235 67 -240 82 -240 C145 -240 187 -197 230 -87 C291.75 65.95 353.5 218.9 415.25 370.993 C418.521 379.049 438.361 401.5 446.179 405.304 L490.457 426.844 C494.697 428.907 499 435.785 499 440.5 C499 445.744 494.744 450 489.5 450 L330.5 450 C325.256 450 321 445.744 321 440.5 C321 435.739 325.303 429.014 329.626 427.019 L329.626 427.019 Z M179 450 L-15 450 C-19.9677 450 -24 445.968 -24 441 C-24 436.471 -19.9239 430.163 -15.7949 428.302 L26.8759 409.07 C33.945 405.884 53.3256 387.153 56.7508 380.197 L226.235 35.9873 C232.308 23.6528 248.358 24.249 253.5 37 L255.793 42.6878 C259.993 53.1015 258.751 82.8874 253.818 92.9746 C210.401 181.77 165.943 270.518 123.006 358.705 C112.035 381.237 122.046 407.17 145.5 416 L179.577 428.829 C183.928 430.467 188 436.351 188 441 C188 445.968 183.968 450 179 450 L179 450 Z " />
<glyph glyph-name="ydieresis" unicode="&#xff;" horiz-adv-x="474" d="M354 601 C354 643 291 642 291 601 C291 561 354 560 354 601 L354 601 Z M204 601 C204 643 141 642 141 601 C141 561 204 560 204 601 L204 601 Z M329.626 427.019 L360 413 C381.503 403.075 391.752 377.145 382.845 355.2 L207 -78 C176 -157 143 -188 91 -188 L67.8284 -188 C66.7245 -188 63.7806 -189.219 63 -190 C62.2194 -190.781 61 -193.724 61 -194.828 L61 -222 C61 -235 67 -240 82 -240 C145 -240 187 -197 230 -87 C291.75 65.95 353.5 218.9 415.25 370.993 C418.521 379.049 438.361 401.5 446.179 405.304 L490.457 426.844 C494.697 428.907 499 435.785 499 440.5 C499 445.744 494.744 450 489.5 450 L330.5 450 C325.256 450 321 445.744 321 440.5 C321 435.739 325.303 429.014 329.626 427.019 L329.626 427.019 Z M179 450 L-15 450 C-19.9677 450 -24 445.968 -24 441 C-24 436.471 -19.9239 430.163 -15.7949 428.302 L26.8759 409.07 C33.945 405.884 53.3256 387.153 56.7508 380.197 L226.235 35.9873 C232.308 23.6528 248.358 24.249 253.5 37 L255.793 42.6878 C259.993 53.1015 258.751 82.8874 253.818 92.9746 C210.401 181.77 165.943 270.518 123.006 358.705 C112.035 381.237 122.046 407.17 145.5 416 L179.577 428.829 C183.928 430.467 188 436.351 188 441 C188 445.968 183.968 450 179 450 L179 450 Z " />
<glyph glyph-name="Amacron" unicode="&#x100;" horiz-adv-x="739" d="M246.5 767 L481.5 767 C490.056 767 497 773.944 497 782.5 C497 791.056 490.056 798 481.5 798 L246.5 798 C237.944 798 231 791.056 231 782.5 C231 773.944 237.944 767 246.5 767 L246.5 767 Z M209.179 21.5282 L178 34 C155.921 42.8317 129.192 28.2143 138.105 50.2608 C140.41 55.9606 179.961 153.783 205.662 216.825 C211.524 231.203 232.743 246.974 248.27 246.946 L472.577 246.544 C485.058 246.521 501.167 236.611 505.979 225.094 C530.766 165.758 579 49 579 49 C579 49 558.585 41.4911 535.5 33 L500.447 20.1068 C496.071 18.4974 492 12.6623 492 8 C492 3.03227 496.032 -1 501 -1 L696 -1 C700.416 -1 704 2.58424 704 7 C704 11.0221 700.377 16.6418 696.713 18.3018 L661.906 34.0737 C653.673 37.8045 633.275 59.9607 629.772 68.2936 C559.377 235.752 387 650 387 650 L384 657 C382.478 660.551 377.248 664 373.384 664 L367 664 C359.869 664 346.506 648.445 343.758 641.865 C233.566 377.925 148.929 175.019 105.885 72.5122 C102.012 63.2879 81.6179 43.1743 72.3452 39.4183 L25.3416 20.3789 C21.0741 18.6503 17 12.6043 17 8 C17 3.03227 21.0323 -1 26 -1 L208.5 -1 C213.744 -1 218 3.25628 218 8.5 C218 13.3687 213.7 19.72 209.179 21.5282 L209.179 21.5282 Z M420.115 279 L277.888 279 C253.828 279 238.232 296.987 247.28 319.281 C275.279 388.271 307.525 466.403 342.753 551.565 C347.973 564.184 365.441 565.94 370.713 553.342 C393.489 498.909 425.583 421.489 458.69 341.688 C471.167 311.614 452.675 279 420.115 279 L420.115 279 Z " />
<glyph glyph-name="amacron" unicode="&#x101;" horiz-adv-x="482" d="M109.5 597 L344.5 597 C353.056 597 360 603.944 360 612.5 C360 621.056 353.056 628 344.5 628 L109.5 628 C100.944 628 94 621.056 94 612.5 C94 603.944 100.944 597 109.5 597 L109.5 597 Z M119 336 C119 390 163 431 221 431 C290 431 325 393 325 335 L325 296.5 C325 276.699 305.596 253.878 286.404 249.004 C133.718 210.227 55 149.825 55 86 C55 28 100 -10 168 -10 C222.25 -10 274.203 7.60938 311.131 41.4883 C316.326 46.255 328.623 43.509 331.112 36.9121 C342.137 7.69625 366.825 -10 399 -10 C429.4 -10 457.093 10.3062 470.932 38.9155 C470.974 39.0028 470.371 39.3806 470.308 39.3068 C463.308 31.1023 448.273 27 431 27 C397 27 375 44 375 69 L375 348 C375 415 328 460 237 460 C140 460 67 405 67 332 C67 322.833 70.4722 316.444 76.2593 315.148 C77.0595 314.969 83.005 315 83.8251 315 L110.464 315 C111.844 315 115.524 316.524 116.5 317.5 C117.476 318.476 119 322.156 119 323.536 L119 336 L119 336 Z M325 159.779 L325 95.225 C325 82.9223 318.079 66.3915 308.104 59.1896 C279.047 38.2094 238.725 28 195 28 C140 28 103 56 103 98 C103 142.55 154.047 185.398 254.456 217 C295.947 230.058 325 203.276 325 159.779 L325 159.779 Z " />
<glyph glyph-name="Abreve" unicode="&#x102;" horiz-adv-x="739" d="M227.5 842 C225.14 842 224.662 837.415 225.488 835.205 C258.017 748.222 297.7 714 364 714 C430.3 714 469.983 748.223 502.512 835.205 C503.338 837.415 502.86 842 500.5 842 C498.224 842 495.05 839.33 494.248 837.2 C471.128 775.766 434.2 752 364 752 C293.8 752 256.872 775.766 233.752 837.2 C232.95 839.33 229.776 842 227.5 842 L227.5 842 Z M209.179 21.5282 L178 34 C155.921 42.8317 129.192 28.2143 138.105 50.2608 C140.41 55.9606 179.961 153.783 205.662 216.825 C211.524 231.203 232.743 246.974 248.27 246.946 L472.577 246.544 C485.058 246.521 501.167 236.611 505.979 225.094 C530.766 165.758 579 49 579 49 C579 49 558.585 41.4911 535.5 33 L500.447 20.1068 C496.071 18.4974 492 12.6623 492 8 C492 3.03227 496.032 -1 501 -1 L696 -1 C700.416 -1 704 2.58424 704 7 C704 11.0221 700.377 16.6418 696.713 18.3018 L661.906 34.0737 C653.673 37.8045 633.275 59.9607 629.772 68.2936 C559.377 235.752 387 650 387 650 L384 657 C382.478 660.551 377.248 664 373.384 664 L367 664 C359.869 664 346.506 648.445 343.758 641.865 C233.566 377.925 148.929 175.019 105.885 72.5122 C102.012 63.2879 81.6179 43.1743 72.3452 39.4183 L25.3416 20.3789 C21.0741 18.6503 17 12.6043 17 8 C17 3.03227 21.0323 -1 26 -1 L208.5 -1 C213.744 -1 218 3.25628 218 8.5 C218 13.3687 213.7 19.72 209.179 21.5282 L209.179 21.5282 Z M420.115 279 L277.888 279 C253.828 279 238.232 296.987 247.28 319.281 C275.279 388.271 307.525 466.403 342.753 551.565 C347.973 564.184 365.441 565.94 370.713 553.342 C393.489 498.909 425.583 421.489 458.69 341.688 C471.167 311.614 452.675 279 420.115 279 L420.115 279 Z " />
<glyph glyph-name="abreve" unicode="&#x103;" horiz-adv-x="482" d="M90.5 682 C88.1154 682 87.7263 676.725 88.4885 674.466 C121.017 578.025 160.7 540 227 540 C293.3 540 332.982 578.025 365.512 674.466 C366.274 676.725 365.885 682 363.5 682 C361.193 682 357.99 678.867 357.248 676.682 C334.128 608.618 297.2 582 227 582 C156.8 582 119.872 608.618 96.7516 676.682 C96.0095 678.867 92.8071 682 90.5 682 L90.5 682 Z M119 336 C119 390 163 431 221 431 C290 431 325 393 325 335 L325 296.5 C325 276.699 305.596 253.878 286.404 249.004 C133.718 210.227 55 149.825 55 86 C55 28 100 -10 168 -10 C222.25 -10 274.203 7.60938 311.131 41.4883 C316.326 46.255 328.623 43.509 331.112 36.9121 C342.137 7.69625 366.825 -10 399 -10 C429.4 -10 457.093 10.3062 470.932 38.9155 C470.974 39.0028 470.371 39.3806 470.308 39.3068 C463.308 31.1023 448.273 27 431 27 C397 27 375 44 375 69 L375 348 C375 415 328 460 237 460 C140 460 67 405 67 332 C67 322.833 70.4722 316.444 76.2593 315.148 C77.0595 314.969 83.005 315 83.8251 315 L110.464 315 C111.844 315 115.524 316.524 116.5 317.5 C117.476 318.476 119 322.156 119 323.536 L119 336 L119 336 Z M325 159.779 L325 95.225 C325 82.9223 318.079 66.3915 308.104 59.1896 C279.047 38.2094 238.725 28 195 28 C140 28 103 56 103 98 C103 142.55 154.047 185.398 254.456 217 C295.947 230.058 325 203.276 325 159.779 L325 159.779 Z " />
<glyph glyph-name="Cacute" unicode="&#x106;" horiz-adv-x="714" d="M372.5 705 C373.939 705 377.375 706.535 378.336 707.607 L488 830 C499 842 506 865 506 865 C506 865 498.895 865 493.979 865 L481 865 C468.886 865 449.83 853.688 444.029 843.053 L370.676 708.573 C369.864 707.084 370.804 705 372.5 705 L372.5 705 Z M545.606 49.59 C501.253 31.4569 447.75 21 399 21 C236 21 128 145 128 332 C128 516 242 639 412 639 C453.8 639 495.6 630.877 530.541 617.205 C532.016 616.627 538.947 611.684 540 610.5 C540.673 609.743 546.414 600.512 546.823 599.586 C564.546 559.396 587.923 507.897 605 469 C609.286 469 614.306 469.735 619.431 469.945 C621.02 470.01 621.944 471.409 621.881 472.998 L616.887 598.674 C616.341 612.415 609.684 626.776 597.602 633.345 C557.265 655.273 486.8 669 412 669 C207 669 70 526 70 312 C70 118 202 -11 399 -11 C476.35 -11 552.977 3.45 601.247 26.8229 C615.451 33.7009 624.654 51.1105 625.58 66.8655 L631.824 173.005 C631.917 174.589 631.072 175.988 629.487 176.055 C624.571 176.265 620.286 177 616 177 C598 141 575 94 557 58 C556 55 549 50 549 50 C549 50 565.437 57.6974 545.606 49.59 L545.606 49.59 Z " />
<glyph glyph-name="cacute" unicode="&#x107;" horiz-adv-x="477" d="M262 530 C263.725 530 267.419 531.778 268.496 533.126 L377 669 C388 683 395 707 395 707 C395 707 387.675 707 382.5 707 L370 707 C357.616 707 339.435 695.678 333.972 684.564 L259.764 533.59 C258.89 531.812 260.019 530 262 530 L262 530 Z M432 381 L431 383 C432 383 432 382 432 381 L432 381 Z M425.824 98.1727 C384.208 61.7162 329.925 37 288 37 C175 37 99 117 99 237 C99 355 163 434 260 434 C302 434 346 414 368 383 L393.721 350.183 C395.499 347.915 398.602 347.831 400.5 350 L404 354 L432 381 C432 386 424 396 414 409 C392 439 339 459 281 459 C142 459 50 359 50 208 C50 77 134 -11 261 -11 C328.275 -11 395.55 28.9262 430.385 89.3147 C431.099 90.5529 432.42 95.8838 432 97.25 C431.505 98.8587 427.09 99.2818 425.824 98.1727 L425.824 98.1727 Z " />
<glyph glyph-name="Ccaron" unicode="&#x10c;" horiz-adv-x="714" d="M527 867 L526 867 L527 868 L527 867 L527 867 Z M387.5 710.5 C391.327 710.5 399.798 714.485 402.238 717.434 L523.769 864.303 C524.718 865.45 523.988 867 522.5 867 C521.285 867 517.224 865.563 516.279 864.798 L427.252 792.761 C405.997 775.562 370.227 775.834 349.235 793.355 L264.071 864.437 C262.985 865.343 258.415 867 257 867 C255.273 867 254.416 865.222 255.491 863.871 L372.394 717.041 C374.815 714.001 383.614 710.5 387.5 710.5 L387.5 710.5 Z M545.606 49.59 C501.253 31.4569 447.75 21 399 21 C236 21 128 145 128 332 C128 516 242 639 412 639 C453.8 639 495.6 630.877 530.541 617.205 C532.016 616.627 538.947 611.684 540 610.5 C540.673 609.743 546.414 600.512 546.823 599.586 C564.546 559.396 587.923 507.897 605 469 C609.286 469 614.306 469.735 619.431 469.945 C621.02 470.01 621.944 471.409 621.881 472.998 L616.887 598.674 C616.341 612.415 609.684 626.776 597.602 633.345 C557.265 655.273 486.8 669 412 669 C207 669 70 526 70 312 C70 118 202 -11 399 -11 C476.35 -11 552.977 3.45 601.247 26.8229 C615.451 33.7009 624.654 51.1105 625.58 66.8655 L631.824 173.005 C631.917 174.589 631.072 175.988 629.487 176.055 C624.571 176.265 620.286 177 616 177 C598 141 575 94 557 58 C556 55 549 50 549 50 C549 50 565.437 57.6974 545.606 49.59 L545.606 49.59 Z " />
<glyph glyph-name="ccaron" unicode="&#x10d;" horiz-adv-x="477" d="M271.367 542.225 L393.913 707.19 C394.838 708.435 394.051 710 392.5 710 C391.207 710 387.36 708.523 386.399 707.658 L299.6 629.472 C276.737 608.877 239.459 609.092 216.835 629.949 L132.573 707.628 C131.611 708.515 127.809 710 126.5 710 C124.928 710 124.121 708.431 125.034 707.152 L242.769 542.324 C245.118 539.034 252.958 535 257 535 C260.988 535 268.989 539.024 271.367 542.225 L271.367 542.225 Z M432 381 L431 383 C432 383 432 382 432 381 L432 381 Z M425.824 98.1727 C384.208 61.7162 329.925 37 288 37 C175 37 99 117 99 237 C99 355 163 434 260 434 C302 434 346 414 368 383 L393.721 350.183 C395.499 347.915 398.602 347.831 400.5 350 L404 354 L432 381 C432 386 424 396 414 409 C392 439 339 459 281 459 C142 459 50 359 50 208 C50 77 134 -11 261 -11 C328.275 -11 395.55 28.9262 430.385 89.3147 C431.099 90.5529 432.42 95.8838 432 97.25 C431.505 98.8587 427.09 99.2818 425.824 98.1727 L425.824 98.1727 Z " />
<glyph glyph-name="Dcaron" unicode="&#x10e;" horiz-adv-x="767" d="M570 867 L569 867 L570 868 L570 867 L570 867 Z M431 710.5 C434.615 710.5 442.614 714.264 444.919 717.049 L567.087 864.689 C567.901 865.672 567.276 867 566 867 C564.958 867 561.478 865.768 560.668 865.113 L471.098 792.637 C449.942 775.518 414.224 775.721 393.264 793.079 L306.696 864.768 C305.747 865.554 301.732 867 300.5 867 C298.989 867 298.239 865.444 299.18 864.262 L416.706 716.65 C418.992 713.778 427.33 710.5 431 710.5 L431 710.5 Z M334 0 C552 8 697 129 697 356 C697 557 549 660 326 660 L74.5 660 C69.2563 660 65 655.744 65 650.5 C65 645.718 69.3026 639.064 73.6633 637.102 L108.773 621.302 C127.008 613.096 145 585.27 145 565.274 L145 94.7262 C145 74.7299 127.008 46.9035 108.773 38.6978 L73.6633 22.8985 C69.3026 20.9362 65 14.2819 65 9.5 C65 4.25628 69.2563 0 74.5 0 L334 0 L334 0 Z M201 95.44 L201 571.5 C201 601.582 225.418 626 255.5 626 L310 626 C507 626 638 527 638 335 C638 143 516 40 332 34 L262.44 34 C228.527 34 201 61.527 201 95.44 L201 95.44 Z " />
<glyph glyph-name="dcaron" unicode="&#x10f;" horiz-adv-x="567" d="M597 750 L573.5 750 C560.626 750 548.703 739.454 547.131 726.676 L527.488 566.97 C527.221 564.795 528.809 563 531 563 C533.074 563 535.661 564.809 536.373 566.757 L603 749 C601 746 601 750 597 750 L597 750 Z M604.418 752.782 L604.582 753.218 C604.599 753.264 604.518 753.295 604.5 753.25 C604.482 753.205 604.401 752.736 604.418 752.782 L604.418 752.782 Z M519 10 C519 14.518 514.924 20.8634 510.815 22.7418 L484 35 C466.43 43.032 449 70.1648 449 89.4838 L449 752 C449 754.76 446.76 757 444 757 C443.219 757 434.954 755.806 434.205 755.584 L334 726 L334 721 L386 679 L392.5 674 C395.344 671.812 399 664.387 399 660.799 L399 463.742 C399 453.012 388.335 445.926 377.891 448.391 C344.667 456.236 311.75 461 287 461 C144 461 48 355 48 197 C48 73 122 -9 232 -9 C294.7 -9 357.4 15.3675 393.521 52.9566 C395.774 55.3008 399.146 52.1655 399.328 48.9196 C400.44 29.0527 404 2 404 2 C404 2 410.996 1.93916 423.163 1.83336 L510 1.07826 C514.968 1.03506 519 5.03246 519 10 L519 10 Z M398 349.254 L398 100.812 C398 89.8234 392.992 75.2994 384.24 68.6554 C355.355 46.7275 310.9 33 265 33 C164 33 96 105 96 213 C96 340.725 164.445 426.622 268.895 430.838 C271.48 430.942 274.661 431.861 277.089 430.967 C278.978 430.272 310.915 418.52 361.636 400.321 C380.536 393.539 398 369.334 398 349.254 L398 349.254 Z " />
<glyph glyph-name="Emacron" unicode="&#x112;" horiz-adv-x="650" d="M217.5 767 L452.5 767 C461.056 767 468 773.944 468 782.5 C468 791.056 461.056 798 452.5 798 L217.5 798 C208.944 798 202 791.056 202 782.5 C202 773.944 208.944 767 217.5 767 L217.5 767 Z M571.5 159 C567.244 159 561.214 155.15 559.422 151.29 L521.509 69.58 C513.243 51.7652 485.416 34 465.776 34 L262.44 34 C228.527 34 201 61.527 201 95.44 L201 261.56 C201 295.473 228.527 323 262.44 323 L367.863 323 C386.013 323 413.826 306.189 422.262 290.119 L441.654 253.182 C444.267 248.206 452.88 243 458.5 243 C464.848 243 470 248.152 470 254.5 L470 425.5 C470 431.848 464.848 437 458.5 437 C452.88 437 444.267 431.794 441.654 426.818 L422.262 389.881 C413.826 373.811 386.013 357 367.863 357 L262.44 357 C228.527 357 201 384.527 201 418.44 L201 564.56 C201 598.473 228.527 626 262.44 626 L442.175 626 C460.817 626 488.639 608.872 497.033 592.227 L534.172 518.589 C536.059 514.849 542.311 511 546.5 511 C551.192 511 555 514.808 555 519.5 L555 598.56 C555 632.473 527.473 660 493.56 660 L74.5 660 C69.2563 660 65 655.744 65 650.5 C65 645.718 69.3026 639.064 73.6633 637.102 L108.773 621.302 C127.008 613.096 145 585.27 145 565.274 L145 94.7262 C145 74.7299 127.008 46.9035 108.773 38.6978 L73.6633 22.8985 C69.3026 20.9362 65 14.2819 65 9.5 C65 4.25628 69.2563 0 74.5 0 L518.56 0 C552.473 0 580 27.527 580 61.44 L580 150.5 C580 155.192 576.192 159 571.5 159 L571.5 159 Z " />
<glyph glyph-name="emacron" unicode="&#x113;" horiz-adv-x="483" d="M139.5 597 L374.5 597 C383.056 597 390 603.944 390 612.5 C390 621.056 383.056 628 374.5 628 L139.5 628 C130.944 628 124 621.056 124 612.5 C124 603.944 130.944 597 139.5 597 L139.5 597 Z M110.797 321.003 C132.335 390.801 182 433 248 433 C310.7 433 358.426 390.121 377.702 320.646 C386.084 290.436 368.686 273 337.335 273 L150.308 273 C118.801 273 101.507 290.897 110.797 321.003 L110.797 321.003 Z M428 101 C386 63 330 37 287 37 C192.125 37 123.794 93.4919 104.469 182.892 C95.7893 223.043 117.893 244 158.972 244 L406.83 244 C407.141 244 414.823 244.521 415.132 244.563 L422 245.5 C428.204 246.346 433.042 250.26 432.871 256.519 C429.529 379.197 361.425 460 261 460 C134 460 50 360 50 209 C50 78 134 -10 261 -10 C328.275 -10 395.55 29.9262 430.385 90.3147 C430.823 91.0743 433 97.123 433 98 L433 101 L428 101 L428 101 Z " />
<glyph glyph-name="Edot" unicode="&#x116;" horiz-adv-x="650" d="M378 763 C378 811 303 812 303 763 C303 713 378 714 378 763 L378 763 Z M571.5 159 C567.244 159 561.214 155.15 559.422 151.29 L521.509 69.58 C513.243 51.7652 485.416 34 465.776 34 L262.44 34 C228.527 34 201 61.527 201 95.44 L201 261.56 C201 295.473 228.527 323 262.44 323 L367.863 323 C386.013 323 413.826 306.189 422.262 290.119 L441.654 253.182 C444.267 248.206 452.88 243 458.5 243 C464.848 243 470 248.152 470 254.5 L470 425.5 C470 431.848 464.848 437 458.5 437 C452.88 437 444.267 431.794 441.654 426.818 L422.262 389.881 C413.826 373.811 386.013 357 367.863 357 L262.44 357 C228.527 357 201 384.527 201 418.44 L201 564.56 C201 598.473 228.527 626 262.44 626 L442.175 626 C460.817 626 488.639 608.872 497.033 592.227 L534.172 518.589 C536.059 514.849 542.311 511 546.5 511 C551.192 511 555 514.808 555 519.5 L555 598.56 C555 632.473 527.473 660 493.56 660 L74.5 660 C69.2563 660 65 655.744 65 650.5 C65 645.718 69.3026 639.064 73.6633 637.102 L108.773 621.302 C127.008 613.096 145 585.27 145 565.274 L145 94.7262 C145 74.7299 127.008 46.9035 108.773 38.6978 L73.6633 22.8985 C69.3026 20.9362 65 14.2819 65 9.5 C65 4.25628 69.2563 0 74.5 0 L518.56 0 C552.473 0 580 27.527 580 61.44 L580 150.5 C580 155.192 576.192 159 571.5 159 L571.5 159 Z " />
<glyph glyph-name="edot" unicode="&#x117;" horiz-adv-x="483" d="M299 621 C299 670 224 669 224 621 C224 572 299 571 299 621 L299 621 Z M110.797 321.003 C132.335 390.801 182 433 248 433 C310.7 433 358.426 390.121 377.702 320.646 C386.084 290.436 368.686 273 337.335 273 L150.308 273 C118.801 273 101.507 290.897 110.797 321.003 L110.797 321.003 Z M428 101 C386 63 330 37 287 37 C192.125 37 123.794 93.4919 104.469 182.892 C95.7893 223.043 117.893 244 158.972 244 L406.83 244 C407.141 244 414.823 244.521 415.132 244.563 L422 245.5 C428.204 246.346 433.042 250.26 432.871 256.519 C429.529 379.197 361.425 460 261 460 C134 460 50 360 50 209 C50 78 134 -10 261 -10 C328.275 -10 395.55 29.9262 430.385 90.3147 C430.823 91.0743 433 97.123 433 98 L433 101 L428 101 L428 101 Z " />
<glyph glyph-name="Ecaron" unicode="&#x11a;" horiz-adv-x="650" d="M474 867 L473 867 L474 868 L474 867 L474 867 Z M335 710.5 C338.615 710.5 346.614 714.264 348.919 717.049 L471.087 864.689 C471.901 865.672 471.276 867 470 867 C468.958 867 465.478 865.768 464.668 865.113 L375.098 792.637 C353.942 775.518 318.224 775.721 297.264 793.079 L210.696 864.768 C209.747 865.554 205.732 867 204.5 867 C202.989 867 202.239 865.444 203.18 864.262 L320.706 716.65 C322.992 713.778 331.33 710.5 335 710.5 L335 710.5 Z M571.5 159 C567.244 159 561.214 155.15 559.422 151.29 L521.509 69.58 C513.243 51.7652 485.416 34 465.776 34 L262.44 34 C228.527 34 201 61.527 201 95.44 L201 261.56 C201 295.473 228.527 323 262.44 323 L367.863 323 C386.013 323 413.826 306.189 422.262 290.119 L441.654 253.182 C444.267 248.206 452.88 243 458.5 243 C464.848 243 470 248.152 470 254.5 L470 425.5 C470 431.848 464.848 437 458.5 437 C452.88 437 444.267 431.794 441.654 426.818 L422.262 389.881 C413.826 373.811 386.013 357 367.863 357 L262.44 357 C228.527 357 201 384.527 201 418.44 L201 564.56 C201 598.473 228.527 626 262.44 626 L442.175 626 C460.817 626 488.639 608.872 497.033 592.227 L534.172 518.589 C536.059 514.849 542.311 511 546.5 511 C551.192 511 555 514.808 555 519.5 L555 598.56 C555 632.473 527.473 660 493.56 660 L74.5 660 C69.2563 660 65 655.744 65 650.5 C65 645.718 69.3026 639.064 73.6633 637.102 L108.773 621.302 C127.008 613.096 145 585.27 145 565.274 L145 94.7262 C145 74.7299 127.008 46.9035 108.773 38.6978 L73.6633 22.8985 C69.3026 20.9362 65 14.2819 65 9.5 C65 4.25628 69.2563 0 74.5 0 L518.56 0 C552.473 0 580 27.527 580 61.44 L580 150.5 C580 155.192 576.192 159 571.5 159 L571.5 159 Z " />
<glyph glyph-name="ecaron" unicode="&#x11b;" horiz-adv-x="483" d="M266.665 542.626 L388.615 706.789 C389.672 708.212 388.772 710 387 710 C385.522 710 381.126 708.312 380.028 707.323 L293.763 629.619 C270.802 608.936 233.462 609.225 210.822 630.259 L127.93 707.277 C126.829 708.3 122.503 710 121 710 C119.203 710 118.281 708.207 119.325 706.745 L236.478 542.73 C238.958 539.258 247.233 535 251.5 535 C255.709 535 264.155 539.247 266.665 542.626 L266.665 542.626 Z M110.797 321.003 C132.335 390.801 182 433 248 433 C310.7 433 358.426 390.121 377.702 320.646 C386.084 290.436 368.686 273 337.335 273 L150.308 273 C118.801 273 101.507 290.897 110.797 321.003 L110.797 321.003 Z M428 101 C386 63 330 37 287 37 C192.125 37 123.794 93.4919 104.469 182.892 C95.7893 223.043 117.893 244 158.972 244 L406.83 244 C407.141 244 414.823 244.521 415.132 244.563 L422 245.5 C428.204 246.346 433.042 250.26 432.871 256.519 C429.529 379.197 361.425 460 261 460 C134 460 50 360 50 209 C50 78 134 -10 261 -10 C328.275 -10 395.55 29.9262 430.385 90.3147 C430.823 91.0743 433 97.123 433 98 L433 101 L428 101 L428 101 Z " />
<glyph glyph-name="Gbreve" unicode="&#x11e;" horiz-adv-x="770" d="M261.5 842 C259.14 842 258.662 837.415 259.488 835.205 C292.017 748.222 331.7 714 398 714 C464.3 714 503.982 748.223 536.512 835.205 C537.338 837.415 536.86 842 534.5 842 C532.224 842 529.05 839.33 528.248 837.2 C505.128 775.766 468.2 752 398 752 C327.8 752 290.872 775.766 267.752 837.2 C266.95 839.33 263.776 842 261.5 842 L261.5 842 Z M684.612 251.614 L716.436 266.889 C720.697 268.935 725 275.773 725 280.5 C725 285.744 720.744 290 715.5 290 L518.5 290 C513.256 290 509 285.744 509 280.5 C509 275.671 513.302 269.178 517.748 267.295 L556.521 250.873 C575.57 242.806 594 214.986 594 194.298 L594 87.36 C594 74.8168 587.245 61.447 575.846 56.2136 C537.998 38.8375 480.75 28 417 28 C244 28 128 150 128 333 C128 517 246 640 423 640 C469.8 640 517.551 631.444 555.13 616.187 C556.336 615.697 559.743 612.56 560.5 611.5 C560.781 611.107 564.204 605.261 564.398 604.819 C582.277 564.189 606.462 510.949 624 471 C628.286 471 633.306 471.735 638.431 471.945 C640.02 472.01 640.944 473.409 640.881 474.998 L635.887 600.674 C635.332 614.654 628.699 628.784 616.342 635.345 C575.042 657.272 501.05 671 422 671 C210 671 69 528 69 314 C69 120 201 -9 399 -9 C496.2 -9 586.92 18.54 634.71 60.498 C643.261 68.0058 649.067 85.7837 649.139 97.163 L649.76 196.608 C649.879 215.655 667.441 243.371 684.612 251.614 L684.612 251.614 Z " />
<glyph glyph-name="gbreve" unicode="&#x11f;" horiz-adv-x="539" d="M123.5 682 C121.115 682 120.726 676.725 121.488 674.466 C154.017 578.025 193.7 540 260 540 C326.3 540 365.983 578.025 398.512 674.466 C399.274 676.725 398.885 682 396.5 682 C394.193 682 390.99 678.867 390.248 676.682 C367.128 608.618 330.2 582 260 582 C189.8 582 152.872 608.618 129.752 676.682 C129.01 678.867 125.807 682 123.5 682 L123.5 682 Z M131 302 C131 382 171 435 250 435 C327 435 378 381 378 300 C378 218 339 164 262 164 C183 164 131 219 131 302 L131 302 Z M80 301 C80 245.75 102.397 201.338 141.051 173.29 C148.715 167.728 145.503 153.502 137.001 149.333 C99.1412 130.769 76 104.225 76 77 C76 46.475 97.78 22.7563 133.479 11.4589 C138.211 9.96132 138.907 -1.72797 134.651 -4.28137 C93.2875 -29.095 68 -82.05 68 -122 C68 -192 135 -239 235 -239 C378 -239 473 -175 473 -78 C473 -2 431 48 323 48 L203 48 C154 48 121 68 121 99 C121 120.6 140.44 140.58 169.843 150.921 C173.582 152.236 186.403 151.766 190.203 150.639 C209.622 144.88 231.091 142 254 142 C370 142 429 206 429 303 C429 344.25 415.387 380.055 391.532 407.046 C386.973 412.204 390.124 422.337 397.002 422.035 L472.016 418.745 C481.382 418.334 489 425.626 489 435 C489 444.379 481.383 451.753 472.009 451.448 L347.533 447.407 C345.532 447.342 325.065 450.934 323.171 451.583 C302.917 458.528 280 462 255 462 C140 462 80 397 80 302 L80 301 Z M187 5 L298 5 C392 5 428 -33 428 -90 C428 -168 353 -220 241 -220 C164 -220 112 -177 112 -113 C112 -59 142 5 187 5 L187 5 Z " />
<glyph glyph-name="Itilde" unicode="&#x128;" horiz-adv-x="356" d="M35.9773 708.05 C48.7194 747.382 63.125 774 107 774 C145 774 197 713 235 713 C286.675 713 306.979 753.877 327.426 816.167 C328.084 818.17 327.108 821 325 821 C322.917 821 320.606 819.78 319.95 817.803 C306.281 776.617 291.9 750 249 750 C211 750 159 810 121 810 C68.35 810 48.0212 770.074 28.5005 709.685 C27.8508 707.675 28.8875 705 31 705 C33.0867 705 35.3342 706.065 35.9773 708.05 L35.9773 708.05 Z M286 9.5 C286 14.2819 281.697 20.9362 277.337 22.8985 L242.227 38.6978 C223.992 46.9035 206 74.7299 206 94.7262 L206 565.274 C206 585.27 223.992 613.096 242.227 621.302 L277.337 637.102 C281.697 639.064 286 645.718 286 650.5 C286 655.744 281.744 660 276.5 660 L79.5 660 C74.2563 660 70 655.744 70 650.5 C70 645.718 74.3026 639.064 78.6633 637.102 L113.773 621.302 C132.008 613.096 150 585.27 150 565.274 L150 94.7262 C150 74.7299 132.008 46.9035 113.773 38.6978 L78.6633 22.8985 C74.3026 20.9362 70 14.2819 70 9.5 C70 4.25628 74.2563 0 79.5 0 L276.5 0 C281.744 0 286 4.25628 286 9.5 L286 9.5 Z " />
<glyph glyph-name="itilde" unicode="&#x129;" horiz-adv-x="287" d="M1.97734 533.05 C14.7194 572.382 29.125 599 73 599 C111 599 163 538 201 538 C252.675 538 272.979 578.877 293.426 641.167 C294.084 643.17 293.108 646 291 646 C288.917 646 286.606 644.78 285.95 642.803 C272.281 601.617 257.9 575 215 575 C177 575 125 635 87 635 C34.35 635 14.0213 595.074 -5.49947 534.685 C-6.14922 532.675 -5.11247 530 -3 530 C-0.91332 530 1.33425 531.065 1.97734 533.05 L1.97734 533.05 Z M234 9 C234 13.4569 229.924 20.0066 225.925 21.9752 L201.5 34 C185.406 41.9234 169 68.286 169 86.225 L169 455 C169 457.76 166.76 460 164 460 C162.996 460 155.278 458.546 154.342 458.181 L56.7945 420.091 C55.3577 419.53 54 417.542 54 416 C54 414.739 55.3243 411.873 56.2846 411.056 L101 373 C112 364 119 357 119 357 C119 357 119 358.646 119 352.05 L119 86.225 C119 68.286 102.594 41.9234 86.5 34 L62.0745 21.9752 C58.0759 20.0066 54 13.4569 54 9 C54 4.03227 58.0323 0 63 0 L225 0 C229.968 0 234 4.03227 234 9 L234 9 Z " />
<glyph glyph-name="Imacron" unicode="&#x12a;" horiz-adv-x="356" d="M60.5 767 L295.5 767 C304.056 767 311 773.944 311 782.5 C311 791.056 304.056 798 295.5 798 L60.5 798 C51.9445 798 45 791.056 45 782.5 C45 773.944 51.9445 767 60.5 767 L60.5 767 Z M286 9.5 C286 14.2819 281.697 20.9362 277.337 22.8985 L242.227 38.6978 C223.992 46.9035 206 74.7299 206 94.7262 L206 565.274 C206 585.27 223.992 613.096 242.227 621.302 L277.337 637.102 C281.697 639.064 286 645.718 286 650.5 C286 655.744 281.744 660 276.5 660 L79.5 660 C74.2563 660 70 655.744 70 650.5 C70 645.718 74.3026 639.064 78.6633 637.102 L113.773 621.302 C132.008 613.096 150 585.27 150 565.274 L150 94.7262 C150 74.7299 132.008 46.9035 113.773 38.6978 L78.6633 22.8985 C74.3026 20.9362 70 14.2819 70 9.5 C70 4.25628 74.2563 0 79.5 0 L276.5 0 C281.744 0 286 4.25628 286 9.5 L286 9.5 Z " />
<glyph glyph-name="imacron" unicode="&#x12b;" horiz-adv-x="287" d="M21.5 597 L256.5 597 C265.056 597 272 603.944 272 612.5 C272 621.056 265.056 628 256.5 628 L21.5 628 C12.9445 628 6 621.056 6 612.5 C6 603.944 12.9445 597 21.5 597 L21.5 597 Z M234 9 C234 13.4569 229.924 20.0066 225.925 21.9752 L201.5 34 C185.406 41.9234 169 68.286 169 86.225 L169 455 C169 457.76 166.76 460 164 460 C162.996 460 155.278 458.546 154.342 458.181 L56.7945 420.091 C55.3577 419.53 54 417.542 54 416 C54 414.739 55.3243 411.873 56.2846 411.056 L101 373 C112 364 119 357 119 357 C119 357 119 358.646 119 352.05 L119 86.225 C119 68.286 102.594 41.9234 86.5 34 L62.0745 21.9752 C58.0759 20.0066 54 13.4569 54 9 C54 4.03227 58.0323 0 63 0 L225 0 C229.968 0 234 4.03227 234 9 L234 9 Z " />
<glyph glyph-name="Idot" unicode="&#x130;" horiz-adv-x="356" d="M216 763 C216 811 141 812 141 763 C141 713 216 714 216 763 L216 763 Z M286 9.5 C286 14.2819 281.697 20.9362 277.337 22.8985 L242.227 38.6978 C223.992 46.9035 206 74.7299 206 94.7262 L206 565.274 C206 585.27 223.992 613.096 242.227 621.302 L277.337 637.102 C281.697 639.064 286 645.718 286 650.5 C286 655.744 281.744 660 276.5 660 L79.5 660 C74.2563 660 70 655.744 70 650.5 C70 645.718 74.3026 639.064 78.6633 637.102 L113.773 621.302 C132.008 613.096 150 585.27 150 565.274 L150 94.7262 C150 74.7299 132.008 46.9035 113.773 38.6978 L78.6633 22.8985 C74.3026 20.9362 70 14.2819 70 9.5 C70 4.25628 74.2563 0 79.5 0 L276.5 0 C281.744 0 286 4.25628 286 9.5 L286 9.5 Z " />
<glyph glyph-name="dotlessi" unicode="&#x131;" horiz-adv-x="287" d="M234 9 C234 13.4569 229.924 20.0066 225.925 21.9752 L201.5 34 C185.406 41.9234 169 68.286 169 86.225 L169 455 C169 457.76 166.76 460 164 460 C162.996 460 155.278 458.546 154.342 458.181 L56.7945 420.091 C55.3577 419.53 54 417.542 54 416 C54 414.739 55.3243 411.873 56.2846 411.056 L101 373 C112 364 119 357 119 357 C119 357 119 358.646 119 352.05 L119 86.225 C119 68.286 102.594 41.9234 86.5 34 L62.0745 21.9752 C58.0759 20.0066 54 13.4569 54 9 C54 4.03227 58.0323 0 63 0 L225 0 C229.968 0 234 4.03227 234 9 L234 9 Z " />
<glyph glyph-name="Lacute" unicode="&#x139;" horiz-adv-x="630" d="M163 705 C164.651 705 168.56 706.757 169.656 707.991 L278 830 C289 843 296 865 296 865 C296 865 289.116 865 284.457 865 L271 865 C258.886 865 239.83 853.688 234.029 843.053 L160.915 709.012 C159.987 707.31 161.062 705 163 705 L163 705 Z M551 199 C546.35 199 540.47 194.928 538.834 190.575 L494.966 73.8288 C487.233 53.2494 459.437 34 437.452 34 L262.44 34 C228.527 34 201 61.527 201 95.44 L201 564.298 C201 584.986 219.43 612.806 238.479 620.873 L277.252 637.295 C281.698 639.178 286 645.671 286 650.5 C286 655.744 281.744 660 276.5 660 L74.5 660 C69.2563 660 65 655.744 65 650.5 C65 645.718 69.3026 639.064 73.6633 637.102 L108.773 621.302 C127.008 613.096 145 585.27 145 565.274 L145 94.7262 C145 74.7299 127.008 46.9035 108.773 38.6978 L73.6633 22.8985 C69.3026 20.9362 65 14.2819 65 9.5 C65 4.25628 69.2563 0 74.5 0 L498.56 0 C532.473 0 560 27.527 560 61.44 L560 190 C560 194.968 555.968 199 551 199 L551 199 Z " />
<glyph glyph-name="lacute" unicode="&#x13a;" horiz-adv-x="268" d="M123 765 C124.612 765 128.632 766.743 129.733 767.92 L244 890 C256 903 263 925 263 925 C263 925 256.116 925 251.457 925 L237 925 C224.552 925 204.257 913.245 198.062 902.447 L121.49 768.97 C120.537 767.308 121.085 765 123 765 L123 765 Z M224 9 C224 13.4569 219.924 20.0066 215.925 21.9752 L191.5 34 C175.406 41.9234 159 68.286 159 86.225 L159 755 C159 757.76 156.76 760 154 760 C152.996 760 145.278 758.546 144.342 758.181 L46.7945 720.091 C45.3577 719.53 44 717.542 44 716 C44 714.739 45.3243 711.873 46.2846 711.056 L91 673 C102 664 109 657 109 657 C109 657 109 658.646 109 652.05 L109 86.225 C109 68.286 92.5944 41.9234 76.5 34 L52.0745 21.9752 C48.0759 20.0066 44 13.4569 44 9 C44 4.03227 48.0323 0 53 0 L215 0 C219.968 0 224 4.03227 224 9 L224 9 Z " />
<glyph glyph-name="Lcaron" unicode="&#x13d;" horiz-adv-x="630" d="M523 660 L499.5 660 C486.626 660 474.703 649.454 473.131 636.676 L453.488 476.97 C453.221 474.795 454.809 473 457 473 C459.074 473 461.661 474.809 462.373 476.757 L529 659 C527 656 527 660 523 660 L523 660 Z M530.418 662.782 L530.582 663.218 C530.599 663.264 530.518 663.295 530.5 663.25 C530.482 663.205 530.401 662.736 530.418 662.782 L530.418 662.782 Z M551 200 C546.35 200 540.47 195.928 538.834 191.575 L494.966 74.8288 C487.233 54.2494 459.437 35 437.452 35 L262.44 35 C228.527 35 201 62.527 201 96.44 L201 565.298 C201 585.986 219.43 613.806 238.479 621.873 L277.252 638.295 C281.698 640.178 286 646.671 286 651.5 C286 656.744 281.744 661 276.5 661 L74.5 661 C69.2563 661 65 656.744 65 651.5 C65 646.718 69.3026 640.064 73.6633 638.102 L108.773 622.302 C127.008 614.096 145 586.27 145 566.274 L145 95.7262 C145 75.7299 127.008 47.9035 108.773 39.6978 L73.6633 23.8985 C69.3026 21.9362 65 15.2819 65 10.5 C65 5.25628 69.2563 1 74.5 1 L498.56 1 C532.473 1 560 28.527 560 62.44 L560 191 C560 195.968 555.968 200 551 200 L551 200 Z " />
<glyph glyph-name="lcaron" unicode="&#x13e;" horiz-adv-x="268" d="M307 750 L283.5 750 C270.626 750 258.703 739.454 257.131 726.676 L237.488 566.97 C237.221 564.795 238.809 563 241 563 C243.074 563 245.661 564.809 246.373 566.757 L313 749 C311 746 311 750 307 750 L307 750 Z M314.418 752.782 L314.582 753.218 C314.599 753.264 314.518 753.295 314.5 753.25 C314.482 753.205 314.401 752.736 314.418 752.782 L314.418 752.782 Z M224 10 C224 14.4569 219.924 21.0066 215.925 22.9752 L191.5 35 C175.406 42.9234 159 69.286 159 87.225 L159 756 C159 758.76 156.76 761 154 761 C152.996 761 145.278 759.546 144.342 759.181 L46.7945 721.091 C45.3577 720.53 44 718.542 44 717 C44 715.739 45.3243 712.873 46.2846 712.056 L91 674 C102 665 109 658 109 658 C109 658 109 659.646 109 653.05 L109 87.225 C109 69.286 92.5944 42.9234 76.5 35 L52.0745 22.9752 C48.0759 21.0066 44 14.4569 44 10 C44 5.03227 48.0323 1 53 1 L215 1 C219.968 1 224 5.03227 224 10 L224 10 Z " />
<glyph glyph-name="Nacute" unicode="&#x143;" horiz-adv-x="799" d="M416 705 C417.651 705 421.56 706.757 422.656 707.991 L531 830 C542 843 549 865 549 865 C549 865 542.116 865 537.457 865 L524 865 C511.886 865 492.83 853.688 487.029 843.053 L413.915 709.012 C412.987 707.31 414.062 705 416 705 L416 705 Z M76.5645 636.889 L108.147 621.729 C125.49 613.405 143 585.578 143 566.34 L143 94.7262 C143 74.7299 125.008 46.9035 106.773 38.6978 L71.6633 22.8985 C67.3026 20.9362 63 14.2819 63 9.5 C63 4.25628 67.2563 0 72.5 0 L277.5 0 C282.744 0 287 4.25628 287 9.5 C287 14.4337 282.704 20.5467 278.062 22.2178 L227.629 40.3735 C206.529 47.9697 187 75.7556 187 98.1817 L187 445.57 C187 486.943 242.245 496.734 267.854 464.239 C391.173 307.763 514.923 151.718 638 -5 C640.815 -8.58475 643.942 -5 648.5 -5 C654.296 -5 659 -0.295685 659 5.5 L659 566.34 C659 585.578 676.51 613.405 693.853 621.729 L725.436 636.889 C729.697 638.935 734 645.773 734 650.5 C734 655.744 729.744 660 724.5 660 L524.5 660 C519.256 660 515 655.744 515 650.5 C515 645.566 519.296 639.453 523.938 637.782 L574.371 619.626 C595.471 612.03 615 584.244 615 561.818 L615 292.712 C615 232.128 542.658 207.117 505.239 254.765 L205.449 636.507 C197.44 646.706 170.096 660 157.129 660 L77.5 660 C72.2563 660 68 655.744 68 650.5 C68 645.773 72.3027 638.935 76.5645 636.889 L76.5645 636.889 Z " />
<glyph glyph-name="nacute" unicode="&#x144;" horiz-adv-x="583" d="M301.5 530 C303.004 530 306.252 531.554 307.196 532.725 L417 669 C428 682 435 707 435 707 C435 707 427.454 707 422.019 707 L410 707 C397.616 707 379.435 695.678 373.972 684.564 L299.544 533.141 C298.779 531.585 299.766 530 301.5 530 L301.5 530 Z M543 9 C543 13.4569 538.924 20.0066 534.925 21.9752 L510.5 34 C494.406 41.9234 478 68.286 478 86.225 L478 343 C478 413 420 460 332 460 C267 460 213 427 165 377 C164.269 376.239 164.855 378.45 164.75 379.5 L164.5 382 L162.16 455.003 C162.072 457.76 159.758 460 157 460 C155.971 460 148.316 458.519 147.361 458.135 L52.7835 420.119 C51.358 419.546 50 417.536 50 416 C50 414.739 51.3243 411.873 52.2846 411.056 L97 373 C108 364 115 357 115 357 C115 357 115 358.646 115 352.05 L115 86.225 C115 68.286 98.5944 41.9234 82.5 34 L58.0745 21.9752 C54.0759 20.0066 50 13.4569 50 9 C50 4.03227 54.0323 0 59 0 L226 0 C230.968 0 235 4.03227 235 9 C235 13.518 230.924 19.8634 226.815 21.7418 L200 34 C182.43 42.032 165 69.1648 165 88.4838 L165 333.602 C165 345.937 174.211 367.463 183.806 375.214 C214.921 400.346 253.675 416 304 416 C378 416 428 375 428 314 L428 88.4838 C428 69.1648 410.57 42.032 393 34 L366.185 21.7418 C362.076 19.8634 358 13.518 358 9 C358 4.03227 362.032 0 367 0 L534 0 C538.968 0 543 4.03227 543 9 L543 9 Z " />
<glyph glyph-name="Ncaron" unicode="&#x147;" horiz-adv-x="799" d="M550 867 L549 867 L550 868 L550 867 L550 867 Z M411 710.5 C414.615 710.5 422.614 714.264 424.919 717.049 L547.087 864.689 C547.901 865.672 547.276 867 546 867 C544.958 867 541.478 865.768 540.668 865.113 L451.098 792.637 C429.942 775.518 394.224 775.721 373.264 793.079 L286.696 864.768 C285.747 865.554 281.732 867 280.5 867 C278.989 867 278.239 865.444 279.18 864.262 L396.706 716.65 C398.992 713.778 407.33 710.5 411 710.5 L411 710.5 Z M76.5645 636.889 L108.147 621.729 C125.49 613.405 143 585.578 143 566.34 L143 94.7262 C143 74.7299 125.008 46.9035 106.773 38.6978 L71.6633 22.8985 C67.3026 20.9362 63 14.2819 63 9.5 C63 4.25628 67.2563 0 72.5 0 L277.5 0 C282.744 0 287 4.25628 287 9.5 C287 14.4337 282.704 20.5467 278.062 22.2178 L227.629 40.3735 C206.529 47.9697 187 75.7556 187 98.1817 L187 445.57 C187 486.943 242.245 496.734 267.854 464.239 C391.173 307.763 514.923 151.718 638 -5 C640.815 -8.58475 643.942 -5 648.5 -5 C654.296 -5 659 -0.295685 659 5.5 L659 566.34 C659 585.578 676.51 613.405 693.853 621.729 L725.436 636.889 C729.697 638.935 734 645.773 734 650.5 C734 655.744 729.744 660 724.5 660 L524.5 660 C519.256 660 515 655.744 515 650.5 C515 645.566 519.296 639.453 523.938 637.782 L574.371 619.626 C595.471 612.03 615 584.244 615 561.818 L615 292.712 C615 232.128 542.658 207.117 505.239 254.765 L205.449 636.507 C197.44 646.706 170.096 660 157.129 660 L77.5 660 C72.2563 660 68 655.744 68 650.5 C68 645.773 72.3027 638.935 76.5645 636.889 L76.5645 636.889 Z " />
<glyph glyph-name="ncaron" unicode="&#x148;" horiz-adv-x="583" d="M311.665 542.626 L433.615 706.789 C434.672 708.212 433.772 710 432 710 C430.522 710 426.126 708.312 425.028 707.323 L338.763 629.619 C315.802 608.936 278.462 609.225 255.822 630.259 L172.93 707.277 C171.829 708.3 167.503 710 166 710 C164.203 710 163.281 708.207 164.325 706.745 L281.478 542.73 C283.958 539.258 292.233 535 296.5 535 C300.709 535 309.155 539.247 311.665 542.626 L311.665 542.626 Z M543 9 C543 13.4569 538.924 20.0066 534.925 21.9752 L510.5 34 C494.406 41.9234 478 68.286 478 86.225 L478 343 C478 413 420 460 332 460 C267 460 213 427 165 377 C164.269 376.239 164.855 378.45 164.75 379.5 L164.5 382 L162.16 455.003 C162.072 457.76 159.758 460 157 460 C155.971 460 148.316 458.519 147.361 458.135 L52.7835 420.119 C51.358 419.546 50 417.536 50 416 C50 414.739 51.3243 411.873 52.2846 411.056 L97 373 C108 364 115 357 115 357 C115 357 115 358.646 115 352.05 L115 86.225 C115 68.286 98.5944 41.9234 82.5 34 L58.0745 21.9752 C54.0759 20.0066 50 13.4569 50 9 C50 4.03227 54.0323 0 59 0 L226 0 C230.968 0 235 4.03227 235 9 C235 13.518 230.924 19.8634 226.815 21.7418 L200 34 C182.43 42.032 165 69.1648 165 88.4838 L165 333.602 C165 345.937 174.211 367.463 183.806 375.214 C214.921 400.346 253.675 416 304 416 C378 416 428 375 428 314 L428 88.4838 C428 69.1648 410.57 42.032 393 34 L366.185 21.7418 C362.076 19.8634 358 13.518 358 9 C358 4.03227 362.032 0 367 0 L534 0 C538.968 0 543 4.03227 543 9 L543 9 Z " />
<glyph glyph-name="Omacron" unicode="&#x14c;" horiz-adv-x="798" d="M266.5 767 L501.5 767 C510.056 767 517 773.944 517 782.5 C517 791.056 510.056 798 501.5 798 L266.5 798 C257.944 798 251 791.056 251 782.5 C251 773.944 257.944 767 266.5 767 L266.5 767 Z M130 353 C130 525 233 639 388 639 C556 639 668 506 668 307 C668 135 566 21 412 21 C243 21 130 154 130 353 L130 353 Z M70 332 C70 127 202 -10 399 -10 C596 -10 728 125 728 328 C728 533 596 670 399 670 C202 670 70 535 70 332 L70 332 Z " />
<glyph glyph-name="omacron" unicode="&#x14d;" horiz-adv-x="529" d="M147.5 597 L382.5 597 C391.056 597 398 603.944 398 612.5 C398 621.056 391.056 628 382.5 628 L147.5 628 C138.944 628 132 621.056 132 612.5 C132 603.944 138.944 597 147.5 597 L147.5 597 Z M108 225 C108 350 158 434 256 434 C356 434 422 350 422 225 C422 100 371 16 273 16 C174 16 108 100 108 225 L108 225 Z M50 225 C50 84 136 -10 265 -10 C406 -10 479 84 479 225 C479 366 393 460 265 460 C123 460 50 366 50 225 L50 225 Z " />
<glyph glyph-name="Racute" unicode="&#x154;" horiz-adv-x="662" d="M319.5 705 C320.939 705 324.375 706.535 325.336 707.607 L435 830 C446 842 453 865 453 865 C453 865 445.895 865 440.979 865 L428 865 C415.886 865 396.83 853.688 391.029 843.053 L317.676 708.573 C316.864 707.084 317.804 705 319.5 705 L319.5 705 Z M567 50 C565.298 50 559.359 54.3547 558.269 55.6622 C505.358 119.158 424.268 221.84 373.399 286.782 C362.836 300.267 366.579 321.59 382.875 326.867 C461.734 352.406 536 411.25 536 490 C536 593 448 661 316 661 L74.5 661 C69.2563 661 65 656.744 65 651.5 C65 646.718 69.3026 640.064 73.6633 638.102 L108.773 622.302 C127.008 614.096 145 586.27 145 566.274 L145 95.7262 C145 75.7299 127.008 47.9035 108.773 39.6978 L73.6633 23.8985 C69.3026 21.9362 65 15.2819 65 10.5 C65 5.25628 69.2563 1 74.5 1 L266.5 1 C271.744 1 276 5.25628 276 10.5 C276 15.2273 271.697 22.0653 267.436 24.1109 L235.853 39.2706 C218.51 47.5954 201 75.4223 201 94.6601 L201 274 C201 296.079 218.921 314 241 314 L250.935 314 C264.029 314 273.437 323.725 281.476 313.388 C293.424 298.024 526.576 -1.56058 538.524 0.222453 C538.581 0.230929 548.443 1 548.5 1 L610.5 1 L639 1 C643.968 1 648 5.03227 648 10 C648 14.6083 643.926 20.6402 639.651 22.3612 L574.711 48.5061 C573.946 48.8141 567.825 50 567 50 L567 50 Z M201 388.5 L201 608 C201 618.493 209.001 627.002 219.494 626.997 C256.505 626.977 302.15 626.85 303 626 C406 626 475 570 475 485 C475 403 363 348 282 348 L241.5 348 C219.145 348 201 366.145 201 388.5 L201 388.5 Z " />
<glyph glyph-name="racute" unicode="&#x155;" horiz-adv-x="343" d="M229 530 C230.725 530 234.419 531.778 235.496 533.126 L344 669 C355 683 362 707 362 707 C362 707 354.675 707 349.5 707 L337 707 C324.616 707 306.435 695.678 300.972 684.564 L226.764 533.59 C225.89 531.812 227.019 530 229 530 L229 530 Z M261 460 C235.65 460 203.646 423.876 167.767 367.385 C166.763 365.804 164.828 367.129 164.75 369 L164.5 375 C163.5 405 162 460 162 460 C162 460 159.836 460 157 460 C155.971 460 148.316 458.519 147.361 458.135 L52.7835 420.119 C51.358 419.546 50 417.536 50 416 C50 414.739 51.3243 411.873 52.2846 411.056 L97 373 C108 364 115 357 115 357 C115 357 115 358.646 115 352.05 L115 86.225 C115 68.286 98.5944 41.9234 82.5 34 L58.0745 21.9752 C54.0759 20.0066 50 13.4569 50 9 C50 4.03227 54.0323 0 59 0 L226 0 C230.968 0 235 4.03227 235 9 C235 13.518 230.924 19.8634 226.815 21.7418 L200 34 C182.43 42.032 165 69.1648 165 88.4838 L165 323.955 C165 329.723 171.671 352.279 174.889 357.066 C197.406 390.563 216 412 230 412 C246 412 268 407 285 400 C296 395 323 384 323 384 C323 384 316.638 384 326.5 384 C328.27 384 330.409 384.804 331.177 386.399 C338.487 401.582 343 416.45 343 425 C343 443 287 460.5 261 460.5 L261 460 Z " />
<glyph glyph-name="Rcaron" unicode="&#x158;" horiz-adv-x="662" d="M464 867 L463 867 L464 868 L464 867 L464 867 Z M324.5 710.5 C328.327 710.5 336.798 714.485 339.238 717.434 L460.769 864.303 C461.718 865.45 460.988 867 459.5 867 C458.285 867 454.224 865.563 453.279 864.798 L364.252 792.761 C342.997 775.562 307.227 775.834 286.235 793.355 L201.071 864.437 C199.985 865.343 195.415 867 194 867 C192.273 867 191.416 865.222 192.491 863.871 L309.394 717.041 C311.815 714.001 320.614 710.5 324.5 710.5 L324.5 710.5 Z M567 50 C565.298 50 559.359 54.3547 558.269 55.6622 C505.358 119.158 424.268 221.84 373.399 286.782 C362.836 300.267 366.579 321.59 382.875 326.867 C461.734 352.406 536 411.25 536 490 C536 593 448 661 316 661 L74.5 661 C69.2563 661 65 656.744 65 651.5 C65 646.718 69.3026 640.064 73.6633 638.102 L108.773 622.302 C127.008 614.096 145 586.27 145 566.274 L145 95.7262 C145 75.7299 127.008 47.9035 108.773 39.6978 L73.6633 23.8985 C69.3026 21.9362 65 15.2819 65 10.5 C65 5.25628 69.2563 1 74.5 1 L266.5 1 C271.744 1 276 5.25628 276 10.5 C276 15.2273 271.697 22.0653 267.436 24.1109 L235.853 39.2706 C218.51 47.5954 201 75.4223 201 94.6601 L201 274 C201 296.079 218.921 314 241 314 L250.935 314 C264.029 314 273.437 323.725 281.476 313.388 C293.424 298.024 526.576 -1.56058 538.524 0.222453 C538.581 0.230929 548.443 1 548.5 1 L610.5 1 L639 1 C643.968 1 648 5.03227 648 10 C648 14.6083 643.926 20.6402 639.651 22.3612 L574.711 48.5061 C573.946 48.8141 567.825 50 567 50 L567 50 Z M201 388.5 L201 608 C201 618.493 209.001 627.002 219.494 626.997 C256.505 626.977 302.15 626.85 303 626 C406 626 475 570 475 485 C475 403 363 348 282 348 L241.5 348 C219.145 348 201 366.145 201 388.5 L201 388.5 Z " />
<glyph glyph-name="rcaron" unicode="&#x159;" horiz-adv-x="343" d="M238.367 542.225 L360.913 707.19 C361.838 708.435 361.051 710 359.5 710 C358.207 710 354.36 708.523 353.399 707.658 L266.6 629.472 C243.737 608.877 206.459 609.092 183.835 629.949 L99.5734 707.628 C98.6106 708.515 94.8094 710 93.5 710 C91.928 710 91.1206 708.431 92.0343 707.152 L209.769 542.324 C212.118 539.034 219.958 535 224 535 C227.988 535 235.989 539.024 238.367 542.225 L238.367 542.225 Z M261 460 C235.65 460 203.646 423.876 167.767 367.385 C166.763 365.804 164.828 367.129 164.75 369 L164.5 375 C163.5 405 162 460 162 460 C162 460 159.836 460 157 460 C155.971 460 148.316 458.519 147.361 458.135 L52.7835 420.119 C51.358 419.546 50 417.536 50 416 C50 414.739 51.3243 411.873 52.2846 411.056 L97 373 C108 364 115 357 115 357 C115 357 115 358.646 115 352.05 L115 86.225 C115 68.286 98.5944 41.9234 82.5 34 L58.0745 21.9752 C54.0759 20.0066 50 13.4569 50 9 C50 4.03227 54.0323 0 59 0 L226 0 C230.968 0 235 4.03227 235 9 C235 13.518 230.924 19.8634 226.815 21.7418 L200 34 C182.43 42.032 165 69.1648 165 88.4838 L165 323.955 C165 329.723 171.671 352.279 174.889 357.066 C197.406 390.563 216 412 230 412 C246 412 268 407 285 400 C296 395 323 384 323 384 C323 384 316.638 384 326.5 384 C328.27 384 330.409 384.804 331.177 386.399 C338.487 401.582 343 416.45 343 425 C343 443 287 460.5 261 460.5 L261 460 Z " />
<glyph glyph-name="Sacute" unicode="&#x15a;" horiz-adv-x="511" d="M237 705 C238.651 705 242.56 706.757 243.656 707.991 L352 830 C363 843 370 865 370 865 C370 865 363.116 865 358.457 865 L345 865 C332.886 865 313.83 853.688 308.029 843.053 L234.915 709.012 C233.987 707.31 235.062 705 237 705 L237 705 Z M347 617 C355 613 362 606 365 599 C376.692 570.744 392.182 533.943 404.069 505.248 C405.085 502.796 407.359 503.236 410 503.5 L411.951 503.695 C412.118 503.712 417.896 504 418.064 504 L420.5 504 C423.531 504 425.857 506.465 425.682 509.491 L420.299 602.538 C419.593 614.754 411.928 630.479 401.281 636.512 C365.135 656.995 314.9 670 269 670 C159 670 86 599 86 493 C86 411 139 360 243 323 C348 286 402 239 402 167 C402 78 347 19 265 19 C238.675 19 191.436 33.2594 139.967 56.217 C138.801 56.7371 132.403 61.5972 131.5 62.5 C130.501 63.4989 125.485 70.853 124.97 72.1684 C112.61 103.708 97.1922 144.423 85.0078 175.438 C84.0306 177.925 81.659 177.766 79 177.5 L77.0492 177.305 C76.8817 177.288 71.1039 177 70.9356 177 L68.5 177 C65.468 177 63.1241 174.535 63.2766 171.507 L68.4364 69.0492 C69.2922 52.0541 80.4947 32.2835 96.1675 25.6554 C148.017 3.7275 212.15 -10 264 -10 C379 -10 455 66 455 181 C455 271 397 326 285 366 C190 400 141 444 141 513 C141 589 190 640 263 640 C286 640 316.5 631.5 346.5 617.5 L347 617 Z " />
<glyph glyph-name="sacute" unicode="&#x15b;" horiz-adv-x="414" d="M204 530 C205.725 530 209.419 531.778 210.496 533.126 L319 669 C330 683 337 707 337 707 C337 707 329.675 707 324.5 707 L312 707 C299.616 707 281.435 695.678 275.972 684.564 L201.764 533.59 C200.89 531.812 202.019 530 204 530 L204 530 Z M66.2664 19.1959 C106.667 1.7325 160.2 -10 202 -10 C287 -10 344 41 344 117 C344 181 303 221 224 252 C155 279 119 310 119 355 C119 404.4 156.003 440.262 209.43 436.009 C212.263 435.783 215.621 436.275 218.126 434.933 C221.368 433.196 286.425 397.95 303 357 C306 351 309 343 312 337 C312.741 335.519 313.698 337 315.354 337 L320.5 337 C325.192 337 329 340.808 329 345.5 L329 401.046 C329 413.01 321.908 427.247 311.11 432.4 C275.993 449.163 234.3 460 202 460 C126 460 76 410 76 336 C76 278 114 240 187 212 C262 183 301 149 301 101 C301 48 261 12 200 12 C152 12 119 36 100 72 C93.913 84.1739 84.8015 99.3724 77.9255 112.335 C76.3688 115.27 71.3222 118 68 118 C64.1362 118 61 114.864 61 111 L61 38 L60.5 30 C60.233 25.7285 62.3378 20.894 66.2664 19.1959 L66.2664 19.1959 Z " />
<glyph glyph-name="Scedilla" unicode="&#x15e;" horiz-adv-x="511" d="M251.588 -72.3677 L264.605 -43.7937 C270.102 -31.7284 305.409 -7.61399 318.326 -4.625 C403.406 15.0625 457 83.75 457 180 C457 270 399 325 287 365 C192 399 143 443 143 512 C143 588 192 639 265 639 C288 639 318 631 348 617 C356 613 363 606 366 599 C377.692 570.744 393.182 533.943 405.069 505.248 C406.085 502.796 408.359 503.236 411 503.5 L412.951 503.695 C413.118 503.712 418.896 504 419.064 504 L421.5 504 C424.531 504 426.857 506.465 426.682 509.491 L421.299 602.538 C420.593 614.754 412.928 630.479 402.281 636.512 C366.135 656.995 315.9 670 270 670 C160 670 87 599 87 493 C87 411 140 360 244 323 C349 286 403 239 403 167 C403 78 348 19 266 19 C239.675 19 192.436 33.2594 140.967 56.217 C139.801 56.7371 133.403 61.5972 132.5 62.5 C131.501 63.4989 126.485 70.853 125.97 72.1684 C113.61 103.708 98.1922 144.423 86.0078 175.438 C85.0306 177.925 82.659 177.766 80 177.5 L78.0492 177.305 C77.8817 177.288 72.1039 177 71.9356 177 L69.5 177 C66.468 177 64.1241 174.535 64.2766 171.507 L69.4926 67.9329 C70.3138 51.6254 81.194 32.4507 96.2101 26.0379 C144.693 5.33244 204.373 -8.32853 254.472 -9.89139 C257.823 -9.99592 257.75 -12.9528 256.391 -16.0176 C249.069 -32.5305 231.537 -70.2278 208.289 -120.687 C206.014 -125.626 208.031 -131.792 213 -134 L218.549 -136.466 C218.75 -136.555 225.21 -138.992 225.42 -139.057 C269.481 -152.897 298 -170.35 298 -184 C298 -207 282 -223 259 -223 C228.75 -223 201.021 -217.958 187.366 -210.186 C186.112 -209.472 184 -210.056 184 -211.5 C184 -213.195 185.7 -216.26 187.103 -217.212 C207.39 -230.975 239.5 -240 268 -240 C308 -240 335 -214 335 -174 C335 -152.55 309.136 -128.378 267.516 -110.467 C253.669 -104.508 245.339 -86.0856 251.588 -72.3677 L251.588 -72.3677 Z " />
<glyph glyph-name="scedilla" unicode="&#x15f;" horiz-adv-x="414" d="M65.9592 19.3384 C102.351 3.60413 149.839 -7.79662 189.471 -9.76087 C192.801 -9.92594 194.742 -12.9693 193.391 -16.0176 C186.069 -32.5305 168.538 -70.2278 145.289 -120.687 C143.014 -125.626 145.031 -131.792 150 -134 L155.549 -136.466 C155.75 -136.555 162.21 -138.992 162.42 -139.057 C206.481 -152.897 235 -170.35 235 -184 C235 -207 219 -223 196 -223 C165.75 -223 138.021 -217.958 124.366 -210.186 C123.112 -209.472 121 -210.056 121 -211.5 C121 -213.195 122.7 -216.26 124.103 -217.212 C144.39 -230.975 176.5 -240 205 -240 C245 -240 272 -214 272 -174 C272 -152.55 246.136 -128.378 204.516 -110.467 C190.67 -104.508 169.805 -113.561 176.068 -99.8505 C177.649 -96.3904 206.218 -33.8432 214.88 -14.707 C215.806 -12.6603 220.49 -9.71001 222.724 -9.4697 C296.469 -1.53625 344 46.775 344 116 C344 180 303 220 224 251 C155 278 119 309 119 354 C119 406 160 443 218 434 C252 427 286 397 303 355 C306 349 309 341 312 335 C312.741 333.519 313.698 335 315.354 335 L320.5 335 C325.192 335 329 338.808 329 343.5 L329 399.046 C329 411.01 321.908 425.247 311.11 430.4 C275.993 447.163 234.3 458 202 458 C126 458 76 408 76 334 C76 276 114 238 187 210 C262 181 301 147 301 99 C301 46 261 10 200 10 C152 10 119 34 100 70 C93.913 82.1739 84.8015 97.3724 77.9255 110.335 C76.3688 113.27 71.3222 116 68 116 C64.1362 116 61 112.864 61 109 L61 36 L60.5 29 C60.2327 25.2577 62.5155 20.8273 65.9592 19.3384 L65.9592 19.3384 Z " />
<glyph glyph-name="Scaron" unicode="&#x160;" horiz-adv-x="511" d="M386 867 L385 867 L386 868 L386 867 L386 867 Z M247 710.5 C250.615 710.5 258.614 714.264 260.919 717.049 L383.087 864.689 C383.901 865.672 383.276 867 382 867 C380.958 867 377.478 865.768 376.668 865.113 L287.098 792.637 C265.942 775.518 230.224 775.721 209.264 793.079 L122.696 864.768 C121.747 865.554 117.732 867 116.5 867 C114.989 867 114.239 865.444 115.18 864.262 L232.706 716.65 C234.992 713.778 243.33 710.5 247 710.5 L247 710.5 Z M347 617 C355 613 362 606 365 599 C376.692 570.744 392.182 533.943 404.069 505.248 C405.085 502.796 407.359 503.236 410 503.5 L411.951 503.695 C412.118 503.712 417.896 504 418.064 504 L420.5 504 C423.531 504 425.857 506.465 425.682 509.491 L420.299 602.538 C419.593 614.754 411.928 630.479 401.281 636.512 C365.135 656.995 314.9 670 269 670 C159 670 86 599 86 493 C86 411 139 360 243 323 C348 286 402 239 402 167 C402 78 347 19 265 19 C238.675 19 191.436 33.2594 139.967 56.217 C138.801 56.7371 132.403 61.5972 131.5 62.5 C130.501 63.4989 125.485 70.853 124.97 72.1684 C112.61 103.708 97.1922 144.423 85.0078 175.438 C84.0306 177.925 81.659 177.766 79 177.5 L77.0492 177.305 C76.8817 177.288 71.1039 177 70.9356 177 L68.5 177 C65.468 177 63.1241 174.535 63.2766 171.507 L68.4364 69.0492 C69.2922 52.0541 80.4947 32.2835 96.1675 25.6554 C148.017 3.7275 212.15 -10 264 -10 C379 -10 455 66 455 181 C455 271 397 326 285 366 C190 400 141 444 141 513 C141 589 190 640 263 640 C286 640 316.5 631.5 346.5 617.5 L347 617 Z " />
<glyph glyph-name="scaron" unicode="&#x161;" horiz-adv-x="414" d="M213.367 542.225 L335.913 707.19 C336.838 708.435 336.051 710 334.5 710 C333.207 710 329.36 708.523 328.399 707.658 L241.6 629.472 C218.737 608.877 181.459 609.092 158.835 629.949 L74.5734 707.628 C73.6106 708.515 69.8094 710 68.5 710 C66.928 710 66.1206 708.431 67.0343 707.152 L184.769 542.324 C187.118 539.034 194.958 535 199 535 C202.988 535 210.989 539.024 213.367 542.225 L213.367 542.225 Z M66.2664 19.1959 C106.667 1.7325 160.2 -10 202 -10 C287 -10 344 41 344 117 C344 181 303 221 224 252 C155 279 119 310 119 355 C119 404.4 156.003 440.262 209.43 436.009 C212.263 435.783 215.621 436.275 218.126 434.933 C221.368 433.196 286.425 397.95 303 357 C306 351 309 343 312 337 C312.741 335.519 313.698 337 315.354 337 L320.5 337 C325.192 337 329 340.808 329 345.5 L329 401.046 C329 413.01 321.908 427.247 311.11 432.4 C275.993 449.163 234.3 460 202 460 C126 460 76 410 76 336 C76 278 114 240 187 212 C262 183 301 149 301 101 C301 48 261 12 200 12 C152 12 119 36 100 72 C93.913 84.1739 84.8015 99.3724 77.9255 112.335 C76.3688 115.27 71.3222 118 68 118 C64.1362 118 61 114.864 61 111 L61 38 L60.5 30 C60.233 25.7285 62.3378 20.894 66.2664 19.1959 L66.2664 19.1959 Z " />
<glyph glyph-name="Tcaron" unicode="&#x164;" horiz-adv-x="675" d="M477 867 L476 867 L477 868 L477 867 L477 867 Z M337.5 710.5 C341.327 710.5 349.798 714.485 352.238 717.434 L473.769 864.303 C474.718 865.45 473.988 867 472.5 867 C471.285 867 467.224 865.563 466.279 864.798 L377.252 792.761 C355.997 775.562 320.227 775.834 299.235 793.355 L214.071 864.437 C212.985 865.343 208.415 867 207 867 C205.273 867 204.416 865.222 205.491 863.871 L322.394 717.041 C324.815 714.001 333.614 710.5 337.5 710.5 L337.5 710.5 Z M466 9.5 C466 14.4337 461.704 20.5467 457.062 22.2178 L406.629 40.3735 C385.529 47.9697 366 75.7556 366 98.1817 L366 564.56 C366 598.473 393.527 626 427.44 626 L509.45 626 C530.03 626 557.851 607.638 565.942 588.715 L608.462 489.275 C610.257 485.075 616.432 481 621 481 C625.968 481 630 485.032 630 490 L630 598.56 C630 632.473 602.473 660 568.56 660 L106.44 660 C72.527 660 45 632.473 45 598.56 L45 490 C45 485.032 49.0323 481 54 481 C58.5677 481 64.7426 485.075 66.5384 489.275 L109.058 588.715 C117.149 607.638 144.97 626 165.55 626 L247.56 626 C281.473 626 309 598.473 309 564.56 L309 98.1817 C309 75.7556 289.471 47.9697 268.371 40.3735 L217.938 22.2178 C213.296 20.5467 209 14.4337 209 9.5 C209 4.25628 213.256 0 218.5 0 L456.5 0 C461.744 0 466 4.25628 466 9.5 L466 9.5 Z " />
<glyph glyph-name="tcaron" unicode="&#x165;" horiz-adv-x="320" d="M294 750 L270.5 750 C257.626 750 245.703 739.454 244.131 726.676 L224.488 566.97 C224.221 564.795 225.809 563 228 563 C230.074 563 232.661 564.809 233.373 566.757 L300 749 C298 746 298 750 294 750 L294 750 Z M289 56 C288.626 57.1207 286.923 56.9734 286.293 55.9742 C276.012 39.6678 251.229 29 222 29 C176 29 146 58 146 101 L146 359.56 C146 393.473 173.527 421 207.44 421 L263.5 421 C271.504 421 278 427.496 278 435.5 C278 443.504 271.504 450 263.5 450 L195.51 450 C168.188 450 145.552 472.183 145 499.5 C144.749 511.914 127.817 515.623 122.4 504.45 L107.114 472.922 C102.773 463.969 81.3293 444.922 71.9269 441.667 L54.8666 435.762 C47.7194 433.287 49.4392 422.194 57 422 C78.5198 421.448 96 403.514 96 381.987 L96 90 C96 30 133 -10 189 -10 C229.95 -10 269.949 13.7656 288.607 50.1746 C289.201 51.3341 289.412 54.7639 289 56 L289 56 Z M301.418 752.782 L301.582 753.218 C301.599 753.264 301.518 753.295 301.5 753.25 C301.482 753.205 301.401 752.736 301.418 752.782 L301.418 752.782 Z " />
<glyph glyph-name="Utilde" unicode="&#x168;" horiz-adv-x="812" d="M267.977 708.05 C280.719 747.382 295.125 774 339 774 C377 774 429 713 467 713 C518.675 713 538.979 753.877 559.426 816.167 C560.084 818.17 559.108 821 557 821 C554.917 821 552.606 819.78 551.95 817.803 C538.281 776.617 523.9 750 481 750 C443 750 391 810 353 810 C300.35 810 280.021 770.074 260.501 709.685 C259.851 707.675 260.888 705 263 705 C265.087 705 267.334 706.065 267.977 708.05 L267.977 708.05 Z M153 565.274 L153 234 C153 88 256 -10 410 -10 C564 -10 667 88 667 234 L667 565.274 C667 585.27 684.992 613.096 703.227 621.302 L738.337 637.102 C742.697 639.064 747 645.718 747 650.5 C747 655.744 742.744 660 737.5 660 L532.5 660 C527.256 660 523 655.744 523 650.5 C523 645.566 527.296 639.453 531.938 637.782 L582.371 619.626 C603.471 612.03 623 584.244 623 561.818 L623 221 C623 104 545 26 427 26 C296 26 209 113 209 244 L209 565.274 C209 585.27 226.992 613.096 245.227 621.302 L280.337 637.102 C284.697 639.064 289 645.718 289 650.5 C289 655.744 284.744 660 279.5 660 L82.5 660 C77.2563 660 73 655.744 73 650.5 C73 645.718 77.3026 639.064 81.6633 637.102 L116.773 621.302 C135.008 613.096 153 585.27 153 565.274 L153 565.274 Z " />
<glyph glyph-name="utilde" unicode="&#x169;" horiz-adv-x="545" d="M125.977 538.05 C138.719 577.383 153.1 604 196 604 C234 604 286 543 324 543 C376.65 543 396.979 583.877 417.426 646.167 C418.166 648.42 416.872 651 414.5 651 C412.157 651 409.688 650.027 408.95 647.803 C395.282 606.617 380.925 580 339 580 C301 580 249 640 211 640 C157.375 640 137.022 600.074 117.501 539.685 C116.77 537.424 118.123 535 120.5 535 C122.848 535 125.254 535.817 125.977 538.05 L125.977 538.05 Z M404 361.516 L404 123.31 C404 110.01 394.654 88.0481 384.093 79.9641 C345.535 50.45 302.1 36 263 36 C190 36 141 76 141 137 L141 392.5 C141 424.238 115.238 450 83.5 450 L35 450 C30.0323 450 26 445.968 26 441 C26 436.543 30.0759 429.993 34.0745 428.025 L58.5 416 C74.5944 408.077 91 381.714 91 363.775 L91 107 C91 37 148 -10 234 -10 C275.65 -10 326.693 10.9525 377.301 52.8575 C388.54 62.163 404 53.0908 404 38.5 C404 17.2492 421.249 0 442.5 0 L515 0 C519.968 0 524 4.03227 524 9 C524 13.518 519.924 19.8634 515.815 21.7418 L489 34 C471.43 42.032 454 69.1648 454 88.4838 L454 390 C454 423.118 427.118 450 394 450 L343 450 C338.032 450 334 445.968 334 441 C334 436.482 338.076 430.137 342.185 428.258 L369 416 C386.57 407.968 404 380.835 404 361.516 L404 361.516 Z " />
<glyph glyph-name="Umacron" unicode="&#x16a;" horiz-adv-x="812" d="M302.5 767 L537.5 767 C546.056 767 553 773.944 553 782.5 C553 791.056 546.056 798 537.5 798 L302.5 798 C293.944 798 287 791.056 287 782.5 C287 773.944 293.944 767 302.5 767 L302.5 767 Z M153 565.274 L153 234 C153 88 256 -10 410 -10 C564 -10 667 88 667 234 L667 565.274 C667 585.27 684.992 613.096 703.227 621.302 L738.337 637.102 C742.697 639.064 747 645.718 747 650.5 C747 655.744 742.744 660 737.5 660 L532.5 660 C527.256 660 523 655.744 523 650.5 C523 645.566 527.296 639.453 531.938 637.782 L582.371 619.626 C603.471 612.03 623 584.244 623 561.818 L623 221 C623 104 545 26 427 26 C296 26 209 113 209 244 L209 565.274 C209 585.27 226.992 613.096 245.227 621.302 L280.337 637.102 C284.697 639.064 289 645.718 289 650.5 C289 655.744 284.744 660 279.5 660 L82.5 660 C77.2563 660 73 655.744 73 650.5 C73 645.718 77.3026 639.064 81.6633 637.102 L116.773 621.302 C135.008 613.096 153 585.27 153 565.274 L153 565.274 Z " />
<glyph glyph-name="umacron" unicode="&#x16b;" horiz-adv-x="545" d="M150.5 597 L385.5 597 C394.056 597 401 603.944 401 612.5 C401 621.056 394.056 628 385.5 628 L150.5 628 C141.944 628 135 621.056 135 612.5 C135 603.944 141.944 597 150.5 597 L150.5 597 Z M404 361.516 L404 123.31 C404 110.01 394.654 88.0481 384.093 79.9641 C345.535 50.45 302.1 36 263 36 C190 36 141 76 141 137 L141 392.5 C141 424.238 115.238 450 83.5 450 L35 450 C30.0323 450 26 445.968 26 441 C26 436.543 30.0759 429.993 34.0745 428.025 L58.5 416 C74.5944 408.077 91 381.714 91 363.775 L91 107 C91 37 148 -10 234 -10 C275.65 -10 326.693 10.9525 377.301 52.8575 C388.54 62.163 404 53.0908 404 38.5 C404 17.2492 421.249 0 442.5 0 L515 0 C519.968 0 524 4.03227 524 9 C524 13.518 519.924 19.8634 515.815 21.7418 L489 34 C471.43 42.032 454 69.1648 454 88.4838 L454 390 C454 423.118 427.118 450 394 450 L343 450 C338.032 450 334 445.968 334 441 C334 436.482 338.076 430.137 342.185 428.258 L369 416 C386.57 407.968 404 380.835 404 361.516 L404 361.516 Z " />
<glyph glyph-name="Uring" unicode="&#x16e;" horiz-adv-x="812" d="M365 793 C365 828 385 851 414 851 C445 851 465 824 465 784 C465 752 443 725 418 725 C389 725 365 756 365 793 L365 793 Z M334 788 C334 746 371 710 415 710 C459 710 496 746 496 789 C496 835 464 866 415 866 C366 866 334 835 334 788 L334 788 Z M153 565.274 L153 234 C153 88 256 -10 410 -10 C564 -10 667 88 667 234 L667 565.274 C667 585.27 684.992 613.096 703.227 621.302 L738.337 637.102 C742.697 639.064 747 645.718 747 650.5 C747 655.744 742.744 660 737.5 660 L532.5 660 C527.256 660 523 655.744 523 650.5 C523 645.566 527.296 639.453 531.938 637.782 L582.371 619.626 C603.471 612.03 623 584.244 623 561.818 L623 221 C623 104 545 26 427 26 C296 26 209 113 209 244 L209 565.274 C209 585.27 226.992 613.096 245.227 621.302 L280.337 637.102 C284.697 639.064 289 645.718 289 650.5 C289 655.744 284.744 660 279.5 660 L82.5 660 C77.2563 660 73 655.744 73 650.5 C73 645.718 77.3026 639.064 81.6633 637.102 L116.773 621.302 C135.008 613.096 153 585.27 153 565.274 L153 565.274 Z " />
<glyph glyph-name="uring" unicode="&#x16f;" horiz-adv-x="545" d="M218 618 C218 653 237 676 266 676 C297 676 317 649 317 609 C317 577 295 550 270 550 C242 550 218 581 218 618 L218 618 Z M187 613 C187 571 224 535 268 535 C311 535 348 571 348 614 C348 660 316 691 268 691 C219 691 187 660 187 613 L187 613 Z M404 361.516 L404 123.31 C404 110.01 394.654 88.0481 384.093 79.9641 C345.535 50.45 302.1 36 263 36 C190 36 141 76 141 137 L141 392.5 C141 424.238 115.238 450 83.5 450 L35 450 C30.0323 450 26 445.968 26 441 C26 436.543 30.0759 429.993 34.0745 428.025 L58.5 416 C74.5944 408.077 91 381.714 91 363.775 L91 107 C91 37 148 -10 234 -10 C275.65 -10 326.693 10.9525 377.301 52.8575 C388.54 62.163 404 53.0908 404 38.5 C404 17.2492 421.249 0 442.5 0 L515 0 C519.968 0 524 4.03227 524 9 C524 13.518 519.924 19.8634 515.815 21.7418 L489 34 C471.43 42.032 454 69.1648 454 88.4838 L454 390 C454 423.118 427.118 450 394 450 L343 450 C338.032 450 334 445.968 334 441 C334 436.482 338.076 430.137 342.185 428.258 L369 416 C386.57 407.968 404 380.835 404 361.516 L404 361.516 Z " />
</font>
</svg>
