<?xml version="1.0" encoding="UTF-8"?>
<svg xmlns="http://www.w3.org/2000/svg" xmlns:xlink="http://www.w3.org/1999/xlink" version="1.2" >
<font id="Karoll Round">
<font-face  font-family="Karoll" units-per-em="1024" ascent="975" descent="-300" font-style="normal" font-weight="400" font-stretch="normal" cap-height="924" x-height="488" underline-position="-125" underline-thickness="50" />
<missing-glyph  horiz-adv-x="100" d="" />
<glyph glyph-name="NULL" d="" />
<glyph glyph-name="CR" unicode="&#xd;" horiz-adv-x="256" d="" />
<glyph glyph-name="space" unicode="&#x20;" horiz-adv-x="248" d="" />
<glyph glyph-name="exclam" unicode="&#x21;" horiz-adv-x="245" d="M125 -10 C161 -10 185 14 185 50 C185 86 161 110 125 110 C89 110 65 86 65 50 C65 14 89 -10 125 -10 L125 -10 Z M75.242 605.25 L114.047 199.954 C114.571 194.485 119.505 190 125 190 C130.495 190 135.429 194.485 135.953 199.954 L174.758 605.25 C177.638 635.333 155.22 660 125 660 C94.7798 660 72.3617 635.333 75.242 605.25 L75.242 605.25 Z " />
<glyph glyph-name="quotedbl" unicode="&#x22;" horiz-adv-x="450" d="M286.239 695.435 L313.614 499.903 C314.371 494.49 319.534 490 325 490 C330.466 490 335.629 494.49 336.386 499.903 L363.761 695.435 C367.171 719.796 349.599 740 325 740 C300.401 740 282.829 719.796 286.239 695.435 L286.239 695.435 Z M86.2392 695.435 L113.614 499.903 C114.371 494.49 119.534 490 125 490 C130.466 490 135.629 494.49 136.386 499.903 L163.761 695.435 C167.171 719.796 149.599 740 125 740 C100.401 740 82.8286 719.796 86.2392 695.435 L86.2392 695.435 Z " />
<glyph glyph-name="numbersign" unicode="&#x23;" horiz-adv-x="498" d="M142.257 355.967 L123.918 293.207 C117.074 269.786 89.3451 249 64.9439 249 L23.5 249 C10.5287 249 0 238.471 0 225.5 C0 212.529 10.5287 202 23.5 202 L49 202 C74.9618 202 91.5409 179.886 84.2621 154.965 L46.0091 23.9973 C42.2955 11.2828 50.7542 0 64 0 C77.2458 0 92.2955 11.2828 96.0091 23.9973 L135.086 157.786 C141.928 181.212 169.657 202 194.062 202 L212 202 C245.909 202 267.564 173.116 258.057 140.567 L224.009 23.9973 C220.295 11.2828 228.754 0 242 0 C255.246 0 270.295 11.2828 274.009 23.9973 L313.086 157.786 C319.928 181.212 347.657 202 372.062 202 L416.5 202 C429.471 202 440 212.529 440 225.5 C440 238.471 429.471 249 416.5 249 L389.5 249 C362.744 249 345.66 271.791 353.164 297.473 L371.082 358.793 C377.926 382.214 405.655 403 430.056 403 L474.5 403 C487.471 403 498 413.529 498 426.5 C498 439.471 487.471 450 474.5 450 L448 450 C421.497 450 404.554 472.564 411.947 498.015 L452.026 635.992 C455.723 648.718 447.252 660 434 660 C420.748 660 405.723 648.718 402.026 635.992 L360.869 494.302 C354.047 470.819 326.32 450 301.867 450 L284 450 C250.076 450 228.39 478.882 237.853 511.46 L274.026 635.992 C277.723 648.718 269.252 660 256 660 C242.748 660 227.723 648.718 224.026 635.992 L182.869 494.302 C176.047 470.819 148.32 450 123.867 450 L81.5 450 C68.5287 450 58 439.471 58 426.5 C58 413.529 68.5287 403 81.5 403 L107 403 C132.961 403 149.538 380.886 142.257 355.967 L142.257 355.967 Z M252.056 403 L270 403 C303.908 403 325.56 374.116 316.049 341.569 L301.918 293.207 C295.074 269.786 267.345 249 242.944 249 L225 249 C191.092 249 169.44 277.884 178.951 310.431 L193.082 358.793 C199.926 382.214 227.655 403 252.056 403 L252.056 403 Z " />
<glyph glyph-name="dollar" unicode="&#x24;" horiz-adv-x="500" d="M289 720.494 L289 678.014 C289 673.145 284.718 669.245 279.852 669.412 C267.481 669.838 254.519 669.745 242.148 668.838 C237.36 668.487 233 672.254 233 677.055 L233 718.5 C233 729.815 223.815 739 212.5 739 C201.185 739 192 729.815 192 718.5 L192 700 C192 683.585 170.521 655.087 155.534 648.39 C91.015 619.56 52 562.95 52 489 C52 417.6 85.9575 367.875 153.258 331.841 C169.044 323.39 192 290.226 192 272.32 L192 66.5637 C192 52.4057 182.427 45.4597 169.996 52.2365 C138.057 69.6481 119 100.4 119 140 L119 167 C118 167 114 171 114 171 C114 171 114.941 171 111.172 171 L86 171 C63 171 47 159 47 140 C47 73.7 87.46 24.0175 154.255 2.00675 C169.631 -3.05995 192 -27.311 192 -43.5 L192 -59.5 C192 -70.8154 201.185 -80 212.5 -80 C223.815 -80 233 -70.8154 233 -59.5 L233 -19.5 C233 -14.3577 237.275 -10.0115 242.417 -9.91204 C254.861 -9.6713 266.861 -8.91204 278.417 -7.33796 C282.912 -6.72565 287 -10.0947 287 -14.6313 L287 -59.5 C287 -70.8154 296.185 -80 307.5 -80 C318.815 -80 328 -70.8154 328 -59.5 L328 -35.4969 C328 -20.2817 352.112 14.9334 365.058 22.9271 C418.691 56.0431 450 111.875 450 182 C450 239.8 420.378 294.71 361.747 336.29 C350.086 344.559 328 379.649 328 393.944 L328 590.962 C328 597.533 334.166 600.04 339.083 595.681 C354.298 582.198 363 564.273 363 543 L363 520.202 C363 518.822 364.422 515.862 365.5 515 C366.362 514.31 370.098 513 371.202 513 L396 513 C419 513 435 525 435 543 C435 591.675 407.094 630.141 360.267 651.659 C347.423 657.561 328 682.942 328 697.077 L328 721.494 C328 732.257 319.26 740.776 308.5 740.5 C297.74 740.224 289 731.257 289 720.494 L289 720.494 Z M278.178 379.234 C264.893 384.097 251.497 389.033 239.65 394.375 C235.362 396.309 232 402.24 232 406.944 L232 611.945 C232 617.213 235.582 621.435 240.842 621.734 C253.613 622.458 267.253 621.87 279.561 620.282 C284.475 619.649 287.985 615.323 287.964 610.369 L287.042 386.124 C287.02 380.88 283.102 377.432 278.178 379.234 L278.178 379.234 Z M175.712 437.217 C152.571 460.476 141 488.175 141 522 C141 554.175 153.932 580.905 176.427 598.821 C184.058 604.899 192 600.639 192 590.882 L192 444.401 C192 434.425 182.748 430.146 175.712 437.217 L175.712 437.217 Z M244.364 294.994 C257.646 288.971 269.678 282.866 280.754 276.382 C284.766 274.033 288 267.215 288 262.566 L288 53.3815 C288 48.567 284.513 43.8763 279.833 42.7454 C268.722 40.0602 256.722 38.6343 243.833 38.1713 C238.118 37.966 233.984 42.2814 233.962 47.9999 L233.044 288.576 C233.021 294.441 239.023 297.416 244.364 294.994 L244.364 294.994 Z M343.495 226.565 C362.791 203.5 373 178.75 373 154 C373 122.65 362.11 96.0644 343.138 76.4892 C337.552 70.7263 330 73.7749 330 81.8003 L330 221.551 C330 229.611 338.323 232.747 343.495 226.565 L343.495 226.565 Z " />
<glyph glyph-name="ampersand" unicode="&#x26;" horiz-adv-x="691" d="M516.804 445.121 L534.453 424.204 C538.154 419.818 536.933 418.26 541.737 421.4 C554.13 429.5 576 470 576 470 C576 470 556.942 470 547.588 470 L520 470 C515.032 470 511 465.968 511 461 C511 457.796 514.738 447.57 516.804 445.121 L516.804 445.121 Z M560.465 429.514 C530.808 352.743 503.122 284.842 473.596 228.479 C462.898 208.056 441.894 207.615 425.284 223.604 L306.672 337.775 C287.848 355.895 292.69 387.978 314.525 402.326 C382.162 446.774 423 497.45 423 542 C423 618 359 669 263 669 C152 669 78 605 78 509 C78 458.675 99.78 418.559 136.602 376.3 C148.083 363.123 144.843 340.957 129.621 332.371 C40.44 282.07 21 227.8 21 163 C21 59 96 -11 209 -11 C289.025 -11 351.354 13.5025 403.286 58.5769 C419.193 72.383 451.326 74.5245 466.612 60.0345 L513.225 15.8497 C519.974 9.45135 546.192 -1 555.492 -1 L697 -1 C701.968 -1 706 3.03227 706 8 C706 12.7269 701.934 18.3142 697.436 19.7681 L620.551 44.62 C617.26 45.6836 599.245 56.492 596.758 58.8947 L519.036 133.982 C503.815 148.687 498.174 177.699 508.425 196.216 C541.287 255.571 571.356 325.888 602.822 404.838 C607.279 416.023 627.788 433.263 639.21 437.07 L669.462 447.154 C673.933 448.644 678 454.287 678 459 C678 463.967 673.968 468.079 669.002 468.176 L619.193 469.153 C596.882 469.591 568.506 450.329 560.465 429.514 L560.465 429.514 Z M190.058 321.997 C196.286 315.98 203.143 309.857 210 303 L380.912 140.943 C394.559 128.003 395.007 110.562 380.8 98.2393 C344.802 67.0156 303.325 50 253 50 C170 50 114 104 114 185 C114 241.55 126.358 287.168 182.588 321.853 C184.858 323.254 188.14 323.851 190.058 321.997 L190.058 321.997 Z M220.957 421.1 C187.419 455.979 167 485.225 167 524 C167 586 203 627 257 627 C306 627 339 591 339 536 C339 494.35 312.99 451.255 268.954 415.927 C252.798 402.966 235.312 406.171 220.957 421.1 L220.957 421.1 Z " />
<glyph glyph-name="quotesingle" unicode="&#x27;" horiz-adv-x="250" d="M86.2392 695.435 L113.614 499.903 C114.371 494.49 119.534 490 125 490 C130.466 490 135.629 494.49 136.386 499.903 L163.761 695.435 C167.171 719.796 149.599 740 125 740 C100.401 740 82.8286 719.796 86.2392 695.435 L86.2392 695.435 Z " />
<glyph glyph-name="parenleft" unicode="&#x28;" horiz-adv-x="250" d="M212.562 731.046 C116.692 614.264 53 482.2 53 295 C53 107.8 116.692 -24.2637 212.562 -141.046 C215.997 -145.23 227.087 -150 232.5 -150 C237.731 -150 242.719 -147.318 239.422 -143.256 C167.531 -54.6837 120 69.775 120 295 C120 520.225 167.531 644.684 239.422 733.256 C242.719 737.318 237.731 740 232.5 740 C227.087 740 215.997 735.23 212.562 731.046 L212.562 731.046 Z " />
<glyph glyph-name="parenright" unicode="&#x29;" horiz-adv-x="250" d="M62.4376 -141.046 C158.308 -24.2637 222 107.8 222 295 C222 482.2 158.308 614.264 62.4376 731.046 C59.003 735.23 47.913 740 42.5 740 C37.2695 740 32.2815 737.318 35.5777 733.256 C107.469 644.684 155 520.225 155 295 C155 69.775 107.469 -54.6837 35.5777 -143.256 C32.2815 -147.318 37.2695 -150 42.5 -150 C47.913 -150 59.003 -145.23 62.4376 -141.046 L62.4376 -141.046 Z " />
<glyph glyph-name="plus" unicode="&#x2b;" horiz-adv-x="510" d="M229 456 L229 358.44 C229 324.527 201.473 297 167.56 297 L65 297 C51.2007 297 40 285.799 40 272 C40 258.201 51.2007 247 65 247 L167.56 247 C201.473 247 229 219.473 229 185.56 L229 78 C229 63.6488 240.649 52 255 52 C269.351 52 281 63.6488 281 78 L281 185.56 C281 219.473 308.527 247 342.44 247 L445 247 C458.799 247 470 258.201 470 272 C470 285.799 458.799 297 445 297 L342.44 297 C308.527 297 281 324.527 281 358.44 L281 456 C281 470.351 269.351 482 255 482 C240.649 482 229 470.351 229 456 L229 456 Z " />
<glyph glyph-name="comma" unicode="&#x2c;" horiz-adv-x="247" d="M90 0 C120 -14 140 -49 140 -87 C140 -122.15 111.12 -160.91 67.078 -186.132 C63.1064 -188.407 60 -195.423 60 -200 C60 -204.972 61.7195 -209.153 66.0989 -206.8 C144.716 -164.556 197 -97.5 197 -39 C197 21 171 73 132 91 C104 103 98 106 81 79 L54.619 33.5156 C53.565 31.6983 52.8963 26.0123 53.5 24 C54.0835 22.0551 57.8032 17.4782 59.5877 16.5095 L90 0 L90 0 Z " />
<glyph glyph-name="hyphen" unicode="&#x2d;" horiz-adv-x="375" d="M85 217 L290 217 C309.319 217 325 232.681 325 252 C325 271.319 309.319 287 290 287 L85 287 C65.681 287 50 271.319 50 252 C50 232.681 65.681 217 85 217 L85 217 Z " />
<glyph glyph-name="period" unicode="&#x2e;" horiz-adv-x="250" d="M125 -10 C161 -10 185 14 185 50 C185 86 161 110 125 110 C89 110 65 86 65 50 C65 14 89 -10 125 -10 L125 -10 Z " />
<glyph glyph-name="slash" unicode="&#x2f;" horiz-adv-x="250" d="M25 -120 C38.4485 -120 52.588 -108.742 55.601 -95.6355 L244.399 725.636 C247.412 738.742 238.448 750 225 750 C211.552 750 197.412 738.742 194.399 725.636 L5.60103 -95.6355 C2.58802 -108.742 11.5515 -120 25 -120 L25 -120 Z " />
<glyph glyph-name="zero" unicode="0" horiz-adv-x="526" d="M128 361 C128 518 175 623 246 623 C341 623 404 496 404 306 C404 146 354 39 279 39 C188 39 128 168 128 361 L128 361 Z M33 330 C33 126 125 -10 263 -10 C401 -10 493 129 493 338 C493 537 401 670 263 670 C125 670 33 534 33 330 L33 330 Z " />
<glyph glyph-name="one" unicode="1" horiz-adv-x="500" d="M395 9 C395 13.4569 390.924 20.0066 386.925 21.9752 L362.5 34 C346.406 41.9234 330 68.286 330 86.225 L330 650 C330 655.52 325.52 660 320 660 C317.089 660 303.978 656.261 301.504 654.725 L84.8677 520.23 C77.8956 515.902 70 501.707 70 493.5 C70 484.85 77.9251 479.94 85.6703 483.79 L157.5 519.5 C200.748 541 245 513.581 245 465.284 L245 86.225 C245 68.286 228.594 41.9234 212.5 34 L188.075 21.9752 C184.076 20.0066 180 13.4569 180 9 C180 4.03227 184.032 0 189 0 L386 0 C390.968 0 395 4.03227 395 9 L395 9 Z " />
<glyph glyph-name="two" unicode="2" horiz-adv-x="480" d="M454.272 43.8789 L463.202 138.538 C463.64 143.188 460.171 147 455.5 147 C451.477 147 444.697 143.161 442.627 139.711 L425.898 111.829 C417.426 97.7108 389.678 82 373.213 82 L285.5 82 C234.105 82 212.983 140.47 246.253 179.643 C388.477 347.097 447 423.3 447 493 C447 599 377 670 271 670 C132 670 40 602 40 499 C40 474 56 457 80 457 L122.464 457 C123.844 457 127.524 458.524 128.5 459.5 C129.476 460.476 131 464.156 131 465.536 L131 488.5 C131 502.676 144.639 518.391 130.882 514.971 C128.294 514.327 83.8643 503.338 54.3066 499.972 C53.016 499.825 52.0167 501.113 53.296 501.338 L98.991 509.372 C111.305 511.537 131.78 534.889 134.919 546.991 C147.043 593.733 186.375 623 240 623 C306 623 350 571 350 492 C350 359.4 270.147 283.838 65.9533 43.7931 C63.0473 40.3769 50 16.985 50 12.5 C50 5.60037 55.6004 0 62.5 0 L433.5 0 C444.815 0 454 9.18461 454 20.5 L454 38.1083 C454 38.2582 454.258 43.7297 454.272 43.8789 L454.272 43.8789 Z " />
<glyph glyph-name="three" unicode="3" horiz-adv-x="498" d="M123 120 L123 141.343 C123 143.551 120.561 149.439 119 151 C117.439 152.561 111.551 155 109.343 155 L79.8323 155 C77.3009 155 70.242 155.919 67.8996 154.959 C65.8467 154.118 33 140.344 33 120 C33 42 117 -10 242 -10 C382 -10 475 64 475 175 C475 263.4 430.205 321.455 342.457 347.937 C332.401 350.972 330.919 371.668 340.507 375.959 C409.608 406.882 445 457.475 445 521 C445 610 373 670 265 670 C138 670 54 612 54 524 C54 503 94 489 94 489 C94 489 70.5284 489 104.441 489 L129.343 489 C131.551 489 137.439 491.439 139 493 C140.561 494.561 143 500.449 143 502.657 L143 535 C143 589 183 625 243 625 C307 625 349 580 349 513 C349 432 294 375 187 364 C186.852 363.985 184.855 363.991 184.706 363.99 C174.765 363.903 164.824 363.265 154.882 362.524 C151.295 362.257 148 359.078 148 355.481 L148 340 C148 328.313 158.564 318.796 170.244 319.2 C307.605 323.958 378 274.7 378 174 C378 90 323 34 241 34 C170 34 122.5 68.5 122.5 119.5 L123 120 Z " />
<glyph glyph-name="four" unicode="4" horiz-adv-x="501" d="M341.35 649.952 C241.9 519.35 142.45 389.675 43 260 L14.8612 221.102 C12.965 218.481 9 206.235 9 203 C9 197.48 13.4803 193 19 193 L223.56 193 C257.473 193 285 165.473 285 131.56 L285 86.225 C285 68.286 268.594 41.9234 252.5 34 L228.075 21.9752 C224.076 20.0066 220 13.4569 220 9 C220 4.03227 224.032 0 229 0 L426 0 C430.968 0 435 4.03227 435 9 C435 13.4569 430.924 20.0066 426.925 21.9752 L402.5 34 C386.406 41.9234 370 68.286 370 86.225 L370 133.5 C370 166.342 396.658 193 429.5 193 L455.5 193 C473.991 193 489 208.009 489 226.5 C489 244.991 473.991 260 455.5 260 L429.5 260 C396.658 260 370 286.658 370 319.5 L370 649.5 C370 655.296 365.296 660 359.5 660 C354.89 660 344.143 653.62 341.35 649.952 L341.35 649.952 Z M285 383.5 L285 321.44 C285 287.527 257.473 260 223.56 260 L195 260 C154.852 260 134.36 300.289 158.005 332.735 L212.265 407.191 C235.91 439.637 285 423.648 285 383.5 L285 383.5 Z " />
<glyph glyph-name="five" unicode="5" horiz-adv-x="500" d="M366 660 L147.44 660 C113.527 660 86 632.473 86 598.56 L86 355.92 C86 350.445 91.1737 346.44 96.5334 347.558 C118.355 352.11 150.4 355 181 355 C303 355 384 291 384 195 C384 101 324 39 235 39 C188.2 39 138.548 65.6175 120.338 104.95 C119.332 107.124 116.396 108 114 108 L109 108 C98 108 73 81 73 81 C73 81 95.5433 96.383 67.5667 77.2153 C59.7474 71.8581 55 68.1765 55 55 C55 49.6667 57.3704 43.5432 61.4088 38.0343 C61.4103 38.0322 64.4868 33.9209 64.4883 33.9189 C84.6538 7.11125 136.475 -10 194 -10 C351 -10 455 88 455 236 C455 354 351 433 195 433 C171.857 433 150.918 431.531 139.111 429.851 C136.505 429.481 134 431.467 134 434.099 L134 520.56 C134 554.473 161.527 582 195.44 582 L366 582 C387.527 582 405 599.473 405 621 C405 642.527 387.527 660 366 660 L366 660 Z " />
<glyph glyph-name="six" unicode="6" horiz-adv-x="501" d="M403.894 665.14 C183.396 599.234 37 428 37 233 C37 87 125 -10 256 -10 C385 -10 471 74 471 201 C471 313 402 388 299 388 C243.725 388 194.576 369.623 158.852 337.361 C153.229 332.284 140.783 331.185 142.36 338.596 C172.982 482.496 272.14 595.893 409.758 636.84 C417.129 639.033 421 647.31 421 655 C421 663.16 411.712 667.476 403.894 665.14 L403.894 665.14 Z M134.089 242.52 C149.135 289.315 198.25 320 260 320 C331 320 379 264 379 180 C379 94 330 36 256 36 C184.825 36 135.99 111.099 131.739 226.077 C131.664 228.109 133.467 240.585 134.089 242.52 L134.089 242.52 Z " />
<glyph glyph-name="seven" unicode="7" horiz-adv-x="500" d="M50 621.5 C50 600.249 67.2492 583 88.5 583 L278.735 583 C329.176 583 355.658 532.799 331.075 488.754 C195.355 245.586 104.115 69.874 85.515 14.866 C82.0134 4.51035 86.0684 0 97 0 L142 0 C165.526 0 194.622 22.7352 198.865 45.875 C221.328 168.375 319.875 395 459 640 C460.346 642.37 459 647.274 459 650 C459 655.52 454.52 660 449 660 L88.5 660 C67.2492 660 50 642.751 50 621.5 L50 621.5 Z " />
<glyph glyph-name="eight" unicode="8" horiz-adv-x="493" d="M280.5 374 L273 377 C179 421 143 475 143 530 C143 586 182 623 241 623 C310 623 356 571 356 494 C356 439.85 333.438 397.884 294.314 374.103 C291.046 372.116 284.051 372.579 280.5 374 L280.5 374 Z M361.142 364.026 C412.052 392.151 442 440.95 442 502 C442 603 365 670 250 670 C132 670 53 602 53 500 C53 448.15 76.8425 397.022 134.968 350.302 C146.56 340.984 142.389 316.408 129.425 309.118 C72.0312 276.846 38 218.25 38 144 C38 51 121 -11 245 -11 C369 -11 451 61 451 170 C451 224.25 418.844 280.797 354.531 328.922 C343.672 337.048 349.27 357.468 361.142 364.026 L361.142 364.026 Z M217 298.5 L231 291 C321 249 367 192 367 138 C367 74 320 31 249 31 C176 31 128 85 128 167 C128 224.6 150.68 270.86 189.479 297.032 C196.888 302.03 209.122 302.72 217 298.5 L217 298.5 Z " />
<glyph glyph-name="nine" unicode="9" horiz-adv-x="499" d="M97.1063 -9.8067 C317.604 -4.75437 464 100.375 464 427 C464 573 376 670 245 670 C116 670 30 600 30 465 C30 349 102 272 210 272 C261.975 272 310.547 293.099 346.731 328.56 C353.126 334.827 365.877 326.311 364.893 317.412 C341.412 105.062 238.615 23.3229 92.9074 19.1679 C85.143 18.9465 80.7677 12.2629 80.5 4.5 C80.2181 -3.67576 88.9278 -9.9941 97.1063 -9.8067 L97.1063 -9.8067 Z M367.363 416.337 C349.18 368.685 303.2 338 250 338 C176 338 126 388 126 464 C126 569 174 623 246 623 C317.175 623 366.01 547.901 370.261 432.923 C370.361 430.228 368.324 418.856 367.363 416.337 L367.363 416.337 Z " />
<glyph glyph-name="colon" unicode="&#x3a;" horiz-adv-x="250" d="M125 330 C161 330 185 354 185 390 C185 426 161 450 125 450 C89 450 65 426 65 390 C65 354 89 330 125 330 L125 330 Z M125 -10 C161 -10 185 14 185 50 C185 86 161 110 125 110 C89 110 65 86 65 50 C65 14 89 -10 125 -10 L125 -10 Z " />
<glyph glyph-name="semicolon" unicode="&#x3b;" horiz-adv-x="247" d="M122 330 C158 330 182 354 182 390 C182 426 158 450 122 450 C86 450 62 426 62 390 C62 354 86 330 122 330 L122 330 Z M90 0 C120 -14 140 -49 140 -87 C140 -122.15 111.12 -160.91 67.078 -186.132 C63.1064 -188.407 60 -195.423 60 -200 C60 -204.972 61.7195 -209.153 66.0989 -206.8 C144.716 -164.556 197 -97.5 197 -39 C197 21 171 73 132 91 C104 103 98 106 81 79 L54.619 33.5156 C53.565 31.6983 52.8963 26.0123 53.5 24 C54.0835 22.0551 57.8032 17.4782 59.5877 16.5095 L90 0 L90 0 Z " />
<glyph glyph-name="equal" unicode="&#x3d;" horiz-adv-x="500" d="M40 170 C40 156.201 51.2007 145 65 145 L435 145 C448.799 145 460 156.201 460 170 C460 183.799 448.799 195 435 195 L65 195 C51.2007 195 40 183.799 40 170 L40 170 Z M40 374 C40 360.201 51.2007 349 65 349 L435 349 C448.799 349 460 360.201 460 374 C460 387.799 448.799 399 435 399 L65 399 C51.2007 399 40 387.799 40 374 L40 374 Z " />
<glyph glyph-name="question" unicode="&#x3f;" horiz-adv-x="478" d="M212 -5 C248 -5 272 19 272 55 C272 91 248 115 212 115 C176 115 152 91 152 55 C152 19 176 -5 212 -5 L212 -5 Z M127.885 516.983 C125.302 516.61 79.6945 510.06 51.2461 508.387 C43.5474 507.934 39.5059 504.223 41.2176 496.704 C45.2222 479.111 58.8333 468 78 468 L114.169 468 C116.884 468 118.79 466.027 120.209 468.343 C121.284 470.099 126.222 478 128 478 L128 497.5 C128 508.145 138.421 518.505 127.885 516.983 L127.885 516.983 Z M131.125 549.072 C140.801 596.052 172.275 626 216 626 C285 626 331 574 331 495 C331 437.65 277.951 382.011 196.389 351.827 C184.275 347.344 176.184 333.47 177.579 320.628 C183.215 268.753 202 190 202 190 C202 190 205.009 190 212 190 C217.466 190 221.24 184.666 222.011 190.078 C222.248 191.738 226.212 219.621 230.321 252.737 C231.517 262.378 241.03 278.044 249.946 281.903 C355.312 327.515 423 408.55 423 495 C423 600 353 670 247 670 C141.6 670 65.8225 623.038 45.4607 549.379 C37.4546 520.416 54.1074 509.443 84 512.5 L95.6686 513.693 C109.497 515.108 128.32 535.458 131.125 549.072 L131.125 549.072 Z " />
<glyph glyph-name="A" unicode="A" horiz-adv-x="748" d="M234.624 21.3297 L181.915 42.2823 C171.226 46.5312 165.654 58.2048 169.756 68.9506 C184.419 107.36 204.5 160.4 230 225 L230 220 L442.72 220.419 C463.815 220.46 491.666 201.828 499.678 182.313 L536.218 93.3107 C546.025 69.4244 534.266 42.8242 510 34 L474.458 21.0757 C470.071 19.4802 466 13.6686 466 9 C466 4.03227 470.032 0 475 0 L705 0 C709.416 0 713 3.58424 713 8 C713 12.0274 709.377 17.629 705.704 19.2806 L670.45 35.1309 C662.167 38.8553 641.841 60.7168 638.312 69.0857 C568.414 234.875 401 641 401 641 L396 653 C393.452 659.114 384.624 665 378 665 L369 665 C357.797 665 342.835 655.039 338.512 644.703 L324 610 C221.325 361.175 142.607 169.677 102.885 71.9125 C99.0541 62.4835 79.4803 44.0432 70.0644 40.1803 L24.3265 21.416 C20.0745 19.6716 16 13.596 16 9 C16 4.03227 20.0323 0 25 0 L232.986 0 C237.954 0 242.224 4.03992 242.5 9 C242.762 13.7111 239.008 19.5868 234.624 21.3297 L234.624 21.3297 Z M369.351 274 L288.853 274 C267.879 274 254.137 289.554 261.837 309.064 C283.1 362.936 306.641 422.457 332.459 486.398 C340.141 505.423 365.31 507.022 373.104 488.043 L426.186 358.779 C443.962 315.491 416.147 274 369.351 274 L369.351 274 Z " />
<glyph glyph-name="B" unicode="B" horiz-adv-x="656" d="M267 368 L251 368 C242.168 368 235 375.168 235 384 L235 588.5 C235 597.614 241.446 605.003 250.56 604.996 C279.385 604.976 308.154 604.846 309 604 C406 604 456 554 456 479 C456 412 380 368 267 368 L267 368 Z M463.496 374.723 C517.691 405.598 549 450.375 549 504 C549 598 475 660 332 660 L74.5 660 C69.2563 660 65 655.744 65 650.5 C65 645.718 69.3026 639.064 73.6633 637.102 L108.773 621.302 C127.008 613.096 145 585.27 145 565.274 L145 94.7262 C145 74.7299 127.008 46.9035 108.773 38.6978 L73.6633 22.8985 C69.3026 20.9362 65 14.2819 65 9.5 C65 4.25628 69.2563 0 74.5 0 L328 0 C495 0 606 78 606 194 C606 264 559.297 318.688 467.9 346.674 C457.28 349.926 453.846 369.225 463.496 374.723 L463.496 374.723 Z M235 101.5 L235 263 C235 290.599 257.402 313 285 313 L335 313 C452 313 513 262 513 186 C513 107 439 55 328 55 L281.5 55 C255.833 55 235 75.8334 235 101.5 L235 101.5 Z " />
<glyph glyph-name="C" unicode="C" horiz-adv-x="717" d="M628.451 64.4783 L635.829 194.005 C635.92 195.589 635.072 196.988 633.487 197.055 C628.571 197.265 624.286 198 620 198 C603.436 165.846 582.125 124.199 565.317 91.5578 C564.946 90.8363 560.194 84.4334 559.675 83.8099 L559 83 C557.759 81.5109 548.774 74.4418 547.02 73.6181 C502.317 52.635 448.5 40 401 40 C258 40 163 160 163 341 C163 508 263 620 414 620 C455 620 500 608 536 589 C542 586 547 581 549 576 C567 539 590 488 608 451 C612.286 451 617.306 451.735 622.431 451.945 C624.02 452.01 624.943 453.409 624.879 454.998 L618.875 603.379 C618.331 616.819 611.91 630.566 600.042 636.898 C560.497 657.995 490.5 671 414 671 C208 671 70 527 70 311 C70 119 202 -9 401 -9 C480.9 -9 557.91 5.08875 605.008 27.125 C618.717 33.5389 627.591 49.3679 628.451 64.4783 L628.451 64.4783 Z " />
<glyph glyph-name="D" unicode="D" horiz-adv-x="775" d="M356 0 C565 7 705 130 705 360 C705 558 559 660 340 660 L74.5 660 C69.2563 660 65 655.744 65 650.5 C65 645.718 69.3026 639.064 73.6633 637.102 L108.773 621.302 C127.008 613.096 145 585.27 145 565.274 L145 94.7262 C145 74.7299 127.008 46.9035 108.773 38.6978 L73.6633 22.8985 C69.3026 20.9362 65 14.2819 65 9.5 C65 4.25628 69.2563 0 74.5 0 L356 0 L356 0 Z M235 114.5 L235 587 C235 596.929 241.692 604.997 251.622 605.003 C283.465 605.023 315.85 605.15 315 606 C493 606 612 510 612 325 C612 153 509 60 354 55 L294.5 55 C261.658 55 235 81.6578 235 114.5 L235 114.5 Z " />
<glyph glyph-name="E" unicode="E" horiz-adv-x="650" d="M571.5 180 C567.244 180 561.214 176.15 559.422 172.29 L521.509 90.58 C513.243 72.7652 485.416 55 465.776 55 L296.44 55 C262.527 55 235 82.527 235 116.44 L235 251.56 C235 285.473 262.527 313 296.44 313 L367.863 313 C386.013 313 413.826 296.189 422.262 280.119 L441.654 243.182 C444.267 238.206 452.88 233 458.5 233 C464.848 233 470 238.152 470 244.5 L470 436.5 C470 442.848 464.848 448 458.5 448 C452.88 448 444.267 442.794 441.654 437.818 L422.262 400.881 C413.826 384.811 386.013 368 367.863 368 L296.44 368 C262.527 368 235 395.527 235 429.44 L235 543.56 C235 577.473 262.527 605 296.44 605 L442.175 605 C460.817 605 488.639 587.872 497.033 571.227 L534.172 497.589 C536.059 493.849 542.311 490 546.5 490 C551.192 490 555 493.808 555 498.5 L555 598.56 C555 632.473 527.473 660 493.56 660 L74.5 660 C69.2563 660 65 655.744 65 650.5 C65 645.718 69.3026 639.064 73.6633 637.102 L108.773 621.302 C127.008 613.096 145 585.27 145 565.274 L145 94.7262 C145 74.7299 127.008 46.9035 108.773 38.6978 L73.6633 22.8985 C69.3026 20.9362 65 14.2819 65 9.5 C65 4.25628 69.2563 0 74.5 0 L518.56 0 C552.473 0 580 27.527 580 61.44 L580 171.5 C580 176.192 576.192 180 571.5 180 L571.5 180 Z " />
<glyph glyph-name="F" unicode="F" horiz-adv-x="615" d="M422.262 280.119 L441.654 243.182 C444.267 238.206 452.88 233 458.5 233 C464.848 233 470 238.152 470 244.5 L470 436.5 C470 442.848 464.848 448 458.5 448 C452.88 448 444.267 442.794 441.654 437.818 L422.262 400.881 C413.826 384.811 386.013 368 367.863 368 L296.44 368 C262.527 368 235 395.527 235 429.44 L235 543.56 C235 577.473 262.527 605 296.44 605 L432.175 605 C450.817 605 478.639 587.872 487.033 571.227 L524.172 497.589 C526.059 493.849 532.311 490 536.5 490 C541.192 490 545 493.808 545 498.5 L545 598.56 C545 632.473 517.473 660 483.56 660 L74.5 660 C69.2563 660 65 655.744 65 650.5 C65 645.718 69.3026 639.064 73.6633 637.102 L108.773 621.302 C127.008 613.096 145 585.27 145 565.274 L145 94.7262 C145 74.7299 127.008 46.9035 108.773 38.6978 L73.6633 22.8985 C69.3026 20.9362 65 14.2819 65 9.5 C65 4.25628 69.2563 0 74.5 0 L320.5 0 C325.744 0 330 4.25628 330 9.5 C330 14.4035 325.702 20.6288 321.116 22.3664 L274.668 39.9678 C254.193 47.7267 235 75.5253 235 97.421 L235 251.56 C235 285.473 262.527 313 296.44 313 L367.863 313 C386.013 313 413.826 296.189 422.262 280.119 L422.262 280.119 Z " />
<glyph glyph-name="G" unicode="G" horiz-adv-x="774" d="M689.094 251.845 L720.436 266.889 C724.697 268.935 729 275.773 729 280.5 C729 285.744 724.744 290 719.5 290 L488.5 290 C483.256 290 479 285.744 479 280.5 C479 275.671 483.302 269.178 487.748 267.295 L526.521 250.873 C545.57 242.806 564 214.986 564 194.298 L564 82.9765 C564 73.7194 558.244 64.8002 549.322 62.3301 C519.443 54.0575 477.75 49 431 49 C271 49 164 166 164 341 C164 508 268 620 425 620 C471 620 519 608 557 588 C562 585 567 580 570 574 C588 537 611 487 629 450 C633.286 450 638.306 450.735 643.431 450.945 C645.02 451.01 645.943 452.409 645.879 453.998 L639.875 602.379 C639.321 616.057 632.921 629.577 620.778 635.898 C580.252 656.995 506.6 670 425 670 C213 670 71 526 71 310 C71 118 204 -10 403 -10 C501.1 -10 592.72 17.54 640.681 59.498 C649.519 67.2297 654.933 84.8544 654.86 96.5966 L654.242 196.074 C654.121 215.501 671.579 243.438 689.094 251.845 L689.094 251.845 Z " />
<glyph glyph-name="H" unicode="H" horiz-adv-x="811" d="M746 9.5 C746 14.2819 741.697 20.9362 737.337 22.8985 L702.227 38.6978 C683.992 46.9035 666 74.7299 666 94.7262 L666 565.274 C666 585.27 683.992 613.096 702.227 621.302 L737.337 637.102 C741.697 639.064 746 645.718 746 650.5 C746 655.744 741.744 660 736.5 660 L505.5 660 C500.256 660 496 655.744 496 650.5 C496 645.718 500.303 639.064 504.663 637.102 L539.773 621.302 C558.008 613.096 576 585.27 576 565.274 L576 429.44 C576 395.527 548.473 368 514.56 368 L296.44 368 C262.527 368 235 395.527 235 429.44 L235 565.274 C235 585.27 252.992 613.096 271.227 621.302 L306.337 637.102 C310.697 639.064 315 645.718 315 650.5 C315 655.744 310.744 660 305.5 660 L74.5 660 C69.2563 660 65 655.744 65 650.5 C65 645.718 69.3026 639.064 73.6633 637.102 L108.773 621.302 C127.008 613.096 145 585.27 145 565.274 L145 94.7262 C145 74.7299 127.008 46.9035 108.773 38.6978 L73.6633 22.8985 C69.3026 20.9362 65 14.2819 65 9.5 C65 4.25628 69.2563 0 74.5 0 L305.5 0 C310.744 0 315 4.25628 315 9.5 C315 14.2819 310.697 20.9362 306.337 22.8985 L271.227 38.6978 C252.992 46.9035 235 74.7299 235 94.7262 L235 251.56 C235 285.473 262.527 313 296.44 313 L514.56 313 C548.473 313 576 285.473 576 251.56 L576 94.7262 C576 74.7299 558.008 46.9035 539.773 38.6978 L504.663 22.8985 C500.303 20.9362 496 14.2819 496 9.5 C496 4.25628 500.256 0 505.5 0 L736.5 0 C741.744 0 746 4.25628 746 9.5 L746 9.5 Z " />
<glyph glyph-name="I" unicode="I" horiz-adv-x="390" d="M320 9.5 C320 14.2819 315.697 20.9362 311.337 22.8985 L276.227 38.6978 C257.992 46.9035 240 74.7299 240 94.7262 L240 565.274 C240 585.27 257.992 613.096 276.227 621.302 L311.337 637.102 C315.697 639.064 320 645.718 320 650.5 C320 655.744 315.744 660 310.5 660 L79.5 660 C74.2563 660 70 655.744 70 650.5 C70 645.718 74.3026 639.064 78.6633 637.102 L113.773 621.302 C132.008 613.096 150 585.27 150 565.274 L150 94.7262 C150 74.7299 132.008 46.9035 113.773 38.6978 L78.6633 22.8985 C74.3026 20.9362 70 14.2819 70 9.5 C70 4.25628 74.2563 0 79.5 0 L310.5 0 C315.744 0 320 4.25628 320 9.5 L320 9.5 Z " />
<glyph glyph-name="J" unicode="J" horiz-adv-x="390" d="M150 565.274 L150 50 C150 -37.75 125.284 -96.9813 86.9736 -99.888 C86.2624 -99.9419 84.5906 -100.077 83.8833 -99.9848 C81.8769 -99.7231 54.4343 -96.1047 35.183 -91.5318 C34.8287 -91.4476 30.3642 -91 30 -91 C28.3725 -91 27.2831 -89.4985 26.9816 -91.0978 C26.5062 -93.6187 17 -144.075 17 -147 C17 -163 30 -173 50 -173 C164 -173 240 -7 240 243 L240 565.274 C240 585.27 257.992 613.096 276.227 621.302 L311.337 637.102 C315.697 639.064 320 645.718 320 650.5 C320 655.744 315.744 660 310.5 660 L79.5 660 C74.2563 660 70 655.744 70 650.5 C70 645.718 74.3026 639.064 78.6633 637.102 L113.773 621.302 C132.008 613.096 150 585.27 150 565.274 L150 565.274 Z " />
<glyph glyph-name="K" unicode="K" horiz-adv-x="741" d="M705.487 16.5657 L657.936 35.2978 C655.3 36.3364 638.943 47.0789 636.943 49.0857 L372.292 314.568 C347.85 339.088 348.323 378.429 373.348 402.354 L592.165 611.553 C594.031 613.338 609.988 623.488 612.395 624.422 L661.474 643.468 C664.832 644.771 668 649.398 668 653 C668 656.864 664.864 660 661 660 L435 660 C430.032 660 426 655.968 426 651 C426 646.46 430.076 640.188 434.224 638.345 L462 626 C480.679 617.698 484.855 596.344 470.679 581.618 L292 396 L237 338 C240 335 270 303 270 303 L542.866 18.8817 C550.085 11.3648 576.757 0 587.179 0 L705 0 C708.864 0 712 3.13621 712 7 C712 10.5949 708.832 15.2481 705.487 16.5657 L705.487 16.5657 Z M316 9.5 C316 14.2819 311.697 20.9362 307.337 22.8985 L272.227 38.6978 C253.992 46.9035 236 74.7299 236 94.7262 L236 565.274 C236 585.27 253.992 613.096 272.227 621.302 L307.337 637.102 C311.697 639.064 316 645.718 316 650.5 C316 655.744 311.744 660 306.5 660 L75.5 660 C70.2563 660 66 655.744 66 650.5 C66 645.718 70.3026 639.064 74.6633 637.102 L109.773 621.302 C128.008 613.096 146 585.27 146 565.274 L146 94.7262 C146 74.7299 128.008 46.9035 109.773 38.6978 L74.6633 22.8985 C70.3026 20.9362 66 14.2819 66 9.5 C66 4.25628 70.2563 0 75.5 0 L306.5 0 C311.744 0 316 4.25628 316 9.5 L316 9.5 Z " />
<glyph glyph-name="L" unicode="L" horiz-adv-x="630" d="M551 220 C546.35 220 540.47 215.928 538.834 211.575 L494.966 94.8288 C487.233 74.2494 459.437 55 437.452 55 L296.44 55 C262.527 55 235 82.527 235 116.44 L235 564.298 C235 584.986 253.43 612.806 272.479 620.873 L311.252 637.295 C315.698 639.178 320 645.671 320 650.5 C320 655.744 315.744 660 310.5 660 L74.5 660 C69.2563 660 65 655.744 65 650.5 C65 645.718 69.3026 639.064 73.6633 637.102 L108.773 621.302 C127.008 613.096 145 585.27 145 565.274 L145 94.7262 C145 74.7299 127.008 46.9035 108.773 38.6978 L73.6633 22.8985 C69.3026 20.9362 65 14.2819 65 9.5 C65 4.25628 69.2563 0 74.5 0 L498.56 0 C532.473 0 560 27.527 560 61.44 L560 211 C560 215.968 555.968 220 551 220 L551 220 Z " />
<glyph glyph-name="M" unicode="M" horiz-adv-x="963" d="M79.8049 637.398 L119.459 621.176 C139.919 612.806 158.326 584.395 157.603 562.301 L142.26 93.493 C141.634 74.3699 123.29 47.1289 105.806 39.3581 L68.6812 22.8583 C64.3024 20.9122 60 14.2918 60 9.5 C60 4.25628 64.2563 0 69.5 0 L274.5 0 C279.744 0 284 4.25628 284 9.5 C284 14.3197 279.698 20.8436 275.268 22.7422 L238.248 38.608 C218.644 47.0099 200.502 75.2773 201.029 96.5999 L206 297.5 C207.395 353.899 286.238 369.285 308.736 317.549 L440.027 15.6335 C444.569 5.18921 460.111 -5 471.5 -5 C482.893 -5 498.421 5.18912 502.956 15.6408 L632 313.052 C654.671 365.302 733.852 350.416 736 293.5 L743.455 95.9354 C744.242 75.0775 726.757 46.5804 707.806 37.8335 L675.626 22.9811 C671.303 20.9859 667 14.2611 667 9.5 C667 4.25628 671.256 0 676.5 0 L891.5 0 C896.744 0 901 4.25628 901 9.5 C901 14.1769 896.698 21.1812 892.527 23.2962 L862.231 38.6573 C846.682 46.5414 829.286 73.6906 828.621 91.1115 L810.633 562.244 C809.787 584.379 828.068 612.89 848.536 621.36 L887.222 637.368 C891.699 639.22 896 645.655 896 650.5 C896 655.744 891.744 660 886.5 660 L762.671 660 C742.005 660 714.185 641.584 706.112 622.561 L547.712 249.288 C525.365 196.624 457.781 196.256 434.861 248.673 L271.102 623.175 C262.959 641.799 235.135 660 214.809 660 L79.5131 660 C74.2694 660 70.2244 655.736 70.5 650.5 C70.7496 645.758 75.4096 639.196 79.8049 637.398 L79.8049 637.398 Z " />
<glyph glyph-name="N" unicode="N" horiz-adv-x="806" d="M76.1262 637.099 L108.147 621.729 C125.49 613.405 143 585.578 143 566.34 L143 94.7262 C143 74.7299 125.008 46.9035 106.773 38.6978 L71.6633 22.8985 C67.3026 20.9362 63 14.2819 63 9.5 C63 4.25628 67.2563 0 72.5 0 L303.5 0 C308.744 0 313 4.25628 313 9.5 C313 14.4337 308.704 20.5467 304.062 22.2178 L253.629 40.3735 C232.529 47.9697 213 75.7556 213 98.1817 L213 338.438 C213 398.788 284.536 423.966 322.335 376.921 L619.039 7.64209 C623.755 1.77208 639.97 -6 647.5 -6 C657.159 -6 665 1.84052 665 11.5 L665 565.34 C665 584.578 682.51 612.405 699.853 620.729 L731.436 635.889 C735.697 637.935 740 644.773 740 649.5 C740 654.744 735.744 659 730.5 659 L504.5 659 C499.256 659 495 654.744 495 649.5 C495 644.566 499.296 638.453 503.938 636.782 L554.371 618.626 C575.471 611.03 595 583.244 595 560.818 L595 355.938 C595 295.559 523.367 270.401 485.613 317.52 L230.447 635.978 C222.501 645.895 195.207 659 182.499 659 L76.0139 659 C71.0461 659 67.2244 654.96 67.5 650 C67.7418 645.648 72.1964 638.986 76.1262 637.099 L76.1262 637.099 Z " />
<glyph glyph-name="O" unicode="O" horiz-adv-x="807" d="M166 363 C166 518 254 621 386 621 C539 621 641 490 641 293 C641 141 554 40 424 40 C269 40 166 169 166 363 L166 363 Z M70 328 C70 125 204 -10 404 -10 C604 -10 737 125 737 328 C737 533 604 670 404 670 C204 670 70 533 70 328 L70 328 Z " />
<glyph glyph-name="P" unicode="P" horiz-adv-x="656" d="M330 9.5 C330 14.4035 325.702 20.6288 321.116 22.3664 L274.668 39.9678 C254.193 47.7267 235 75.5253 235 97.421 L235 247 C235 270.735 254.265 290 278 290 L321 290 C480 290 586 365 586 477 C586 587 490 660 346 660 L74.5 660 C69.2563 660 65 655.744 65 650.5 C65 645.718 69.3026 639.064 73.6633 637.102 L108.773 621.302 C127.008 613.096 145 585.27 145 565.274 L145 94.7262 C145 74.7299 127.008 46.9035 108.773 38.6978 L73.6633 22.8985 C69.3026 20.9362 65 14.2819 65 9.5 C65 4.25628 69.2563 0 74.5 0 L320.5 0 C325.744 0 330 4.25628 330 9.5 L330 9.5 Z M235 398.5 L235 585.5 C235 596.269 242.321 605.003 253.09 604.997 C287.898 604.978 324.15 604.85 325 604 C425 604 491 550 491 469 C491 395 431 345 342 345 L288.5 345 C258.97 345 235 368.97 235 398.5 L235 398.5 Z " />
<glyph glyph-name="Q" unicode="Q" horiz-adv-x="807" d="M807 -113.5 L807 -111.148 C807 -108.92 804.63 -107.198 802.529 -107.94 C791.031 -111.996 768.267 -115 744 -115 C687.9 -115 618.072 -46.3625 554.169 -8.57575 C543.968 -2.5437 548.642 18.0749 559.367 23.117 C669.77 75.02 737 185 737 329 C737 534 604 671 404 671 C204 671 70 534 70 329 C70 125.225 205.939 -12.9569 412.011 -8.6163 C416.981 -8.51161 436.375 -12.5911 440.671 -15.0924 C521.355 -62.0675 609.8 -146 682 -146 C725.475 -146 771.517 -137.444 800.339 -123.497 C803.964 -121.743 807 -117.526 807 -113.5 L807 -113.5 Z M166 365 C166 520 254 623 386 623 C539 623 641 492 641 295 C641 143 554 42 424 42 C269 42 166 171 166 365 L166 365 Z " />
<glyph glyph-name="R" unicode="R" horiz-adv-x="685" d="M671 9 C671 13.5597 666.924 19.7624 662.739 21.5722 L611.567 43.7008 C607.685 45.3794 591.16 57.5664 588.574 60.9129 C541.958 121.239 469.486 214.301 418.262 280.195 C406.113 295.824 410.457 319.372 428.562 327.375 C496.478 357.395 555 413.75 555 486 C555 590 467 660 335 660 L75.5 660 C70.2563 660 66 655.744 66 650.5 C66 645.718 70.3026 639.064 74.6633 637.102 L109.773 621.302 C128.008 613.096 146 585.27 146 565.274 L146 94.7262 C146 74.7299 128.008 46.9035 109.773 38.6978 L74.6633 22.8985 C70.3026 20.9362 66 14.2819 66 9.5 C66 4.25628 70.2563 0 75.5 0 L301.5 0 C306.744 0 311 4.25628 311 9.5 C311 14.2273 306.697 21.0653 302.436 23.1109 L270.853 38.2706 C253.51 46.5954 236 74.4223 236 93.6601 L236 277.5 C236 291.575 247.425 303 261.5 303 C272.609 303 280.611 311.211 287.433 302.443 C298.603 288.088 522 0.975 522 0 L662 0 C666.968 0 671 4.03227 671 9 L671 9 Z M236 383.5 L236 588 C236 597.392 244.85 605.003 254.241 604.995 C283.125 604.969 311.175 604.825 312 604 C399 604 457 553 457 477 C457 406 358 358 287 358 L261.5 358 C247.425 358 236 369.425 236 383.5 L236 383.5 Z " />
<glyph glyph-name="S" unicode="S" horiz-adv-x="527" d="M360 594 C371 588 382 576 387 564 C397.436 541.231 410.572 510.361 421.285 486.761 C422.047 485.082 423.49 482.982 425.333 483.034 C430.778 483.188 436.222 483.812 441.667 483.966 C443.543 484.019 443.909 485.62 443.805 487.495 L437.109 607.182 C436.466 618.674 430.292 632.218 420.377 638.065 C387.055 657.717 333.25 670 278 670 C162 670 85 598 85 489 C85 406 137 352 238 309 C336 267 386 223 386 163 C386 87 341 37 273 37 C237 37 184 55 135 83 C130 86 125 91 123 96 C111.308 125.231 94.8685 164.905 82.9328 194.671 C81.9421 197.142 79.6487 196.765 77 196.5 L75.0492 196.305 C74.8817 196.288 69.1039 196 68.9356 196 L66.5 196 C63.4679 196 61.1225 193.535 61.273 190.507 L67.768 59.7938 C68.4877 45.3102 76.9232 29.3388 90.015 23.102 C134.3 2.005 203.15 -11 272 -11 C391 -11 471 67 471 185 C471 274 414 333 304 380 C218 417 173 459 173 520 C173 581 211 621 269 621 C296 621 329.5 611 359.5 594 L360 594 Z " />
<glyph glyph-name="T" unicode="T" horiz-adv-x="675" d="M483 9.5 C483 14.4337 478.704 20.5467 474.062 22.2178 L423.629 40.3735 C402.529 47.9697 383 75.7556 383 98.1817 L383 543.56 C383 577.473 410.527 605 444.44 605 L509.45 605 C530.03 605 557.851 586.638 565.942 567.715 L608.462 468.275 C610.257 464.075 616.432 460 621 460 C625.968 460 630 464.032 630 469 L630 598.56 C630 632.473 602.473 660 568.56 660 L106.44 660 C72.527 660 45 632.473 45 598.56 L45 469 C45 464.032 49.0323 460 54 460 C58.5677 460 64.7426 464.075 66.5384 468.275 L109.058 567.715 C117.149 586.638 144.97 605 165.55 605 L231.56 605 C265.473 605 293 577.473 293 543.56 L293 98.1817 C293 75.7556 273.471 47.9697 252.371 40.3735 L201.938 22.2178 C197.296 20.5467 193 14.4337 193 9.5 C193 4.25628 197.256 0 202.5 0 L473.5 0 C478.744 0 483 4.25628 483 9.5 L483 9.5 Z " />
<glyph glyph-name="U" unicode="U" horiz-adv-x="811" d="M145 565.274 L145 234 C145 88 249 -10 406 -10 C562 -10 666 88 666 234 L666 565.274 C666 585.27 683.992 613.096 702.227 621.302 L737.337 637.102 C741.697 639.064 746 645.718 746 650.5 C746 655.744 741.744 660 736.5 660 L505.5 660 C500.256 660 496 655.744 496 650.5 C496 645.566 500.296 639.453 504.938 637.782 L555.371 619.626 C576.471 612.03 596 584.244 596 561.818 L596 213 C596 114 531 48 433 48 C314 48 235 129 235 250 L235 565.274 C235 585.27 252.992 613.096 271.227 621.302 L306.337 637.102 C310.697 639.064 315 645.718 315 650.5 C315 655.744 310.744 660 305.5 660 L74.5 660 C69.2563 660 65 655.744 65 650.5 C65 645.718 69.3026 639.064 73.6633 637.102 L108.773 621.302 C127.008 613.096 145 585.27 145 565.274 L145 565.274 Z " />
<glyph glyph-name="V" unicode="V" horiz-adv-x="735" d="M273.452 660 L42 660 C37.0323 660 33 655.968 33 651 C33 646.505 37.0763 640.082 41.1434 638.168 L78.9678 620.368 C87.3046 616.445 103.69 603.193 107.073 594.623 C183.977 399.827 260.047 204.173 337.854 9.37684 C341.944 -0.863134 354.473 -6 365.5 -6 C376.457 -6 391.049 3.73423 395.258 13.8508 L637.821 596.935 C641.245 605.165 660.591 625.31 668.675 629.064 L696.651 642.052 C699.83 643.528 703 648.496 703 652 C703 655.864 699.864 659 696 659 L506.5 659 C501.256 659 497 654.744 497 649.5 C497 644.739 501.303 638.014 505.626 636.019 L536 622 C557.501 612.076 567.784 586.13 558.917 564.171 L415.602 209.26 C403.59 179.513 363.181 183.678 351.374 213.506 C306.237 327.54 260.85 441.917 216.357 555.872 C206.799 580.353 217.676 611.049 242 621 L276.238 635.006 C281.396 637.117 285.528 643.952 285 649.5 C284.451 655.27 279.248 660 273.452 660 L273.452 660 Z " />
<glyph glyph-name="W" unicode="W" horiz-adv-x="979" d="M262.986 660 L28 660 C23.0323 660 19 655.968 19 651 C19 646.543 23.0759 639.993 27.0745 638.025 L59.9076 621.861 C69.6465 617.066 90.0584 589.658 93.1642 579.257 C149.76 389.718 207.811 200.906 262.568 10.4463 C265.13 1.53361 275.226 -5 284.5 -5 L291.405 -5 C296.925 -5 303.677 -0.209815 305.5 5 L309 15 L459.721 416.646 C470.795 446.157 511.568 441.52 522.051 411.795 C569.457 277.37 617.168 142.834 663.646 7.67314 C666.615 -0.959318 676.371 -5 685.5 -5 L692.56 -5 C698.079 -5 704.414 -0.286914 706 5 L709 15 C768.85 206.9 827.798 398.8 888.415 589.843 C892.074 601.377 913.245 626.292 924.43 630.908 L954.529 643.33 C957.831 644.692 961 649.428 961 653 C961 656.864 957.864 660 954 660 L751.5 660 C746.256 660 742 655.744 742 650.5 C742 645.68 746.302 639.156 750.732 637.258 L784 623 C807.024 613.132 820.138 585.205 813.025 561.186 L721.011 250.461 C712.879 223.001 674.64 226.227 665.101 253.231 C618.107 386.262 571.418 519.709 523.496 652.548 C520.411 661.101 510.592 665 501.5 665 C492.411 665 482.588 661.097 479.502 652.548 C430.043 515.557 381.247 377.903 332.553 240.147 C324.412 217.115 290.054 220.678 283.3 244.154 C251.85 353.462 220.046 462.769 188.709 572.077 C181.075 598.705 200.131 614.093 226 624 L264.582 638.776 C269.007 640.471 272.763 646.269 272.5 651 C272.224 655.96 267.954 660 262.986 660 L262.986 660 Z " />
<glyph glyph-name="X" unicode="X" horiz-adv-x="741" d="M289.988 660 L57 660 C52.0323 660 48 655.968 48 651 C48 646.557 52.0757 639.962 56.0498 637.975 L98.7461 616.627 C102.081 614.96 118.568 601.064 120.776 598.06 L292.594 364.288 C307.111 344.537 307.646 310.993 292.692 291.57 C232.615 213.535 172.538 134.967 112.462 57.0789 C110.073 53.9819 96.7421 45.3107 93.185 43.6846 L45.1853 21.7418 C41.0762 19.8634 37 13.518 37 9 C37 4.03227 41.0323 0 46 0 L259.5 0 C264.744 0 269 4.25628 269 9.5 C269 14.3533 264.699 20.7594 260.207 22.597 L225 37 C201.53 46.6013 194.396 72.6797 209.71 92.8909 L303.343 216.464 C329.628 251.155 375.957 250.844 401.775 215.805 L497.653 85.6849 C510.375 68.4192 505.072 45.8085 486 36 L459.448 22.3448 C455.301 20.2121 451 13.1632 451 8.5 C451 3.25628 455.256 -1 460.5 -1 L696 -1 C700.416 -1 704 2.58424 704 7 C704 10.9998 700.377 16.6948 696.754 18.3895 L655.861 37.5164 C652.273 39.195 635.181 53.062 632.799 56.2277 L442.148 309.593 C427.168 329.5 427.378 364.34 442.597 384.065 L610.892 602.195 C613.196 605.182 630.089 618.719 633.506 620.317 L674.754 639.611 C678.377 641.305 682 647 682 651 C682 655.416 678.416 659 674 659 L478.5 659 C473.256 659 469 654.744 469 649.5 C469 644.75 473.303 637.988 477.606 635.976 L507.5 622 C528.217 612.314 533.933 588.516 519.875 570.478 L429.359 454.334 C403.062 420.592 357.467 420.997 331.774 455.201 L246.071 569.293 C232.017 588.002 238.207 612.297 259.5 622 L289.889 635.848 C294.355 637.883 299.255 645.098 299.5 650 C299.776 655.513 295.507 660 289.988 660 L289.988 660 Z " />
<glyph glyph-name="Y" unicode="Y" horiz-adv-x="718" d="M256 660 L40 660 C35.0323 660 31 655.968 31 651 C31 646.557 35.0757 639.962 39.0498 637.975 L81.859 616.571 C85.1404 614.93 101.563 601.143 103.747 598.195 L308.925 321.296 C312.893 315.941 321 291.383 321 284.718 L321 96.5969 C321 75.2789 302.172 47.4686 282.378 39.5513 L239.821 22.5282 C235.3 20.72 231 14.3687 231 9.5 C231 4.25628 235.256 0 240.5 0 L491.5 0 C496.744 0 501 4.25628 501 9.5 C501 14.3687 496.7 20.72 492.179 22.5282 L449.622 39.5513 C429.828 47.4686 411 75.2789 411 96.5969 L411 289.881 C411 295.869 418.451 319.812 421.849 324.743 L616.361 607.013 C619.094 610.979 637.073 626.051 641.455 628.05 L676.631 644.095 C679.83 645.554 683 650.485 683 654 C683 657.864 679.864 661 676 661 L480.5 661 C475.256 661 471 656.744 471 651.5 C471 646.75 475.303 639.988 479.606 637.976 L509.5 624 C530.459 614.201 537.016 590.054 523.892 570.999 L429.908 434.553 C404.749 398.027 357.581 396.811 330.573 431.994 L220.425 575.484 C207.677 592.091 212.497 614.204 231 624 L257.046 637.789 C260.926 639.843 265 646.61 265 651 C265 655.968 260.968 660 256 660 L256 660 Z " />
<glyph glyph-name="Z" unicode="Z" horiz-adv-x="646" d="M111 480 C115.45 480 122.022 484.076 123.999 488.063 L165.067 570.861 C173.44 587.742 201.264 605 220.108 605 L326.351 605 C377.5 605 408.689 562.14 382.693 518.089 C288.606 358.654 194.315 198.742 98.6963 39.4768 C96.87 36.4349 90 16.0481 90 12.5 C90 5.60037 95.6004 0 102.5 0 L494.56 0 C528.473 0 556 27.527 556 61.44 L556 181 C556 185.968 551.968 190 547 190 C542.486 190 536.128 185.924 534.244 181.821 L492.441 90.798 C484.194 72.8417 456.367 55 436.607 55 L307.451 55 C256.33 55 224.917 97.3455 250.857 141.397 C344.119 299.778 437.585 458.057 532.379 615.673 C534.576 619.326 541 640.737 541 645 C541 653.28 534.28 660 526 660 L163.44 660 C129.527 660 102 632.473 102 598.56 L102 489 C102 484.032 106.032 480 111 480 L111 480 Z " />
<glyph glyph-name="bracketleft" unicode="&#x5b;" horiz-adv-x="250" d="M187 717 L233.5 717 C239.848 717 245 722.152 245 728.5 C245 734.848 239.848 740 233.5 740 L128.44 740 C94.527 740 67 712.473 67 678.56 L67 -88.56 C67 -122.473 94.527 -150 128.44 -150 L233.5 -150 C239.848 -150 245 -144.848 245 -138.5 C245 -132.152 239.848 -127 233.5 -127 L187 -127 C154.986 -127 129 -101.014 129 -69 L129 659 C129 691.014 154.986 717 187 717 L187 717 Z " />
<glyph glyph-name="backslash" unicode="&#x5c;" horiz-adv-x="250" d="M225 -120 C238.448 -120 247.412 -108.742 244.399 -95.6355 L55.601 725.636 C52.588 738.742 38.4485 750 25 750 C11.5515 750 2.58802 738.742 5.60103 725.636 L194.399 -95.6355 C197.412 -108.742 211.552 -120 225 -120 L225 -120 Z " />
<glyph glyph-name="bracketright" unicode="&#x5d;" horiz-adv-x="245" d="M118 660.5 L118 -70.5 C118 -101.686 92.6863 -127 61.5 -127 L16.5 -127 C10.1523 -127 5 -132.152 5 -138.5 C5 -144.848 10.1523 -150 16.5 -150 L118.56 -150 C152.473 -150 180 -122.473 180 -88.56 L180 678.56 C180 712.473 152.473 740 118.56 740 L16.5 740 C10.1523 740 5 734.848 5 728.5 C5 722.152 10.1523 717 16.5 717 L61.5 717 C92.6863 717 118 691.686 118 660.5 L118 660.5 Z " />
<glyph glyph-name="asciicircum" unicode="&#x5e;" horiz-adv-x="340" d="M314.37 534.777 L194.076 693.058 C190.088 698.306 176.592 705 170 705 C163.317 705 150.09 698.287 146.145 692.893 L30.5422 534.843 C28.9641 532.685 30.3269 530 33 530 C34.9171 530 42.3292 532.363 43.8925 533.473 L135.091 598.218 C153.167 611.05 187.04 611.348 205.339 598.835 L301.047 533.387 C302.59 532.332 310.131 530 312 530 C314.637 530 315.965 532.678 314.37 534.777 L314.37 534.777 Z " />
<glyph glyph-name="underscore" unicode="&#x5f;" horiz-adv-x="500" d="M25 -115 C25 -128.799 36.2007 -140 50 -140 L450 -140 C463.799 -140 475 -128.799 475 -115 C475 -101.201 463.799 -90 450 -90 L50 -90 C36.2007 -90 25 -101.201 25 -115 L25 -115 Z " />
<glyph glyph-name="grave" unicode="&#x60;" horiz-adv-x="340" d="M173.353 535.385 L105.878 672.662 C97.5171 689.672 69.6919 707 50.7386 707 L32.2863 707 C19.834 707 5.77349 718.933 9.02355 706.912 C9.61867 704.711 21.4359 661.59 38 646 L159.586 534.064 C161.236 532.545 167.757 530 170 530 C172.972 530 174.664 532.717 173.353 535.385 L173.353 535.385 Z " />
<glyph glyph-name="a" unicode="a" horiz-adv-x="489" d="M142 337 C142 381 172 414 211 414 C271 414 302 380 302 329 L302 293.5 C302 275.329 283.115 253.613 265.585 248.828 C121.584 209.528 48 150.975 48 89 C48 30 92 -10 157 -10 C206.875 -10 254.453 5.3125 289.686 35.9375 C294.975 40.535 307.88 37.9905 311.218 31.8283 C325.568 5.335 353.7 -11 390 -11 C428.025 -11 463.198 9.91375 479.763 40.6189 C480.51 42.0044 480.204 44.592 479.5 46 L478 49 C477 47 463 46 442 46 C405 46 381 54 381 66 L381 349 C381 415 332 459 236 459 C135 459 58 404 58 331 C58 313 66 302 79 303 L132.464 303 C133.844 303 137.524 304.524 138.5 305.5 C139.442 306.442 141.076 310.203 141.122 311.533 L142 337 L142 337 Z M301 160.848 L301 91 C301 82.5096 296.831 72.6446 289.417 68.5075 C266.11 55.5025 235 49 201 49 C155 49 124 73 124 108 C124 143.475 164.837 178.269 244.828 205.083 C277.557 216.055 301 195.367 301 160.848 L301 160.848 Z " />
<glyph glyph-name="b" unicode="b" horiz-adv-x="561" d="M37.3004 691.01 L72 661 C89 647 100 637 100 637 C100 637 100 638.842 100 629.567 L100 -7 C100 -8.65591 101.344 -10 103 -10 C103.984 -10 105.299 -10.5156 106.092 -9.93257 C107.125 -9.17261 116.761 -2.06161 129.004 7.70924 C132.718 10.6736 143.295 12.4306 147.703 10.655 C178.87 -1.9 228.1 -10 283 -10 C420 -10 512 95 512 252 C512 377 441 460 335 460 C285.7 460 236.4 443.382 199.382 416.903 C191.339 411.149 181 417.942 181 427.831 L181 742 C181 746.416 177.416 750 173 750 C171.377 750 159.07 747.656 157.56 747.059 L38.8284 700.118 C37.4907 699.589 35.7365 697.419 35.5 696 C35.2644 694.586 36.2165 691.948 37.3004 691.01 L37.3004 691.01 Z M181 98.7683 L181 338.295 C181 346.383 184.101 357.71 190.01 363.233 C209.49 381.44 242.3 393 278 393 C370 393 432 328 432 231 C432 115 383 38 310 38 C268.35 38 224.533 50.2825 195.129 69.3204 C186.263 75.061 181 88.2059 181 98.7683 L181 98.7683 Z " />
<glyph glyph-name="c" unicode="c" horiz-adv-x="477" d="M425.982 103.142 C386.509 79.21 338.125 64 304 64 C199 64 129 138 129 250 C129 350 177 416 250 416 C285 416 322 397 343 368 L370.966 328.848 C371.879 327.569 374.928 326 376.5 326 C377.692 326 381.817 327.424 382.755 328.159 L417 355 C439 375 434 386 417 411 C396 440 342 460 281 460 C142 460 50 358 50 205 C50 76 134 -10 261 -10 C328.275 -10 395.55 29.9262 430.385 90.3147 C431.354 91.9952 432.38 98.0977 432 100 C431.488 102.558 428.212 104.494 425.982 103.142 L425.982 103.142 Z " />
<glyph glyph-name="d" unicode="d" horiz-adv-x="574" d="M526 9 C526 13.518 521.924 19.8634 517.815 21.7418 L491 34 C473.43 42.032 456 69.1648 456 88.4838 L456 746 C456 750.416 452.416 754 448 754 C446.722 754 433.566 752.055 432.342 751.685 L311 715 L311 710 L355 675 C368 665 376 658 376 658 C376 658 376 659.15 376 652.685 L376 464.807 C376 456.968 370.202 451.225 362.488 452.62 C337.509 457.136 311.538 460 287 460 C144 460 48 354 48 194 C48 72 118 -10 222 -10 C277.5 -10 333 11.3906 367.922 44.6744 C370.698 47.3195 376.842 45.9174 377.435 42.1296 C380.444 22.9167 386 0 386 0 C386 0 391.063 0 402.978 0 L517 0 C521.968 0 526 4.03227 526 9 L526 9 Z M376 328.562 L376 103.16 C376 95.2364 372.134 85.298 365.517 80.9394 C343.855 66.67 312.15 58 279 58 C188 58 127 123 127 220 C127 330.2 180.248 405.202 261.021 412.427 C265.875 412.861 269.694 415.099 274.075 412.964 C275.666 412.188 302.569 399.077 345.568 378.237 C360.95 370.782 376 345.655 376 328.562 L376 328.562 Z " />
<glyph glyph-name="e" unicode="e" horiz-adv-x="483" d="M139.201 326.26 C156.601 381.969 194.675 416 245 416 C294.5 416 331.749 381.969 349.447 326.26 C356.897 302.806 343.222 288 318.614 288 L170.319 288 C145.527 288 131.81 302.595 139.201 326.26 L139.201 326.26 Z M429 105 C389 80 339 64 304 64 C219.85 64 158.161 111.644 137.462 188.963 C128.023 224.222 147.52 242 184.021 242 L393.754 242 C394.076 242 401.887 242.54 402.206 242.584 L416 244.5 C426.465 245.954 434.068 255.322 433.487 265.872 C427.015 383.287 359.85 460 262 460 C135 460 51 358 51 205 C51 76 135 -10 262 -10 C329.275 -10 396.55 29.9262 431.385 90.3147 C432.115 91.5808 434 98.5384 434 100 L434 105 L429 105 L429 105 Z " />
<glyph glyph-name="f" unicode="f" horiz-adv-x="367" d="M265 9 C265 13.4569 260.924 20.0066 256.925 21.9752 L232.5 34 C216.406 41.9234 200 68.286 200 86.225 L200 341.56 C200 375.473 227.527 403 261.44 403 L308.5 403 C321.471 403 332 413.529 332 426.5 C332 439.471 321.471 450 308.5 450 L261.44 450 C227.527 450 200 477.527 200 511.44 L200 587 C200 625 240 667 300 667 C320 667 341 663 354 657 C368 650 381 646 381 646 C381 646 371.652 646 384.5 646 C386.283 646 388.66 647.585 389.346 649.231 L408 694 C415 716 410 727 384 739 C384 739 360 749 349 749 C239 749 119 614 119 489 L119 469 C119 457.961 110.039 449 99 449 L62.5 449 C49.5287 449 39 438.471 39 425.5 C39 412.529 49.5287 402 62.5 402 L79 402 C101.079 402 119 384.079 119 362 L119 85.225 C119 67.286 102.594 40.9234 86.5 33 L62.0745 20.9752 C58.0759 19.0066 54 12.4569 54 8 C54 3.03233 58.0323 -0.98089 62.9999 -0.957346 L256 -0.0426535 C260.968 -0.0191103 265 4.03233 265 9 L265 9 Z " />
<glyph glyph-name="g" unicode="g" horiz-adv-x="546" d="M161 303 C161 374 192 421 251 421 C313 421 355 372 355 299 C355 226 326 178 270 178 C205 178 161 228 161 303 L161 303 Z M80 300 C80 249.675 99.0575 207.518 132.68 179.143 C140.109 172.874 138.575 155.861 130.001 151.283 C92.1412 131.069 69 102.875 69 74 C69 40.175 89.4187 14.5175 123.518 0.958109 C128.946 -1.20031 129.08 -13.6732 124.097 -16.7224 C83.565 -41.5275 59 -89.85 59 -123 C59 -193 130 -239 236 -239 C377 -239 471 -169 471 -65 C471 11 432 61 331 61 L209 61 C167 61 139 79 139 107 C139 123.774 150.255 139.142 168.635 147.792 C173.246 149.962 185.32 150.087 190.207 148.639 C209.645 142.88 231.242 140 255 140 C373 140 434 206 434 304 C434 336.175 425.832 364.947 410.621 388.631 C407.145 394.043 410.582 402.437 417.005 402.095 L467.038 399.434 C481.899 398.644 494 410.118 494 425 C494 439.867 481.897 451.159 467.065 450.13 L364.5 443.007 C361.718 442.814 338.41 447.26 335.809 448.268 C312.677 457.236 285.7 462 256 462 C139 462 79 397 79 301 L80 300 Z M183 -8 L291 -8 C368 -8 398 -39 398 -85 C398 -160 337 -210 246 -210 C176 -210 130 -170 130 -111 C130 -61 151 -8 183 -8 L183 -8 Z " />
<glyph glyph-name="h" unicode="h" horiz-adv-x="590" d="M52.6741 690.687 L87 661 C104 647 115 637 115 637 C115 637 115 638.842 115 629.567 L115 86.225 C115 68.286 98.5944 41.9234 82.5 34 L58.0745 21.9752 C54.0759 20.0066 50 13.4569 50 9 C50 4.03227 54.0323 0 59 0 L251 0 C255.968 0 260 4.03227 260 9 C260 13.4569 255.924 20.0066 251.925 21.9752 L227.5 34 C211.406 41.9234 195 68.286 195 86.225 L195 333.672 C195 342.898 201.533 357.308 208.989 362.741 C232.39 379.791 262.75 390 304 390 C365 390 405 353 405 297 L405 86.225 C405 68.286 388.594 41.9234 372.5 34 L348.075 21.9752 C344.076 20.0066 340 13.4569 340 9 C340 4.03227 344.032 0 349 0 L541 0 C545.968 0 550 4.03227 550 9 C550 13.4569 545.924 20.0066 541.925 21.9752 L517.5 34 C501.406 41.9234 485 68.286 485 86.225 L485 343 C485 413 430 460 348 460 C300.975 460 258.714 438.901 218.972 405.125 C209.433 397.017 194 402.715 194 415.234 L194 743 C194 747.416 190.416 751 186 751 C184.377 751 172.07 748.656 170.56 748.059 L52.2879 701.3 C50.5228 700.602 49.2316 698.379 49.5 696.5 C49.6811 695.232 51.7055 691.525 52.6741 690.687 L52.6741 690.687 Z " />
<glyph glyph-name="i" unicode="i" horiz-adv-x="317" d="M155 610 C191 610 215 634 215 670 C215 706 191 730 155 730 C119 730 95 706 95 670 C95 634 119 610 155 610 L155 610 Z M56.2691 401.038 L91 371 C108 357 119 347 119 347 C119 347 119 348.842 119 339.567 L119 86.225 C119 68.286 102.594 41.9234 86.5 34 L62.0745 21.9752 C58.0759 20.0066 54 13.4569 54 9 C54 4.03227 58.0323 0 63 0 L260 0 C264.968 0 269 4.03227 269 9 C269 13.518 264.924 19.8634 260.815 21.7418 L234 34 C216.43 42.032 199 69.1648 199 88.4838 L199 452 C199 456.416 195.416 460 191 460 C189.377 460 177.07 457.656 175.56 457.059 L56.7899 410.103 C55.3578 409.537 54 407.54 54 406 C54 404.748 55.3218 401.857 56.2691 401.038 L56.2691 401.038 Z " />
<glyph glyph-name="j" unicode="j" horiz-adv-x="317" d="M159 610 C195 610 219 634 219 670 C219 706 195 730 159 730 C123 730 99 706 99 670 C99 634 123 610 159 610 L159 610 Z M56.2691 401.038 L91 371 C108 357 119 347 119 347 C119 347 119 348.842 119 339.567 L119 -12 C119 -108.525 126.605 -168.926 61.1782 -212.668 C57.8831 -214.871 56 -221.036 56 -225 C56 -229.249 62.3926 -229.976 65.96 -227.667 C192.346 -145.884 199 -84.825 199 0 L199 452 C199 456.416 195.416 460 191 460 C189.377 460 177.07 457.656 175.56 457.059 L56.7899 410.103 C55.3578 409.537 54 407.54 54 406 C54 404.748 55.3218 401.857 56.2691 401.038 L56.2691 401.038 Z " />
<glyph glyph-name="k" unicode="k" horiz-adv-x="544" d="M493 450 L321.5 450 C315.704 450 311 445.296 311 439.5 C311 434.896 315.684 425.418 319.341 422.622 L336.5 409.5 C350.178 399.04 350.426 380.644 337.035 369.819 L278.5 322.5 C242.657 293.525 195 316.281 195 362.371 L195 752 C195 756.416 191.416 760 187 760 C185.377 760 173.07 757.656 171.56 757.059 L52.7899 710.103 C51.3578 709.537 50 707.54 50 706 C50 704.748 51.3218 701.857 52.2691 701.038 L87 671 C104 657 115 647 115 647 C115 647 115 648.842 115 639.567 L115 86.225 C115 68.286 98.5944 41.9234 82.5 34 L58.0745 21.9752 C54.0759 20.0066 50 13.4569 50 9 C50 4.03227 54.0323 0 59 0 L256 0 C260.968 0 265 4.03227 265 9 C265 13.518 260.924 19.8634 256.815 21.7418 L230 34 C212.43 42.032 195 69.1648 195 88.4838 L195 145 C195 178.668 234.379 192.98 255.996 167.168 L377.582 21.9914 C385.376 12.6854 412.547 0 424.685 0 L507 0 C511.968 0 516 4.03227 516 9 C516 13.4144 511.925 20.1031 508.002 22.1278 L464.819 44.4158 C462.542 45.5913 447.785 57.3331 446.128 59.2883 L307.124 223.298 C283.913 250.685 288.384 290.573 317.084 312.14 L428.958 396.211 C429.523 396.636 439.067 402.385 439.707 402.686 L493.857 428.168 C497.924 430.082 502 436.505 502 441 C502 445.968 497.968 450 493 450 L493 450 Z " />
<glyph glyph-name="l" unicode="l" horiz-adv-x="298" d="M46.2691 701.038 L81 671 C98 657 109 647 109 647 C109 647 109 648.842 109 639.567 L109 86.225 C109 68.286 92.5944 41.9234 76.5 34 L52.0745 21.9752 C48.0759 20.0066 44 13.4569 44 9 C44 4.03227 48.0323 0 53 0 L245 0 C249.968 0 254 4.03227 254 9 C254 13.4569 249.924 20.0066 245.925 21.9752 L221.5 34 C205.406 41.9234 189 68.286 189 86.225 L189 752 C189 756.416 185.416 760 181 760 C179.377 760 167.07 757.656 165.56 757.059 L46.7899 710.103 C45.3578 709.537 44 707.54 44 706 C44 704.748 45.3218 701.857 46.2691 701.038 L46.2691 701.038 Z " />
<glyph glyph-name="m" unicode="m" horiz-adv-x="863" d="M47.6473 400.71 L82 371 C99 357 110 347 110 347 C110 347 110 348.842 110 339.567 L110 86.225 C110 68.286 93.5944 41.9234 77.5 34 L53.0745 21.9752 C49.0759 20.0066 45 13.4569 45 9 C45 4.03227 49.0323 0 54 0 L246 0 C250.968 0 255 4.03227 255 9 C255 13.4569 250.924 20.0066 246.925 21.9752 L222.5 34 C206.406 41.9234 190 68.286 190 86.225 L190 333.672 C190 342.772 196.57 357.331 203.887 362.741 C226.948 379.791 256.05 390 294 390 C352 390 390 353 390 297 L390 88.4838 C390 69.1648 372.57 42.032 355 34 L328.185 21.7418 C324.076 19.8634 320 13.518 320 9 C320 4.03227 324.032 0 329 0 L531 0 C535.968 0 540 4.03227 540 9 C540 13.518 535.924 19.8634 531.815 21.7418 L505 34 C487.43 42.032 470 69.1648 470 88.4838 L470 325.051 C470 334.849 477.629 351.842 485.375 357.84 C510.648 377.408 541.4 390 581 390 C639 390 678 353 678 297 L678 88.4838 C678 69.1648 660.57 42.032 643 34 L616.185 21.7418 C612.076 19.8634 608 13.518 608 9 C608 4.03227 612.032 0 617 0 L814 0 C818.968 0 823 4.03227 823 9 C823 13.4569 818.924 20.0066 814.925 21.9752 L790.5 34 C774.406 41.9234 758 68.286 758 86.225 L758 343 C758 413 705 460 625 460 C576 460 529.297 433.203 484.891 391.668 C477.296 384.565 460.983 389.847 456.045 398.999 C435.618 436.859 393.275 460 338 460 C288.975 460 243.372 434.759 199.61 393.775 C194.846 389.314 188.721 392.415 188.493 398.937 C187.445 428.849 186 461 186 461 C186 461 182.619 461 178 461 C176.332 461 164.137 458.608 162.593 457.978 L48.2407 411.322 C46.5845 410.646 45 408.289 45 406.5 C45 405.039 46.5421 401.666 47.6473 400.71 L47.6473 400.71 Z " />
<glyph glyph-name="n" unicode="n" horiz-adv-x="590" d="M52.6741 400.687 L87 371 C104 357 115 347 115 347 C115 347 115 348.842 115 339.567 L115 86.225 C115 68.286 98.5944 41.9234 82.5 34 L58.0745 21.9752 C54.0759 20.0066 50 13.4569 50 9 C50 4.03227 54.0323 0 59 0 L256 0 C260.968 0 265 4.03227 265 9 C265 13.518 260.924 19.8634 256.815 21.7418 L230 34 C212.43 42.032 195 69.1648 195 88.4838 L195 333.672 C195 342.898 201.533 357.308 208.989 362.741 C232.39 379.791 262.75 390 304 390 C365 390 405 353 405 297 L405 88.4838 C405 69.1648 387.57 42.032 370 34 L343.185 21.7418 C339.076 19.8634 335 13.518 335 9 C335 4.03227 339.032 0 344 0 L541 0 C545.968 0 550 4.03227 550 9 C550 13.4569 545.924 20.0066 541.925 21.9752 L517.5 34 C501.406 41.9234 485 68.286 485 86.225 L485 343 C485 413 430 460 348 460 C295.275 460 247.684 434.759 203.643 393.775 C198.873 389.335 192.721 392.425 192.493 398.937 C191.445 428.849 190 461 190 461 C190 461 186.619 461 182 461 C180.332 461 168.137 458.608 166.593 457.978 L52.2736 411.336 C50.5208 410.62 49.2323 408.374 49.5 406.5 C49.6811 405.232 51.7055 401.525 52.6741 400.687 L52.6741 400.687 Z " />
<glyph glyph-name="o" unicode="o" horiz-adv-x="538" d="M142 225 C142 341 180 418 255 418 C340 418 396 341 396 225 C396 109 358 32 283 32 C198 32 142 109 142 225 L142 225 Z M50 225 C50 84 138 -10 269 -10 C414 -10 488 84 488 225 C488 366 400 460 269 460 C124 460 50 366 50 225 L50 225 Z " />
<glyph glyph-name="p" unicode="p" horiz-adv-x="572" d="M52.2691 401.038 L87 371 C104 357 115 347 115 347 C115 347 115 348.842 115 339.567 L115 -143.775 C115 -161.714 98.5944 -188.077 82.5 -196 L58.0745 -208.025 C54.0759 -209.993 50 -216.543 50 -221 C50 -225.968 54.0323 -230 59 -230 L256 -230 C260.968 -230 265 -225.968 265 -221 C265 -216.482 260.924 -210.137 256.815 -208.258 L230 -196 C212.43 -187.968 195 -160.835 195 -141.516 L195 -15.659 C195 -8.9097 200.084 -3.82972 206.773 -4.72575 C229.967 -7.8325 258.4 -10 289 -10 C429 -10 522 94 522 250 C522 376 455 460 354 460 C306.825 460 249.382 436.898 203.833 401.775 C198.654 397.781 192.706 402.189 192.505 408.727 C191.694 435 191 460 191 460 C191 460 187.54 460 183 460 C181.332 460 169.137 457.608 167.593 456.978 L52.7777 410.133 C51.3581 409.554 50 407.533 50 406 C50 404.748 51.3218 401.857 52.2691 401.038 L52.2691 401.038 Z M195 99.5256 L195 345.899 C195 354.758 199.823 365.686 207.527 370.061 C232.655 384.33 265.55 393 297 393 C386 393 445 321 445 214 C445 108 393 38 315 38 C279.3 38 239.265 50.2825 209.634 69.3204 C200.739 75.0352 195 88.9533 195 99.5256 L195 99.5256 Z " />
<glyph glyph-name="q" unicode="q" horiz-adv-x="563" d="M523 -221 C523 -216.543 518.924 -209.993 514.925 -208.025 L490.5 -196 C474.406 -188.077 458 -161.714 458 -143.775 L458 457 C458 458.656 456.656 460 455 460 C454.276 460 449.954 459.005 449.302 458.688 L428.945 448.784 C424.369 446.558 405.734 445.263 400.843 446.67 C372.087 454.943 332.35 460 289 460 C146 460 50 354 50 194 C50 72 120 -10 224 -10 C258.65 -10 305.551 7.69625 350.104 36.3506 C361.659 43.7819 378 36.9356 378 23.1976 L378 -142.516 C378 -161.835 360.57 -188.968 343 -197 L316.185 -209.258 C312.076 -211.137 308 -217.482 308 -222 C308 -226.968 312.032 -230.981 317 -230.958 L514 -230.042 C518.968 -230.019 523 -225.968 523 -221 L523 -221 Z M378 344.5 L378 109.601 C378 99.6168 370.205 85.2815 361.601 80.2172 C334.945 64.5288 304.75 55 280 55 C189 55 128 120 128 217 C128 333 187 410 275 410 C297.275 410 328.058 398.77 358.364 379.678 C368.179 373.496 378 356.099 378 344.5 L378 344.5 Z " />
<glyph glyph-name="r" unicode="r" horiz-adv-x="378" d="M295 460 C269.65 460 235.744 424.827 197.917 371.164 C197.127 370.042 194.836 369.63 194.75 371 L194.5 375 L192.238 451.004 C192.107 455.415 188.414 459 184 459 C182.332 459 170.137 456.608 168.593 455.978 L53.7777 409.133 C52.3581 408.554 51 406.533 51 405 C51 403.748 52.3218 400.857 53.2691 400.038 L88 370 C105 356 116 346 116 346 C116 346 116 347.842 116 338.567 L116 85.225 C116 67.286 99.5944 40.9234 83.5 33 L59.0745 20.9752 C55.0759 19.0066 51 12.4569 51 8 C51 3.03227 55.0323 -1 60 -1 L257 -1 C261.968 -1 266 3.03227 266 8 C266 12.518 261.924 18.8634 257.815 20.7418 L231 33 C213.43 41.032 196 68.1648 196 87.4838 L196 314.097 C196 320.639 202.772 341.231 206.821 346.369 C223.166 367.114 237.118 380 247 380 C267 380 292 375 309 368 C320 363 347 352 347 352 C347 352 340.638 352 350.5 352 C352.25 352 354.554 353.144 355.31 354.722 C369.58 384.515 379 409.265 379 418 C379 442 327.5 459.5 295.5 459.5 L295 460 Z " />
<glyph glyph-name="s" unicode="s" horiz-adv-x="427" d="M341 328.5 L341 412.49 C341 412.766 340.511 412.776 340.5 412.5 C340.5 412.5 340.5 412.5 340.5 412.5 C340.771 419.285 335.77 428.062 329.688 431.083 C294.3 448.66 246.6 460 207 460 C128 460 75 409 75 332 C75 262 111 223 182 199 C251 176 287 145 287 96 C287 54 253 26 203 26 C132.7 26 103.013 77.4425 77.9278 127.17 C76.3802 130.238 70.4361 135 67 135 C63.1362 135 60 131.864 60 128 L60 41.4767 C60 29.2567 67.3155 16.4854 78.8055 12.3252 C116.52 -1.33 165.65 -10 209 -10 C298 -10 357 43 357 122 C357 196 317 239 240 265 C178 286 146 315 146 362 C146 396.125 170.716 419.793 209.026 420.955 C209.363 420.965 215.048 420.661 215.382 420.624 L221 420 C259 416 297 384 315 340 C318 334 321 326 324 320 C324.741 318.519 325.698 320 327.354 320 L332.5 320 C337.192 320 341 323.808 341 328.5 L341 328.5 Z " />
<glyph glyph-name="t" unicode="t" horiz-adv-x="354" d="M322.5 58 L321 63 C319 59 293 57 255 57 C210 57 180 77 180 107 L180 341.56 C180 375.473 207.527 403 241.44 403 L288.5 403 C301.471 403 312 413.529 312 426.5 C312 439.471 301.471 450 288.5 450 L235 450 C204.642 450 180 474.642 180 505 L180 557 C180 558.656 178.656 560 177 560 C175.626 560 173.092 558.651 172.325 557.511 L109.031 463.424 C106.576 459.775 89.4631 444.732 85.5293 442.765 L20.6833 410.342 C19.3586 409.679 18 407.481 18 406 C18 404.344 19.3441 403 21 403 L59 403 C81.6308 403 100 384.631 100 362 L100 90 C100 30 143 -10 208 -10 C256.45 -10 301.29 12.5625 321.086 47.399 C322.231 49.4145 323.166 55.7796 322.5 58 L322.5 58 Z " />
<glyph glyph-name="u" unicode="u" horiz-adv-x="552" d="M381 361.97 L381 120.526 C381 109.72 373.545 94.7142 364.385 88.9829 C337 71.8481 304 63 271 63 C211 63 171 100 171 155 L171 388.56 C171 422.473 143.473 450 109.56 450 L35 450 C30.0323 450 26 445.968 26 441 C26 436.543 30.0759 429.993 34.0745 428.025 L58.5 416 C74.5944 408.077 91 381.714 91 363.775 L91 107 C91 37 145 -10 225 -10 C263.25 -10 310.17 8.785 357.162 46.355 C367.419 54.5549 382 47.1313 382 34 C382 15.233 397.233 0 416 0 L523 0 C527.968 0 532 4.03227 532 9 C532 13.518 527.924 19.8634 523.815 21.7418 L497 34 C479.43 42.032 462 69.1648 462 88.4838 L462 388.56 C462 422.473 434.473 450 400.56 450 L321 450 C316.032 450 312 445.968 312 441 C312 436.493 316.076 430.11 320.165 428.213 L346.5 416 C363.776 407.988 381 381.013 381 361.97 L381 361.97 Z " />
<glyph glyph-name="v" unicode="v" horiz-adv-x="480" d="M312.626 427.019 L343 413 C364.505 403.075 374.724 377.158 365.78 355.227 L320.294 243.687 C298.763 190.888 231.633 189.319 207.658 241.054 L153.488 357.947 C142.767 381.082 153.569 407.198 177.5 416 L212.553 428.893 C216.929 430.503 221 436.338 221 441 C221 445.968 216.968 450 212 450 L-15 450 C-19.9677 450 -24 445.968 -24 441 C-24 436.482 -19.9238 430.137 -15.8147 428.258 L25.2222 409.498 C32.7035 406.078 51.7236 387.525 55.1572 380.05 C111.67 257.023 168.953 133.952 225.423 10.0481 C227.609 5.25157 235.229 0 240.5 0 C245.784 0 253.143 4.75549 255.314 9.57291 L419.714 374.393 C423.036 381.764 442.12 401.215 449.427 404.676 L496.414 426.933 C500.697 428.962 505 435.761 505 440.5 C505 445.744 500.744 450 495.5 450 L313.5 450 C308.256 450 304 445.744 304 440.5 C304 435.739 308.303 429.014 312.626 427.019 L312.626 427.019 Z " />
<glyph glyph-name="w" unicode="w" horiz-adv-x="754" d="M582.626 427.019 L613 413 C634.494 403.08 644.904 377.072 636.191 355.062 L502.224 16.6174 C501.34 14.3855 501.507 7.68524 502.5 5.5 C503.756 2.73628 508.006 0 511.042 0 L515.5 0 C520.806 0 528.216 5.0422 530.35 9.89998 C584 131.999 637.65 254.077 691.3 375.343 C694.632 382.875 713.191 401.248 720.635 404.774 L767.414 426.933 C771.697 428.962 776 435.761 776 440.5 C776 445.744 771.744 450 766.5 450 L583.5 450 C578.256 450 574 445.744 574 440.5 C574 435.739 578.303 429.014 582.626 427.019 L582.626 427.019 Z M521 64.5 L532.644 94.1641 C536.324 103.54 535.04 133.751 530.959 142.959 C486.74 242.74 441.892 341.892 398.604 442.604 C396.503 447.49 389.819 451 384.5 451 L380.325 451 C377.013 451 373.047 448.142 372 445 L370 439 L189.117 15.9515 C188.292 14.0206 188.22 7.94986 189 6 C190.025 3.43754 193.625 1 196.385 1 L203 1 C209.028 1 217.475 6.43496 219.973 11.9209 L305.795 200.38 C329.256 251.9 395.474 251.334 418.052 199.421 L477.078 63.7049 C486.014 43.157 512.813 43.6421 521 64.5 L521 64.5 Z M217 451 L-9 451 C-13.9677 451 -18 446.968 -18 442 C-18 437.517 -13.9238 431.053 -9.87874 429.121 L26.0445 411.964 C35.0016 407.686 54.1748 386.375 57.486 377.018 L167.793 65.2803 C174.954 45.0432 201.111 44.2403 209.5 64 L222.731 95.1656 C226.169 103.264 227.088 131.091 224.192 139.399 L149.187 354.565 C140.252 380.195 153.834 408.169 179.5 417 L217.49 430.072 C221.932 431.6 226 437.303 226 442 C226 446.968 221.968 451 217 451 L217 451 Z " />
<glyph glyph-name="x" unicode="x" horiz-adv-x="507" d="M292.055 0 L479 0 C483.968 0 488 4.03227 488 9 C488 13.2527 483.936 20.4537 480.295 22.6518 L445.533 43.6405 C443.294 44.9922 429.274 57.8155 427.728 59.925 L305.506 226.741 C295.683 240.148 297.162 264.776 307.48 277.806 C336.753 314.773 366.125 352.105 396.016 388.959 C397.698 391.032 413.528 404.548 415.883 405.804 L457.059 427.765 C460.926 429.827 465 436.617 465 441 C465 445.968 460.968 450 456 450 L307 450 C302.032 450 298 445.968 298 441 C298 436.617 302.074 429.827 305.941 427.765 L328 416 C344.433 407.236 349.149 387.427 338.428 372.198 L284.623 295.771 C276.98 284.914 262.022 285.897 254.174 296.606 C234.506 323.444 214.638 350.556 195.393 377.394 C187.439 388.485 190.497 403.601 202.997 409.081 L244.757 427.387 C248.924 429.213 253 435.45 253 440 C253 444.968 248.968 449 244 449 L48 449 C43.0323 449 39 444.968 39 440 C39 435.747 43.064 428.546 46.7046 426.348 L81.24 405.497 C83.5724 404.088 97.7522 391.011 99.3442 388.8 L192.078 260.003 C205.66 241.139 205.613 206.894 191.98 188.068 L100.056 61.125 C98.1625 58.5101 82.8003 44.9243 79.9735 43.3647 L41.8802 22.3477 C38.0718 20.2465 34 13.3496 34 9 C34 4.03227 38.0323 0 43 0 L202 0 C206.968 0 211 4.03227 211 9 C211 13.5396 206.924 19.8116 202.776 21.6552 L175 34 C155.394 42.7137 148.859 64.989 160.648 82.9143 L188 124.5 C213.253 162.895 262.207 163.898 289.013 126.571 L324.425 77.2591 C335.144 62.3318 330.654 42.7617 314.5 34 L292.96 22.3173 C289.353 20.3608 284.453 13.0785 284 9 C283.451 4.06265 287.088 0 292.055 0 L292.055 0 Z " />
<glyph glyph-name="y" unicode="y" horiz-adv-x="478" d="M210.986 450 L-16 450 C-20.9677 450 -25 445.968 -25 441 C-25 436.482 -20.9238 430.137 -16.8147 428.258 L24.432 409.402 C31.7925 406.038 51.1412 386.84 54.5636 379.506 L215.575 34.4828 C220.222 24.5236 220.878 -4.81181 216.68 -14.9687 L196 -65 C171 -131 143 -156 96 -156 L53.8284 -156 C52.7245 -156 49.7806 -157.219 49 -158 C48.2194 -158.781 47 -161.724 47 -162.828 L47 -211 C47 -232 57 -240 81 -240 C146 -240 188 -195 233 -80 L419.104 373.331 C422.373 381.294 441.323 401.482 449.063 405.247 L493.457 426.844 C497.697 428.907 502 435.785 502 440.5 C502 445.744 497.744 450 492.5 450 L316.5 450 C311.256 450 307 445.744 307 440.5 C307 435.75 311.303 428.988 315.606 426.976 L345.5 413 C366.725 403.077 376.789 377.346 367.93 355.655 L320.901 240.515 C299.4 187.877 232.641 186.138 208.43 237.586 L151.735 358.062 C140.884 381.122 151.581 407.202 175.5 416 L210.54 428.888 C214.827 430.465 219.247 436.44 219.5 441 C219.776 445.96 215.954 450 210.986 450 L210.986 450 Z " />
<glyph glyph-name="z" unicode="z" horiz-adv-x="480" d="M84.75 455 L84.5 450 L84 438 L83.5 429 C80.6538 393.897 76.4576 347.994 73.473 311.784 C73.0883 307.117 76.8178 306 81.5 306 C85.8257 306 91.6164 309.849 93.2915 313.837 L116.188 368.352 C124.235 387.511 152.053 406 172.834 406 L211 406 C249.118 406 270.146 370.263 251.634 336.942 L79.3708 26.8674 C78.1992 24.7585 75 12.4125 75 10 C75 5.03227 79.0323 1 84 1 L395.997 1 C402.069 1 407.112 5.9299 407.25 12 L407.5 23 L407.967 142.5 C407.985 147.192 404.192 151 399.5 151 C395.024 151 389.793 147.161 388.451 142.891 L371.52 89.0187 C364.401 66.3661 336.652 46 312.907 46 L255.983 46 C219.863 46 201.711 83.1897 219.244 114.77 C277.413 219.545 335.166 324.209 393.527 428.248 C394.385 429.778 399 442.746 399 444.5 C399 448.088 396.088 451 392.5 451 L143.752 451 C142.689 451 129.521 452.661 128.491 452.925 L102.832 459.505 C101.776 459.775 92.0861 460.591 91 460.5 L89.989 460.416 C87.2596 460.188 84.8868 457.735 84.75 455 L84.75 455 Z " />
<glyph glyph-name="bar" unicode="&#x7c;" horiz-adv-x="225" d="M100 -260 C113.799 -260 125 -248.799 125 -235 L125 735 C125 748.799 113.799 760 100 760 C86.2007 760 75 748.799 75 735 L75 -235 C75 -248.799 86.2007 -260 100 -260 L100 -260 Z " />
<glyph glyph-name="asciitilde" unicode="&#x7e;" horiz-adv-x="340" d="M32.9454 230.751 C45.255 266.535 57.7 290 90 290 C131 290 186 225 227 225 C274.775 225 296.883 272.531 320.203 344.422 C321.261 347.682 318.927 350 315.5 350 C312.131 350 308.125 347.294 307.055 344.099 C294.745 307.367 282.3 283 250 283 C209 283 154 348 113 348 C64.25 348 43.0681 301.419 19.7949 230.503 C18.728 227.252 21.0786 225 24.5 225 C27.8586 225 31.8529 227.575 32.9454 230.751 L32.9454 230.751 Z " />
<glyph glyph-name="exclamdown" unicode="&#xa1;" horiz-adv-x="245" d="M125 460 C89 460 65 436 65 400 C65 364 89 340 125 340 C161 340 185 364 185 400 C185 436 161 460 125 460 L125 460 Z M125 -210 C155.22 -210 177.638 -185.333 174.758 -155.25 L135.953 250.046 C135.429 255.515 130.495 260 125 260 C119.505 260 114.571 255.515 114.047 250.046 L75.242 -155.25 C72.3617 -185.333 94.7798 -210 125 -210 L125 -210 Z " />
<glyph glyph-name="guillemotleft" unicode="&#xab;" horiz-adv-x="431" d="M395.881 421.355 L251.842 293.88 C223.429 268.735 223.371 227.2 251.713 201.975 L395.892 73.6566 C397.399 72.3147 403.482 70 405.5 70 C408.076 70 409.453 72.4811 408.09 74.6669 L320.331 215.398 C310.241 231.577 310.283 264.397 320.413 280.551 L408.078 420.34 C409.444 422.519 408.072 425 405.5 425 C403.488 425 397.388 422.688 395.881 421.355 L395.881 421.355 Z M210.881 421.355 L66.8419 293.88 C38.4293 268.735 38.3713 227.2 66.7134 201.975 L210.892 73.6566 C212.399 72.3147 218.482 70 220.5 70 C223.076 70 224.453 72.4811 223.09 74.6669 L135.331 215.398 C125.241 231.577 125.283 264.397 135.413 280.551 L223.078 420.34 C224.444 422.519 223.072 425 220.5 425 C218.488 425 212.388 422.688 210.881 421.355 L210.881 421.355 Z " />
<glyph glyph-name="acute" unicode="&#xb4;" horiz-adv-x="340" d="M176 530 C178.243 530 184.764 532.545 186.414 534.064 L308 646 C325 662 337 707 337 707 C337 707 323.589 707 313.714 707 L295.261 707 C276.308 707 248.483 689.672 240.122 672.662 L172.647 535.385 C171.336 532.717 173.028 530 176 530 L176 530 Z " />
<glyph glyph-name="periodcentered" unicode="&#xb7;" horiz-adv-x="250" d="M125 210 C161 210 185 234 185 270 C185 306 161 330 125 330 C89 330 65 306 65 270 C65 234 89 210 125 210 L125 210 Z " />
<glyph glyph-name="guillemotright" unicode="&#xbb;" horiz-adv-x="430" d="M202.903 420.329 L289.902 280.339 C299.836 264.354 299.878 231.62 289.984 215.61 L202.891 74.6787 C201.534 72.4818 202.917 70 205.5 70 C207.524 70 213.591 72.3174 215.099 73.6668 L358.659 202.077 C386.814 227.26 386.756 268.675 358.531 293.779 L215.11 421.345 C213.602 422.686 207.518 425 205.5 425 C202.922 425 201.542 422.519 202.903 420.329 L202.903 420.329 Z M22.9031 420.329 L109.902 280.339 C119.836 264.354 119.878 231.62 109.984 215.61 L22.8913 74.6787 C21.5337 72.4818 22.9175 70 25.5 70 C27.5239 70 33.5908 72.3174 35.0994 73.6668 L178.659 202.077 C206.814 227.26 206.756 268.675 178.531 293.779 L35.1096 421.345 C33.6021 422.686 27.5176 425 25.5 425 C22.9215 425 21.5421 422.519 22.9031 420.329 L22.9031 420.329 Z " />
<glyph glyph-name="questiondown" unicode="&#xbf;" horiz-adv-x="478" d="M266 455 C230 455 206 431 206 395 C206 359 230 335 266 335 C302 335 326 359 326 395 C326 431 302 455 266 455 L266 455 Z M350.115 -66.9834 C352.698 -66.6105 398.305 -60.0602 426.754 -58.3867 C434.453 -57.9339 438.494 -54.2233 436.782 -46.7037 C432.778 -29.1111 419.167 -18 400 -18 L363.831 -18 C361.116 -18 359.21 -16.0274 357.791 -18.3429 C356.716 -20.0988 351.778 -28 350 -28 L350 -47.5 C350 -58.1448 339.579 -68.5046 350.115 -66.9834 L350.115 -66.9834 Z M346.875 -99.0724 C337.199 -146.052 305.725 -176 262 -176 C193 -176 147 -124 147 -45 C147 12.35 200.049 67.9888 281.611 98.1727 C293.725 102.656 301.816 116.53 300.42 129.372 C294.785 181.247 276 260 276 260 C276 260 272.991 260 266 260 C260.534 260 256.76 265.334 255.989 259.922 C255.752 258.262 251.788 230.379 247.679 197.263 C246.483 187.622 236.97 171.956 228.054 168.097 C122.687 122.485 55 41.45 55 -45 C55 -150 125 -220 231 -220 C336.4 -220 412.178 -173.038 432.539 -99.3786 C440.545 -70.4163 423.893 -59.4428 394 -62.5 L382.331 -63.6934 C368.503 -65.1076 349.68 -85.4579 346.875 -99.0724 L346.875 -99.0724 Z " />
<glyph glyph-name="Agrave" unicode="&#xc0;" horiz-adv-x="748" d="M371 705 L370 706 L371 706 L371 705 L371 705 Z M234.624 21.3297 L181.915 42.2823 C171.226 46.5312 165.654 58.2048 169.756 68.9506 C184.419 107.36 204.5 160.4 230 225 L230 220 L442.72 220.419 C463.815 220.46 491.666 201.828 499.678 182.313 L536.218 93.3107 C546.025 69.4244 534.266 42.8242 510 34 L474.458 21.0757 C470.071 19.4802 466 13.6686 466 9 C466 4.03227 470.032 0 475 0 L705 0 C709.416 0 713 3.58424 713 8 C713 12.0274 709.377 17.629 705.704 19.2806 L670.45 35.1309 C662.167 38.8553 641.841 60.7168 638.312 69.0857 C568.414 234.875 401 641 401 641 L396 653 C393.452 659.114 384.624 665 378 665 L369 665 C357.797 665 342.835 655.039 338.512 644.703 L324 610 C221.325 361.175 142.607 169.677 102.885 71.9125 C99.0541 62.4835 79.4803 44.0432 70.0644 40.1803 L24.3265 21.416 C20.0745 19.6716 16 13.596 16 9 C16 4.03227 20.0323 0 25 0 L232.986 0 C237.954 0 242.224 4.03992 242.5 9 C242.762 13.7111 239.008 19.5868 234.624 21.3297 L234.624 21.3297 Z M366.371 710.831 L300.454 831.933 C291.992 847.479 264.19 864 246.49 864 L223.881 864 C212.806 864 199.801 874.497 203.029 863.904 C203.69 861.736 215.486 823.6 232 810 L353.758 709.501 C355.249 708.271 361.567 706 363.5 706 C366.166 706 367.645 708.489 366.371 710.831 L366.371 710.831 Z M369.351 274 L288.853 274 C267.879 274 254.137 289.554 261.837 309.064 C283.1 362.936 306.641 422.457 332.459 486.398 C340.141 505.423 365.31 507.022 373.104 488.043 L426.186 358.779 C443.962 315.491 416.147 274 369.351 274 L369.351 274 Z " />
<glyph glyph-name="Aacute" unicode="&#xc1;" horiz-adv-x="748" d="M371 705 C373.108 705 380.001 707.477 381.627 708.819 L503 809 C520 824 532 865 532 865 C532 865 519.474 865 510.64 865 L488.473 865 C470.799 865 442.998 848.496 434.535 832.981 L367.873 710.767 C366.481 708.215 368.093 705 371 705 L371 705 Z M234.624 21.3297 L181.915 42.2823 C171.226 46.5312 165.654 58.2048 169.756 68.9506 C184.419 107.36 204.5 160.4 230 225 L230 220 L442.72 220.419 C463.815 220.46 491.666 201.828 499.678 182.313 L536.218 93.3107 C546.025 69.4244 534.266 42.8242 510 34 L474.458 21.0757 C470.071 19.4802 466 13.6686 466 9 C466 4.03227 470.032 0 475 0 L705 0 C709.416 0 713 3.58424 713 8 C713 12.0274 709.377 17.629 705.704 19.2806 L670.45 35.1309 C662.167 38.8553 641.841 60.7168 638.312 69.0857 C568.414 234.875 401 641 401 641 L396 653 C393.452 659.114 384.624 665 378 665 L369 665 C357.797 665 342.835 655.039 338.512 644.703 L324 610 C221.325 361.175 142.607 169.677 102.885 71.9125 C99.0541 62.4835 79.4803 44.0432 70.0644 40.1803 L24.3265 21.416 C20.0745 19.6716 16 13.596 16 9 C16 4.03227 20.0323 0 25 0 L232.986 0 C237.954 0 242.224 4.03992 242.5 9 C242.762 13.7111 239.008 19.5868 234.624 21.3297 L234.624 21.3297 Z M369.351 274 L288.853 274 C267.879 274 254.137 289.554 261.837 309.064 C283.1 362.936 306.641 422.457 332.459 486.398 C340.141 505.423 365.31 507.022 373.104 488.043 L426.186 358.779 C443.962 315.491 416.147 274 369.351 274 L369.351 274 Z " />
<glyph glyph-name="Acircumflex" unicode="&#xc2;" horiz-adv-x="748" d="M518 705 L517 706 L518 706 L518 705 L518 705 Z M234.624 21.3297 L181.915 42.2823 C171.226 46.5312 165.654 58.2048 169.756 68.9506 C184.419 107.36 204.5 160.4 230 225 L230 220 L442.72 220.419 C463.815 220.46 491.666 201.828 499.678 182.313 L536.218 93.3107 C546.025 69.4244 534.266 42.8242 510 34 L474.458 21.0757 C470.071 19.4802 466 13.6686 466 9 C466 4.03227 470.032 0 475 0 L705 0 C709.416 0 713 3.58424 713 8 C713 12.0274 709.377 17.629 705.704 19.2806 L670.45 35.1309 C662.167 38.8553 641.841 60.7168 638.312 69.0857 C568.414 234.875 401 641 401 641 L396 653 C393.452 659.114 384.624 665 378 665 L369 665 C357.797 665 342.835 655.039 338.512 644.703 L324 610 C221.325 361.175 142.607 169.677 102.885 71.9125 C99.0541 62.4835 79.4803 44.0432 70.0644 40.1803 L24.3265 21.416 C20.0745 19.6716 16 13.596 16 9 C16 4.03227 20.0323 0 25 0 L232.986 0 C237.954 0 242.224 4.03992 242.5 9 C242.762 13.7111 239.008 19.5868 234.624 21.3297 L234.624 21.3297 Z M369 863 C362.583 863 348.577 856.348 344.522 851.374 L229.791 710.65 C228.169 708.661 229.433 706 232 706 C233.773 706 241.571 708.263 243.068 709.211 L336.725 768.551 C352.703 778.674 385.468 778.95 401.614 769.096 L500.305 708.865 C501.655 708.041 508.919 706 510.5 706 C512.824 706 513.956 708.431 512.461 710.21 L393.653 851.519 C389.575 856.369 375.337 863 369 863 L369 863 Z M369.351 274 L288.853 274 C267.879 274 254.137 289.554 261.837 309.064 C283.1 362.936 306.641 422.457 332.459 486.398 C340.141 505.423 365.31 507.022 373.104 488.043 L426.186 358.779 C443.962 315.491 416.147 274 369.351 274 L369.351 274 Z " />
<glyph glyph-name="Atilde" unicode="&#xc3;" horiz-adv-x="748" d="M237.945 733.159 C250.255 765.242 262.7 786 295 786 C336 786 391 728 432 728 C479.775 728 501.883 770.778 525.203 835.943 C526.347 839.139 523.894 841 520.5 841 C517.174 841 513.216 838.808 512.055 835.691 C499.745 802.66 487.3 781 455 781 C414 781 359 840 318 840 C269.25 840 248.068 798.173 224.795 733.982 C223.624 730.753 226.069 728.882 229.5 728.75 C232.858 728.621 236.741 730.021 237.945 733.159 L237.945 733.159 Z M234.624 21.3297 L181.915 42.2823 C171.226 46.5312 165.654 58.2048 169.756 68.9506 C184.419 107.36 204.5 160.4 230 225 L230 220 L442.72 220.419 C463.815 220.46 491.666 201.828 499.678 182.313 L536.218 93.3107 C546.025 69.4244 534.266 42.8242 510 34 L474.458 21.0757 C470.071 19.4802 466 13.6686 466 9 C466 4.03227 470.032 0 475 0 L705 0 C709.416 0 713 3.58424 713 8 C713 12.0274 709.377 17.629 705.704 19.2806 L670.45 35.1309 C662.167 38.8553 641.841 60.7168 638.312 69.0857 C568.414 234.875 401 641 401 641 L396 653 C393.452 659.114 384.624 665 378 665 L369 665 C357.797 665 342.835 655.039 338.512 644.703 L324 610 C221.325 361.175 142.607 169.677 102.885 71.9125 C99.0541 62.4835 79.4803 44.0432 70.0644 40.1803 L24.3265 21.416 C20.0745 19.6716 16 13.596 16 9 C16 4.03227 20.0323 0 25 0 L232.986 0 C237.954 0 242.224 4.03992 242.5 9 C242.762 13.7111 239.008 19.5868 234.624 21.3297 L234.624 21.3297 Z M369.351 274 L288.853 274 C267.879 274 254.137 289.554 261.837 309.064 C283.1 362.936 306.641 422.457 332.459 486.398 C340.141 505.423 365.31 507.022 373.104 488.043 L426.186 358.779 C443.962 315.491 416.147 274 369.351 274 L369.351 274 Z " />
<glyph glyph-name="Adieresis" unicode="&#xc4;" horiz-adv-x="748" d="M460 735 C490 735 510 755 510 785 C510 815 490 835 460 835 C430 835 410 815 410 785 C410 755 430 735 460 735 L460 735 Z M280 735 C310 735 330 755 330 785 C330 815 310 835 280 835 C250 835 230 815 230 785 C230 755 250 735 280 735 L280 735 Z M234.624 21.3297 L181.915 42.2823 C171.226 46.5312 165.654 58.2048 169.756 68.9506 C184.419 107.36 204.5 160.4 230 225 L230 220 L442.72 220.419 C463.815 220.46 491.666 201.828 499.678 182.313 L536.218 93.3107 C546.025 69.4244 534.266 42.8242 510 34 L474.458 21.0757 C470.071 19.4802 466 13.6686 466 9 C466 4.03227 470.032 0 475 0 L705 0 C709.416 0 713 3.58424 713 8 C713 12.0274 709.377 17.629 705.704 19.2806 L670.45 35.1309 C662.167 38.8553 641.841 60.7168 638.312 69.0857 C568.414 234.875 401 641 401 641 L396 653 C393.452 659.114 384.624 665 378 665 L369 665 C357.797 665 342.835 655.039 338.512 644.703 L324 610 C221.325 361.175 142.607 169.677 102.885 71.9125 C99.0541 62.4835 79.4803 44.0432 70.0644 40.1803 L24.3265 21.416 C20.0745 19.6716 16 13.596 16 9 C16 4.03227 20.0323 0 25 0 L232.986 0 C237.954 0 242.224 4.03992 242.5 9 C242.762 13.7111 239.008 19.5868 234.624 21.3297 L234.624 21.3297 Z M369.351 274 L288.853 274 C267.879 274 254.137 289.554 261.837 309.064 C283.1 362.936 306.641 422.457 332.459 486.398 C340.141 505.423 365.31 507.022 373.104 488.043 L426.186 358.779 C443.962 315.491 416.147 274 369.351 274 L369.351 274 Z " />
<glyph glyph-name="Aring" unicode="&#xc5;" horiz-adv-x="748" d="M334 800 C334 831 348 852 368 852 C391 852 406 826 406 786 C406 758 391 734 374 734 C352 734 334 764 334 800 L334 800 Z M285 793 C285 748 324 710 370 710 C416 710 455 749 455 795 C455 844 421 876 370 876 C319 876 285 843 285 793 L285 793 Z M234.624 21.3297 L181.915 42.2823 C171.226 46.5312 165.654 58.2048 169.756 68.9506 C184.419 107.36 204.5 160.4 230 225 L230 220 L442.72 220.419 C463.815 220.46 491.666 201.828 499.678 182.313 L536.218 93.3107 C546.025 69.4244 534.266 42.8242 510 34 L474.458 21.0757 C470.071 19.4802 466 13.6686 466 9 C466 4.03227 470.032 0 475 0 L705 0 C709.416 0 713 3.58424 713 8 C713 12.0274 709.377 17.629 705.704 19.2806 L670.45 35.1309 C662.167 38.8553 641.841 60.7168 638.312 69.0857 C568.414 234.875 401 641 401 641 L396 653 C393.452 659.114 384.624 665 378 665 L369 665 C357.797 665 342.835 655.039 338.512 644.703 L324 610 C221.325 361.175 142.607 169.677 102.885 71.9125 C99.0541 62.4835 79.4803 44.0432 70.0644 40.1803 L24.3265 21.416 C20.0745 19.6716 16 13.596 16 9 C16 4.03227 20.0323 0 25 0 L232.986 0 C237.954 0 242.224 4.03992 242.5 9 C242.762 13.7111 239.008 19.5868 234.624 21.3297 L234.624 21.3297 Z M369.351 274 L288.853 274 C267.879 274 254.137 289.554 261.837 309.064 C283.1 362.936 306.641 422.457 332.459 486.398 C340.141 505.423 365.31 507.022 373.104 488.043 L426.186 358.779 C443.962 315.491 416.147 274 369.351 274 L369.351 274 Z " />
<glyph glyph-name="Ccedilla" unicode="&#xc7;" horiz-adv-x="717" d="M400.867 -61.7992 C411.169 -39.6013 418.871 -23.3659 423.012 -14.3745 C423.997 -12.2364 429.01 -9.85058 431.361 -9.74514 C501.181 -6.61478 565.674 7.25244 606.311 26.8029 C618.328 32.5842 626.551 47.6707 627.309 60.9845 L634.829 193.005 C634.92 194.589 634.072 195.988 632.487 196.055 C627.571 196.265 623.286 197 619 197 C602.436 164.846 581.125 123.199 564.317 90.5578 C563.946 89.8363 559.194 83.4334 558.675 82.8099 L558 82 C556.759 80.5109 547.774 73.4418 546.02 72.6181 C501.317 51.635 447.5 39 400 39 C257 39 162 159 162 340 C162 507 262 619 413 619 C454 619 499 607 535 588 C541 585 546 580 548 575 C566 538 589 487 607 450 C611.286 450 616.306 450.735 621.431 450.945 C623.02 451.01 623.943 452.409 623.879 453.998 L617.875 602.379 C617.331 615.819 610.91 629.566 599.042 635.898 C559.498 656.995 489.5 670 413 670 C207 670 69 526 69 310 C69 121 196 -6 389 -11 C392.642 -11.0943 387.608 -14.0037 386.063 -17.3027 C378.363 -33.7402 361.702 -68.9777 340.178 -116.359 C336.543 -124.362 340.479 -132.904 348.5 -136.5 L356.694 -140.173 C357.265 -140.429 368.12 -144.097 368.729 -144.239 C400.593 -151.667 422 -165.833 422 -180 C422 -200 407 -213 384 -213 C356.647 -213 331.63 -208.329 318.565 -200.36 C316.822 -199.297 314 -200.458 314 -202.5 C314 -204.971 315.489 -209.366 317.388 -210.947 C339.385 -229.267 371.4 -241 398 -241 C448 -241 482 -210 482 -164 C482 -133.375 455.203 -104.664 411.658 -87.916 C402.168 -84.2661 396.587 -71.022 400.867 -61.7992 L400.867 -61.7992 Z " />
<glyph glyph-name="Egrave" unicode="&#xc8;" horiz-adv-x="650" d="M341 705 L340 706 L341 706 L341 705 L341 705 Z M337.371 710.831 L271.454 831.933 C262.992 847.479 235.19 864 217.49 864 L194.881 864 C183.806 864 170.801 874.497 174.029 863.904 C174.69 861.736 186.486 823.6 203 810 L324.758 709.501 C326.249 708.271 332.567 706 334.5 706 C337.166 706 338.645 708.489 337.371 710.831 L337.371 710.831 Z M571.5 180 C567.244 180 561.214 176.15 559.422 172.29 L521.509 90.58 C513.243 72.7652 485.416 55 465.776 55 L296.44 55 C262.527 55 235 82.527 235 116.44 L235 251.56 C235 285.473 262.527 313 296.44 313 L367.863 313 C386.013 313 413.826 296.189 422.262 280.119 L441.654 243.182 C444.267 238.206 452.88 233 458.5 233 C464.848 233 470 238.152 470 244.5 L470 436.5 C470 442.848 464.848 448 458.5 448 C452.88 448 444.267 442.794 441.654 437.818 L422.262 400.881 C413.826 384.811 386.013 368 367.863 368 L296.44 368 C262.527 368 235 395.527 235 429.44 L235 543.56 C235 577.473 262.527 605 296.44 605 L442.175 605 C460.817 605 488.639 587.872 497.033 571.227 L534.172 497.589 C536.059 493.849 542.311 490 546.5 490 C551.192 490 555 493.808 555 498.5 L555 598.56 C555 632.473 527.473 660 493.56 660 L74.5 660 C69.2563 660 65 655.744 65 650.5 C65 645.718 69.3026 639.064 73.6633 637.102 L108.773 621.302 C127.008 613.096 145 585.27 145 565.274 L145 94.7262 C145 74.7299 127.008 46.9035 108.773 38.6978 L73.6633 22.8985 C69.3026 20.9362 65 14.2819 65 9.5 C65 4.25628 69.2563 0 74.5 0 L518.56 0 C552.473 0 580 27.527 580 61.44 L580 171.5 C580 176.192 576.192 180 571.5 180 L571.5 180 Z " />
<glyph glyph-name="Eacute" unicode="&#xc9;" horiz-adv-x="650" d="M341 705 C343.108 705 350.001 707.477 351.627 708.819 L473 809 C490 824 502 865 502 865 C502 865 489.474 865 480.64 865 L458.473 865 C440.799 865 412.998 848.496 404.535 832.981 L337.873 710.767 C336.481 708.215 338.093 705 341 705 L341 705 Z M571.5 180 C567.244 180 561.214 176.15 559.422 172.29 L521.509 90.58 C513.243 72.7652 485.416 55 465.776 55 L296.44 55 C262.527 55 235 82.527 235 116.44 L235 251.56 C235 285.473 262.527 313 296.44 313 L367.863 313 C386.013 313 413.826 296.189 422.262 280.119 L441.654 243.182 C444.267 238.206 452.88 233 458.5 233 C464.848 233 470 238.152 470 244.5 L470 436.5 C470 442.848 464.848 448 458.5 448 C452.88 448 444.267 442.794 441.654 437.818 L422.262 400.881 C413.826 384.811 386.013 368 367.863 368 L296.44 368 C262.527 368 235 395.527 235 429.44 L235 543.56 C235 577.473 262.527 605 296.44 605 L442.175 605 C460.817 605 488.639 587.872 497.033 571.227 L534.172 497.589 C536.059 493.849 542.311 490 546.5 490 C551.192 490 555 493.808 555 498.5 L555 598.56 C555 632.473 527.473 660 493.56 660 L74.5 660 C69.2563 660 65 655.744 65 650.5 C65 645.718 69.3026 639.064 73.6633 637.102 L108.773 621.302 C127.008 613.096 145 585.27 145 565.274 L145 94.7262 C145 74.7299 127.008 46.9035 108.773 38.6978 L73.6633 22.8985 C69.3026 20.9362 65 14.2819 65 9.5 C65 4.25628 69.2563 0 74.5 0 L518.56 0 C552.473 0 580 27.527 580 61.44 L580 171.5 C580 176.192 576.192 180 571.5 180 L571.5 180 Z " />
<glyph glyph-name="Ecircumflex" unicode="&#xca;" horiz-adv-x="650" d="M483 705 L482 706 L483 706 L483 705 L483 705 Z M335 863 C328.583 863 314.577 856.348 310.522 851.374 L195.791 710.65 C194.169 708.661 195.433 706 198 706 C199.773 706 207.571 708.263 209.068 709.211 L302.725 768.551 C318.703 778.674 351.468 778.95 367.614 769.096 L466.305 708.865 C467.655 708.041 474.919 706 476.5 706 C478.824 706 479.956 708.431 478.461 710.21 L359.653 851.519 C355.575 856.369 341.337 863 335 863 L335 863 Z M571.5 180 C567.244 180 561.214 176.15 559.422 172.29 L521.509 90.58 C513.243 72.7652 485.416 55 465.776 55 L296.44 55 C262.527 55 235 82.527 235 116.44 L235 251.56 C235 285.473 262.527 313 296.44 313 L367.863 313 C386.013 313 413.826 296.189 422.262 280.119 L441.654 243.182 C444.267 238.206 452.88 233 458.5 233 C464.848 233 470 238.152 470 244.5 L470 436.5 C470 442.848 464.848 448 458.5 448 C452.88 448 444.267 442.794 441.654 437.818 L422.262 400.881 C413.826 384.811 386.013 368 367.863 368 L296.44 368 C262.527 368 235 395.527 235 429.44 L235 543.56 C235 577.473 262.527 605 296.44 605 L442.175 605 C460.817 605 488.639 587.872 497.033 571.227 L534.172 497.589 C536.059 493.849 542.311 490 546.5 490 C551.192 490 555 493.808 555 498.5 L555 598.56 C555 632.473 527.473 660 493.56 660 L74.5 660 C69.2563 660 65 655.744 65 650.5 C65 645.718 69.3026 639.064 73.6633 637.102 L108.773 621.302 C127.008 613.096 145 585.27 145 565.274 L145 94.7262 C145 74.7299 127.008 46.9035 108.773 38.6978 L73.6633 22.8985 C69.3026 20.9362 65 14.2819 65 9.5 C65 4.25628 69.2563 0 74.5 0 L518.56 0 C552.473 0 580 27.527 580 61.44 L580 171.5 C580 176.192 576.192 180 571.5 180 L571.5 180 Z " />
<glyph glyph-name="Edieresis" unicode="&#xcb;" horiz-adv-x="650" d="M425 735 C455 735 475 755 475 785 C475 815 455 835 425 835 C395 835 375 815 375 785 C375 755 395 735 425 735 L425 735 Z M245 735 C275 735 295 755 295 785 C295 815 275 835 245 835 C215 835 195 815 195 785 C195 755 215 735 245 735 L245 735 Z M571.5 180 C567.244 180 561.214 176.15 559.422 172.29 L521.509 90.58 C513.243 72.7652 485.416 55 465.776 55 L296.44 55 C262.527 55 235 82.527 235 116.44 L235 251.56 C235 285.473 262.527 313 296.44 313 L367.863 313 C386.013 313 413.826 296.189 422.262 280.119 L441.654 243.182 C444.267 238.206 452.88 233 458.5 233 C464.848 233 470 238.152 470 244.5 L470 436.5 C470 442.848 464.848 448 458.5 448 C452.88 448 444.267 442.794 441.654 437.818 L422.262 400.881 C413.826 384.811 386.013 368 367.863 368 L296.44 368 C262.527 368 235 395.527 235 429.44 L235 543.56 C235 577.473 262.527 605 296.44 605 L442.175 605 C460.817 605 488.639 587.872 497.033 571.227 L534.172 497.589 C536.059 493.849 542.311 490 546.5 490 C551.192 490 555 493.808 555 498.5 L555 598.56 C555 632.473 527.473 660 493.56 660 L74.5 660 C69.2563 660 65 655.744 65 650.5 C65 645.718 69.3026 639.064 73.6633 637.102 L108.773 621.302 C127.008 613.096 145 585.27 145 565.274 L145 94.7262 C145 74.7299 127.008 46.9035 108.773 38.6978 L73.6633 22.8985 C69.3026 20.9362 65 14.2819 65 9.5 C65 4.25628 69.2563 0 74.5 0 L518.56 0 C552.473 0 580 27.527 580 61.44 L580 171.5 C580 176.192 576.192 180 571.5 180 L571.5 180 Z " />
<glyph glyph-name="Igrave" unicode="&#xcc;" horiz-adv-x="390" d="M201 705 L200 706 L201 706 L201 705 L201 705 Z M197.371 710.831 L131.454 831.933 C122.992 847.479 95.1904 864 77.4903 864 L54.8806 864 C43.806 864 30.8015 874.497 34.0292 863.904 C34.6898 861.736 46.4857 823.6 63 810 L184.758 709.501 C186.249 708.271 192.567 706 194.5 706 C197.166 706 198.645 708.489 197.371 710.831 L197.371 710.831 Z M320 9.5 C320 14.2819 315.697 20.9362 311.337 22.8985 L276.227 38.6978 C257.992 46.9035 240 74.7299 240 94.7262 L240 565.274 C240 585.27 257.992 613.096 276.227 621.302 L311.337 637.102 C315.697 639.064 320 645.718 320 650.5 C320 655.744 315.744 660 310.5 660 L79.5 660 C74.2563 660 70 655.744 70 650.5 C70 645.718 74.3026 639.064 78.6633 637.102 L113.773 621.302 C132.008 613.096 150 585.27 150 565.274 L150 94.7262 C150 74.7299 132.008 46.9035 113.773 38.6978 L78.6633 22.8985 C74.3026 20.9362 70 14.2819 70 9.5 C70 4.25628 74.2563 0 79.5 0 L310.5 0 C315.744 0 320 4.25628 320 9.5 L320 9.5 Z " />
<glyph glyph-name="Iacute" unicode="&#xcd;" horiz-adv-x="390" d="M201 705 C203.108 705 210.001 707.477 211.627 708.819 L333 809 C350 824 362 865 362 865 C362 865 349.474 865 340.64 865 L318.473 865 C300.799 865 272.998 848.496 264.535 832.981 L197.873 710.767 C196.481 708.215 198.093 705 201 705 L201 705 Z M320 9.5 C320 14.2819 315.697 20.9362 311.337 22.8985 L276.227 38.6978 C257.992 46.9035 240 74.7299 240 94.7262 L240 565.274 C240 585.27 257.992 613.096 276.227 621.302 L311.337 637.102 C315.697 639.064 320 645.718 320 650.5 C320 655.744 315.744 660 310.5 660 L79.5 660 C74.2563 660 70 655.744 70 650.5 C70 645.718 74.3026 639.064 78.6633 637.102 L113.773 621.302 C132.008 613.096 150 585.27 150 565.274 L150 94.7262 C150 74.7299 132.008 46.9035 113.773 38.6978 L78.6633 22.8985 C74.3026 20.9362 70 14.2819 70 9.5 C70 4.25628 74.2563 0 79.5 0 L310.5 0 C315.744 0 320 4.25628 320 9.5 L320 9.5 Z " />
<glyph glyph-name="Icircumflex" unicode="&#xce;" horiz-adv-x="390" d="M343 705 L342 706 L343 706 L343 705 L343 705 Z M195 863 C188.583 863 174.577 856.348 170.522 851.374 L55.7914 710.65 C54.1694 708.661 55.4332 706 58 706 C59.7725 706 67.5711 708.263 69.0683 709.211 L162.725 768.551 C178.703 778.674 211.468 778.95 227.614 769.096 L326.305 708.865 C327.655 708.041 334.919 706 336.5 706 C338.824 706 339.956 708.431 338.461 710.21 L219.653 851.519 C215.575 856.369 201.337 863 195 863 L195 863 Z M320 9.5 C320 14.2819 315.697 20.9362 311.337 22.8985 L276.227 38.6978 C257.992 46.9035 240 74.7299 240 94.7262 L240 565.274 C240 585.27 257.992 613.096 276.227 621.302 L311.337 637.102 C315.697 639.064 320 645.718 320 650.5 C320 655.744 315.744 660 310.5 660 L79.5 660 C74.2563 660 70 655.744 70 650.5 C70 645.718 74.3026 639.064 78.6633 637.102 L113.773 621.302 C132.008 613.096 150 585.27 150 565.274 L150 94.7262 C150 74.7299 132.008 46.9035 113.773 38.6978 L78.6633 22.8985 C74.3026 20.9362 70 14.2819 70 9.5 C70 4.25628 74.2563 0 79.5 0 L310.5 0 C315.744 0 320 4.25628 320 9.5 L320 9.5 Z " />
<glyph glyph-name="Idieresis" unicode="&#xcf;" horiz-adv-x="390" d="M285 735 C315 735 335 755 335 785 C335 815 315 835 285 835 C255 835 235 815 235 785 C235 755 255 735 285 735 L285 735 Z M105 735 C135 735 155 755 155 785 C155 815 135 835 105 835 C75 835 55 815 55 785 C55 755 75 735 105 735 L105 735 Z M320 9.5 C320 14.2819 315.697 20.9362 311.337 22.8985 L276.227 38.6978 C257.992 46.9035 240 74.7299 240 94.7262 L240 565.274 C240 585.27 257.992 613.096 276.227 621.302 L311.337 637.102 C315.697 639.064 320 645.718 320 650.5 C320 655.744 315.744 660 310.5 660 L79.5 660 C74.2563 660 70 655.744 70 650.5 C70 645.718 74.3026 639.064 78.6633 637.102 L113.773 621.302 C132.008 613.096 150 585.27 150 565.274 L150 94.7262 C150 74.7299 132.008 46.9035 113.773 38.6978 L78.6633 22.8985 C74.3026 20.9362 70 14.2819 70 9.5 C70 4.25628 74.2563 0 79.5 0 L310.5 0 C315.744 0 320 4.25628 320 9.5 L320 9.5 Z " />
<glyph glyph-name="Ntilde" unicode="&#xd1;" horiz-adv-x="806" d="M281.945 733.159 C294.255 765.242 306.7 786 339 786 C380 786 436 728 477 728 C524.775 728 546.883 770.778 570.203 835.943 C571.347 839.139 568.894 841 565.5 841 C562.174 841 558.216 838.808 557.055 835.691 C544.745 802.66 532.3 781 500 781 C459 781 403 840 362 840 C313.25 840 292.068 798.173 268.795 733.982 C267.624 730.753 270.069 728.882 273.5 728.75 C276.858 728.621 280.741 730.021 281.945 733.159 L281.945 733.159 Z M76.1262 637.099 L108.147 621.729 C125.49 613.405 143 585.578 143 566.34 L143 94.7262 C143 74.7299 125.008 46.9035 106.773 38.6978 L71.6633 22.8985 C67.3026 20.9362 63 14.2819 63 9.5 C63 4.25628 67.2563 0 72.5 0 L303.5 0 C308.744 0 313 4.25628 313 9.5 C313 14.4337 308.704 20.5467 304.062 22.2178 L253.629 40.3735 C232.529 47.9697 213 75.7556 213 98.1817 L213 338.438 C213 398.788 284.536 423.966 322.335 376.921 L619.039 7.64209 C623.755 1.77208 639.97 -6 647.5 -6 C657.159 -6 665 1.84052 665 11.5 L665 565.34 C665 584.578 682.51 612.405 699.853 620.729 L731.436 635.889 C735.697 637.935 740 644.773 740 649.5 C740 654.744 735.744 659 730.5 659 L504.5 659 C499.256 659 495 654.744 495 649.5 C495 644.566 499.296 638.453 503.938 636.782 L554.371 618.626 C575.471 611.03 595 583.244 595 560.818 L595 355.938 C595 295.559 523.367 270.401 485.613 317.52 L230.447 635.978 C222.501 645.895 195.207 659 182.499 659 L76.0139 659 C71.0461 659 67.2244 654.96 67.5 650 C67.7418 645.648 72.1964 638.986 76.1262 637.099 L76.1262 637.099 Z " />
<glyph glyph-name="Ograve" unicode="&#xd2;" horiz-adv-x="807" d="M395 705 L394 706 L395 706 L395 705 L395 705 Z M166 363 C166 518 254 621 386 621 C539 621 641 490 641 293 C641 141 554 40 424 40 C269 40 166 169 166 363 L166 363 Z M70 328 C70 125 204 -10 404 -10 C604 -10 737 125 737 328 C737 533 604 670 404 670 C204 670 70 533 70 328 L70 328 Z M391.371 710.831 L325.454 831.933 C316.992 847.479 289.19 864 271.49 864 L248.881 864 C237.806 864 224.801 874.497 228.029 863.904 C228.69 861.736 240.486 823.6 257 810 L378.758 709.501 C380.249 708.271 386.567 706 388.5 706 C391.166 706 392.645 708.489 391.371 710.831 L391.371 710.831 Z " />
<glyph glyph-name="Oacute" unicode="&#xd3;" horiz-adv-x="807" d="M395 705 C397.108 705 404.001 707.477 405.627 708.819 L527 809 C544 824 556 865 556 865 C556 865 543.474 865 534.64 865 L512.473 865 C494.799 865 466.998 848.496 458.535 832.981 L391.873 710.767 C390.481 708.215 392.093 705 395 705 L395 705 Z M166 363 C166 518 254 621 386 621 C539 621 641 490 641 293 C641 141 554 40 424 40 C269 40 166 169 166 363 L166 363 Z M70 328 C70 125 204 -10 404 -10 C604 -10 737 125 737 328 C737 533 604 670 404 670 C204 670 70 533 70 328 L70 328 Z " />
<glyph glyph-name="Ocircumflex" unicode="&#xd4;" horiz-adv-x="807" d="M537 705 L536 706 L537 706 L537 705 L537 705 Z M166 363 C166 518 254 621 386 621 C539 621 641 490 641 293 C641 141 554 40 424 40 C269 40 166 169 166 363 L166 363 Z M70 328 C70 125 204 -10 404 -10 C604 -10 737 125 737 328 C737 533 604 670 404 670 C204 670 70 533 70 328 L70 328 Z M389 863 C382.583 863 368.577 856.348 364.522 851.374 L249.791 710.65 C248.169 708.661 249.433 706 252 706 C253.773 706 261.571 708.263 263.068 709.211 L356.725 768.551 C372.703 778.674 405.468 778.95 421.614 769.096 L520.305 708.865 C521.655 708.041 528.919 706 530.5 706 C532.824 706 533.956 708.431 532.461 710.21 L413.653 851.519 C409.575 856.369 395.337 863 389 863 L389 863 Z " />
<glyph glyph-name="Otilde" unicode="&#xd5;" horiz-adv-x="807" d="M250.945 733.159 C263.255 765.242 275.7 786 308 786 C349 786 405 728 446 728 C493.775 728 515.883 770.778 539.203 835.943 C540.347 839.139 537.894 841 534.5 841 C531.174 841 527.216 838.808 526.055 835.691 C513.745 802.66 501.3 781 469 781 C428 781 372 840 331 840 C282.25 840 261.068 798.173 237.795 733.982 C236.624 730.753 239.069 728.882 242.5 728.75 C245.858 728.621 249.741 730.021 250.945 733.159 L250.945 733.159 Z M166 363 C166 518 254 621 386 621 C539 621 641 490 641 293 C641 141 554 40 424 40 C269 40 166 169 166 363 L166 363 Z M70 328 C70 125 204 -10 404 -10 C604 -10 737 125 737 328 C737 533 604 670 404 670 C204 670 70 533 70 328 L70 328 Z " />
<glyph glyph-name="Odieresis" unicode="&#xd6;" horiz-adv-x="807" d="M479 735 C509 735 529 755 529 785 C529 815 509 835 479 835 C449 835 429 815 429 785 C429 755 449 735 479 735 L479 735 Z M299 735 C329 735 349 755 349 785 C349 815 329 835 299 835 C269 835 249 815 249 785 C249 755 269 735 299 735 L299 735 Z M166 363 C166 518 254 621 386 621 C539 621 641 490 641 293 C641 141 554 40 424 40 C269 40 166 169 166 363 L166 363 Z M70 328 C70 125 204 -10 404 -10 C604 -10 737 125 737 328 C737 533 604 670 404 670 C204 670 70 533 70 328 L70 328 Z " />
<glyph glyph-name="Oslash" unicode="&#xd8;" horiz-adv-x="807" d="M70 328 C70 247.15 91.0994 177.19 129.368 122.051 C140.029 106.689 141.639 72.8236 129.225 58.8401 L91.9042 16.8001 C82.4498 6.15036 89.2591 -9 103.5 -9 L110.12 -9 C121.702 -9 148.733 3.26578 156.359 11.9815 L171.413 29.1865 C182.223 41.5402 210.066 43.3008 224.318 35.1555 C274.187 6.65437 334.35 -9 402 -9 C602 -9 735 126 735 329 C735 411.5 713.22 483.11 674.714 539.338 C664.062 554.892 662.421 589.41 674.865 603.57 L712.226 646.085 C721.669 656.83 714.804 672 700.5 672 L693.88 672 C682.298 672 655.267 659.734 647.641 651.019 L632.587 633.813 C621.777 621.46 593.934 619.699 579.682 627.844 C529.813 656.346 469.65 672 402 672 C202 672 69 534 69 329 L70 328 Z M535.472 523.576 L235.923 183.737 C223.985 170.194 206.682 173.428 199.069 189.799 C176.251 238.867 164 298.35 164 366 C164 521 252 624 384 624 C441.75 624 492.013 605.283 532.543 571.779 C548.441 558.638 549.11 539.049 535.472 523.576 L535.472 523.576 Z M603.931 475.595 C626.749 425.463 639 364.475 639 296 C639 144 552 43 422 43 C363.425 43 312.337 61.3769 271.543 94.7615 C255.504 107.887 254.811 126.888 268.493 142.455 L566.829 481.911 C578.862 495.603 596.38 492.186 603.931 475.595 L603.931 475.595 Z " />
<glyph glyph-name="Ugrave" unicode="&#xd9;" horiz-adv-x="811" d="M422 705 L421 706 L422 706 L422 705 L422 705 Z M418.371 710.831 L352.454 831.933 C343.992 847.479 316.19 864 298.49 864 L275.881 864 C264.806 864 251.801 874.497 255.029 863.904 C255.69 861.736 267.486 823.6 284 810 L405.758 709.501 C407.249 708.271 413.567 706 415.5 706 C418.166 706 419.645 708.489 418.371 710.831 L418.371 710.831 Z M145 565.274 L145 234 C145 88 249 -10 406 -10 C562 -10 666 88 666 234 L666 565.274 C666 585.27 683.992 613.096 702.227 621.302 L737.337 637.102 C741.697 639.064 746 645.718 746 650.5 C746 655.744 741.744 660 736.5 660 L505.5 660 C500.256 660 496 655.744 496 650.5 C496 645.566 500.296 639.453 504.938 637.782 L555.371 619.626 C576.471 612.03 596 584.244 596 561.818 L596 213 C596 114 531 48 433 48 C314 48 235 129 235 250 L235 565.274 C235 585.27 252.992 613.096 271.227 621.302 L306.337 637.102 C310.697 639.064 315 645.718 315 650.5 C315 655.744 310.744 660 305.5 660 L74.5 660 C69.2563 660 65 655.744 65 650.5 C65 645.718 69.3026 639.064 73.6633 637.102 L108.773 621.302 C127.008 613.096 145 585.27 145 565.274 L145 565.274 Z " />
<glyph glyph-name="Uacute" unicode="&#xda;" horiz-adv-x="811" d="M412 705 C414.108 705 421.001 707.477 422.627 708.819 L544 809 C561 824 573 865 573 865 C573 865 560.474 865 551.64 865 L529.473 865 C511.799 865 483.998 848.496 475.535 832.981 L408.873 710.767 C407.481 708.215 409.093 705 412 705 L412 705 Z M145 565.274 L145 234 C145 88 249 -10 406 -10 C562 -10 666 88 666 234 L666 565.274 C666 585.27 683.992 613.096 702.227 621.302 L737.337 637.102 C741.697 639.064 746 645.718 746 650.5 C746 655.744 741.744 660 736.5 660 L505.5 660 C500.256 660 496 655.744 496 650.5 C496 645.566 500.296 639.453 504.938 637.782 L555.371 619.626 C576.471 612.03 596 584.244 596 561.818 L596 213 C596 114 531 48 433 48 C314 48 235 129 235 250 L235 565.274 C235 585.27 252.992 613.096 271.227 621.302 L306.337 637.102 C310.697 639.064 315 645.718 315 650.5 C315 655.744 310.744 660 305.5 660 L74.5 660 C69.2563 660 65 655.744 65 650.5 C65 645.718 69.3026 639.064 73.6633 637.102 L108.773 621.302 C127.008 613.096 145 585.27 145 565.274 L145 565.274 Z " />
<glyph glyph-name="Ucircumflex" unicode="&#xdb;" horiz-adv-x="811" d="M564 705 L563 706 L564 706 L564 705 L564 705 Z M416 863 C409.583 863 395.577 856.348 391.522 851.374 L276.791 710.65 C275.169 708.661 276.433 706 279 706 C280.773 706 288.571 708.263 290.068 709.211 L383.725 768.551 C399.703 778.674 432.468 778.95 448.614 769.096 L547.305 708.865 C548.655 708.041 555.919 706 557.5 706 C559.824 706 560.956 708.431 559.461 710.21 L440.653 851.519 C436.575 856.369 422.337 863 416 863 L416 863 Z M145 565.274 L145 234 C145 88 249 -10 406 -10 C562 -10 666 88 666 234 L666 565.274 C666 585.27 683.992 613.096 702.227 621.302 L737.337 637.102 C741.697 639.064 746 645.718 746 650.5 C746 655.744 741.744 660 736.5 660 L505.5 660 C500.256 660 496 655.744 496 650.5 C496 645.566 500.296 639.453 504.938 637.782 L555.371 619.626 C576.471 612.03 596 584.244 596 561.818 L596 213 C596 114 531 48 433 48 C314 48 235 129 235 250 L235 565.274 C235 585.27 252.992 613.096 271.227 621.302 L306.337 637.102 C310.697 639.064 315 645.718 315 650.5 C315 655.744 310.744 660 305.5 660 L74.5 660 C69.2563 660 65 655.744 65 650.5 C65 645.718 69.3026 639.064 73.6633 637.102 L108.773 621.302 C127.008 613.096 145 585.27 145 565.274 L145 565.274 Z " />
<glyph glyph-name="Udieresis" unicode="&#xdc;" horiz-adv-x="811" d="M506 735 C536 735 556 755 556 785 C556 815 536 835 506 835 C476 835 456 815 456 785 C456 755 476 735 506 735 L506 735 Z M326 735 C356 735 376 755 376 785 C376 815 356 835 326 835 C296 835 276 815 276 785 C276 755 296 735 326 735 L326 735 Z M145 565.274 L145 234 C145 88 249 -10 406 -10 C562 -10 666 88 666 234 L666 565.274 C666 585.27 683.992 613.096 702.227 621.302 L737.337 637.102 C741.697 639.064 746 645.718 746 650.5 C746 655.744 741.744 660 736.5 660 L505.5 660 C500.256 660 496 655.744 496 650.5 C496 645.566 500.296 639.453 504.938 637.782 L555.371 619.626 C576.471 612.03 596 584.244 596 561.818 L596 213 C596 114 531 48 433 48 C314 48 235 129 235 250 L235 565.274 C235 585.27 252.992 613.096 271.227 621.302 L306.337 637.102 C310.697 639.064 315 645.718 315 650.5 C315 655.744 310.744 660 305.5 660 L74.5 660 C69.2563 660 65 655.744 65 650.5 C65 645.718 69.3026 639.064 73.6633 637.102 L108.773 621.302 C127.008 613.096 145 585.27 145 565.274 L145 565.274 Z " />
<glyph glyph-name="Yacute" unicode="&#xdd;" horiz-adv-x="718" d="M362 705 C364.108 705 371.001 707.477 372.627 708.819 L494 809 C511 824 523 865 523 865 C523 865 510.474 865 501.64 865 L479.473 865 C461.799 865 433.998 848.496 425.535 832.981 L358.873 710.767 C357.481 708.215 359.093 705 362 705 L362 705 Z M256 660 L40 660 C35.0323 660 31 655.968 31 651 C31 646.557 35.0757 639.962 39.0498 637.975 L81.859 616.571 C85.1404 614.93 101.563 601.143 103.747 598.195 L308.925 321.296 C312.893 315.941 321 291.383 321 284.718 L321 96.5969 C321 75.2789 302.172 47.4686 282.378 39.5513 L239.821 22.5282 C235.3 20.72 231 14.3687 231 9.5 C231 4.25628 235.256 0 240.5 0 L491.5 0 C496.744 0 501 4.25628 501 9.5 C501 14.3687 496.7 20.72 492.179 22.5282 L449.622 39.5513 C429.828 47.4686 411 75.2789 411 96.5969 L411 289.881 C411 295.869 418.451 319.812 421.849 324.743 L616.361 607.013 C619.094 610.979 637.073 626.051 641.455 628.05 L676.631 644.095 C679.83 645.554 683 650.485 683 654 C683 657.864 679.864 661 676 661 L480.5 661 C475.256 661 471 656.744 471 651.5 C471 646.75 475.303 639.988 479.606 637.976 L509.5 624 C530.459 614.201 537.016 590.054 523.892 570.999 L429.908 434.553 C404.749 398.027 357.581 396.811 330.573 431.994 L220.425 575.484 C207.677 592.091 212.497 614.204 231 624 L257.046 637.789 C260.926 639.843 265 646.61 265 651 C265 655.968 260.968 660 256 660 L256 660 Z " />
<glyph glyph-name="agrave" unicode="&#xe0;" horiz-adv-x="489" d="M240.353 535.385 L172.878 672.662 C164.517 689.672 136.692 707 117.739 707 L99.2863 707 C86.834 707 72.7735 718.933 76.0236 706.912 C76.6187 704.711 88.4359 661.59 105 646 L226.586 534.064 C228.236 532.545 234.757 530 237 530 C239.972 530 241.664 532.717 240.353 535.385 L240.353 535.385 Z M142 337 C142 381 172 414 211 414 C271 414 302 380 302 329 L302 293.5 C302 275.329 283.115 253.613 265.585 248.828 C121.584 209.528 48 150.975 48 89 C48 30 92 -10 157 -10 C206.875 -10 254.453 5.3125 289.686 35.9375 C294.975 40.535 307.88 37.9905 311.218 31.8283 C325.568 5.335 353.7 -11 390 -11 C428.025 -11 463.198 9.91375 479.763 40.6189 C480.51 42.0044 480.204 44.592 479.5 46 L478 49 C477 47 463 46 442 46 C405 46 381 54 381 66 L381 349 C381 415 332 459 236 459 C135 459 58 404 58 331 C58 313 66 302 79 303 L132.464 303 C133.844 303 137.524 304.524 138.5 305.5 C139.442 306.442 141.076 310.203 141.122 311.533 L142 337 L142 337 Z M301 160.848 L301 91 C301 82.5096 296.831 72.6446 289.417 68.5075 C266.11 55.5025 235 49 201 49 C155 49 124 73 124 108 C124 143.475 164.837 178.269 244.828 205.083 C277.557 216.055 301 195.367 301 160.848 L301 160.848 Z " />
<glyph glyph-name="aacute" unicode="&#xe1;" horiz-adv-x="489" d="M243 530 C245.243 530 251.764 532.545 253.414 534.064 L375 646 C392 662 404 707 404 707 C404 707 390.589 707 380.714 707 L362.261 707 C343.308 707 315.483 689.672 307.122 672.662 L239.647 535.385 C238.336 532.717 240.028 530 243 530 L243 530 Z M142 337 C142 381 172 414 211 414 C271 414 302 380 302 329 L302 293.5 C302 275.329 283.115 253.613 265.585 248.828 C121.584 209.528 48 150.975 48 89 C48 30 92 -10 157 -10 C206.875 -10 254.453 5.3125 289.686 35.9375 C294.975 40.535 307.88 37.9905 311.218 31.8283 C325.568 5.335 353.7 -11 390 -11 C428.025 -11 463.198 9.91375 479.763 40.6189 C480.51 42.0044 480.204 44.592 479.5 46 L478 49 C477 47 463 46 442 46 C405 46 381 54 381 66 L381 349 C381 415 332 459 236 459 C135 459 58 404 58 331 C58 313 66 302 79 303 L132.464 303 C133.844 303 137.524 304.524 138.5 305.5 C139.442 306.442 141.076 310.203 141.122 311.533 L142 337 L142 337 Z M301 160.848 L301 91 C301 82.5096 296.831 72.6446 289.417 68.5075 C266.11 55.5025 235 49 201 49 C155 49 124 73 124 108 C124 143.475 164.837 178.269 244.828 205.083 C277.557 216.055 301 195.367 301 160.848 L301 160.848 Z " />
<glyph glyph-name="acircumflex" unicode="&#xe2;" horiz-adv-x="489" d="M381.37 534.777 L261.076 693.058 C257.088 698.306 243.592 705 237 705 C230.317 705 217.09 698.287 213.145 692.893 L97.5422 534.843 C95.9641 532.685 97.3269 530 100 530 C101.917 530 109.329 532.363 110.892 533.473 L202.091 598.218 C220.167 611.05 254.04 611.348 272.339 598.835 L368.047 533.387 C369.59 532.332 377.131 530 379 530 C381.637 530 382.965 532.678 381.37 534.777 L381.37 534.777 Z M142 337 C142 381 172 414 211 414 C271 414 302 380 302 329 L302 293.5 C302 275.329 283.115 253.613 265.585 248.828 C121.584 209.528 48 150.975 48 89 C48 30 92 -10 157 -10 C206.875 -10 254.453 5.3125 289.686 35.9375 C294.975 40.535 307.88 37.9905 311.218 31.8283 C325.568 5.335 353.7 -11 390 -11 C428.025 -11 463.198 9.91375 479.763 40.6189 C480.51 42.0044 480.204 44.592 479.5 46 L478 49 C477 47 463 46 442 46 C405 46 381 54 381 66 L381 349 C381 415 332 459 236 459 C135 459 58 404 58 331 C58 313 66 302 79 303 L132.464 303 C133.844 303 137.524 304.524 138.5 305.5 C139.442 306.442 141.076 310.203 141.122 311.533 L142 337 L142 337 Z M301 160.848 L301 91 C301 82.5096 296.831 72.6446 289.417 68.5075 C266.11 55.5025 235 49 201 49 C155 49 124 73 124 108 C124 143.475 164.837 178.269 244.828 205.083 C277.557 216.055 301 195.367 301 160.848 L301 160.848 Z " />
<glyph glyph-name="atilde" unicode="&#xe3;" horiz-adv-x="489" d="M84.9454 560.751 C97.255 596.535 109.7 620 142 620 C183 620 238 555 279 555 C326.775 555 348.883 602.531 372.203 674.422 C373.261 677.682 370.927 680 367.5 680 C364.131 680 360.125 677.294 359.055 674.099 C346.745 637.368 334.3 613 302 613 C261 613 206 678 165 678 C116.25 678 95.0681 631.419 71.7949 560.503 C70.728 557.252 73.0786 555 76.5 555 C79.8586 555 83.8529 557.575 84.9454 560.751 L84.9454 560.751 Z M142 337 C142 381 172 414 211 414 C271 414 302 380 302 329 L302 293.5 C302 275.329 283.115 253.613 265.585 248.828 C121.584 209.528 48 150.975 48 89 C48 30 92 -10 157 -10 C206.875 -10 254.453 5.3125 289.686 35.9375 C294.975 40.535 307.88 37.9905 311.218 31.8283 C325.568 5.335 353.7 -11 390 -11 C428.025 -11 463.198 9.91375 479.763 40.6189 C480.51 42.0044 480.204 44.592 479.5 46 L478 49 C477 47 463 46 442 46 C405 46 381 54 381 66 L381 349 C381 415 332 459 236 459 C135 459 58 404 58 331 C58 313 66 302 79 303 L132.464 303 C133.844 303 137.524 304.524 138.5 305.5 C139.442 306.442 141.076 310.203 141.122 311.533 L142 337 L142 337 Z M301 160.848 L301 91 C301 82.5096 296.831 72.6446 289.417 68.5075 C266.11 55.5025 235 49 201 49 C155 49 124 73 124 108 C124 143.475 164.837 178.269 244.828 205.083 C277.557 216.055 301 195.367 301 160.848 L301 160.848 Z " />
<glyph glyph-name="adieresis" unicode="&#xe4;" horiz-adv-x="489" d="M312 570 C342 570 362 590 362 620 C362 650 342 670 312 670 C282 670 262 650 262 620 C262 590 282 570 312 570 L312 570 Z M132 570 C162 570 182 590 182 620 C182 650 162 670 132 670 C102 670 82 650 82 620 C82 590 102 570 132 570 L132 570 Z M142 337 C142 381 172 414 211 414 C271 414 302 380 302 329 L302 293.5 C302 275.329 283.115 253.613 265.585 248.828 C121.584 209.528 48 150.975 48 89 C48 30 92 -10 157 -10 C206.875 -10 254.453 5.3125 289.686 35.9375 C294.975 40.535 307.88 37.9905 311.218 31.8283 C325.568 5.335 353.7 -11 390 -11 C428.025 -11 463.198 9.91375 479.763 40.6189 C480.51 42.0044 480.204 44.592 479.5 46 L478 49 C477 47 463 46 442 46 C405 46 381 54 381 66 L381 349 C381 415 332 459 236 459 C135 459 58 404 58 331 C58 313 66 302 79 303 L132.464 303 C133.844 303 137.524 304.524 138.5 305.5 C139.442 306.442 141.076 310.203 141.122 311.533 L142 337 L142 337 Z M301 160.848 L301 91 C301 82.5096 296.831 72.6446 289.417 68.5075 C266.11 55.5025 235 49 201 49 C155 49 124 73 124 108 C124 143.475 164.837 178.269 244.828 205.083 C277.557 216.055 301 195.367 301 160.848 L301 160.848 Z " />
<glyph glyph-name="aring" unicode="&#xe5;" horiz-adv-x="489" d="M191 625 C191 656 205 677 225 677 C248 677 263 651 263 611 C263 583 248 559 231 559 C209 559 191 589 191 625 L191 625 Z M142 618 C142 573 181 535 227 535 C273 535 312 574 312 620 C312 669 278 701 227 701 C176 701 142 668 142 618 L142 618 Z M142 337 C142 381 172 414 211 414 C271 414 302 380 302 329 L302 293.5 C302 275.329 283.115 253.613 265.585 248.828 C121.584 209.528 48 150.975 48 89 C48 30 92 -10 157 -10 C206.875 -10 254.453 5.3125 289.686 35.9375 C294.975 40.535 307.88 37.9905 311.218 31.8283 C325.568 5.335 353.7 -11 390 -11 C428.025 -11 463.198 9.91375 479.763 40.6189 C480.51 42.0044 480.204 44.592 479.5 46 L478 49 C477 47 463 46 442 46 C405 46 381 54 381 66 L381 349 C381 415 332 459 236 459 C135 459 58 404 58 331 C58 313 66 302 79 303 L132.464 303 C133.844 303 137.524 304.524 138.5 305.5 C139.442 306.442 141.076 310.203 141.122 311.533 L142 337 L142 337 Z M301 160.848 L301 91 C301 82.5096 296.831 72.6446 289.417 68.5075 C266.11 55.5025 235 49 201 49 C155 49 124 73 124 108 C124 143.475 164.837 178.269 244.828 205.083 C277.557 216.055 301 195.367 301 160.848 L301 160.848 Z " />
<glyph glyph-name="ccedilla" unicode="&#xe7;" horiz-adv-x="477" d="M422.928 101.318 C384.037 78.44 337.25 64 304 64 C199 64 129 138 129 250 C129 350 177 416 250 416 C285 416 322 397 343 368 L370.966 328.848 C371.879 327.569 374.928 326 376.5 326 C377.692 326 381.817 327.424 382.755 328.159 L417 355 C439 375 434 386 417 411 C396 440 342 460 281 460 C142 460 50 358 50 205 C50 83.125 125.099 -0.725 241.004 -9.47562 C244.577 -9.74539 248.583 -13.0578 247.063 -16.3027 C239.363 -32.7402 222.702 -67.9777 201.178 -115.359 C197.543 -123.362 201.479 -131.904 209.5 -135.5 L217.694 -139.173 C218.265 -139.429 229.12 -143.097 229.729 -143.239 C261.593 -150.667 283 -164.833 283 -179 C283 -199 268 -212 245 -212 C217.647 -212 192.63 -207.329 179.565 -199.36 C177.822 -198.297 175 -199.458 175 -201.5 C175 -203.971 176.489 -208.366 178.388 -209.947 C200.385 -228.267 232.4 -240 259 -240 C309 -240 343 -209 343 -163 C343 -132.375 316.203 -104.047 272.658 -87.3945 C262.661 -83.5714 257.611 -71.0101 262.095 -61.2911 C272.999 -37.6557 280.768 -20.7672 284.409 -12.6165 C285.086 -11.0995 288.857 -8.55591 290.494 -8.26897 C347.337 1.69772 400.931 38.4235 430.7 89.9052 C431.703 91.6405 432.375 97.281 432 99.25 C431.495 101.901 425.255 102.687 422.928 101.318 L422.928 101.318 Z " />
<glyph glyph-name="egrave" unicode="&#xe8;" horiz-adv-x="483" d="M255.353 535.385 L187.878 672.662 C179.517 689.672 151.692 707 132.739 707 L114.286 707 C101.834 707 87.7735 718.933 91.0236 706.912 C91.6187 704.711 103.436 661.59 120 646 L241.586 534.064 C243.236 532.545 249.757 530 252 530 C254.972 530 256.664 532.717 255.353 535.385 L255.353 535.385 Z M139.201 326.26 C156.601 381.969 194.675 416 245 416 C294.5 416 331.749 381.969 349.447 326.26 C356.897 302.806 343.222 288 318.614 288 L170.319 288 C145.527 288 131.81 302.595 139.201 326.26 L139.201 326.26 Z M429 105 C389 80 339 64 304 64 C219.85 64 158.161 111.644 137.462 188.963 C128.023 224.222 147.52 242 184.021 242 L393.754 242 C394.076 242 401.887 242.54 402.206 242.584 L416 244.5 C426.465 245.954 434.068 255.322 433.487 265.872 C427.015 383.287 359.85 460 262 460 C135 460 51 358 51 205 C51 76 135 -10 262 -10 C329.275 -10 396.55 29.9262 431.385 90.3147 C432.115 91.5808 434 98.5384 434 100 L434 105 L429 105 L429 105 Z " />
<glyph glyph-name="eacute" unicode="&#xe9;" horiz-adv-x="483" d="M258 530 C260.243 530 266.764 532.545 268.414 534.064 L390 646 C407 662 419 707 419 707 C419 707 405.589 707 395.714 707 L377.261 707 C358.308 707 330.483 689.672 322.122 672.662 L254.647 535.385 C253.336 532.717 255.028 530 258 530 L258 530 Z M139.201 326.26 C156.601 381.969 194.675 416 245 416 C294.5 416 331.749 381.969 349.447 326.26 C356.897 302.806 343.222 288 318.614 288 L170.319 288 C145.527 288 131.81 302.595 139.201 326.26 L139.201 326.26 Z M429 105 C389 80 339 64 304 64 C219.85 64 158.161 111.644 137.462 188.963 C128.023 224.222 147.52 242 184.021 242 L393.754 242 C394.076 242 401.887 242.54 402.206 242.584 L416 244.5 C426.465 245.954 434.068 255.322 433.487 265.872 C427.015 383.287 359.85 460 262 460 C135 460 51 358 51 205 C51 76 135 -10 262 -10 C329.275 -10 396.55 29.9262 431.385 90.3147 C432.115 91.5808 434 98.5384 434 100 L434 105 L429 105 L429 105 Z " />
<glyph glyph-name="ecircumflex" unicode="&#xea;" horiz-adv-x="483" d="M396.37 534.777 L276.076 693.058 C272.088 698.306 258.592 705 252 705 C245.317 705 232.09 698.287 228.145 692.893 L112.542 534.843 C110.964 532.685 112.327 530 115 530 C116.917 530 124.329 532.363 125.892 533.473 L217.091 598.218 C235.167 611.05 269.04 611.348 287.339 598.835 L383.047 533.387 C384.59 532.332 392.131 530 394 530 C396.637 530 397.965 532.678 396.37 534.777 L396.37 534.777 Z M139.201 326.26 C156.601 381.969 194.675 416 245 416 C294.5 416 331.749 381.969 349.447 326.26 C356.897 302.806 343.222 288 318.614 288 L170.319 288 C145.527 288 131.81 302.595 139.201 326.26 L139.201 326.26 Z M429 105 C389 80 339 64 304 64 C219.85 64 158.161 111.644 137.462 188.963 C128.023 224.222 147.52 242 184.021 242 L393.754 242 C394.076 242 401.887 242.54 402.206 242.584 L416 244.5 C426.465 245.954 434.068 255.322 433.487 265.872 C427.015 383.287 359.85 460 262 460 C135 460 51 358 51 205 C51 76 135 -10 262 -10 C329.275 -10 396.55 29.9262 431.385 90.3147 C432.115 91.5808 434 98.5384 434 100 L434 105 L429 105 L429 105 Z " />
<glyph glyph-name="edieresis" unicode="&#xeb;" horiz-adv-x="483" d="M342 570 C372 570 392 590 392 620 C392 650 372 670 342 670 C312 670 292 650 292 620 C292 590 312 570 342 570 L342 570 Z M162 570 C192 570 212 590 212 620 C212 650 192 670 162 670 C132 670 112 650 112 620 C112 590 132 570 162 570 L162 570 Z M139.201 326.26 C156.601 381.969 194.675 416 245 416 C294.5 416 331.749 381.969 349.447 326.26 C356.897 302.806 343.222 288 318.614 288 L170.319 288 C145.527 288 131.81 302.595 139.201 326.26 L139.201 326.26 Z M429 105 C389 80 339 64 304 64 C219.85 64 158.161 111.644 137.462 188.963 C128.023 224.222 147.52 242 184.021 242 L393.754 242 C394.076 242 401.887 242.54 402.206 242.584 L416 244.5 C426.465 245.954 434.068 255.322 433.487 265.872 C427.015 383.287 359.85 460 262 460 C135 460 51 358 51 205 C51 76 135 -10 262 -10 C329.275 -10 396.55 29.9262 431.385 90.3147 C432.115 91.5808 434 98.5384 434 100 L434 105 L429 105 L429 105 Z " />
<glyph glyph-name="igrave" unicode="&#xec;" horiz-adv-x="317" d="M157.353 535.385 L89.8778 672.662 C81.5171 689.672 53.6919 707 34.7386 707 L16.2863 707 C3.83397 707 -10.2265 718.933 -6.97645 706.912 C-6.38133 704.711 5.4359 661.59 22 646 L143.586 534.064 C145.236 532.545 151.757 530 154 530 C156.972 530 158.664 532.717 157.353 535.385 L157.353 535.385 Z M56.2691 401.038 L91 371 C108 357 119 347 119 347 C119 347 119 348.842 119 339.567 L119 86.225 C119 68.286 102.594 41.9234 86.5 34 L62.0745 21.9752 C58.0759 20.0066 54 13.4569 54 9 C54 4.03227 58.0323 0 63 0 L255 0 C259.968 0 264 4.03227 264 9 C264 13.4569 259.924 20.0066 255.925 21.9752 L231.5 34 C215.406 41.9234 199 68.286 199 86.225 L199 452 C199 456.416 195.416 460 191 460 C189.377 460 177.07 457.656 175.56 457.059 L56.7899 410.103 C55.3578 409.537 54 407.54 54 406 C54 404.748 55.3218 401.857 56.2691 401.038 L56.2691 401.038 Z " />
<glyph glyph-name="iacute" unicode="&#xed;" horiz-adv-x="317" d="M160 530 C162.243 530 168.764 532.545 170.414 534.064 L292 646 C309 662 321 707 321 707 C321 707 307.589 707 297.714 707 L279.261 707 C260.308 707 232.483 689.672 224.122 672.662 L156.647 535.385 C155.336 532.717 157.028 530 160 530 L160 530 Z M56.2691 401.038 L91 371 C108 357 119 347 119 347 C119 347 119 348.842 119 339.567 L119 86.225 C119 68.286 102.594 41.9234 86.5 34 L62.0745 21.9752 C58.0759 20.0066 54 13.4569 54 9 C54 4.03227 58.0323 0 63 0 L255 0 C259.968 0 264 4.03227 264 9 C264 13.4569 259.924 20.0066 255.925 21.9752 L231.5 34 C215.406 41.9234 199 68.286 199 86.225 L199 452 C199 456.416 195.416 460 191 460 C189.377 460 177.07 457.656 175.56 457.059 L56.7899 410.103 C55.3578 409.537 54 407.54 54 406 C54 404.748 55.3218 401.857 56.2691 401.038 L56.2691 401.038 Z " />
<glyph glyph-name="icircumflex" unicode="&#xee;" horiz-adv-x="317" d="M298.37 534.777 L178.076 693.058 C174.088 698.306 160.592 705 154 705 C147.317 705 134.09 698.287 130.145 692.893 L14.5422 534.843 C12.9641 532.685 14.3269 530 17 530 C18.9171 530 26.3292 532.363 27.8925 533.473 L119.091 598.218 C137.167 611.05 171.04 611.348 189.339 598.835 L285.047 533.387 C286.59 532.332 294.131 530 296 530 C298.637 530 299.965 532.678 298.37 534.777 L298.37 534.777 Z M56.2691 401.038 L91 371 C108 357 119 347 119 347 C119 347 119 348.842 119 339.567 L119 86.225 C119 68.286 102.594 41.9234 86.5 34 L62.0745 21.9752 C58.0759 20.0066 54 13.4569 54 9 C54 4.03227 58.0323 0 63 0 L255 0 C259.968 0 264 4.03227 264 9 C264 13.4569 259.924 20.0066 255.925 21.9752 L231.5 34 C215.406 41.9234 199 68.286 199 86.225 L199 452 C199 456.416 195.416 460 191 460 C189.377 460 177.07 457.656 175.56 457.059 L56.7899 410.103 C55.3578 409.537 54 407.54 54 406 C54 404.748 55.3218 401.857 56.2691 401.038 L56.2691 401.038 Z " />
<glyph glyph-name="idieresis" unicode="&#xef;" horiz-adv-x="317" d="M244 570 C274 570 294 590 294 620 C294 650 274 670 244 670 C214 670 194 650 194 620 C194 590 214 570 244 570 L244 570 Z M64 570 C94 570 114 590 114 620 C114 650 94 670 64 670 C34 670 14 650 14 620 C14 590 34 570 64 570 L64 570 Z M56.2691 401.038 L91 371 C108 357 119 347 119 347 C119 347 119 348.842 119 339.567 L119 86.225 C119 68.286 102.594 41.9234 86.5 34 L62.0745 21.9752 C58.0759 20.0066 54 13.4569 54 9 C54 4.03227 58.0323 0 63 0 L255 0 C259.968 0 264 4.03227 264 9 C264 13.4569 259.924 20.0066 255.925 21.9752 L231.5 34 C215.406 41.9234 199 68.286 199 86.225 L199 452 C199 456.416 195.416 460 191 460 C189.377 460 177.07 457.656 175.56 457.059 L56.7899 410.103 C55.3578 409.537 54 407.54 54 406 C54 404.748 55.3218 401.857 56.2691 401.038 L56.2691 401.038 Z " />
<glyph glyph-name="ntilde" unicode="&#xf1;" horiz-adv-x="590" d="M162.945 560.751 C175.255 596.535 187.7 620 220 620 C261 620 316 555 357 555 C404.775 555 426.883 602.531 450.203 674.422 C451.261 677.682 448.927 680 445.5 680 C442.131 680 438.125 677.294 437.055 674.099 C424.745 637.368 412.3 613 380 613 C339 613 284 678 243 678 C194.25 678 173.068 631.419 149.795 560.503 C148.728 557.252 151.079 555 154.5 555 C157.859 555 161.853 557.575 162.945 560.751 L162.945 560.751 Z M52.6741 400.687 L87 371 C104 357 115 347 115 347 C115 347 115 348.842 115 339.567 L115 86.225 C115 68.286 98.5944 41.9234 82.5 34 L58.0745 21.9752 C54.0759 20.0066 50 13.4569 50 9 C50 4.03227 54.0323 0 59 0 L256 0 C260.968 0 265 4.03227 265 9 C265 13.518 260.924 19.8634 256.815 21.7418 L230 34 C212.43 42.032 195 69.1648 195 88.4838 L195 333.672 C195 342.898 201.533 357.308 208.989 362.741 C232.39 379.791 262.75 390 304 390 C365 390 405 353 405 297 L405 88.4838 C405 69.1648 387.57 42.032 370 34 L343.185 21.7418 C339.076 19.8634 335 13.518 335 9 C335 4.03227 339.032 0 344 0 L541 0 C545.968 0 550 4.03227 550 9 C550 13.4569 545.924 20.0066 541.925 21.9752 L517.5 34 C501.406 41.9234 485 68.286 485 86.225 L485 343 C485 413 430 460 348 460 C295.275 460 247.684 434.759 203.643 393.775 C198.873 389.335 192.721 392.425 192.493 398.937 C191.445 428.849 190 461 190 461 C190 461 186.619 461 182 461 C180.332 461 168.137 458.608 166.593 457.978 L52.2736 411.336 C50.5208 410.62 49.2323 408.374 49.5 406.5 C49.6811 405.232 51.7055 401.525 52.6741 400.687 L52.6741 400.687 Z " />
<glyph glyph-name="ograve" unicode="&#xf2;" horiz-adv-x="538" d="M272.353 535.385 L204.878 672.662 C196.517 689.672 168.692 707 149.739 707 L131.286 707 C118.834 707 104.773 718.933 108.024 706.912 C108.619 704.711 120.436 661.59 137 646 L258.586 534.064 C260.236 532.545 266.757 530 269 530 C271.972 530 273.664 532.717 272.353 535.385 L272.353 535.385 Z M142 225 C142 341 180 418 255 418 C340 418 396 341 396 225 C396 109 358 32 283 32 C198 32 142 109 142 225 L142 225 Z M50 225 C50 84 138 -10 269 -10 C414 -10 488 84 488 225 C488 366 400 460 269 460 C124 460 50 366 50 225 L50 225 Z " />
<glyph glyph-name="oacute" unicode="&#xf3;" horiz-adv-x="538" d="M275 530 C277.243 530 283.764 532.545 285.414 534.064 L407 646 C424 662 436 707 436 707 C436 707 422.589 707 412.714 707 L394.261 707 C375.308 707 347.483 689.672 339.122 672.662 L271.647 535.385 C270.336 532.717 272.028 530 275 530 L275 530 Z M142 225 C142 341 180 418 255 418 C340 418 396 341 396 225 C396 109 358 32 283 32 C198 32 142 109 142 225 L142 225 Z M50 225 C50 84 138 -10 269 -10 C414 -10 488 84 488 225 C488 366 400 460 269 460 C124 460 50 366 50 225 L50 225 Z " />
<glyph glyph-name="ocircumflex" unicode="&#xf4;" horiz-adv-x="538" d="M413.37 534.777 L293.076 693.058 C289.088 698.306 275.592 705 269 705 C262.317 705 249.09 698.287 245.145 692.893 L129.542 534.843 C127.964 532.685 129.327 530 132 530 C133.917 530 141.329 532.363 142.892 533.473 L234.091 598.218 C252.167 611.05 286.04 611.348 304.339 598.835 L400.047 533.387 C401.59 532.332 409.131 530 411 530 C413.637 530 414.965 532.678 413.37 534.777 L413.37 534.777 Z M142 225 C142 341 180 418 255 418 C340 418 396 341 396 225 C396 109 358 32 283 32 C198 32 142 109 142 225 L142 225 Z M50 225 C50 84 138 -10 269 -10 C414 -10 488 84 488 225 C488 366 400 460 269 460 C124 460 50 366 50 225 L50 225 Z " />
<glyph glyph-name="otilde" unicode="&#xf5;" horiz-adv-x="538" d="M131.945 560.751 C144.255 596.535 156.7 620 189 620 C230 620 285 555 326 555 C373.775 555 395.883 602.531 419.203 674.422 C420.261 677.682 417.927 680 414.5 680 C411.131 680 407.125 677.294 406.055 674.099 C393.745 637.368 381.3 613 349 613 C308 613 253 678 212 678 C163.25 678 142.068 631.419 118.795 560.503 C117.728 557.252 120.079 555 123.5 555 C126.859 555 130.853 557.575 131.945 560.751 L131.945 560.751 Z M142 225 C142 341 180 418 255 418 C340 418 396 341 396 225 C396 109 358 32 283 32 C198 32 142 109 142 225 L142 225 Z M50 225 C50 84 138 -10 269 -10 C414 -10 488 84 488 225 C488 366 400 460 269 460 C124 460 50 366 50 225 L50 225 Z " />
<glyph glyph-name="odieresis" unicode="&#xf6;" horiz-adv-x="538" d="M359 570 C389 570 409 590 409 620 C409 650 389 670 359 670 C329 670 309 650 309 620 C309 590 329 570 359 570 L359 570 Z M179 570 C209 570 229 590 229 620 C229 650 209 670 179 670 C149 670 129 650 129 620 C129 590 149 570 179 570 L179 570 Z M142 225 C142 341 180 418 255 418 C340 418 396 341 396 225 C396 109 358 32 283 32 C198 32 142 109 142 225 L142 225 Z M50 225 C50 84 138 -10 269 -10 C414 -10 488 84 488 225 C488 366 400 460 269 460 C124 460 50 366 50 225 L50 225 Z " />
<glyph glyph-name="oslash" unicode="&#xf8;" horiz-adv-x="538" d="M50 225 C50 169.725 63.6125 121.256 88.0299 82.9628 C94.5644 72.7149 95.8564 48.3627 88.3474 38.8058 L70.3881 15.9485 C61.5392 4.68623 68.6772 -10 83 -10 L93.1965 -10 C103.132 -10 123.9 0.157423 130 8 L131.399 9.79904 C137.537 17.6907 153.734 19.5298 162.574 14.8598 C192.884 -1.15188 228.4 -10 268 -10 C413 -10 487 84 487 225 C487 280.275 473.387 328.744 448.97 367.037 C442.436 377.285 441.144 401.637 448.653 411.194 L466.612 434.051 C475.461 445.314 468.323 460 454 460 L443.804 460 C433.868 460 413.1 449.843 407 442 L405.601 440.201 C399.463 432.309 383.266 430.47 374.426 435.14 C344.116 451.152 308.6 460 269 460 C124 460 50 366 50 225 L50 225 Z M340.075 356.94 L167.338 138.792 C162.698 132.933 154.904 135.016 152.69 142.154 C145.084 166.672 141 194.475 141 225 C141 341 179 418 254 418 C287 418 315.576 406.77 338.043 385.994 C347.076 377.641 347.713 366.585 340.075 356.94 L340.075 356.94 Z M384.31 306.846 C391.916 282.327 396 254.525 396 224 C396 108 358 31 283 31 C250 31 221.764 42.5706 199.416 63.4658 C190.483 71.818 190.33 83.4744 197.917 93.066 L369.669 310.203 C374.304 316.063 382.097 313.982 384.31 306.846 L384.31 306.846 Z " />
<glyph glyph-name="ugrave" unicode="&#xf9;" horiz-adv-x="552" d="M274.353 535.385 L206.878 672.662 C198.517 689.672 170.692 707 151.739 707 L133.286 707 C120.834 707 106.773 718.933 110.024 706.912 C110.619 704.711 122.436 661.59 139 646 L260.586 534.064 C262.236 532.545 268.757 530 271 530 C273.972 530 275.664 532.717 274.353 535.385 L274.353 535.385 Z M381 361.97 L381 120.526 C381 109.72 373.545 94.7142 364.385 88.9829 C337 71.8481 304 63 271 63 C211 63 171 100 171 155 L171 388.56 C171 422.473 143.473 450 109.56 450 L35 450 C30.0323 450 26 445.968 26 441 C26 436.543 30.0759 429.993 34.0745 428.025 L58.5 416 C74.5944 408.077 91 381.714 91 363.775 L91 107 C91 37 145 -10 225 -10 C263.25 -10 310.17 8.785 357.162 46.355 C367.419 54.5549 382 47.1313 382 34 C382 15.233 397.233 0 416 0 L523 0 C527.968 0 532 4.03227 532 9 C532 13.518 527.924 19.8634 523.815 21.7418 L497 34 C479.43 42.032 462 69.1648 462 88.4838 L462 388.56 C462 422.473 434.473 450 400.56 450 L321 450 C316.032 450 312 445.968 312 441 C312 436.493 316.076 430.11 320.165 428.213 L346.5 416 C363.776 407.988 381 381.013 381 361.97 L381 361.97 Z " />
<glyph glyph-name="uacute" unicode="&#xfa;" horiz-adv-x="552" d="M277 530 C279.243 530 285.764 532.545 287.414 534.064 L409 646 C426 662 438 707 438 707 C438 707 424.589 707 414.714 707 L396.261 707 C377.308 707 349.483 689.672 341.122 672.662 L273.647 535.385 C272.336 532.717 274.028 530 277 530 L277 530 Z M381 361.97 L381 120.526 C381 109.72 373.545 94.7142 364.385 88.9829 C337 71.8481 304 63 271 63 C211 63 171 100 171 155 L171 388.56 C171 422.473 143.473 450 109.56 450 L35 450 C30.0323 450 26 445.968 26 441 C26 436.543 30.0759 429.993 34.0745 428.025 L58.5 416 C74.5944 408.077 91 381.714 91 363.775 L91 107 C91 37 145 -10 225 -10 C263.25 -10 310.17 8.785 357.162 46.355 C367.419 54.5549 382 47.1313 382 34 C382 15.233 397.233 0 416 0 L523 0 C527.968 0 532 4.03227 532 9 C532 13.518 527.924 19.8634 523.815 21.7418 L497 34 C479.43 42.032 462 69.1648 462 88.4838 L462 388.56 C462 422.473 434.473 450 400.56 450 L321 450 C316.032 450 312 445.968 312 441 C312 436.493 316.076 430.11 320.165 428.213 L346.5 416 C363.776 407.988 381 381.013 381 361.97 L381 361.97 Z " />
<glyph glyph-name="ucircumflex" unicode="&#xfb;" horiz-adv-x="552" d="M415.37 534.777 L295.076 693.058 C291.088 698.306 277.592 705 271 705 C264.317 705 251.09 698.287 247.145 692.893 L131.542 534.843 C129.964 532.685 131.327 530 134 530 C135.917 530 143.329 532.363 144.892 533.473 L236.091 598.218 C254.167 611.05 288.04 611.348 306.339 598.835 L402.047 533.387 C403.59 532.332 411.131 530 413 530 C415.637 530 416.965 532.678 415.37 534.777 L415.37 534.777 Z M381 361.97 L381 120.526 C381 109.72 373.545 94.7142 364.385 88.9829 C337 71.8481 304 63 271 63 C211 63 171 100 171 155 L171 388.56 C171 422.473 143.473 450 109.56 450 L35 450 C30.0323 450 26 445.968 26 441 C26 436.543 30.0759 429.993 34.0745 428.025 L58.5 416 C74.5944 408.077 91 381.714 91 363.775 L91 107 C91 37 145 -10 225 -10 C263.25 -10 310.17 8.785 357.162 46.355 C367.419 54.5549 382 47.1313 382 34 C382 15.233 397.233 0 416 0 L523 0 C527.968 0 532 4.03227 532 9 C532 13.518 527.924 19.8634 523.815 21.7418 L497 34 C479.43 42.032 462 69.1648 462 88.4838 L462 388.56 C462 422.473 434.473 450 400.56 450 L321 450 C316.032 450 312 445.968 312 441 C312 436.493 316.076 430.11 320.165 428.213 L346.5 416 C363.776 407.988 381 381.013 381 361.97 L381 361.97 Z " />
<glyph glyph-name="udieresis" unicode="&#xfc;" horiz-adv-x="552" d="M361 570 C391 570 411 590 411 620 C411 650 391 670 361 670 C331 670 311 650 311 620 C311 590 331 570 361 570 L361 570 Z M181 570 C211 570 231 590 231 620 C231 650 211 670 181 670 C151 670 131 650 131 620 C131 590 151 570 181 570 L181 570 Z M381 361.97 L381 120.526 C381 109.72 373.545 94.7142 364.385 88.9829 C337 71.8481 304 63 271 63 C211 63 171 100 171 155 L171 388.56 C171 422.473 143.473 450 109.56 450 L35 450 C30.0323 450 26 445.968 26 441 C26 436.543 30.0759 429.993 34.0745 428.025 L58.5 416 C74.5944 408.077 91 381.714 91 363.775 L91 107 C91 37 145 -10 225 -10 C263.25 -10 310.17 8.785 357.162 46.355 C367.419 54.5549 382 47.1313 382 34 C382 15.233 397.233 0 416 0 L523 0 C527.968 0 532 4.03227 532 9 C532 13.518 527.924 19.8634 523.815 21.7418 L497 34 C479.43 42.032 462 69.1648 462 88.4838 L462 388.56 C462 422.473 434.473 450 400.56 450 L321 450 C316.032 450 312 445.968 312 441 C312 436.493 316.076 430.11 320.165 428.213 L346.5 416 C363.776 407.988 381 381.013 381 361.97 L381 361.97 Z " />
<glyph glyph-name="yacute" unicode="&#xfd;" horiz-adv-x="478" d="M272 530 C274.243 530 280.764 532.545 282.414 534.064 L404 646 C421 662 433 707 433 707 C433 707 419.589 707 409.714 707 L391.261 707 C372.308 707 344.483 689.672 336.122 672.662 L268.647 535.385 C267.336 532.717 269.028 530 272 530 L272 530 Z M210.986 450 L-16 450 C-20.9677 450 -25 445.968 -25 441 C-25 436.482 -20.9238 430.137 -16.8147 428.258 L24.432 409.402 C31.7925 406.038 51.1412 386.84 54.5636 379.506 L215.575 34.4828 C220.222 24.5236 220.878 -4.81181 216.68 -14.9687 L196 -65 C171 -131 143 -156 96 -156 L53.8284 -156 C52.7245 -156 49.7806 -157.219 49 -158 C48.2194 -158.781 47 -161.724 47 -162.828 L47 -211 C47 -232 57 -240 81 -240 C146 -240 188 -195 233 -80 L419.104 373.331 C422.373 381.294 441.323 401.482 449.063 405.247 L493.457 426.844 C497.697 428.907 502 435.785 502 440.5 C502 445.744 497.744 450 492.5 450 L316.5 450 C311.256 450 307 445.744 307 440.5 C307 435.75 311.303 428.988 315.606 426.976 L345.5 413 C366.725 403.077 376.789 377.346 367.93 355.655 L320.901 240.515 C299.4 187.877 232.641 186.138 208.43 237.586 L151.735 358.062 C140.884 381.122 151.581 407.202 175.5 416 L210.54 428.888 C214.827 430.465 219.247 436.44 219.5 441 C219.776 445.96 215.954 450 210.986 450 L210.986 450 Z " />
<glyph glyph-name="ydieresis" unicode="&#xff;" horiz-adv-x="478" d="M356 570 C386 570 406 590 406 620 C406 650 386 670 356 670 C326 670 306 650 306 620 C306 590 326 570 356 570 L356 570 Z M176 570 C206 570 226 590 226 620 C226 650 206 670 176 670 C146 670 126 650 126 620 C126 590 146 570 176 570 L176 570 Z M210.986 450 L-16 450 C-20.9677 450 -25 445.968 -25 441 C-25 436.482 -20.9238 430.137 -16.8147 428.258 L24.432 409.402 C31.7925 406.038 51.1412 386.84 54.5636 379.506 L215.575 34.4828 C220.222 24.5236 220.878 -4.81181 216.68 -14.9687 L196 -65 C171 -131 143 -156 96 -156 L53.8284 -156 C52.7245 -156 49.7806 -157.219 49 -158 C48.2194 -158.781 47 -161.724 47 -162.828 L47 -211 C47 -232 57 -240 81 -240 C146 -240 188 -195 233 -80 L419.104 373.331 C422.373 381.294 441.323 401.482 449.063 405.247 L493.457 426.844 C497.697 428.907 502 435.785 502 440.5 C502 445.744 497.744 450 492.5 450 L316.5 450 C311.256 450 307 445.744 307 440.5 C307 435.75 311.303 428.988 315.606 426.976 L345.5 413 C366.725 403.077 376.789 377.346 367.93 355.655 L320.901 240.515 C299.4 187.877 232.641 186.138 208.43 237.586 L151.735 358.062 C140.884 381.122 151.581 407.202 175.5 416 L210.54 428.888 C214.827 430.465 219.247 436.44 219.5 441 C219.776 445.96 215.954 450 210.986 450 L210.986 450 Z " />
<glyph glyph-name="Amacron" unicode="&#x100;" horiz-adv-x="748" d="M262 765 L478 765 C491.799 765 503 776.201 503 790 C503 803.799 491.799 815 478 815 L262 815 C248.201 815 237 803.799 237 790 C237 776.201 248.201 765 262 765 L262 765 Z M234.624 21.3297 L181.915 42.2823 C171.226 46.5312 165.654 58.2048 169.756 68.9506 C184.419 107.36 204.5 160.4 230 225 L230 220 L442.72 220.419 C463.815 220.46 491.666 201.828 499.678 182.313 L536.218 93.3107 C546.025 69.4244 534.266 42.8242 510 34 L474.458 21.0757 C470.071 19.4802 466 13.6686 466 9 C466 4.03227 470.032 0 475 0 L705 0 C709.416 0 713 3.58424 713 8 C713 12.0274 709.377 17.629 705.704 19.2806 L670.45 35.1309 C662.167 38.8553 641.841 60.7168 638.312 69.0857 C568.414 234.875 401 641 401 641 L396 653 C393.452 659.114 384.624 665 378 665 L369 665 C357.797 665 342.835 655.039 338.512 644.703 L324 610 C221.325 361.175 142.607 169.677 102.885 71.9125 C99.0541 62.4835 79.4803 44.0432 70.0644 40.1803 L24.3265 21.416 C20.0745 19.6716 16 13.596 16 9 C16 4.03227 20.0323 0 25 0 L232.986 0 C237.954 0 242.224 4.03992 242.5 9 C242.762 13.7111 239.008 19.5868 234.624 21.3297 L234.624 21.3297 Z M369.351 274 L288.853 274 C267.879 274 254.137 289.554 261.837 309.064 C283.1 362.936 306.641 422.457 332.459 486.398 C340.141 505.423 365.31 507.022 373.104 488.043 L426.186 358.779 C443.962 315.491 416.147 274 369.351 274 L369.351 274 Z " />
<glyph glyph-name="amacron" unicode="&#x101;" horiz-adv-x="489" d="M119 595 L335 595 C348.799 595 360 606.201 360 620 C360 633.799 348.799 645 335 645 L119 645 C105.201 645 94 633.799 94 620 C94 606.201 105.201 595 119 595 L119 595 Z M142 337 C142 381 172 414 211 414 C271 414 302 380 302 329 L302 293.5 C302 275.329 283.115 253.613 265.585 248.828 C121.584 209.528 48 150.975 48 89 C48 30 92 -10 157 -10 C206.875 -10 254.453 5.3125 289.686 35.9375 C294.975 40.535 307.88 37.9905 311.218 31.8283 C325.568 5.335 353.7 -11 390 -11 C428.025 -11 463.198 9.91375 479.763 40.6189 C480.51 42.0044 480.204 44.592 479.5 46 L478 49 C477 47 463 46 442 46 C405 46 381 54 381 66 L381 349 C381 415 332 459 236 459 C135 459 58 404 58 331 C58 313 66 302 79 303 L132.464 303 C133.844 303 137.524 304.524 138.5 305.5 C139.442 306.442 141.076 310.203 141.122 311.533 L142 337 L142 337 Z M301 160.848 L301 91 C301 82.5096 296.831 72.6446 289.417 68.5075 C266.11 55.5025 235 49 201 49 C155 49 124 73 124 108 C124 143.475 164.837 178.269 244.828 205.083 C277.557 216.055 301 195.367 301 160.848 L301 160.848 Z " />
<glyph glyph-name="Abreve" unicode="&#x102;" horiz-adv-x="748" d="M228 864 C224.337 864 222.648 859.454 223.931 856.023 C262.116 753.926 303.7 714 370 714 C436.3 714 477.884 753.926 516.069 856.023 C517.352 859.454 515.663 864 512 864 C508.47 864 504.509 862.569 503.247 859.273 C480.077 798.766 442.15 775 370 775 C297.85 775 259.923 798.29 236.753 859.701 C235.505 863.009 231.536 864 228 864 L228 864 Z M234.624 21.3297 L181.915 42.2823 C171.226 46.5312 165.654 58.2048 169.756 68.9506 C184.419 107.36 204.5 160.4 230 225 L230 220 L442.72 220.419 C463.815 220.46 491.666 201.828 499.678 182.313 L536.218 93.3107 C546.025 69.4244 534.266 42.8242 510 34 L474.458 21.0757 C470.071 19.4802 466 13.6686 466 9 C466 4.03227 470.032 0 475 0 L705 0 C709.416 0 713 3.58424 713 8 C713 12.0274 709.377 17.629 705.704 19.2806 L670.45 35.1309 C662.167 38.8553 641.841 60.7168 638.312 69.0857 C568.414 234.875 401 641 401 641 L396 653 C393.452 659.114 384.624 665 378 665 L369 665 C357.797 665 342.835 655.039 338.512 644.703 L324 610 C221.325 361.175 142.607 169.677 102.885 71.9125 C99.0541 62.4835 79.4803 44.0432 70.0644 40.1803 L24.3265 21.416 C20.0745 19.6716 16 13.596 16 9 C16 4.03227 20.0323 0 25 0 L232.986 0 C237.954 0 242.224 4.03992 242.5 9 C242.762 13.7111 239.008 19.5868 234.624 21.3297 L234.624 21.3297 Z M369.351 274 L288.853 274 C267.879 274 254.137 289.554 261.837 309.064 C283.1 362.936 306.641 422.457 332.459 486.398 C340.141 505.423 365.31 507.022 373.104 488.043 L426.186 358.779 C443.962 315.491 416.147 274 369.351 274 L369.351 274 Z " />
<glyph glyph-name="abreve" unicode="&#x103;" horiz-adv-x="489" d="M85 707 C81.2976 707 79.75 701.645 80.931 698.136 C119.116 584.679 160.7 540 227 540 C293.3 540 334.884 584.679 373.069 698.136 C374.25 701.645 372.702 707 369 707 C365.414 707 361.402 705.077 360.247 701.682 C337.077 633.618 299.15 607 227 607 C154.85 607 116.923 633.618 93.7535 701.682 C92.598 705.077 88.5856 707 85 707 L85 707 Z M142 337 C142 381 172 414 211 414 C271 414 302 380 302 329 L302 293.5 C302 275.329 283.115 253.613 265.585 248.828 C121.584 209.528 48 150.975 48 89 C48 30 92 -10 157 -10 C206.875 -10 254.453 5.3125 289.686 35.9375 C294.975 40.535 307.88 37.9905 311.218 31.8283 C325.568 5.335 353.7 -11 390 -11 C428.025 -11 463.198 9.91375 479.763 40.6189 C480.51 42.0044 480.204 44.592 479.5 46 L478 49 C477 47 463 46 442 46 C405 46 381 54 381 66 L381 349 C381 415 332 459 236 459 C135 459 58 404 58 331 C58 313 66 302 79 303 L132.464 303 C133.844 303 137.524 304.524 138.5 305.5 C139.442 306.442 141.076 310.203 141.122 311.533 L142 337 L142 337 Z M301 160.848 L301 91 C301 82.5096 296.831 72.6446 289.417 68.5075 C266.11 55.5025 235 49 201 49 C155 49 124 73 124 108 C124 143.475 164.837 178.269 244.828 205.083 C277.557 216.055 301 195.367 301 160.848 L301 160.848 Z " />
<glyph glyph-name="Cacute" unicode="&#x106;" horiz-adv-x="717" d="M375 705 C377.108 705 384.001 707.477 385.627 708.819 L507 809 C524 824 536 865 536 865 C536 865 523.474 865 514.64 865 L492.473 865 C474.799 865 446.998 848.496 438.535 832.981 L371.873 710.767 C370.481 708.215 372.093 705 375 705 L375 705 Z M628.451 64.4783 L635.829 194.005 C635.92 195.589 635.072 196.988 633.487 197.055 C628.571 197.265 624.286 198 620 198 C603.436 165.846 582.125 124.199 565.317 91.5578 C564.946 90.8363 560.194 84.4334 559.675 83.8099 L559 83 C557.759 81.5109 548.774 74.4418 547.02 73.6181 C502.317 52.635 448.5 40 401 40 C258 40 163 160 163 341 C163 508 263 620 414 620 C455 620 500 608 536 589 C542 586 547 581 549 576 C567 539 590 488 608 451 C612.286 451 617.306 451.735 622.431 451.945 C624.02 452.01 624.943 453.409 624.879 454.998 L618.875 603.379 C618.331 616.819 611.91 630.566 600.042 636.898 C560.497 657.995 490.5 671 414 671 C208 671 70 527 70 311 C70 119 202 -9 401 -9 C480.9 -9 557.91 5.08875 605.008 27.125 C618.717 33.5389 627.591 49.3679 628.451 64.4783 L628.451 64.4783 Z " />
<glyph glyph-name="cacute" unicode="&#x107;" horiz-adv-x="477" d="M265 530 C267.243 530 273.764 532.545 275.414 534.064 L397 646 C414 662 426 707 426 707 C426 707 412.589 707 402.714 707 L384.261 707 C365.308 707 337.483 689.672 329.122 672.662 L261.647 535.385 C260.336 532.717 262.028 530 265 530 L265 530 Z M425.982 103.142 C386.509 79.21 338.125 64 304 64 C199 64 129 138 129 250 C129 350 177 416 250 416 C285 416 322 397 343 368 L370.966 328.848 C371.879 327.569 374.928 326 376.5 326 C377.692 326 381.817 327.424 382.755 328.159 L417 355 C439 375 434 386 417 411 C396 440 342 460 281 460 C142 460 50 358 50 205 C50 76 134 -10 261 -10 C328.275 -10 395.55 29.9262 430.385 90.3147 C431.354 91.9952 432.38 98.0977 432 100 C431.488 102.558 428.212 104.494 425.982 103.142 L425.982 103.142 Z " />
<glyph glyph-name="Ccaron" unicode="&#x10c;" horiz-adv-x="717" d="M537 867 L536 867 L537 868 L537 867 L537 867 Z M389 710.5 C395.108 710.5 408.922 716.905 412.869 721.566 L532.446 862.802 C533.943 864.571 532.817 867 530.5 867 C528.919 867 521.655 864.959 520.305 864.135 L421.614 803.904 C405.468 794.05 372.703 794.326 356.725 804.449 L263.068 863.789 C261.571 864.737 253.773 867 252 867 C249.433 867 248.169 864.339 249.791 862.35 L364.838 721.238 C368.757 716.43 382.797 710.5 389 710.5 L389 710.5 Z M628.451 64.4783 L635.829 194.005 C635.92 195.589 635.072 196.988 633.487 197.055 C628.571 197.265 624.286 198 620 198 C603.436 165.846 582.125 124.199 565.317 91.5578 C564.946 90.8363 560.194 84.4334 559.675 83.8099 L559 83 C557.759 81.5109 548.774 74.4418 547.02 73.6181 C502.317 52.635 448.5 40 401 40 C258 40 163 160 163 341 C163 508 263 620 414 620 C455 620 500 608 536 589 C542 586 547 581 549 576 C567 539 590 488 608 451 C612.286 451 617.306 451.735 622.431 451.945 C624.02 452.01 624.943 453.409 624.879 454.998 L618.875 603.379 C618.331 616.819 611.91 630.566 600.042 636.898 C560.497 657.995 490.5 671 414 671 C208 671 70 527 70 311 C70 119 202 -9 401 -9 C480.9 -9 557.91 5.08875 605.008 27.125 C618.717 33.5389 627.591 49.3679 628.451 64.4783 L628.451 64.4783 Z " />
<glyph glyph-name="ccaron" unicode="&#x10d;" horiz-adv-x="477" d="M283.076 546.942 L403.37 705.223 C404.965 707.322 403.637 710 401 710 C399.131 710 391.59 707.668 390.047 706.613 L294.339 641.165 C276.04 628.652 242.167 628.95 224.091 641.782 L132.892 706.527 C131.329 707.637 123.917 710 122 710 C119.327 710 117.964 707.315 119.542 705.157 L235.145 547.107 C239.09 541.713 252.317 535 259 535 C265.592 535 279.088 541.694 283.076 546.942 L283.076 546.942 Z M425.982 103.142 C386.509 79.21 338.125 64 304 64 C199 64 129 138 129 250 C129 350 177 416 250 416 C285 416 322 397 343 368 L370.966 328.848 C371.879 327.569 374.928 326 376.5 326 C377.692 326 381.817 327.424 382.755 328.159 L417 355 C439 375 434 386 417 411 C396 440 342 460 281 460 C142 460 50 358 50 205 C50 76 134 -10 261 -10 C328.275 -10 395.55 29.9262 430.385 90.3147 C431.354 91.9952 432.38 98.0977 432 100 C431.488 102.558 428.212 104.494 425.982 103.142 L425.982 103.142 Z " />
<glyph glyph-name="Dcaron" unicode="&#x10e;" horiz-adv-x="775" d="M583 867 L582 867 L583 868 L583 867 L583 867 Z M435 710.5 C441.108 710.5 454.922 716.905 458.869 721.566 L578.446 862.802 C579.943 864.571 578.817 867 576.5 867 C574.919 867 567.655 864.959 566.305 864.135 L467.614 803.904 C451.468 794.05 418.703 794.326 402.725 804.449 L309.068 863.789 C307.571 864.737 299.773 867 298 867 C295.433 867 294.169 864.339 295.791 862.35 L410.838 721.238 C414.757 716.43 428.797 710.5 435 710.5 L435 710.5 Z M356 0 C565 7 705 130 705 360 C705 558 559 660 340 660 L74.5 660 C69.2563 660 65 655.744 65 650.5 C65 645.718 69.3026 639.064 73.6633 637.102 L108.773 621.302 C127.008 613.096 145 585.27 145 565.274 L145 94.7262 C145 74.7299 127.008 46.9035 108.773 38.6978 L73.6633 22.8985 C69.3026 20.9362 65 14.2819 65 9.5 C65 4.25628 69.2563 0 74.5 0 L356 0 L356 0 Z M235 114.5 L235 587 C235 596.929 241.692 604.997 251.622 605.003 C283.465 605.023 315.85 605.15 315 606 C493 606 612 510 612 325 C612 153 509 60 354 55 L294.5 55 C261.658 55 235 81.6578 235 114.5 L235 114.5 Z " />
<glyph glyph-name="dcaron" unicode="&#x10f;" horiz-adv-x="574" d="M627 750 L589.5 750 C568.97 750 549.84 733.169 547.226 712.805 L528.764 568.951 C528.346 565.693 530.715 563 534 563 C536.944 563 541.399 565.717 542.748 568.334 L637.596 752.45 C637.623 752.503 637.484 752.494 637.455 752.442 C634.107 746.491 634.647 750 627 750 L627 750 Z M526 9 C526 13.518 521.924 19.8634 517.815 21.7418 L491 34 C473.43 42.032 456 69.1648 456 88.4838 L456 746 C456 750.416 452.416 754 448 754 C446.722 754 433.566 752.055 432.342 751.685 L311 715 L311 710 L355 675 C368 665 376 658 376 658 C376 658 376 659.15 376 652.685 L376 464.807 C376 456.968 370.202 451.225 362.488 452.62 C337.509 457.136 311.538 460 287 460 C144 460 48 354 48 194 C48 72 118 -10 222 -10 C277.5 -10 333 11.3906 367.922 44.6744 C370.698 47.3195 376.842 45.9174 377.435 42.1296 C380.444 22.9167 386 0 386 0 C386 0 391.063 0 402.978 0 L517 0 C521.968 0 526 4.03227 526 9 L526 9 Z M376 328.562 L376 103.16 C376 95.2364 372.134 85.298 365.517 80.9394 C343.855 66.67 312.15 58 279 58 C188 58 127 123 127 220 C127 330.2 180.248 405.202 261.021 412.427 C265.875 412.861 269.694 415.099 274.075 412.964 C275.666 412.188 302.569 399.077 345.568 378.237 C360.95 370.782 376 345.655 376 328.562 L376 328.562 Z " />
<glyph glyph-name="Emacron" unicode="&#x112;" horiz-adv-x="650" d="M227 765 L443 765 C456.799 765 468 776.201 468 790 C468 803.799 456.799 815 443 815 L227 815 C213.201 815 202 803.799 202 790 C202 776.201 213.201 765 227 765 L227 765 Z M571.5 180 C567.244 180 561.214 176.15 559.422 172.29 L521.509 90.58 C513.243 72.7652 485.416 55 465.776 55 L296.44 55 C262.527 55 235 82.527 235 116.44 L235 251.56 C235 285.473 262.527 313 296.44 313 L367.863 313 C386.013 313 413.826 296.189 422.262 280.119 L441.654 243.182 C444.267 238.206 452.88 233 458.5 233 C464.848 233 470 238.152 470 244.5 L470 436.5 C470 442.848 464.848 448 458.5 448 C452.88 448 444.267 442.794 441.654 437.818 L422.262 400.881 C413.826 384.811 386.013 368 367.863 368 L296.44 368 C262.527 368 235 395.527 235 429.44 L235 543.56 C235 577.473 262.527 605 296.44 605 L442.175 605 C460.817 605 488.639 587.872 497.033 571.227 L534.172 497.589 C536.059 493.849 542.311 490 546.5 490 C551.192 490 555 493.808 555 498.5 L555 598.56 C555 632.473 527.473 660 493.56 660 L74.5 660 C69.2563 660 65 655.744 65 650.5 C65 645.718 69.3026 639.064 73.6633 637.102 L108.773 621.302 C127.008 613.096 145 585.27 145 565.274 L145 94.7262 C145 74.7299 127.008 46.9035 108.773 38.6978 L73.6633 22.8985 C69.3026 20.9362 65 14.2819 65 9.5 C65 4.25628 69.2563 0 74.5 0 L518.56 0 C552.473 0 580 27.527 580 61.44 L580 171.5 C580 176.192 576.192 180 571.5 180 L571.5 180 Z " />
<glyph glyph-name="emacron" unicode="&#x113;" horiz-adv-x="483" d="M149 595 L365 595 C378.799 595 390 606.201 390 620 C390 633.799 378.799 645 365 645 L149 645 C135.201 645 124 633.799 124 620 C124 606.201 135.201 595 149 595 L149 595 Z M139.201 326.26 C156.601 381.969 194.675 416 245 416 C294.5 416 331.749 381.969 349.447 326.26 C356.897 302.806 343.222 288 318.614 288 L170.319 288 C145.527 288 131.81 302.595 139.201 326.26 L139.201 326.26 Z M429 105 C389 80 339 64 304 64 C219.85 64 158.161 111.644 137.462 188.963 C128.023 224.222 147.52 242 184.021 242 L393.754 242 C394.076 242 401.887 242.54 402.206 242.584 L416 244.5 C426.465 245.954 434.068 255.322 433.487 265.872 C427.015 383.287 359.85 460 262 460 C135 460 51 358 51 205 C51 76 135 -10 262 -10 C329.275 -10 396.55 29.9262 431.385 90.3147 C432.115 91.5808 434 98.5384 434 100 L434 105 L429 105 L429 105 Z " />
<glyph glyph-name="Edot" unicode="&#x116;" horiz-adv-x="650" d="M340 725 C376 725 400 749 400 785 C400 821 376 845 340 845 C304 845 280 821 280 785 C280 749 304 725 340 725 L340 725 Z M571.5 180 C567.244 180 561.214 176.15 559.422 172.29 L521.509 90.58 C513.243 72.7652 485.416 55 465.776 55 L296.44 55 C262.527 55 235 82.527 235 116.44 L235 251.56 C235 285.473 262.527 313 296.44 313 L367.863 313 C386.013 313 413.826 296.189 422.262 280.119 L441.654 243.182 C444.267 238.206 452.88 233 458.5 233 C464.848 233 470 238.152 470 244.5 L470 436.5 C470 442.848 464.848 448 458.5 448 C452.88 448 444.267 442.794 441.654 437.818 L422.262 400.881 C413.826 384.811 386.013 368 367.863 368 L296.44 368 C262.527 368 235 395.527 235 429.44 L235 543.56 C235 577.473 262.527 605 296.44 605 L442.175 605 C460.817 605 488.639 587.872 497.033 571.227 L534.172 497.589 C536.059 493.849 542.311 490 546.5 490 C551.192 490 555 493.808 555 498.5 L555 598.56 C555 632.473 527.473 660 493.56 660 L74.5 660 C69.2563 660 65 655.744 65 650.5 C65 645.718 69.3026 639.064 73.6633 637.102 L108.773 621.302 C127.008 613.096 145 585.27 145 565.274 L145 94.7262 C145 74.7299 127.008 46.9035 108.773 38.6978 L73.6633 22.8985 C69.3026 20.9362 65 14.2819 65 9.5 C65 4.25628 69.2563 0 74.5 0 L518.56 0 C552.473 0 580 27.527 580 61.44 L580 171.5 C580 176.192 576.192 180 571.5 180 L571.5 180 Z " />
<glyph glyph-name="edot" unicode="&#x117;" horiz-adv-x="483" d="M262 583 C298 583 322 607 322 643 C322 679 298 703 262 703 C226 703 202 679 202 643 C202 607 226 583 262 583 L262 583 Z M139.201 326.26 C156.601 381.969 194.675 416 245 416 C294.5 416 331.749 381.969 349.447 326.26 C356.897 302.806 343.222 288 318.614 288 L170.319 288 C145.527 288 131.81 302.595 139.201 326.26 L139.201 326.26 Z M429 105 C389 80 339 64 304 64 C219.85 64 158.161 111.644 137.462 188.963 C128.023 224.222 147.52 242 184.021 242 L393.754 242 C394.076 242 401.887 242.54 402.206 242.584 L416 244.5 C426.465 245.954 434.068 255.322 433.487 265.872 C427.015 383.287 359.85 460 262 460 C135 460 51 358 51 205 C51 76 135 -10 262 -10 C329.275 -10 396.55 29.9262 431.385 90.3147 C432.115 91.5808 434 98.5384 434 100 L434 105 L429 105 L429 105 Z " />
<glyph glyph-name="Ecaron" unicode="&#x11a;" horiz-adv-x="650" d="M483 867 L482 867 L483 868 L483 867 L483 867 Z M335 710.5 C341.108 710.5 354.922 716.905 358.869 721.566 L478.446 862.802 C479.943 864.571 478.817 867 476.5 867 C474.919 867 467.655 864.959 466.305 864.135 L367.614 803.904 C351.468 794.05 318.703 794.326 302.725 804.449 L209.068 863.789 C207.571 864.737 199.773 867 198 867 C195.433 867 194.169 864.339 195.791 862.35 L310.838 721.238 C314.757 716.43 328.797 710.5 335 710.5 L335 710.5 Z M571.5 180 C567.244 180 561.214 176.15 559.422 172.29 L521.509 90.58 C513.243 72.7652 485.416 55 465.776 55 L296.44 55 C262.527 55 235 82.527 235 116.44 L235 251.56 C235 285.473 262.527 313 296.44 313 L367.863 313 C386.013 313 413.826 296.189 422.262 280.119 L441.654 243.182 C444.267 238.206 452.88 233 458.5 233 C464.848 233 470 238.152 470 244.5 L470 436.5 C470 442.848 464.848 448 458.5 448 C452.88 448 444.267 442.794 441.654 437.818 L422.262 400.881 C413.826 384.811 386.013 368 367.863 368 L296.44 368 C262.527 368 235 395.527 235 429.44 L235 543.56 C235 577.473 262.527 605 296.44 605 L442.175 605 C460.817 605 488.639 587.872 497.033 571.227 L534.172 497.589 C536.059 493.849 542.311 490 546.5 490 C551.192 490 555 493.808 555 498.5 L555 598.56 C555 632.473 527.473 660 493.56 660 L74.5 660 C69.2563 660 65 655.744 65 650.5 C65 645.718 69.3026 639.064 73.6633 637.102 L108.773 621.302 C127.008 613.096 145 585.27 145 565.274 L145 94.7262 C145 74.7299 127.008 46.9035 108.773 38.6978 L73.6633 22.8985 C69.3026 20.9362 65 14.2819 65 9.5 C65 4.25628 69.2563 0 74.5 0 L518.56 0 C552.473 0 580 27.527 580 61.44 L580 171.5 C580 176.192 576.192 180 571.5 180 L571.5 180 Z " />
<glyph glyph-name="ecaron" unicode="&#x11b;" horiz-adv-x="483" d="M276.076 546.942 L396.37 705.223 C397.965 707.322 396.637 710 394 710 C392.131 710 384.59 707.668 383.047 706.613 L287.339 641.165 C269.04 628.652 235.167 628.95 217.091 641.782 L125.892 706.527 C124.329 707.637 116.917 710 115 710 C112.327 710 110.964 707.315 112.542 705.157 L228.145 547.107 C232.09 541.713 245.317 535 252 535 C258.592 535 272.088 541.694 276.076 546.942 L276.076 546.942 Z M139.201 326.26 C156.601 381.969 194.675 416 245 416 C294.5 416 331.749 381.969 349.447 326.26 C356.897 302.806 343.222 288 318.614 288 L170.319 288 C145.527 288 131.81 302.595 139.201 326.26 L139.201 326.26 Z M429 105 C389 80 339 64 304 64 C219.85 64 158.161 111.644 137.462 188.963 C128.023 224.222 147.52 242 184.021 242 L393.754 242 C394.076 242 401.887 242.54 402.206 242.584 L416 244.5 C426.465 245.954 434.068 255.322 433.487 265.872 C427.015 383.287 359.85 460 262 460 C135 460 51 358 51 205 C51 76 135 -10 262 -10 C329.275 -10 396.55 29.9262 431.385 90.3147 C432.115 91.5808 434 98.5384 434 100 L434 105 L429 105 L429 105 Z " />
<glyph glyph-name="Gbreve" unicode="&#x11e;" horiz-adv-x="774" d="M257 864 C253.337 864 251.648 859.454 252.931 856.023 C291.116 753.926 332.7 714 399 714 C465.3 714 506.884 753.926 545.069 856.023 C546.352 859.454 544.663 864 541 864 C537.47 864 533.509 862.569 532.247 859.273 C509.077 798.766 471.15 775 399 775 C326.85 775 288.923 798.29 265.753 859.701 C264.505 863.009 260.536 864 257 864 L257 864 Z M689.094 251.845 L720.436 266.889 C724.697 268.935 729 275.773 729 280.5 C729 285.744 724.744 290 719.5 290 L488.5 290 C483.256 290 479 285.744 479 280.5 C479 275.671 483.302 269.178 487.748 267.295 L526.521 250.873 C545.57 242.806 564 214.986 564 194.298 L564 82.9765 C564 73.7194 558.244 64.8002 549.322 62.3301 C519.443 54.0575 477.75 49 431 49 C271 49 164 166 164 341 C164 508 268 620 425 620 C471 620 519 608 557 588 C562 585 567 580 570 574 C588 537 611 487 629 450 C633.286 450 638.306 450.735 643.431 450.945 C645.02 451.01 645.943 452.409 645.879 453.998 L639.875 602.379 C639.321 616.057 632.921 629.577 620.778 635.898 C580.252 656.995 506.6 670 425 670 C213 670 71 526 71 310 C71 118 204 -10 403 -10 C501.1 -10 592.72 17.54 640.681 59.498 C649.519 67.2297 654.933 84.8544 654.86 96.5966 L654.242 196.074 C654.121 215.501 671.579 243.438 689.094 251.845 L689.094 251.845 Z " />
<glyph glyph-name="gbreve" unicode="&#x11f;" horiz-adv-x="546" d="M121 707 C117.298 707 115.75 701.645 116.931 698.136 C155.116 584.679 196.7 540 263 540 C329.3 540 370.884 584.679 409.069 698.136 C410.25 701.645 408.702 707 405 707 C401.414 707 397.402 705.077 396.247 701.682 C373.077 633.618 335.15 607 263 607 C190.85 607 152.923 633.618 129.753 701.682 C128.598 705.077 124.586 707 121 707 L121 707 Z M161 303 C161 374 192 421 251 421 C313 421 355 372 355 299 C355 226 326 178 270 178 C205 178 161 228 161 303 L161 303 Z M80 300 C80 249.675 99.0575 207.518 132.68 179.143 C140.109 172.874 138.575 155.861 130.001 151.283 C92.1412 131.069 69 102.875 69 74 C69 40.175 89.4187 14.5175 123.518 0.958109 C128.946 -1.20031 129.08 -13.6732 124.097 -16.7224 C83.565 -41.5275 59 -89.85 59 -123 C59 -193 130 -239 236 -239 C377 -239 471 -169 471 -65 C471 11 432 61 331 61 L209 61 C167 61 139 79 139 107 C139 123.774 150.255 139.142 168.635 147.792 C173.246 149.962 185.32 150.087 190.207 148.639 C209.645 142.88 231.242 140 255 140 C373 140 434 206 434 304 C434 336.175 425.832 364.947 410.621 388.631 C407.145 394.043 410.582 402.437 417.005 402.095 L467.038 399.434 C481.899 398.644 494 410.118 494 425 C494 439.867 481.897 451.159 467.065 450.13 L364.5 443.007 C361.718 442.814 338.41 447.26 335.809 448.268 C312.677 457.236 285.7 462 256 462 C139 462 79 397 79 301 L80 300 Z M183 -8 L291 -8 C368 -8 398 -39 398 -85 C398 -160 337 -210 246 -210 C176 -210 130 -170 130 -111 C130 -61 151 -8 183 -8 L183 -8 Z " />
<glyph glyph-name="Itilde" unicode="&#x128;" horiz-adv-x="390" d="M57.9454 710.751 C70.255 746.535 82.7 770 115 770 C156 770 211 705 252 705 C299.775 705 321.883 752.531 345.203 824.422 C346.261 827.682 343.927 830 340.5 830 C337.131 830 333.125 827.294 332.055 824.099 C319.745 787.368 307.3 763 275 763 C234 763 179 828 138 828 C89.25 828 68.0681 781.419 44.7949 710.503 C43.728 707.252 46.0786 705 49.5 705 C52.8586 705 56.8529 707.575 57.9454 710.751 L57.9454 710.751 Z M320 9.5 C320 14.2819 315.697 20.9362 311.337 22.8985 L276.227 38.6978 C257.992 46.9035 240 74.7299 240 94.7262 L240 565.274 C240 585.27 257.992 613.096 276.227 621.302 L311.337 637.102 C315.697 639.064 320 645.718 320 650.5 C320 655.744 315.744 660 310.5 660 L79.5 660 C74.2563 660 70 655.744 70 650.5 C70 645.718 74.3026 639.064 78.6633 637.102 L113.773 621.302 C132.008 613.096 150 585.27 150 565.274 L150 94.7262 C150 74.7299 132.008 46.9035 113.773 38.6978 L78.6633 22.8985 C74.3026 20.9362 70 14.2819 70 9.5 C70 4.25628 74.2563 0 79.5 0 L310.5 0 C315.744 0 320 4.25628 320 9.5 L320 9.5 Z " />
<glyph glyph-name="itilde" unicode="&#x129;" horiz-adv-x="317" d="M21.9454 535.751 C34.255 571.535 46.7 595 79 595 C120 595 175 530 216 530 C263.775 530 285.883 577.531 309.203 649.422 C310.261 652.682 307.927 655 304.5 655 C301.131 655 297.125 652.294 296.055 649.099 C283.745 612.368 271.3 588 239 588 C198 588 143 653 102 653 C53.25 653 32.0681 606.419 8.79488 535.503 C7.72802 532.252 10.0786 530 13.5 530 C16.8586 530 20.8529 532.575 21.9454 535.751 L21.9454 535.751 Z M56.2691 401.038 L91 371 C108 357 119 347 119 347 C119 347 119 348.842 119 339.567 L119 86.225 C119 68.286 102.594 41.9234 86.5 34 L62.0745 21.9752 C58.0759 20.0066 54 13.4569 54 9 C54 4.03227 58.0323 0 63 0 L255 0 C259.968 0 264 4.03227 264 9 C264 13.4569 259.924 20.0066 255.925 21.9752 L231.5 34 C215.406 41.9234 199 68.286 199 86.225 L199 452 C199 456.416 195.416 460 191 460 C189.377 460 177.07 457.656 175.56 457.059 L56.7899 410.103 C55.3578 409.537 54 407.54 54 406 C54 404.748 55.3218 401.857 56.2691 401.038 L56.2691 401.038 Z " />
<glyph glyph-name="Imacron" unicode="&#x12a;" horiz-adv-x="390" d="M87 765 L303 765 C316.799 765 328 776.201 328 790 C328 803.799 316.799 815 303 815 L87 815 C73.2007 815 62 803.799 62 790 C62 776.201 73.2007 765 87 765 L87 765 Z M320 9.5 C320 14.2819 315.697 20.9362 311.337 22.8985 L276.227 38.6978 C257.992 46.9035 240 74.7299 240 94.7262 L240 565.274 C240 585.27 257.992 613.096 276.227 621.302 L311.337 637.102 C315.697 639.064 320 645.718 320 650.5 C320 655.744 315.744 660 310.5 660 L79.5 660 C74.2563 660 70 655.744 70 650.5 C70 645.718 74.3026 639.064 78.6633 637.102 L113.773 621.302 C132.008 613.096 150 585.27 150 565.274 L150 94.7262 C150 74.7299 132.008 46.9035 113.773 38.6978 L78.6633 22.8985 C74.3026 20.9362 70 14.2819 70 9.5 C70 4.25628 74.2563 0 79.5 0 L310.5 0 C315.744 0 320 4.25628 320 9.5 L320 9.5 Z " />
<glyph glyph-name="imacron" unicode="&#x12b;" horiz-adv-x="317" d="M46 595 L262 595 C275.799 595 287 606.201 287 620 C287 633.799 275.799 645 262 645 L46 645 C32.2007 645 21 633.799 21 620 C21 606.201 32.2007 595 46 595 L46 595 Z M56.2691 401.038 L91 371 C108 357 119 347 119 347 C119 347 119 348.842 119 339.567 L119 86.225 C119 68.286 102.594 41.9234 86.5 34 L62.0745 21.9752 C58.0759 20.0066 54 13.4569 54 9 C54 4.03227 58.0323 0 63 0 L255 0 C259.968 0 264 4.03227 264 9 C264 13.4569 259.924 20.0066 255.925 21.9752 L231.5 34 C215.406 41.9234 199 68.286 199 86.225 L199 452 C199 456.416 195.416 460 191 460 C189.377 460 177.07 457.656 175.56 457.059 L56.7899 410.103 C55.3578 409.537 54 407.54 54 406 C54 404.748 55.3218 401.857 56.2691 401.038 L56.2691 401.038 Z " />
<glyph glyph-name="Idot" unicode="&#x130;" horiz-adv-x="390" d="M195 725 C231 725 255 749 255 785 C255 821 231 845 195 845 C159 845 135 821 135 785 C135 749 159 725 195 725 L195 725 Z M320 9.5 C320 14.2819 315.697 20.9362 311.337 22.8985 L276.227 38.6978 C257.992 46.9035 240 74.7299 240 94.7262 L240 565.274 C240 585.27 257.992 613.096 276.227 621.302 L311.337 637.102 C315.697 639.064 320 645.718 320 650.5 C320 655.744 315.744 660 310.5 660 L79.5 660 C74.2563 660 70 655.744 70 650.5 C70 645.718 74.3026 639.064 78.6633 637.102 L113.773 621.302 C132.008 613.096 150 585.27 150 565.274 L150 94.7262 C150 74.7299 132.008 46.9035 113.773 38.6978 L78.6633 22.8985 C74.3026 20.9362 70 14.2819 70 9.5 C70 4.25628 74.2563 0 79.5 0 L310.5 0 C315.744 0 320 4.25628 320 9.5 L320 9.5 Z " />
<glyph glyph-name="dotlessi" unicode="&#x131;" horiz-adv-x="317" d="M56.2691 401.038 L91 371 C108 357 119 347 119 347 C119 347 119 348.842 119 339.567 L119 86.225 C119 68.286 102.594 41.9234 86.5 34 L62.0745 21.9752 C58.0759 20.0066 54 13.4569 54 9 C54 4.03227 58.0323 0 63 0 L255 0 C259.968 0 264 4.03227 264 9 C264 13.4569 259.924 20.0066 255.925 21.9752 L231.5 34 C215.406 41.9234 199 68.286 199 86.225 L199 452 C199 456.416 195.416 460 191 460 C189.377 460 177.07 457.656 175.56 457.059 L56.7899 410.103 C55.3578 409.537 54 407.54 54 406 C54 404.748 55.3218 401.857 56.2691 401.038 L56.2691 401.038 Z " />
<glyph glyph-name="Lacute" unicode="&#x139;" horiz-adv-x="630" d="M181 705 C183.108 705 190.001 707.477 191.627 708.819 L313 809 C330 824 342 865 342 865 C342 865 329.474 865 320.64 865 L298.473 865 C280.799 865 252.998 848.496 244.535 832.981 L177.873 710.767 C176.481 708.215 178.093 705 181 705 L181 705 Z M551 220 C546.35 220 540.47 215.928 538.834 211.575 L494.966 94.8288 C487.233 74.2494 459.437 55 437.452 55 L296.44 55 C262.527 55 235 82.527 235 116.44 L235 564.298 C235 584.986 253.43 612.806 272.479 620.873 L311.252 637.295 C315.698 639.178 320 645.671 320 650.5 C320 655.744 315.744 660 310.5 660 L74.5 660 C69.2563 660 65 655.744 65 650.5 C65 645.718 69.3026 639.064 73.6633 637.102 L108.773 621.302 C127.008 613.096 145 585.27 145 565.274 L145 94.7262 C145 74.7299 127.008 46.9035 108.773 38.6978 L73.6633 22.8985 C69.3026 20.9362 65 14.2819 65 9.5 C65 4.25628 69.2563 0 74.5 0 L498.56 0 C532.473 0 560 27.527 560 61.44 L560 211 C560 215.968 555.968 220 551 220 L551 220 Z " />
<glyph glyph-name="lacute" unicode="&#x13a;" horiz-adv-x="298" d="M139.5 765 C141.72 765 149.362 767.649 151.106 769.023 L278 869 C296 884 309 925 309 925 C309 925 296.183 925 287.494 925 L260.586 925 C243.548 925 215.77 908.911 207.292 894.133 L136.734 771.138 C135.186 768.439 136.388 765 139.5 765 L139.5 765 Z M46.2691 701.038 L81 671 C98 657 109 647 109 647 C109 647 109 648.842 109 639.567 L109 86.225 C109 68.286 92.5944 41.9234 76.5 34 L52.0745 21.9752 C48.0759 20.0066 44 13.4569 44 9 C44 4.03227 48.0323 0 53 0 L245 0 C249.968 0 254 4.03227 254 9 C254 13.4569 249.924 20.0066 245.925 21.9752 L221.5 34 C205.406 41.9234 189 68.286 189 86.225 L189 752 C189 756.416 185.416 760 181 760 C179.377 760 167.07 757.656 165.56 757.059 L46.7899 710.103 C45.3578 709.537 44 707.54 44 706 C44 704.748 45.3218 701.857 46.2691 701.038 L46.2691 701.038 Z " />
<glyph glyph-name="Lcaron" unicode="&#x13d;" horiz-adv-x="630" d="M516 660 L478.5 660 C457.97 660 438.84 643.169 436.226 622.805 L417.764 478.951 C417.346 475.693 419.715 473 423 473 C425.944 473 430.399 475.717 431.748 478.334 L526.596 662.45 C526.623 662.503 526.484 662.494 526.455 662.442 C523.107 656.491 523.647 660 516 660 L516 660 Z M551 220 C546.35 220 540.47 215.928 538.834 211.575 L494.966 94.8288 C487.233 74.2494 459.437 55 437.452 55 L296.44 55 C262.527 55 235 82.527 235 116.44 L235 564.298 C235 584.986 253.43 612.806 272.479 620.873 L311.252 637.295 C315.698 639.178 320 645.671 320 650.5 C320 655.744 315.744 660 310.5 660 L74.5 660 C69.2563 660 65 655.744 65 650.5 C65 645.718 69.3026 639.064 73.6633 637.102 L108.773 621.302 C127.008 613.096 145 585.27 145 565.274 L145 94.7262 C145 74.7299 127.008 46.9035 108.773 38.6978 L73.6633 22.8985 C69.3026 20.9362 65 14.2819 65 9.5 C65 4.25628 69.2563 0 74.5 0 L498.56 0 C532.473 0 560 27.527 560 61.44 L560 211 C560 215.968 555.968 220 551 220 L551 220 Z " />
<glyph glyph-name="lcaron" unicode="&#x13e;" horiz-adv-x="298" d="M360 750 L322.5 750 C301.97 750 282.84 733.169 280.226 712.805 L261.764 568.951 C261.346 565.693 263.715 563 267 563 C269.944 563 274.399 565.717 275.748 568.334 L370.596 752.45 C370.623 752.503 370.484 752.494 370.455 752.442 C367.107 746.491 367.647 750 360 750 L360 750 Z M46.2691 701.038 L81 671 C98 657 109 647 109 647 C109 647 109 648.842 109 639.567 L109 86.225 C109 68.286 92.5944 41.9234 76.5 34 L52.0745 21.9752 C48.0759 20.0066 44 13.4569 44 9 C44 4.03227 48.0323 0 53 0 L245 0 C249.968 0 254 4.03227 254 9 C254 13.4569 249.924 20.0066 245.925 21.9752 L221.5 34 C205.406 41.9234 189 68.286 189 86.225 L189 752 C189 756.416 185.416 760 181 760 C179.377 760 167.07 757.656 165.56 757.059 L46.7899 710.103 C45.3578 709.537 44 707.54 44 706 C44 704.748 45.3218 701.857 46.2691 701.038 L46.2691 701.038 Z " />
<glyph glyph-name="Nacute" unicode="&#x143;" horiz-adv-x="806" d="M421 705 C423.108 705 430.001 707.477 431.627 708.819 L553 809 C570 824 582 865 582 865 C582 865 569.474 865 560.64 865 L538.473 865 C520.799 865 492.998 848.496 484.535 832.981 L417.873 710.767 C416.481 708.215 418.093 705 421 705 L421 705 Z M76.1262 637.099 L108.147 621.729 C125.49 613.405 143 585.578 143 566.34 L143 94.7262 C143 74.7299 125.008 46.9035 106.773 38.6978 L71.6633 22.8985 C67.3026 20.9362 63 14.2819 63 9.5 C63 4.25628 67.2563 0 72.5 0 L303.5 0 C308.744 0 313 4.25628 313 9.5 C313 14.4337 308.704 20.5467 304.062 22.2178 L253.629 40.3735 C232.529 47.9697 213 75.7556 213 98.1817 L213 338.438 C213 398.788 284.536 423.966 322.335 376.921 L619.039 7.64209 C623.755 1.77208 639.97 -6 647.5 -6 C657.159 -6 665 1.84052 665 11.5 L665 565.34 C665 584.578 682.51 612.405 699.853 620.729 L731.436 635.889 C735.697 637.935 740 644.773 740 649.5 C740 654.744 735.744 659 730.5 659 L504.5 659 C499.256 659 495 654.744 495 649.5 C495 644.566 499.296 638.453 503.938 636.782 L554.371 618.626 C575.471 611.03 595 583.244 595 560.818 L595 355.938 C595 295.559 523.367 270.401 485.613 317.52 L230.447 635.978 C222.501 645.895 195.207 659 182.499 659 L76.0139 659 C71.0461 659 67.2244 654.96 67.5 650 C67.7418 645.648 72.1964 638.986 76.1262 637.099 L76.1262 637.099 Z " />
<glyph glyph-name="nacute" unicode="&#x144;" horiz-adv-x="590" d="M306 530 C308.243 530 314.764 532.545 316.414 534.064 L438 646 C455 662 467 707 467 707 C467 707 453.589 707 443.714 707 L425.261 707 C406.308 707 378.483 689.672 370.122 672.662 L302.647 535.385 C301.336 532.717 303.028 530 306 530 L306 530 Z M52.6741 400.687 L87 371 C104 357 115 347 115 347 C115 347 115 348.842 115 339.567 L115 86.225 C115 68.286 98.5944 41.9234 82.5 34 L58.0745 21.9752 C54.0759 20.0066 50 13.4569 50 9 C50 4.03227 54.0323 0 59 0 L256 0 C260.968 0 265 4.03227 265 9 C265 13.518 260.924 19.8634 256.815 21.7418 L230 34 C212.43 42.032 195 69.1648 195 88.4838 L195 333.672 C195 342.898 201.533 357.308 208.989 362.741 C232.39 379.791 262.75 390 304 390 C365 390 405 353 405 297 L405 88.4838 C405 69.1648 387.57 42.032 370 34 L343.185 21.7418 C339.076 19.8634 335 13.518 335 9 C335 4.03227 339.032 0 344 0 L541 0 C545.968 0 550 4.03227 550 9 C550 13.4569 545.924 20.0066 541.925 21.9752 L517.5 34 C501.406 41.9234 485 68.286 485 86.225 L485 343 C485 413 430 460 348 460 C295.275 460 247.684 434.759 203.643 393.775 C198.873 389.335 192.721 392.425 192.493 398.937 C191.445 428.849 190 461 190 461 C190 461 186.619 461 182 461 C180.332 461 168.137 458.608 166.593 457.978 L52.2736 411.336 C50.5208 410.62 49.2323 408.374 49.5 406.5 C49.6811 405.232 51.7055 401.525 52.6741 400.687 L52.6741 400.687 Z " />
<glyph glyph-name="Ncaron" unicode="&#x147;" horiz-adv-x="806" d="M563 867 L562 867 L563 868 L563 867 L563 867 Z M415 710.5 C421.108 710.5 434.922 716.905 438.869 721.566 L558.446 862.802 C559.943 864.571 558.817 867 556.5 867 C554.919 867 547.655 864.959 546.305 864.135 L447.614 803.904 C431.468 794.05 398.703 794.326 382.725 804.449 L289.068 863.789 C287.571 864.737 279.773 867 278 867 C275.433 867 274.169 864.339 275.791 862.35 L390.838 721.238 C394.757 716.43 408.797 710.5 415 710.5 L415 710.5 Z M76.1262 637.099 L108.147 621.729 C125.49 613.405 143 585.578 143 566.34 L143 94.7262 C143 74.7299 125.008 46.9035 106.773 38.6978 L71.6633 22.8985 C67.3026 20.9362 63 14.2819 63 9.5 C63 4.25628 67.2563 0 72.5 0 L303.5 0 C308.744 0 313 4.25628 313 9.5 C313 14.4337 308.704 20.5467 304.062 22.2178 L253.629 40.3735 C232.529 47.9697 213 75.7556 213 98.1817 L213 338.438 C213 398.788 284.536 423.966 322.335 376.921 L619.039 7.64209 C623.755 1.77208 639.97 -6 647.5 -6 C657.159 -6 665 1.84052 665 11.5 L665 565.34 C665 584.578 682.51 612.405 699.853 620.729 L731.436 635.889 C735.697 637.935 740 644.773 740 649.5 C740 654.744 735.744 659 730.5 659 L504.5 659 C499.256 659 495 654.744 495 649.5 C495 644.566 499.296 638.453 503.938 636.782 L554.371 618.626 C575.471 611.03 595 583.244 595 560.818 L595 355.938 C595 295.559 523.367 270.401 485.613 317.52 L230.447 635.978 C222.501 645.895 195.207 659 182.499 659 L76.0139 659 C71.0461 659 67.2244 654.96 67.5 650 C67.7418 645.648 72.1964 638.986 76.1262 637.099 L76.1262 637.099 Z " />
<glyph glyph-name="ncaron" unicode="&#x148;" horiz-adv-x="590" d="M324.076 546.942 L444.37 705.223 C445.965 707.322 444.637 710 442 710 C440.131 710 432.59 707.668 431.047 706.613 L335.339 641.165 C317.04 628.652 283.167 628.95 265.091 641.782 L173.892 706.527 C172.329 707.637 164.917 710 163 710 C160.327 710 158.964 707.315 160.542 705.157 L276.145 547.107 C280.09 541.713 293.317 535 300 535 C306.592 535 320.088 541.694 324.076 546.942 L324.076 546.942 Z M52.6741 400.687 L87 371 C104 357 115 347 115 347 C115 347 115 348.842 115 339.567 L115 86.225 C115 68.286 98.5944 41.9234 82.5 34 L58.0745 21.9752 C54.0759 20.0066 50 13.4569 50 9 C50 4.03227 54.0323 0 59 0 L256 0 C260.968 0 265 4.03227 265 9 C265 13.518 260.924 19.8634 256.815 21.7418 L230 34 C212.43 42.032 195 69.1648 195 88.4838 L195 333.672 C195 342.898 201.533 357.308 208.989 362.741 C232.39 379.791 262.75 390 304 390 C365 390 405 353 405 297 L405 88.4838 C405 69.1648 387.57 42.032 370 34 L343.185 21.7418 C339.076 19.8634 335 13.518 335 9 C335 4.03227 339.032 0 344 0 L541 0 C545.968 0 550 4.03227 550 9 C550 13.4569 545.924 20.0066 541.925 21.9752 L517.5 34 C501.406 41.9234 485 68.286 485 86.225 L485 343 C485 413 430 460 348 460 C295.275 460 247.684 434.759 203.643 393.775 C198.873 389.335 192.721 392.425 192.493 398.937 C191.445 428.849 190 461 190 461 C190 461 186.619 461 182 461 C180.332 461 168.137 458.608 166.593 457.978 L52.2736 411.336 C50.5208 410.62 49.2323 408.374 49.5 406.5 C49.6811 405.232 51.7055 401.525 52.6741 400.687 L52.6741 400.687 Z " />
<glyph glyph-name="Omacron" unicode="&#x14c;" horiz-adv-x="807" d="M281 765 L497 765 C510.799 765 522 776.201 522 790 C522 803.799 510.799 815 497 815 L281 815 C267.201 815 256 803.799 256 790 C256 776.201 267.201 765 281 765 L281 765 Z M166 363 C166 518 254 621 386 621 C539 621 641 490 641 293 C641 141 554 40 424 40 C269 40 166 169 166 363 L166 363 Z M70 328 C70 125 204 -10 404 -10 C604 -10 737 125 737 328 C737 533 604 670 404 670 C204 670 70 533 70 328 L70 328 Z " />
<glyph glyph-name="omacron" unicode="&#x14d;" horiz-adv-x="538" d="M161 595 L377 595 C390.799 595 402 606.201 402 620 C402 633.799 390.799 645 377 645 L161 645 C147.201 645 136 633.799 136 620 C136 606.201 147.201 595 161 595 L161 595 Z M142 225 C142 341 180 418 255 418 C340 418 396 341 396 225 C396 109 358 32 283 32 C198 32 142 109 142 225 L142 225 Z M50 225 C50 84 138 -10 269 -10 C414 -10 488 84 488 225 C488 366 400 460 269 460 C124 460 50 366 50 225 L50 225 Z " />
<glyph glyph-name="Racute" unicode="&#x154;" horiz-adv-x="685" d="M312 705 C314.108 705 321.001 707.477 322.627 708.819 L444 809 C461 824 473 865 473 865 C473 865 460.474 865 451.64 865 L429.473 865 C411.799 865 383.998 848.496 375.535 832.981 L308.873 710.767 C307.481 708.215 309.093 705 312 705 L312 705 Z M671 9 C671 13.5597 666.924 19.7624 662.739 21.5722 L611.567 43.7008 C607.685 45.3794 591.16 57.5664 588.574 60.9129 C541.958 121.239 469.486 214.301 418.262 280.195 C406.113 295.824 410.457 319.372 428.562 327.375 C496.478 357.395 555 413.75 555 486 C555 590 467 660 335 660 L75.5 660 C70.2563 660 66 655.744 66 650.5 C66 645.718 70.3026 639.064 74.6633 637.102 L109.773 621.302 C128.008 613.096 146 585.27 146 565.274 L146 94.7262 C146 74.7299 128.008 46.9035 109.773 38.6978 L74.6633 22.8985 C70.3026 20.9362 66 14.2819 66 9.5 C66 4.25628 70.2563 0 75.5 0 L301.5 0 C306.744 0 311 4.25628 311 9.5 C311 14.2273 306.697 21.0653 302.436 23.1109 L270.853 38.2706 C253.51 46.5954 236 74.4223 236 93.6601 L236 277.5 C236 291.575 247.425 303 261.5 303 C272.609 303 280.611 311.211 287.433 302.443 C298.603 288.088 522 0.975 522 0 L662 0 C666.968 0 671 4.03227 671 9 L671 9 Z M236 383.5 L236 588 C236 597.392 244.85 605.003 254.241 604.995 C283.125 604.969 311.175 604.825 312 604 C399 604 457 553 457 477 C457 406 358 358 287 358 L261.5 358 C247.425 358 236 369.425 236 383.5 L236 383.5 Z " />
<glyph glyph-name="racute" unicode="&#x155;" horiz-adv-x="378" d="M248 530 C250.243 530 256.764 532.545 258.414 534.064 L380 646 C397 662 409 707 409 707 C409 707 395.589 707 385.714 707 L367.261 707 C348.308 707 320.483 689.672 312.122 672.662 L244.647 535.385 C243.336 532.717 245.028 530 248 530 L248 530 Z M295 460 C269.65 460 235.744 424.827 197.917 371.164 C197.127 370.042 194.836 369.63 194.75 371 L194.5 375 L192.238 451.004 C192.107 455.415 188.414 459 184 459 C182.332 459 170.137 456.608 168.593 455.978 L53.7777 409.133 C52.3581 408.554 51 406.533 51 405 C51 403.748 52.3218 400.857 53.2691 400.038 L88 370 C105 356 116 346 116 346 C116 346 116 347.842 116 338.567 L116 85.225 C116 67.286 99.5944 40.9234 83.5 33 L59.0745 20.9752 C55.0759 19.0066 51 12.4569 51 8 C51 3.03227 55.0323 -1 60 -1 L257 -1 C261.968 -1 266 3.03227 266 8 C266 12.518 261.924 18.8634 257.815 20.7418 L231 33 C213.43 41.032 196 68.1648 196 87.4838 L196 314.097 C196 320.639 202.772 341.231 206.821 346.369 C223.166 367.114 237.118 380 247 380 C267 380 292 375 309 368 C320 363 347 352 347 352 C347 352 340.638 352 350.5 352 C352.25 352 354.554 353.144 355.31 354.722 C369.58 384.515 379 409.265 379 418 C379 442 327.5 459.5 295.5 459.5 L295 460 Z " />
<glyph glyph-name="Rcaron" unicode="&#x158;" horiz-adv-x="685" d="M464 867 L463 867 L464 868 L464 867 L464 867 Z M316 710.5 C322.108 710.5 335.922 716.905 339.869 721.566 L459.446 862.802 C460.943 864.571 459.817 867 457.5 867 C455.919 867 448.655 864.959 447.305 864.135 L348.614 803.904 C332.468 794.05 299.703 794.326 283.725 804.449 L190.068 863.789 C188.571 864.737 180.773 867 179 867 C176.433 867 175.169 864.339 176.791 862.35 L291.838 721.238 C295.757 716.43 309.797 710.5 316 710.5 L316 710.5 Z M671 9 C671 13.5597 666.924 19.7624 662.739 21.5722 L611.567 43.7008 C607.685 45.3794 591.16 57.5664 588.574 60.9129 C541.958 121.239 469.486 214.301 418.262 280.195 C406.113 295.824 410.457 319.372 428.562 327.375 C496.478 357.395 555 413.75 555 486 C555 590 467 660 335 660 L75.5 660 C70.2563 660 66 655.744 66 650.5 C66 645.718 70.3026 639.064 74.6633 637.102 L109.773 621.302 C128.008 613.096 146 585.27 146 565.274 L146 94.7262 C146 74.7299 128.008 46.9035 109.773 38.6978 L74.6633 22.8985 C70.3026 20.9362 66 14.2819 66 9.5 C66 4.25628 70.2563 0 75.5 0 L301.5 0 C306.744 0 311 4.25628 311 9.5 C311 14.2273 306.697 21.0653 302.436 23.1109 L270.853 38.2706 C253.51 46.5954 236 74.4223 236 93.6601 L236 277.5 C236 291.575 247.425 303 261.5 303 C272.609 303 280.611 311.211 287.433 302.443 C298.603 288.088 522 0.975 522 0 L662 0 C666.968 0 671 4.03227 671 9 L671 9 Z M236 383.5 L236 588 C236 597.392 244.85 605.003 254.241 604.995 C283.125 604.969 311.175 604.825 312 604 C399 604 457 553 457 477 C457 406 358 358 287 358 L261.5 358 C247.425 358 236 369.425 236 383.5 L236 383.5 Z " />
<glyph glyph-name="rcaron" unicode="&#x159;" horiz-adv-x="378" d="M266.076 546.942 L386.37 705.223 C387.965 707.322 386.637 710 384 710 C382.131 710 374.59 707.668 373.047 706.613 L277.339 641.165 C259.04 628.652 225.167 628.95 207.091 641.782 L115.892 706.527 C114.329 707.637 106.917 710 105 710 C102.327 710 100.964 707.315 102.542 705.157 L218.145 547.107 C222.09 541.713 235.317 535 242 535 C248.592 535 262.088 541.694 266.076 546.942 L266.076 546.942 Z M295 460 C269.65 460 235.744 424.827 197.917 371.164 C197.127 370.042 194.836 369.63 194.75 371 L194.5 375 L192.238 451.004 C192.107 455.415 188.414 459 184 459 C182.332 459 170.137 456.608 168.593 455.978 L53.7777 409.133 C52.3581 408.554 51 406.533 51 405 C51 403.748 52.3218 400.857 53.2691 400.038 L88 370 C105 356 116 346 116 346 C116 346 116 347.842 116 338.567 L116 85.225 C116 67.286 99.5944 40.9234 83.5 33 L59.0745 20.9752 C55.0759 19.0066 51 12.4569 51 8 C51 3.03227 55.0323 -1 60 -1 L257 -1 C261.968 -1 266 3.03227 266 8 C266 12.518 261.924 18.8634 257.815 20.7418 L231 33 C213.43 41.032 196 68.1648 196 87.4838 L196 314.097 C196 320.639 202.772 341.231 206.821 346.369 C223.166 367.114 237.118 380 247 380 C267 380 292 375 309 368 C320 363 347 352 347 352 C347 352 340.638 352 350.5 352 C352.25 352 354.554 353.144 355.31 354.722 C369.58 384.515 379 409.265 379 418 C379 442 327.5 459.5 295.5 459.5 L295 460 Z " />
<glyph glyph-name="Sacute" unicode="&#x15a;" horiz-adv-x="527" d="M239 705 C241.108 705 248.001 707.477 249.627 708.819 L371 809 C388 824 400 865 400 865 C400 865 387.474 865 378.64 865 L356.473 865 C338.799 865 310.998 848.496 302.535 832.981 L235.873 710.767 C234.481 708.215 236.093 705 239 705 L239 705 Z M360 594 C371 588 382 576 387 564 C397.436 541.231 410.572 510.361 421.285 486.761 C422.047 485.082 423.49 482.982 425.333 483.034 C430.778 483.188 436.222 483.812 441.667 483.966 C443.543 484.019 443.909 485.62 443.805 487.495 L437.109 607.182 C436.466 618.674 430.292 632.218 420.377 638.065 C387.055 657.717 333.25 670 278 670 C162 670 85 598 85 489 C85 406 137 352 238 309 C336 267 386 223 386 163 C386 87 341 37 273 37 C237 37 184 55 135 83 C130 86 125 91 123 96 C111.308 125.231 94.8685 164.905 82.9328 194.671 C81.9421 197.142 79.6487 196.765 77 196.5 L75.0492 196.305 C74.8817 196.288 69.1039 196 68.9356 196 L66.5 196 C63.4679 196 61.1225 193.535 61.273 190.507 L67.768 59.7938 C68.4877 45.3102 76.9232 29.3388 90.015 23.102 C134.3 2.005 203.15 -11 272 -11 C391 -11 471 67 471 185 C471 274 414 333 304 380 C218 417 173 459 173 520 C173 581 211 621 269 621 C296 621 329.5 611 359.5 594 L360 594 Z " />
<glyph glyph-name="sacute" unicode="&#x15b;" horiz-adv-x="427" d="M213 530 C215.243 530 221.764 532.545 223.414 534.064 L345 646 C362 662 374 707 374 707 C374 707 360.589 707 350.714 707 L332.261 707 C313.308 707 285.483 689.672 277.122 672.662 L209.647 535.385 C208.336 532.717 210.028 530 213 530 L213 530 Z M341 328.5 L341 412.49 C341 412.766 340.511 412.776 340.5 412.5 C340.5 412.5 340.5 412.5 340.5 412.5 C340.771 419.285 335.77 428.062 329.688 431.083 C294.3 448.66 246.6 460 207 460 C128 460 75 409 75 332 C75 262 111 223 182 199 C251 176 287 145 287 96 C287 54 253 26 203 26 C132.7 26 103.013 77.4425 77.9278 127.17 C76.3802 130.238 70.4361 135 67 135 C63.1362 135 60 131.864 60 128 L60 41.4767 C60 29.2567 67.3155 16.4854 78.8055 12.3252 C116.52 -1.33 165.65 -10 209 -10 C298 -10 357 43 357 122 C357 196 317 239 240 265 C178 286 146 315 146 362 C146 396.125 170.716 419.793 209.026 420.955 C209.363 420.965 215.048 420.661 215.382 420.624 L221 420 C259 416 297 384 315 340 C318 334 321 326 324 320 C324.741 318.519 325.698 320 327.354 320 L332.5 320 C337.192 320 341 323.808 341 328.5 L341 328.5 Z " />
<glyph glyph-name="Scedilla" unicode="&#x15e;" horiz-adv-x="527" d="M273.101 -61.7329 C284.027 -38.5413 291.905 -21.6173 296.071 -12.9519 C296.95 -11.1233 303.795 -8.38666 305.807 -8.12859 C406.407 4.77187 472 78.75 472 186 C472 275 415 334 305 381 C219 418 174 460 174 521 C174 582 212 622 270 622 C297 622 330 612 360 595 C371 589 382 577 387 565 C397.436 542.231 410.572 511.361 421.285 487.761 C422.047 486.082 423.49 483.982 425.333 484.034 C430.778 484.188 436.222 484.812 441.667 484.966 C443.543 485.019 443.909 486.62 443.805 488.495 L437.109 608.182 C436.466 619.674 430.292 633.218 420.377 639.065 C387.055 658.717 333.25 671 278 671 C162 671 85 599 85 490 C85 407 137 353 238 310 C336 268 386 224 386 164 C386 88 341 38 273 38 C237 38 184 56 135 84 C130 87 125 92 123 97 C111.308 126.231 94.8685 165.905 82.9328 195.671 C81.9421 198.142 79.6487 197.765 77 197.5 L75.0492 197.305 C74.8817 197.288 69.1039 197 68.9356 197 L66.5 197 C63.4679 197 61.1225 194.535 61.273 191.507 L67.823 59.6879 C68.5035 45.9923 76.6114 30.5129 88.926 24.4811 C129.59 4.56356 191.762 -8.51372 255.227 -10.8201 C258.843 -10.9515 259.597 -14.026 258.063 -17.3027 C250.362 -33.7402 233.702 -68.9777 212.178 -116.359 C208.543 -124.362 212.479 -132.904 220.5 -136.5 L228.694 -140.173 C229.265 -140.429 240.12 -144.097 240.729 -144.239 C272.593 -151.667 294 -165.833 294 -180 C294 -200 279 -213 256 -213 C228.647 -213 203.63 -208.329 190.565 -200.36 C188.822 -199.297 186 -200.458 186 -202.5 C186 -204.971 187.489 -209.366 189.388 -210.947 C211.385 -229.267 243.4 -241 270 -241 C320 -241 354 -210 354 -164 C354 -133.375 327.203 -104.664 283.658 -87.916 C273.922 -84.1713 268.655 -71.1697 273.101 -61.7329 L273.101 -61.7329 Z " />
<glyph glyph-name="scedilla" unicode="&#x15f;" horiz-adv-x="427" d="M341 328.062 L341 412.49 C341 412.766 340.511 412.776 340.5 412.5 C340.5 412.5 340.5 412.5 340.5 412.5 C340.771 419.285 335.77 428.062 329.688 431.083 C294.3 448.66 246.6 460 207 460 C128 460 75 409 75 332 C75 262 111 223 182 199 C251 176 287 145 287 96 C287 54 253 26 203 26 C132.7 26 103.013 77.4425 77.9278 127.17 C76.3802 130.238 70.4361 135 67 135 C63.1362 135 60 131.864 60 128 L60 39.906 C60 28.6774 66.8258 16.6617 77.334 12.7044 C110.022 0.394375 151.926 -8.23562 190.758 -10.6256 C194.37 -10.8479 196.598 -14.0256 195.063 -17.3027 C187.362 -33.7402 170.702 -68.9777 149.178 -116.359 C145.543 -124.362 149.479 -132.904 157.5 -136.5 L165.694 -140.173 C166.265 -140.429 177.12 -144.097 177.729 -144.239 C209.593 -151.667 231 -165.833 231 -180 C231 -200 216 -213 193 -213 C165.647 -213 140.63 -208.329 127.565 -200.36 C125.822 -199.297 123 -200.458 123 -202.5 C123 -204.971 124.489 -209.366 126.388 -210.947 C148.385 -229.267 180.4 -241 207 -241 C257 -241 291 -210 291 -164 C291 -133.375 264.203 -105.047 220.658 -88.3945 C210.897 -84.6618 205.647 -72.1865 210.101 -62.7329 C221.027 -39.5413 228.905 -22.6173 233.071 -13.9519 C233.941 -12.1425 238.589 -9.54604 240.574 -9.24844 C312.37 1.51312 358 50.775 358 120 C358 194 318 237 241 263 C179 284 147 313 147 360 C147 394.125 171.716 417.793 210.026 418.955 C210.363 418.965 216.048 418.661 216.382 418.624 L222 418 C260 414 298 382 316 338 C319 332 322 324 325 318 C325.781 316.438 326.596 318.199 328.328 318.416 L333 319 C337.382 319.548 341 323.646 341 328.062 L341 328.062 Z " />
<glyph glyph-name="Scaron" unicode="&#x160;" horiz-adv-x="527" d="M396 867 L395 867 L396 868 L396 867 L396 867 Z M248 710.5 C254.108 710.5 267.922 716.905 271.869 721.566 L391.446 862.802 C392.943 864.571 391.817 867 389.5 867 C387.919 867 380.655 864.959 379.305 864.135 L280.614 803.904 C264.468 794.05 231.703 794.326 215.725 804.449 L122.068 863.789 C120.571 864.737 112.773 867 111 867 C108.433 867 107.169 864.339 108.791 862.35 L223.838 721.238 C227.757 716.43 241.797 710.5 248 710.5 L248 710.5 Z M360 594 C371 588 382 576 387 564 C397.436 541.231 410.572 510.361 421.285 486.761 C422.047 485.082 423.49 482.982 425.333 483.034 C430.778 483.188 436.222 483.812 441.667 483.966 C443.543 484.019 443.909 485.62 443.805 487.495 L437.109 607.182 C436.466 618.674 430.292 632.218 420.377 638.065 C387.055 657.717 333.25 670 278 670 C162 670 85 598 85 489 C85 406 137 352 238 309 C336 267 386 223 386 163 C386 87 341 37 273 37 C237 37 184 55 135 83 C130 86 125 91 123 96 C111.308 125.231 94.8685 164.905 82.9328 194.671 C81.9421 197.142 79.6487 196.765 77 196.5 L75.0492 196.305 C74.8817 196.288 69.1039 196 68.9356 196 L66.5 196 C63.4679 196 61.1225 193.535 61.273 190.507 L67.768 59.7938 C68.4877 45.3102 76.9232 29.3388 90.015 23.102 C134.3 2.005 203.15 -11 272 -11 C391 -11 471 67 471 185 C471 274 414 333 304 380 C218 417 173 459 173 520 C173 581 211 621 269 621 C296 621 329.5 611 359.5 594 L360 594 Z " />
<glyph glyph-name="scaron" unicode="&#x161;" horiz-adv-x="427" d="M231.076 546.942 L351.37 705.223 C352.965 707.322 351.637 710 349 710 C347.131 710 339.59 707.668 338.047 706.613 L242.339 641.165 C224.04 628.652 190.167 628.95 172.091 641.782 L80.8925 706.527 C79.3292 707.637 71.9171 710 70 710 C67.3269 710 65.9641 707.315 67.5422 705.157 L183.145 547.107 C187.09 541.713 200.317 535 207 535 C213.592 535 227.088 541.694 231.076 546.942 L231.076 546.942 Z M341 328.5 L341 412.49 C341 412.766 340.511 412.776 340.5 412.5 C340.5 412.5 340.5 412.5 340.5 412.5 C340.771 419.285 335.77 428.062 329.688 431.083 C294.3 448.66 246.6 460 207 460 C128 460 75 409 75 332 C75 262 111 223 182 199 C251 176 287 145 287 96 C287 54 253 26 203 26 C132.7 26 103.013 77.4425 77.9278 127.17 C76.3802 130.238 70.4361 135 67 135 C63.1362 135 60 131.864 60 128 L60 41.4767 C60 29.2567 67.3155 16.4854 78.8055 12.3252 C116.52 -1.33 165.65 -10 209 -10 C298 -10 357 43 357 122 C357 196 317 239 240 265 C178 286 146 315 146 362 C146 396.125 170.716 419.793 209.026 420.955 C209.363 420.965 215.048 420.661 215.382 420.624 L221 420 C259 416 297 384 315 340 C318 334 321 326 324 320 C324.741 318.519 325.698 320 327.354 320 L332.5 320 C337.192 320 341 323.808 341 328.5 L341 328.5 Z " />
<glyph glyph-name="Tcaron" unicode="&#x164;" horiz-adv-x="675" d="M486 867 L485 867 L486 868 L486 867 L486 867 Z M338 710.5 C344.108 710.5 357.922 716.905 361.869 721.566 L481.446 862.802 C482.943 864.571 481.817 867 479.5 867 C477.919 867 470.655 864.959 469.305 864.135 L370.614 803.904 C354.468 794.05 321.703 794.326 305.725 804.449 L212.068 863.789 C210.571 864.737 202.773 867 201 867 C198.433 867 197.169 864.339 198.791 862.35 L313.838 721.238 C317.757 716.43 331.797 710.5 338 710.5 L338 710.5 Z M483 9.5 C483 14.4337 478.704 20.5467 474.062 22.2178 L423.629 40.3735 C402.529 47.9697 383 75.7556 383 98.1817 L383 543.56 C383 577.473 410.527 605 444.44 605 L509.45 605 C530.03 605 557.851 586.638 565.942 567.715 L608.462 468.275 C610.257 464.075 616.432 460 621 460 C625.968 460 630 464.032 630 469 L630 598.56 C630 632.473 602.473 660 568.56 660 L106.44 660 C72.527 660 45 632.473 45 598.56 L45 469 C45 464.032 49.0323 460 54 460 C58.5677 460 64.7426 464.075 66.5384 468.275 L109.058 567.715 C117.149 586.638 144.97 605 165.55 605 L231.56 605 C265.473 605 293 577.473 293 543.56 L293 98.1817 C293 75.7556 273.471 47.9697 252.371 40.3735 L201.938 22.2178 C197.296 20.5467 193 14.4337 193 9.5 C193 4.25628 197.256 0 202.5 0 L473.5 0 C478.744 0 483 4.25628 483 9.5 L483 9.5 Z " />
<glyph glyph-name="tcaron" unicode="&#x165;" horiz-adv-x="354" d="M351 750 L313.5 750 C292.97 750 273.84 733.169 271.226 712.805 L252.764 568.951 C252.346 565.693 254.715 563 258 563 C260.944 563 265.399 565.717 266.748 568.334 L361.596 752.45 C361.623 752.503 361.484 752.494 361.455 752.442 C358.107 746.491 358.647 750 351 750 L351 750 Z M322.5 58 L321 63 C319 59 293 57 255 57 C210 57 180 77 180 107 L180 341.56 C180 375.473 207.527 403 241.44 403 L288.5 403 C301.471 403 312 413.529 312 426.5 C312 439.471 301.471 450 288.5 450 L235 450 C204.642 450 180 474.642 180 505 L180 557 C180 558.656 178.656 560 177 560 C175.626 560 173.092 558.651 172.325 557.511 L109.031 463.424 C106.576 459.775 89.4631 444.732 85.5293 442.765 L20.6833 410.342 C19.3586 409.679 18 407.481 18 406 C18 404.344 19.3441 403 21 403 L59 403 C81.6308 403 100 384.631 100 362 L100 90 C100 30 143 -10 208 -10 C256.45 -10 301.29 12.5625 321.086 47.399 C322.231 49.4145 323.166 55.7796 322.5 58 L322.5 58 Z " />
<glyph glyph-name="Utilde" unicode="&#x168;" horiz-adv-x="811" d="M267.945 710.751 C280.255 746.535 292.7 770 325 770 C366 770 422 705 463 705 C510.775 705 532.883 752.531 556.203 824.422 C557.261 827.682 554.927 830 551.5 830 C548.131 830 544.125 827.294 543.055 824.099 C530.745 787.368 518.3 763 486 763 C445 763 389 828 348 828 C299.25 828 278.068 781.419 254.795 710.503 C253.728 707.252 256.079 705 259.5 705 C262.859 705 266.853 707.575 267.945 710.751 L267.945 710.751 Z M145 565.274 L145 234 C145 88 249 -10 406 -10 C562 -10 666 88 666 234 L666 565.274 C666 585.27 683.992 613.096 702.227 621.302 L737.337 637.102 C741.697 639.064 746 645.718 746 650.5 C746 655.744 741.744 660 736.5 660 L505.5 660 C500.256 660 496 655.744 496 650.5 C496 645.566 500.296 639.453 504.938 637.782 L555.371 619.626 C576.471 612.03 596 584.244 596 561.818 L596 213 C596 114 531 48 433 48 C314 48 235 129 235 250 L235 565.274 C235 585.27 252.992 613.096 271.227 621.302 L306.337 637.102 C310.697 639.064 315 645.718 315 650.5 C315 655.744 310.744 660 305.5 660 L74.5 660 C69.2563 660 65 655.744 65 650.5 C65 645.718 69.3026 639.064 73.6633 637.102 L108.773 621.302 C127.008 613.096 145 585.27 145 565.274 L145 565.274 Z " />
<glyph glyph-name="utilde" unicode="&#x169;" horiz-adv-x="552" d="M133.945 540.751 C146.255 576.535 158.7 600 191 600 C232 600 287 535 328 535 C375.775 535 397.883 582.531 421.203 654.422 C422.261 657.682 419.927 660 416.5 660 C413.131 660 409.125 657.294 408.055 654.099 C395.745 617.367 383.3 593 351 593 C310 593 255 658 214 658 C165.25 658 144.068 611.419 120.795 540.503 C119.728 537.252 122.079 535 125.5 535 C128.859 535 132.853 537.575 133.945 540.751 L133.945 540.751 Z M381 361.97 L381 120.526 C381 109.72 373.545 94.7142 364.385 88.9829 C337 71.8481 304 63 271 63 C211 63 171 100 171 155 L171 388.56 C171 422.473 143.473 450 109.56 450 L35 450 C30.0323 450 26 445.968 26 441 C26 436.543 30.0759 429.993 34.0745 428.025 L58.5 416 C74.5944 408.077 91 381.714 91 363.775 L91 107 C91 37 145 -10 225 -10 C263.25 -10 310.17 8.785 357.162 46.355 C367.419 54.5549 382 47.1313 382 34 C382 15.233 397.233 0 416 0 L523 0 C527.968 0 532 4.03227 532 9 C532 13.518 527.924 19.8634 523.815 21.7418 L497 34 C479.43 42.032 462 69.1648 462 88.4838 L462 388.56 C462 422.473 434.473 450 400.56 450 L321 450 C316.032 450 312 445.968 312 441 C312 436.493 316.076 430.11 320.165 428.213 L346.5 416 C363.776 407.988 381 381.013 381 361.97 L381 361.97 Z " />
<glyph glyph-name="Umacron" unicode="&#x16a;" horiz-adv-x="811" d="M308 765 L524 765 C537.799 765 549 776.201 549 790 C549 803.799 537.799 815 524 815 L308 815 C294.201 815 283 803.799 283 790 C283 776.201 294.201 765 308 765 L308 765 Z M145 565.274 L145 234 C145 88 249 -10 406 -10 C562 -10 666 88 666 234 L666 565.274 C666 585.27 683.992 613.096 702.227 621.302 L737.337 637.102 C741.697 639.064 746 645.718 746 650.5 C746 655.744 741.744 660 736.5 660 L505.5 660 C500.256 660 496 655.744 496 650.5 C496 645.566 500.296 639.453 504.938 637.782 L555.371 619.626 C576.471 612.03 596 584.244 596 561.818 L596 213 C596 114 531 48 433 48 C314 48 235 129 235 250 L235 565.274 C235 585.27 252.992 613.096 271.227 621.302 L306.337 637.102 C310.697 639.064 315 645.718 315 650.5 C315 655.744 310.744 660 305.5 660 L74.5 660 C69.2563 660 65 655.744 65 650.5 C65 645.718 69.3026 639.064 73.6633 637.102 L108.773 621.302 C127.008 613.096 145 585.27 145 565.274 L145 565.274 Z " />
<glyph glyph-name="umacron" unicode="&#x16b;" horiz-adv-x="552" d="M163 595 L379 595 C392.799 595 404 606.201 404 620 C404 633.799 392.799 645 379 645 L163 645 C149.201 645 138 633.799 138 620 C138 606.201 149.201 595 163 595 L163 595 Z M381 361.97 L381 120.526 C381 109.72 373.545 94.7142 364.385 88.9829 C337 71.8481 304 63 271 63 C211 63 171 100 171 155 L171 388.56 C171 422.473 143.473 450 109.56 450 L35 450 C30.0323 450 26 445.968 26 441 C26 436.543 30.0759 429.993 34.0745 428.025 L58.5 416 C74.5944 408.077 91 381.714 91 363.775 L91 107 C91 37 145 -10 225 -10 C263.25 -10 310.17 8.785 357.162 46.355 C367.419 54.5549 382 47.1313 382 34 C382 15.233 397.233 0 416 0 L523 0 C527.968 0 532 4.03227 532 9 C532 13.518 527.924 19.8634 523.815 21.7418 L497 34 C479.43 42.032 462 69.1648 462 88.4838 L462 388.56 C462 422.473 434.473 450 400.56 450 L321 450 C316.032 450 312 445.968 312 441 C312 436.493 316.076 430.11 320.165 428.213 L346.5 416 C363.776 407.988 381 381.013 381 361.97 L381 361.97 Z " />
<glyph glyph-name="Uring" unicode="&#x16e;" horiz-adv-x="811" d="M375 800 C375 831 388 852 408 852 C431 852 447 826 447 786 C447 758 432 734 415 734 C393 734 375 764 375 800 L375 800 Z M325 793 C325 748 365 710 411 710 C457 710 496 749 496 795 C496 844 462 876 411 876 C359 876 325 843 325 793 L325 793 Z M145 565.274 L145 234 C145 88 249 -10 406 -10 C562 -10 666 88 666 234 L666 565.274 C666 585.27 683.992 613.096 702.227 621.302 L737.337 637.102 C741.697 639.064 746 645.718 746 650.5 C746 655.744 741.744 660 736.5 660 L505.5 660 C500.256 660 496 655.744 496 650.5 C496 645.566 500.296 639.453 504.938 637.782 L555.371 619.626 C576.471 612.03 596 584.244 596 561.818 L596 213 C596 114 531 48 433 48 C314 48 235 129 235 250 L235 565.274 C235 585.27 252.992 613.096 271.227 621.302 L306.337 637.102 C310.697 639.064 315 645.718 315 650.5 C315 655.744 310.744 660 305.5 660 L74.5 660 C69.2563 660 65 655.744 65 650.5 C65 645.718 69.3026 639.064 73.6633 637.102 L108.773 621.302 C127.008 613.096 145 585.27 145 565.274 L145 565.274 Z " />
<glyph glyph-name="uring" unicode="&#x16f;" horiz-adv-x="552" d="M235 625 C235 656 249 677 269 677 C292 677 307 651 307 611 C307 583 292 559 275 559 C253 559 235 589 235 625 L235 625 Z M186 618 C186 573 225 535 271 535 C317 535 356 574 356 620 C356 669 322 701 271 701 C220 701 186 668 186 618 L186 618 Z M381 361.97 L381 120.526 C381 109.72 373.545 94.7142 364.385 88.9829 C337 71.8481 304 63 271 63 C211 63 171 100 171 155 L171 388.56 C171 422.473 143.473 450 109.56 450 L35 450 C30.0323 450 26 445.968 26 441 C26 436.543 30.0759 429.993 34.0745 428.025 L58.5 416 C74.5944 408.077 91 381.714 91 363.775 L91 107 C91 37 145 -10 225 -10 C263.25 -10 310.17 8.785 357.162 46.355 C367.419 54.5549 382 47.1313 382 34 C382 15.233 397.233 0 416 0 L523 0 C527.968 0 532 4.03227 532 9 C532 13.518 527.924 19.8634 523.815 21.7418 L497 34 C479.43 42.032 462 69.1648 462 88.4838 L462 388.56 C462 422.473 434.473 450 400.56 450 L321 450 C316.032 450 312 445.968 312 441 C312 436.493 316.076 430.11 320.165 428.213 L346.5 416 C363.776 407.988 381 381.013 381 361.97 L381 361.97 Z " />
</font>
</svg>
