<?xml version="1.0" encoding="UTF-8"?>
<svg xmlns="http://www.w3.org/2000/svg" xmlns:xlink="http://www.w3.org/1999/xlink" version="1.2" >
<font id="Moisses Bold Round">
<font-face  font-family="Moisses" units-per-em="1024" ascent="975" descent="-300" font-style="normal" font-weight="700" font-stretch="normal" cap-height="1046" x-height="488" underline-position="-125" underline-thickness="50" />
<missing-glyph  horiz-adv-x="100" d="" />
<glyph glyph-name="NULL" d="" />
<glyph glyph-name="CR" unicode="&#xd;" horiz-adv-x="256" d="" />
<glyph glyph-name="space" unicode="&#x20;" horiz-adv-x="250" d="" />
<glyph glyph-name="exclam" unicode="&#x21;" horiz-adv-x="281" d="M140 -5 C188 -5 220 27 220 75 C220 123 188 155 140 155 C92 155 60 123 60 75 C60 27 92 -5 140 -5 L140 -5 Z M140 755 C85 755 60 706 70 632 L128.522 220.395 C129.33 214.715 134.762 210 140.5 210 C146.238 210 151.67 214.715 152.478 220.395 L211 632 C221 706 195 755 140 755 L140 755 Z " />
<glyph glyph-name="quotedbl" unicode="&#x22;" horiz-adv-x="325" d="M208 750 C182 750 168 732 175 705 L213.138 566.748 C214.129 563.157 218.275 560 222 560 C225.725 560 229.871 563.157 230.862 566.748 L269 705 C276 732 262 750 236 750 L208 750 L208 750 Z M88 750 C62 750 48 732 55 705 L93.1385 566.748 C94.129 563.157 98.2753 560 102 560 C105.725 560 109.871 563.157 110.862 566.748 L149 705 C156 732 142 750 116 750 L88 750 L88 750 Z " />
<glyph glyph-name="numbersign" unicode="&#x23;" horiz-adv-x="554" d="M386.709 634.248 L374.906 556.248 C370.591 527.733 342.997 504 314.157 504 L301.5 504 C265.753 504 240.451 533.418 245.8 568.763 L255.709 634.248 C257.505 646.119 249.007 656 237 656 C224.993 656 213.505 646.119 211.709 634.248 L199.906 556.248 C195.591 527.733 167.997 504 139.157 504 L115.407 504 C91.1205 504 68.2815 484.064 65 460 C61.7185 435.936 79.1205 416 103.407 416 L118.5 416 C150.973 416 173.96 389.277 169.107 357.168 L159.899 296.257 C155.588 267.737 127.994 244 99.1494 244 L72.4072 244 C48.1205 244 25.2815 224.064 22 200 C18.7185 175.936 36.1205 156 60.4072 156 L77.5 156 C111.051 156 134.75 128.376 129.648 95.2151 L118.345 21.7442 C116.52 9.88161 124.998 0 137 0 C149.002 0 160.52 9.88161 162.345 21.7442 L174.985 103.902 C179.358 132.324 206.954 156 235.711 156 L248.5 156 C284.234 156 309.474 126.58 304.04 91.2617 L293.345 21.7442 C291.52 9.88161 299.998 0 312 0 C324.002 0 335.52 9.88161 337.345 21.7442 L349.985 103.902 C354.358 132.324 381.954 156 410.711 156 L428.593 156 C452.879 156 475.719 175.936 479 200 C482.281 224.064 464.879 244 440.593 244 L428 244 C396.891 244 374.87 269.6 379.519 300.36 L389.101 363.743 C393.412 392.263 421.006 416 449.851 416 L476.522 416 C500.809 416 523.951 435.974 527.5 460 C531.049 484.026 513.809 504 489.522 504 L472.5 504 C438.936 504 415.18 531.621 420.201 564.808 L430.709 634.248 C432.505 646.119 424.007 656 412 656 C399.993 656 388.505 646.119 386.709 634.248 L386.709 634.248 Z M274.851 416 L287.5 416 C323.248 416 348.553 386.582 343.21 351.236 L334.899 296.257 C330.588 267.737 302.994 244 274.149 244 L261.5 244 C225.752 244 200.447 273.418 205.79 308.764 L214.101 363.743 C218.412 392.263 246.006 416 274.851 416 L274.851 416 Z " />
<glyph glyph-name="dollar" unicode="&#x24;" horiz-adv-x="555" d="M66.3707 5.88169 L69 21 C75 51 103 57 139 36 C158.167 22.6667 178.722 12.1111 200.088 4.33333 C206.372 2.04562 213 -6.91362 213 -13.6015 L213 -54.5 C213 -65.8154 222.185 -75 233.5 -75 C244.815 -75 254 -65.8154 254 -54.5 L254 -14.5765 C254 -11.1398 257.47 -8.52716 260.888 -8.88296 C269.32 -9.76064 277.826 -9.94871 286.676 -9.98901 C290.522 -10.0065 294 -13.1538 294 -17 L294 -54.5 C294 -65.8154 303.185 -75 314.5 -75 C325.815 -75 335 -65.8154 335 -54.5 L335 -40.5 C335 -24.4883 351.484 -3.1448 366.798 1.53 C458.49 29.52 516 105.3 516 207 C516 295.2 466.59 376.11 369.228 425.673 C352.716 434.078 335 464.392 335 482.92 L335 688.652 C335 703.146 343.649 710.931 355.883 703.162 C394.705 678.507 429.3 630.95 448 574 L454.3 556.359 C456.223 550.974 463.282 546 469 546 C475.072 546 480 550.928 480 557 L480 747.5 C480 752.192 476.192 756 471.5 756 L471.382 756 C466.966 756 461.817 752.215 460.5 748 L458 740 C452 717 427 713 396 729 C381.214 737.214 365.079 744.079 348.149 749.04 C342.946 750.565 337 757.372 337 762.794 L337 804.5 C337 815.815 327.815 825 316.5 825 C305.185 825 296 815.815 296 804.5 L296 765.519 C296 762.013 292.619 759.259 289.118 759.441 C280.706 759.88 272.294 759.974 263.882 759.995 C260.303 760.003 257 762.921 257 766.5 L257 804.5 C257 815.815 247.815 825 236.5 825 C225.185 825 216 815.815 216 804.5 L216 790 C216 774.918 196.096 750.409 182.064 744.881 C106.938 715.281 61 644.625 61 551 C61 465.25 101.578 387.156 180.055 336.816 C193.187 328.392 216 293.612 216 278.01 L216 50.7434 C216 48.2053 214.228 46.5801 211.846 47.4556 C204.231 50.2544 196.615 53.7692 189 58 C146 84 104 145 81 215 L75.4086 233.017 C73.6117 238.807 66.5624 244 60.5 244 C54.1523 244 49 238.848 49 232.5 L49 6 C49 1.58424 52.5842 -2 57 -2 C61.3505 -2 65.6253 1.59557 66.3707 5.88169 L66.3707 5.88169 Z M262.917 297.421 C272.028 293.884 280.694 289.977 288.917 285.995 C291.959 284.522 295 279.672 295 276.292 L295 39.5192 C295 35.7306 291.905 32.7467 288.118 32.6519 C279.706 32.4415 271.294 32.9945 262.882 34.0401 C259.201 34.4976 256 37.8672 256 41.5765 L256 292.567 C256 296.505 259.246 298.846 262.917 297.421 L262.917 297.421 Z M359.076 245.001 C391.984 219.511 409 192.575 409 167 C409 116.675 389.943 77.24 358.004 54.3102 C346.505 46.0543 336 52.2673 336 66.4233 L336 232.698 C336 246.658 348.039 253.55 359.076 245.001 L359.076 245.001 Z M256 482.946 L256 718.481 C256 722.269 259.095 725.253 262.882 725.348 C271.294 725.559 279.706 725.005 288.118 723.96 C291.799 723.502 295 720.133 295 716.424 L295 463.616 C295 459.686 292.014 457.272 288.443 458.913 C279.08 463.217 270.186 467.916 261.759 472.688 C258.813 474.357 256 479.561 256 482.946 L256 482.946 Z M199.15 522.01 C176.571 547.55 165 574.775 165 602 C165 644.075 177.932 677.982 199.865 699.792 C206.573 706.462 215 703.014 215 693.554 L215 528.299 C215 518.775 205.459 514.874 199.15 522.01 L199.15 522.01 Z " />
<glyph glyph-name="ampersand" unicode="&#x26;" horiz-adv-x="339" d="M365.881 475.219 C453.24 510.378 508 561.9 508 610 C508 700 431 760 315 760 C209 760 139 694 139 595 C139 555.4 160.78 515.119 197.04 466.858 C208.506 451.597 205.855 429.083 188.735 420.64 C92.75 373.3 32 288.7 32 196 C32 72 117 -10 245 -10 C327.875 -10 412.651 31.8275 491.914 105.287 C494.363 107.557 500.327 108.375 502.5 105.839 C509 98.25 515.5 90.125 522 82 C568 27 640 -10 700 -10 C768.4 -10 822.36 45.955 837.016 131.286 C838.046 137.282 834.742 146.49 829 148.5 C824.007 150.248 818.608 148.188 817.492 143.017 C809.744 107.102 783.15 84 748 84 C702 84 651 107 622 142 C608.5 158.875 595 175.038 582.101 190.489 C578.149 195.223 580.615 206.474 584.247 211.457 C640.938 289.235 691.425 384.725 731.753 493.178 C734.204 499.77 728.533 502 721.5 502 C714.658 502 704.317 491.875 701.889 485.478 C668.705 398.055 626.176 321.766 578.4 260.71 C561.894 239.616 537.91 243.578 520.612 264.029 C421.952 380.674 383.819 422.315 358.269 451.794 C350.694 460.534 355.151 470.901 365.881 475.219 L365.881 475.219 Z M316.844 504.207 C270.35 563.4 242 610.2 242 657 C242 704 272 735 317 735 C376 735 415 689 415 619 C415 571.15 392.88 527.384 357.623 499.493 C342.861 487.815 328.471 489.404 316.844 504.207 L316.844 504.207 Z M440.582 135.55 C398.831 111.932 356.075 99 314 99 C219 99 155 153 155 233 C155 305.25 177.398 367.385 214.209 404.666 C227.89 418.522 241.718 413.664 254.315 398.816 C287.969 359.148 323.191 321.144 443.437 179.332 C454.977 165.723 456.112 144.335 440.582 135.55 L440.582 135.55 Z " />
<glyph glyph-name="quotesingle" unicode="&#x27;" horiz-adv-x="204" d="M88 750 C62 750 48 732 55 705 L93.1385 566.748 C94.129 563.157 98.2753 560 102 560 C105.725 560 109.871 563.157 110.862 566.748 L149 705 C156 732 142 750 116 750 L88 750 L88 750 Z " />
<glyph glyph-name="parenleft" unicode="&#x28;" horiz-adv-x="500" d="M310.183 753.128 C183.655 661.245 100 470.925 100 273 C100 81.9 180.803 -108.249 303.481 -206.616 C306.712 -209.207 314.537 -211.146 316.5 -207.5 C318.288 -204.179 316.703 -198.48 313.826 -196.04 C234.235 -128.529 181 56.55 181 273 C181 492.375 236.136 678.478 320.457 742.331 C323.486 744.625 325.301 750.154 323.5 753.5 C321.517 757.183 313.567 755.585 310.183 753.128 L310.183 753.128 Z " />
<glyph glyph-name="parenright" unicode="&#x29;" horiz-adv-x="500" d="M33.1149 740.21 C163.493 649.496 250 464.1 250 273 C250 78.975 166.345 -105.544 39.8168 -194.358 C36.618 -196.604 31.6471 -204.059 33.5 -207.5 C35.4659 -211.151 46.6726 -207.576 50.0903 -205.228 C218.826 -89.31 331 99.45 331 273 C331 448 211 643 30 760 C26.5888 762.205 28.4257 757.076 26.5 753.5 C24.6443 750.054 29.902 742.446 33.1149 740.21 L33.1149 740.21 Z " />
<glyph glyph-name="asterisk" unicode="&#x2a;" horiz-adv-x="300" d="M243.213 533.736 C257.194 526.167 272.333 532.833 284 552 C295.667 571.167 294.139 587.556 281.153 595.38 C274.166 599.589 276.221 605.874 271.953 598.923 C270.922 597.245 253.233 568.427 241.908 548.967 C238.001 542.254 236.383 537.434 243.213 533.736 L243.213 533.736 Z M275 658 L273 659 L274 659 L274 659 C275 659 275 658 275 658 L275 658 Z M279.692 662.268 C294.646 669.963 296.655 687.276 285 707 C272 730 252.5 735.5 237.5 720.5 L194.357 677.862 C182.579 666.221 163.19 677.511 167.5 693.5 L183 751 C189 772 175 786 148 786 C121 786 107 772 113 751 L127.501 696.496 C131.536 681.329 113.133 670.687 102 681.75 L62 721.5 C46 737.5 27 732 14 709 C0.933333 686.6 4.85333 668.556 22.5079 662.184 C24.3747 661.51 27.2485 662.491 28.1944 664.236 C30.6944 668.847 34.0833 674.569 37.4722 680.514 C37.4826 680.532 37.4773 680.537 37.467 680.519 L33.5 673.5 C30.0301 667.361 32.9554 660.433 39.7749 658.638 L85.4016 646.631 C100.684 642.609 100.756 621.123 85.5 617 L63.9459 611.175 C45.8239 606.277 38.1576 587.782 47.5 571.5 C56.8236 555.25 76.6174 552.617 89.8646 565.865 L103.5 579.5 C114.191 590.191 131.956 579.976 128.095 565.358 L114 512 C108 491 122 477 149 477 C176 477 190 491 184 512 L169 568 C164.86 583.457 183.679 594.321 194.994 583.006 L211.135 566.865 C224.383 553.617 244.176 556.25 253.5 572.5 C262.838 588.775 255.161 607.253 237.039 612.119 L217 617.5 C202.173 621.481 202.214 642.362 217.058 646.284 L266.318 659.3 C269.805 660.222 271.434 663.747 269.875 667 C269.746 667.269 270.202 667.51 270.352 667.253 L270.5 667 C272.824 663.017 275.592 660.158 279.692 662.268 L279.692 662.268 Z M60.2974 550.497 C48.34 570.655 31 601 31 601 C31 601 28.7071 601.579 21.4259 597.38 C7.86111 589.556 6.33333 573.167 18 554 C28.8333 534 44.1806 527.194 57.6759 534.741 C64.5188 538.567 64.2972 543.754 60.2974 550.497 L60.2974 550.497 Z " />
<glyph glyph-name="plus" unicode="&#x2b;" horiz-adv-x="620" d="M265 415 L265 352.44 C265 318.527 237.473 291 203.56 291 L141 291 C118.369 291 100 272.631 100 250 C100 227.369 118.369 209 141 209 L203.56 209 C237.473 209 265 181.473 265 147.56 L265 85 C265 60.1613 285.161 40 310 40 C334.839 40 355 60.1613 355 85 L355 147.56 C355 181.473 382.527 209 416.44 209 L479 209 C501.631 209 520 227.369 520 250 C520 272.631 501.631 291 479 291 L416.44 291 C382.527 291 355 318.527 355 352.44 L355 415 C355 439.839 334.839 460 310 460 C285.161 460 265 439.839 265 415 L265 415 Z " />
<glyph glyph-name="comma" unicode="&#x2c;" horiz-adv-x="268" d="M150.452 -2.36965 C151 -8.94215 151 -15.6364 151 -23 C151 -59 123.46 -84.47 80.044 -89.204 C73.4393 -89.9242 65 -96.8561 65 -103.5 C65 -111.465 68.8483 -117.147 76.7942 -116.598 C150.167 -111.532 198 -58.95 198 18 C198 76 169 115 125 115 C89 115 65 91 65 55 C65 19 89 -5 125 -5 C132.364 -5 139.393 -3.32645 145.539 -0.527047 C147.345 0.295274 150.288 -0.392525 150.452 -2.36965 L150.452 -2.36965 Z " />
<glyph glyph-name="hyphen" unicode="&#x2d;" horiz-adv-x="430" d="M127 238 L303 238 C328.943 238 350 259.057 350 285 C350 310.943 328.943 332 303 332 L127 332 C101.057 332 80 310.943 80 285 C80 259.057 101.057 238 127 238 L127 238 Z " />
<glyph glyph-name="period" unicode="&#x2e;" horiz-adv-x="195" d="M125 -5 C173 -5 205 27 205 75 C205 123 173 155 125 155 C77 155 45 123 45 75 C45 27 77 -5 125 -5 L125 -5 Z " />
<glyph glyph-name="slash" unicode="&#x2f;" horiz-adv-x="398" d="M289.294 737.73 L28.7062 -47.7296 C23.0973 -64.6358 34.1877 -80 52 -80 C69.8123 -80 91.0973 -64.6358 96.7062 -47.7296 L357.294 737.73 C362.903 754.636 351.812 770 334 770 C316.188 770 294.903 754.636 289.294 737.73 L289.294 737.73 Z " />
<glyph glyph-name="zero" unicode="0" horiz-adv-x="614" d="M96 250 C96 365 180 463 305 463 C418 463 514 378 514 250 C514 135 430 37 305 37 C192 37 96 122 96 250 L96 250 Z M41 250 C41 94 162 -10 305 -10 C463 -10 569 110 569 250 C569 406 448 510 305 510 C147 510 41 390 41 250 L41 250 Z " />
<glyph glyph-name="one" unicode="1" horiz-adv-x="395" d="M330 20 L305 20 C275 20 255 40 255 70 L255 430 C255 460 275 480 305 480 L330 480 C335.52 480 340 484.48 340 490 C340 495.52 335.52 500 330 500 L65 500 C59.4803 500 55 495.52 55 490 C55 484.48 59.4803 480 65 480 L90 480 C120 480 140 460 140 430 L140 70 C140 40 120 20 90 20 L65 20 C59.4803 20 55 15.5197 55 10 C55 4.4803 59.4803 0 65 0 L330 0 C335.52 0 340 4.4803 340 10 C340 15.5197 335.52 20 330 20 L330 20 Z " />
<glyph glyph-name="two" unicode="2" horiz-adv-x="554" d="M528.482 163.852 L523 157 C495 124 452 102 413 102 L296.152 102 C272.786 102 264.266 133.818 283.503 147.08 C385.937 217.702 454 286.775 454 347 C454 445 384 510 279 510 C164.925 510 71.7638 428.246 44.0055 303.667 C42.4905 296.868 47.1804 292.921 54 291.5 C60.2237 290.203 67.1102 294.655 68.7339 300.801 C88.14 374.265 146.85 423 220 423 C291 423 339 382 339 320 C339 239 260 160 149 88 C109.1 63.3 66.4925 38.6 21.1775 15.6148 C17.5582 13.7789 17.2833 9.47436 20.5 7 L21.7873 6.00975 C23.868 4.40924 23.0945 1.39915 20.5 1 C19.9544 0.916069 20.0245 0 20.5765 0 L401.018 0 C416.906 0 444.617 15.3266 453.061 28.7852 L499 102 L540 161 C538 163 531 167 531 167 C531 167 530.107 165.883 528.482 163.852 L528.482 163.852 Z " />
<glyph glyph-name="three" unicode="3" horiz-adv-x="457" d="M18 -220.5 C19.1218 -226.95 31.2023 -230.783 37.7006 -229.987 C265.851 -202.035 417 -104.925 417 15 C417 99.975 366.634 164.531 283.308 195.192 C266.86 201.245 260.234 230.009 274.799 239.757 C345.482 287.061 387 336.85 387 388 C387 462 321 511 221 511 C126.95 511 49.145 454.142 22.7374 367.006 C20.5164 359.678 24.1261 351.565 31.5 349.5 C37.5715 347.8 45.1456 351.071 47.364 356.972 C63.8788 400.909 112.95 430 174 430 C228 430 264 398 264 349 C264 299.05 236.62 257.656 191.357 223.236 C188.561 221.109 171.937 215.253 168.429 215.049 C155.753 214.311 152.73 209.854 143.103 195.582 C142.146 194.164 135.597 188.625 134.083 187.829 C126.737 183.967 118.972 180.179 110.789 176.735 C107.631 175.406 104 170.462 104 167.036 L104 155.743 C104 153.26 106.144 151.715 108.5 152.5 L108.947 152.649 C109.03 152.677 109.082 152.531 109 152.5 C107.954 152.108 112.451 149.886 113.553 149.705 C223.802 131.639 297 65.9 297 -16 C297 -111.55 190.055 -186.662 28.995 -207.041 C22.7311 -207.833 16.9182 -214.279 18 -220.5 L18 -220.5 Z " />
<glyph glyph-name="four" unicode="4" horiz-adv-x="620" d="M617 154 C617 156 598 158 598 158 C598 158 597.064 155.074 595.089 148.902 L590 133 C582 106 558 88 531 88 L473 88 C440.986 88 415 113.986 415 146 L415 522.5 C415 526.64 411.64 530 407.5 530 C404.196 530 397.472 526.651 395.481 524.014 L21.025 27.9812 C19.0213 25.3269 15 13.3256 15 10 C15 4.4803 19.4803 0 25 0 L238.56 0 C272.473 0 300 -27.527 300 -61.44 L300 -162.5 C300 -194.238 325.762 -220 357.5 -220 C389.238 -220 415 -194.238 415 -162.5 L415 -52.5 C415 -23.5216 438.522 0 467.5 0 L520 0 C547 0 566 -18 567 -45 L567.5 -50 C567.765 -52.6539 565.694 -54.5715 568.317 -55.059 C570.576 -55.4792 584.25 -58 587 -58 C596 12 606 85 617 154 L617 154 Z M300.25 208.25 L300.127 149.312 C300.057 115.47 272.53 88 238.688 88 L210 88 C170.278 88 150.193 128.202 174.048 159.964 L228.786 232.848 C252.657 264.631 300.333 247.999 300.25 208.25 L300.25 208.25 Z " />
<glyph glyph-name="five" unicode="5" horiz-adv-x="442" d="M362.5 555 L358.385 555 C355.625 555 352.025 552.562 351 550 L349 545 C338 518 313 500 286 500 L126.726 500 C98.5924 500 70.9793 476.753 66.1846 449.031 L22.2928 195.257 C21.2216 189.063 25.328 177.205 30 173 C33.6925 169.677 48.4859 164 53.4536 164 L82 164 C219 164 311 104 311 14 C311 -101.05 214.987 -190.433 69.3036 -212.441 C63.6611 -213.293 58.693 -218.851 59.5 -224.5 C60.3472 -230.43 70.7635 -233.753 76.6908 -232.884 C278.912 -203.23 412 -90.325 412 53 C412 192 285 285 95 285 L86.5 285 C81.8743 285 78.648 288.82 79.4217 293.38 L88.4268 346.463 C93.0823 373.906 120.422 397.284 148.255 397.623 L317.123 399.674 C331.65 399.85 346.395 414.096 348.882 428.41 C356.042 469.617 363.835 512.567 370.151 545.449 C371.12 550.491 367.634 555 362.5 555 L362.5 555 Z " />
<glyph glyph-name="six" unicode="6" horiz-adv-x="569" d="M527.318 744.907 C234.977 675.884 42 497.8 42 295 C42 112 140 -10 286 -10 C423 -10 515 89 515 238 C515 377 431 469 306 469 C267.225 469 233.214 456.749 206.214 435.054 C202.729 432.254 197.503 439.273 199.251 443.388 C259.674 585.655 382.088 691.173 541.956 729.076 C546.848 730.235 553.846 736.156 552.5 741 C551.091 746.074 532.443 746.117 527.318 744.907 L527.318 744.907 Z M158 233 C158 353 212 433 294 433 C358 433 401 357 401 244 C401 111 353 22 281 22 C207 22 158 106 158 233 L158 233 Z " />
<glyph glyph-name="seven" unicode="7" horiz-adv-x="461" d="M100.71 546.892 C87.3284 517.757 71.4231 480.692 58.5 453 L41 409 C32 390 23 371 15 355 C19 353 31 348 31 348 C31 348 32.1883 349.782 34.6056 353.408 L41 363 C59 390 88 408 115 408 L292.86 408 C340.725 408 368.551 364.911 348.86 321.284 L122.896 -179.352 C113.892 -199.299 126.615 -219 148.5 -219 L149.401 -219 C171.421 -219 199.217 -199.728 206.939 -179.106 L453.37 478.976 C453.879 480.336 456 492.048 456 493.5 C456 497.64 452.64 501 448.5 501 L155 501 C128.844 501 113.949 516.016 118.499 538.774 C118.509 538.825 119.441 544.086 119.448 544.138 L119.5 544.5 C119.768 546.375 118.479 548.618 116.724 549.331 L112 551.25 C107.562 553.053 102.71 551.245 100.71 546.892 L100.71 546.892 Z " />
<glyph glyph-name="eight" unicode="8" horiz-adv-x="541" d="M221 352 L237 345 C342 303 412 265 412 219 C412 98 354 18 267 18 C187 18 133 81 133 175 C133 245.2 155.68 307.705 192.292 347.206 C199.27 354.735 211.595 356.115 221 352 L221 352 Z M137.148 353.447 C72.015 304.2 33 239.6 33 175 C33 65 127 -9 267 -9 C407 -9 501 63 501 171 C501 284.9 456.928 351.837 384.75 400.062 C369.065 410.542 368.629 438.906 383.656 450.308 C441.288 494.039 476 548.2 476 601 C476 698 391 762 264 762 C140 762 58 689 58 579 C58 510.525 88.2878 450.558 138.756 405.275 C151.743 393.623 151.066 363.97 137.148 353.447 L137.148 353.447 Z M296.5 446.5 L280 454 C202 486 150 546 150 623 C150 697 204 747 285 747 C340 747 377 685 377 591 C377 536.75 358.242 486.711 327.426 452.941 C320.055 444.865 306.454 441.975 296.5 446.5 L296.5 446.5 Z " />
<glyph glyph-name="nine" unicode="9" horiz-adv-x="569" d="M41.6822 -244.907 C334.023 -175.884 527 2.2 527 205 C527 388 429 510 283 510 C146 510 54 411 54 262 C54 123 138 31 263 31 C301.775 31 335.786 43.2512 362.786 64.9462 C366.271 67.7465 371.497 60.7273 369.749 56.6124 C309.326 -85.6549 186.912 -191.173 27.0439 -229.076 C22.1519 -230.235 15.1544 -236.156 16.5 -241 C17.9094 -246.074 36.5571 -246.117 41.6822 -244.907 L41.6822 -244.907 Z M411 267 C411 147 357 67 275 67 C211 67 168 143 168 256 C168 389 216 478 288 478 C362 478 411 394 411 267 L411 267 Z " />
<glyph glyph-name="colon" unicode="&#x3a;" horiz-adv-x="135" d="M125 385 C173 385 205 417 205 465 C205 513 173 545 125 545 C77 545 45 513 45 465 C45 417 77 385 125 385 L125 385 Z M125 -5 C173 -5 205 27 205 75 C205 123 173 155 125 155 C77 155 45 123 45 75 C45 27 77 -5 125 -5 L125 -5 Z " />
<glyph glyph-name="semicolon" unicode="&#x3b;" horiz-adv-x="268" d="M125 385 C173 385 205 417 205 465 C205 513 173 545 125 545 C77 545 45 513 45 465 C45 417 77 385 125 385 L125 385 Z M150.452 -2.36965 C151 -8.94215 151 -15.6364 151 -23 C151 -59 123.46 -84.47 80.044 -89.204 C73.4393 -89.9242 65 -96.8561 65 -103.5 C65 -111.465 68.8483 -117.147 76.7942 -116.598 C150.167 -111.532 198 -58.95 198 18 C198 76 169 115 125 115 C89 115 65 91 65 55 C65 19 89 -5 125 -5 C132.364 -5 139.393 -3.32645 145.539 -0.527047 C147.345 0.295274 150.288 -0.392525 150.452 -2.36965 L150.452 -2.36965 Z " />
<glyph glyph-name="equal" unicode="&#x3d;" horiz-adv-x="538" d="M88 200 C88 185.649 99.6488 174 114 174 L442 174 C456.351 174 468 185.649 468 200 C468 214.351 456.351 226 442 226 L114 226 C99.6488 226 88 214.351 88 200 L88 200 Z M88 300 C88 285.649 99.6488 274 114 274 L442 274 C456.351 274 468 285.649 468 300 C468 314.351 456.351 326 442 326 L114 326 C99.6488 326 88 314.351 88 300 L88 300 Z " />
<glyph glyph-name="question" unicode="&#x3f;" horiz-adv-x="295" d="M125 -5 C173 -5 205 27 205 75 C205 123 173 155 125 155 C77 155 45 123 45 75 C45 27 77 -5 125 -5 L125 -5 Z M126.998 240.221 C126.95 245.925 125.975 360 125 360 C225 360 257 391 288 437 C307 465 319 513 319 557 C319 679 249 760 145 760 C80 760 37 726 37 675 C37 641 62 618 99 618 C125 618 161 638 187 638 C246 638 285 600 285 543 C285 532 276 512 263 492 C242 461 215 440 97 440 C96.5479 440 97.1768 440.137 97.4462 439.774 C103.197 432.026 107 240 107 240 C107 240 111.37 240 117 240 C122.52 240 127.045 234.701 126.998 240.221 L126.998 240.221 Z " />
<glyph glyph-name="at" unicode="&#x40;" horiz-adv-x="1178" d="M1028.3 -20.9415 C955.55 -151.263 789.3 -237 605 -237 C329 -237 145 -39 145 259 C145 555 323 752 589 752 C856 752 1034 588 1034 343 C1034 143 964 10 859 10 C785 10 755 86 783 200 L839.782 427.127 C846.86 455.44 827.684 480 798.5 480 L778.562 480 C760.071 480 740.048 464.423 735.5 446.5 L733.394 438.201 C731.461 430.581 718.571 430.014 713.986 436.401 C689.679 470.262 647.625 490 594 490 C407 490 282 369 282 188 C282 78 354 4 463 4 C534.775 4 597.702 29.1831 641.673 71.6882 C649.977 79.7144 671.687 77.1616 675.667 66.3207 C698.132 5.125 754.7 -31 838 -31 C1009 -31 1123 118 1123 342 C1123 607 909 783 589 783 C269 783 56 573 56 258 C56 -51 286 -257 631 -257 C818.15 -257 988.152 -164.945 1066.42 -23.7038 C1071.41 -14.6912 1068.8 -0.76411 1058.5 -0.5 C1049.72 -0.274922 1032.58 -13.2743 1028.3 -20.9415 L1028.3 -20.9415 Z M711.041 347.166 L674 199 C654 120 593 67 522 67 C454 67 408 124 408 209 C408 358 482 457 592 457 C661.35 457 707.686 419.998 713.004 363.997 C713.187 362.069 711.511 349.045 711.041 347.166 L711.041 347.166 Z " />
<glyph glyph-name="A" unicode="A" horiz-adv-x="831" d="M216 125 L248.516 228.909 C255.619 251.608 283.367 272 307.152 272 L461.174 272 C484.736 272 512.49 251.75 519.682 229.313 L556 116 C570 61 543 25 486 25 L471.5 25 C464.6 25 459 19.3996 459 12.5 C459 5.60037 464.6 0 471.5 0 L811.5 0 C818.4 0 824 5.60037 824 12.5 L824 17.5 C824 21.6398 820.64 25 816.5 25 L809 25 C763 25 719 61 698 116 L500.948 705.167 C500.898 705.315 500.009 707.96 499.974 708.112 C499.305 711.012 485.85 769 480 769 L473 769 C470 769 466.558 765.958 466.358 762.965 C464.759 739.006 427.237 717.517 369.83 708.705 C367.051 708.278 365.692 705.693 366.5 703 C366.974 701.419 363.671 684.873 363.154 683.306 C301.769 497.155 240.385 310.103 179 124 C159 64 106 24 46 24 L23.5 24 C16.6004 24 11 18.3996 11 11.5 C11 4.60037 16.6004 -1 23.5 -1 L300.5 -1 C307.4 -1 313 4.60037 313 11.5 C313 18.3996 307.4 24 300.5 24 L286 24 C226 24 197.5 64.5 216.5 124.5 L216 125 Z M297.824 385.709 L327.5 481 C344.837 536.668 420.4 537.06 438.314 481.575 L469.069 386.317 C482.69 344.129 454.933 306 410.601 306 L356.485 306 C312.488 306 284.741 343.702 297.824 385.709 L297.824 385.709 Z " />
<glyph glyph-name="B" unicode="B" horiz-adv-x="729" d="M350 13 L300 13 C283 13 271 44 271 91 L271 344 C271 366.631 289.369 385 312 385 L353 385 C466 376 540 307 540 205 C540 49 464 13 350 13 L350 13 Z M391 0 C570 0 689 39 689 205 C689 290 635.535 355.493 547.643 387.353 C536.886 391.252 534.474 413.737 544.802 418.662 C612.524 450.962 652 504.175 652 571 C652 678 596 750 356 750 L63.5 750 C56.6004 750 51 744.4 51 737.5 C51 730.6 56.6004 725 63.5 725 L86 725 C116 725 136 705 136 675 L136 75 C136 45 116 25 86 25 L63.5 25 C56.6004 25 51 19.3996 51 12.5 C51 5.60037 56.6004 0 63.5 0 L391 0 L391 0 Z M358 409 L314.5 409 C290.489 409 271 428.489 271 452.5 L271 707.5 C271 716.062 262.609 723.006 271.171 723 C273.637 722.998 302 722.957 302 722 C476 722 517 656 517 557 C517 468 453 409 358 409 L358 409 Z " />
<glyph glyph-name="C" unicode="C" horiz-adv-x="769" d="M729 6.5 L729 220 C729 226.072 724.072 231 718 231 C712.363 231 705.008 226.021 702.915 220.787 L697 206 C675 148 634 92 591 63 C548 36 499 21 440 21 C289 21 188 163 188 375 C188 586 293 726 451 726 C504 726 545 715 580 695 C625 670 672 609 696 544 L701.915 529.213 C704.008 523.979 711.363 519 717 519 C723.072 519 728 523.928 728 530 L728 741.5 C728 746.192 724.192 750 719.5 750 C714.963 750 709.992 746.168 708.837 741.78 L706 731 C699 701 672 695 637 716 C590 744 529 760 438 760 C199 760 39 606 39 375 C39 144 195 -10 428 -10 C517 -10 583 7 635 37 C670 56 698 49 705 17 L707.696 6.21635 C708.93 1.28109 714.413 -3 719.5 -3 C724.744 -3 729 1.25628 729 6.5 L729 6.5 Z M707 134 L707 134 L707 134 L707 134 Z " />
<glyph glyph-name="D" unicode="D" horiz-adv-x="888" d="M311 27 C275 27 271 48 271 80 L271 717 C271 720.312 273.688 723 277 723 L283 723 C548 723 684 584 684 375 C684 145 535 27 311 27 L311 27 Z M61 730 L86 730 C116 730 136 710 136 680 L136 70 C136 40 116 20 86 20 L61 20 C55.4803 20 51 15.5197 51 10 C51 4.4803 55.4803 0 61 0 L351 0 C640 0 833 128 833 375 C833 600 683 750 391 750 L61 750 C55.4803 750 51 745.52 51 740 C51 734.48 55.4803 730 61 730 L61 730 Z " />
<glyph glyph-name="E" unicode="E" horiz-adv-x="678" d="M41 730 L66 730 C108 730 136 702 136 660 L136 90 C136 48 108 20 66 20 L41 20 C35.4803 20 31 15.5197 31 10 C31 4.4803 35.4803 0 41 0 L598.841 0 C602.705 0 606.69 3.22198 607.5 7 L609 14 C616.4 52.85 625.511 103.679 632.376 144.326 C633.149 148.897 630.136 154 625.5 154 C621.144 154 615.461 150.153 613.843 146.108 L609 134 C583 71 524 29 461 29 L351 29 C279 29 271 49 271 80 L271 323.56 C271 357.473 298.527 385 332.44 385 L397 385 C445 385 484 353 494 305 L503.333 258.335 C504.235 253.824 508.899 250 513.5 250 C518.192 250 522 253.808 522 258.5 L522 543.5 C522 548.192 518.192 552 513.5 552 C508.899 552 504.235 548.176 503.333 543.665 L494 497 C484 449 445 417 397 417 L332.44 417 C298.527 417 271 444.527 271 478.44 L271 659.56 C271 693.473 298.527 721 332.44 721 L460 721 C508 721 551 689 567 641 L582.356 594.078 C583.743 589.841 589.041 586 593.5 586 C598.17 586 601.756 588.218 601.232 592.859 C596.254 636.962 589.2 693.25 583.5 736 L582.25 743 C581.571 746.804 577.753 750 573.889 750 L41 750 C35.4803 750 31 745.52 31 740 C31 734.48 35.4803 730 41 730 L41 730 Z " />
<glyph glyph-name="F" unicode="F" horiz-adv-x="653" d="M41 730 L66 730 C108 730 136 702 136 660 L136 90 C136 48 108 20 66 20 L41 20 C35.4803 20 31 15.5197 31 10 C31 4.4803 35.4803 0 41 0 L366 0 C371.52 0 376 4.4803 376 10 C376 15.5197 371.52 20 366 20 L341 20 C299 20 271 48 271 90 L271 327 C271 359.014 296.986 385 329 385 L387 385 C435 385 474 353 484 305 L493.333 258.335 C494.235 253.824 498.899 250 503.5 250 C508.192 250 512 253.808 512 258.5 L512 543.5 C512 548.192 508.192 552 503.5 552 C498.899 552 494.235 548.176 493.333 543.665 L484 497 C474 449 435 417 387 417 L329 417 C296.986 417 271 442.986 271 475 L271 665.56 C271 699.473 298.527 727 332.44 727 L459 727 C507 727 550 695 566 647 L581.356 600.078 C582.743 595.841 588.041 592 592.5 592 C597.178 592 600.342 597.76 599.796 602.406 C594.787 644.988 587.615 698.385 583 739 L582 744.5 C581.457 747.487 578.446 750 575.41 750 L41 750 C35.4803 750 31 745.52 31 740 C31 734.48 35.4803 730 41 730 L41 730 Z " />
<glyph glyph-name="G" unicode="G" horiz-adv-x="848" d="M709.964 742.263 L707 731 C700 701 673 695 638 716 C591 744 530 760 439 760 C200 760 40 606 40 375 C40 144 200 -10 440 -10 C584.4 -10 683.675 14.3675 767.833 51.9566 C773.473 54.4758 779.035 62.3669 776.5 68 C774.062 73.4168 767.167 75.6917 761.756 73.2393 C747.295 66.6837 732.3 60.5869 716.461 54.949 C710.13 52.6955 705 56.9293 705 63.6491 L705 215 C705 266 737 300 786 300 L793 300 C796.864 300 800 303.136 800 307 L800 312.5 C800 319.4 794.4 325 787.5 325 L486.5 325 C479.6 325 474 319.4 474 312.5 L474 307 C474 303.136 477.136 300 481 300 L488 300 C537 300 569 266 569 215 C569.925 215 569.994 144.839 570 127.191 C570 126.877 569.452 119.48 569.41 119.168 C560.889 56.9262 519.5 17 461 17 C297 17 188 160 188 375 C188 586 293 726 451 726 C504 726 545 715 580 695 C625 670 672 609 696 544 L701.915 529.213 C704.008 523.979 711.363 519 717 519 C723.072 519 728 523.928 728 530 L728 742 C728 746.416 724.416 750 720 750 C715.73 750 711.051 746.393 709.964 742.263 L709.964 742.263 Z " />
<glyph glyph-name="H" unicode="H" horiz-adv-x="896" d="M826 20 L801 20 C771 20 751 40 751 70 L751 680 C751 710 771 730 801 730 L826 730 C831.52 730 836 734.48 836 740 C836 745.52 831.52 750 826 750 L541 750 C535.48 750 531 745.52 531 740 C531 734.48 535.48 730 541 730 L566 730 C596 730 616 710 616 680 L616 479.44 C616 445.527 588.473 418 554.56 418 L368.44 418 C334.527 418 307 445.527 307 479.44 L307 680 C307 710 327 730 357 730 L382 730 C387.52 730 392 734.48 392 740 C392 745.52 387.52 750 382 750 L97 750 C91.4803 750 87 745.52 87 740 C87 734.48 91.4803 730 97 730 L122 730 C152 730 172 710 172 680 L172 70 C172 40 152 20 122 20 L97 20 C91.4803 20 87 15.5197 87 10 C87 4.4803 91.4803 0 97 0 L382 0 C387.52 0 392 4.4803 392 10 C392 15.5197 387.52 20 382 20 L357 20 C327 20 307 40 307 70 L307 321.56 C307 355.473 334.527 383 368.44 383 L554.56 383 C588.473 383 616 355.473 616 321.56 L616 70 C616 40 596 20 566 20 L541 20 C535.48 20 531 15.5197 531 10 C531 4.4803 535.48 0 541 0 L826 0 C831.52 0 836 4.4803 836 10 C836 15.5197 831.52 20 826 20 L826 20 Z " />
<glyph glyph-name="I" unicode="I" horiz-adv-x="403" d="M333 20 L308 20 C278 20 258 40 258 70 L258 680 C258 710 278 730 308 730 L333 730 C338.52 730 343 734.48 343 740 C343 745.52 338.52 750 333 750 L47 750 C41.4803 750 37 745.52 37 740 C37 734.48 41.4803 730 47 730 L72 730 C102 730 122 710 122 680 L122 70 C122 40 102 20 72 20 L47 20 C41.4803 20 37 15.5197 37 10 C37 4.4803 41.4803 0 47 0 L333 0 C338.52 0 343 4.4803 343 10 C343 15.5197 338.52 20 333 20 L333 20 Z " />
<glyph glyph-name="J" unicode="J" horiz-adv-x="403" d="M333 750 L47 750 C41.4803 750 37 745.52 37 740 C37 734.48 41.4803 730 47 730 L72 730 C102 730 122 710 122 680 L122 -106 C122 -161 69 -172 30 -172 C-37 -172 -4 -64 -71 -64 C-108 -64 -132 -88 -132 -125 C-132 -182 -80 -220 -3 -220 C107 -220 258 -161 258 150 L258 680 C258 710 278 730 308 730 L333 730 C338.52 730 343 734.48 343 740 C343 745.52 338.52 750 333 750 L333 750 Z " />
<glyph glyph-name="K" unicode="K" horiz-adv-x="824" d="M345.988 750 L61 750 C55.4803 750 51 745.52 51 740 C51 734.48 55.4803 730 61 730 L86 730 C116 730 136 710 136 680 L136 70 C136 40 116 20 86 20 L61 20 C55.4803 20 51 15.5197 51 10 C51 4.4803 55.4803 0 61 0 L346 0 C351.52 0 356 4.4803 356 10 C356 15.5197 351.52 20 346 20 L321 20 C291 20 271 40 271 70 L271 222.5 C271 274.215 332.92 295.48 364.693 254.676 L544.551 23.6926 C552.586 13.3742 579.951 0 593.028 0 L798 0 C803.52 0 808 4.4803 808 10 C808 15.5197 803.52 20 798 20 L773 20 C743 20 708 40 684 70 L405.121 423.367 C389.935 442.61 392.004 476.554 407.894 495.22 C456.331 552.119 504.325 608.9 553 665 C586 704 634 730 673 730 L703 730 C708.52 730 713 734.48 713 740 C713 745.52 708.52 750 703 750 L426 750 C420.48 750 416 745.52 416 740 C416 734.48 420.48 730 426 730 L455 730 C515 730 523 690 475 630 L366.98 494.31 C334.328 453.294 272 475.074 272 527.5 L272 680 C272 710 292 730 322 730 L346.988 730 C352.507 730 356.776 734.487 356.5 740 C356.224 745.513 351.507 750 345.988 750 L345.988 750 Z " />
<glyph glyph-name="L" unicode="L" horiz-adv-x="668" d="M333 750 L47 750 C41.4803 750 37 745.52 37 740 C37 734.48 41.4803 730 47 730 L72 730 C102 730 122 710 122 680 L122 70 C122 40 102 20 72 20 L47 20 C41.4803 20 37 15.5197 37 10 C37 4.4803 41.4803 0 47 0 L587.299 0 C590.335 0 593.701 2.57114 594.5 5.5 L595.214 8.11842 C595.256 8.27046 596.518 14.0257 596.544 14.181 C603.144 52.6729 612.169 102.482 618.9 141.586 C619.686 146.149 616.13 148 611.5 148 C607.144 148 601.461 144.153 599.843 140.108 L595 128 C569 65 510 23 447 23 L338 23 C266 23 258 46 258 80 L258 680 C258 710 278 730 308 730 L333 730 C338.52 730 343 734.48 343 740 C343 745.52 338.52 750 333 750 L333 750 Z " />
<glyph glyph-name="M" unicode="M" horiz-adv-x="931" d="M887 750 L727.602 750 C704.194 750 676.435 729.848 669.184 707.592 L551.607 346.688 C532.801 288.96 455.869 287.82 435.361 344.966 L304.602 709.314 C297.016 730.451 269.231 750 246.773 750 L61 750 C55.4803 750 51 745.52 51 740 C51 734.48 55.4803 730 61 730 L86 730 C106.714 730 127.429 720.389 141.886 704.579 C146.357 699.689 149.698 685.022 149.477 678.4 C142.699 475.601 136.825 272.825 130 71 C129 41 109 21 79 21 L54 21 C48.4803 21 44 16.5197 44 11 C44 5.4803 48.4803 1 54 1 L251 1 C256.52 1 261 5.4803 261 11 C261 16.5197 256.52 21 251 21 L226 21 C196 21 177 41 177 71 L180.5 344 C181.263 403.495 265.782 419.761 288.572 364.798 L432.489 17.7036 C435.809 9.69669 447.332 2 456 2 L470.45 2 C471.83 2 473.229 3.14687 473.5 4.5 C473.537 4.68308 474.767 9.23496 474.827 9.41156 L656.141 537.957 C661.825 554.526 687.774 545.836 688.181 528.324 C691.719 376.311 695.7 223.975 699 73 C700 43 681 23 651 23 L626 23 C620.48 23 616 18.5197 616 13 C616 7.4803 620.48 3 626 3 L910 3 C915.52 3 920 7.4803 920 13 C920 18.5197 915.52 23 910 23 L885 23 C855 23 835 43 834 73 L813.116 685.593 C813.095 686.217 813.429 692.877 813.528 693.493 C817.266 716.941 835.647 732 862 732 L887 732 C891.968 732 896 736.032 896 741 C896 745.968 891.968 750 887 750 L887 750 Z " />
<glyph glyph-name="N" unicode="N" horiz-adv-x="800" d="M-24.4881 730 L0 730 C27 730 59 714 82 689 L123.169 635.633 C127.505 630.012 135.975 605.092 135.962 597.993 L135 71 C135 41 115 21 85 21 L60 21 C54.4803 21 50 16.5197 50 11 C50 5.4803 54.4803 1 60 1 L250 1 C255.52 1 260 5.4803 260 11 C260 16.5197 255.52 21 250 21 L225 21 C195 21 175 41 175 71 L172.721 453.88 C172.478 494.688 225.127 506.897 250.225 474.72 C369.425 321.895 488.625 168.959 607.825 15.3981 C611.434 10.749 626.615 1 632.5 1 C639.951 1 646.08 7.04853 646.178 14.4988 L655 685 C657 713 677 731 706 731 L731 731 C736.52 731 741 735.48 741 741 C741 746.52 736.52 751 731 751 L541 751 C535.48 751 531 746.52 531 741 C531 735.48 535.48 731 541 731 L566 731 C596 731 616 711 616 681 L617.51 335.134 C617.677 296.97 568.732 285.424 545.112 315.4 C437.634 451.8 330.652 588.2 223.7 724.6 C215.686 734.82 186.087 751 173.1 751 L-23.4881 751 C-29.2838 751 -34.2243 746.289 -34.5 740.5 C-34.7757 734.711 -30.2838 730 -24.4881 730 L-24.4881 730 Z " />
<glyph glyph-name="O" unicode="O" horiz-adv-x="889" d="M187 375 C187 586 283 726 426 726 C583 726 687 586 687 375 C687 164 584 24 429 24 C284 24 187 164 187 375 L187 375 Z M40 375 C40 144 193 -10 422 -10 C669 -10 834 144 834 375 C834 606 673 760 432 760 C197 760 40 606 40 375 L40 375 Z " />
<glyph glyph-name="P" unicode="P" horiz-adv-x="672" d="M380 20 L355 20 C325 20 305 40 305 70 L305 311 C305 324.799 316.201 336 330 336 L355 336 C533 336 652 398 652 537 C652 665 553 750 405 750 L95 750 C89.4803 750 85 745.52 85 740 C85 734.48 89.4803 730 95 730 L120 730 C150 730 170 710 170 680 L170 70 C170 40 150 20 120 20 L95 20 C89.4803 20 85 15.5197 85 10 C85 4.4803 89.4803 0 95 0 L380 0 C385.52 0 390 4.4803 390 10 C390 15.5197 385.52 20 380 20 L380 20 Z M305 390 L305 694 C305 712.215 319.785 727 338 727 L371 727 C463 727 525 660 525 560 C525 425 457 365 355 365 L330 365 C316.201 365 305 376.201 305 390 L305 390 Z " />
<glyph glyph-name="Q" unicode="Q" horiz-adv-x="884" d="M1179 -31 C1176.59 -28.1036 1170.9 -27.535 1167.72 -29.5736 C1123.43 -58.0475 993.8 -77 838 -77 C690.95 -77 549.68 -58.215 443.054 -26.7862 C433.849 -24.073 438.737 -10.1895 448.327 -9.8318 C681.699 -1.12813 834 154.85 834 375 C834 606 673 760 432 760 C197 760 40 606 40 375 C40 230 100 115 201 50 C409 -94 656 -190 817 -190 C924.25 -190 1067.15 -132.012 1175.25 -43.8414 C1178.65 -41.0706 1181.81 -34.3679 1179 -31 L1179 -31 Z M186 375 C186 586 282 726 425 726 C582 726 686 586 686 375 C686 154 568 6 390 6 C268 6 186 154 186 375 L186 375 Z " />
<glyph glyph-name="R" unicode="R" horiz-adv-x="831" d="M61.5119 730 L86 730 C116 730 136 710 136 680 L136 70 C136 40 116 20 86 20 L61 20 C55.4803 20 51 15.5197 51 10 C51 4.4803 55.4803 0 61 0 L346 0 C351.52 0 356 4.4803 356 10 C356 15.5197 351.52 20 346 20 L321 20 C291 20 271 40 271 70 L271 310.5 C271 330.095 286.905 346 306.5 346 L318.838 346 C329.061 346 347.784 337.076 353.537 328.625 C385.406 281.813 451.25 192.125 537 81 C594.525 5.925 606.42 1.19625 805.327 1.00673 C812.785 0.999628 821 7.04131 821 14.5 C821 21.9195 816.826 27.9889 809.406 28.0209 C739.415 28.3225 733.05 32.55 696 81 C609.3 194.05 540.662 283.98 500.528 336.665 C492.186 347.615 498.319 364.926 511.406 369.195 C595.97 396.78 647 451.5 647 537 C647 665 527 751 348 751 L62.5119 751 C56.7162 751 51.7757 746.289 51.5 740.5 C51.2243 734.711 55.7162 730 61.5119 730 L61.5119 730 Z M272 419 L272 706 C272 715.935 280.065 724 290 724 L308 724 C422 724 498 660 498 564 C498 438 438 381 348 381 L310 381 C289.025 381 272 398.025 272 419 L272 419 Z " />
<glyph glyph-name="S" unicode="S" horiz-adv-x="555" d="M66.5444 6.88058 L69 21 C75 51 103 57 139 36 C182 6 232 -11 283 -11 C422 -11 515 76 515 206 C515 307 450 398 323 444 C217 482 163 542 163 602 C163 676 203 725 264 725 C283 725 302 723 320 718 C372 705 423 647 447 573 L453.3 555.359 C455.223 549.974 462.282 545 468 545 C474.072 545 479 549.928 479 556 L479 746.5 C479 751.192 475.192 755 470.5 755 L470.382 755 C465.966 755 460.817 751.215 459.5 747 L457 739 C451 716 426 712 395 728 C358 748 313 759 265 759 C141 759 59 675 59 550 C59 443 122 348 243 304 C352 264 408 213 408 167 C408 86 358 32 284 32 C250 32 217 41 187 57 C144 83 102 144 79 214 L73.4086 232.017 C71.6117 237.807 64.5624 243 58.5 243 C52.1523 243 47 237.848 47 231.5 L47 6.01388 C47 1.04615 51.0399 -2.77556 56 -2.5 C60.8395 -2.23114 65.714 2.10528 66.5444 6.88058 L66.5444 6.88058 Z " />
<glyph glyph-name="T" unicode="T" horiz-adv-x="775" d="M244.5 0 L530 0 C535.52 0 540 4.4803 540 10 C540 15.5197 535.52 20 530 20 L505 20 C475 20 455 40 455 70 L455 654.56 C455 688.473 482.527 716 516.44 716 L602 716 C653 716 709 682 741 631 L761.495 598.208 C763.604 594.834 770.521 591 774.5 591 C778.862 591 781.949 593.657 780.347 597.714 C763.757 639.709 743.128 692.205 727 733 C719.828 750.034 711.851 771.088 704.513 788.954 C703.338 791.815 699.093 795 696 795 L694.031 795 C692.099 795 688.958 793.177 688 791.5 L686 788 C671 765 628 750 579 750 L196 750 C147 750 104 765 89 788 L87 791.5 C86.0415 793.177 82.9008 795 80.9689 795 L79 795 C75.8882 795 71.8329 791.666 70.7955 788.732 C64.3341 770.459 57.069 750.828 49 732 C32.4359 690.103 11.1249 635.863 -5.68261 593.333 C-7.28605 589.276 -2.86273 590 1.5 590 C5.47859 590 12.3963 593.834 14.505 597.208 L35 630 C67 681 123 715 174 715 L258.56 715 C292.473 715 320 687.473 320 653.56 L320 69 C320 39 300 19 270 19 L244.5 19 C239.256 19 235 14.7437 235 9.5 C235 4.25628 239.256 0 244.5 0 L244.5 0 Z " />
<glyph glyph-name="U" unicode="U" horiz-adv-x="812" d="M771.831 57.3851 L747 51 C717 43 697 58 697 88 L697 688.56 C697 722.473 669.473 750 635.56 750 L487 750 C481.48 750 477 745.52 477 740 C477 734.48 481.48 730 487 730 L512 730 C542 730 562 710 562 680 L562 215.63 C562 211.577 558.369 194.51 556.447 190.941 C519.392 122.125 447.05 77 372 77 C290 77 236 134 236 220 L236 688.56 C236 722.473 208.473 750 174.56 750 L26 750 C20.4803 750 16 745.52 16 740 C16 734.48 20.4803 730 26 730 L51 730 C81 730 101 710 101 680 L101 220 C101 82 188 -10 318 -10 C403.8 -10 485.516 30.8375 535.073 96.2285 C541.667 104.929 562 101.805 562 90.8876 L562 34 C562 15.233 577.233 0 596 0 L622.227 0 C623.296 0 636.493 1.66969 637.528 1.93579 L665 9 L771.829 36.3921 C777.267 37.7865 782 43.8859 782 49.5 C782 55.1131 777.267 58.783 771.831 57.3851 L771.831 57.3851 Z " />
<glyph glyph-name="V" unicode="V" horiz-adv-x="848" d="M117 625 C209.625 418.3 303.201 212.551 394.946 5.89816 C397.708 -0.323328 408.693 -10 415.5 -10 C422.385 -10 431.53 -3.88798 434.163 2.47352 L696 635 C722 689 766 724 809 724 L816 724 C819.864 724 823 727.136 823 731 L823 736.5 C823 743.4 817.4 749 810.5 749 L550.5 749 C543.6 749 538 743.4 538 736.5 C538 729.6 543.6 724 550.5 724 L579 724 C638 724 663 686 643 628 L438.346 85.3701 C438.274 85.1792 437.929 85.3088 438 85.5 L465.113 158.179 C468.582 167.476 468.061 195.029 463.943 204.057 C400.205 343.798 335.7 484.35 273 624 C246 684 267 724 327 724 L339 724 C345.624 724 351 729.376 351 736 L351 736.5 C351 743.4 345.4 749 338.5 749 L8.5 749 C1.60037 749 -4 743.4 -4 736.5 L-4 729.5 C-4 726.464 -1.53584 724 1.5 724 L7 724 C45 724 89.5 684.5 116.5 624.5 L117 625 Z " />
<glyph glyph-name="W" unicode="W" horiz-adv-x="1149" d="M499 645 C517.308 603.154 536.375 560.548 554.878 518.507 C558.425 510.447 558.292 485.917 555.5 477.565 L502.794 319.915 C483.866 263.297 409.951 261.015 387.567 316.358 L252.046 651.413 C251.952 651.646 250.152 656.954 250.087 657.197 C239.016 698.382 259.125 725 303 725 L313 725 C318.52 725 323 729.48 323 735 L323 737.5 C323 744.4 317.4 750 310.5 750 L12.5 750 C5.60037 750 0 744.4 0 737.5 L0 730.5 C0 727.464 2.46416 725 5.5 725 L11 725 C49 725 88 693 109 645 C200.65 432.45 292.3 218.949 384.877 6.35184 C388.313 -1.53829 400.394 -10 409 -10 L423.45 -10 C424.83 -10 426.229 -8.85313 426.5 -7.5 C426.54 -7.29802 427.791 -2.794 427.861 -2.60011 L536.222 299.601 C555.951 354.62 626.51 357.208 650.216 303.781 L782.105 6.53904 C785.584 -1.30094 797.423 -9 806 -9 L823 -9 L823 -4 L1016 652 C1032 696 1072 725 1118 725 L1125.5 725 C1129.64 725 1133 728.36 1133 732.5 L1133 737.5 C1133 744.4 1127.4 750 1120.5 750 L859.5 750 C852.6 750 847 744.4 847 737.5 C847 730.6 852.6 725 859.5 725 L905 725 C952 725 976 695 965 649 L888.032 360.526 C872.398 301.93 795.859 296.513 772.128 352.323 L644.226 653.117 C644.109 653.391 642.164 658.837 642.085 659.124 C630.966 699.383 650.125 726 694 726 L720.5 726 C727.4 726 733 731.6 733 738.5 C733 745.4 727.4 751 720.5 751 L397.5 751 C390.6 751 385 745.4 385 738.5 L385 732 C385 728.688 387.688 726 391 726 L397 726 C438 726 478.5 693.5 499.5 645.5 L499 645 Z " />
<glyph glyph-name="X" unicode="X" horiz-adv-x="825" d="M801.95 750 L557 750 C551.48 750 547 745.52 547 740 C547 734.48 551.48 730 557 730 L602 730 C634 730 641 710 620 679 L494.902 508.669 C467.974 472.005 419.563 473.082 394.294 510.908 L282 679 C263 710 271 730 303 730 L330 730 C335.52 730 340 734.48 340 740 C340 745.52 335.52 750 330 750 L28 750 C22.4803 750 18 745.52 18 740 L18 737.5 C18 733.36 21.3602 730 25.5 730 L33 730 C66 730 103 708 125 675 L322.841 378.238 C335.379 359.432 335.463 326.676 321.916 308.584 C263.469 230.531 205.5 152 146 75 C121 42 83 20 50 20 L20 20 C14.4803 20 10 15.5197 10 10 C10 4.4803 14.4803 0 20 0 L260 0 C265.52 0 270 4.4803 270 10 C270 15.5197 265.52 20 260 20 L214 20 C183 20 175 39 193 68 L313.474 241.007 C339.944 279.018 389.322 278.517 415.015 239.977 L525 75 C547 42 540 20 507 20 L480 20 C474.48 20 470 15.5197 470 10 C470 4.4803 474.48 0 480 0 L783 0 C788.52 0 793 4.4803 793 10 L793 12.5 C793 16.6398 789.64 20 785.5 20 L778 20 C745 20 708 42 686 75 L486.082 374.433 C472.868 394.225 474.426 428.629 489.377 447.145 L679 682 C706 711 743 730 774 730 L803.95 730 C809.47 730 813.549 734.508 813 740 C812.451 745.492 807.47 750 801.95 750 L801.95 750 Z " />
<glyph glyph-name="Y" unicode="Y" horiz-adv-x="808" d="M250.513 0 L576 0 C581.52 0 586 4.4803 586 10 C586 15.5197 581.52 20 576 20 L551 20 C509 20 481 48 481 90 L481 304.197 C481 308.401 488.723 334.025 490.75 337.707 C552.502 449.897 614.3 562.9 677 675 C695 708 729 730 762 730 L792 730 C797.52 730 802 734.48 802 740 C802 745.52 797.52 750 792 750 L535 750 C529.48 750 525 745.52 525 740 C525 734.48 529.48 730 535 730 L586 730 C616 730 629 711 618 682 L493.446 417.219 C481.02 390.804 447.211 391.256 431.224 415.681 C374.911 501.719 318.275 588.2 263 674 C242 707 249 729 282 729 L309 729 C314.52 729 319 733.48 319 739 C319 744.52 314.52 749 309 749 L7 749 C1.4803 749 -3 744.52 -3 739 L-3 736.5 C-3 732.36 0.360225 729 4.5 729 L12 729 C45 729 82 707 104 674 L334.572 330.534 C337.78 325.755 345 302.046 345 296.29 L345 89 C345 47 317 19 275 19 L249.513 19 C244.269 19 240.224 14.7365 240.5 9.5 C240.776 4.26353 245.269 0 250.513 0 L250.513 0 Z " />
<glyph glyph-name="Z" unicode="Z" horiz-adv-x="652" d="M75.3351 595.173 L79 608 C98 670 153 713 215 715 L350.538 717.711 C403.187 718.764 431.861 667.807 403.635 623.351 L32.2361 38.3969 C30.0952 35.025 25 17.4941 25 13.5 C25 6.0484 31.0484 0 38.5 0 L585.012 0 C596.327 0 608.074 9.44776 610.5 20.5 L615 41 C615 41 631.257 114.584 640.818 156.488 C641.833 160.936 639.063 166 634.5 166 C630.264 166 624.167 162.15 622.346 158.326 L616 145 C590.65 87.475 537.732 47.0613 480.417 38.5885 C480.164 38.5511 473.36 37.9369 473.105 37.9308 L296.233 33.7052 C243.842 32.4536 214.959 82.7928 242.479 127.391 L602.911 711.511 C604.966 714.841 610 732.587 610 736.5 C610 743.952 603.952 750 596.5 750 L89.0591 750 C78.5717 750 69.3254 741.455 68.5 731 L67 712 C67 712 61.0106 638.416 56.9464 596.512 C56.4981 591.89 59.856 587 64.5 587 C69.0112 587 74.0958 590.835 75.3351 595.173 L75.3351 595.173 Z " />
<glyph glyph-name="bracketleft" unicode="&#x5b;" horiz-adv-x="302" d="M203.44 716 L335 716 C344.383 716 352 723.617 352 733 C352 742.383 344.383 750 335 750 L163.44 750 C129.527 750 102 722.473 102 688.56 L102 -133.56 C102 -167.473 129.527 -195 163.44 -195 L335 -195 C344.383 -195 352 -187.383 352 -178 C352 -168.617 344.383 -161 335 -161 L203.44 -161 C169.527 -161 142 -133.473 142 -99.56 L142 654.56 C142 688.473 169.527 716 203.44 716 L203.44 716 Z " />
<glyph glyph-name="backslash" unicode="&#x5c;" horiz-adv-x="356" d="M27.9451 737.487 L268.055 -47.487 C273.304 -64.6483 294.054 -80 312 -80 C329.946 -80 341.304 -64.6483 336.055 -47.487 L95.9451 737.487 C90.6958 754.648 69.9462 770 52 770 C34.0538 770 22.6958 754.648 27.9451 737.487 L27.9451 737.487 Z " />
<glyph glyph-name="bracketright" unicode="&#x5d;" horiz-adv-x="305" d="M155 654.56 L155 -99.56 C155 -133.473 127.473 -161 93.56 -161 L-38 -161 C-47.3835 -161 -55 -168.617 -55 -178 C-55 -187.383 -47.3835 -195 -38 -195 L133.56 -195 C167.473 -195 195 -167.473 195 -133.56 L195 688.56 C195 722.473 167.473 750 133.56 750 L-38 750 C-47.3835 750 -55 742.383 -55 733 C-55 723.617 -47.3835 716 -38 716 L93.56 716 C127.473 716 155 688.473 155 654.56 L155 654.56 Z " />
<glyph glyph-name="asciicircum" unicode="&#x5e;" horiz-adv-x="340" d="M211 746 C203 758 183 787 170 787 C158 787 138 758 130 746 L21.3526 576.358 C18.4289 571.793 19.4033 565.05 23.5 561.5 C27.5888 557.956 34.4534 557.907 38.5929 561.391 L130.435 638.697 C151.953 656.81 188.047 656.81 209.565 638.697 L301.407 561.391 C305.547 557.907 312.411 557.956 316.5 561.5 C320.594 565.048 321.585 571.805 318.681 576.379 L211 746 L211 746 Z " />
<glyph glyph-name="underscore" unicode="&#x5f;" horiz-adv-x="455" d="M5 -82 C5 -99.663 19.337 -114 37 -114 L418 -114 C435.663 -114 450 -99.663 450 -82 C450 -64.337 435.663 -50 418 -50 L37 -50 C19.337 -50 5 -64.337 5 -82 L5 -82 Z " />
<glyph glyph-name="grave" unicode="&#x60;" horiz-adv-x="340" d="M-33 738 C-33 730 -9 708 27 679 L162.796 567.723 C167.302 564.03 174.38 564.38 178.5 568.5 C182.572 572.572 183.246 579.99 179.974 584.729 L79 731 C53 770 32 796 25 796 C-6 796 -33 769 -33 738 L-33 738 Z " />
<glyph glyph-name="a" unicode="a" horiz-adv-x="514" d="M515.5 127 C511.361 128.948 506.005 125.855 504.661 121.482 C496.435 94.7186 476.231 77 452 77 C421 77 400 94 400 120 L400 353 C400 461 342 510 256 510 C137 510 57 414 57 360 C57 312 86 280 129 280 C163 280 185 313 185 337 C185 356 165 377 165 399 C165 422 191 463 229 463 C263 463 285 442 285 394 L285 309.345 C285 285.768 264.784 257.804 242.329 250.618 C77.2144 197.779 37 169.775 37 93 C37 31 82 -11 149 -11 C181.4 -11 221.9 9.25 272.687 61.414 C280.148 69.0775 295.004 63.5683 299.945 54.0822 C319.54 16.4606 357.325 -6 406 -6 C461.1 -6 505.821 40.4787 522.159 111.144 C523.358 116.329 520.315 124.734 515.5 127 L515.5 127 Z M286 180.013 L286 119 L286 111.5 C286 108.648 282.88 100.445 280.967 98.3289 C249.52 63.5375 226.15 50 210 50 C176 50 153 72 153 105 C153 167.4 169.32 192.36 230.632 216.744 C259.658 228.288 286 211.251 286 180.013 L286 180.013 Z " />
<glyph glyph-name="b" unicode="b" horiz-adv-x="611" d="M15.9925 705.7 L30 705 C57 704 75 685 75 658 L75 3.5 C75 1.5681 76.5681 0 78.5 0 C80.1414 0 82.9801 1.57913 83.8458 2.97374 L102.151 32.4648 C109.731 44.678 127.416 48.7426 138.987 40.2137 C181.625 8.785 240.7 -10 307 -10 C462 -10 566 95 566 253 C566 404 472 505 332 505 C285.25 505 239.222 489.828 206.2 465.01 C199.373 459.879 190 465.794 190 474.335 L190 721.5 C190 737.231 177.231 750 161.5 750 L140.365 750 C139.374 750 125.445 748.148 124.483 747.91 C90.6508 739.545 49.0095 728.519 15.637 719.522 C12.5476 718.689 10 715.2 10 712 C10 708.692 12.689 705.866 15.9925 705.7 L15.9925 705.7 Z M190 122.929 L190 399.322 C190 408.62 196.665 423.633 204.066 429.261 C227.539 447.11 256.95 458 285 458 C376 458 437 371 437 240 C437 106 387 16 313 16 C263.975 16 219.656 48.5138 195.08 98.5036 C193.546 101.626 190 119.45 190 122.929 L190 122.929 Z " />
<glyph glyph-name="c" unicode="c" horiz-adv-x="537" d="M499 131.5 C494.923 133.284 489.853 132.282 487.741 128.364 C465.48 87.075 412.85 60 353 60 C241 60 167 147 167 277 C167 401 229 484 322 484 C347 484 375 452 392 405 C404 371 428 348 450 348 C497 348 519 371 507 405 C484 468 413 510 329 510 C159 510 45 400 45 234 C45 88 152 -10 313 -10 C391 -10 466.148 42.2844 504.151 121.828 C506.283 126.291 503.531 129.518 499 131.5 L499 131.5 Z " />
<glyph glyph-name="d" unicode="d" horiz-adv-x="608" d="M333.993 706.7 L348 706 C375 705 393 686 393 659 L393 508.609 C393 498.848 382.339 492.687 372.948 495.35 C340.477 504.555 303.6 510 264 510 C119 510 44 406 44 249 C44 97 124 -5 243 -5 C290.85 -5 338.7 12.6962 373.074 41.3506 C379.784 46.9442 393 43.4869 393 34.7512 L393 28.5011 C393 12.77 405.769 -0.112013 421.5 -0.25 L441.313 -0.423801 C442.604 -0.435124 458.914 1.96949 460.159 2.31133 C499.379 13.0824 547.603 25.4612 586.278 36.1348 C591.422 37.5545 593 42.6634 593 48 C593 53.3458 588.492 56.8409 583.315 55.5096 L558 49 C528 41 508 56 508 86 L508 721.496 C508 737.227 495.229 750.224 479.5 750.5 L459.704 750.847 C458.409 750.87 443.511 748.991 442.259 748.659 C407.525 739.429 364.613 728.837 330.869 719.773 C327.776 718.942 328 716.204 328 713 C328 709.692 330.689 706.866 333.993 706.7 L333.993 706.7 Z M393 365.721 L393 122.552 C393 112.603 386.691 93.1275 379.651 86.0971 C353.135 59.6175 319.9 43 291 43 C214 43 163 138 163 281 C163 399 202 477 279 477 C326.5 477 371.293 434.583 390.228 383.185 C390.951 381.223 393 367.812 393 365.721 L393 365.721 Z " />
<glyph glyph-name="e" unicode="e" horiz-adv-x="548" d="M179.618 340 L456.016 340 C495.923 340 516.975 360.739 501.19 397.391 C466.762 477.33 395.75 510 305 510 C149 510 45 431 45 228 C45 85 140 -10 282 -10 C382.425 -10 469.541 44.1856 502.567 125.678 C504.122 129.515 501.98 132.863 498 134 C494.671 134.951 489.894 132.89 488.32 129.807 C468.647 91.27 398.3 66 309 66 C223 66 166 150 166 275 C166 294.714 166.675 313.079 168.578 329.54 C169.21 335.003 174.119 340 179.618 340 L179.618 340 Z M343.899 371.021 L217.453 368.011 C191.63 367.396 177.096 382.245 186.872 406.154 C209.24 460.859 248.675 484 299 484 C328.7 484 354.997 462.22 373.96 409.676 C382.176 386.91 368.095 371.598 343.899 371.021 L343.899 371.021 Z " />
<glyph glyph-name="f" unicode="f" horiz-adv-x="390" d="M282 20 L242 20 C233 20 227 26 227 35 L227 377.56 C227 411.473 254.527 439 288.44 439 L349.5 439 C366.335 439 380 452.665 380 469.5 C380 486.335 366.335 500 349.5 500 L288.44 500 C251.245 500 226.33 527.563 229.929 564.583 C239.119 659.105 269.85 719 321 719 C368 719 413 635 452 635 C479 635 497 653 497 680 C497 725 443 755 362 755 C209.375 755 125.2 667.726 113.432 533.543 C112.112 518.489 93.2853 489.772 80.0246 482.525 L32.1425 456.357 C29.1674 454.731 26 449.39 26 446 C26 442.136 29.1362 439 33 439 L69 439 C92.7347 439 112 419.735 112 396 L112 35 C112 26 106 20 97 20 L57 20 C51.4803 20 47 15.5197 47 10 C47 4.4803 51.4803 0 57 0 L282 0 C287.52 0 292 4.4803 292 10 C292 15.5197 287.52 20 282 20 L282 20 Z " />
<glyph glyph-name="g" unicode="g" horiz-adv-x="520" d="M543 461 C543 502 513 530 468 530 C441.65 530 413.133 513.383 390.431 486.289 C384.879 479.662 368.586 478.74 361.119 483.098 C331.355 500.471 293.9 510 251 510 C141 510 67 446 67 350 C67 293.075 92.1831 247.04 135.25 218.633 C142.925 213.57 143.599 197.477 134.93 194.413 C81.79 175.63 50 142.65 50 101 C50 56.45 69.7381 21.4288 102.476 1.55141 C108.484 -2.09605 109.28 -14.7422 102.93 -17.7536 C63.8425 -36.29 40 -65.7 40 -98 C40 -178 129 -231 263 -231 C397 -231 486 -163 486 -60 C486 35 434 98 299 98 L179 98 C143 98 119 113 119 136 C119 167 172 187 252 187 C362 187 436 252 436 349 C436 389.95 422.691 425.196 398.854 451.958 C397.823 453.116 398.171 454.702 399.5 455.5 C400.435 456.061 403.084 456.999 404.171 456.909 C431.892 454.621 467.718 410 495 410 C524 410 543.5 430.5 543.5 460.5 L543 461 Z M252 214 C211 214 183 268 183 349 C183 429 211 482 252 482 C293 482 321 429 321 349 C321 268 293 214 252 214 L252 214 Z M164.5 -15.5 L173 -16 L287 -16 C362 -16 391 -44 391 -87 C391 -158 343 -205 270 -205 C189 -205 135 -151 135 -71 C135 -50.4286 140.878 -32.7959 150.743 -20.621 C153.646 -17.0393 159.898 -15.2293 164.5 -15.5 L164.5 -15.5 Z " />
<glyph glyph-name="h" unicode="h" horiz-adv-x="623" d="M16.9925 705.7 L31 705 C58 704 76 685 76 658 L76 35 C76 26 70 20 61 20 L21 20 C15.4803 20 11 15.5197 11 10 C11 4.4803 15.4803 0 21 0 L246 0 C251.52 0 256 4.4803 256 10 C256 15.5197 251.52 20 246 20 L206 20 C197 20 191 26 191 35 L191 342.684 C191 349.675 194.851 365.616 199.102 371.166 C226.03 406.32 275.8 429 328 429 C384 429 413 377 413 300 L413 35 C413 26 407 20 398 20 L358 20 C352.48 20 348 15.5197 348 10 C348 4.4803 352.48 0 358 0 L583 0 C588.52 0 593 4.4803 593 10 C593 15.5197 588.52 20 583 20 L543 20 C534 20 528 26 528 35 L528 300 C528 426 482 510 393 510 C326.175 510 260.031 478.011 215.904 427.508 C208.898 419.49 191 422.913 191 433.562 L191 721.5 C191 737.231 178.231 750 162.5 750 L141.365 750 C140.374 750 126.445 748.148 125.483 747.91 C91.6508 739.545 50.0095 728.519 16.637 719.522 C13.5476 718.689 11 715.2 11 712 C11 708.692 13.689 705.866 16.9925 705.7 L16.9925 705.7 Z " />
<glyph glyph-name="i" unicode="i" horiz-adv-x="296" d="M144 615 C188 615 218 645 218 689 C218 734 188 764 144 764 C99 764 69 734 69 689 C69 645 99 615 144 615 L144 615 Z M26.9925 455.7 L41 455 C68 454 86 435 86 408 L86 35 C86 26 80 20 71 20 L31 20 C25.4803 20 21 15.5197 21 10 C21 4.4803 25.4803 0 31 0 L256 0 C261.52 0 266 4.4803 266 10 C266 15.5197 261.52 20 256 20 L216 20 C207 20 201 26 201 35 L201 471.5 C201 487.231 188.231 500 172.5 500 L151.365 500 C150.374 500 136.445 498.148 135.483 497.91 C101.651 489.545 60.0095 478.519 26.637 469.522 C23.5476 468.689 21 465.2 21 462 C21 458.692 23.689 455.866 26.9925 455.7 L26.9925 455.7 Z " />
<glyph glyph-name="j" unicode="j" horiz-adv-x="300" d="M153 615 C197 615 227 645 227 689 C227 734 197 764 153 764 C108 764 78 734 78 689 C78 645 108 615 153 615 L153 615 Z M35.9925 455.7 L50 455 C77 454 95 435 95 408 L95 68 C95 -10.75 77.3906 -76.4844 50.2109 -105.086 C42.0223 -113.703 35.7133 -115.49 23.9144 -114.044 C-3.04734 -110.74 -35.4615 -100 -60 -100 C-87 -100 -105 -116 -105 -140 C-105 -169 -81 -187 -45 -185 C-38 -185 4 -163 60 -130 C150 -78 210 1 210 68 L210 471.5 C210 487.231 197.231 500 181.5 500 L160.365 500 C159.374 500 145.445 498.148 144.483 497.91 C110.651 489.545 69.0095 478.519 35.637 469.522 C32.5476 468.689 30 465.2 30 462 C30 458.692 32.689 455.866 35.9925 455.7 L35.9925 455.7 Z " />
<glyph glyph-name="k" unicode="k" horiz-adv-x="635" d="M596.988 500 L336 500 C330.48 500 326 495.52 326 490 C326 484.48 330.48 480 336 480 L373 480 C431 480 418 443 340 386 L265.5 333 C231.992 309.162 191 330.307 191 371.429 L191 721.5 C191 737.231 178.231 750 162.5 750 L141.365 750 C140.374 750 126.445 748.148 125.483 747.91 C91.6508 739.545 50.0095 728.519 16.637 719.522 C13.5476 718.689 11 715.2 11 712 C11 708.692 13.689 705.866 16.9925 705.7 L31 705 C58 704 76 685 76 658 L76 35 C76 26 70 20 61 20 L21 20 C15.4803 20 11 15.5197 11 10 C11 4.4803 15.4803 0 21 0 L246 0 C251.52 0 256 4.4803 256 10 C256 15.5197 251.52 20 246 20 L206 20 C197 20 191 26 191 35 L191 231.459 C191 249.122 213.031 254.875 224.676 241.594 C277.689 181.131 331.025 120.225 383 60 C404.622 34.9189 400.812 23.3017 381.273 20.6199 C376.549 19.9714 371 14.7691 371 10 C371 4.4803 375.48 0 381 0 L607 0 C612.52 0 617 4.4803 617 10 C617 14.9771 612.113 19.9928 607.16 20.482 C577.82 23.38 550.1 39.4 524 70 L347.298 273.887 C322.959 301.97 327.836 342.661 358.121 364.197 L438 421 C491 457 549 480 586 480 L596 480 C601.513 480 606.224 484.482 606.499 489.988 L606.5 490 C606.776 495.513 602.507 500 596.988 500 L596.988 500 Z " />
<glyph glyph-name="l" unicode="l" horiz-adv-x="286" d="M16.9925 705.7 L31 705 C58 704 76 685 76 658 L76 35 C76 26 70 20 61 20 L21 20 C15.4803 20 11 15.5197 11 10 C11 4.4803 15.4803 0 21 0 L246 0 C251.52 0 256 4.4803 256 10 C256 15.5197 251.52 20 246 20 L206 20 C197 20 191 26 191 35 L191 721.5 C191 737.231 178.231 750 162.5 750 L141.365 750 C140.374 750 126.445 748.148 125.483 747.91 C91.6508 739.545 50.0095 728.519 16.637 719.522 C13.5476 718.689 11 715.2 11 712 C11 708.692 13.689 705.866 16.9925 705.7 L16.9925 705.7 Z " />
<glyph glyph-name="m" unicode="m" horiz-adv-x="912" d="M17.4919 455.675 L31 455 C58 454 76 435 76 408 L76 35 C76 26 70 20 61 20 L21 20 C15.4803 20 11 15.5197 11 10 C11 4.4803 15.4803 0 21 0 L246 0 C251.52 0 256 4.4803 256 10 C256 15.5197 251.52 20 246 20 L206 20 C197 20 191 26 191 35 L191 347.78 C191 355.593 195.196 371.231 200.186 377.244 C224.563 406.625 268.75 425 316 425 C369 425 389 375 389 300 L389 35 C389 26 383 20 374 20 L334 20 C328.48 20 324 15.5197 324 10 C324 4.4803 328.48 0 334 0 L559 0 C564.52 0 569 4.4803 569 10 C569 15.5197 564.52 20 559 20 L519 20 C510 20 504 26 504 35 L504 300 C504 320 503.306 339.306 501.338 357.338 C500.837 361.925 502.559 372.039 505.429 375.652 C529.678 406.176 577.2 425 629 425 C682 425 702 375 702 300 L702 35 C702 26 696 20 687 20 L647 20 C641.48 20 637 15.5197 637 10 C637 4.4803 641.48 0 647 0 L872 0 C877.52 0 882 4.4803 882 10 C882 15.5197 877.52 20 872 20 L832 20 C823 20 817 26 817 35 L817 300 C817 426 778 510 676 510 C608.725 510 539.549 467.222 499.984 402.983 C498.789 401.043 497 392.779 497 390.5 C497 389.729 495.985 388.114 495.826 388.868 C479.927 464.419 439.05 511 363 511 C310.2 511 253.997 480.372 214.044 432.03 C207.53 424.15 191 427.538 191 437.762 L191 472.5 C191 488.231 178.231 501 162.5 501 L141.365 501 C140.374 501 126.445 499.148 125.483 498.91 C91.6508 490.545 50.0095 479.519 16.637 470.522 C13.2901 469.619 11 465.966 11 462.5 C11 458.917 13.913 455.854 17.4919 455.675 L17.4919 455.675 Z " />
<glyph glyph-name="n" unicode="n" horiz-adv-x="599" d="M16.9925 455.7 L31 455 C58 454 76 435 76 408 L76 35 C76 26 70 20 61 20 L21 20 C15.4803 20 11 15.5197 11 10 C11 4.4803 15.4803 0 21 0 L246 0 C251.52 0 256 4.4803 256 10 C256 15.5197 251.52 20 246 20 L206 20 C197 20 191 26 191 35 L191 342.595 C191 349.381 196.401 367.936 200.473 373.363 C224.453 405.328 260.875 426 295 426 C357 426 389 384 389 321 L389 35 C389 26 383 20 374 20 L334 20 C328.48 20 324 15.5197 324 10 C324 4.4803 328.48 0 334 0 L559 0 C564.52 0 569 4.4803 569 10 C569 15.5197 564.52 20 559 20 L519 20 C510 20 504 26 504 35 L504 321 C504 434 456 510 363 510 C311.025 510 255.647 478.011 214.834 427.508 C208.047 419.11 191 422.763 191 433.562 L191 471.5 C191 487.231 178.231 500 162.5 500 L141.365 500 C140.374 500 126.445 498.148 125.483 497.91 C91.6508 489.545 50.0095 478.519 16.637 469.522 C13.5476 468.689 11 465.2 11 462 C11 458.692 13.689 455.866 16.9925 455.7 L16.9925 455.7 Z " />
<glyph glyph-name="o" unicode="o" horiz-adv-x="622" d="M172 250 C172 385 228 475 311 475 C394 475 450 385 450 250 C450 115 394 25 311 25 C228 25 172 115 172 250 L172 250 Z M45 250 C45 94 151 -10 311 -10 C471 -10 577 94 577 250 C577 406 471 510 311 510 C151 510 45 406 45 250 L45 250 Z " />
<glyph glyph-name="p" unicode="p" horiz-adv-x="602" d="M2.01329 455.699 L16 455 C43 454 61 435 61 408 L61 -185 C61 -194 55 -200 46 -200 L6 -200 C0.4803 -200 -4 -204.48 -4 -210 C-4 -215.52 0.4803 -220 6 -220 L231 -220 C236.52 -220 241 -215.52 241 -210 C241 -204.48 236.52 -200 231 -200 L191 -200 C182 -200 176 -194 176 -185 L176 -0.155644 C176 9.54166 186.8 15.4208 195.966 12.2538 C228.172 1.12562 264.225 -5 303 -5 C455 -5 557 116 557 259 C557 410 465 510 328 510 C278.5 510 230.361 492.984 196.499 464.568 C190.028 459.139 177 462.481 177 470.928 L177 472.5 C177 487.679 164.679 500 149.5 500 L127.365 500 C126.374 500 112.445 498.148 111.483 497.91 C77.6508 489.545 36.0095 478.519 2.637 469.522 C-0.383061 468.707 -3.24024 465.117 -3.5 462 C-3.77583 458.69 -1.30404 455.865 2.01329 455.699 L2.01329 455.699 Z M177 138.927 L177 378.809 C177 387.594 184.324 408.673 190.224 415.182 C216.287 443.937 247.95 462 276 462 C369 462 431 366 431 223 C431 116 383 24 311 24 C253.05 24 201.418 61.905 180.109 120.567 C179.413 122.483 177 136.89 177 138.927 L177 138.927 Z " />
<glyph glyph-name="q" unicode="q" horiz-adv-x="546" d="M529.989 -200 L491 -200 C482 -200 476 -194 476 -185 L476 496.5 C476 498.432 474.432 500 472.5 500 C470.87 500 467.996 498.422 467.121 497.047 L448.997 468.566 C441.922 457.448 422.364 456.552 411.844 464.487 C374.486 492.665 325.625 509 272 509 C109 509 25 405 25 248 C25 96 106 -6 227 -6 C266.6 -6 307.561 10.335 340.338 37.3898 C347.363 43.1882 360 39.2775 360 30.1688 L360 -187 C360 -196 354 -202 345 -202 L305 -202 C299.48 -202 295 -206.48 295 -212 C295 -217.52 299.48 -222 305 -222 L528.989 -222 C535.06 -222 540.224 -217.065 540.5 -211 C540.776 -204.935 536.06 -200 529.989 -200 L529.989 -200 Z M360 377.042 L360 118.023 C360 108.157 351.951 86.3803 344.991 79.3872 C321.014 55.2931 295.625 41 275 41 C196 41 144 136 144 279 C144 401 185 482 266 482 C300.2 482 335.303 448.608 356.732 396.398 C357.697 394.048 360 379.582 360 377.042 L360 377.042 Z " />
<glyph glyph-name="r" unicode="r" horiz-adv-x="468" d="M18.0133 455.699 L32 455 C59 454 77 435 77 408 L77 35 C77 26 71 20 62 20 L22 20 C16.4803 20 12 15.5197 12 10 C12 4.4803 16.4803 0 22 0 L247 0 C252.52 0 257 4.4803 257 10 C257 15.5197 252.52 20 247 20 L207 20 C198 20 192 26 192 35 L192 340.295 C192 342.634 194.685 358.248 195.538 360.425 C218.495 418.997 251.65 456 283 456 C307 456 323 442 323 421 C323 380 350 353 391 353 C431 353 458 380 458 421 C458 474 410 510 337 510 C284.2 510 237.526 483.456 208.769 439.913 C205.146 434.427 193 436.388 193 442.962 L193 471.5 C193 487.231 180.231 500 164.5 500 L143.365 500 C142.374 500 128.445 498.148 127.483 497.91 C93.6508 489.545 52.0095 478.519 18.637 469.522 C15.6169 468.707 12.7598 465.117 12.5 462 C12.2242 458.69 14.696 455.865 18.0133 455.699 L18.0133 455.699 Z " />
<glyph glyph-name="s" unicode="s" horiz-adv-x="434" d="M60 172.483 L60 5 C60 1.13621 63.1362 -2 67 -2 L67.3292 -2 C70.917 -2 74.6932 1.00407 75.5 4.5 L77 11 C80 24 111 20 151 3 C170 -6 191 -11 212 -11 C316 -11 385 48 385 137 C385 207 335 267 237 293 C172 311 138 356 138 411 C138 466 190 493 249 478 C292 466 330 418 344 356 L346.481 344.833 C347.3 341.151 351.228 338 355 338 C358.864 338 362 341.136 362 345 L362 503.5 C362 507.088 359.088 510 355.5 510 L355.325 510 C352.013 510 348.047 507.142 347 504 L345 498 C342 487 312 488 270 501 C253 506 235 509 216 509 C120 509 56 454 56 371 C56 292 101 228 187 205 C259 186 296 147 296 104 C296 37 238 -2 174 24 C133 41 94 95 79 161 L76.6306 171.662 C75.7669 175.549 71.4725 179.235 67.5 179.5 C63.3694 179.775 60 176.623 60 172.483 L60 172.483 Z " />
<glyph glyph-name="t" unicode="t" horiz-adv-x="412" d="M331.5 500 L270 500 C236.882 500 210 526.882 210 560 L210 616 C210 618.208 208.208 620 206 620 C204.443 620 200.267 618.277 199.163 617.18 L33.5458 452.525 C32.1579 451.145 30 445.957 30 444 C30 441.24 32.2402 439 35 439 L62.5 439 C80.439 439 95 424.439 95 406.5 L95 186 C95 45 157 -10 249 -10 C326.025 -10 385.939 40.3831 400.935 116.124 C401.782 120.402 398.776 122.645 394.5 123.5 C390.65 124.27 386.464 121.599 385.555 117.779 C374.868 72.88 335.3 44 284 44 C238 44 207 77 207 161 L209.344 378.223 C209.706 411.768 237.233 439 270.781 439 L331.5 439 C348.335 439 362 452.665 362 469.5 C362 486.335 348.335 500 331.5 500 L331.5 500 Z " />
<glyph glyph-name="u" unicode="u" horiz-adv-x="590" d="M565.37 52.3037 L550 48 C520 40 500 55 500 85 L500 438.56 C500 472.473 472.473 500 438.56 500 L330 500 C324.48 500 320 495.52 320 490 C320 484.48 324.48 480 330 480 L370 480 C379 480 385 474 385 465 L385 164.702 C385 160.356 381.607 144.058 379.478 140.268 C355.383 97.38 314.475 70 271 70 C221 70 187 106 187 160 L187 438.56 C187 472.473 159.473 500 125.56 500 L17 500 C11.4803 500 7 495.52 7 490 C7 484.48 11.4803 480 17 480 L57 480 C66 480 72 474 72 465 L72 160 C72 58 130 -10 217 -10 C273.925 -10 328.808 24.0312 364.804 79.1789 C369.57 86.4807 385 83.8328 385 75.1132 L385 28.5011 C385 12.77 397.769 -0.112013 413.5 -0.25 L433.432 -0.42484 C434.694 -0.435916 450.231 1.74988 451.45 2.08056 C487.931 11.9798 532.773 23.4868 568.747 33.2886 C573.898 34.6921 575 39.6614 575 45 C575 50.3153 570.489 53.7369 565.37 52.3037 L565.37 52.3037 Z " />
<glyph glyph-name="v" unicode="v" horiz-adv-x="582" d="M559.448 500 L404 500 C398.48 500 394 495.52 394 490 L394 484.5 C394 482.016 396.016 480 398.5 480 L403 480 C432 480 444 458 433 425 L356.745 202.036 C351.026 185.315 328.206 187.009 321.418 203.326 C290.442 277.789 258.7 352.575 229 426 C215 459 225 481 254 481 L258 481 C260.208 481 262 482.792 262 485 L262 491 C262 496.52 257.52 501 252 501 L24 501 C18.4803 501 14 496.52 14 491 C14 485.839 17.9043 481.047 23.0541 480.711 C59.5656 478.332 87.2 461.15 102 426 L278.408 6.66983 C281.762 -1.30268 293.351 -9 302 -9 C310.771 -9 321.924 -1.30815 325.04 6.89084 L485.903 430.114 C485.998 430.363 488.17 435.277 488.296 435.513 C504.091 465.216 528.796 478.841 562.411 480.761 C567.376 481.045 570.521 485.554 570 490.5 C569.451 495.715 564.691 500 559.448 500 L559.448 500 Z " />
<glyph glyph-name="w" unicode="w" horiz-adv-x="896" d="M553.487 500 L322 500 C316.48 500 312 495.52 312 490 C312 484.813 315.444 480.058 320.621 479.745 C355.427 477.643 382.275 462.45 398 431 L422.475 372.692 C426.104 364.045 426.569 335.769 423.226 327.007 L301.061 6.88278 C297.935 -1.30789 303.233 -9 312 -9 C320.691 -9 332.133 -1.30418 335.411 6.7449 L398.209 160.977 C420.024 214.555 489.132 215.035 511.689 161.765 L577.371 6.65433 C580.74 -1.30242 592.359 -9 601 -9 C609.697 -9 619.149 -6.17987 622.423 1.87683 C679.901 143.299 736.5 285.6 795 426 C808.875 461.15 836.44 478.332 872.946 480.711 C878.096 481.047 882 485.839 882 491 C882 496.52 877.52 501 872 501 L716 501 C710.48 501 706 496.52 706 491 L706 485.5 C706 483.016 708.016 481 710.5 481 L715 481 C744 481 755.5 459 743.5 426 L660.939 200.307 C654.599 182.973 631.129 184.758 623.969 201.77 C592.381 276.819 560.35 351.75 529 426 C515 459 525 481 554 481 L558 481 C560.205 481 562.094 482.793 562.21 484.994 L562.5 490.5 C562.776 495.736 558.731 500 553.487 500 L553.487 500 Z M253 501 L23 501 C17.4803 501 13 496.52 13 491 C13 485.839 16.9047 481.047 22.0546 480.711 C58.5713 478.332 86.275 461.15 102 426 L261.18 67.2264 C274.297 37.6612 313.058 38.7469 324.5 69 L345.098 123.462 C348.545 132.576 347.769 161.107 343.832 170.02 L229 430 C216.4 462.4 227.29 477.79 253.651 480.544 C258.57 481.058 263 486.054 263 491 C263 496.52 258.52 501 253 501 L253 501 Z " />
<glyph glyph-name="x" unicode="x" horiz-adv-x="589" d="M323.512 0 L561 0 C566.52 0 571 4.4803 571 10 C571 15.1639 567.08 19.9549 561.926 20.2877 C525.245 22.6569 496.2 39.7 474 73 L365.761 245.686 C353.971 264.497 355.637 298.341 369.218 315.902 L459 432 C485.825 462.525 516.928 477.649 553.101 479.746 C558.292 480.047 562 484.8 562 490 C562 495.52 557.52 500 552 500 L404 500 C398.48 500 394 495.52 394 490 L394 484 C394 481.792 395.792 480 398 480 L402 480 C445 480 407 425 407 425 L365.997 365.546 C346.303 336.989 309.181 337.956 291 367.5 L255 426 C234 459 238 481 265 481 L269 481 C271.208 481 273 482.792 273 485 L273 491 C273 496.52 268.52 501 263 501 L25 501 C19.4803 501 15 496.52 15 491 C15 485.836 18.9203 481.045 24.0735 480.712 C60.755 478.343 89.8 461.3 112 428 L211.415 269.1 C223.088 250.442 221.499 216.66 208.126 199.18 L107 67 C80.175 37.4 49.9275 23.2012 14.6746 21.2379 C9.46989 20.9481 6 16.2128 6 11 C6 5.4803 10.4803 1 16 1 L164 1 C169.52 1 174 5.4803 174 11 L174 17 C174 19.2079 172.208 21 170 21 L166 21 C140 21 138 43 160 76 L235.459 186.674 C242.758 197.379 257.794 195.318 264.624 184.308 C287.019 148.205 309.846 112.103 332 76 C353 43 349 21 322 21 L318 21 C315.795 21 313.915 19.2074 313.81 17.0045 L313.5 10.5 C313.224 4.71087 317.716 0 323.512 0 L323.512 0 Z " />
<glyph glyph-name="y" unicode="y" horiz-adv-x="602" d="M250.988 500 L25 500 C19.4803 500 15 495.52 15 490 C15 484.827 18.668 480.053 23.8308 479.728 C59.4381 477.488 86.425 461.3 104 428 L304.902 9.45392 C306.22 6.70843 306.276 -0.734904 305 -3.5 L302 -10 L247 -151 C237 -177 222 -194 220 -194 C198 -194 193 -156 170 -156 C141 -156 121 -176 121 -205 C121 -238 143 -260 175 -260 C205 -260 253 -222 275 -166 L337 -10 C394 137 450 285 506 432 C520.8 463.45 545.867 477.788 580.411 479.761 C585.607 480.058 589 484.795 589 490 C589 495.52 584.52 500 579 500 L424 500 C418.48 500 414 495.52 414 490 L414 484.5 C414 482.016 416.016 480 418.5 480 L423 480 C452 480 465 458 454 425 L409 287.5 C391.818 234.998 325.289 230.623 301.379 280.422 L231 427 C216 459 225 480 252 480 L256 480 C258.205 480 260.09 481.793 260.2 483.995 L260.5 490 C260.776 495.513 256.507 500 250.988 500 L250.988 500 Z " />
<glyph glyph-name="z" unicode="z" horiz-adv-x="475" d="M425.5 130.5 L422 123 C402.5 77.175 361.136 43.7081 315.517 36.5023 C315.281 36.465 309.502 35.9054 309.263 35.8963 L246 33.5 C215.176 32.3324 197.621 61.4732 213.061 88.1768 L428.242 460.313 C430.109 463.542 435 481.77 435 485.5 C435 492.952 428.952 499 421.5 499 L124 499 C107.333 499 97.6111 508.722 97.1481 522.38 C97.0145 526.321 92.7243 531 88.7805 531 L84.2462 531 C79.8085 531 74.8924 526.56 73.8328 522.251 C70.2911 507.847 66.3043 491.217 63 478 C61.1 471.35 51.0775 430.405 35.5046 370.598 C34.2274 365.692 37.4312 361 42.5 361 L43.2536 361 C47.3933 361 54.3701 364.95 56.5 368.5 L61 376 C89 423 137 457 186 463 L243.5 465 C270.292 465.932 285.439 440.505 271.863 417.389 L48.8367 37.6409 C46.9256 34.3869 42 16.2737 42 12.5 C42 5.0484 48.0484 -1 55.5 -1 L422 -1 C427.52 -1 432 3.4803 432 9 L432 16 C432 17.6559 433.344 19 435 19 C436.647 19 437.835 17.4501 438.009 19.0878 C438.239 21.2482 442.682 63.1311 448.965 126.533 C449.537 132.302 445.291 137.224 439.5 137.5 L437.267 137.606 C433.045 137.807 427.288 134.33 425.5 130.5 L425.5 130.5 Z " />
<glyph glyph-name="bar" unicode="&#x7c;" horiz-adv-x="209" d="M60 755.5 L60 -205.5 C60 -230.063 79.9373 -250 104.5 -250 C129.063 -250 149 -230.063 149 -205.5 L149 755.5 C149 780.063 129.063 800 104.5 800 C79.9373 800 60 780.063 60 755.5 L60 755.5 Z " />
<glyph glyph-name="asciitilde" unicode="&#x7e;" horiz-adv-x="340" d="M31.546 320.578 C34.4321 347.617 48.5556 365 69 365 C119 365 187 300 237 300 C289.25 300 325.255 350.54 328.725 428.471 C328.981 434.23 324.765 441 319 441 C314.056 441 308.985 435.489 308.469 430.572 C305.31 400.44 288.3 381 264 381 C214 381 146 446 96 446 C47.55 446 14.4425 397.265 11.2529 322.087 C11.009 316.338 15.2463 310 21 310 C25.9339 310 31.0223 315.671 31.546 320.578 L31.546 320.578 Z " />
<glyph glyph-name="exclamdown" unicode="&#xa1;" horiz-adv-x="281" d="M141 505 C93 505 61 473 61 425 C61 377 93 345 141 345 C189 345 221 377 221 425 C221 473 189 505 141 505 L141 505 Z M141 -255 C196 -255 221 -206 211 -132 C211 -132 153.963 148.434 151.111 280.167 C150.988 285.836 146.17 290 140.5 290 C134.83 290 130.012 285.836 129.889 280.167 C127.037 148.434 70 -132 70 -132 C60 -206 86 -255 141 -255 L141 -255 Z " />
<glyph glyph-name="cent" unicode="&#xa2;" horiz-adv-x="537" d="M294 555.474 L294 541.5 C294 525.067 277.263 506.445 261.131 503.316 C129.707 477.83 45 376.45 45 234 C45 104.5 129.707 12.6475 261.131 -5.94211 C277.135 -8.20584 294 -25.3367 294 -41.5 L294 -54 C294 -65.0394 302.961 -74 314 -74 C325.039 -74 334 -65.0394 334 -54 L334 -41 C334 -26.4277 352.039 -5.3924 365.968 -1.11163 C423.611 16.6032 474.992 61.6451 504.389 123.345 C506.511 127.8 503.521 130.522 499 132.5 C494.947 134.273 489.531 132.655 487.396 128.78 C467.231 92.1654 423.401 66.4218 370.802 61.7902 C346.964 59.6912 334 74.2403 334 98.1697 L334 471.295 C334 478.273 338.009 481.799 343.873 478.016 C362.42 466.052 380.1 440 392 406 C404 372 428 349 450 349 C497 349 519 372 507 406 C486.875 460.25 431.531 499.188 363.076 509.414 C347.582 511.729 333 528.834 333 544.5 L333 557.474 C333 568.238 324.249 576.551 313.5 576 C302.751 575.449 294 566.238 294 555.474 L294 555.474 Z M254.822 88.7792 C199.351 123.838 166 191.55 166 279 C166 370.575 200.031 439.689 255.179 469.498 C278.335 482.014 293 470.099 293 443.776 L293 111.954 C293 86.6498 276.212 75.2601 254.822 88.7792 L254.822 88.7792 Z " />
<glyph glyph-name="acute" unicode="&#xb4;" horiz-adv-x="340" d="M187.204 567.723 L323 679 C359 709 383 732 383 738 C383 769 356 796 325 796 C319 796 299 770 271 731 L170.026 584.729 C166.754 579.99 167.428 572.572 171.5 568.5 C175.62 564.38 182.698 564.03 187.204 567.723 L187.204 567.723 Z " />
<glyph glyph-name="questiondown" unicode="&#xbf;" horiz-adv-x="295" d="M170 505 C122 505 90 473 90 425 C90 377 122 345 170 345 C218 345 250 377 250 425 C250 473 218 505 170 505 L170 505 Z M168.002 259.779 C168.05 254.075 169.025 140 170 140 C70 140 38 109 7 63 C-12 35 -24 -13 -24 -57 C-24 -179 46 -260 150 -260 C215 -260 258 -226 258 -175 C258 -141 233 -118 196 -118 C170 -118 134 -138 108 -138 C49 -138 10 -100 10 -43 C10 -32 19 -12 32 8 C53 39 80 60 198 60 C198.452 60 197.823 59.8632 197.554 60.2262 C191.802 67.9737 188 260 188 260 C188 260 183.63 260 178 260 C172.48 260 167.955 265.299 168.002 259.779 L168.002 259.779 Z " />
<glyph glyph-name="Agrave" unicode="&#xc0;" horiz-adv-x="831" d="M216 125 L248.516 228.909 C255.619 251.608 283.367 272 307.152 272 L461.174 272 C484.736 272 512.49 251.75 519.682 229.313 L556 116 C570 61 543 25 486 25 L471.5 25 C464.6 25 459 19.3996 459 12.5 C459 5.60037 464.6 0 471.5 0 L811.5 0 C818.4 0 824 5.60037 824 12.5 L824 17.5 C824 21.6398 820.64 25 816.5 25 L809 25 C763 25 719 61 698 116 L500.948 705.167 C500.898 705.315 500.009 707.96 499.974 708.112 C499.305 711.012 485.85 769 480 769 L473 769 C470 769 466.558 765.958 466.358 762.965 C464.759 739.006 427.237 717.517 369.83 708.705 C367.051 708.278 365.692 705.693 366.5 703 C366.974 701.419 363.671 684.873 363.154 683.306 C301.769 497.155 240.385 310.103 179 124 C159 64 106 24 46 24 L23.5 24 C16.6004 24 11 18.3996 11 11.5 C11 4.60037 16.6004 -1 23.5 -1 L300.5 -1 C307.4 -1 313 4.60037 313 11.5 C313 18.3996 307.4 24 300.5 24 L286 24 C226 24 197.5 64.5 216.5 124.5 L216 125 Z M230 987 C230 978 254 956 289 928 L426.043 816.476 C430.425 812.909 437.145 813.37 441 817.5 C444.771 821.54 445.328 828.907 442.209 833.468 L342 980 C316 1019 295 1045 287 1045 C256 1045 230 1018 230 987 L230 987 Z M297.824 385.709 L327.5 481 C344.837 536.668 420.4 537.06 438.314 481.575 L469.069 386.317 C482.69 344.129 454.933 306 410.601 306 L356.485 306 C312.488 306 284.741 343.702 297.824 385.709 L297.824 385.709 Z " />
<glyph glyph-name="Aacute" unicode="&#xc1;" horiz-adv-x="831" d="M447.957 817.476 L585 929 C620 958 644 981 644 988 C644 1019 618 1046 587 1046 C580 1046 559 1020 532 981 L431.791 834.468 C428.672 829.907 429.229 822.54 433 818.5 C436.855 814.37 443.575 813.909 447.957 817.476 L447.957 817.476 Z M216 125 L248.516 228.909 C255.619 251.608 283.367 272 307.152 272 L461.174 272 C484.736 272 512.49 251.75 519.682 229.313 L556 116 C570 61 543 25 486 25 L471.5 25 C464.6 25 459 19.3996 459 12.5 C459 5.60037 464.6 0 471.5 0 L811.5 0 C818.4 0 824 5.60037 824 12.5 L824 17.5 C824 21.6398 820.64 25 816.5 25 L809 25 C763 25 719 61 698 116 L500.948 705.167 C500.898 705.315 500.009 707.96 499.974 708.112 C499.305 711.012 485.85 769 480 769 L473 769 C470 769 466.558 765.958 466.358 762.965 C464.759 739.006 427.237 717.517 369.83 708.705 C367.051 708.278 365.692 705.693 366.5 703 C366.974 701.419 363.671 684.873 363.154 683.306 C301.769 497.155 240.385 310.103 179 124 C159 64 106 24 46 24 L23.5 24 C16.6004 24 11 18.3996 11 11.5 C11 4.60037 16.6004 -1 23.5 -1 L300.5 -1 C307.4 -1 313 4.60037 313 11.5 C313 18.3996 307.4 24 300.5 24 L286 24 C226 24 197.5 64.5 216.5 124.5 L216 125 Z M297.824 385.709 L327.5 481 C344.837 536.668 420.4 537.06 438.314 481.575 L469.069 386.317 C482.69 344.129 454.933 306 410.601 306 L356.485 306 C312.488 306 284.741 343.702 297.824 385.709 L297.824 385.709 Z " />
<glyph glyph-name="Acircumflex" unicode="&#xc2;" horiz-adv-x="831" d="M216 125 L248.516 228.909 C255.619 251.608 283.367 272 307.152 272 L461.174 272 C484.736 272 512.49 251.75 519.682 229.313 L556 116 C570 61 543 25 486 25 L471.5 25 C464.6 25 459 19.3996 459 12.5 C459 5.60037 464.6 0 471.5 0 L811.5 0 C818.4 0 824 5.60037 824 12.5 L824 17.5 C824 21.6398 820.64 25 816.5 25 L809 25 C763 25 719 61 698 116 L500.948 705.167 C500.898 705.315 500.009 707.96 499.974 708.112 C499.305 711.012 485.85 769 480 769 L473 769 C470 769 466.558 765.958 466.358 762.965 C464.759 739.006 427.237 717.517 369.83 708.705 C367.051 708.278 365.692 705.693 366.5 703 C366.974 701.419 363.671 684.873 363.154 683.306 C301.769 497.155 240.385 310.103 179 124 C159 64 106 24 46 24 L23.5 24 C16.6004 24 11 18.3996 11 11.5 C11 4.60037 16.6004 -1 23.5 -1 L300.5 -1 C307.4 -1 313 4.60037 313 11.5 C313 18.3996 307.4 24 300.5 24 L286 24 C226 24 197.5 64.5 216.5 124.5 L216 125 Z M473 995 C465 1007 445 1036 433 1036 C420 1036 400 1007 392 995 L283.559 825.68 C280.51 820.919 281.612 814.065 286 810.5 C290.334 806.979 297.627 807.027 301.914 810.604 L393.491 887.029 C414.961 904.946 450.986 904.882 472.391 886.888 L563.11 810.633 C567.387 807.037 574.663 806.976 579 810.5 C583.388 814.065 584.49 820.919 581.441 825.68 L473 995 L473 995 Z M297.824 385.709 L327.5 481 C344.837 536.668 420.4 537.06 438.314 481.575 L469.069 386.317 C482.69 344.129 454.933 306 410.601 306 L356.485 306 C312.488 306 284.741 343.702 297.824 385.709 L297.824 385.709 Z " />
<glyph glyph-name="Atilde" unicode="&#xc3;" horiz-adv-x="831" d="M293.546 880.578 C296.432 907.617 310.556 925 331 925 C381 925 449 860 499 860 C551.25 860 587.255 910.54 590.725 988.471 C590.994 994.518 586.553 1001 580.5 1001 C575.307 1001 570.01 995.737 569.47 990.572 C566.32 960.44 549.4 941 526 941 C475 941 408 1006 357 1006 C308.55 1006 275.443 957.265 272.253 882.087 C271.997 876.051 276.459 870 282.5 870 C287.681 870 292.996 875.426 293.546 880.578 L293.546 880.578 Z M216 125 L248.516 228.909 C255.619 251.608 283.367 272 307.152 272 L461.174 272 C484.736 272 512.49 251.75 519.682 229.313 L556 116 C570 61 543 25 486 25 L471.5 25 C464.6 25 459 19.3996 459 12.5 C459 5.60037 464.6 0 471.5 0 L811.5 0 C818.4 0 824 5.60037 824 12.5 L824 17.5 C824 21.6398 820.64 25 816.5 25 L809 25 C763 25 719 61 698 116 L500.948 705.167 C500.898 705.315 500.009 707.96 499.974 708.112 C499.305 711.012 485.85 769 480 769 L473 769 C470 769 466.558 765.958 466.358 762.965 C464.759 739.006 427.237 717.517 369.83 708.705 C367.051 708.278 365.692 705.693 366.5 703 C366.974 701.419 363.671 684.873 363.154 683.306 C301.769 497.155 240.385 310.103 179 124 C159 64 106 24 46 24 L23.5 24 C16.6004 24 11 18.3996 11 11.5 C11 4.60037 16.6004 -1 23.5 -1 L300.5 -1 C307.4 -1 313 4.60037 313 11.5 C313 18.3996 307.4 24 300.5 24 L286 24 C226 24 197.5 64.5 216.5 124.5 L216 125 Z M297.824 385.709 L327.5 481 C344.837 536.668 420.4 537.06 438.314 481.575 L469.069 386.317 C482.69 344.129 454.933 306 410.601 306 L356.485 306 C312.488 306 284.741 343.702 297.824 385.709 L297.824 385.709 Z " />
<glyph glyph-name="Adieresis" unicode="&#xc4;" horiz-adv-x="831" d="M512 865 C556 865 586 895 586 939 C586 984 556 1014 512 1014 C467 1014 437 984 437 939 C437 895 467 865 512 865 L512 865 Z M351 865 C396 865 426 895 426 939 C426 984 396 1014 351 1014 C307 1014 277 984 277 939 C277 895 307 865 351 865 L351 865 Z M216 125 L248.516 228.909 C255.619 251.608 283.367 272 307.152 272 L461.174 272 C484.736 272 512.49 251.75 519.682 229.313 L556 116 C570 61 543 25 486 25 L471.5 25 C464.6 25 459 19.3996 459 12.5 C459 5.60037 464.6 0 471.5 0 L811.5 0 C818.4 0 824 5.60037 824 12.5 L824 17.5 C824 21.6398 820.64 25 816.5 25 L809 25 C763 25 719 61 698 116 L500.948 705.167 C500.898 705.315 500.009 707.96 499.974 708.112 C499.305 711.012 485.85 769 480 769 L473 769 C470 769 466.558 765.958 466.358 762.965 C464.759 739.006 427.237 717.517 369.83 708.705 C367.051 708.278 365.692 705.693 366.5 703 C366.974 701.419 363.671 684.873 363.154 683.306 C301.769 497.155 240.385 310.103 179 124 C159 64 106 24 46 24 L23.5 24 C16.6004 24 11 18.3996 11 11.5 C11 4.60037 16.6004 -1 23.5 -1 L300.5 -1 C307.4 -1 313 4.60037 313 11.5 C313 18.3996 307.4 24 300.5 24 L286 24 C226 24 197.5 64.5 216.5 124.5 L216 125 Z M297.824 385.709 L327.5 481 C344.837 536.668 420.4 537.06 438.314 481.575 L469.069 386.317 C482.69 344.129 454.933 306 410.601 306 L356.485 306 C312.488 306 284.741 343.702 297.824 385.709 L297.824 385.709 Z " />
<glyph glyph-name="Aring" unicode="&#xc5;" horiz-adv-x="831" d="M367 905 C367 946 393 973 432 973 C470 973 496 946 496 905 C496 868 467 837 432 837 C397 837 367 868 367 905 L367 905 Z M333 905 C333 854 379 810 432 810 C485 810 530 854 530 905 C530 962 491 1000 432 1000 C373 1000 333 962 333 905 L333 905 Z M216 125 L248.516 228.909 C255.619 251.608 283.367 272 307.152 272 L461.174 272 C484.736 272 512.49 251.75 519.682 229.313 L556 116 C570 61 543 25 486 25 L471.5 25 C464.6 25 459 19.3996 459 12.5 C459 5.60037 464.6 0 471.5 0 L811.5 0 C818.4 0 824 5.60037 824 12.5 L824 17.5 C824 21.6398 820.64 25 816.5 25 L809 25 C763 25 719 61 698 116 L500.948 705.167 C500.898 705.315 500.009 707.96 499.974 708.112 C499.305 711.012 485.85 769 480 769 L473 769 C470 769 466.558 765.958 466.358 762.965 C464.759 739.006 427.237 717.517 369.83 708.705 C367.051 708.278 365.692 705.693 366.5 703 C366.974 701.419 363.671 684.873 363.154 683.306 C301.769 497.155 240.385 310.103 179 124 C159 64 106 24 46 24 L23.5 24 C16.6004 24 11 18.3996 11 11.5 C11 4.60037 16.6004 -1 23.5 -1 L300.5 -1 C307.4 -1 313 4.60037 313 11.5 C313 18.3996 307.4 24 300.5 24 L286 24 C226 24 197.5 64.5 216.5 124.5 L216 125 Z M297.824 385.709 L327.5 481 C344.837 536.668 420.4 537.06 438.314 481.575 L469.069 386.317 C482.69 344.129 454.933 306 410.601 306 L356.485 306 C312.488 306 284.741 343.702 297.824 385.709 L297.824 385.709 Z " />
<glyph glyph-name="Egrave" unicode="&#xc8;" horiz-adv-x="678" d="M156 988 C156 979 180 957 215 929 L352.043 817.476 C356.425 813.909 363.145 814.37 367 818.5 C370.771 822.54 371.328 829.907 368.209 834.468 L268 981 C242 1020 221 1046 213 1046 C182 1046 156 1019 156 988 L156 988 Z M41 730 L66 730 C108 730 136 702 136 660 L136 90 C136 48 108 20 66 20 L41 20 C35.4803 20 31 15.5197 31 10 C31 4.4803 35.4803 0 41 0 L598.841 0 C602.705 0 606.69 3.22198 607.5 7 L609 14 C616.4 52.85 625.511 103.679 632.376 144.326 C633.149 148.897 630.136 154 625.5 154 C621.144 154 615.461 150.153 613.843 146.108 L609 134 C583 71 524 29 461 29 L351 29 C279 29 271 49 271 80 L271 323.56 C271 357.473 298.527 385 332.44 385 L397 385 C445 385 484 353 494 305 L503.333 258.335 C504.235 253.824 508.899 250 513.5 250 C518.192 250 522 253.808 522 258.5 L522 543.5 C522 548.192 518.192 552 513.5 552 C508.899 552 504.235 548.176 503.333 543.665 L494 497 C484 449 445 417 397 417 L332.44 417 C298.527 417 271 444.527 271 478.44 L271 659.56 C271 693.473 298.527 721 332.44 721 L460 721 C508 721 551 689 567 641 L582.356 594.078 C583.743 589.841 589.041 586 593.5 586 C598.17 586 601.756 588.218 601.232 592.859 C596.254 636.962 589.2 693.25 583.5 736 L582.25 743 C581.571 746.804 577.753 750 573.889 750 L41 750 C35.4803 750 31 745.52 31 740 C31 734.48 35.4803 730 41 730 L41 730 Z " />
<glyph glyph-name="Eacute" unicode="&#xc9;" horiz-adv-x="678" d="M374.957 817.476 L512 929 C547 958 571 981 571 988 C571 1019 545 1046 514 1046 C507 1046 486 1020 459 981 L358.791 834.468 C355.672 829.907 356.229 822.54 360 818.5 C363.855 814.37 370.575 813.909 374.957 817.476 L374.957 817.476 Z M41 730 L66 730 C108 730 136 702 136 660 L136 90 C136 48 108 20 66 20 L41 20 C35.4803 20 31 15.5197 31 10 C31 4.4803 35.4803 0 41 0 L598.841 0 C602.705 0 606.69 3.22198 607.5 7 L609 14 C616.4 52.85 625.511 103.679 632.376 144.326 C633.149 148.897 630.136 154 625.5 154 C621.144 154 615.461 150.153 613.843 146.108 L609 134 C583 71 524 29 461 29 L351 29 C279 29 271 49 271 80 L271 323.56 C271 357.473 298.527 385 332.44 385 L397 385 C445 385 484 353 494 305 L503.333 258.335 C504.235 253.824 508.899 250 513.5 250 C518.192 250 522 253.808 522 258.5 L522 543.5 C522 548.192 518.192 552 513.5 552 C508.899 552 504.235 548.176 503.333 543.665 L494 497 C484 449 445 417 397 417 L332.44 417 C298.527 417 271 444.527 271 478.44 L271 659.56 C271 693.473 298.527 721 332.44 721 L460 721 C508 721 551 689 567 641 L582.356 594.078 C583.743 589.841 589.041 586 593.5 586 C598.17 586 601.756 588.218 601.232 592.859 C596.254 636.962 589.2 693.25 583.5 736 L582.25 743 C581.571 746.804 577.753 750 573.889 750 L41 750 C35.4803 750 31 745.52 31 740 C31 734.48 35.4803 730 41 730 L41 730 Z " />
<glyph glyph-name="Ecircumflex" unicode="&#xca;" horiz-adv-x="678" d="M399 996 C391 1008 371 1037 359 1037 C346 1037 326 1008 318 996 L209.559 826.68 C206.51 821.919 207.612 815.065 212 811.5 C216.334 807.979 223.627 808.027 227.914 811.604 L319.491 888.029 C340.961 905.946 376.986 905.882 398.391 887.888 L489.11 811.633 C493.387 808.037 500.663 807.976 505 811.5 C509.388 815.065 510.49 821.919 507.441 826.68 L399 996 L399 996 Z M41 730 L66 730 C108 730 136 702 136 660 L136 90 C136 48 108 20 66 20 L41 20 C35.4803 20 31 15.5197 31 10 C31 4.4803 35.4803 0 41 0 L598.841 0 C602.705 0 606.69 3.22198 607.5 7 L609 14 C616.4 52.85 625.511 103.679 632.376 144.326 C633.149 148.897 630.136 154 625.5 154 C621.144 154 615.461 150.153 613.843 146.108 L609 134 C583 71 524 29 461 29 L351 29 C279 29 271 49 271 80 L271 323.56 C271 357.473 298.527 385 332.44 385 L397 385 C445 385 484 353 494 305 L503.333 258.335 C504.235 253.824 508.899 250 513.5 250 C518.192 250 522 253.808 522 258.5 L522 543.5 C522 548.192 518.192 552 513.5 552 C508.899 552 504.235 548.176 503.333 543.665 L494 497 C484 449 445 417 397 417 L332.44 417 C298.527 417 271 444.527 271 478.44 L271 659.56 C271 693.473 298.527 721 332.44 721 L460 721 C508 721 551 689 567 641 L582.356 594.078 C583.743 589.841 589.041 586 593.5 586 C598.17 586 601.756 588.218 601.232 592.859 C596.254 636.962 589.2 693.25 583.5 736 L582.25 743 C581.571 746.804 577.753 750 573.889 750 L41 750 C35.4803 750 31 745.52 31 740 C31 734.48 35.4803 730 41 730 L41 730 Z " />
<glyph glyph-name="Edieresis" unicode="&#xcb;" horiz-adv-x="678" d="M439 865 C483 865 513 895 513 939 C513 984 483 1014 439 1014 C394 1014 364 984 364 939 C364 895 394 865 439 865 L439 865 Z M278 865 C323 865 353 895 353 939 C353 984 323 1014 278 1014 C234 1014 204 984 204 939 C204 895 234 865 278 865 L278 865 Z M41 730 L66 730 C108 730 136 702 136 660 L136 90 C136 48 108 20 66 20 L41 20 C35.4803 20 31 15.5197 31 10 C31 4.4803 35.4803 0 41 0 L598.841 0 C602.705 0 606.69 3.22198 607.5 7 L609 14 C616.4 52.85 625.511 103.679 632.376 144.326 C633.149 148.897 630.136 154 625.5 154 C621.144 154 615.461 150.153 613.843 146.108 L609 134 C583 71 524 29 461 29 L351 29 C279 29 271 49 271 80 L271 323.56 C271 357.473 298.527 385 332.44 385 L397 385 C445 385 484 353 494 305 L503.333 258.335 C504.235 253.824 508.899 250 513.5 250 C518.192 250 522 253.808 522 258.5 L522 543.5 C522 548.192 518.192 552 513.5 552 C508.899 552 504.235 548.176 503.333 543.665 L494 497 C484 449 445 417 397 417 L332.44 417 C298.527 417 271 444.527 271 478.44 L271 659.56 C271 693.473 298.527 721 332.44 721 L460 721 C508 721 551 689 567 641 L582.356 594.078 C583.743 589.841 589.041 586 593.5 586 C598.17 586 601.756 588.218 601.232 592.859 C596.254 636.962 589.2 693.25 583.5 736 L582.25 743 C581.571 746.804 577.753 750 573.889 750 L41 750 C35.4803 750 31 745.52 31 740 C31 734.48 35.4803 730 41 730 L41 730 Z " />
<glyph glyph-name="Igrave" unicode="&#xcc;" horiz-adv-x="403" d="M-13 988 C-13 980 11 958 47 929 L182.796 817.723 C187.302 814.03 194.38 814.38 198.5 818.5 C202.572 822.572 203.246 829.99 199.974 834.729 L99 981 C73 1020 52 1046 45 1046 C14 1046 -13 1019 -13 988 L-13 988 Z M333 20 L308 20 C278 20 258 40 258 70 L258 680 C258 710 278 730 308 730 L333 730 C338.52 730 343 734.48 343 740 C343 745.52 338.52 750 333 750 L47 750 C41.4803 750 37 745.52 37 740 C37 734.48 41.4803 730 47 730 L72 730 C102 730 122 710 122 680 L122 70 C122 40 102 20 72 20 L47 20 C41.4803 20 37 15.5197 37 10 C37 4.4803 41.4803 0 47 0 L333 0 C338.52 0 343 4.4803 343 10 C343 15.5197 338.52 20 333 20 L333 20 Z " />
<glyph glyph-name="Iacute" unicode="&#xcd;" horiz-adv-x="403" d="M207.204 817.723 L343 929 C379 959 403 982 403 988 C403 1019 376 1046 345 1046 C339 1046 319 1020 291 981 L190.026 834.729 C186.754 829.99 187.428 822.572 191.5 818.5 C195.62 814.38 202.698 814.03 207.204 817.723 L207.204 817.723 Z M333 20 L308 20 C278 20 258 40 258 70 L258 680 C258 710 278 730 308 730 L333 730 C338.52 730 343 734.48 343 740 C343 745.52 338.52 750 333 750 L47 750 C41.4803 750 37 745.52 37 740 C37 734.48 41.4803 730 47 730 L72 730 C102 730 122 710 122 680 L122 70 C122 40 102 20 72 20 L47 20 C41.4803 20 37 15.5197 37 10 C37 4.4803 41.4803 0 47 0 L333 0 C338.52 0 343 4.4803 343 10 C343 15.5197 338.52 20 333 20 L333 20 Z " />
<glyph glyph-name="Icircumflex" unicode="&#xce;" horiz-adv-x="403" d="M231 996 C223 1008 203 1037 190 1037 C178 1037 158 1008 150 996 L41.3526 826.358 C38.4289 821.793 39.4033 815.05 43.5 811.5 C47.5888 807.956 54.4534 807.907 58.5929 811.391 L150.435 888.697 C171.953 906.81 208.047 906.81 229.565 888.697 L321.407 811.391 C325.547 807.907 332.411 807.956 336.5 811.5 C340.594 815.048 341.585 821.805 338.681 826.379 L231 996 L231 996 Z M333 20 L308 20 C278 20 258 40 258 70 L258 680 C258 710 278 730 308 730 L333 730 C338.52 730 343 734.48 343 740 C343 745.52 338.52 750 333 750 L47 750 C41.4803 750 37 745.52 37 740 C37 734.48 41.4803 730 47 730 L72 730 C102 730 122 710 122 680 L122 70 C122 40 102 20 72 20 L47 20 C41.4803 20 37 15.5197 37 10 C37 4.4803 41.4803 0 47 0 L333 0 C338.52 0 343 4.4803 343 10 C343 15.5197 338.52 20 333 20 L333 20 Z " />
<glyph glyph-name="Idieresis" unicode="&#xcf;" horiz-adv-x="403" d="M270 865 C315 865 345 895 345 939 C345 984 315 1014 270 1014 C226 1014 196 984 196 939 C196 895 226 865 270 865 L270 865 Z M110 865 C154 865 184 895 184 939 C184 984 154 1014 110 1014 C65 1014 35 984 35 939 C35 895 65 865 110 865 L110 865 Z M333 20 L308 20 C278 20 258 40 258 70 L258 680 C258 710 278 730 308 730 L333 730 C338.52 730 343 734.48 343 740 C343 745.52 338.52 750 333 750 L47 750 C41.4803 750 37 745.52 37 740 C37 734.48 41.4803 730 47 730 L72 730 C102 730 122 710 122 680 L122 70 C122 40 102 20 72 20 L47 20 C41.4803 20 37 15.5197 37 10 C37 4.4803 41.4803 0 47 0 L333 0 C338.52 0 343 4.4803 343 10 C343 15.5197 338.52 20 333 20 L333 20 Z " />
<glyph glyph-name="Ntilde" unicode="&#xd1;" horiz-adv-x="800" d="M256.546 880.578 C259.432 907.617 273.556 925 294 925 C344 925 412 860 462 860 C514.25 860 550.255 910.54 553.725 988.471 C553.981 994.23 549.765 1001 544 1001 C539.056 1001 533.985 995.489 533.469 990.572 C530.31 960.44 513.3 941 489 941 C439 941 371 1006 321 1006 C272.55 1006 239.443 957.265 236.253 882.087 C236.009 876.338 240.246 870 246 870 C250.934 870 256.022 875.671 256.546 880.578 L256.546 880.578 Z M-24.4881 730 L0 730 C27 730 59 714 82 689 L123.169 635.633 C127.505 630.012 135.975 605.092 135.962 597.993 L135 71 C135 41 115 21 85 21 L60 21 C54.4803 21 50 16.5197 50 11 C50 5.4803 54.4803 1 60 1 L250 1 C255.52 1 260 5.4803 260 11 C260 16.5197 255.52 21 250 21 L225 21 C195 21 175 41 175 71 L172.721 453.88 C172.478 494.688 225.127 506.897 250.225 474.72 C369.425 321.895 488.625 168.959 607.825 15.3981 C611.434 10.749 626.615 1 632.5 1 C639.951 1 646.08 7.04853 646.178 14.4988 L655 685 C657 713 677 731 706 731 L731 731 C736.52 731 741 735.48 741 741 C741 746.52 736.52 751 731 751 L541 751 C535.48 751 531 746.52 531 741 C531 735.48 535.48 731 541 731 L566 731 C596 731 616 711 616 681 L617.51 335.134 C617.677 296.97 568.732 285.424 545.112 315.4 C437.634 451.8 330.652 588.2 223.7 724.6 C215.686 734.82 186.087 751 173.1 751 L-23.4881 751 C-29.2838 751 -34.2243 746.289 -34.5 740.5 C-34.7757 734.711 -30.2838 730 -24.4881 730 L-24.4881 730 Z " />
<glyph glyph-name="Ograve" unicode="&#xd2;" horiz-adv-x="889" d="M187 375 C187 586 283 726 426 726 C583 726 687 586 687 375 C687 164 584 24 429 24 C284 24 187 164 187 375 L187 375 Z M40 375 C40 144 193 -10 422 -10 C669 -10 834 144 834 375 C834 606 673 760 432 760 C197 760 40 606 40 375 L40 375 Z M229 988 C229 980 253 958 289 929 L424.796 817.723 C429.302 814.03 436.38 814.38 440.5 818.5 C444.572 822.572 445.246 829.99 441.974 834.729 L341 981 C315 1020 294 1046 287 1046 C256 1046 229 1019 229 988 L229 988 Z " />
<glyph glyph-name="Oacute" unicode="&#xd3;" horiz-adv-x="889" d="M449.204 817.723 L585 929 C621 959 645 982 645 988 C645 1019 618 1046 587 1046 C581 1046 561 1020 533 981 L432.026 834.729 C428.754 829.99 429.428 822.572 433.5 818.5 C437.62 814.38 444.698 814.03 449.204 817.723 L449.204 817.723 Z M187 375 C187 586 283 726 426 726 C583 726 687 586 687 375 C687 164 584 24 429 24 C284 24 187 164 187 375 L187 375 Z M40 375 C40 144 193 -10 422 -10 C669 -10 834 144 834 375 C834 606 673 760 432 760 C197 760 40 606 40 375 L40 375 Z " />
<glyph glyph-name="Ocircumflex" unicode="&#xd4;" horiz-adv-x="889" d="M187 375 C187 586 283 726 426 726 C583 726 687 586 687 375 C687 164 584 24 429 24 C284 24 187 164 187 375 L187 375 Z M40 375 C40 144 193 -10 422 -10 C669 -10 834 144 834 375 C834 606 673 760 432 760 C197 760 40 606 40 375 L40 375 Z M473 996 C465 1008 445 1037 432 1037 C420 1037 400 1008 392 996 L283.353 826.358 C280.429 821.793 281.403 815.05 285.5 811.5 C289.589 807.956 296.453 807.907 300.593 811.391 L392.435 888.697 C413.953 906.81 450.047 906.81 471.565 888.697 L563.407 811.391 C567.547 807.907 574.411 807.956 578.5 811.5 C582.594 815.048 583.585 821.805 580.681 826.379 L473 996 L473 996 Z " />
<glyph glyph-name="Otilde" unicode="&#xd5;" horiz-adv-x="889" d="M293.546 880.578 C296.432 907.617 310.556 925 331 925 C381 925 449 860 499 860 C551.25 860 587.255 910.54 590.725 988.471 C590.981 994.23 586.765 1001 581 1001 C576.056 1001 570.985 995.489 570.469 990.572 C567.31 960.44 550.3 941 526 941 C476 941 408 1006 358 1006 C309.55 1006 276.443 957.265 273.253 882.087 C273.009 876.338 277.246 870 283 870 C287.934 870 293.022 875.671 293.546 880.578 L293.546 880.578 Z M187 375 C187 586 283 726 426 726 C583 726 687 586 687 375 C687 164 584 24 429 24 C284 24 187 164 187 375 L187 375 Z M40 375 C40 144 193 -10 422 -10 C669 -10 834 144 834 375 C834 606 673 760 432 760 C197 760 40 606 40 375 L40 375 Z " />
<glyph glyph-name="Odieresis" unicode="&#xd6;" horiz-adv-x="889" d="M512 865 C557 865 587 895 587 939 C587 984 557 1014 512 1014 C468 1014 438 984 438 939 C438 895 468 865 512 865 L512 865 Z M352 865 C396 865 426 895 426 939 C426 984 396 1014 352 1014 C307 1014 277 984 277 939 C277 895 307 865 352 865 L352 865 Z M187 375 C187 586 283 726 426 726 C583 726 687 586 687 375 C687 164 584 24 429 24 C284 24 187 164 187 375 L187 375 Z M40 375 C40 144 193 -10 422 -10 C669 -10 834 144 834 375 C834 606 673 760 432 760 C197 760 40 606 40 375 L40 375 Z " />
<glyph glyph-name="Oslash" unicode="&#xd8;" horiz-adv-x="889" d="M61.073 -31.9307 C62.6776 -30.4076 90.6905 -3.80338 140.619 44.5127 C154.735 58.1725 189.327 57.675 206.022 47.3256 C265.559 10.4187 338.675 -10 422 -10 C669 -10 834 144 834 375 C834 459.975 812.22 534.741 772.591 595.366 C761.293 612.649 761.453 648.008 776.252 662.407 L834.202 718.791 C846.233 730.497 846.591 749.857 835 762 C823.409 774.143 804.233 774.497 792.202 762.791 L734.621 706.767 C719.829 692.374 682.368 691.966 664.699 702.632 C601.31 740.901 523.1 762 434 762 C199 762 42 608 42 377 C42 291.2 63.0994 215.609 101.368 154.72 C112.146 137.571 113.595 104.012 99.0661 89.8986 C48.455 40.7325 21 14 21 14 C21 14 28.2394 5.67466 38.4011 -6.01128 L43.3623 -11.7167 C53.0912 -22.9048 50.3197 -42.1381 61.073 -31.9307 L61.073 -31.9307 Z M595.002 571.126 C449.106 429.596 325.28 310.019 230.891 218.426 C221.05 208.877 210.351 216.817 206.815 230.066 C195.126 273.864 189 323.55 189 378 C189 589 285 729 428 729 C500.6 729 561.629 698.712 606.596 645.436 C625.091 623.524 615.583 591.092 595.002 571.126 L595.002 571.126 Z M669.704 524.459 C682.194 481.486 689 432.625 689 379 C689 168 586 28 431 28 C364.175 28 307.559 57.2669 265.645 109.624 C248.258 131.343 253.121 157.774 273.104 177.132 C370.22 271.212 497.502 393.773 647.58 539.456 C657.441 549.029 665.869 537.656 669.704 524.459 L669.704 524.459 Z " />
<glyph glyph-name="Ugrave" unicode="&#xd9;" horiz-adv-x="812" d="M196 988 C196 980 220 958 256 929 L391.796 817.723 C396.302 814.03 403.38 814.38 407.5 818.5 C411.572 822.572 412.246 829.99 408.974 834.729 L308 981 C282 1020 261 1046 254 1046 C223 1046 196 1019 196 988 L196 988 Z M771.831 57.3851 L747 51 C717 43 697 58 697 88 L697 688.56 C697 722.473 669.473 750 635.56 750 L487 750 C481.48 750 477 745.52 477 740 C477 734.48 481.48 730 487 730 L512 730 C542 730 562 710 562 680 L562 215.63 C562 211.577 558.369 194.51 556.447 190.941 C519.392 122.125 447.05 77 372 77 C290 77 236 134 236 220 L236 688.56 C236 722.473 208.473 750 174.56 750 L26 750 C20.4803 750 16 745.52 16 740 C16 734.48 20.4803 730 26 730 L51 730 C81 730 101 710 101 680 L101 220 C101 82 188 -10 318 -10 C403.8 -10 485.516 30.8375 535.073 96.2285 C541.667 104.929 562 101.805 562 90.8876 L562 34 C562 15.233 577.233 0 596 0 L622.227 0 C623.296 0 636.493 1.66969 637.528 1.93579 L665 9 L771.829 36.3921 C777.267 37.7865 782 43.8859 782 49.5 C782 55.1131 777.267 58.783 771.831 57.3851 L771.831 57.3851 Z " />
<glyph glyph-name="Uacute" unicode="&#xda;" horiz-adv-x="812" d="M416.204 817.723 L552 929 C588 959 612 982 612 988 C612 1019 585 1046 554 1046 C548 1046 528 1020 500 981 L399.026 834.729 C395.754 829.99 396.428 822.572 400.5 818.5 C404.62 814.38 411.698 814.03 416.204 817.723 L416.204 817.723 Z M771.831 57.3851 L747 51 C717 43 697 58 697 88 L697 688.56 C697 722.473 669.473 750 635.56 750 L487 750 C481.48 750 477 745.52 477 740 C477 734.48 481.48 730 487 730 L512 730 C542 730 562 710 562 680 L562 215.63 C562 211.577 558.369 194.51 556.447 190.941 C519.392 122.125 447.05 77 372 77 C290 77 236 134 236 220 L236 688.56 C236 722.473 208.473 750 174.56 750 L26 750 C20.4803 750 16 745.52 16 740 C16 734.48 20.4803 730 26 730 L51 730 C81 730 101 710 101 680 L101 220 C101 82 188 -10 318 -10 C403.8 -10 485.516 30.8375 535.073 96.2285 C541.667 104.929 562 101.805 562 90.8876 L562 34 C562 15.233 577.233 0 596 0 L622.227 0 C623.296 0 636.493 1.66969 637.528 1.93579 L665 9 L771.829 36.3921 C777.267 37.7865 782 43.8859 782 49.5 C782 55.1131 777.267 58.783 771.831 57.3851 L771.831 57.3851 Z " />
<glyph glyph-name="Ucircumflex" unicode="&#xdb;" horiz-adv-x="812" d="M440 996 C432 1008 412 1037 399 1037 C387 1037 367 1008 359 996 L250.353 826.358 C247.429 821.793 248.403 815.05 252.5 811.5 C256.589 807.956 263.453 807.907 267.593 811.391 L359.435 888.697 C380.953 906.81 417.047 906.81 438.565 888.697 L530.407 811.391 C534.547 807.907 541.411 807.956 545.5 811.5 C549.594 815.048 550.585 821.805 547.681 826.379 L440 996 L440 996 Z M771.831 57.3851 L747 51 C717 43 697 58 697 88 L697 688.56 C697 722.473 669.473 750 635.56 750 L487 750 C481.48 750 477 745.52 477 740 C477 734.48 481.48 730 487 730 L512 730 C542 730 562 710 562 680 L562 215.63 C562 211.577 558.369 194.51 556.447 190.941 C519.392 122.125 447.05 77 372 77 C290 77 236 134 236 220 L236 688.56 C236 722.473 208.473 750 174.56 750 L26 750 C20.4803 750 16 745.52 16 740 C16 734.48 20.4803 730 26 730 L51 730 C81 730 101 710 101 680 L101 220 C101 82 188 -10 318 -10 C403.8 -10 485.516 30.8375 535.073 96.2285 C541.667 104.929 562 101.805 562 90.8876 L562 34 C562 15.233 577.233 0 596 0 L622.227 0 C623.296 0 636.493 1.66969 637.528 1.93579 L665 9 L771.829 36.3921 C777.267 37.7865 782 43.8859 782 49.5 C782 55.1131 777.267 58.783 771.831 57.3851 L771.831 57.3851 Z " />
<glyph glyph-name="Udieresis" unicode="&#xdc;" horiz-adv-x="812" d="M479 865 C524 865 554 895 554 939 C554 984 524 1014 479 1014 C435 1014 405 984 405 939 C405 895 435 865 479 865 L479 865 Z M319 865 C363 865 393 895 393 939 C393 984 363 1014 319 1014 C274 1014 244 984 244 939 C244 895 274 865 319 865 L319 865 Z M771.831 57.3851 L747 51 C717 43 697 58 697 88 L697 688.56 C697 722.473 669.473 750 635.56 750 L487 750 C481.48 750 477 745.52 477 740 C477 734.48 481.48 730 487 730 L512 730 C542 730 562 710 562 680 L562 215.63 C562 211.577 558.369 194.51 556.447 190.941 C519.392 122.125 447.05 77 372 77 C290 77 236 134 236 220 L236 688.56 C236 722.473 208.473 750 174.56 750 L26 750 C20.4803 750 16 745.52 16 740 C16 734.48 20.4803 730 26 730 L51 730 C81 730 101 710 101 680 L101 220 C101 82 188 -10 318 -10 C403.8 -10 485.516 30.8375 535.073 96.2285 C541.667 104.929 562 101.805 562 90.8876 L562 34 C562 15.233 577.233 0 596 0 L622.227 0 C623.296 0 636.493 1.66969 637.528 1.93579 L665 9 L771.829 36.3921 C777.267 37.7865 782 43.8859 782 49.5 C782 55.1131 777.267 58.783 771.831 57.3851 L771.831 57.3851 Z " />
<glyph glyph-name="Yacute" unicode="&#xdd;" horiz-adv-x="808" d="M429.957 817.476 L567 929 C602 958 626 981 626 988 C626 1019 600 1046 569 1046 C562 1046 541 1020 514 981 L413.791 834.468 C410.672 829.907 411.229 822.54 415 818.5 C418.855 814.37 425.575 813.909 429.957 817.476 L429.957 817.476 Z M250.513 0 L576 0 C581.52 0 586 4.4803 586 10 C586 15.5197 581.52 20 576 20 L551 20 C509 20 481 48 481 90 L481 304.197 C481 308.401 488.723 334.025 490.75 337.707 C552.502 449.897 614.3 562.9 677 675 C695 708 729 730 762 730 L792 730 C797.52 730 802 734.48 802 740 C802 745.52 797.52 750 792 750 L535 750 C529.48 750 525 745.52 525 740 C525 734.48 529.48 730 535 730 L586 730 C616 730 629 711 618 682 L493.446 417.219 C481.02 390.804 447.211 391.256 431.224 415.681 C374.911 501.719 318.275 588.2 263 674 C242 707 249 729 282 729 L309 729 C314.52 729 319 733.48 319 739 C319 744.52 314.52 749 309 749 L7 749 C1.4803 749 -3 744.52 -3 739 L-3 736.5 C-3 732.36 0.360225 729 4.5 729 L12 729 C45 729 82 707 104 674 L334.572 330.534 C337.78 325.755 345 302.046 345 296.29 L345 89 C345 47 317 19 275 19 L249.513 19 C244.269 19 240.224 14.7365 240.5 9.5 C240.776 4.26353 245.269 0 250.513 0 L250.513 0 Z " />
<glyph glyph-name="agrave" unicode="&#xe0;" horiz-adv-x="514" d="M515.5 127 C511.361 128.948 506.005 125.855 504.661 121.482 C496.435 94.7186 476.231 77 452 77 C421 77 400 94 400 120 L400 353 C400 461 342 510 256 510 C137 510 57 414 57 360 C57 312 86 280 129 280 C163 280 185 313 185 337 C185 356 165 377 165 399 C165 422 191 463 229 463 C263 463 285 442 285 394 L285 309.345 C285 285.768 264.784 257.804 242.329 250.618 C77.2144 197.779 37 169.775 37 93 C37 31 82 -11 149 -11 C181.4 -11 221.9 9.25 272.687 61.414 C280.148 69.0775 295.004 63.5683 299.945 54.0822 C319.54 16.4606 357.325 -6 406 -6 C461.1 -6 505.821 40.4787 522.159 111.144 C523.358 116.329 520.315 124.734 515.5 127 L515.5 127 Z M54 737 C54 729 78 707 114 678 L249.796 566.723 C254.302 563.03 261.38 563.38 265.5 567.5 C269.572 571.572 270.246 578.99 266.974 583.729 L166 730 C140 769 119 795 112 795 C81 795 54 768 54 737 L54 737 Z M286 180.013 L286 119 L286 111.5 C286 108.648 282.88 100.445 280.967 98.3289 C249.52 63.5375 226.15 50 210 50 C176 50 153 72 153 105 C153 167.4 169.32 192.36 230.632 216.744 C259.658 228.288 286 211.251 286 180.013 L286 180.013 Z " />
<glyph glyph-name="aacute" unicode="&#xe1;" horiz-adv-x="514" d="M273.204 567.723 L409 679 C445 709 469 732 469 738 C469 769 442 796 411 796 C405 796 385 770 357 731 L256.026 584.729 C252.754 579.99 253.428 572.572 257.5 568.5 C261.62 564.38 268.698 564.03 273.204 567.723 L273.204 567.723 Z M515.5 127 C511.361 128.948 506.005 125.855 504.661 121.482 C496.435 94.7186 476.231 77 452 77 C421 77 400 94 400 120 L400 353 C400 461 342 510 256 510 C137 510 57 414 57 360 C57 312 86 280 129 280 C163 280 185 313 185 337 C185 356 165 377 165 399 C165 422 191 463 229 463 C263 463 285 442 285 394 L285 309.345 C285 285.768 264.784 257.804 242.329 250.618 C77.2144 197.779 37 169.775 37 93 C37 31 82 -11 149 -11 C181.4 -11 221.9 9.25 272.687 61.414 C280.148 69.0775 295.004 63.5683 299.945 54.0822 C319.54 16.4606 357.325 -6 406 -6 C461.1 -6 505.821 40.4787 522.159 111.144 C523.358 116.329 520.315 124.734 515.5 127 L515.5 127 Z M286 180.013 L286 119 L286 111.5 C286 108.648 282.88 100.445 280.967 98.3289 C249.52 63.5375 226.15 50 210 50 C176 50 153 72 153 105 C153 167.4 169.32 192.36 230.632 216.744 C259.658 228.288 286 211.251 286 180.013 L286 180.013 Z " />
<glyph glyph-name="acircumflex" unicode="&#xe2;" horiz-adv-x="514" d="M515.5 127 C511.361 128.948 506.005 125.855 504.661 121.482 C496.435 94.7186 476.231 77 452 77 C421 77 400 94 400 120 L400 353 C400 461 342 510 256 510 C137 510 57 414 57 360 C57 312 86 280 129 280 C163 280 185 313 185 337 C185 356 165 377 165 399 C165 422 191 463 229 463 C263 463 285 442 285 394 L285 309.345 C285 285.768 264.784 257.804 242.329 250.618 C77.2144 197.779 37 169.775 37 93 C37 31 82 -11 149 -11 C181.4 -11 221.9 9.25 272.687 61.414 C280.148 69.0775 295.004 63.5683 299.945 54.0822 C319.54 16.4606 357.325 -6 406 -6 C461.1 -6 505.821 40.4787 522.159 111.144 C523.358 116.329 520.315 124.734 515.5 127 L515.5 127 Z M298 745 C290 757 270 786 257 786 C245 786 225 757 217 745 L108.353 575.358 C105.429 570.793 106.403 564.05 110.5 560.5 C114.589 556.956 121.453 556.907 125.593 560.391 L217.435 637.697 C238.953 655.81 275.047 655.81 296.565 637.697 L388.407 560.391 C392.547 556.907 399.411 556.956 403.5 560.5 C407.594 564.048 408.585 570.805 405.681 575.379 L298 745 L298 745 Z M286 180.013 L286 119 L286 111.5 C286 108.648 282.88 100.445 280.967 98.3289 C249.52 63.5375 226.15 50 210 50 C176 50 153 72 153 105 C153 167.4 169.32 192.36 230.632 216.744 C259.658 228.288 286 211.251 286 180.013 L286 180.013 Z " />
<glyph glyph-name="atilde" unicode="&#xe3;" horiz-adv-x="514" d="M117.546 630.578 C120.432 657.617 134.556 675 155 675 C205 675 273 610 323 610 C375.25 610 411.255 660.54 414.725 738.471 C414.981 744.23 410.765 751 405 751 C400.056 751 394.985 745.489 394.469 740.572 C391.31 710.44 374.3 691 350 691 C300 691 232 756 182 756 C133.55 756 100.443 707.265 97.2529 632.087 C97.009 626.338 101.246 620 107 620 C111.934 620 117.022 625.671 117.546 630.578 L117.546 630.578 Z M515.5 127 C511.361 128.948 506.005 125.855 504.661 121.482 C496.435 94.7186 476.231 77 452 77 C421 77 400 94 400 120 L400 353 C400 461 342 510 256 510 C137 510 57 414 57 360 C57 312 86 280 129 280 C163 280 185 313 185 337 C185 356 165 377 165 399 C165 422 191 463 229 463 C263 463 285 442 285 394 L285 309.345 C285 285.768 264.784 257.804 242.329 250.618 C77.2144 197.779 37 169.775 37 93 C37 31 82 -11 149 -11 C181.4 -11 221.9 9.25 272.687 61.414 C280.148 69.0775 295.004 63.5683 299.945 54.0822 C319.54 16.4606 357.325 -6 406 -6 C461.1 -6 505.821 40.4787 522.159 111.144 C523.358 116.329 520.315 124.734 515.5 127 L515.5 127 Z M286 180.013 L286 119 L286 111.5 C286 108.648 282.88 100.445 280.967 98.3289 C249.52 63.5375 226.15 50 210 50 C176 50 153 72 153 105 C153 167.4 169.32 192.36 230.632 216.744 C259.658 228.288 286 211.251 286 180.013 L286 180.013 Z " />
<glyph glyph-name="adieresis" unicode="&#xe4;" horiz-adv-x="514" d="M336 615 C381 615 411 645 411 689 C411 734 381 764 336 764 C292 764 262 734 262 689 C262 645 292 615 336 615 L336 615 Z M176 615 C220 615 250 645 250 689 C250 734 220 764 176 764 C131 764 101 734 101 689 C101 645 131 615 176 615 L176 615 Z M515.5 127 C511.361 128.948 506.005 125.855 504.661 121.482 C496.435 94.7186 476.231 77 452 77 C421 77 400 94 400 120 L400 353 C400 461 342 510 256 510 C137 510 57 414 57 360 C57 312 86 280 129 280 C163 280 185 313 185 337 C185 356 165 377 165 399 C165 422 191 463 229 463 C263 463 285 442 285 394 L285 309.345 C285 285.768 264.784 257.804 242.329 250.618 C77.2144 197.779 37 169.775 37 93 C37 31 82 -11 149 -11 C181.4 -11 221.9 9.25 272.687 61.414 C280.148 69.0775 295.004 63.5683 299.945 54.0822 C319.54 16.4606 357.325 -6 406 -6 C461.1 -6 505.821 40.4787 522.159 111.144 C523.358 116.329 520.315 124.734 515.5 127 L515.5 127 Z M286 180.013 L286 119 L286 111.5 C286 108.648 282.88 100.445 280.967 98.3289 C249.52 63.5375 226.15 50 210 50 C176 50 153 72 153 105 C153 167.4 169.32 192.36 230.632 216.744 C259.658 228.288 286 211.251 286 180.013 L286 180.013 Z " />
<glyph glyph-name="aring" unicode="&#xe5;" horiz-adv-x="514" d="M191 655 C191 696 217 723 256 723 C295 723 321 696 321 655 C321 618 291 587 256 587 C221 587 191 618 191 655 L191 655 Z M158 655 C158 604 203 560 256 560 C309 560 354 604 354 655 C354 712 315 750 256 750 C197 750 158 712 158 655 L158 655 Z M515.5 127 C511.361 128.948 506.005 125.855 504.661 121.482 C496.435 94.7186 476.231 77 452 77 C421 77 400 94 400 120 L400 353 C400 461 342 510 256 510 C137 510 57 414 57 360 C57 312 86 280 129 280 C163 280 185 313 185 337 C185 356 165 377 165 399 C165 422 191 463 229 463 C263 463 285 442 285 394 L285 309.345 C285 285.768 264.784 257.804 242.329 250.618 C77.2144 197.779 37 169.775 37 93 C37 31 82 -11 149 -11 C181.4 -11 221.9 9.25 272.687 61.414 C280.148 69.0775 295.004 63.5683 299.945 54.0822 C319.54 16.4606 357.325 -6 406 -6 C461.1 -6 505.821 40.4787 522.159 111.144 C523.358 116.329 520.315 124.734 515.5 127 L515.5 127 Z M286 180.013 L286 119 L286 111.5 C286 108.648 282.88 100.445 280.967 98.3289 C249.52 63.5375 226.15 50 210 50 C176 50 153 72 153 105 C153 167.4 169.32 192.36 230.632 216.744 C259.658 228.288 286 211.251 286 180.013 L286 180.013 Z " />
<glyph glyph-name="egrave" unicode="&#xe8;" horiz-adv-x="548" d="M102 738 C102 730 126 708 162 679 L297.796 567.723 C302.302 564.03 309.38 564.38 313.5 568.5 C317.572 572.572 318.246 579.99 314.974 584.729 L214 731 C188 770 167 796 160 796 C129 796 102 769 102 738 L102 738 Z M179.618 340 L456.016 340 C495.923 340 516.975 360.739 501.19 397.391 C466.762 477.33 395.75 510 305 510 C149 510 45 431 45 228 C45 85 140 -10 282 -10 C382.425 -10 469.541 44.1856 502.567 125.678 C504.122 129.515 501.98 132.863 498 134 C494.671 134.951 489.894 132.89 488.32 129.807 C468.647 91.27 398.3 66 309 66 C223 66 166 150 166 275 C166 294.714 166.675 313.079 168.578 329.54 C169.21 335.003 174.119 340 179.618 340 L179.618 340 Z M343.899 371.021 L217.453 368.011 C191.63 367.396 177.096 382.245 186.872 406.154 C209.24 460.859 248.675 484 299 484 C328.7 484 354.997 462.22 373.96 409.676 C382.176 386.91 368.095 371.598 343.899 371.021 L343.899 371.021 Z " />
<glyph glyph-name="eacute" unicode="&#xe9;" horiz-adv-x="548" d="M322.204 567.723 L458 679 C494 709 518 732 518 738 C518 769 491 796 460 796 C454 796 434 770 406 731 L305.026 584.729 C301.754 579.99 302.428 572.572 306.5 568.5 C310.62 564.38 317.698 564.03 322.204 567.723 L322.204 567.723 Z M179.618 340 L456.016 340 C495.923 340 516.975 360.739 501.19 397.391 C466.762 477.33 395.75 510 305 510 C149 510 45 431 45 228 C45 85 140 -10 282 -10 C382.425 -10 469.541 44.1856 502.567 125.678 C504.122 129.515 501.98 132.863 498 134 C494.671 134.951 489.894 132.89 488.32 129.807 C468.647 91.27 398.3 66 309 66 C223 66 166 150 166 275 C166 294.714 166.675 313.079 168.578 329.54 C169.21 335.003 174.119 340 179.618 340 L179.618 340 Z M343.899 371.021 L217.453 368.011 C191.63 367.396 177.096 382.245 186.872 406.154 C209.24 460.859 248.675 484 299 484 C328.7 484 354.997 462.22 373.96 409.676 C382.176 386.91 368.095 371.598 343.899 371.021 L343.899 371.021 Z " />
<glyph glyph-name="ecircumflex" unicode="&#xea;" horiz-adv-x="548" d="M346 746 C338 758 318 787 305 787 C293 787 273 758 265 746 L156.353 576.358 C153.429 571.793 154.403 565.05 158.5 561.5 C162.589 557.956 169.453 557.907 173.593 561.391 L265.435 638.697 C286.953 656.81 323.047 656.81 344.565 638.697 L436.407 561.391 C440.547 557.907 447.411 557.956 451.5 561.5 C455.594 565.048 456.585 571.805 453.681 576.379 L346 746 L346 746 Z M179.618 340 L456.016 340 C495.923 340 516.975 360.739 501.19 397.391 C466.762 477.33 395.75 510 305 510 C149 510 45 431 45 228 C45 85 140 -10 282 -10 C382.425 -10 469.541 44.1856 502.567 125.678 C504.122 129.515 501.98 132.863 498 134 C494.671 134.951 489.894 132.89 488.32 129.807 C468.647 91.27 398.3 66 309 66 C223 66 166 150 166 275 C166 294.714 166.675 313.079 168.578 329.54 C169.21 335.003 174.119 340 179.618 340 L179.618 340 Z M343.899 371.021 L217.453 368.011 C191.63 367.396 177.096 382.245 186.872 406.154 C209.24 460.859 248.675 484 299 484 C328.7 484 354.997 462.22 373.96 409.676 C382.176 386.91 368.095 371.598 343.899 371.021 L343.899 371.021 Z " />
<glyph glyph-name="edieresis" unicode="&#xeb;" horiz-adv-x="548" d="M385 615 C430 615 460 645 460 689 C460 734 430 764 385 764 C341 764 311 734 311 689 C311 645 341 615 385 615 L385 615 Z M225 615 C269 615 299 645 299 689 C299 734 269 764 225 764 C180 764 150 734 150 689 C150 645 180 615 225 615 L225 615 Z M179.618 340 L456.016 340 C495.923 340 516.975 360.739 501.19 397.391 C466.762 477.33 395.75 510 305 510 C149 510 45 431 45 228 C45 85 140 -10 282 -10 C382.425 -10 469.541 44.1856 502.567 125.678 C504.122 129.515 501.98 132.863 498 134 C494.671 134.951 489.894 132.89 488.32 129.807 C468.647 91.27 398.3 66 309 66 C223 66 166 150 166 275 C166 294.714 166.675 313.079 168.578 329.54 C169.21 335.003 174.119 340 179.618 340 L179.618 340 Z M343.899 371.021 L217.453 368.011 C191.63 367.396 177.096 382.245 186.872 406.154 C209.24 460.859 248.675 484 299 484 C328.7 484 354.997 462.22 373.96 409.676 C382.176 386.91 368.095 371.598 343.899 371.021 L343.899 371.021 Z " />
<glyph glyph-name="igrave" unicode="&#xec;" horiz-adv-x="342" d="M-28 738 C-28 729 -4 707 31 679 L168.043 567.476 C172.425 563.909 179.145 564.37 183 568.5 C186.771 572.54 187.328 579.907 184.209 584.468 L84 731 C58 770 37 796 29 796 C-2 796 -28 769 -28 738 L-28 738 Z M61.6782 450.516 L102 461 C111 463 117 459 117 450 L117 35 C117 26 111 20 102 20 L62 20 C56.4803 20 52 15.5197 52 10 C52 4.4803 56.4803 0 62 0 L287 0 C292.52 0 297 4.4803 297 10 C297 15.5197 292.52 20 287 20 L247 20 C238 20 232 26 232 35 L232 471.5 C232 487.231 219.231 500 203.5 500 L182.365 500 C181.374 500 167.445 498.148 166.483 497.91 C133.617 489.784 93.3826 479.147 60.5174 470.298 C55.3657 468.911 52 463.335 52 458 C52 452.658 56.508 449.172 61.6782 450.516 L61.6782 450.516 Z " />
<glyph glyph-name="iacute" unicode="&#xed;" horiz-adv-x="342" d="M-28 738 C-28 729 -4 707 31 679 L168.043 567.476 C172.425 563.909 179.145 564.37 183 568.5 C186.771 572.54 187.328 579.907 184.209 584.468 L84 731 C58 770 37 796 29 796 C-2 796 -28 769 -28 738 L-28 738 Z M61.6782 450.516 L102 461 C111 463 117 459 117 450 L117 35 C117 26 111 20 102 20 L62 20 C56.4803 20 52 15.5197 52 10 C52 4.4803 56.4803 0 62 0 L287 0 C292.52 0 297 4.4803 297 10 C297 15.5197 292.52 20 287 20 L247 20 C238 20 232 26 232 35 L232 471.5 C232 487.231 219.231 500 203.5 500 L182.365 500 C181.374 500 167.445 498.148 166.483 497.91 C133.617 489.784 93.3826 479.147 60.5174 470.298 C55.3657 468.911 52 463.335 52 458 C52 452.658 56.508 449.172 61.6782 450.516 L61.6782 450.516 Z " />
<glyph glyph-name="icircumflex" unicode="&#xee;" horiz-adv-x="342" d="M215 746 C207 758 187 787 175 787 C162 787 142 758 134 746 L25.5592 576.68 C22.5102 571.919 23.6122 565.065 28 561.5 C32.3337 557.979 39.6268 558.027 43.914 561.604 L135.491 638.029 C156.961 655.946 192.986 655.882 214.391 637.888 L305.11 561.633 C309.387 558.037 316.663 557.976 321 561.5 C325.388 565.065 326.49 571.919 323.441 576.68 L215 746 L215 746 Z M61.6782 450.516 L102 461 C111 463 117 459 117 450 L117 35 C117 26 111 20 102 20 L62 20 C56.4803 20 52 15.5197 52 10 C52 4.4803 56.4803 0 62 0 L287 0 C292.52 0 297 4.4803 297 10 C297 15.5197 292.52 20 287 20 L247 20 C238 20 232 26 232 35 L232 471.5 C232 487.231 219.231 500 203.5 500 L182.365 500 C181.374 500 167.445 498.148 166.483 497.91 C133.617 489.784 93.3826 479.147 60.5174 470.298 C55.3657 468.911 52 463.335 52 458 C52 452.658 56.508 449.172 61.6782 450.516 L61.6782 450.516 Z " />
<glyph glyph-name="idieresis" unicode="&#xef;" horiz-adv-x="342" d="M255 615 C299 615 329 645 329 689 C329 734 299 764 255 764 C210 764 180 734 180 689 C180 645 210 615 255 615 L255 615 Z M94 615 C139 615 169 645 169 689 C169 734 139 764 94 764 C50 764 20 734 20 689 C20 645 50 615 94 615 L94 615 Z M61.6782 450.516 L102 461 C111 463 117 459 117 450 L117 35 C117 26 111 20 102 20 L62 20 C56.4803 20 52 15.5197 52 10 C52 4.4803 56.4803 0 62 0 L287 0 C292.52 0 297 4.4803 297 10 C297 15.5197 292.52 20 287 20 L247 20 C238 20 232 26 232 35 L232 471.5 C232 487.231 219.231 500 203.5 500 L182.365 500 C181.374 500 167.445 498.148 166.483 497.91 C133.617 489.784 93.3826 479.147 60.5174 470.298 C55.3657 468.911 52 463.335 52 458 C52 452.658 56.508 449.172 61.6782 450.516 L61.6782 450.516 Z " />
<glyph glyph-name="ntilde" unicode="&#xf1;" horiz-adv-x="599" d="M151.546 630.578 C154.432 657.617 168.556 675 189 675 C239 675 307 610 357 610 C409.25 610 445.255 660.54 448.725 738.471 C448.981 744.23 444.765 751 439 751 C434.056 751 428.985 745.489 428.469 740.572 C425.31 710.44 408.3 691 384 691 C334 691 266 756 216 756 C167.55 756 134.443 707.265 131.253 632.087 C131.009 626.338 135.246 620 141 620 C145.934 620 151.022 625.671 151.546 630.578 L151.546 630.578 Z M16.9925 455.7 L31 455 C58 454 76 435 76 408 L76 35 C76 26 70 20 61 20 L21 20 C15.4803 20 11 15.5197 11 10 C11 4.4803 15.4803 0 21 0 L246 0 C251.52 0 256 4.4803 256 10 C256 15.5197 251.52 20 246 20 L206 20 C197 20 191 26 191 35 L191 342.595 C191 349.381 196.401 367.936 200.473 373.363 C224.453 405.328 260.875 426 295 426 C357 426 389 384 389 321 L389 35 C389 26 383 20 374 20 L334 20 C328.48 20 324 15.5197 324 10 C324 4.4803 328.48 0 334 0 L559 0 C564.52 0 569 4.4803 569 10 C569 15.5197 564.52 20 559 20 L519 20 C510 20 504 26 504 35 L504 321 C504 434 456 510 363 510 C311.025 510 255.647 478.011 214.834 427.508 C208.047 419.11 191 422.763 191 433.562 L191 471.5 C191 487.231 178.231 500 162.5 500 L141.365 500 C140.374 500 126.445 498.148 125.483 497.91 C91.6508 489.545 50.0095 478.519 16.637 469.522 C13.5476 468.689 11 465.2 11 462 C11 458.692 13.689 455.866 16.9925 455.7 L16.9925 455.7 Z " />
<glyph glyph-name="ograve" unicode="&#xf2;" horiz-adv-x="622" d="M172 250 C172 385 228 475 311 475 C394 475 450 385 450 250 C450 115 394 25 311 25 C228 25 172 115 172 250 L172 250 Z M45 250 C45 94 151 -10 311 -10 C471 -10 577 94 577 250 C577 406 471 510 311 510 C151 510 45 406 45 250 L45 250 Z M108 738 C108 730 132 708 168 679 L303.796 567.723 C308.302 564.03 315.38 564.38 319.5 568.5 C323.572 572.572 324.246 579.99 320.974 584.729 L220 731 C194 770 173 796 166 796 C135 796 108 769 108 738 L108 738 Z " />
<glyph glyph-name="oacute" unicode="&#xf3;" horiz-adv-x="622" d="M328.204 567.723 L464 679 C500 709 524 732 524 738 C524 769 497 796 466 796 C460 796 440 770 412 731 L311.026 584.729 C307.754 579.99 308.428 572.572 312.5 568.5 C316.62 564.38 323.698 564.03 328.204 567.723 L328.204 567.723 Z M172 250 C172 385 228 475 311 475 C394 475 450 385 450 250 C450 115 394 25 311 25 C228 25 172 115 172 250 L172 250 Z M45 250 C45 94 151 -10 311 -10 C471 -10 577 94 577 250 C577 406 471 510 311 510 C151 510 45 406 45 250 L45 250 Z " />
<glyph glyph-name="ocircumflex" unicode="&#xf4;" horiz-adv-x="622" d="M172 250 C172 385 228 475 311 475 C394 475 450 385 450 250 C450 115 394 25 311 25 C228 25 172 115 172 250 L172 250 Z M45 250 C45 94 151 -10 311 -10 C471 -10 577 94 577 250 C577 406 471 510 311 510 C151 510 45 406 45 250 L45 250 Z M352 746 C344 758 324 787 311 787 C299 787 279 758 271 746 L162.353 576.358 C159.429 571.793 160.403 565.05 164.5 561.5 C168.589 557.956 175.453 557.907 179.593 561.391 L271.435 638.697 C292.953 656.81 329.047 656.81 350.565 638.697 L442.407 561.391 C446.547 557.907 453.411 557.956 457.5 561.5 C461.594 565.048 462.585 571.805 459.681 576.379 L352 746 L352 746 Z " />
<glyph glyph-name="otilde" unicode="&#xf5;" horiz-adv-x="622" d="M172.546 630.578 C175.432 657.617 189.556 675 210 675 C260 675 328 610 378 610 C430.25 610 466.255 660.54 469.725 738.471 C469.981 744.23 465.765 751 460 751 C455.056 751 449.985 745.489 449.469 740.572 C446.31 710.44 429.3 691 405 691 C355 691 287 756 237 756 C188.55 756 155.443 707.265 152.253 632.087 C152.009 626.338 156.246 620 162 620 C166.934 620 172.022 625.671 172.546 630.578 L172.546 630.578 Z M172 250 C172 385 228 475 311 475 C394 475 450 385 450 250 C450 115 394 25 311 25 C228 25 172 115 172 250 L172 250 Z M45 250 C45 94 151 -10 311 -10 C471 -10 577 94 577 250 C577 406 471 510 311 510 C151 510 45 406 45 250 L45 250 Z " />
<glyph glyph-name="odieresis" unicode="&#xf6;" horiz-adv-x="622" d="M391 615 C436 615 466 645 466 689 C466 734 436 764 391 764 C347 764 317 734 317 689 C317 645 347 615 391 615 L391 615 Z M231 615 C275 615 305 645 305 689 C305 734 275 764 231 764 C186 764 156 734 156 689 C156 645 186 615 231 615 L231 615 Z M172 250 C172 385 228 475 311 475 C394 475 450 385 450 250 C450 115 394 25 311 25 C228 25 172 115 172 250 L172 250 Z M45 250 C45 94 151 -10 311 -10 C471 -10 577 94 577 250 C577 406 471 510 311 510 C151 510 45 406 45 250 L45 250 Z " />
<glyph glyph-name="oslash" unicode="&#xf8;" horiz-adv-x="622" d="M59.0487 -24.9513 C60.1191 -23.8814 78.8177 -5.20031 112.898 28.2844 C122.642 37.858 146.455 37.2648 158.068 30.0718 C199.687 4.29312 251.6 -10 311 -10 C471 -10 577 94 577 250 C577 313 559.99 367.09 528.886 409.354 C523.935 416.081 524.611 429.345 530.605 435.162 C546.225 450.319 561.919 465.825 577.962 481.405 C584.782 488.029 585.664 499.717 579.177 506.668 L575.062 511.077 C568.445 518.166 556.777 517.778 549.88 510.962 C533.65 494.919 517.494 479.225 501.687 463.605 C495.657 457.647 481.966 456.75 475.025 461.615 C431.69 491.99 375.8 509 311 509 C151 509 45 405 45 249 C45 191.25 59.2931 140.987 85.6333 100.457 C93.1184 88.9392 94.1149 66.3248 84.2844 56.731 C49.785 23.0625 31 5 31 5 C31 5 36.4115 -0.798005 43.3054 -8.18435 L46.4557 -11.5597 C53.3741 -18.9722 51.8773 -32.1193 59.0487 -24.9513 L59.0487 -24.9513 Z M402.638 368.296 C320.495 288.652 249.301 219.248 191.735 163.434 C186.653 158.508 180.003 162.129 178.606 169.067 C173.723 193.322 171 220.3 171 250 C171 385 227 475 310 475 C350.425 475 385.065 453.22 409.427 415.275 C419.545 399.517 416.083 381.332 402.638 368.296 L402.638 368.296 Z M441.394 330.938 C446.278 306.708 449 279.875 449 251 C449 116 393 26 310 26 C269.575 26 235.276 47.78 211.032 85.7248 C200.982 101.456 203.051 117.854 216.452 130.851 C274.788 187.428 347.059 257.864 431.254 339.477 C436.334 344.402 439.996 337.873 441.394 330.938 L441.394 330.938 Z " />
<glyph glyph-name="ugrave" unicode="&#xf9;" horiz-adv-x="590" d="M83 738 C83 730 107 708 143 679 L278.796 567.723 C283.302 564.03 290.38 564.38 294.5 568.5 C298.572 572.572 299.246 579.99 295.974 584.729 L195 731 C169 770 148 796 141 796 C110 796 83 769 83 738 L83 738 Z M565.37 52.3037 L550 48 C520 40 500 55 500 85 L500 438.56 C500 472.473 472.473 500 438.56 500 L330 500 C324.48 500 320 495.52 320 490 C320 484.48 324.48 480 330 480 L370 480 C379 480 385 474 385 465 L385 164.702 C385 160.356 381.607 144.058 379.478 140.268 C355.383 97.38 314.475 70 271 70 C221 70 187 106 187 160 L187 438.56 C187 472.473 159.473 500 125.56 500 L17 500 C11.4803 500 7 495.52 7 490 C7 484.48 11.4803 480 17 480 L57 480 C66 480 72 474 72 465 L72 160 C72 58 130 -10 217 -10 C273.925 -10 328.808 24.0312 364.804 79.1789 C369.57 86.4807 385 83.8328 385 75.1132 L385 28.5011 C385 12.77 397.769 -0.112013 413.5 -0.25 L433.432 -0.42484 C434.694 -0.435916 450.231 1.74988 451.45 2.08056 C487.931 11.9798 532.773 23.4868 568.747 33.2886 C573.898 34.6921 575 39.6614 575 45 C575 50.3153 570.489 53.7369 565.37 52.3037 L565.37 52.3037 Z " />
<glyph glyph-name="uacute" unicode="&#xfa;" horiz-adv-x="590" d="M303.204 567.723 L439 679 C475 709 499 732 499 738 C499 769 472 796 441 796 C435 796 415 770 387 731 L286.026 584.729 C282.754 579.99 283.428 572.572 287.5 568.5 C291.62 564.38 298.698 564.03 303.204 567.723 L303.204 567.723 Z M565.37 52.3037 L550 48 C520 40 500 55 500 85 L500 438.56 C500 472.473 472.473 500 438.56 500 L330 500 C324.48 500 320 495.52 320 490 C320 484.48 324.48 480 330 480 L370 480 C379 480 385 474 385 465 L385 164.702 C385 160.356 381.607 144.058 379.478 140.268 C355.383 97.38 314.475 70 271 70 C221 70 187 106 187 160 L187 438.56 C187 472.473 159.473 500 125.56 500 L17 500 C11.4803 500 7 495.52 7 490 C7 484.48 11.4803 480 17 480 L57 480 C66 480 72 474 72 465 L72 160 C72 58 130 -10 217 -10 C273.925 -10 328.808 24.0312 364.804 79.1789 C369.57 86.4807 385 83.8328 385 75.1132 L385 28.5011 C385 12.77 397.769 -0.112013 413.5 -0.25 L433.432 -0.42484 C434.694 -0.435916 450.231 1.74988 451.45 2.08056 C487.931 11.9798 532.773 23.4868 568.747 33.2886 C573.898 34.6921 575 39.6614 575 45 C575 50.3153 570.489 53.7369 565.37 52.3037 L565.37 52.3037 Z " />
<glyph glyph-name="ucircumflex" unicode="&#xfb;" horiz-adv-x="590" d="M327 746 C319 758 299 787 286 787 C274 787 254 758 246 746 L137.353 576.358 C134.429 571.793 135.403 565.05 139.5 561.5 C143.589 557.956 150.453 557.907 154.593 561.391 L246.435 638.697 C267.953 656.81 304.047 656.81 325.565 638.697 L417.407 561.391 C421.547 557.907 428.411 557.956 432.5 561.5 C436.594 565.048 437.585 571.805 434.681 576.379 L327 746 L327 746 Z M565.37 52.3037 L550 48 C520 40 500 55 500 85 L500 438.56 C500 472.473 472.473 500 438.56 500 L330 500 C324.48 500 320 495.52 320 490 C320 484.48 324.48 480 330 480 L370 480 C379 480 385 474 385 465 L385 164.702 C385 160.356 381.607 144.058 379.478 140.268 C355.383 97.38 314.475 70 271 70 C221 70 187 106 187 160 L187 438.56 C187 472.473 159.473 500 125.56 500 L17 500 C11.4803 500 7 495.52 7 490 C7 484.48 11.4803 480 17 480 L57 480 C66 480 72 474 72 465 L72 160 C72 58 130 -10 217 -10 C273.925 -10 328.808 24.0312 364.804 79.1789 C369.57 86.4807 385 83.8328 385 75.1132 L385 28.5011 C385 12.77 397.769 -0.112013 413.5 -0.25 L433.432 -0.42484 C434.694 -0.435916 450.231 1.74988 451.45 2.08056 C487.931 11.9798 532.773 23.4868 568.747 33.2886 C573.898 34.6921 575 39.6614 575 45 C575 50.3153 570.489 53.7369 565.37 52.3037 L565.37 52.3037 Z " />
<glyph glyph-name="udieresis" unicode="&#xfc;" horiz-adv-x="590" d="M366 615 C411 615 441 645 441 689 C441 734 411 764 366 764 C322 764 292 734 292 689 C292 645 322 615 366 615 L366 615 Z M206 615 C250 615 280 645 280 689 C280 734 250 764 206 764 C161 764 131 734 131 689 C131 645 161 615 206 615 L206 615 Z M565.37 52.3037 L550 48 C520 40 500 55 500 85 L500 438.56 C500 472.473 472.473 500 438.56 500 L330 500 C324.48 500 320 495.52 320 490 C320 484.48 324.48 480 330 480 L370 480 C379 480 385 474 385 465 L385 164.702 C385 160.356 381.607 144.058 379.478 140.268 C355.383 97.38 314.475 70 271 70 C221 70 187 106 187 160 L187 438.56 C187 472.473 159.473 500 125.56 500 L17 500 C11.4803 500 7 495.52 7 490 C7 484.48 11.4803 480 17 480 L57 480 C66 480 72 474 72 465 L72 160 C72 58 130 -10 217 -10 C273.925 -10 328.808 24.0312 364.804 79.1789 C369.57 86.4807 385 83.8328 385 75.1132 L385 28.5011 C385 12.77 397.769 -0.112013 413.5 -0.25 L433.432 -0.42484 C434.694 -0.435916 450.231 1.74988 451.45 2.08056 C487.931 11.9798 532.773 23.4868 568.747 33.2886 C573.898 34.6921 575 39.6614 575 45 C575 50.3153 570.489 53.7369 565.37 52.3037 L565.37 52.3037 Z " />
<glyph glyph-name="ydieresis" unicode="&#xff;" horiz-adv-x="602" d="M418 615 C462 615 492 645 492 689 C492 734 462 764 418 764 C373 764 343 734 343 689 C343 645 373 615 418 615 L418 615 Z M257 615 C302 615 332 645 332 689 C332 734 302 764 257 764 C213 764 183 734 183 689 C183 645 213 615 257 615 L257 615 Z M250.988 500 L25 500 C19.4803 500 15 495.52 15 490 C15 484.827 18.668 480.053 23.8308 479.728 C59.4381 477.488 86.425 461.3 104 428 L304.902 9.45392 C306.22 6.70843 306.276 -0.734904 305 -3.5 L302 -10 L247 -151 C237 -177 222 -194 220 -194 C198 -194 193 -156 170 -156 C141 -156 121 -176 121 -205 C121 -238 143 -260 175 -260 C205 -260 253 -222 275 -166 L337 -10 C394 137 450 285 506 432 C520.8 463.45 545.867 477.788 580.411 479.761 C585.607 480.058 589 484.795 589 490 C589 495.52 584.52 500 579 500 L424 500 C418.48 500 414 495.52 414 490 L414 484.5 C414 482.016 416.016 480 418.5 480 L423 480 C452 480 465 458 454 425 L409 287.5 C391.818 234.998 325.289 230.623 301.379 280.422 L231 427 C216 459 225 480 252 480 L256 480 C258.205 480 260.09 481.793 260.2 483.995 L260.5 490 C260.776 495.513 256.507 500 250.988 500 L250.988 500 Z " />
<glyph glyph-name="Amacron" unicode="&#x100;" horiz-adv-x="831" d="M322 890 L542 890 C564.079 890 582 907.921 582 930 C582 952.079 564.079 970 542 970 L322 970 C299.921 970 282 952.079 282 930 C282 907.921 299.921 890 322 890 L322 890 Z M216 125 L248.516 228.909 C255.619 251.608 283.367 272 307.152 272 L461.174 272 C484.736 272 512.49 251.75 519.682 229.313 L556 116 C570 61 543 25 486 25 L471.5 25 C464.6 25 459 19.3996 459 12.5 C459 5.60037 464.6 0 471.5 0 L811.5 0 C818.4 0 824 5.60037 824 12.5 L824 17.5 C824 21.6398 820.64 25 816.5 25 L809 25 C763 25 719 61 698 116 L500.948 705.167 C500.898 705.315 500.009 707.96 499.974 708.112 C499.305 711.012 485.85 769 480 769 L473 769 C470 769 466.558 765.958 466.358 762.965 C464.759 739.006 427.237 717.517 369.83 708.705 C367.051 708.278 365.692 705.693 366.5 703 C366.974 701.419 363.671 684.873 363.154 683.306 C301.769 497.155 240.385 310.103 179 124 C159 64 106 24 46 24 L23.5 24 C16.6004 24 11 18.3996 11 11.5 C11 4.60037 16.6004 -1 23.5 -1 L300.5 -1 C307.4 -1 313 4.60037 313 11.5 C313 18.3996 307.4 24 300.5 24 L286 24 C226 24 197.5 64.5 216.5 124.5 L216 125 Z M297.824 385.709 L327.5 481 C344.837 536.668 420.4 537.06 438.314 481.575 L469.069 386.317 C482.69 344.129 454.933 306 410.601 306 L356.485 306 C312.488 306 284.741 343.702 297.824 385.709 L297.824 385.709 Z " />
<glyph glyph-name="amacron" unicode="&#x101;" horiz-adv-x="514" d="M146 640 L366 640 C388.079 640 406 657.921 406 680 C406 702.079 388.079 720 366 720 L146 720 C123.921 720 106 702.079 106 680 C106 657.921 123.921 640 146 640 L146 640 Z M515.5 127 C511.361 128.948 506.005 125.855 504.661 121.482 C496.435 94.7186 476.231 77 452 77 C421 77 400 94 400 120 L400 353 C400 461 342 510 256 510 C137 510 57 414 57 360 C57 312 86 280 129 280 C163 280 185 313 185 337 C185 356 165 377 165 399 C165 422 191 463 229 463 C263 463 285 442 285 394 L285 309.345 C285 285.768 264.784 257.804 242.329 250.618 C77.2144 197.779 37 169.775 37 93 C37 31 82 -11 149 -11 C181.4 -11 221.9 9.25 272.687 61.414 C280.148 69.0775 295.004 63.5683 299.945 54.0822 C319.54 16.4606 357.325 -6 406 -6 C461.1 -6 505.821 40.4787 522.159 111.144 C523.358 116.329 520.315 124.734 515.5 127 L515.5 127 Z M286 180.013 L286 119 L286 111.5 C286 108.648 282.88 100.445 280.967 98.3289 C249.52 63.5375 226.15 50 210 50 C176 50 153 72 153 105 C153 167.4 169.32 192.36 230.632 216.744 C259.658 228.288 286 211.251 286 180.013 L286 180.013 Z " />
<glyph glyph-name="Abreve" unicode="&#x102;" horiz-adv-x="831" d="M289.856 981.613 C303.845 904.54 359.8 854 432 854 C503.25 854 558.255 903.638 572.151 979.763 C573.423 986.73 569.027 992.622 562 993.5 C556.953 994.131 549.296 989.343 547.533 984.572 C536.4 954.44 492.3 935 432 935 C371.7 935 326.79 955.25 315.495 987.002 C313.68 992.104 305.848 996.856 300.5 996 C293.168 994.827 288.53 988.92 289.856 981.613 L289.856 981.613 Z M216 125 L248.516 228.909 C255.619 251.608 283.367 272 307.152 272 L461.174 272 C484.736 272 512.49 251.75 519.682 229.313 L556 116 C570 61 543 25 486 25 L471.5 25 C464.6 25 459 19.3996 459 12.5 C459 5.60037 464.6 0 471.5 0 L811.5 0 C818.4 0 824 5.60037 824 12.5 L824 17.5 C824 21.6398 820.64 25 816.5 25 L809 25 C763 25 719 61 698 116 L500.948 705.167 C500.898 705.315 500.009 707.96 499.974 708.112 C499.305 711.012 485.85 769 480 769 L473 769 C470 769 466.558 765.958 466.358 762.965 C464.759 739.006 427.237 717.517 369.83 708.705 C367.051 708.278 365.692 705.693 366.5 703 C366.974 701.419 363.671 684.873 363.154 683.306 C301.769 497.155 240.385 310.103 179 124 C159 64 106 24 46 24 L23.5 24 C16.6004 24 11 18.3996 11 11.5 C11 4.60037 16.6004 -1 23.5 -1 L300.5 -1 C307.4 -1 313 4.60037 313 11.5 C313 18.3996 307.4 24 300.5 24 L286 24 C226 24 197.5 64.5 216.5 124.5 L216 125 Z M297.824 385.709 L327.5 481 C344.837 536.668 420.4 537.06 438.314 481.575 L469.069 386.317 C482.69 344.129 454.933 306 410.601 306 L356.485 306 C312.488 306 284.741 343.702 297.824 385.709 L297.824 385.709 Z " />
<glyph glyph-name="abreve" unicode="&#x103;" horiz-adv-x="514" d="M114.849 731.613 C128.747 654.54 183.8 604 256 604 C328.2 604 383.252 653.638 397.151 729.763 C398.423 736.73 394.027 742.622 387 743.5 C381.983 744.127 374.28 739.306 372.505 734.572 C361.21 704.44 316.3 685 256 685 C195.7 685 150.79 705.25 139.495 737.002 C137.748 741.912 130.14 746.857 125 746 C117.968 744.828 113.584 738.63 114.849 731.613 L114.849 731.613 Z M515.5 127 C511.361 128.948 506.005 125.855 504.661 121.482 C496.435 94.7186 476.231 77 452 77 C421 77 400 94 400 120 L400 353 C400 461 342 510 256 510 C137 510 57 414 57 360 C57 312 86 280 129 280 C163 280 185 313 185 337 C185 356 165 377 165 399 C165 422 191 463 229 463 C263 463 285 442 285 394 L285 309.345 C285 285.768 264.784 257.804 242.329 250.618 C77.2144 197.779 37 169.775 37 93 C37 31 82 -11 149 -11 C181.4 -11 221.9 9.25 272.687 61.414 C280.148 69.0775 295.004 63.5683 299.945 54.0822 C319.54 16.4606 357.325 -6 406 -6 C461.1 -6 505.821 40.4787 522.159 111.144 C523.358 116.329 520.315 124.734 515.5 127 L515.5 127 Z M286 180.013 L286 119 L286 111.5 C286 108.648 282.88 100.445 280.967 98.3289 C249.52 63.5375 226.15 50 210 50 C176 50 153 72 153 105 C153 167.4 169.32 192.36 230.632 216.744 C259.658 228.288 286 211.251 286 180.013 L286 180.013 Z " />
<glyph glyph-name="Cacute" unicode="&#x106;" horiz-adv-x="769" d="M456.204 817.723 L592 929 C628 959 652 982 652 988 C652 1019 625 1046 594 1046 C588 1046 568 1020 540 981 L439.026 834.729 C435.754 829.99 436.428 822.572 440.5 818.5 C444.62 814.38 451.698 814.03 456.204 817.723 L456.204 817.723 Z M729 6.5 L729 220 C729 226.072 724.072 231 718 231 C712.363 231 705.008 226.021 702.915 220.787 L697 206 C675 148 634 92 591 63 C548 36 499 21 440 21 C289 21 188 163 188 375 C188 586 293 726 451 726 C504 726 545 715 580 695 C625 670 672 609 696 544 L701.915 529.213 C704.008 523.979 711.363 519 717 519 C723.072 519 728 523.928 728 530 L728 741.5 C728 746.192 724.192 750 719.5 750 C714.963 750 709.992 746.168 708.837 741.78 L706 731 C699 701 672 695 637 716 C590 744 529 760 438 760 C199 760 39 606 39 375 C39 144 195 -10 428 -10 C517 -10 583 7 635 37 C670 56 698 49 705 17 L707.696 6.21635 C708.93 1.28109 714.413 -3 719.5 -3 C724.744 -3 729 1.25628 729 6.5 L729 6.5 Z M707 134 L707 134 L707 134 L707 134 Z " />
<glyph glyph-name="Ccircumflex" unicode="&#x108;" horiz-adv-x="769" d="M729 6.5 L729 220 C729 226.072 724.072 231 718 231 C712.363 231 705.008 226.021 702.915 220.787 L697 206 C675 148 634 92 591 63 C548 36 499 21 440 21 C289 21 188 163 188 375 C188 586 293 726 451 726 C504 726 545 715 580 695 C625 670 672 609 696 544 L701.915 529.213 C704.008 523.979 711.363 519 717 519 C723.072 519 728 523.928 728 530 L728 741.5 C728 746.192 724.192 750 719.5 750 C714.963 750 709.992 746.168 708.837 741.78 L706 731 C699 701 672 695 637 716 C590 744 529 760 438 760 C199 760 39 606 39 375 C39 144 195 -10 428 -10 C517 -10 583 7 635 37 C670 56 698 49 705 17 L707.696 6.21635 C708.93 1.28109 714.413 -3 719.5 -3 C724.744 -3 729 1.25628 729 6.5 L729 6.5 Z M478 996 C470 1008 450 1037 437 1037 C425 1037 405 1008 397 996 L288.353 826.358 C285.429 821.793 286.403 815.05 290.5 811.5 C294.589 807.956 301.453 807.907 305.593 811.391 L397.435 888.697 C418.953 906.81 455.047 906.81 476.565 888.697 L568.407 811.391 C572.547 807.907 579.411 807.956 583.5 811.5 C587.594 815.048 588.585 821.805 585.681 826.379 L478 996 L478 996 Z M707 134 L707 134 L707 134 L707 134 Z " />
<glyph glyph-name="Cdot" unicode="&#x10a;" horiz-adv-x="769" d="M439 865 C483 865 513 895 513 939 C513 984 483 1014 439 1014 C395 1014 365 984 365 939 C365 895 395 865 439 865 L439 865 Z M729 6.5 L729 220 C729 226.072 724.072 231 718 231 C712.363 231 705.008 226.021 702.915 220.787 L697 206 C675 148 634 92 591 63 C548 36 499 21 440 21 C289 21 188 163 188 375 C188 586 293 726 451 726 C504 726 545 715 580 695 C625 670 672 609 696 544 L701.915 529.213 C704.008 523.979 711.363 519 717 519 C723.072 519 728 523.928 728 530 L728 741.5 C728 746.192 724.192 750 719.5 750 C714.963 750 709.992 746.168 708.837 741.78 L706 731 C699 701 672 695 637 716 C590 744 529 760 438 760 C199 760 39 606 39 375 C39 144 195 -10 428 -10 C517 -10 583 7 635 37 C670 56 698 49 705 17 L707.696 6.21635 C708.93 1.28109 714.413 -3 719.5 -3 C724.744 -3 729 1.25628 729 6.5 L729 6.5 Z M707 134 L707 134 L707 134 L707 134 Z " />
<glyph glyph-name="cdot" unicode="&#x10b;" horiz-adv-x="537" d="M329 615 C373 615 403 645 403 689 C403 734 373 764 329 764 C285 764 255 734 255 689 C255 645 285 615 329 615 L329 615 Z M499 131.5 C494.923 133.284 489.853 132.282 487.741 128.364 C465.48 87.075 412.85 60 353 60 C241 60 167 147 167 277 C167 401 229 484 322 484 C347 484 375 452 392 405 C404 371 428 348 450 348 C497 348 519 371 507 405 C484 468 413 510 329 510 C159 510 45 400 45 234 C45 88 152 -10 313 -10 C391 -10 466.148 42.2844 504.151 121.828 C506.283 126.291 503.531 129.518 499 131.5 L499 131.5 Z " />
<glyph glyph-name="Ccaron" unicode="&#x10c;" horiz-adv-x="769" d="M570.407 1038.61 L478.565 961.303 C457.047 943.19 420.953 943.19 399.435 961.303 L307.593 1038.61 C303.453 1042.09 296.589 1042.04 292.5 1038.5 C288.403 1034.95 287.429 1028.21 290.353 1023.64 L399 854 C407 842 427 813 439 813 C452 813 472 842 480 854 L587.681 1023.62 C590.585 1028.2 589.594 1034.95 585.5 1038.5 C581.411 1042.04 574.547 1042.09 570.407 1038.61 L570.407 1038.61 Z M729 6.5 L729 220 C729 226.072 724.072 231 718 231 C712.363 231 705.008 226.021 702.915 220.787 L697 206 C675 148 634 92 591 63 C548 36 499 21 440 21 C289 21 188 163 188 375 C188 586 293 726 451 726 C504 726 545 715 580 695 C625 670 672 609 696 544 L701.915 529.213 C704.008 523.979 711.363 519 717 519 C723.072 519 728 523.928 728 530 L728 741.5 C728 746.192 724.192 750 719.5 750 C714.963 750 709.992 746.168 708.837 741.78 L706 731 C699 701 672 695 637 716 C590 744 529 760 438 760 C199 760 39 606 39 375 C39 144 195 -10 428 -10 C517 -10 583 7 635 37 C670 56 698 49 705 17 L707.696 6.21635 C708.93 1.28109 714.413 -3 719.5 -3 C724.744 -3 729 1.25628 729 6.5 L729 6.5 Z M707 134 L707 134 L707 134 L707 134 Z " />
<glyph glyph-name="ccaron" unicode="&#x10d;" horiz-adv-x="537" d="M460.407 788.609 L368.565 711.303 C347.047 693.19 310.953 693.19 289.435 711.303 L197.593 788.609 C193.453 792.093 186.589 792.044 182.5 788.5 C178.403 784.95 177.429 778.207 180.353 773.642 L289 604 C297 592 317 563 329 563 C342 563 362 592 370 604 L477.681 773.621 C480.585 778.195 479.594 784.952 475.5 788.5 C471.411 792.044 464.547 792.093 460.407 788.609 L460.407 788.609 Z M499 131.5 C494.923 133.284 489.853 132.282 487.741 128.364 C465.48 87.075 412.85 60 353 60 C241 60 167 147 167 277 C167 401 229 484 322 484 C347 484 375 452 392 405 C404 371 428 348 450 348 C497 348 519 371 507 405 C484 468 413 510 329 510 C159 510 45 400 45 234 C45 88 152 -10 313 -10 C391 -10 466.148 42.2844 504.151 121.828 C506.283 126.291 503.531 129.518 499 131.5 L499 131.5 Z " />
<glyph glyph-name="Dcaron" unicode="&#x10e;" horiz-adv-x="888" d="M541.407 1038.61 L449.565 961.303 C428.047 943.19 391.953 943.19 370.435 961.303 L278.593 1038.61 C274.453 1042.09 267.589 1042.04 263.5 1038.5 C259.403 1034.95 258.429 1028.21 261.353 1023.64 L370 854 C378 842 398 813 410 813 C423 813 443 842 451 854 L558.681 1023.62 C561.585 1028.2 560.594 1034.95 556.5 1038.5 C552.411 1042.04 545.547 1042.09 541.407 1038.61 L541.407 1038.61 Z M311 27 C275 27 271 48 271 80 L271 717 C271 720.312 273.688 723 277 723 L283 723 C548 723 684 584 684 375 C684 145 535 27 311 27 L311 27 Z M61 730 L86 730 C116 730 136 710 136 680 L136 70 C136 40 116 20 86 20 L61 20 C55.4803 20 51 15.5197 51 10 C51 4.4803 55.4803 0 61 0 L351 0 C640 0 833 128 833 375 C833 600 683 750 391 750 L61 750 C55.4803 750 51 745.52 51 740 C51 734.48 55.4803 730 61 730 L61 730 Z " />
<glyph glyph-name="dcaron" unicode="&#x10f;" horiz-adv-x="608" d="M596 758 C572 758 562 695 560 649 L553.636 547.178 C553.288 541.611 557.531 536.094 563 535 C568.378 533.924 574.941 537.295 577.2 542.293 L620 637 C637 673 648 715 648 741 C648 753 627 758 596 758 L596 758 Z M333.993 706.7 L348 706 C375 705 393 686 393 659 L393 508.609 C393 498.848 382.339 492.687 372.948 495.35 C340.477 504.555 303.6 510 264 510 C119 510 44 406 44 249 C44 97 124 -5 243 -5 C290.85 -5 338.7 12.6962 373.074 41.3506 C379.784 46.9442 393 43.4869 393 34.7512 L393 28.5011 C393 12.77 405.769 -0.112013 421.5 -0.25 L441.313 -0.423801 C442.604 -0.435124 458.914 1.96949 460.159 2.31133 C499.379 13.0824 547.603 25.4612 586.278 36.1348 C591.422 37.5545 593 42.6634 593 48 C593 53.3458 588.492 56.8409 583.315 55.5096 L558 49 C528 41 508 56 508 86 L508 721.496 C508 737.227 495.229 750.224 479.5 750.5 L459.704 750.847 C458.409 750.87 443.511 748.991 442.259 748.659 C407.525 739.429 364.613 728.837 330.869 719.773 C327.776 718.942 328 716.204 328 713 C328 709.692 330.689 706.866 333.993 706.7 L333.993 706.7 Z M393 365.721 L393 122.552 C393 112.603 386.691 93.1275 379.651 86.0971 C353.135 59.6175 319.9 43 291 43 C214 43 163 138 163 281 C163 399 202 477 279 477 C326.5 477 371.293 434.583 390.228 383.185 C390.951 381.223 393 367.812 393 365.721 L393 365.721 Z " />
<glyph glyph-name="Emacron" unicode="&#x112;" horiz-adv-x="678" d="M249 890 L469 890 C491.079 890 509 907.921 509 930 C509 952.079 491.079 970 469 970 L249 970 C226.921 970 209 952.079 209 930 C209 907.921 226.921 890 249 890 L249 890 Z M41 730 L66 730 C108 730 136 702 136 660 L136 90 C136 48 108 20 66 20 L41 20 C35.4803 20 31 15.5197 31 10 C31 4.4803 35.4803 0 41 0 L598.841 0 C602.705 0 606.69 3.22198 607.5 7 L609 14 C616.4 52.85 625.511 103.679 632.376 144.326 C633.149 148.897 630.136 154 625.5 154 C621.144 154 615.461 150.153 613.843 146.108 L609 134 C583 71 524 29 461 29 L351 29 C279 29 271 49 271 80 L271 323.56 C271 357.473 298.527 385 332.44 385 L397 385 C445 385 484 353 494 305 L503.333 258.335 C504.235 253.824 508.899 250 513.5 250 C518.192 250 522 253.808 522 258.5 L522 543.5 C522 548.192 518.192 552 513.5 552 C508.899 552 504.235 548.176 503.333 543.665 L494 497 C484 449 445 417 397 417 L332.44 417 C298.527 417 271 444.527 271 478.44 L271 659.56 C271 693.473 298.527 721 332.44 721 L460 721 C508 721 551 689 567 641 L582.356 594.078 C583.743 589.841 589.041 586 593.5 586 C598.17 586 601.756 588.218 601.232 592.859 C596.254 636.962 589.2 693.25 583.5 736 L582.25 743 C581.571 746.804 577.753 750 573.889 750 L41 750 C35.4803 750 31 745.52 31 740 C31 734.48 35.4803 730 41 730 L41 730 Z " />
<glyph glyph-name="emacron" unicode="&#x113;" horiz-adv-x="548" d="M195 640 L415 640 C437.079 640 455 657.921 455 680 C455 702.079 437.079 720 415 720 L195 720 C172.921 720 155 702.079 155 680 C155 657.921 172.921 640 195 640 L195 640 Z M179.618 340 L456.016 340 C495.923 340 516.975 360.739 501.19 397.391 C466.762 477.33 395.75 510 305 510 C149 510 45 431 45 228 C45 85 140 -10 282 -10 C382.425 -10 469.541 44.1856 502.567 125.678 C504.122 129.515 501.98 132.863 498 134 C494.671 134.951 489.894 132.89 488.32 129.807 C468.647 91.27 398.3 66 309 66 C223 66 166 150 166 275 C166 294.714 166.675 313.079 168.578 329.54 C169.21 335.003 174.119 340 179.618 340 L179.618 340 Z M343.899 371.021 L217.453 368.011 C191.63 367.396 177.096 382.245 186.872 406.154 C209.24 460.859 248.675 484 299 484 C328.7 484 354.997 462.22 373.96 409.676 C382.176 386.91 368.095 371.598 343.899 371.021 L343.899 371.021 Z " />
<glyph glyph-name="Ebreve" unicode="&#x114;" horiz-adv-x="678" d="M216.856 981.613 C230.845 904.54 286.8 854 359 854 C430.25 854 485.255 903.638 499.151 979.763 C500.423 986.73 496.027 992.622 489 993.5 C483.953 994.131 476.296 989.343 474.533 984.572 C463.4 954.44 419.3 935 359 935 C298.7 935 253.79 955.25 242.495 987.002 C240.68 992.104 232.848 996.856 227.5 996 C220.168 994.827 215.53 988.92 216.856 981.613 L216.856 981.613 Z M41 730 L66 730 C108 730 136 702 136 660 L136 90 C136 48 108 20 66 20 L41 20 C35.4803 20 31 15.5197 31 10 C31 4.4803 35.4803 0 41 0 L598.841 0 C602.705 0 606.69 3.22198 607.5 7 L609 14 C616.4 52.85 625.511 103.679 632.376 144.326 C633.149 148.897 630.136 154 625.5 154 C621.144 154 615.461 150.153 613.843 146.108 L609 134 C583 71 524 29 461 29 L351 29 C279 29 271 49 271 80 L271 323.56 C271 357.473 298.527 385 332.44 385 L397 385 C445 385 484 353 494 305 L503.333 258.335 C504.235 253.824 508.899 250 513.5 250 C518.192 250 522 253.808 522 258.5 L522 543.5 C522 548.192 518.192 552 513.5 552 C508.899 552 504.235 548.176 503.333 543.665 L494 497 C484 449 445 417 397 417 L332.44 417 C298.527 417 271 444.527 271 478.44 L271 659.56 C271 693.473 298.527 721 332.44 721 L460 721 C508 721 551 689 567 641 L582.356 594.078 C583.743 589.841 589.041 586 593.5 586 C598.17 586 601.756 588.218 601.232 592.859 C596.254 636.962 589.2 693.25 583.5 736 L582.25 743 C581.571 746.804 577.753 750 573.889 750 L41 750 C35.4803 750 31 745.52 31 740 C31 734.48 35.4803 730 41 730 L41 730 Z " />
<glyph glyph-name="ebreve" unicode="&#x115;" horiz-adv-x="548" d="M163.849 731.613 C177.747 654.54 232.8 604 305 604 C377.2 604 432.253 653.638 446.151 729.763 C447.423 736.73 443.027 742.622 436 743.5 C430.983 744.127 423.28 739.306 421.505 734.572 C410.21 704.44 365.3 685 305 685 C244.7 685 199.79 705.25 188.495 737.002 C186.748 741.912 179.14 746.857 174 746 C166.968 744.828 162.584 738.63 163.849 731.613 L163.849 731.613 Z M179.618 340 L456.016 340 C495.923 340 516.975 360.739 501.19 397.391 C466.762 477.33 395.75 510 305 510 C149 510 45 431 45 228 C45 85 140 -10 282 -10 C382.425 -10 469.541 44.1856 502.567 125.678 C504.122 129.515 501.98 132.863 498 134 C494.671 134.951 489.894 132.89 488.32 129.807 C468.647 91.27 398.3 66 309 66 C223 66 166 150 166 275 C166 294.714 166.675 313.079 168.578 329.54 C169.21 335.003 174.119 340 179.618 340 L179.618 340 Z M343.899 371.021 L217.453 368.011 C191.63 367.396 177.096 382.245 186.872 406.154 C209.24 460.859 248.675 484 299 484 C328.7 484 354.997 462.22 373.96 409.676 C382.176 386.91 368.095 371.598 343.899 371.021 L343.899 371.021 Z " />
<glyph glyph-name="Edot" unicode="&#x116;" horiz-adv-x="678" d="M359 865 C403 865 433 895 433 939 C433 984 403 1014 359 1014 C314 1014 284 984 284 939 C284 895 314 865 359 865 L359 865 Z M41 730 L66 730 C108 730 136 702 136 660 L136 90 C136 48 108 20 66 20 L41 20 C35.4803 20 31 15.5197 31 10 C31 4.4803 35.4803 0 41 0 L598.841 0 C602.705 0 606.69 3.22198 607.5 7 L609 14 C616.4 52.85 625.511 103.679 632.376 144.326 C633.149 148.897 630.136 154 625.5 154 C621.144 154 615.461 150.153 613.843 146.108 L609 134 C583 71 524 29 461 29 L351 29 C279 29 271 49 271 80 L271 323.56 C271 357.473 298.527 385 332.44 385 L397 385 C445 385 484 353 494 305 L503.333 258.335 C504.235 253.824 508.899 250 513.5 250 C518.192 250 522 253.808 522 258.5 L522 543.5 C522 548.192 518.192 552 513.5 552 C508.899 552 504.235 548.176 503.333 543.665 L494 497 C484 449 445 417 397 417 L332.44 417 C298.527 417 271 444.527 271 478.44 L271 659.56 C271 693.473 298.527 721 332.44 721 L460 721 C508 721 551 689 567 641 L582.356 594.078 C583.743 589.841 589.041 586 593.5 586 C598.17 586 601.756 588.218 601.232 592.859 C596.254 636.962 589.2 693.25 583.5 736 L582.25 743 C581.571 746.804 577.753 750 573.889 750 L41 750 C35.4803 750 31 745.52 31 740 C31 734.48 35.4803 730 41 730 L41 730 Z " />
<glyph glyph-name="edot" unicode="&#x117;" horiz-adv-x="548" d="M305 615 C349 615 379 645 379 689 C379 734 349 764 305 764 C261 764 231 734 231 689 C231 645 261 615 305 615 L305 615 Z M179.618 340 L456.016 340 C495.923 340 516.975 360.739 501.19 397.391 C466.762 477.33 395.75 510 305 510 C149 510 45 431 45 228 C45 85 140 -10 282 -10 C382.425 -10 469.541 44.1856 502.567 125.678 C504.122 129.515 501.98 132.863 498 134 C494.671 134.951 489.894 132.89 488.32 129.807 C468.647 91.27 398.3 66 309 66 C223 66 166 150 166 275 C166 294.714 166.675 313.079 168.578 329.54 C169.21 335.003 174.119 340 179.618 340 L179.618 340 Z M343.899 371.021 L217.453 368.011 C191.63 367.396 177.096 382.245 186.872 406.154 C209.24 460.859 248.675 484 299 484 C328.7 484 354.997 462.22 373.96 409.676 C382.176 386.91 368.095 371.598 343.899 371.021 L343.899 371.021 Z " />
<glyph glyph-name="Ecaron" unicode="&#x11a;" horiz-adv-x="678" d="M489.11 1038.37 L398.391 962.112 C376.986 944.118 340.961 944.054 319.491 961.971 L227.914 1038.4 C223.627 1041.97 216.334 1042.02 212 1038.5 C207.612 1034.93 206.51 1028.08 209.559 1023.32 L318 854 C326 842 346 813 359 813 C371 813 391 842 399 854 L507.441 1023.32 C510.49 1028.08 509.388 1034.93 505 1038.5 C500.663 1042.02 493.387 1041.96 489.11 1038.37 L489.11 1038.37 Z M41 730 L66 730 C108 730 136 702 136 660 L136 90 C136 48 108 20 66 20 L41 20 C35.4803 20 31 15.5197 31 10 C31 4.4803 35.4803 0 41 0 L598.841 0 C602.705 0 606.69 3.22198 607.5 7 L609 14 C616.4 52.85 625.511 103.679 632.376 144.326 C633.149 148.897 630.136 154 625.5 154 C621.144 154 615.461 150.153 613.843 146.108 L609 134 C583 71 524 29 461 29 L351 29 C279 29 271 49 271 80 L271 323.56 C271 357.473 298.527 385 332.44 385 L397 385 C445 385 484 353 494 305 L503.333 258.335 C504.235 253.824 508.899 250 513.5 250 C518.192 250 522 253.808 522 258.5 L522 543.5 C522 548.192 518.192 552 513.5 552 C508.899 552 504.235 548.176 503.333 543.665 L494 497 C484 449 445 417 397 417 L332.44 417 C298.527 417 271 444.527 271 478.44 L271 659.56 C271 693.473 298.527 721 332.44 721 L460 721 C508 721 551 689 567 641 L582.356 594.078 C583.743 589.841 589.041 586 593.5 586 C598.17 586 601.756 588.218 601.232 592.859 C596.254 636.962 589.2 693.25 583.5 736 L582.25 743 C581.571 746.804 577.753 750 573.889 750 L41 750 C35.4803 750 31 745.52 31 740 C31 734.48 35.4803 730 41 730 L41 730 Z " />
<glyph glyph-name="ecaron" unicode="&#x11b;" horiz-adv-x="548" d="M436.407 788.609 L344.565 711.303 C323.047 693.19 286.953 693.19 265.435 711.303 L173.593 788.609 C169.453 792.093 162.589 792.044 158.5 788.5 C154.403 784.95 153.429 778.207 156.353 773.642 L265 604 C273 592 293 563 305 563 C318 563 338 592 346 604 L453.681 773.621 C456.585 778.195 455.594 784.952 451.5 788.5 C447.411 792.044 440.547 792.093 436.407 788.609 L436.407 788.609 Z M179.618 340 L456.016 340 C495.923 340 516.975 360.739 501.19 397.391 C466.762 477.33 395.75 510 305 510 C149 510 45 431 45 228 C45 85 140 -10 282 -10 C382.425 -10 469.541 44.1856 502.567 125.678 C504.122 129.515 501.98 132.863 498 134 C494.671 134.951 489.894 132.89 488.32 129.807 C468.647 91.27 398.3 66 309 66 C223 66 166 150 166 275 C166 294.714 166.675 313.079 168.578 329.54 C169.21 335.003 174.119 340 179.618 340 L179.618 340 Z M343.899 371.021 L217.453 368.011 C191.63 367.396 177.096 382.245 186.872 406.154 C209.24 460.859 248.675 484 299 484 C328.7 484 354.997 462.22 373.96 409.676 C382.176 386.91 368.095 371.598 343.899 371.021 L343.899 371.021 Z " />
<glyph glyph-name="Gcircumflex" unicode="&#x11c;" horiz-adv-x="848" d="M709.964 742.263 L707 731 C700 701 673 695 638 716 C591 744 530 760 439 760 C200 760 40 606 40 375 C40 144 200 -10 440 -10 C584.4 -10 683.675 14.3675 767.833 51.9566 C773.473 54.4758 779.035 62.3669 776.5 68 C774.062 73.4168 767.167 75.6917 761.756 73.2393 C747.295 66.6837 732.3 60.5869 716.461 54.949 C710.13 52.6955 705 56.9293 705 63.6491 L705 215 C705 266 737 300 786 300 L793 300 C796.864 300 800 303.136 800 307 L800 312.5 C800 319.4 794.4 325 787.5 325 L486.5 325 C479.6 325 474 319.4 474 312.5 L474 307 C474 303.136 477.136 300 481 300 L488 300 C537 300 569 266 569 215 C569.925 215 569.994 144.839 570 127.191 C570 126.877 569.452 119.48 569.41 119.168 C560.889 56.9262 519.5 17 461 17 C297 17 188 160 188 375 C188 586 293 726 451 726 C504 726 545 715 580 695 C625 670 672 609 696 544 L701.915 529.213 C704.008 523.979 711.363 519 717 519 C723.072 519 728 523.928 728 530 L728 742 C728 746.416 724.416 750 720 750 C715.73 750 711.051 746.393 709.964 742.263 L709.964 742.263 Z M479 996 C471 1008 451 1037 438 1037 C426 1037 406 1008 398 996 L289.353 826.358 C286.429 821.793 287.403 815.05 291.5 811.5 C295.589 807.956 302.453 807.907 306.593 811.391 L398.435 888.697 C419.953 906.81 456.047 906.81 477.565 888.697 L569.407 811.391 C573.547 807.907 580.411 807.956 584.5 811.5 C588.594 815.048 589.585 821.805 586.681 826.379 L479 996 L479 996 Z " />
<glyph glyph-name="Gbreve" unicode="&#x11e;" horiz-adv-x="848" d="M297.849 981.613 C311.748 904.54 366.8 854 439 854 C511.2 854 566.252 903.638 580.151 979.763 C581.423 986.73 577.027 992.622 570 993.5 C564.983 994.127 557.28 989.306 555.505 984.572 C544.21 954.44 499.3 935 439 935 C378.7 935 333.79 955.25 322.495 987.002 C320.748 991.912 313.14 996.857 308 996 C300.968 994.828 296.584 988.63 297.849 981.613 L297.849 981.613 Z M709.964 742.263 L707 731 C700 701 673 695 638 716 C591 744 530 760 439 760 C200 760 40 606 40 375 C40 144 200 -10 440 -10 C584.4 -10 683.675 14.3675 767.833 51.9566 C773.473 54.4758 779.035 62.3669 776.5 68 C774.062 73.4168 767.167 75.6917 761.756 73.2393 C747.295 66.6837 732.3 60.5869 716.461 54.949 C710.13 52.6955 705 56.9293 705 63.6491 L705 215 C705 266 737 300 786 300 L793 300 C796.864 300 800 303.136 800 307 L800 312.5 C800 319.4 794.4 325 787.5 325 L486.5 325 C479.6 325 474 319.4 474 312.5 L474 307 C474 303.136 477.136 300 481 300 L488 300 C537 300 569 266 569 215 C569.925 215 569.994 144.839 570 127.191 C570 126.877 569.452 119.48 569.41 119.168 C560.889 56.9262 519.5 17 461 17 C297 17 188 160 188 375 C188 586 293 726 451 726 C504 726 545 715 580 695 C625 670 672 609 696 544 L701.915 529.213 C704.008 523.979 711.363 519 717 519 C723.072 519 728 523.928 728 530 L728 742 C728 746.416 724.416 750 720 750 C715.73 750 711.051 746.393 709.964 742.263 L709.964 742.263 Z " />
<glyph glyph-name="gbreve" unicode="&#x11f;" horiz-adv-x="520" d="M109.849 731.613 C123.747 654.54 178.8 604 251 604 C323.2 604 378.253 653.638 392.151 729.763 C393.423 736.73 389.027 742.622 382 743.5 C376.983 744.127 369.28 739.306 367.505 734.572 C356.21 704.44 311.3 685 251 685 C190.7 685 145.79 705.25 134.495 737.002 C132.748 741.912 125.14 746.857 120 746 C112.968 744.828 108.584 738.63 109.849 731.613 L109.849 731.613 Z M543 461 C543 502 513 530 468 530 C441.65 530 413.133 513.383 390.431 486.289 C384.879 479.662 368.586 478.74 361.119 483.098 C331.355 500.471 293.9 510 251 510 C141 510 67 446 67 350 C67 293.075 92.1831 247.04 135.25 218.633 C142.925 213.57 143.599 197.477 134.93 194.413 C81.79 175.63 50 142.65 50 101 C50 56.45 69.7381 21.4288 102.476 1.55141 C108.484 -2.09605 109.28 -14.7422 102.93 -17.7536 C63.8425 -36.29 40 -65.7 40 -98 C40 -178 129 -231 263 -231 C397 -231 486 -163 486 -60 C486 35 434 98 299 98 L179 98 C143 98 119 113 119 136 C119 167 172 187 252 187 C362 187 436 252 436 349 C436 389.95 422.691 425.196 398.854 451.958 C397.823 453.116 398.171 454.702 399.5 455.5 C400.435 456.061 403.084 456.999 404.171 456.909 C431.892 454.621 467.718 410 495 410 C524 410 543.5 430.5 543.5 460.5 L543 461 Z M252 214 C211 214 183 268 183 349 C183 429 211 482 252 482 C293 482 321 429 321 349 C321 268 293 214 252 214 L252 214 Z M164.5 -15.5 L173 -16 L287 -16 C362 -16 391 -44 391 -87 C391 -158 343 -205 270 -205 C189 -205 135 -151 135 -71 C135 -50.4286 140.878 -32.7959 150.743 -20.621 C153.646 -17.0393 159.898 -15.2293 164.5 -15.5 L164.5 -15.5 Z " />
<glyph glyph-name="Gdot" unicode="&#x120;" horiz-adv-x="848" d="M439 865 C483 865 513 895 513 939 C513 984 483 1014 439 1014 C395 1014 365 984 365 939 C365 895 395 865 439 865 L439 865 Z M709.964 742.263 L707 731 C700 701 673 695 638 716 C591 744 530 760 439 760 C200 760 40 606 40 375 C40 144 200 -10 440 -10 C584.4 -10 683.675 14.3675 767.833 51.9566 C773.473 54.4758 779.035 62.3669 776.5 68 C774.062 73.4168 767.167 75.6917 761.756 73.2393 C747.295 66.6837 732.3 60.5869 716.461 54.949 C710.13 52.6955 705 56.9293 705 63.6491 L705 215 C705 266 737 300 786 300 L793 300 C796.864 300 800 303.136 800 307 L800 312.5 C800 319.4 794.4 325 787.5 325 L486.5 325 C479.6 325 474 319.4 474 312.5 L474 307 C474 303.136 477.136 300 481 300 L488 300 C537 300 569 266 569 215 C569.925 215 569.994 144.839 570 127.191 C570 126.877 569.452 119.48 569.41 119.168 C560.889 56.9262 519.5 17 461 17 C297 17 188 160 188 375 C188 586 293 726 451 726 C504 726 545 715 580 695 C625 670 672 609 696 544 L701.915 529.213 C704.008 523.979 711.363 519 717 519 C723.072 519 728 523.928 728 530 L728 742 C728 746.416 724.416 750 720 750 C715.73 750 711.051 746.393 709.964 742.263 L709.964 742.263 Z " />
<glyph glyph-name="gdot" unicode="&#x121;" horiz-adv-x="520" d="M251 615 C295 615 325 645 325 689 C325 734 295 764 251 764 C207 764 177 734 177 689 C177 645 207 615 251 615 L251 615 Z M543 461 C543 502 513 530 468 530 C441.65 530 413.133 513.383 390.431 486.289 C384.879 479.662 368.586 478.74 361.119 483.098 C331.355 500.471 293.9 510 251 510 C141 510 67 446 67 350 C67 293.075 92.1831 247.04 135.25 218.633 C142.925 213.57 143.599 197.477 134.93 194.413 C81.79 175.63 50 142.65 50 101 C50 56.45 69.7381 21.4288 102.476 1.55141 C108.484 -2.09605 109.28 -14.7422 102.93 -17.7536 C63.8425 -36.29 40 -65.7 40 -98 C40 -178 129 -231 263 -231 C397 -231 486 -163 486 -60 C486 35 434 98 299 98 L179 98 C143 98 119 113 119 136 C119 167 172 187 252 187 C362 187 436 252 436 349 C436 389.95 422.691 425.196 398.854 451.958 C397.823 453.116 398.171 454.702 399.5 455.5 C400.435 456.061 403.084 456.999 404.171 456.909 C431.892 454.621 467.718 410 495 410 C524 410 543.5 430.5 543.5 460.5 L543 461 Z M252 214 C211 214 183 268 183 349 C183 429 211 482 252 482 C293 482 321 429 321 349 C321 268 293 214 252 214 L252 214 Z M164.5 -15.5 L173 -16 L287 -16 C362 -16 391 -44 391 -87 C391 -158 343 -205 270 -205 C189 -205 135 -151 135 -71 C135 -50.4286 140.878 -32.7959 150.743 -20.621 C153.646 -17.0393 159.898 -15.2293 164.5 -15.5 L164.5 -15.5 Z " />
<glyph glyph-name="Hcircumflex" unicode="&#x124;" horiz-adv-x="896" d="M502 996 C494 1008 474 1037 462 1037 C449 1037 429 1008 421 996 L312.559 826.68 C309.51 821.919 310.612 815.065 315 811.5 C319.334 807.979 326.627 808.027 330.914 811.604 L422.491 888.029 C443.961 905.946 479.986 905.882 501.391 887.888 L592.11 811.633 C596.387 808.037 603.663 807.976 608 811.5 C612.388 815.065 613.49 821.919 610.441 826.68 L502 996 L502 996 Z M826 20 L801 20 C771 20 751 40 751 70 L751 680 C751 710 771 730 801 730 L826 730 C831.52 730 836 734.48 836 740 C836 745.52 831.52 750 826 750 L541 750 C535.48 750 531 745.52 531 740 C531 734.48 535.48 730 541 730 L566 730 C596 730 616 710 616 680 L616 479.44 C616 445.527 588.473 418 554.56 418 L368.44 418 C334.527 418 307 445.527 307 479.44 L307 680 C307 710 327 730 357 730 L382 730 C387.52 730 392 734.48 392 740 C392 745.52 387.52 750 382 750 L97 750 C91.4803 750 87 745.52 87 740 C87 734.48 91.4803 730 97 730 L122 730 C152 730 172 710 172 680 L172 70 C172 40 152 20 122 20 L97 20 C91.4803 20 87 15.5197 87 10 C87 4.4803 91.4803 0 97 0 L382 0 C387.52 0 392 4.4803 392 10 C392 15.5197 387.52 20 382 20 L357 20 C327 20 307 40 307 70 L307 321.56 C307 355.473 334.527 383 368.44 383 L554.56 383 C588.473 383 616 355.473 616 321.56 L616 70 C616 40 596 20 566 20 L541 20 C535.48 20 531 15.5197 531 10 C531 4.4803 535.48 0 541 0 L826 0 C831.52 0 836 4.4803 836 10 C836 15.5197 831.52 20 826 20 L826 20 Z " />
<glyph glyph-name="Itilde" unicode="&#x128;" horiz-adv-x="403" d="M51.546 880.578 C54.4321 907.617 68.5556 925 89 925 C139 925 207 860 257 860 C309.25 860 345.255 910.54 348.725 988.471 C348.981 994.23 344.765 1001 339 1001 C334.056 1001 328.985 995.489 328.469 990.572 C325.31 960.44 308.3 941 284 941 C234 941 166 1006 116 1006 C67.55 1006 34.4425 957.265 31.2529 882.087 C31.009 876.338 35.2463 870 41 870 C45.9339 870 51.0223 875.671 51.546 880.578 L51.546 880.578 Z M333 20 L308 20 C278 20 258 40 258 70 L258 680 C258 710 278 730 308 730 L333 730 C338.52 730 343 734.48 343 740 C343 745.52 338.52 750 333 750 L47 750 C41.4803 750 37 745.52 37 740 C37 734.48 41.4803 730 47 730 L72 730 C102 730 122 710 122 680 L122 70 C122 40 102 20 72 20 L47 20 C41.4803 20 37 15.5197 37 10 C37 4.4803 41.4803 0 47 0 L333 0 C338.52 0 343 4.4803 343 10 C343 15.5197 338.52 20 333 20 L333 20 Z " />
<glyph glyph-name="itilde" unicode="&#x129;" horiz-adv-x="342" d="M36.546 630.578 C39.4321 657.617 53.5556 675 74 675 C124 675 192 610 242 610 C294.25 610 330.255 660.54 333.725 738.471 C333.994 744.518 329.553 751 323.5 751 C318.307 751 313.01 745.737 312.47 740.572 C309.32 710.44 292.4 691 269 691 C218 691 151 756 100 756 C51.55 756 18.4425 707.265 15.2529 632.087 C14.9968 626.051 19.4586 620 25.5 620 C30.6806 620 35.9961 625.426 36.546 630.578 L36.546 630.578 Z M61.6782 450.516 L102 461 C111 463 117 459 117 450 L117 35 C117 26 111 20 102 20 L62 20 C56.4803 20 52 15.5197 52 10 C52 4.4803 56.4803 0 62 0 L287 0 C292.52 0 297 4.4803 297 10 C297 15.5197 292.52 20 287 20 L247 20 C238 20 232 26 232 35 L232 471.5 C232 487.231 219.231 500 203.5 500 L182.365 500 C181.374 500 167.445 498.148 166.483 497.91 C133.617 489.784 93.3826 479.147 60.5174 470.298 C55.3657 468.911 52 463.335 52 458 C52 452.658 56.508 449.172 61.6782 450.516 L61.6782 450.516 Z " />
<glyph glyph-name="Imacron" unicode="&#x12a;" horiz-adv-x="403" d="M80 890 L300 890 C322.079 890 340 907.921 340 930 C340 952.079 322.079 970 300 970 L80 970 C57.9212 970 40 952.079 40 930 C40 907.921 57.9212 890 80 890 L80 890 Z M333 20 L308 20 C278 20 258 40 258 70 L258 680 C258 710 278 730 308 730 L333 730 C338.52 730 343 734.48 343 740 C343 745.52 338.52 750 333 750 L47 750 C41.4803 750 37 745.52 37 740 C37 734.48 41.4803 730 47 730 L72 730 C102 730 122 710 122 680 L122 70 C122 40 102 20 72 20 L47 20 C41.4803 20 37 15.5197 37 10 C37 4.4803 41.4803 0 47 0 L333 0 C338.52 0 343 4.4803 343 10 C343 15.5197 338.52 20 333 20 L333 20 Z " />
<glyph glyph-name="imacron" unicode="&#x12b;" horiz-adv-x="342" d="M65 640 L285 640 C307.079 640 325 657.921 325 680 C325 702.079 307.079 720 285 720 L65 720 C42.9212 720 25 702.079 25 680 C25 657.921 42.9212 640 65 640 L65 640 Z M61.6782 450.516 L102 461 C111 463 117 459 117 450 L117 35 C117 26 111 20 102 20 L62 20 C56.4803 20 52 15.5197 52 10 C52 4.4803 56.4803 0 62 0 L287 0 C292.52 0 297 4.4803 297 10 C297 15.5197 292.52 20 287 20 L247 20 C238 20 232 26 232 35 L232 471.5 C232 487.231 219.231 500 203.5 500 L182.365 500 C181.374 500 167.445 498.148 166.483 497.91 C133.617 489.784 93.3826 479.147 60.5174 470.298 C55.3657 468.911 52 463.335 52 458 C52 452.658 56.508 449.172 61.6782 450.516 L61.6782 450.516 Z " />
<glyph glyph-name="Ibreve" unicode="&#x12c;" horiz-adv-x="403" d="M48.849 981.613 C62.7475 904.54 117.8 854 190 854 C262.2 854 317.252 903.638 331.151 979.763 C332.423 986.73 328.027 992.622 321 993.5 C315.983 994.127 308.28 989.306 306.505 984.572 C295.21 954.44 250.3 935 190 935 C129.7 935 84.79 955.25 73.495 987.002 C71.7484 991.912 64.1403 996.857 59 996 C51.9678 994.828 47.5838 988.63 48.849 981.613 L48.849 981.613 Z M333 20 L308 20 C278 20 258 40 258 70 L258 680 C258 710 278 730 308 730 L333 730 C338.52 730 343 734.48 343 740 C343 745.52 338.52 750 333 750 L47 750 C41.4803 750 37 745.52 37 740 C37 734.48 41.4803 730 47 730 L72 730 C102 730 122 710 122 680 L122 70 C122 40 102 20 72 20 L47 20 C41.4803 20 37 15.5197 37 10 C37 4.4803 41.4803 0 47 0 L333 0 C338.52 0 343 4.4803 343 10 C343 15.5197 338.52 20 333 20 L333 20 Z " />
<glyph glyph-name="ibreve" unicode="&#x12d;" horiz-adv-x="342" d="M32.8562 731.613 C46.845 654.54 102.8 604 175 604 C246.25 604 301.255 653.638 315.151 729.763 C316.423 736.73 312.027 742.622 305 743.5 C299.953 744.131 292.296 739.343 290.533 734.572 C279.4 704.44 235.3 685 175 685 C114.7 685 69.79 705.25 58.495 737.002 C56.6799 742.104 48.8477 746.856 43.5 746 C36.1675 744.827 31.5301 738.92 32.8562 731.613 L32.8562 731.613 Z M61.6782 450.516 L102 461 C111 463 117 459 117 450 L117 35 C117 26 111 20 102 20 L62 20 C56.4803 20 52 15.5197 52 10 C52 4.4803 56.4803 0 62 0 L287 0 C292.52 0 297 4.4803 297 10 C297 15.5197 292.52 20 287 20 L247 20 C238 20 232 26 232 35 L232 471.5 C232 487.231 219.231 500 203.5 500 L182.365 500 C181.374 500 167.445 498.148 166.483 497.91 C133.617 489.784 93.3826 479.147 60.5174 470.298 C55.3657 468.911 52 463.335 52 458 C52 452.658 56.508 449.172 61.6782 450.516 L61.6782 450.516 Z " />
<glyph glyph-name="Idot" unicode="&#x130;" horiz-adv-x="403" d="M190 865 C234 865 264 895 264 939 C264 984 234 1014 190 1014 C146 1014 116 984 116 939 C116 895 146 865 190 865 L190 865 Z M333 20 L308 20 C278 20 258 40 258 70 L258 680 C258 710 278 730 308 730 L333 730 C338.52 730 343 734.48 343 740 C343 745.52 338.52 750 333 750 L47 750 C41.4803 750 37 745.52 37 740 C37 734.48 41.4803 730 47 730 L72 730 C102 730 122 710 122 680 L122 70 C122 40 102 20 72 20 L47 20 C41.4803 20 37 15.5197 37 10 C37 4.4803 41.4803 0 47 0 L333 0 C338.52 0 343 4.4803 343 10 C343 15.5197 338.52 20 333 20 L333 20 Z " />
<glyph glyph-name="dotlessi" unicode="&#x131;" horiz-adv-x="342" d="M61.6782 450.516 L102 461 C111 463 117 459 117 450 L117 35 C117 26 111 20 102 20 L62 20 C56.4803 20 52 15.5197 52 10 C52 4.4803 56.4803 0 62 0 L287 0 C292.52 0 297 4.4803 297 10 C297 15.5197 292.52 20 287 20 L247 20 C238 20 232 26 232 35 L232 471.5 C232 487.231 219.231 500 203.5 500 L182.365 500 C181.374 500 167.445 498.148 166.483 497.91 C133.617 489.784 93.3826 479.147 60.5174 470.298 C55.3657 468.911 52 463.335 52 458 C52 452.658 56.508 449.172 61.6782 450.516 L61.6782 450.516 Z " />
<glyph glyph-name="Jcircumflex" unicode="&#x134;" horiz-adv-x="403" d="M231 996 C223 1008 203 1037 190 1037 C178 1037 158 1008 150 996 L41.3526 826.358 C38.4289 821.793 39.4033 815.05 43.5 811.5 C47.5888 807.956 54.4534 807.907 58.5929 811.391 L150.435 888.697 C171.953 906.81 208.047 906.81 229.565 888.697 L321.407 811.391 C325.547 807.907 332.411 807.956 336.5 811.5 C340.594 815.048 341.585 821.805 338.681 826.379 L231 996 L231 996 Z M333 750 L47 750 C41.4803 750 37 745.52 37 740 C37 734.48 41.4803 730 47 730 L72 730 C102 730 122 710 122 680 L122 -106 C122 -161 69 -172 30 -172 C-37 -172 -4 -64 -71 -64 C-108 -64 -132 -88 -132 -125 C-132 -182 -80 -220 -3 -220 C107 -220 258 -161 258 150 L258 680 C258 710 278 730 308 730 L333 730 C338.52 730 343 734.48 343 740 C343 745.52 338.52 750 333 750 L333 750 Z " />
<glyph glyph-name="Lacute" unicode="&#x139;" horiz-adv-x="668" d="M206.204 817.723 L342 929 C378 959 402 982 402 988 C402 1019 375 1046 344 1046 C338 1046 318 1020 290 981 L189.026 834.729 C185.754 829.99 186.428 822.572 190.5 818.5 C194.62 814.38 201.698 814.03 206.204 817.723 L206.204 817.723 Z M333 750 L47 750 C41.4803 750 37 745.52 37 740 C37 734.48 41.4803 730 47 730 L72 730 C102 730 122 710 122 680 L122 70 C122 40 102 20 72 20 L47 20 C41.4803 20 37 15.5197 37 10 C37 4.4803 41.4803 0 47 0 L587.299 0 C590.335 0 593.701 2.57114 594.5 5.5 L595.214 8.11842 C595.256 8.27046 596.518 14.0257 596.544 14.181 C603.144 52.6729 612.169 102.482 618.9 141.586 C619.686 146.149 616.13 148 611.5 148 C607.144 148 601.461 144.153 599.843 140.108 L595 128 C569 65 510 23 447 23 L338 23 C266 23 258 46 258 80 L258 680 C258 710 278 730 308 730 L333 730 C338.52 730 343 734.48 343 740 C343 745.52 338.52 750 333 750 L333 750 Z " />
<glyph glyph-name="Lcaron" unicode="&#x13d;" horiz-adv-x="668" d="M445 807 C421 807 411 744 409 698 L402.636 596.178 C402.288 590.611 406.531 585.094 412 584 C417.378 582.924 423.941 586.295 426.2 591.293 L469 686 C486 722 497 764 497 790 C497 802 476 807 445 807 L445 807 Z M333 750 L47 750 C41.4803 750 37 745.52 37 740 C37 734.48 41.4803 730 47 730 L72 730 C102 730 122 710 122 680 L122 70 C122 40 102 20 72 20 L47 20 C41.4803 20 37 15.5197 37 10 C37 4.4803 41.4803 0 47 0 L587.299 0 C590.335 0 593.701 2.57114 594.5 5.5 L595.214 8.11842 C595.256 8.27046 596.518 14.0257 596.544 14.181 C603.144 52.6729 612.169 102.482 618.9 141.586 C619.686 146.149 616.13 148 611.5 148 C607.144 148 601.461 144.153 599.843 140.108 L595 128 C569 65 510 23 447 23 L338 23 C266 23 258 46 258 80 L258 680 C258 710 278 730 308 730 L333 730 C338.52 730 343 734.48 343 740 C343 745.52 338.52 750 333 750 L333 750 Z " />
<glyph glyph-name="lcaron" unicode="&#x13e;" horiz-adv-x="286" d="M279 757 C255 757 245 694 243 648 L236.636 546.178 C236.288 540.611 240.531 535.094 246 534 C251.378 532.924 257.941 536.295 260.2 541.293 L303 636 C320 672 331 714 331 740 C331 752 310 757 279 757 L279 757 Z M16.9925 705.7 L31 705 C58 704 76 685 76 658 L76 35 C76 26 70 20 61 20 L21 20 C15.4803 20 11 15.5197 11 10 C11 4.4803 15.4803 0 21 0 L246 0 C251.52 0 256 4.4803 256 10 C256 15.5197 251.52 20 246 20 L206 20 C197 20 191 26 191 35 L191 721.5 C191 737.231 178.231 750 162.5 750 L141.365 750 C140.374 750 126.445 748.148 125.483 747.91 C91.6508 739.545 50.0095 728.519 16.637 719.522 C13.5476 718.689 11 715.2 11 712 C11 708.692 13.689 705.866 16.9925 705.7 L16.9925 705.7 Z " />
<glyph glyph-name="Nacute" unicode="&#x143;" horiz-adv-x="800" d="M312.204 817.723 L448 929 C484 959 508 982 508 988 C508 1019 481 1046 450 1046 C444 1046 424 1020 396 981 L295.026 834.729 C291.754 829.99 292.428 822.572 296.5 818.5 C300.62 814.38 307.698 814.03 312.204 817.723 L312.204 817.723 Z M-24.4881 730 L0 730 C27 730 59 714 82 689 L123.169 635.633 C127.505 630.012 135.975 605.092 135.962 597.993 L135 71 C135 41 115 21 85 21 L60 21 C54.4803 21 50 16.5197 50 11 C50 5.4803 54.4803 1 60 1 L250 1 C255.52 1 260 5.4803 260 11 C260 16.5197 255.52 21 250 21 L225 21 C195 21 175 41 175 71 L172.721 453.88 C172.478 494.688 225.127 506.897 250.225 474.72 C369.425 321.895 488.625 168.959 607.825 15.3981 C611.434 10.749 626.615 1 632.5 1 C639.951 1 646.08 7.04853 646.178 14.4988 L655 685 C657 713 677 731 706 731 L731 731 C736.52 731 741 735.48 741 741 C741 746.52 736.52 751 731 751 L541 751 C535.48 751 531 746.52 531 741 C531 735.48 535.48 731 541 731 L566 731 C596 731 616 711 616 681 L617.51 335.134 C617.677 296.97 568.732 285.424 545.112 315.4 C437.634 451.8 330.652 588.2 223.7 724.6 C215.686 734.82 186.087 751 173.1 751 L-23.4881 751 C-29.2838 751 -34.2243 746.289 -34.5 740.5 C-34.7757 734.711 -30.2838 730 -24.4881 730 L-24.4881 730 Z " />
<glyph glyph-name="Ncaron" unicode="&#x147;" horiz-adv-x="800" d="M526.407 1038.61 L434.565 961.303 C413.047 943.19 376.953 943.19 355.435 961.303 L263.593 1038.61 C259.453 1042.09 252.589 1042.04 248.5 1038.5 C244.403 1034.95 243.429 1028.21 246.353 1023.64 L355 854 C363 842 383 813 395 813 C408 813 428 842 436 854 L543.681 1023.62 C546.585 1028.2 545.594 1034.95 541.5 1038.5 C537.411 1042.04 530.547 1042.09 526.407 1038.61 L526.407 1038.61 Z M-24.4881 730 L0 730 C27 730 59 714 82 689 L123.169 635.633 C127.505 630.012 135.975 605.092 135.962 597.993 L135 71 C135 41 115 21 85 21 L60 21 C54.4803 21 50 16.5197 50 11 C50 5.4803 54.4803 1 60 1 L250 1 C255.52 1 260 5.4803 260 11 C260 16.5197 255.52 21 250 21 L225 21 C195 21 175 41 175 71 L172.721 453.88 C172.478 494.688 225.127 506.897 250.225 474.72 C369.425 321.895 488.625 168.959 607.825 15.3981 C611.434 10.749 626.615 1 632.5 1 C639.951 1 646.08 7.04853 646.178 14.4988 L655 685 C657 713 677 731 706 731 L731 731 C736.52 731 741 735.48 741 741 C741 746.52 736.52 751 731 751 L541 751 C535.48 751 531 746.52 531 741 C531 735.48 535.48 731 541 731 L566 731 C596 731 616 711 616 681 L617.51 335.134 C617.677 296.97 568.732 285.424 545.112 315.4 C437.634 451.8 330.652 588.2 223.7 724.6 C215.686 734.82 186.087 751 173.1 751 L-23.4881 751 C-29.2838 751 -34.2243 746.289 -34.5 740.5 C-34.7757 734.711 -30.2838 730 -24.4881 730 L-24.4881 730 Z " />
<glyph glyph-name="ncaron" unicode="&#x148;" horiz-adv-x="599" d="M421.407 788.609 L329.565 711.303 C308.047 693.19 271.953 693.19 250.435 711.303 L158.593 788.609 C154.453 792.093 147.589 792.044 143.5 788.5 C139.403 784.95 138.429 778.207 141.353 773.642 L250 604 C258 592 278 563 290 563 C303 563 323 592 331 604 L438.681 773.621 C441.585 778.195 440.594 784.952 436.5 788.5 C432.411 792.044 425.547 792.093 421.407 788.609 L421.407 788.609 Z M16.9925 455.7 L31 455 C58 454 76 435 76 408 L76 35 C76 26 70 20 61 20 L21 20 C15.4803 20 11 15.5197 11 10 C11 4.4803 15.4803 0 21 0 L246 0 C251.52 0 256 4.4803 256 10 C256 15.5197 251.52 20 246 20 L206 20 C197 20 191 26 191 35 L191 342.595 C191 349.381 196.401 367.936 200.473 373.363 C224.453 405.328 260.875 426 295 426 C357 426 389 384 389 321 L389 35 C389 26 383 20 374 20 L334 20 C328.48 20 324 15.5197 324 10 C324 4.4803 328.48 0 334 0 L559 0 C564.52 0 569 4.4803 569 10 C569 15.5197 564.52 20 559 20 L519 20 C510 20 504 26 504 35 L504 321 C504 434 456 510 363 510 C311.025 510 255.647 478.011 214.834 427.508 C208.047 419.11 191 422.763 191 433.562 L191 471.5 C191 487.231 178.231 500 162.5 500 L141.365 500 C140.374 500 126.445 498.148 125.483 497.91 C91.6508 489.545 50.0095 478.519 16.637 469.522 C13.5476 468.689 11 465.2 11 462 C11 458.692 13.689 455.866 16.9925 455.7 L16.9925 455.7 Z " />
<glyph glyph-name="Omacron" unicode="&#x14c;" horiz-adv-x="889" d="M322 890 L542 890 C564.079 890 582 907.921 582 930 C582 952.079 564.079 970 542 970 L322 970 C299.921 970 282 952.079 282 930 C282 907.921 299.921 890 322 890 L322 890 Z M187 375 C187 586 283 726 426 726 C583 726 687 586 687 375 C687 164 584 24 429 24 C284 24 187 164 187 375 L187 375 Z M40 375 C40 144 193 -10 422 -10 C669 -10 834 144 834 375 C834 606 673 760 432 760 C197 760 40 606 40 375 L40 375 Z " />
<glyph glyph-name="omacron" unicode="&#x14d;" horiz-adv-x="622" d="M201 640 L421 640 C443.079 640 461 657.921 461 680 C461 702.079 443.079 720 421 720 L201 720 C178.921 720 161 702.079 161 680 C161 657.921 178.921 640 201 640 L201 640 Z M172 250 C172 385 228 475 311 475 C394 475 450 385 450 250 C450 115 394 25 311 25 C228 25 172 115 172 250 L172 250 Z M45 250 C45 94 151 -10 311 -10 C471 -10 577 94 577 250 C577 406 471 510 311 510 C151 510 45 406 45 250 L45 250 Z " />
<glyph glyph-name="Obreve" unicode="&#x14e;" horiz-adv-x="889" d="M290.849 981.613 C304.748 904.54 359.8 854 432 854 C504.2 854 559.253 903.638 573.151 979.763 C574.423 986.73 570.027 992.622 563 993.5 C557.983 994.127 550.28 989.306 548.505 984.572 C537.21 954.44 492.3 935 432 935 C371.7 935 326.79 955.25 315.495 987.002 C313.748 991.912 306.14 996.857 301 996 C293.968 994.828 289.584 988.63 290.849 981.613 L290.849 981.613 Z M187 375 C187 586 283 726 426 726 C583 726 687 586 687 375 C687 164 584 24 429 24 C284 24 187 164 187 375 L187 375 Z M40 375 C40 144 193 -10 422 -10 C669 -10 834 144 834 375 C834 606 673 760 432 760 C197 760 40 606 40 375 L40 375 Z " />
<glyph glyph-name="obreve" unicode="&#x14f;" horiz-adv-x="622" d="M169.849 731.613 C183.747 654.54 238.8 604 311 604 C383.2 604 438.252 653.638 452.151 729.763 C453.423 736.73 449.027 742.622 442 743.5 C436.983 744.127 429.28 739.306 427.505 734.572 C416.21 704.44 371.3 685 311 685 C250.7 685 205.79 705.25 194.495 737.002 C192.748 741.912 185.14 746.857 180 746 C172.968 744.828 168.584 738.63 169.849 731.613 L169.849 731.613 Z M172 250 C172 385 228 475 311 475 C394 475 450 385 450 250 C450 115 394 25 311 25 C228 25 172 115 172 250 L172 250 Z M45 250 C45 94 151 -10 311 -10 C471 -10 577 94 577 250 C577 406 471 510 311 510 C151 510 45 406 45 250 L45 250 Z " />
<glyph glyph-name="Racute" unicode="&#x154;" horiz-adv-x="831" d="M332.957 817.476 L470 929 C505 958 529 981 529 988 C529 1019 503 1046 472 1046 C465 1046 444 1020 417 981 L316.791 834.468 C313.672 829.907 314.229 822.54 318 818.5 C321.855 814.37 328.575 813.909 332.957 817.476 L332.957 817.476 Z M61.5119 730 L86 730 C116 730 136 710 136 680 L136 70 C136 40 116 20 86 20 L61 20 C55.4803 20 51 15.5197 51 10 C51 4.4803 55.4803 0 61 0 L346 0 C351.52 0 356 4.4803 356 10 C356 15.5197 351.52 20 346 20 L321 20 C291 20 271 40 271 70 L271 310.5 C271 330.095 286.905 346 306.5 346 L318.838 346 C329.061 346 347.784 337.076 353.537 328.625 C385.406 281.813 451.25 192.125 537 81 C594.525 5.925 606.42 1.19625 805.327 1.00673 C812.785 0.999628 821 7.04131 821 14.5 C821 21.9195 816.826 27.9889 809.406 28.0209 C739.415 28.3225 733.05 32.55 696 81 C609.3 194.05 540.662 283.98 500.528 336.665 C492.186 347.615 498.319 364.926 511.406 369.195 C595.97 396.78 647 451.5 647 537 C647 665 527 751 348 751 L62.5119 751 C56.7162 751 51.7757 746.289 51.5 740.5 C51.2243 734.711 55.7162 730 61.5119 730 L61.5119 730 Z M272 419 L272 706 C272 715.935 280.065 724 290 724 L308 724 C422 724 498 660 498 564 C498 438 438 381 348 381 L310 381 C289.025 381 272 398.025 272 419 L272 419 Z " />
<glyph glyph-name="Rcaron" unicode="&#x158;" horiz-adv-x="831" d="M447.11 1038.37 L356.391 962.112 C334.986 944.118 298.961 944.054 277.491 961.971 L185.914 1038.4 C181.627 1041.97 174.334 1042.02 170 1038.5 C165.612 1034.93 164.51 1028.08 167.559 1023.32 L276 854 C284 842 304 813 317 813 C329 813 349 842 357 854 L465.441 1023.32 C468.49 1028.08 467.388 1034.93 463 1038.5 C458.663 1042.02 451.387 1041.96 447.11 1038.37 L447.11 1038.37 Z M61.5119 730 L86 730 C116 730 136 710 136 680 L136 70 C136 40 116 20 86 20 L61 20 C55.4803 20 51 15.5197 51 10 C51 4.4803 55.4803 0 61 0 L346 0 C351.52 0 356 4.4803 356 10 C356 15.5197 351.52 20 346 20 L321 20 C291 20 271 40 271 70 L271 310.5 C271 330.095 286.905 346 306.5 346 L318.838 346 C329.061 346 347.784 337.076 353.537 328.625 C385.406 281.813 451.25 192.125 537 81 C594.525 5.925 606.42 1.19625 805.327 1.00673 C812.785 0.999628 821 7.04131 821 14.5 C821 21.9195 816.826 27.9889 809.406 28.0209 C739.415 28.3225 733.05 32.55 696 81 C609.3 194.05 540.662 283.98 500.528 336.665 C492.186 347.615 498.319 364.926 511.406 369.195 C595.97 396.78 647 451.5 647 537 C647 665 527 751 348 751 L62.5119 751 C56.7162 751 51.7757 746.289 51.5 740.5 C51.2243 734.711 55.7162 730 61.5119 730 L61.5119 730 Z M272 419 L272 706 C272 715.935 280.065 724 290 724 L308 724 C422 724 498 660 498 564 C498 438 438 381 348 381 L310 381 C289.025 381 272 398.025 272 419 L272 419 Z " />
<glyph glyph-name="rcaron" unicode="&#x159;" horiz-adv-x="468" d="M388.11 788.367 L297.391 712.112 C275.986 694.118 239.961 694.054 218.491 711.971 L126.914 788.396 C122.627 791.973 115.334 792.021 111 788.5 C106.612 784.935 105.51 778.081 108.559 773.32 L217 604 C225 592 245 563 258 563 C270 563 290 592 298 604 L406.441 773.32 C409.49 778.081 408.388 784.935 404 788.5 C399.663 792.024 392.387 791.963 388.11 788.367 L388.11 788.367 Z M18.0133 455.699 L32 455 C59 454 77 435 77 408 L77 35 C77 26 71 20 62 20 L22 20 C16.4803 20 12 15.5197 12 10 C12 4.4803 16.4803 0 22 0 L247 0 C252.52 0 257 4.4803 257 10 C257 15.5197 252.52 20 247 20 L207 20 C198 20 192 26 192 35 L192 340.295 C192 342.634 194.685 358.248 195.538 360.425 C218.495 418.997 251.65 456 283 456 C307 456 323 442 323 421 C323 380 350 353 391 353 C431 353 458 380 458 421 C458 474 410 510 337 510 C284.2 510 237.526 483.456 208.769 439.913 C205.146 434.427 193 436.388 193 442.962 L193 471.5 C193 487.231 180.231 500 164.5 500 L143.365 500 C142.374 500 128.445 498.148 127.483 497.91 C93.6508 489.545 52.0095 478.519 18.637 469.522 C15.6169 468.707 12.7598 465.117 12.5 462 C12.2242 458.69 14.696 455.865 18.0133 455.699 L18.0133 455.699 Z " />
<glyph glyph-name="Sacute" unicode="&#x15a;" horiz-adv-x="555" d="M289.957 817.476 L427 929 C462 958 486 981 486 988 C486 1019 460 1046 429 1046 C422 1046 401 1020 374 981 L273.791 834.468 C270.672 829.907 271.229 822.54 275 818.5 C278.855 814.37 285.575 813.909 289.957 817.476 L289.957 817.476 Z M66.5444 6.88058 L69 21 C75 51 103 57 139 36 C182 6 232 -11 283 -11 C422 -11 515 76 515 206 C515 307 450 398 323 444 C217 482 163 542 163 602 C163 676 203 725 264 725 C283 725 302 723 320 718 C372 705 423 647 447 573 L453.3 555.359 C455.223 549.974 462.282 545 468 545 C474.072 545 479 549.928 479 556 L479 746.5 C479 751.192 475.192 755 470.5 755 L470.382 755 C465.966 755 460.817 751.215 459.5 747 L457 739 C451 716 426 712 395 728 C358 748 313 759 265 759 C141 759 59 675 59 550 C59 443 122 348 243 304 C352 264 408 213 408 167 C408 86 358 32 284 32 C250 32 217 41 187 57 C144 83 102 144 79 214 L73.4086 232.017 C71.6117 237.807 64.5624 243 58.5 243 C52.1523 243 47 237.848 47 231.5 L47 6.01388 C47 1.04615 51.0399 -2.77556 56 -2.5 C60.8395 -2.23114 65.714 2.10528 66.5444 6.88058 L66.5444 6.88058 Z " />
<glyph glyph-name="Scircumflex" unicode="&#x15c;" horiz-adv-x="555" d="M66.5444 6.88058 L69 21 C75 51 103 57 139 36 C182 6 232 -11 283 -11 C422 -11 515 76 515 206 C515 307 450 398 323 444 C217 482 163 542 163 602 C163 676 203 725 264 725 C283 725 302 723 320 718 C372 705 423 647 447 573 L453.3 555.359 C455.223 549.974 462.282 545 468 545 C474.072 545 479 549.928 479 556 L479 746.5 C479 751.192 475.192 755 470.5 755 L470.382 755 C465.966 755 460.817 751.215 459.5 747 L457 739 C451 716 426 712 395 728 C358 748 313 759 265 759 C141 759 59 675 59 550 C59 443 122 348 243 304 C352 264 408 213 408 167 C408 86 358 32 284 32 C250 32 217 41 187 57 C144 83 102 144 79 214 L73.4086 232.017 C71.6117 237.807 64.5624 243 58.5 243 C52.1523 243 47 237.848 47 231.5 L47 6.01388 C47 1.04615 51.0399 -2.77556 56 -2.5 C60.8395 -2.23114 65.714 2.10528 66.5444 6.88058 L66.5444 6.88058 Z M314 995 C306 1007 286 1036 274 1036 C261 1036 241 1007 233 995 L124.559 825.68 C121.51 820.919 122.612 814.065 127 810.5 C131.334 806.979 138.627 807.027 142.914 810.604 L234.491 887.029 C255.961 904.946 291.986 904.882 313.391 886.888 L404.11 810.633 C408.387 807.037 415.663 806.976 420 810.5 C424.388 814.065 425.49 820.919 422.441 825.68 L314 995 L314 995 Z " />
<glyph glyph-name="Scaron" unicode="&#x160;" horiz-adv-x="555" d="M404.11 1038.37 L313.391 962.112 C291.986 944.118 255.961 944.054 234.491 961.971 L142.914 1038.4 C138.627 1041.97 131.334 1042.02 127 1038.5 C122.612 1034.93 121.51 1028.08 124.559 1023.32 L233 854 C241 842 261 813 274 813 C286 813 306 842 314 854 L422.441 1023.32 C425.49 1028.08 424.388 1034.93 420 1038.5 C415.663 1042.02 408.387 1041.96 404.11 1038.37 L404.11 1038.37 Z M66.5444 6.88058 L69 21 C75 51 103 57 139 36 C182 6 232 -11 283 -11 C422 -11 515 76 515 206 C515 307 450 398 323 444 C217 482 163 542 163 602 C163 676 203 725 264 725 C283 725 302 723 320 718 C372 705 423 647 447 573 L453.3 555.359 C455.223 549.974 462.282 545 468 545 C474.072 545 479 549.928 479 556 L479 746.5 C479 751.192 475.192 755 470.5 755 L470.382 755 C465.966 755 460.817 751.215 459.5 747 L457 739 C451 716 426 712 395 728 C358 748 313 759 265 759 C141 759 59 675 59 550 C59 443 122 348 243 304 C352 264 408 213 408 167 C408 86 358 32 284 32 C250 32 217 41 187 57 C144 83 102 144 79 214 L73.4086 232.017 C71.6117 237.807 64.5624 243 58.5 243 C52.1523 243 47 237.848 47 231.5 L47 6.01388 C47 1.04615 51.0399 -2.77556 56 -2.5 C60.8395 -2.23114 65.714 2.10528 66.5444 6.88058 L66.5444 6.88058 Z " />
<glyph glyph-name="scaron" unicode="&#x161;" horiz-adv-x="434" d="M342.407 788.609 L250.565 711.303 C229.047 693.19 192.953 693.19 171.435 711.303 L79.5929 788.609 C75.4534 792.093 68.5888 792.044 64.5 788.5 C60.4033 784.95 59.4289 778.207 62.3526 773.642 L171 604 C179 592 199 563 211 563 C224 563 244 592 252 604 L359.681 773.621 C362.585 778.195 361.594 784.952 357.5 788.5 C353.411 792.044 346.547 792.093 342.407 788.609 L342.407 788.609 Z M60 172.483 L60 5 C60 1.13621 63.1362 -2 67 -2 L67.3292 -2 C70.917 -2 74.6932 1.00407 75.5 4.5 L77 11 C80 24 111 20 151 3 C170 -6 191 -11 212 -11 C316 -11 385 48 385 137 C385 207 335 267 237 293 C172 311 138 356 138 411 C138 466 190 493 249 478 C292 466 330 418 344 356 L346.481 344.833 C347.3 341.151 351.228 338 355 338 C358.864 338 362 341.136 362 345 L362 503.5 C362 507.088 359.088 510 355.5 510 L355.325 510 C352.013 510 348.047 507.142 347 504 L345 498 C342 487 312 488 270 501 C253 506 235 509 216 509 C120 509 56 454 56 371 C56 292 101 228 187 205 C259 186 296 147 296 104 C296 37 238 -2 174 24 C133 41 94 95 79 161 L76.6306 171.662 C75.7669 175.549 71.4725 179.235 67.5 179.5 C63.3694 179.775 60 176.623 60 172.483 L60 172.483 Z " />
<glyph glyph-name="Tcaron" unicode="&#x164;" horiz-adv-x="775" d="M520.407 1038.61 L428.565 961.303 C407.047 943.19 370.953 943.19 349.435 961.303 L257.593 1038.61 C253.453 1042.09 246.589 1042.04 242.5 1038.5 C238.403 1034.95 237.429 1028.21 240.353 1023.64 L349 854 C357 842 377 813 389 813 C402 813 422 842 430 854 L537.681 1023.62 C540.585 1028.2 539.594 1034.95 535.5 1038.5 C531.411 1042.04 524.547 1042.09 520.407 1038.61 L520.407 1038.61 Z M244.5 0 L530 0 C535.52 0 540 4.4803 540 10 C540 15.5197 535.52 20 530 20 L505 20 C475 20 455 40 455 70 L455 654.56 C455 688.473 482.527 716 516.44 716 L602 716 C653 716 709 682 741 631 L761.495 598.208 C763.604 594.834 770.521 591 774.5 591 C778.862 591 781.949 593.657 780.347 597.714 C763.757 639.709 743.128 692.205 727 733 C719.828 750.034 711.851 771.088 704.513 788.954 C703.338 791.815 699.093 795 696 795 L694.031 795 C692.099 795 688.958 793.177 688 791.5 L686 788 C671 765 628 750 579 750 L196 750 C147 750 104 765 89 788 L87 791.5 C86.0415 793.177 82.9008 795 80.9689 795 L79 795 C75.8882 795 71.8329 791.666 70.7955 788.732 C64.3341 770.459 57.069 750.828 49 732 C32.4359 690.103 11.1249 635.863 -5.68261 593.333 C-7.28605 589.276 -2.86273 590 1.5 590 C5.47859 590 12.3963 593.834 14.505 597.208 L35 630 C67 681 123 715 174 715 L258.56 715 C292.473 715 320 687.473 320 653.56 L320 69 C320 39 300 19 270 19 L244.5 19 C239.256 19 235 14.7437 235 9.5 C235 4.25628 239.256 0 244.5 0 L244.5 0 Z " />
<glyph glyph-name="tcaron" unicode="&#x165;" horiz-adv-x="412" d="M331.5 500 L270 500 C236.882 500 210 526.882 210 560 L210 616 C210 618.208 208.208 620 206 620 C204.443 620 200.267 618.277 199.163 617.18 L33.5458 452.525 C32.1579 451.145 30 445.957 30 444 C30 441.24 32.2402 439 35 439 L62.5 439 C80.439 439 95 424.439 95 406.5 L95 186 C95 45 157 -10 249 -10 C326.025 -10 385.939 40.3831 400.935 116.124 C401.782 120.402 398.776 122.645 394.5 123.5 C390.65 124.27 386.464 121.599 385.555 117.779 C374.868 72.88 335.3 44 284 44 C238 44 207 77 207 161 L209.344 378.223 C209.706 411.768 237.233 439 270.781 439 L331.5 439 C348.335 439 362 452.665 362 469.5 C362 486.335 348.335 500 331.5 500 L331.5 500 Z M460 757 C436 757 426 694 424 648 L417.636 546.178 C417.288 540.611 421.531 535.094 427 534 C432.378 532.924 438.941 536.295 441.2 541.293 L484 636 C501 672 512 714 512 740 C512 752 491 757 460 757 L460 757 Z " />
<glyph glyph-name="Utilde" unicode="&#x168;" horiz-adv-x="812" d="M260.546 880.578 C263.432 907.617 277.556 925 298 925 C348 925 416 860 466 860 C518.25 860 554.255 910.54 557.725 988.471 C557.981 994.23 553.765 1001 548 1001 C543.056 1001 537.985 995.489 537.469 990.572 C534.31 960.44 517.3 941 493 941 C443 941 375 1006 325 1006 C276.55 1006 243.443 957.265 240.253 882.087 C240.009 876.338 244.246 870 250 870 C254.934 870 260.022 875.671 260.546 880.578 L260.546 880.578 Z M771.831 57.3851 L747 51 C717 43 697 58 697 88 L697 688.56 C697 722.473 669.473 750 635.56 750 L487 750 C481.48 750 477 745.52 477 740 C477 734.48 481.48 730 487 730 L512 730 C542 730 562 710 562 680 L562 215.63 C562 211.577 558.369 194.51 556.447 190.941 C519.392 122.125 447.05 77 372 77 C290 77 236 134 236 220 L236 688.56 C236 722.473 208.473 750 174.56 750 L26 750 C20.4803 750 16 745.52 16 740 C16 734.48 20.4803 730 26 730 L51 730 C81 730 101 710 101 680 L101 220 C101 82 188 -10 318 -10 C403.8 -10 485.516 30.8375 535.073 96.2285 C541.667 104.929 562 101.805 562 90.8876 L562 34 C562 15.233 577.233 0 596 0 L622.227 0 C623.296 0 636.493 1.66969 637.528 1.93579 L665 9 L771.829 36.3921 C777.267 37.7865 782 43.8859 782 49.5 C782 55.1131 777.267 58.783 771.831 57.3851 L771.831 57.3851 Z " />
<glyph glyph-name="utilde" unicode="&#x169;" horiz-adv-x="590" d="M147.546 630.578 C150.432 657.617 164.556 675 185 675 C235 675 303 610 353 610 C405.25 610 441.255 660.54 444.725 738.471 C444.981 744.23 440.765 751 435 751 C430.056 751 424.985 745.489 424.469 740.572 C421.31 710.44 404.3 691 380 691 C330 691 262 756 212 756 C163.55 756 130.443 707.265 127.253 632.087 C127.009 626.338 131.246 620 137 620 C141.934 620 147.022 625.671 147.546 630.578 L147.546 630.578 Z M565.37 52.3037 L550 48 C520 40 500 55 500 85 L500 438.56 C500 472.473 472.473 500 438.56 500 L330 500 C324.48 500 320 495.52 320 490 C320 484.48 324.48 480 330 480 L370 480 C379 480 385 474 385 465 L385 164.702 C385 160.356 381.607 144.058 379.478 140.268 C355.383 97.38 314.475 70 271 70 C221 70 187 106 187 160 L187 438.56 C187 472.473 159.473 500 125.56 500 L17 500 C11.4803 500 7 495.52 7 490 C7 484.48 11.4803 480 17 480 L57 480 C66 480 72 474 72 465 L72 160 C72 58 130 -10 217 -10 C273.925 -10 328.808 24.0312 364.804 79.1789 C369.57 86.4807 385 83.8328 385 75.1132 L385 28.5011 C385 12.77 397.769 -0.112013 413.5 -0.25 L433.432 -0.42484 C434.694 -0.435916 450.231 1.74988 451.45 2.08056 C487.931 11.9798 532.773 23.4868 568.747 33.2886 C573.898 34.6921 575 39.6614 575 45 C575 50.3153 570.489 53.7369 565.37 52.3037 L565.37 52.3037 Z " />
<glyph glyph-name="Umacron" unicode="&#x16a;" horiz-adv-x="812" d="M289 890 L509 890 C531.079 890 549 907.921 549 930 C549 952.079 531.079 970 509 970 L289 970 C266.921 970 249 952.079 249 930 C249 907.921 266.921 890 289 890 L289 890 Z M771.831 57.3851 L747 51 C717 43 697 58 697 88 L697 688.56 C697 722.473 669.473 750 635.56 750 L487 750 C481.48 750 477 745.52 477 740 C477 734.48 481.48 730 487 730 L512 730 C542 730 562 710 562 680 L562 215.63 C562 211.577 558.369 194.51 556.447 190.941 C519.392 122.125 447.05 77 372 77 C290 77 236 134 236 220 L236 688.56 C236 722.473 208.473 750 174.56 750 L26 750 C20.4803 750 16 745.52 16 740 C16 734.48 20.4803 730 26 730 L51 730 C81 730 101 710 101 680 L101 220 C101 82 188 -10 318 -10 C403.8 -10 485.516 30.8375 535.073 96.2285 C541.667 104.929 562 101.805 562 90.8876 L562 34 C562 15.233 577.233 0 596 0 L622.227 0 C623.296 0 636.493 1.66969 637.528 1.93579 L665 9 L771.829 36.3921 C777.267 37.7865 782 43.8859 782 49.5 C782 55.1131 777.267 58.783 771.831 57.3851 L771.831 57.3851 Z " />
<glyph glyph-name="umacron" unicode="&#x16b;" horiz-adv-x="590" d="M176 640 L396 640 C418.079 640 436 657.921 436 680 C436 702.079 418.079 720 396 720 L176 720 C153.921 720 136 702.079 136 680 C136 657.921 153.921 640 176 640 L176 640 Z M565.37 52.3037 L550 48 C520 40 500 55 500 85 L500 438.56 C500 472.473 472.473 500 438.56 500 L330 500 C324.48 500 320 495.52 320 490 C320 484.48 324.48 480 330 480 L370 480 C379 480 385 474 385 465 L385 164.702 C385 160.356 381.607 144.058 379.478 140.268 C355.383 97.38 314.475 70 271 70 C221 70 187 106 187 160 L187 438.56 C187 472.473 159.473 500 125.56 500 L17 500 C11.4803 500 7 495.52 7 490 C7 484.48 11.4803 480 17 480 L57 480 C66 480 72 474 72 465 L72 160 C72 58 130 -10 217 -10 C273.925 -10 328.808 24.0312 364.804 79.1789 C369.57 86.4807 385 83.8328 385 75.1132 L385 28.5011 C385 12.77 397.769 -0.112013 413.5 -0.25 L433.432 -0.42484 C434.694 -0.435916 450.231 1.74988 451.45 2.08056 C487.931 11.9798 532.773 23.4868 568.747 33.2886 C573.898 34.6921 575 39.6614 575 45 C575 50.3153 570.489 53.7369 565.37 52.3037 L565.37 52.3037 Z " />
<glyph glyph-name="Ubreve" unicode="&#x16c;" horiz-adv-x="812" d="M257.849 981.613 C271.748 904.54 326.8 854 399 854 C471.2 854 526.252 903.638 540.151 979.763 C541.423 986.73 537.027 992.622 530 993.5 C524.983 994.127 517.28 989.306 515.505 984.572 C504.21 954.44 459.3 935 399 935 C338.7 935 293.79 955.25 282.495 987.002 C280.748 991.912 273.14 996.857 268 996 C260.968 994.828 256.584 988.63 257.849 981.613 L257.849 981.613 Z M771.831 57.3851 L747 51 C717 43 697 58 697 88 L697 688.56 C697 722.473 669.473 750 635.56 750 L487 750 C481.48 750 477 745.52 477 740 C477 734.48 481.48 730 487 730 L512 730 C542 730 562 710 562 680 L562 215.63 C562 211.577 558.369 194.51 556.447 190.941 C519.392 122.125 447.05 77 372 77 C290 77 236 134 236 220 L236 688.56 C236 722.473 208.473 750 174.56 750 L26 750 C20.4803 750 16 745.52 16 740 C16 734.48 20.4803 730 26 730 L51 730 C81 730 101 710 101 680 L101 220 C101 82 188 -10 318 -10 C403.8 -10 485.516 30.8375 535.073 96.2285 C541.667 104.929 562 101.805 562 90.8876 L562 34 C562 15.233 577.233 0 596 0 L622.227 0 C623.296 0 636.493 1.66969 637.528 1.93579 L665 9 L771.829 36.3921 C777.267 37.7865 782 43.8859 782 49.5 C782 55.1131 777.267 58.783 771.831 57.3851 L771.831 57.3851 Z " />
<glyph glyph-name="ubreve" unicode="&#x16d;" horiz-adv-x="590" d="M144.849 731.613 C158.747 654.54 213.8 604 286 604 C358.2 604 413.252 653.638 427.151 729.763 C428.423 736.73 424.027 742.622 417 743.5 C411.983 744.127 404.28 739.306 402.505 734.572 C391.21 704.44 346.3 685 286 685 C225.7 685 180.79 705.25 169.495 737.002 C167.748 741.912 160.14 746.857 155 746 C147.968 744.828 143.584 738.63 144.849 731.613 L144.849 731.613 Z M565.37 52.3037 L550 48 C520 40 500 55 500 85 L500 438.56 C500 472.473 472.473 500 438.56 500 L330 500 C324.48 500 320 495.52 320 490 C320 484.48 324.48 480 330 480 L370 480 C379 480 385 474 385 465 L385 164.702 C385 160.356 381.607 144.058 379.478 140.268 C355.383 97.38 314.475 70 271 70 C221 70 187 106 187 160 L187 438.56 C187 472.473 159.473 500 125.56 500 L17 500 C11.4803 500 7 495.52 7 490 C7 484.48 11.4803 480 17 480 L57 480 C66 480 72 474 72 465 L72 160 C72 58 130 -10 217 -10 C273.925 -10 328.808 24.0312 364.804 79.1789 C369.57 86.4807 385 83.8328 385 75.1132 L385 28.5011 C385 12.77 397.769 -0.112013 413.5 -0.25 L433.432 -0.42484 C434.694 -0.435916 450.231 1.74988 451.45 2.08056 C487.931 11.9798 532.773 23.4868 568.747 33.2886 C573.898 34.6921 575 39.6614 575 45 C575 50.3153 570.489 53.7369 565.37 52.3037 L565.37 52.3037 Z " />
<glyph glyph-name="Uring" unicode="&#x16e;" horiz-adv-x="812" d="M334 905 C334 946 360 973 399 973 C438 973 464 946 464 905 C464 868 434 837 399 837 C364 837 334 868 334 905 L334 905 Z M301 905 C301 854 346 810 399 810 C452 810 497 854 497 905 C497 962 458 1000 399 1000 C340 1000 301 962 301 905 L301 905 Z M771.831 57.3851 L747 51 C717 43 697 58 697 88 L697 688.56 C697 722.473 669.473 750 635.56 750 L487 750 C481.48 750 477 745.52 477 740 C477 734.48 481.48 730 487 730 L512 730 C542 730 562 710 562 680 L562 215.63 C562 211.577 558.369 194.51 556.447 190.941 C519.392 122.125 447.05 77 372 77 C290 77 236 134 236 220 L236 688.56 C236 722.473 208.473 750 174.56 750 L26 750 C20.4803 750 16 745.52 16 740 C16 734.48 20.4803 730 26 730 L51 730 C81 730 101 710 101 680 L101 220 C101 82 188 -10 318 -10 C403.8 -10 485.516 30.8375 535.073 96.2285 C541.667 104.929 562 101.805 562 90.8876 L562 34 C562 15.233 577.233 0 596 0 L622.227 0 C623.296 0 636.493 1.66969 637.528 1.93579 L665 9 L771.829 36.3921 C777.267 37.7865 782 43.8859 782 49.5 C782 55.1131 777.267 58.783 771.831 57.3851 L771.831 57.3851 Z " />
<glyph glyph-name="uring" unicode="&#x16f;" horiz-adv-x="590" d="M221 655 C221 696 247 723 286 723 C325 723 351 696 351 655 C351 618 321 587 286 587 C251 587 221 618 221 655 L221 655 Z M188 655 C188 604 233 560 286 560 C339 560 384 604 384 655 C384 712 345 750 286 750 C227 750 188 712 188 655 L188 655 Z M565.37 52.3037 L550 48 C520 40 500 55 500 85 L500 438.56 C500 472.473 472.473 500 438.56 500 L330 500 C324.48 500 320 495.52 320 490 C320 484.48 324.48 480 330 480 L370 480 C379 480 385 474 385 465 L385 164.702 C385 160.356 381.607 144.058 379.478 140.268 C355.383 97.38 314.475 70 271 70 C221 70 187 106 187 160 L187 438.56 C187 472.473 159.473 500 125.56 500 L17 500 C11.4803 500 7 495.52 7 490 C7 484.48 11.4803 480 17 480 L57 480 C66 480 72 474 72 465 L72 160 C72 58 130 -10 217 -10 C273.925 -10 328.808 24.0312 364.804 79.1789 C369.57 86.4807 385 83.8328 385 75.1132 L385 28.5011 C385 12.77 397.769 -0.112013 413.5 -0.25 L433.432 -0.42484 C434.694 -0.435916 450.231 1.74988 451.45 2.08056 C487.931 11.9798 532.773 23.4868 568.747 33.2886 C573.898 34.6921 575 39.6614 575 45 C575 50.3153 570.489 53.7369 565.37 52.3037 L565.37 52.3037 Z " />
<glyph glyph-name="Wcircumflex" unicode="&#x174;" horiz-adv-x="1149" d="M499 645 C517.308 603.154 536.375 560.548 554.878 518.507 C558.425 510.447 558.292 485.917 555.5 477.565 L502.794 319.915 C483.866 263.297 409.951 261.015 387.567 316.358 L252.046 651.413 C251.952 651.646 250.152 656.954 250.087 657.197 C239.016 698.382 259.125 725 303 725 L313 725 C318.52 725 323 729.48 323 735 L323 737.5 C323 744.4 317.4 750 310.5 750 L12.5 750 C5.60037 750 0 744.4 0 737.5 L0 730.5 C0 727.464 2.46416 725 5.5 725 L11 725 C49 725 88 693 109 645 C200.65 432.45 292.3 218.949 384.877 6.35184 C388.313 -1.53829 400.394 -10 409 -10 L423.45 -10 C424.83 -10 426.229 -8.85313 426.5 -7.5 C426.54 -7.29802 427.791 -2.794 427.861 -2.60011 L536.222 299.601 C555.951 354.62 626.51 357.208 650.216 303.781 L782.105 6.53904 C785.584 -1.30094 797.423 -9 806 -9 L823 -9 L823 -4 L1016 652 C1032 696 1072 725 1118 725 L1125.5 725 C1129.64 725 1133 728.36 1133 732.5 L1133 737.5 C1133 744.4 1127.4 750 1120.5 750 L859.5 750 C852.6 750 847 744.4 847 737.5 C847 730.6 852.6 725 859.5 725 L905 725 C952 725 976 695 965 649 L888.032 360.526 C872.398 301.93 795.859 296.513 772.128 352.323 L644.226 653.117 C644.109 653.391 642.164 658.837 642.085 659.124 C630.966 699.383 650.125 726 694 726 L720.5 726 C727.4 726 733 731.6 733 738.5 C733 745.4 727.4 751 720.5 751 L397.5 751 C390.6 751 385 745.4 385 738.5 L385 732 C385 728.688 387.688 726 391 726 L397 726 C438 726 478.5 693.5 499.5 645.5 L499 645 Z M595 997 C587 1009 567 1038 555 1038 C542 1038 522 1009 514 997 L405.559 827.68 C402.51 822.919 403.612 816.065 408 812.5 C412.334 808.979 419.627 809.027 423.914 812.604 L515.491 889.029 C536.961 906.946 572.986 906.882 594.391 888.888 L685.11 812.633 C689.387 809.037 696.663 808.976 701 812.5 C705.388 816.065 706.49 822.919 703.441 827.68 L595 997 L595 997 Z " />
</font>
</svg>
