<?xml version="1.0" encoding="UTF-8"?>
<svg xmlns="http://www.w3.org/2000/svg" xmlns:xlink="http://www.w3.org/1999/xlink" version="1.2" >
<font id="Moisses Light Round">
<font-face  font-family="Moisses" units-per-em="1024" ascent="975" descent="-300" font-style="normal" font-weight="300" font-stretch="normal" cap-height="1042" x-height="488" underline-position="-125" underline-thickness="50" />
<missing-glyph  horiz-adv-x="100" d="" />
<glyph glyph-name="NULL" d="" />
<glyph glyph-name="CR" unicode="&#xd;" horiz-adv-x="256" d="" />
<glyph glyph-name="space" unicode="&#x20;" horiz-adv-x="250" d="" />
<glyph glyph-name="exclam" unicode="&#x21;" horiz-adv-x="201" d="M136 30 C136 77 66 77 66 30 C66 -16 136 -16 136 30 L136 30 Z M101 755 C77 755 67 721 70 671 L95.7466 214.493 C95.8863 212.017 98.0201 210 100.5 210 C102.98 210 105.114 212.017 105.253 214.493 L131 671 C134 721 124 755 101 755 L101 755 Z " />
<glyph glyph-name="quotedbl" unicode="&#x22;" horiz-adv-x="325" d="M216 750 C204 750 198 732 201 705 L218.63 562.977 C218.833 561.346 220.357 560 222 560 C223.643 560 225.167 561.346 225.37 562.977 L243 705 C246 732 240 750 228 750 L216 750 L216 750 Z M96 750 C84 750 78 732 81 705 L98.6304 562.977 C98.8329 561.346 100.357 560 102 560 C103.643 560 105.167 561.346 105.37 562.977 L123 705 C126 732 120 750 108 750 L96 750 L96 750 Z " />
<glyph glyph-name="numbersign" unicode="&#x23;" horiz-adv-x="534" d="M388.579 671.101 L368.567 531.709 C364.433 502.91 336.844 479 307.751 479 L285.891 479 C247.158 479 219.57 510.832 225.074 549.171 L242.579 671.101 C243.355 676.51 239.464 681 234 681 C228.536 681 223.355 676.51 222.579 671.101 L202.567 531.709 C198.433 502.91 170.844 479 141.751 479 L83.2354 479 C72.748 479 62.6356 470.359 61 460 C59.3644 449.641 66.748 441 77.2354 441 L124 441 C160.057 441 185.728 411.364 180.584 375.675 L165.593 271.674 C161.445 242.897 133.856 219 104.781 219 L44.2354 219 C33.748 219 23.6356 210.359 22 200 C20.3644 189.641 27.748 181 38.2354 181 L86 181 C122.606 181 148.678 150.915 143.473 114.681 L128.422 9.8984 C127.645 4.49029 131.536 0 137 0 C142.464 0 147.645 4.49029 148.422 9.8984 L165.429 128.296 C169.566 157.091 197.154 181 226.245 181 L248.104 181 C286.839 181 314.427 149.166 308.919 110.824 L294.422 9.8984 C293.645 4.49029 297.536 0 303 0 C308.464 0 313.645 4.49029 314.422 9.8984 L331.429 128.296 C335.566 157.091 363.154 181 392.245 181 L444.765 181 C455.252 181 465.364 189.641 467 200 C468.636 210.359 461.252 219 450.765 219 L407 219 C372.582 219 348.078 247.289 352.988 281.356 L368.407 388.326 C372.555 417.103 400.144 441 429.219 441 L489.836 441 C500.324 441 510.132 449.602 511.5 460 C512.868 470.398 505.324 479 494.836 479 L447.5 479 C411.167 479 385.287 508.86 390.45 544.825 L408.579 671.101 C409.355 676.51 405.464 681 400 681 C394.536 681 389.355 676.51 388.579 671.101 L388.579 671.101 Z M263.219 441 L285.069 441 C323.82 441 351.409 409.149 345.88 370.794 L331.593 271.674 C327.445 242.897 299.856 219 270.781 219 L248.931 219 C210.18 219 182.591 250.851 188.12 289.206 L202.407 388.326 C206.555 417.103 234.144 441 263.219 441 L263.219 441 Z " />
<glyph glyph-name="dollar" unicode="&#x24;" horiz-adv-x="546" d="M72.5444 9.88058 L75 24 C81 55 109 61 145 40 C165.513 26.0513 187.372 14.7955 210.578 6.23274 C217.555 3.6581 226 -6.74491 226 -14.1822 L226 -66 C226 -70.9677 230.032 -75 235 -75 C239.968 -75 244 -70.9677 244 -66 L244 -13.3078 C244 -8.01179 249.92 -4.45774 255.117 -5.47549 C267.732 -7.94564 280.419 -9.2999 293.43 -9.78789 C299.004 -9.99697 305 -14.9215 305 -20.5 L305 -66 C305 -70.9677 309.032 -75 314 -75 C318.968 -75 323 -70.9677 323 -66 L323 -42 C323 -26.3658 339.542 -7.77864 354.854 -4.623 C446.87 14.34 506 84.9 506 183 C506 255 454.97 329.43 357.284 385.878 C342.612 394.356 323 425.599 323 442.544 L323 705.599 C323 720.233 332.002 728.268 344.077 720.001 C382.805 693.485 414.85 645.8 431 588 L437.896 564.553 C439.54 558.965 446.175 554 452 554 C458.072 554 463 558.928 463 565 L463 744.5 C463 749.192 459.192 753 454.5 753 L453.906 753 C449.766 753 444.809 749.427 443.5 745.5 L441 738 C434.212 717.636 414.26 711.377 387.526 722.87 C387.337 722.952 383.206 725.029 383.027 725.131 C367.85 733.745 351.436 741.079 334.285 746.634 C328.862 748.391 323 755.701 323 761.402 L323 816 C323 820.968 318.968 825 314 825 C309.032 825 305 820.968 305 816 L305 764.198 C305 758.844 299.161 755.158 293.876 756.016 C281.24 758.069 268.458 759.328 255.029 759.794 C249.172 759.998 243 765.139 243 771 L243 816 C243 820.968 238.968 825 234 825 C229.032 825 225 820.968 225 816 L225 792 C225 777.464 206.026 756.794 192.055 752.779 C118.938 731.766 73 666.25 73 577 C73 515.8 115.12 450.55 196.444 394.372 C208.488 386.052 225 355.851 225 341.213 L225 57.2598 C225 35.8 209.812 26.3515 191.516 37.5665 C141.616 68.1544 104.8 126.75 85 201 L78.7892 225.843 C77.2956 231.818 70.6581 237 64.5 237 C58.1523 237 53 231.848 53 225.5 L53 11.0139 C53 6.04615 57.0399 1.77556 62 1.5 C66.9339 1.22589 71.6978 5.0121 72.5444 9.88058 L72.5444 9.88058 Z M305 729.177 L305 425.748 C305 419.355 299.763 415.5 294.027 418.323 C278.883 425.774 264.658 433.226 251.35 440.677 C246.66 443.303 242 451.602 242 456.977 L242 733.5 C242 739.394 245.523 744.024 251.416 743.924 C266.429 743.67 281.818 742.699 295.841 739.969 C301.426 738.881 305 734.866 305 729.177 L305 729.177 Z M454 637 L454 637 L454 637 L454 637 Z M251.727 358.579 C264.968 351.449 279.171 344.69 292.856 338.005 C297.89 335.546 303 327.422 303 321.82 L303 19 C303 12.7078 297.259 7.98361 290.971 8.21211 C277.542 8.7001 264.76 10.0544 252.124 12.5245 C246.341 13.6549 241.013 19.4157 241.03 25.3077 L241.969 353.023 C241.983 358.181 247.186 361.024 251.727 358.579 L251.727 358.579 Z M364.197 296.095 C425.691 252.914 457 206.075 457 164 C457 92.225 420.246 38.8269 361.338 17.282 C335.593 7.86595 321 21.8329 321 49.2462 L321 271.522 C321 297.849 342.651 311.225 364.197 296.095 L364.197 296.095 Z M188.946 481.254 C140.503 520.966 116 560.525 116 596 C116 662 144.586 711.665 191.09 732.642 C211.12 741.677 223 731.092 223 709.118 L223 498.851 C223 478.328 204.818 468.243 188.946 481.254 L188.946 481.254 Z " />
<glyph glyph-name="ampersand" unicode="&#x26;" horiz-adv-x="331" d="M313.5 468.5 C314.761 467.239 321.075 467.599 322.768 468.158 C410.012 496.951 468 554.5 468 613 C468 701 407 760 315 760 C218 760 153 697 153 603 C153 568 207 501 289 404 C289 404 356.594 327.849 475.163 188.211 C495.783 163.927 490.231 137.406 465.647 117.144 C403.092 65.5863 337.525 37 274 37 C170 37 101 109 101 217 C101 319.375 159.939 406.54 249.084 436.786 C250.496 437.266 252.915 440.028 251.5 440.5 C249.938 441.021 239.713 439.709 238.151 439.188 C124.099 401.193 49 307.3 49 202 C49 75 127 -9 245 -9 C333.725 -9 426.252 42.3337 510.533 132.025 C513.692 135.386 520.025 135.428 523 131.903 C532 121.24 541 110.455 550 99 C605 34 665 -10 700 -10 C765.325 -10 816.391 49.8894 830.025 140.935 C830.416 143.547 829.005 148.665 826.5 149.5 C824.111 150.296 821.638 148.136 821.267 145.645 C810.992 76.63 771.7 31 721 31 C692 31 641 69 594 125 L572 151.5 C560.677 165.139 559.444 189.917 569.883 204.243 C627.222 282.932 678.665 380.225 719.524 491.434 C720.604 494.374 720.132 501 717 501 C713.918 501 708.663 494.552 707.597 491.661 C669.857 389.324 622.045 300.054 568.65 228.346 C550.957 204.582 520.565 212.816 501.371 235.385 C393.56 362.15 332 431 332 431 C250 528 196 595 196 631 C196 702 243 749 314 749 C381 749 426 696 426 617 C426 552.65 382.747 495.43 315.704 473.145 C314.102 472.612 312.307 469.693 313.5 468.5 L313.5 468.5 Z " />
<glyph glyph-name="quotesingle" unicode="&#x27;" horiz-adv-x="204" d="M96 750 C84 750 78 732 81 705 L98.6304 562.977 C98.8329 561.346 100.357 560 102 560 C103.643 560 105.167 561.346 105.37 562.977 L123 705 C126 732 120 750 108 750 L96 750 L96 750 Z " />
<glyph glyph-name="parenleft" unicode="&#x28;" horiz-adv-x="435" d="M310.183 753.128 C183.655 661.245 100 470.925 100 273 C100 77 185 -118 313 -214 C314.281 -214.96 313.676 -212.873 314.5 -211.5 C315.287 -210.188 309.08 -203.611 307.895 -202.643 C203.445 -117.341 135 71.175 135 273 C135 486 210 678 323 754 C324.524 755.025 322.321 755.358 321.5 757 C320.654 758.692 311.714 754.239 310.183 753.128 L310.183 753.128 Z " />
<glyph glyph-name="parenright" unicode="&#x29;" horiz-adv-x="435" d="M36.9649 747.28 C165.394 657.394 250 469.95 250 273 C250 68 164 -125 34 -209 C32.6491 -209.873 34.6725 -210.121 35.5 -211.5 C36.3515 -212.919 46.7214 -207.489 48.0805 -206.545 C190.888 -107.299 285 81.9 285 273 C285 466 183 661 30 760 C28.4552 761 29.3229 758.646 28.5 757 C27.7092 755.418 35.5163 748.294 36.9649 747.28 L36.9649 747.28 Z " />
<glyph glyph-name="asterisk" unicode="&#x2a;" horiz-adv-x="268" d="M263 675 L263 675 L263 675 Z M251.137 553.37 C269.49 546.788 281.75 572.417 262.5 582.5 L209.25 605.75 C187.717 615.152 187.734 642.81 209.278 652.186 L261.396 674.867 C261.863 675.07 265.255 676.732 265.68 677.013 C283.228 688.612 270.382 714.618 250 702 L201.733 666.488 C182.204 652.119 157.517 666.409 160.25 690.5 L167 750 C169 775 135 775 137 750 L144 691.5 C146.816 667.964 122.651 653.889 103.568 667.95 L68.0825 694.097 C61.4549 698.981 52.614 697.131 48.5 690 L43.2348 680.874 C43.1613 680.746 42.603 680.064 42.6731 680.193 C47.436 688.986 56 703 56 703 C56 703 53.664 705.512 47.6776 706.43 C31.5278 708.904 22.9167 684.972 41 675.5 C71.525 662.3 102.05 650.121 132.013 637.278 C139.399 634.113 140.291 624.382 132.912 621.201 L42 582 C21.2222 571.611 33.4475 544.721 52.5609 553.559 C55.2424 554.799 55.5586 556.171 54.0521 558.712 C48.7855 567.597 41 582 41 582 C41 582 46.2143 572.962 46.2545 572.892 L48.5 569 C52.6124 561.872 61.4442 560.039 68.0532 564.943 L102.528 590.521 C121.281 604.434 145.123 590.703 142.5 567.5 L136 510 C134 485 168 485 166 510 C162.615 543 158.515 576.716 154.91 609.936 C154.049 617.871 162.309 621.043 168.702 616.265 L243.329 560.491 C245.894 558.574 249.353 559.254 251 562 C251.011 562.019 251.045 561.999 251.034 561.98 L250.75 561.5 C248.499 557.691 246.973 554.864 251.137 553.37 L251.137 553.37 Z " />
<glyph glyph-name="plus" unicode="&#x2b;" horiz-adv-x="620" d="M291 441 L291 329.44 C291 295.527 263.473 268 229.56 268 L118 268 C108.065 268 100 259.935 100 250 C100 240.065 108.065 232 118 232 L229.56 232 C263.473 232 291 204.473 291 170.56 L291 59 C291 48.5126 299.513 40 310 40 C320.487 40 329 48.5126 329 59 L329 170.56 C329 204.473 356.527 232 390.44 232 L502 232 C511.935 232 520 240.065 520 250 C520 259.935 511.935 268 502 268 L390.44 268 C356.527 268 329 295.527 329 329.44 L329 441 C329 451.487 320.487 460 310 460 C299.513 460 291 451.487 291 441 L291 441 Z " />
<glyph glyph-name="comma" unicode="&#x2c;" horiz-adv-x="261" d="M170.148 13.798 C175.067 -54.0415 140.071 -98.608 70.6999 -100.907 C67.4995 -101.013 65 -103.798 65 -107 C65 -110.422 67.2308 -113.02 70.6509 -112.907 C143.469 -110.484 191 -61.125 191 12 C191 74 165 115 125 115 C89 115 65 91 65 55 C65 19 89 -5 125 -5 C141.923 -5 155.982 3.23373 164.754 16.6721 C166.257 18.9743 169.95 16.5401 170.148 13.798 L170.148 13.798 Z " />
<glyph glyph-name="hyphen" unicode="&#x2d;" horiz-adv-x="430" d="M101 264 L329 264 C340.591 264 350 273.409 350 285 C350 296.591 340.591 306 329 306 L101 306 C89.4086 306 80 296.591 80 285 C80 273.409 89.4086 264 101 264 L101 264 Z " />
<glyph glyph-name="period" unicode="&#x2e;" horiz-adv-x="195" d="M160 30 C160 77 90 77 90 30 C90 -16 160 -16 160 30 L160 30 Z " />
<glyph glyph-name="slash" unicode="&#x2f;" horiz-adv-x="379" d="M314.277 755.763 L41.7233 -65.7631 C39.2488 -73.2217 44.1416 -80 52 -80 C59.8584 -80 69.2488 -73.2217 71.7233 -65.7631 L344.277 755.763 C346.751 763.222 341.858 770 334 770 C326.142 770 316.751 763.222 314.277 755.763 L314.277 755.763 Z " />
<glyph glyph-name="zero" unicode="0" horiz-adv-x="606" d="M73 250 C73 379 166 489 305 489 C430 489 537 393 537 250 C537 121 444 11 305 11 C180 11 73 107 73 250 L73 250 Z M49 250 C49 94 167 -10 305 -10 C459 -10 561 110 561 250 C561 406 443 510 305 510 C151 510 49 390 49 250 L49 250 Z " />
<glyph glyph-name="one" unicode="1" horiz-adv-x="330" d="M265 20 L240 20 C210 20 190 40 190 70 L190 430 C190 460 210 480 240 480 L265 480 C270.52 480 275 484.48 275 490 C275 495.52 270.52 500 265 500 L65 500 C59.4803 500 55 495.52 55 490 C55 484.48 59.4803 480 65 480 L90 480 C120 480 140 460 140 430 L140 70 C140 40 120 20 90 20 L65 20 C59.4803 20 55 15.5197 55 10 C55 4.4803 59.4803 0 65 0 L265 0 C270.52 0 275 4.4803 275 10 C275 15.5197 270.52 20 265 20 L265 20 Z " />
<glyph glyph-name="two" unicode="2" horiz-adv-x="527" d="M482.83 106.288 L477 99 C449 66 406 44 367 44 L213.722 44 C187.062 44 178.793 81.908 201.373 96.0832 C333.074 178.763 427 264.625 427 343 C427 443 360 510 260 510 C158.6 510 74.3113 428.246 46.9887 303.667 C46.2977 300.516 47.3883 293.349 50.5 292.5 C53.4557 291.694 57.0123 296.112 57.6682 299.105 C80.5594 403.555 150.15 472 234 472 C320 472 378 416 378 331 C378 233 254 133 95 44 C94.753 43.8617 91.5118 43.2781 91.2403 43.198 C85.5052 41.5061 79.3646 37.7128 73.1502 33.1452 C72.7803 32.8733 64.3116 27.6558 63.901 27.4505 L24.2249 7.61245 C22.6794 6.83969 22.5623 4.95849 24 4 L24.4694 3.68705 C25.4248 3.05017 25.1325 1.68876 24 1.5 C23.7278 1.45463 23.7654 1 24.0414 1 L396.923 1 C409.067 1 430.481 12.7551 437 23 L451 45 L492 104 C490 106 484 109.5 484 109.5 C484 109.5 484.218 108.022 482.83 106.288 L482.83 106.288 Z " />
<glyph glyph-name="three" unicode="3" horiz-adv-x="409" d="M19 -227 C19.5607 -229.804 32.707 -230.571 35.5445 -230.219 C235.913 -205.385 369 -115.1 369 -2 C369 79.675 302.979 140.251 196.768 161.758 C180.3 165.093 172.898 192.845 187.835 200.538 C301.195 258.922 372 321.1 372 384 C372 460 309 510 214 510 C123.325 510 47.86 449.16 23.7525 358.066 C22.922 354.928 24.3682 350.354 27.5 349.5 C30.4389 348.698 33.6379 350.713 34.4358 353.653 C54.2094 426.518 116.975 475 194 475 C269 475 319 432 319 367 C319 291 229 224 93 166 C90.5902 164.972 93.1791 163.612 93.375 161 C93.572 158.374 101.114 154.906 103.714 154.482 C232.107 133.54 316 65.875 316 -17 C316 -121 197 -203 18 -222 C15.213 -222.296 18.4503 -224.252 19 -227 L19 -227 Z " />
<glyph glyph-name="four" unicode="4" horiz-adv-x="620" d="M586.096 98.9238 L581 83 C573 56 549 38 522 38 L468.5 38 C438.97 38 415 61.9696 415 91.5 L415 527 C415 528.656 413.656 530 412 530 C410.679 530 407.987 528.661 407.19 527.607 L17.7143 12.5892 C16.8106 11.3942 15 5.99822 15 4.5 C15 2.01613 17.0161 0 19.5 0 L303.56 0 C337.473 0 365 -27.527 365 -61.44 L365 -195 C365 -208.799 376.201 -220 390 -220 C403.799 -220 415 -208.799 415 -195 L415 -52 C415 -23.2976 438.298 0 467 0 L519 0 C547 0 566 -18 567 -45 L567.5 -50 C567.765 -52.6539 565.694 -54.5715 568.317 -55.059 C570.576 -55.4792 584.25 -58 587 -58 C590 -34 593.5 -6 596.5 20 C599.5 45 604 79 608 105 C608 107 589 108.5 589 108.5 C589 108.5 588.119 105.248 586.096 98.9238 L586.096 98.9238 Z M365.272 259.406 L365.076 100.364 C365.034 66.493 337.507 39 303.636 39 L184.184 39 C129.869 39 102.43 94.0138 135.104 137.401 L255.253 296.943 C291.967 345.693 365.348 320.435 365.272 259.406 L365.272 259.406 Z " />
<glyph glyph-name="five" unicode="5" horiz-adv-x="428" d="M75.0965 -229.963 C269.666 -201.381 398 -91.45 398 47 C398 164.3 306.243 241.862 163.26 262.492 C127.776 267.612 90.832 306.542 97.9714 341.675 L111.094 406.252 C116.442 432.57 143.887 455.209 170.742 455.454 L329.312 456.902 C335.097 456.955 340.917 461.817 342 467.5 L344 478 L347 489 L349 500 C351.5 515.833 354.694 532.361 357.426 546.69 C358.255 551.038 355.287 555 350.861 555 L345.385 555 C342.625 555 339.025 552.562 338 550 L336 545 C325 518 300 500 273 500 L162.44 500 C135.132 500 107.495 477.311 102.177 450.526 L58.1726 228.906 C57.6144 226.094 59.3577 220.904 61.5 219 C63.1502 217.533 69.8129 215 72.0208 215 L89 215 C249 215 355 141 355 30 C355 -100 237 -201 60 -223 C57.5539 -223.304 60 -225.035 60 -227.5 C60 -230.016 72.6072 -230.328 75.0965 -229.963 L75.0965 -229.963 Z " />
<glyph glyph-name="six" unicode="6" horiz-adv-x="567" d="M528.062 745.048 C245.322 677.731 59 496.625 59 287 C59 109 153 -10 294 -10 C427 -10 515 90 515 239 C515 374 422 464 282 464 C222.6 464 174.09 441.539 142.085 403.356 C139.533 400.312 130.888 399.793 132.176 403.551 C189.15 569.767 344 698.35 553 743 C555.017 743.431 552.312 744.605 551.5 746.5 C550.665 748.449 530.125 745.539 528.062 745.048 L528.062 745.048 Z M109 260 C109 373 177 449 278 449 C391 449 467 366 467 242 C467 99 397 4 293 4 C183 4 109 106 109 260 L109 260 Z " />
<glyph glyph-name="seven" unicode="7" horiz-adv-x="447" d="M100.445 546.168 C90.96 525.247 79.3571 499.486 70.5 480 C60.5 458 47 429 37 407 C41 405 53 400 53 400 C53 400 54.1883 401.782 56.6056 405.408 L63 415 C81 442 110 460 137 460 L321.741 460 C369.342 460 397.167 417.312 377.953 373.76 L123.669 -202.617 C119.796 -211.395 125.405 -220 135 -220 C144.709 -220 157.514 -211.399 161.185 -202.411 L439.164 478.057 C439.756 479.506 442 490.934 442 492.5 C442 496.64 438.64 500 434.5 500 L155 500 C128.844 500 113.949 515.016 118.499 537.774 C118.509 537.825 119.441 543.086 119.448 543.138 L119.5 543.5 C119.766 545.362 118.484 547.663 116.761 548.417 L112 550.5 C107.58 552.434 102.437 550.561 100.445 546.168 L100.445 546.168 Z " />
<glyph glyph-name="eight" unicode="8" horiz-adv-x="543" d="M247.5 379.5 L258 375 C382 325 464 277 464 197 C464 80 388 2 275 2 C165 2 91 71 91 174 C91 258.55 143.345 337.685 224.029 377.967 C228.666 380.283 242.736 381.542 247.5 379.5 L247.5 379.5 Z M177.134 366.088 C95.8525 316.777 46 245.25 46 173 C46 63 137 -11 274 -11 C411 -11 502 64 502 176 C502 275.45 446.368 334.44 357.211 381.834 C339.219 391.398 339.28 421.38 356.643 432.042 C429.079 476.519 474 536.6 474 596 C474 694 393 759 271 759 C150 759 70 688 70 582 C70 516.825 110.497 459.477 176.892 415.572 C192.888 404.994 193.529 376.035 177.134 366.088 L177.134 366.088 Z M284.5 415.5 L274 420 C176 460 110 525 110 601 C110 692 178 752 280 752 C371 752 431 688 431 592 C431 521.7 382.265 454.108 307.087 416.659 C302.495 414.371 289.215 413.479 284.5 415.5 L284.5 415.5 Z " />
<glyph glyph-name="nine" unicode="9" horiz-adv-x="567" d="M38.9379 -245.048 C321.677 -177.731 508 3.375 508 213 C508 391 414 510 273 510 C140 510 52 410 52 261 C52 126 145 36 285 36 C344.4 36 392.91 58.4606 424.915 96.6437 C427.467 99.6882 436.112 100.207 434.824 96.4492 C377.85 -69.7675 223 -198.35 14 -243 C11.9833 -243.431 14.6876 -244.605 15.5 -246.5 C16.3355 -248.449 36.8747 -245.539 38.9379 -245.048 L38.9379 -245.048 Z M458 240 C458 127 390 51 289 51 C176 51 100 134 100 258 C100 401 170 496 274 496 C384 496 458 394 458 240 L458 240 Z " />
<glyph glyph-name="colon" unicode="&#x3a;" horiz-adv-x="135" d="M160 420 C160 467 90 467 90 420 C90 374 160 374 160 420 L160 420 Z M160 30 C160 77 90 77 90 30 C90 -16 160 -16 160 30 L160 30 Z " />
<glyph glyph-name="semicolon" unicode="&#x3b;" horiz-adv-x="261" d="M160 420 C160 467 90 467 90 420 C90 374 160 374 160 420 L160 420 Z M170.148 13.798 C175.067 -54.0415 140.071 -98.608 70.6999 -100.907 C67.4995 -101.013 65 -103.798 65 -107 C65 -110.422 67.2308 -113.02 70.6509 -112.907 C143.469 -110.484 191 -61.125 191 12 C191 74 165 115 125 115 C89 115 65 91 65 55 C65 19 89 -5 125 -5 C141.923 -5 155.982 3.23373 164.754 16.6721 C166.257 18.9743 169.95 16.5401 170.148 13.798 L170.148 13.798 Z " />
<glyph glyph-name="equal" unicode="&#x3d;" horiz-adv-x="528" d="M78 200 C78 193.928 82.9283 189 89 189 L447 189 C453.072 189 458 193.928 458 200 C458 206.072 453.072 211 447 211 L89 211 C82.9283 211 78 206.072 78 200 L78 200 Z M78 300 C78 293.928 82.9283 289 89 289 L447 289 C453.072 289 458 293.928 458 300 C458 306.072 453.072 311 447 311 L89 311 C82.9283 311 78 306.072 78 300 L78 300 Z " />
<glyph glyph-name="question" unicode="&#x3f;" horiz-adv-x="305" d="M160 30 C160 77 90 77 90 30 C90 -16 160 -16 160 30 L160 30 Z M121.004 175.339 C121.1 184.086 123.05 359.025 125 360 C209 360 243 397 281 453 C298 478 309 518 309 553 C309 677 243 760 145 760 C117 760 98 745 98 723 C98 708 109 698 125 698 C136 698 152 707 163 707 C242 707 295 643 295 547 C295 527 285 498 270 476 C243 436 214 410 108 410 C111 411 113 175 113 175 C113 175 114.773 175 117 175 C119.207 175 120.979 173.132 121.004 175.339 L121.004 175.339 Z " />
<glyph glyph-name="at" unicode="&#x40;" horiz-adv-x="1139" d="M1038.75 -10.7093 C967.584 -148.74 783.65 -240 575 -240 C286 -240 94 -40 94 259 C94 558 284 757 570 757 C855 757 1045 591 1045 343 C1045 140 968 4 852 4 C733 4 673 82 702 200 L766.3 457.202 C769.352 469.41 761.084 480 748.5 480 C735.9 480 722.409 469.412 719.415 457.173 L709.6 417.06 C708.019 410.6 695.537 410.836 692.922 416.952 C673.618 462.094 631.275 490 576 490 C410 490 299 373 299 197 C299 87 368 13 471 13 C532.875 13 589.305 45.67 627.375 99.7797 C632.743 107.409 652.684 106.925 655.319 97.976 C675.658 28.905 742.85 -13 844 -13 C989 -13 1085 129 1085 343 C1085 599 879 770 571 770 C262 770 56 566 56 259 C56 -45 268 -248 587 -248 C797.6 -248 983.484 -153.888 1056.6 -11.0805 C1058.71 -6.96764 1057.62 0 1053 0 C1048.78 0 1040.68 -6.95804 1038.75 -10.7093 L1038.75 -10.7093 Z M693.166 348.662 L656 200 C632 105 569 41 497 41 C411 41 353 107 353 207 C353 368 442 476 575 476 C645.2 476 692.585 430.37 694.91 361.355 C694.954 360.047 693.483 349.931 693.166 348.662 L693.166 348.662 Z " />
<glyph glyph-name="A" unicode="A" horiz-adv-x="753" d="M295 12.5 C295 19.3996 289.4 25 282.5 25 L268 25 C210 25 183 62 198 119 L238.295 244.361 C245.497 266.768 273.252 287 296.787 287 L482.84 287 C497.682 287 515.216 272.792 519.476 258.574 C532.889 213.811 546.625 168.725 559 125 C577 65 549 25 489 25 L474.5 25 C467.6 25 462 19.3996 462 12.5 C462 5.60037 467.6 0 474.5 0 L732.5 0 C739.4 0 745 5.60037 745 12.5 L745 18 C745 21.8638 741.864 25 738 25 L731 25 C685 25 641 62 622 119 L436 732 C436 732 428 770 424 770 L419 770 C421.806 752.226 407.985 737.952 382.449 732.91 C379.795 732.386 377.723 729.591 378.5 727 C378.973 725.422 378.886 718.606 378.372 717.04 L184 125 C164 65 111 25 51 25 L28.5 25 C21.6004 25 16 19.3996 16 12.5 C16 5.60037 21.6004 0 28.5 0 L282.5 0 C289.4 0 295 5.60037 295 12.5 L295 12.5 Z M282.818 382.255 L325.391 514.595 C344.336 573.487 425.004 572.661 442.74 513.394 L482.343 381.054 C494.853 339.25 467.117 302 423.482 302 L341.306 302 C297.007 302 269.252 340.085 282.818 382.255 L282.818 382.255 Z " />
<glyph glyph-name="B" unicode="B" horiz-adv-x="632" d="M316 6 L266 6 C235 6 214 40 214 91 L214 335 C214 362.599 236.402 385 264 385 L314 385 C442 385 527 314 527 198 C527 42 443 6 316 6 L316 6 Z M334 0 C489 0 592 38 592 198 C592 288.95 537.09 356.78 448.15 383.066 C439.941 385.493 443.412 405.306 451.395 408.399 C529.037 438.485 576 495.575 576 569 C576 678 523 750 299 750 L82.5 750 C75.6004 750 70 744.4 70 737.5 C70 730.6 75.6004 725 82.5 725 L105 725 C135 725 155 705 155 675 L155 75 C155 45 135 25 105 25 L82.5 25 C75.6004 25 70 19.3996 70 12.5 C70 5.60037 75.6004 0 82.5 0 L334 0 L334 0 Z M308 395 L261 395 C235.057 395 214 416.057 214 442 L214 707.5 C214 724.335 227.665 738 244.5 738 L275 738 C471 738 517 668 517 563 C517 462 433 395 308 395 L308 395 Z " />
<glyph glyph-name="C" unicode="C" horiz-adv-x="706" d="M661 11.5131 L661 205 C661 211.072 656.072 216 650 216 C644.222 216 637.397 211.031 635.623 205.531 L629 185 C607 114 557 51 506 29 C469 13 427 4 378 4 C226 4 125 152 125 375 C125 597 231 745 389 745 C437 745 476 737 509 723 C558 702 606 639 628 565 L634.623 544.469 C636.397 538.969 643.222 534 649 534 C655.072 534 660 538.928 660 545 L660 736.5 C660 741.192 656.192 745 651.5 745 C646.963 745 641.992 741.168 640.837 736.78 L638 726 C631 697 603 693 567 715 C521 744 464 761 382 761 C188 761 59 607 59 376 C59 145 184 -9 372 -9 C452 -9 513 8 563 38 C601 60 630 54 637 23 L639.693 12.2291 C640.91 7.35879 646.487 2.76386 651.5 2.5 C656.736 2.2244 661 6.26943 661 11.5131 L661 11.5131 Z M650 130 L650 130 L650 130 L650 130 Z " />
<glyph glyph-name="D" unicode="D" horiz-adv-x="810" d="M276 12 C220 12 214 39 214 80 L214 701.5 C214 721.647 230.353 738 250.5 738 L287 738 C553 738 690 593 690 375 C690 135 524 12 276 12 L276 12 Z M80 730 L105 730 C135 730 155 710 155 680 L155 70 C155 40 135 20 105 20 L80 20 C74.4803 20 70 15.5197 70 10 C70 4.4803 74.4803 0 80 0 L294 0 C571 0 755 128 755 375 C755 600 612 750 334 750 L80 750 C74.4803 750 70 745.52 70 740 C70 734.48 74.4803 730 80 730 L80 730 Z " />
<glyph glyph-name="E" unicode="E" horiz-adv-x="621" d="M60 730 L85 730 C127 730 155 702 155 660 L155 90 C155 48 127 20 85 20 L60 20 C54.4803 20 50 15.5197 50 10 C50 4.4803 54.4803 0 60 0 L545.908 0 C547.564 0 549.348 1.39353 549.75 3 L550.5 6 C557.141 43.9487 566.032 92.6982 572.904 131.755 C573.705 136.31 570.125 138 565.5 138 C561.144 138 555.461 134.153 553.843 130.108 L549 118 C524 55 465 13 402 13 L294 13 C222 13 214 40 214 80 L214 323.56 C214 357.473 241.527 385 275.44 385 L340 385 C388 385 427 353 437 305 L446.333 258.335 C447.235 253.824 451.899 250 456.5 250 C461.192 250 465 253.808 465 258.5 L465 525.5 C465 530.192 461.192 534 456.5 534 C451.899 534 447.235 530.176 446.333 525.665 L437 479 C427 431 388 399 340 399 L275.44 399 C241.527 399 214 426.527 214 460.44 L214 676.56 C214 710.473 241.527 738 275.44 738 L401 738 C449 738 492 706 508 658 L523.356 611.078 C524.743 606.841 530.041 603 534.5 603 C539.168 603 542.366 608.311 541.804 612.945 C536.861 653.68 530.115 705.231 525.5 744 C525.475 744.214 524.802 746.791 524.75 747 C524.348 748.606 522.564 750 520.908 750 L60 750 C54.4803 750 50 745.52 50 740 C50 734.48 54.4803 730 60 730 L60 730 Z " />
<glyph glyph-name="F" unicode="F" horiz-adv-x="596" d="M60 730 L85 730 C127 730 155 702 155 660 L155 90 C155 48 127 20 85 20 L60 20 C54.4803 20 50 15.5197 50 10 C50 4.4803 54.4803 0 60 0 L309 0 C314.52 0 319 4.4803 319 10 C319 15.5197 314.52 20 309 20 L284 20 C242 20 214 48 214 90 L214 327 C214 359.014 239.986 385 272 385 L330 385 C378 385 417 353 427 305 L436.333 258.335 C437.235 253.824 441.899 250 446.5 250 C451.192 250 455 253.808 455 258.5 L455 525.5 C455 530.192 451.192 534 446.5 534 C441.899 534 437.235 530.176 436.333 525.665 L427 479 C417 431 378 399 330 399 L272 399 C239.986 399 214 424.986 214 457 L214 678.56 C214 712.473 241.527 740 275.44 740 L400 740 C448 740 491 708 507 660 L522.356 613.078 C523.743 608.841 529.041 605 533.5 605 C538.163 605 541.369 610.298 540.812 614.928 C535.935 655.533 529.615 706.231 525 745 L524.5 747.5 C524.229 748.853 522.83 750 521.45 750 L60 750 C54.4803 750 50 745.52 50 740 C50 734.48 54.4803 730 60 730 L60 730 Z " />
<glyph glyph-name="G" unicode="G" horiz-adv-x="781" d="M642.091 737.747 L639 726 C632 697 604 693 568 715 C522 744 465 761 383 761 C189 761 60 607 60 376 C60 145 187 -9 377 -9 C482 -9 565.5 5 637.5 29 C663.041 37.5135 688.134 47.8167 711.933 59.063 C714.178 60.1238 715.11 62.7792 714 65 C712.901 67.1974 710.123 68.1387 707.885 67.1241 C689.366 58.7265 670.779 50.9241 651.205 43.7167 C644.378 41.2029 638 45.4816 638 52.7568 L638 215 C638 266 670 300 719 300 L726 300 C729.864 300 733 303.136 733 307 L733 312.5 C733 319.4 727.4 325 720.5 325 L496.5 325 C489.6 325 484 319.4 484 312.5 L484 307 C484 303.136 487.136 300 491 300 L498 300 C547 300 579 266 579 215 L579 77.0849 C579 75.5546 578.19 68.1446 577.735 66.6834 C567.97 35.2891 519.325 13.0884 446.38 5.18413 C446.357 5.18166 447.875 5.08914 447.898 5.09091 C465.16 6.42424 483.27 7.75758 500.451 9.09091 C500.802 9.11822 500.83 8.60246 500.48 8.561 C465.56 4.43 427.4 2 386 2 C229 2 124 151 124 375 C124 597 230 745 388 745 C436 745 475 737 508 723 C557 702 605 639 627 565 L633.623 544.469 C635.397 538.969 642.222 534 648 534 C654.072 534 659 538.928 659 545 L659 737.5 C659 741.64 655.64 745 651.5 745 C647.497 745 643.11 741.619 642.091 737.747 L642.091 737.747 Z M427.51 3.57434 C416.592 2.87464 405.163 2.24781 393.224 2.05831 C393.224 2.05831 392.482 4.05801 392.482 4.05801 L392.55 0.0586058 C392.55 0.0586058 391.808 2.05831 391.808 2.05831 C401.866 2.24781 413.746 2.87464 426.356 3.57434 C426.402 3.57689 427.556 3.57728 427.51 3.57434 L427.51 3.57434 Z " />
<glyph glyph-name="H" unicode="H" horiz-adv-x="820" d="M750 20 L725 20 C695 20 675 40 675 70 L675 680 C675 710 695 730 725 730 L750 730 C755.52 730 760 734.48 760 740 C760 745.52 755.52 750 750 750 L541 750 C535.48 750 531 745.52 531 740 C531 734.48 535.48 730 541 730 L566 730 C596 730 616 710 616 680 L616 459.44 C616 425.527 588.473 398 554.56 398 L311.44 398 C277.527 398 250 425.527 250 459.44 L250 680 C250 710 270 730 300 730 L325 730 C330.52 730 335 734.48 335 740 C335 745.52 330.52 750 325 750 L116 750 C110.48 750 106 745.52 106 740 C106 734.48 110.48 730 116 730 L141 730 C171 730 191 710 191 680 L191 70 C191 40 171 20 141 20 L116 20 C110.48 20 106 15.5197 106 10 C106 4.4803 110.48 0 116 0 L325 0 C330.52 0 335 4.4803 335 10 C335 15.5197 330.52 20 325 20 L300 20 C270 20 250 40 250 70 L250 321.56 C250 355.473 277.527 383 311.44 383 L554.56 383 C588.473 383 616 355.473 616 321.56 L616 70 C616 40 596 20 566 20 L541 20 C535.48 20 531 15.5197 531 10 C531 4.4803 535.48 0 541 0 L750 0 C755.52 0 760 4.4803 760 10 C760 15.5197 755.52 20 750 20 L750 20 Z " />
<glyph glyph-name="I" unicode="I" horiz-adv-x="364" d="M294 20 L269 20 C239 20 219 40 219 70 L219 680 C219 710 239 730 269 730 L294 730 C299.52 730 304 734.48 304 740 C304 745.52 299.52 750 294 750 L86 750 C80.4803 750 76 745.52 76 740 C76 734.48 80.4803 730 86 730 L111 730 C141 730 161 710 161 680 L161 70 C161 40 141 20 111 20 L86 20 C80.4803 20 76 15.5197 76 10 C76 4.4803 80.4803 0 86 0 L294 0 C299.52 0 304 4.4803 304 10 C304 15.5197 299.52 20 294 20 L294 20 Z " />
<glyph glyph-name="J" unicode="J" horiz-adv-x="364" d="M293.95 750 L86 750 C80.4803 750 76 745.52 76 740 C76 734.48 80.4803 730 86 730 L111 730 C140 730 160 712 162 684 C162 531 161 151 161 -34 C161 -173 98 -199 52 -199 C23 -199 37 -152 8 -152 C-8 -152 -19 -162 -19 -178 C-19 -203 3 -220 37 -220 C114 -220 221 -172 221 78 C221 233 220 547 220 684 C222 712 242 730 271 730 L295.95 730 C301.47 730 305.549 734.508 305 740 C304.451 745.492 299.47 750 293.95 750 L293.95 750 Z " />
<glyph glyph-name="K" unicode="K" horiz-adv-x="717" d="M629.988 750 L383 750 C377.48 750 373 745.52 373 740 C373 734.48 377.48 730 383 730 L411 730 C467 730 477 695 436 641 L311.715 492.082 C277.155 450.673 214 473.564 214 527.5 L214 680 C214 710 234 730 264 730 L289 730 C294.52 730 299 734.48 299 740 C299 745.52 294.52 750 289 750 L80 750 C74.4803 750 70 745.52 70 740 C70 734.48 74.4803 730 80 730 L105 730 C135 730 155 710 155 680 L155 70 C155 40 135 20 105 20 L80 20 C74.4803 20 70 15.5197 70 10 C70 4.4803 74.4803 0 80 0 L289 0 C294.52 0 299 4.4803 299 10 C299 15.5197 294.52 20 289 20 L264 20 C234 20 214 40 214 70 L214 222.5 C214 279.222 278.54 304.232 316.762 262.322 L537.725 20.0387 C545.178 11.8663 572.06 0 583.121 0 L689 0 C694.52 0 699 4.4803 699 10 C699 15.5197 694.52 20 689 20 L664 20 C634 20 596 40 569 70 L297.375 371.61 C277.486 393.694 280.851 434.849 300.308 457.316 C360.205 526.481 420.103 596.077 480 665 C514 704 562 730 601 730 L630.988 730 C636.507 730 640.776 734.487 640.5 740 C640.224 745.513 635.507 750 629.988 750 L629.988 750 Z " />
<glyph glyph-name="L" unicode="L" horiz-adv-x="629" d="M569.5 135 C565.144 135 559.461 131.153 557.843 127.108 L553 115 C528 52 469 10 406 10 L299 10 C227 10 219 38 219 80 L219 680 C219 710 239 730 269 730 L294 730 C299.52 730 304 734.48 304 740 C304 745.52 299.52 750 294 750 L86 750 C80.4803 750 76 745.52 76 740 C76 734.48 80.4803 730 86 730 L111 730 C141 730 161 710 161 680 L161 70 C161 40 141 20 111 20 L86 20 C80.4803 20 76 15.5197 76 10 C76 4.4803 80.4803 0 86 0 L533.604 0 C544.788 0 555.582 7.86392 557.657 18.8539 C564.038 52.6381 570.748 92.3985 576.393 125.567 C577.168 130.124 574.123 135 569.5 135 L569.5 135 Z " />
<glyph glyph-name="M" unicode="M" horiz-adv-x="863" d="M817.5 750 L730.953 750 C707.992 750 680.22 730.133 672.805 708.403 L512.621 238.993 C493.189 182.049 417.894 181.009 396.896 237.394 L220.895 710.002 C213.191 730.692 185.396 750 163.318 750 L68 750 C62.4803 750 58 745.52 58 740 C58 734.48 62.4803 730 68 730 L93 730 C112.636 730 131.603 721.298 145.519 706.631 C149.954 701.957 153.823 689.826 153.638 683.386 L136 68 C134 39 114 20 85 20 L60 20 C54.4803 20 50 15.5197 50 10 C50 4.4803 54.4803 0 60 0 L229 0 C234.52 0 239 4.4803 239 10 C239 15.5197 234.52 20 229 20 L204 20 C178.636 20 160.332 34.1194 155.72 56.5553 C155.549 57.3878 155.075 64.4886 155.094 65.3383 L161.5 362 C162.89 426.382 254.982 442.89 278.649 383 L427.244 6.97512 C428.659 3.39451 433.65 0 437.5 0 L442.45 0 C443.83 0 445.229 1.14687 445.5 2.5 C445.539 2.69308 446.78 7.21968 446.845 7.40545 L653.526 595.848 C660.26 615.02 690.261 602.228 690.777 581.915 C695.122 411.007 699.897 239.667 704 69 C705 39 685 19 655 19 L631 19 C625.48 19 621 14.5197 621 9 C621 3.4803 625.48 -1 631 -1 L839 -1 C844.52 -1 849 3.4803 849 9 C849 14.5197 844.52 19 839 19 L814 19 C784 19 764 39 763 69 L745 682 C745 710 765 729 794 729 L817.5 729 C823.296 729 828 733.704 828 739.5 C828 745.296 823.296 750 817.5 750 L817.5 750 Z " />
<glyph glyph-name="N" unicode="N" horiz-adv-x="766" d="M35.5131 730 L61 730 C84.925 730 110.211 717.749 129.559 697.738 C135.349 691.75 141 675.125 141 666.795 L141 70 C141 40 121 20 91 20 L66 20 C60.4803 20 56 15.5197 56 10 C56 4.4803 60.4803 0 66 0 L233 0 C238.52 0 243 4.4803 243 10 C243 15.5197 238.52 20 233 20 L208 20 C178 20 158 40 158 70 L156.45 528.732 C156.312 569.653 211.37 579.839 234.23 545.899 C357.181 363.361 480.25 180.5 604 -1 C605.541 -3.26082 607.264 -1 610 -1 C613.312 -1 616.016 1.68819 616.035 4.9999 L620 679 C620 709 640 729 670 729 L695 729 C700.52 729 705 733.48 705 739 C705 744.52 700.52 749 695 749 L528 749 C522.48 749 518 744.52 518 739 C518 733.48 522.48 729 528 729 L553 729 C583 729 603 709 603 679 L603.993 108.301 C603.995 106.925 602.3 106.38 601.5 107.5 L599 111 L187.266 721.898 C178.905 734.303 151.277 749 136.317 749 L34.5131 749 C29.2694 749 25.2244 744.736 25.5 739.5 C25.7756 734.264 30.2694 730 35.5131 730 L35.5131 730 Z " />
<glyph glyph-name="O" unicode="O" horiz-adv-x="806" d="M125 375 C125 597 234 745 398 745 C571 745 687 597 687 375 C687 153 570 5 394 5 C233 5 125 153 125 375 L125 375 Z M61 375 C61 144 193 -10 391 -10 C607 -10 751 144 751 375 C751 606 611 760 401 760 C197 760 61 606 61 375 L61 375 Z " />
<glyph glyph-name="P" unicode="P" horiz-adv-x="578" d="M304 20 L279 20 C249 20 229 40 229 70 L229 328 C229 341.799 240.201 353 254 353 L279 353 C446 353 558 411 558 541 C558 666 466 750 329 750 L95 750 C89.4803 750 85 745.52 85 740 C85 734.48 89.4803 730 95 730 L120 730 C150 730 170 710 170 680 L170 70 C170 40 150 20 120 20 L95 20 C89.4803 20 85 15.5197 85 10 C85 4.4803 89.4803 0 95 0 L304 0 C309.52 0 314 4.4803 314 10 C314 15.5197 309.52 20 304 20 L304 20 Z M229 390 L229 697.5 C229 720.959 248.041 740 271.5 740 L314 740 C427 740 503 664 503 550 C503 422 413 365 279 365 L254 365 C240.201 365 229 376.201 229 390 L229 390 Z " />
<glyph glyph-name="Q" unicode="Q" horiz-adv-x="801" d="M1099 -44.5 C1097.97 -43.2159 1095.76 -43.0392 1094.43 -44.008 C1058.93 -69.8887 940.3 -87 796 -87 C611.725 -87 439.808 -57.5306 354.398 -11.5679 C353.114 -10.8766 353.187 -8.69864 354.636 -8.87258 C366.446 -10.2909 378.368 -11 391 -11 C607 -11 751 143 751 374 C751 605 611 759 401 759 C197 759 61 605 61 374 C61 187.775 146.556 51.9331 283.375 5.40247 C284.4 5.05402 302.386 -3.65296 303.291 -4.24706 C425.886 -84.765 618.375 -138 789 -138 C909.9 -138 1031.28 -102.827 1096.59 -51.9447 C1098.02 -50.8258 1100.14 -45.9216 1099 -44.5 L1099 -44.5 Z M126 373 C126 595 235 743 399 743 C572 743 688 595 688 373 C688 146 564 -5 379 -5 C227 -5 126 146 126 373 L126 373 Z " />
<glyph glyph-name="R" unicode="R" horiz-adv-x="718" d="M80.5119 730 L105 730 C135 730 155 710 155 680 L155 70 C155 40 135 20 105 20 L80 20 C74.4803 20 70 15.5197 70 10 C70 4.4803 74.4803 0 80 0 L289 0 C294.52 0 299 4.4803 299 10 C299 15.5197 294.52 20 289 20 L264 20 C234 20 214 40 214 70 L214 303.56 C214 337.473 241.527 365 275.44 365 L332.993 365 C340.888 365 353.843 356.823 357.451 349.801 C379.859 306.188 436.625 206.875 511 80 C554.875 4.925 563.577 0.19625 698.379 0.00673438 C701.696 0.00207182 709 2.68352 709 6 C709 9.30427 706.004 11.999 702.7 12.0065 C622.729 12.1887 617.05 16.625 580 80 C505.625 207.75 448.859 305.641 421.092 352.904 C415.802 361.907 422.027 371.711 432.207 374.037 C516.807 393.37 569 446.65 569 541 C569 667 483 751 354 751 L81.5119 751 C75.7162 751 70.7757 746.289 70.5 740.5 C70.2243 734.711 74.7162 730 80.5119 730 L80.5119 730 Z M215 442.44 L215 678.5 C215 711.894 242.106 739 275.5 739 L336 739 C437 739 504 665 504 553 C504 434 444 381 354 381 L276.44 381 C242.527 381 215 408.527 215 442.44 L215 442.44 Z " />
<glyph glyph-name="S" unicode="S" horiz-adv-x="546" d="M455 638 L455 638 L455 638 L455 638 Z M72.4589 9.38878 L75 24 C81 55 109 61 145 40 C191 8 246 -10 303 -10 C425 -10 507 67 507 183 C507 264 443 348 320 406 C187 468 119 539 119 598 C119 686 170 745 247 745 C267 745 286 743 304 739 C360 725 411 666 432 588 L438.896 564.553 C440.54 558.965 447.175 554 453 554 C459.072 554 464 558.928 464 565 L464 744.5 C464 749.192 460.192 753 455.5 753 L454.906 753 C450.766 753 445.809 749.427 444.5 745.5 L442 738 C435.212 717.636 415.26 711.377 388.526 722.87 C388.332 722.954 383.24 725.601 383.056 725.706 C344.549 747.642 296.725 760 247 760 C143 760 74 686 74 576 C74 496 146 409 285 344 C401 290 460 223 460 165 C460 71 397 9 303 9 C269 9 236 16 206 29 C154 53 107 120 86 201 L79.7892 225.843 C78.2956 231.818 71.6581 237 65.5 237 C59.1523 237 54 231.848 54 225.5 L54 10.5147 C54 5.82295 57.8164 1.77551 62.5 1.5 C67.1616 1.22579 71.6588 4.78818 72.4589 9.38878 L72.4589 9.38878 Z " />
<glyph glyph-name="T" unicode="T" horiz-adv-x="775" d="M282.5 0 L492 0 C497.52 0 502 4.4803 502 10 C502 15.5197 497.52 20 492 20 L467 20 C437 20 417 40 417 70 L417 673.56 C417 707.473 444.527 735 478.44 735 L597 735 C648 735 704 701 736 650 L756.495 617.208 C758.604 613.834 765.521 610 769.5 610 C773.805 610 775.778 615.239 774.111 619.208 C757.878 657.877 738.8 706 724 743 C718.522 757.609 711.376 775.552 705.608 790.741 C704.514 793.622 701.082 795 698 795 L696.031 795 C694.099 795 690.958 793.177 690 791.5 L688 788 C673 765 630 750 581 750 L197 750 C148 750 104 765 89 788 L87 791.5 C86.0415 793.177 82.9008 795 80.9689 795 L79 795 C75.8842 795 72.0226 792.287 70.9666 789.355 L56.25 748.5 L53.5 741 C38.3205 703.051 19.0907 654.302 3.49583 615.245 C1.88113 611.201 5.14563 609 9.5 609 C13.4786 609 20.3963 612.834 22.505 616.208 L43 649 C74 700 130 734 181 734 L296.56 734 C330.473 734 358 706.473 358 672.56 L358 69 C358 39 338 19 308 19 L282.5 19 C277.256 19 273 14.7437 273 9.5 C273 4.25628 277.256 0 282.5 0 L282.5 0 Z " />
<glyph glyph-name="U" unicode="U" horiz-adv-x="698" d="M658.303 47.5065 L633 41 C603 33 583 48 583 78 L583 688.56 C583 722.473 555.473 750 521.56 750 L449 750 C443.48 750 439 745.52 439 740 C439 734.48 443.48 730 449 730 L474 730 C504 730 524 710 524 680 L524 189.472 C524 185.43 519.371 166.438 517.458 162.879 C473.585 81.2475 384 28 289 28 C223 28 179 105 179 220 L179 688.56 C179 722.473 151.473 750 117.56 750 L45 750 C39.4803 750 35 745.52 35 740 C35 734.48 39.4803 730 45 730 L70 730 C100 730 120 710 120 680 L120 220 C120 82 178 -10 265 -10 C356.575 -10 443.386 33.56 495.672 102.15 C502.601 111.24 524 108.082 524 96.6526 L524 15 C524 6.72045 530.72 0 539 0 L545.772 0 C546.967 0 560.785 1.85049 561.938 2.16491 L576 6 C602.25 13 632.328 20.7656 658.195 27.2871 C663.44 28.6093 668.77 34.598 668.5 40 C668.23 45.4078 663.547 48.8549 658.303 47.5065 L658.303 47.5065 Z " />
<glyph glyph-name="V" unicode="V" horiz-adv-x="759" d="M123 637 L351.985 -5.34837 C353.033 -8.28678 356.88 -11 360 -11 C363.099 -11 370.906 2.00099 372 4.89998 C450 211.599 528 418.275 606 624 C629 684 674 724 720 724 L727 724 C730.864 724 734 727.136 734 731 L734 736.5 C734 743.4 728.4 749 721.5 749 L491.5 749 C484.6 749 479 743.4 479 736.5 C479 729.6 484.6 724 491.5 724 L520 724 C577 724 603 688 586 633 L443.66 240.681 C423.145 184.137 347.898 184.51 327.944 241.254 L193 625 C172 685 198 725 258 725 L271.5 725 C278.4 725 284 730.6 284 737.5 C284 744.4 278.4 750 271.5 750 L27.5 750 C20.6004 750 15 744.4 15 737.5 L15 730.5 C15 727.464 17.4642 725 20.5 725 L26 725 C62 725 100 690 122 637 L123 637 Z " />
<glyph glyph-name="W" unicode="W" horiz-adv-x="1063" d="M507 645 L546.067 521.854 C548.574 513.952 547.204 486.559 543.921 478.946 L407.759 163.198 C393.268 129.595 346.733 136.543 335.455 171.356 C284.331 329.169 233.325 487.425 183 645 C168 693 189 725 237 725 L248 725 C254.072 725 259 729.928 259 736 L259 737.5 C259 744.4 253.4 750 246.5 750 L29.5 750 C22.6004 750 17 744.4 17 737.5 L17 730.5 C17 727.464 19.4642 725 22.5 725 L28 725 C66 725 102 693 118 645 C190 427 262 210 332 -9 C333.201 -12.756 335.557 -9 339.5 -9 C343.29 -9 348.492 -5.60347 350.016 -2.13305 L525.854 398.249 C538.264 426.508 577.505 420.395 586.775 390.955 C627.575 261.38 668.375 131.916 709.175 3.07686 C710.367 -0.685957 716.553 -9 720.5 -9 C724.464 -9 729.018 -5.61418 730.16 -1.81779 L928 656 C945 699 985 727 1030 727 L1037.5 727 C1041.64 727 1045 730.36 1045 734.5 L1045 739.5 C1045 746.4 1039.4 752 1032.5 752 L802.5 752 C795.6 752 790 746.4 790 739.5 C790 732.6 795.6 727 802.5 727 L848 727 C896 727 918 695 904 647 L767.431 178.168 C759.226 150.002 718.935 154.591 710.519 182.695 C664.081 337.769 617.2 492.725 571 647 C557 695 579 727 627 727 L656.5 727 C663.4 727 669 732.6 669 739.5 C669 746.4 663.4 752 656.5 752 L414.5 752 C407.6 752 402 746.4 402 739.5 L402 733 C402 729.688 404.688 727 408 727 L414 727 C455 727 492 694 507 646 L507 645 Z " />
<glyph glyph-name="X" unicode="X" horiz-adv-x="749" d="M283.488 750 L73 750 C67.4803 750 63 745.52 63 740 L63 737.5 C63 733.36 66.3602 730 70.5 730 L78 730 C110 730 144 709 165 678 L341.491 396.328 C352.403 378.912 351.631 345.597 339.924 328.706 L162 72 C139 41 103 20 71 20 L41 20 C35.4803 20 31 15.5197 31 10 C31 4.4803 35.4803 0 41 0 L251 0 C256.52 0 261 4.4803 261 10 C261 15.5197 256.52 20 251 20 L204 20 C172 20 164 40 183 71 L339.872 305.05 C354.995 327.613 386.418 323.519 400.777 300.462 C447.788 224.974 495.231 149.487 542 74 C563 41 554 19 521 19 L494 19 C488.48 19 484 14.5197 484 9 C484 3.4803 488.48 -1 494 -1 L706 -1 C711.52 -1 716 3.4803 716 9 L716 11.5 C716 15.6398 712.64 19 708.5 19 L701 19 C668 19 633 41 612 74 L432.569 359.661 C421.622 377.089 422.373 410.415 434.094 427.332 L605 674 C628 707 665 729 698 729 L728 729 C733.52 729 738 733.48 738 739 C738 744.52 733.52 749 728 749 L516 749 C510.48 749 506 744.52 506 739 C506 733.48 510.48 729 516 729 L563 729 C596 729 603 707 581 674 L455.672 485.304 C429.18 445.417 377.867 446.093 352.435 486.664 L235 674 C215 706 222 729 256 729 L282.488 729 C288.284 729 293.224 733.711 293.5 739.5 C293.776 745.289 289.284 750 283.488 750 L283.488 750 Z " />
<glyph glyph-name="Y" unicode="Y" horiz-adv-x="711" d="M242 750 L30 750 C24.4803 750 20 745.52 20 740 L20 737.5 C20 733.36 23.3602 730 27.5 730 L35 730 C68 730 103 708 123 675 L323.15 343.651 C325.676 339.47 332 316.769 332 311.884 L332 90 C332 48 304 20 262 20 L237 20 C231.48 20 227 15.5197 227 10 C227 4.4803 231.48 0 237 0 L486 0 C491.52 0 496 4.4803 496 10 C496 15.5197 491.52 20 486 20 L461 20 C419 20 391 48 391 90 L391 315.273 C391 319.444 398.446 344.592 400.45 348.25 C460.3 457.498 520.15 566.7 580 675 C598 708 632 730 665 730 L695 730 C700.52 730 705 734.48 705 740 C705 745.52 700.52 750 695 750 L477 750 C471.48 750 467 745.52 467 740 C467 734.48 471.48 730 477 730 L527 730 C560 730 570 708 553 675 L413.824 405.76 C400.353 379.7 366.263 381.582 351.243 406.781 C297.992 496.119 243.975 585.9 192 675 C172 708 181 730 214 730 L242 730 C247.52 730 252 734.48 252 740 C252 745.52 247.52 750 242 750 L242 750 Z " />
<glyph glyph-name="Z" unicode="Z" horiz-adv-x="652" d="M630.5 143 C626.221 143 620.268 139.15 618.512 135.249 L613 123 C587 63 531 22 472 17 L216.569 14.2827 C162.727 13.7099 134.644 67.4022 165.827 111.3 L607.525 733.108 C608.636 734.672 611 742.082 611 744 C611 747.312 608.312 750 605 750 L79.0156 750 C74.5998 750 70.7754 746.407 70.5 742 L70 734 C70 734 63.6825 665.41 59.6212 616.54 C59.2335 611.873 62.8175 609 67.5 609 C71.9939 609 77.1512 612.837 78.4425 617.142 L82 629 C102 692 158 735 220 736 L426.381 737.262 C480.234 737.592 508.072 683.755 476.673 640.002 L29.4982 16.8747 C28.3724 15.3059 26 7.93091 26 6 C26 2.68818 28.6882 0 32 0 L599.841 0 C604.184 0 607.969 1.95673 609.258 6.10352 C614.464 22.8512 620.754 60.2804 637.954 136.201 C638.963 140.656 635.068 143 630.5 143 L630.5 143 Z " />
<glyph glyph-name="bracketleft" unicode="&#x5b;" horiz-adv-x="285" d="M186.44 735 L327.5 735 C331.64 735 335 738.36 335 742.5 C335 746.64 331.64 750 327.5 750 L169.44 750 C135.527 750 108 722.473 108 688.56 L108 -133.56 C108 -167.473 135.527 -195 169.44 -195 L327.5 -195 C331.64 -195 335 -191.64 335 -187.5 C335 -183.36 331.64 -180 327.5 -180 L186.44 -180 C152.527 -180 125 -152.473 125 -118.56 L125 673.56 C125 707.473 152.527 735 186.44 735 L186.44 735 Z " />
<glyph glyph-name="backslash" unicode="&#x5c;" horiz-adv-x="337" d="M41.3876 755.656 L292.612 -65.656 C294.928 -73.2272 304.083 -80 312 -80 C319.917 -80 324.928 -73.2272 322.612 -65.656 L71.3876 755.656 C69.0717 763.227 59.9174 770 52 770 C44.0826 770 39.0717 763.227 41.3876 755.656 L41.3876 755.656 Z " />
<glyph glyph-name="bracketright" unicode="&#x5d;" horiz-adv-x="288" d="M161 673.56 L161 -118.56 C161 -152.473 133.473 -180 99.56 -180 L-41.5 -180 C-45.6398 -180 -49 -183.36 -49 -187.5 C-49 -191.64 -45.6398 -195 -41.5 -195 L116.56 -195 C150.473 -195 178 -167.473 178 -133.56 L178 688.56 C178 722.473 150.473 750 116.56 750 L-41.5 750 C-45.6398 750 -49 746.64 -49 742.5 C-49 738.36 -45.6398 735 -41.5 735 L99.56 735 C133.473 735 161 707.473 161 673.56 L161 673.56 Z " />
<glyph glyph-name="asciicircum" unicode="&#x5e;" horiz-adv-x="340" d="M185.892 767.799 C181.586 773.692 175.077 783 170 783 C164.923 783 158.414 773.692 154.108 767.799 C154.077 767.757 150.366 762.48 150.337 762.436 L23.3403 566.609 C22.0498 564.619 22.5701 561.879 24.5 560.5 C26.4255 559.125 29.2491 559.478 30.7765 561.285 L123.076 670.485 C148.615 700.699 191.385 700.699 216.924 670.485 L309.223 561.285 C310.751 559.478 313.575 559.125 315.5 560.5 C317.43 561.879 317.95 564.619 316.66 566.609 L189.663 762.436 C189.634 762.48 185.923 767.757 185.892 767.799 L185.892 767.799 Z " />
<glyph glyph-name="underscore" unicode="&#x5f;" horiz-adv-x="455" d="M5 -64 C5 -71.7276 11.2724 -78 19 -78 L436 -78 C443.728 -78 450 -71.7276 450 -64 C450 -56.2724 443.728 -50 436 -50 L19 -50 C11.2724 -50 5 -56.2724 5 -64 L5 -64 Z " />
<glyph glyph-name="grave" unicode="&#x60;" horiz-adv-x="340" d="M-36 755 C-36 749 -8 722 34 686 L169.293 566.28 C171.335 564.473 174.572 564.572 176.5 566.5 C178.428 568.428 178.527 571.665 176.72 573.707 L57 709 C21 751 -6 779 -12 779 C-25 779 -36 768 -36 755 L-36 755 Z " />
<glyph glyph-name="a" unicode="a" horiz-adv-x="513" d="M517.5 80 C514.794 81.4762 511.183 78.993 510.336 76.0287 C502.586 48.8935 481.923 31 457 31 C423 31 400 51 400 81 C400 81 400 360 399 358 C399 463 345 510 263 510 C149 510 73 414 73 360 C73 339 83 325 98 325 C118 325 131 340 131 350 C131 363 111 382 111 392 C111 429 165 495 245 495 C308 495 350 458 350 377 L350 310.406 C350 286.7 321.449 256.234 298.842 249.099 C100.915 186.629 53 157.7 53 80 C53 26 99 -10 168 -10 C210.3 -10 263.13 11.87 327.219 67.274 C334.651 73.6988 349.706 69.1181 351.816 59.5232 C360.616 19.5025 389.8 -5 436 -5 C476.85 -5 510.029 24.7825 520.961 69.7721 C521.798 73.2166 520.612 78.3026 517.5 80 L517.5 80 Z M349 176 L349 125.346 C349 113.629 339.56 90.0359 330.701 82.367 C276.71 35.63 230.9 17 194 17 C139 17 103 45 103 86 C103 157.75 138.984 185.094 281.295 231.674 C320.452 244.49 349 217.201 349 176 L349 176 Z " />
<glyph glyph-name="b" unicode="b" horiz-adv-x="528" d="M16.5111 712.674 L30 712 C57 711 75 692 75 665 L74.0059 128.162 C74.0048 127.607 74.8245 122.527 75 122 C75.1679 121.496 76.0332 116.369 76.0399 115.838 L77.0126 38.6694 C77.0941 32.2034 86.8688 30.8131 88.75 37 L90.7172 43.47 C94.3899 55.5489 112.758 57.4032 121.809 48.6018 C159.676 11.78 213.775 -10 274 -10 C400 -10 484 94 484 251 C484 403 397 505 266 505 C227.225 505 183.005 483.22 147.378 448.083 C140.278 441.081 126 445.032 126 455.004 L126 738.5 C126 745.4 120.4 751 113.5 751 L104.64 751 C103.82 751 98.0459 750.06 97.2731 749.787 C92.0324 747.935 85.8287 745.343 80.1435 744.38 C80.0609 744.366 71.5028 742.768 71.422 742.745 C53.0144 737.677 33.5676 732.066 17.0493 727.613 C13.795 726.735 10.7585 722.861 10.5 719.5 C10.2241 715.913 12.9184 712.854 16.5111 712.674 L16.5111 712.674 Z M126 123.666 L126 387.919 C126 396.856 133.601 418.561 139.646 425.143 C172.609 461.031 212.75 484 246 484 C356 484 429 389 429 246 C429 99 369 1 278 1 C215.3 1 158.917 41.1612 131.144 101.764 C129.86 104.567 126 120.582 126 123.666 L126 123.666 Z " />
<glyph glyph-name="c" unicode="c" horiz-adv-x="465" d="M431.5 129.5 C429.627 130.303 426.63 127.932 425.754 126.092 C395.648 62.8275 330.25 21 262 21 C162 21 95 118 95 264 C95 405 161 499 259 499 C314 499 364 461 385 405 C390 390 400 380 410 380 C430 380 440 390 435 405 C412 468 343 510 262 510 C132 510 45 402 45 239 C45 90 125 -10 245 -10 C320.075 -10 394.199 42.2844 432.152 121.828 C433.081 123.773 433.481 128.651 431.5 129.5 L431.5 129.5 Z " />
<glyph glyph-name="d" unicode="d" horiz-adv-x="592" d="M383.492 714.675 L397 714 C424 713 442 694 442 667 L442 480.418 C442 471.093 429.338 466.914 421.694 472.255 C387.677 496.026 344.2 511 298 511 C131 511 45 409 45 255 C45 100 136 -4 273 -4 C329.95 -4 386.9 17.675 424.198 53.0414 C430.764 59.2674 442 52.7484 442 43.6998 L442 13.5 C442 6.60037 447.6 1 454.5 1 L458.772 1 C459.967 1 473.785 2.85049 474.938 3.16491 L567.352 28.3688 C572.49 29.77 577 35.6748 577 41 C577 46.3458 572.492 49.8409 567.315 48.5096 L542 42 C512 34 492 49 492 79 L492 738.498 C492 745.397 486.398 751.112 479.5 751.25 L475.458 751.331 C474.187 751.356 459.658 749.593 458.428 749.273 C434.18 742.96 404.81 735.225 381.222 729.096 C377.863 728.223 377 724.971 377 721.5 C377 717.917 379.913 714.854 383.492 714.675 L383.492 714.675 Z M442 366.761 L442 110.48 C442 100.844 435.191 81.1286 428.463 74.2305 C394.297 39.2031 343 17 294 17 C175 17 96 117 96 268 C96 405 167 496 304 496 C361.95 496 416.29 446.363 438.727 385.669 C439.456 383.696 442 368.865 442 366.761 L442 366.761 Z " />
<glyph glyph-name="e" unicode="e" horiz-adv-x="530" d="M117.748 340 L438.016 340 C477.681 340 498.821 360.818 483.466 397.391 C449.904 477.33 381.8 510 296 510 C145 510 45 433 45 235 C45 88 136 -10 273 -10 C371 -10 458 48 489 134 C489.56 135.554 487.629 134.229 486 134.5 C484.452 134.758 481.686 131.47 481.096 130.017 C454.991 65.7781 376.65 23 285 23 C173 23 98 116 98 255 C98 281.811 99.7549 305.814 103.265 327.597 C104.413 334.723 110.53 340 117.748 340 L117.748 340 Z M390.34 354.527 L162.965 352.485 C129.512 352.184 111.69 371.198 125.974 401.449 C158.535 470.414 218.1 499 294 499 C352.575 499 400.941 471.094 428.428 403.491 C440.659 373.411 422.811 354.819 390.34 354.527 L390.34 354.527 Z " />
<glyph glyph-name="f" unicode="f" horiz-adv-x="342" d="M234 20 L194 20 C185 20 179 26 179 35 L179 412.56 C179 446.473 206.527 474 240.44 474 L319 474 C326.176 474 332 479.824 332 487 C332 494.176 326.176 500 319 500 L240.44 500 C203.392 500 178.265 524.508 181.69 561.398 C191.833 670.64 230.55 740 296 740 C335 740 372 635 404 635 C431 635 449 653 449 680 C449 725 395 755 314 755 C207.25 755 145.672 676.906 131.945 554.885 C129.288 531.266 102.603 494.874 79.2714 490.344 L28.945 480.572 C27.3493 480.262 26 478.626 26 477 C26 475.344 27.3441 474 29 474 L77.5 474 C105.926 474 129 450.926 129 422.5 L129 35 C129 26 123 20 114 20 L74 20 C68.4803 20 64 15.5197 64 10 C64 4.4803 68.4803 0 74 0 L234 0 C239.52 0 244 4.4803 244 10 C244 15.5197 239.52 20 234 20 L234 20 Z " />
<glyph glyph-name="g" unicode="g" horiz-adv-x="520" d="M540 459 C540 477 527 489 508 489 C475.825 489 446.372 474.026 426.942 449.132 C422.445 443.371 408.766 443.714 404.254 449.463 C373.984 488.031 324 511 261 511 C155 511 85 447 85 351 C85 286.65 115.628 236.593 167.339 210.375 C173.319 207.343 172.652 192.729 166.088 191.367 C100.737 177.807 61 148.1 61 109 C61 70.225 86.1831 40.9788 128.127 27.4379 C133.878 25.5813 136.078 13.7326 130.585 11.2125 C83.6225 -10.335 54 -48.5 54 -91 C54 -173 140 -228 270 -228 C400 -228 486 -168 486 -77 C486 11 434 69 302 69 L187 69 C129 69 90 91 90 124 C90 164 158 190 261 190 C367 190 437 255 437 352 C437 374.781 433.44 395.427 426.321 413.937 C424.166 419.539 424.895 428.96 428.657 433.638 C441.611 449.745 459.594 459 479 459 C491 459 508 439 520 439 C533 439 540.5 447 540.5 460 L540 459 Z M261 202 C185 202 135 262 135 352 C135 441 185 500 261 500 C337 500 387 441 387 352 C387 262 337 202 261 202 L261 202 Z M175.5 20 L183 20 L296 20 C403 20 444 -23 444 -87 C444 -164 375 -216 272 -216 C165 -216 94 -161 94 -78 C94 -35.25 120.173 0.28 161.372 17.4441 C163.075 18.154 173.654 20 175.5 20 L175.5 20 Z " />
<glyph glyph-name="h" unicode="h" horiz-adv-x="537" d="M33.9925 713.7 L48 713 C75 712 93 693 93 666 L93 35 C93 26 87 20 78 20 L38 20 C32.4803 20 28 15.5197 28 10 C28 4.4803 32.4803 0 38 0 L198 0 C203.52 0 208 4.4803 208 10 C208 15.5197 203.52 20 198 20 L158 20 C149 20 143 26 143 35 L143 345.632 C143 351.16 149.108 372.276 152.133 376.903 C191.094 436.497 246.825 475 294 475 C359 475 392 431 392 365 L392 35 C392 26 386 20 377 20 L337 20 C331.48 20 327 15.5197 327 10 C327 4.4803 331.48 0 337 0 L497 0 C502.52 0 507 4.4803 507 10 C507 15.5197 502.52 20 497 20 L457 20 C448 20 442 26 442 35 L442 365 C442 452 401 510 322 510 C271.675 510 213.863 473.246 169.34 415.461 C161.902 405.807 143 409.954 143 422.141 L143 737.5 C143 744.4 137.4 750 130.5 750 L125.835 750 C124.715 750 110.51 748.043 109.428 747.758 C85.1796 741.368 55.8096 733.27 32.2224 727.1 C29.1297 726.291 28 723.197 28 720 C28 716.692 30.689 713.866 33.9925 713.7 L33.9925 713.7 Z " />
<glyph glyph-name="i" unicode="i" horiz-adv-x="248" d="M160 647 C160 690 96 690 96 647 C96 605 160 605 160 647 L160 647 Z M43.9925 463.7 L58 463 C85 462 103 443 103 416 L103 35 C103 26 97 20 88 20 L48 20 C42.4803 20 38 15.5197 38 10 C38 4.4803 42.4803 0 48 0 L208 0 C213.52 0 218 4.4803 218 10 C218 15.5197 213.52 20 208 20 L168 20 C159 20 153 26 153 35 L153 487.5 C153 494.4 147.4 500 140.5 500 L135.835 500 C134.715 500 120.51 498.043 119.428 497.758 C95.1796 491.368 65.8096 483.27 42.2224 477.1 C39.1297 476.291 38 473.197 38 470 C38 466.692 40.689 463.866 43.9925 463.7 L43.9925 463.7 Z " />
<glyph glyph-name="j" unicode="j" horiz-adv-x="235" d="M152 646 C152 689 88 689 88 646 C88 604 152 604 152 646 L152 646 Z M35.9925 462.7 L50 462 C77 461 95 442 95 415 L95 29 C95 -35.6 81.995 -88.64 61.5121 -112.924 C51.5817 -124.698 49.6814 -124.093 34.4817 -121.603 C4.0475 -116.617 -31.95 -100 -60 -100 C-87 -100 -105 -116 -105 -140 C-105 -169 -81 -187 -45 -185 C-38 -185 4 -163 60 -130 C111 -101 145 -37 145 29 L145 487.5 C145 494.4 139.4 500 132.5 500 L123.64 500 C122.82 500 117.046 499.06 116.273 498.787 C111.032 496.935 104.829 494.343 99.1435 493.38 C99.0609 493.366 90.5028 491.768 90.422 491.745 C72.0144 486.677 52.5676 481.066 36.0493 476.613 C32.9812 475.785 30 472.178 30 469 C30 465.692 32.689 462.866 35.9925 462.7 L35.9925 462.7 Z " />
<glyph glyph-name="k" unicode="k" horiz-adv-x="480" d="M466.988 500 L229 500 C223.48 500 219 495.52 219 490 C219 484.48 223.48 480 229 480 L271 480 C331 480 325 440 257 380 L200 330 C176.348 309.253 143 324.36 143 355.822 L143 737.5 C143 744.4 137.4 750 130.5 750 L125.835 750 C124.715 750 110.51 748.043 109.428 747.758 C85.1796 741.368 55.8096 733.27 32.2224 727.1 C29.1297 726.291 28 723.197 28 720 C28 716.692 30.689 713.866 33.9925 713.7 L48 713 C75 712 93 693 93 666 L93 35 C93 26 87 20 78 20 L38 20 C32.4803 20 28 15.5197 28 10 C28 4.4803 32.4803 0 38 0 L198 0 C203.52 0 208 4.4803 208 10 C208 15.5197 203.52 20 198 20 L158 20 C149 20 143 26 143 35 L143 233.382 C143 249.386 164.354 253.133 174.316 240.607 C222.147 180.468 270.41 119.897 318 60 C337 36 334 20 310 20 L305.5 20 C303.016 20 301 17.9839 301 15.5 L301 10 C301 4.4803 305.48 0 311 0 L454 0 C459.52 0 464 4.4803 464 10 C464 14.9307 459.364 19.9829 454.461 20.509 C426.03 23.56 399.3 40.3 375 70 L227.283 257.054 C207.279 282.385 210.805 320.255 235.142 341.457 L323 418 C366 455 420 480 458 480 L468 480 C473.513 480 477.776 484.482 477.501 489.988 L477.5 490 C477.224 495.513 472.507 500 466.988 500 L466.988 500 Z " />
<glyph glyph-name="l" unicode="l" horiz-adv-x="238" d="M33.9925 713.7 L48 713 C75 712 93 693 93 666 L93 35 C93 26 87 20 78 20 L38 20 C32.4803 20 28 15.5197 28 10 C28 4.4803 32.4803 0 38 0 L198 0 C203.52 0 208 4.4803 208 10 C208 15.5197 203.52 20 198 20 L158 20 C149 20 143 26 143 35 L143 737.5 C143 744.4 137.4 750 130.5 750 L125.835 750 C124.715 750 110.51 748.043 109.428 747.758 C85.1796 741.368 55.8096 733.27 32.2224 727.1 C29.1297 726.291 28 723.197 28 720 C28 716.692 30.689 713.866 33.9925 713.7 L33.9925 713.7 Z " />
<glyph glyph-name="m" unicode="m" horiz-adv-x="832" d="M33.9925 463.7 L48 463 C75 462 93 443 93 416 L93 35 C93 26 87 20 78 20 L38 20 C32.4803 20 28 15.5197 28 10 C28 4.4803 32.4803 0 38 0 L198 0 C203.52 0 208 4.4803 208 10 C208 15.5197 203.52 20 198 20 L158 20 C149 20 143 26 143 35 L143 350.518 C143 356.096 148.586 376.36 151.651 381.02 C188.505 437.064 240.675 473 286 473 C361 473 390 430 390 365 L390 35 C390 26 384 20 375 20 L335 20 C329.48 20 325 15.5197 325 10 C325 4.4803 329.48 0 335 0 L495 0 C500.52 0 505 4.4803 505 10 C505 15.5197 500.52 20 495 20 L455 20 C446 20 440 26 440 35 L440 365 L440 368 C440 368.917 442.32 374.762 442.81 375.537 C479.796 434.024 534.25 473 583 473 C658 473 687 430 687 365 L687 35 C687 26 681 20 672 20 L632 20 C626.48 20 622 15.5197 622 10 C622 4.4803 626.48 0 632 0 L792 0 C797.52 0 802 4.4803 802 10 C802 15.5197 797.52 20 792 20 L752 20 C743 20 737 26 737 35 L737 365 C737 452 699 510 603 510 C557.1 510 503.253 473.875 460.495 416.978 C453.976 408.303 435.599 411.835 432.732 422.301 C417.849 476.649 378.6 510 306 510 C262.275 510 210.382 474.607 168.291 418.983 C161.062 409.43 143 413.613 143 425.593 L143 487.5 C143 494.4 137.4 500 130.5 500 L125.835 500 C124.715 500 110.51 498.043 109.428 497.758 C85.1796 491.368 55.8096 483.27 32.2224 477.1 C29.1297 476.291 28 473.197 28 470 C28 466.692 30.689 463.866 33.9925 463.7 L33.9925 463.7 Z " />
<glyph glyph-name="n" unicode="n" horiz-adv-x="535" d="M33.9925 463.7 L48 463 C75 462 93 443 93 416 L93 35 C93 26 87 20 78 20 L38 20 C32.4803 20 28 15.5197 28 10 C28 4.4803 32.4803 0 38 0 L198 0 C203.52 0 208 4.4803 208 10 C208 15.5197 203.52 20 198 20 L158 20 C149 20 143 26 143 35 L143 345.79 C143 351.066 148.981 372.222 151.808 376.678 C189.033 435.353 238.15 473 277 473 C352 473 390 416 390 330 L390 35 C390 26 384 20 375 20 L335 20 C329.48 20 325 15.5197 325 10 C325 4.4803 329.48 0 335 0 L495 0 C500.52 0 505 4.4803 505 10 C505 15.5197 500.52 20 495 20 L455 20 C446 20 440 26 440 35 L440 330 C440 438 394 510 306 510 C263.925 510 211.641 473.246 168.8 415.461 C161.497 405.61 143 409.878 143 422.141 L143 487.5 C143 494.4 137.4 500 130.5 500 L125.835 500 C124.715 500 110.51 498.043 109.428 497.758 C85.1796 491.368 55.8096 483.27 32.2224 477.1 C29.1297 476.291 28 473.197 28 470 C28 466.692 30.689 463.866 33.9925 463.7 L33.9925 463.7 Z " />
<glyph glyph-name="o" unicode="o" horiz-adv-x="604" d="M100 250 C100 397 181 495 302 495 C423 495 504 397 504 250 C504 103 423 5 302 5 C181 5 100 103 100 250 L100 250 Z M45 250 C45 94 148 -10 302 -10 C456 -10 559 94 559 250 C559 406 456 510 302 510 C148 510 45 406 45 250 L45 250 Z " />
<glyph glyph-name="p" unicode="p" horiz-adv-x="536" d="M18.4931 463.725 L33 463 C60 462 78 443 78 416 L78 -185 C78 -194 72 -200 63 -200 L23 -200 C17.4803 -200 13 -204.48 13 -210 C13 -215.52 17.4803 -220 23 -220 L183 -220 C188.52 -220 193 -215.52 193 -210 C193 -204.48 188.52 -200 183 -200 L143 -200 C134 -200 128 -194 128 -185 L128 25.6548 C128 34.0024 139.228 37.7568 145.687 32.4684 C174.822 8.6125 210.05 -5 248 -5 C394 -5 491 114 491 254 C491 408 404 510 273 510 C225.975 510 178.95 489.581 146.524 456.605 C140.907 450.892 128 453.723 128 461.735 L128 486.5 C128 493.4 122.4 499 115.5 499 L110.835 499 C109.716 499 95.7301 497.101 94.648 496.816 C71.0365 490.596 42.5245 482.741 19.2193 476.623 C16.3882 475.88 13 472.427 13 469.5 C13 466.468 15.4649 463.877 18.4931 463.725 L18.4931 463.725 Z M128 138.057 L128 394.397 C128 402.25 135.025 423.108 140.051 429.143 C169.938 465.031 211.5 488 250 488 C362 488 436 388 436 237 C436 113 362 7 251 7 C202.55 7 155.003 51.2225 131.507 118.233 C130.875 120.036 128 136.147 128 138.057 L128 138.057 Z " />
<glyph glyph-name="q" unicode="q" horiz-adv-x="557" d="M542.487 -200 L502 -200 C493 -200 487 -194 487 -185 L485.568 468.75 C485.558 473.616 478.112 474.671 476.75 470 L469.884 446.458 C469.336 444.582 464.452 436.807 463 435.5 C460.312 433.081 457.391 431.839 455.103 434.639 C416.844 481.481 355.2 510 285 510 C121 510 36 408 36 254 C36 99 130 -5 271 -5 C326.25 -5 380.778 15.9525 418.001 49.2597 C424.958 55.4847 436 48.91 436 39.5747 L436 -184 C436 -193 430 -199 421 -199 L381 -199 C375.48 -199 371 -203.48 371 -209 C371 -214.52 375.48 -219 381 -219 L541.487 -219 C546.731 -219 551.224 -214.736 551.5 -209.5 C551.776 -204.264 547.731 -200 542.487 -200 L542.487 -200 Z M436 378.334 L436 107.25 C436 97.2187 429.716 78.0406 422.594 70.9766 C389.016 37.6719 340.125 17 292 17 C170 17 88 117 88 268 C88 407 154 500 282 500 C346.6 500 403.98 460.29 431.848 399.732 C433.147 396.911 436 381.44 436 378.334 L436 378.334 Z " />
<glyph glyph-name="r" unicode="r" horiz-adv-x="363" d="M34.9925 463.7 L49 463 C76 462 94 443 94 416 L94 35 C94 26 88 20 79 20 L39 20 C33.4803 20 29 15.5197 29 10 C29 4.4803 33.4803 0 39 0 L199 0 C204.52 0 209 4.4803 209 10 C209 15.5197 204.52 20 199 20 L159 20 C150 20 144 26 144 35 L144 355.286 C144 357.38 147.053 373.944 147.777 375.909 C172.805 443.777 218.5 488 266 488 C283 488 294 474 294 453 C294 416 353 415 353 453 C353 488 327 511 289 511 C236.2 511 188.164 479.011 159.493 427.385 C156.399 421.816 144 423.577 144 429.947 L144 487.5 C144 494.4 138.4 500 131.5 500 L126.835 500 C125.715 500 111.51 498.043 110.428 497.758 C86.1796 491.368 56.8096 483.27 33.2224 477.1 C30.1297 476.291 29 473.197 29 470 C29 466.692 31.689 463.866 34.9925 463.7 L34.9925 463.7 Z " />
<glyph glyph-name="s" unicode="s" horiz-adv-x="422" d="M344 352.018 L344 502.5 C344 506.088 341.088 509 337.5 509 L337.325 509 C334.013 509 330.047 506.142 329 503 L327 497 C324.086 486.314 300.411 486.009 266.059 495.167 C265.886 495.213 259.007 497.577 258.841 497.64 C237.875 505.605 214.438 510 191 510 C113 510 61 462 61 389 C61 328 113 268 214 231 C292 203 332 156 332 107 C332 27 261 -16 179 9 C128 25 87 81 77 149 L74.1059 167.088 C73.5032 170.855 69.8153 174 66 174 C62.1362 174 59 170.864 59 167 L59 7 C59 3.13621 62.1362 0 66 0 L66.3292 0 C69.917 0 73.6932 3.00407 74.5 6.5 L76 13 C80 28 110 24 149 7 C173 -4 199 -10 226 -10 C314 -10 372 42 372 121 C372 180 326 237 237 269 C145 302 98 354 98 406 C98 474 153 509 225 495 C277 483 317 434 327 368 L329.13 350.964 C329.609 347.125 333.142 344.224 337 344.5 C340.854 344.775 344 348.154 344 352.018 L344 352.018 Z " />
<glyph glyph-name="t" unicode="t" horiz-adv-x="339" d="M286 500 L205.008 500 C171.89 500 144.552 526.886 144 560 C143.615 583.103 117.702 593.134 101.861 576.313 L33.4278 503.64 C32.1307 502.263 30 496.892 30 495 C30 492.24 32.2402 490 35 490 L62.5 490 C80.439 490 95 475.439 95 457.5 L95 129 C95 29 142 -10 212 -10 C251.975 -10 296.703 19.4694 326.72 64.5052 C327.63 65.8696 327.906 68.6564 326.5 69.5 C325.155 70.3071 323.204 69.7671 322.32 68.4708 C300.101 35.8644 263.075 14 227 14 C177 14 144 43 144 118 L144.828 412.733 C144.923 446.55 172.45 474 206.268 474 L286 474 C293.176 474 299 479.824 299 487 C299 494.176 293.176 500 286 500 L286 500 Z " />
<glyph glyph-name="u" unicode="u" horiz-adv-x="526" d="M500.407 44.0341 L486 40 C456 32 436 47 436 77 L436 442.5 C436 474.238 410.238 500 378.5 500 L331 500 C325.48 500 321 495.52 321 490 C321 484.48 325.48 480 331 480 L371 480 C380 480 386 474 386 465 L386 148.951 C386 145.413 382.881 129.151 381.308 125.982 C350.392 63.71 297.05 24 241 24 C180 24 139 78 139 159 L139 441.5 C139 473.238 113.238 499 81.5 499 L34 499 C28.4803 499 24 494.52 24 489 C24 483.48 28.4803 479 34 479 L74 479 C83 479 89 473 89 464 L89 159 C89 57 140 -11 217 -11 C273.925 -11 328.808 23.7119 365.365 80.2208 C370.253 87.7752 386 84.9946 386 75.9971 L386 10.5 C386 3.60037 391.6 -2 398.5 -2 L402.949 -2 C404.106 -2 416.793 -0.451591 417.91 -0.151906 C443.02 6.58109 473.57 14.9461 499.32 21.8711 C504.97 23.3905 511 30.1495 511 36 C511 41.8468 506.038 45.6105 500.407 44.0341 L500.407 44.0341 Z " />
<glyph glyph-name="v" unicode="v" horiz-adv-x="488" d="M466 500 L340 500 C334.48 500 330 495.52 330 490 L330 484.5 C330 482.016 332.016 480 334.5 480 L339 480 C369 480 381 458 370 425 L228.2 -3.35465 C227.047 -6.83685 229.332 -10 233 -10 C236.646 -10 242.712 -2.28644 243.921 1.15385 C293.565 142.436 342.308 283.718 392 425 C404.95 460.15 430.734 477.332 466.979 479.711 C472.126 480.049 476 484.842 476 490 C476 495.52 471.52 500 466 500 L466 500 Z M179.988 500 L21 500 C15.4803 500 11 495.52 11 490 C11 484.829 14.6511 480.055 19.8123 479.728 C55.26 477.488 80.975 461.3 93 428 L213.77 33.2432 C217.964 19.5372 236.563 19.371 241 33 L249.035 57.6783 C250.918 63.4633 251.368 88.0302 249.608 93.8538 C216.31 203.997 182.205 314.949 149 425 C139 458 152 480 182 480 L186.5 480 C188.981 480 190.899 482.017 190.775 484.494 L190.5 490 C190.224 495.513 185.507 500 179.988 500 L179.988 500 Z " />
<glyph glyph-name="w" unicode="w" horiz-adv-x="711" d="M182 500 L21 500 C15.4803 500 11 495.52 11 490 C11 484.939 17.2944 479.966 22.338 479.545 C55.26 476.8 78.3 461.5 90 430 L215.905 -2.79854 C217.015 -6.6153 221.525 -10 225.5 -10 C229.412 -10 234.175 -6.60938 235.456 -2.91337 L290.986 157.347 C308.745 208.598 379.099 206.654 394 154.5 L438.94 -2.78857 C440.033 -6.61591 444.52 -10 448.5 -10 C452.39 -10 458.741 -2.50002 460.075 1.15385 C511.667 142.436 562.359 283.718 614 425 C626.95 460.15 653.59 477.332 689.963 479.711 C695.111 480.048 699 484.841 699 490 C699 495.52 694.52 500 689 500 L563 500 C557.48 500 553 495.52 553 490 L553 484.5 C553 482.016 555.016 480 557.5 480 L562 480 C591 480 603 459 593 427 L533 253.5 C513.984 198.511 438.506 200.56 422.5 256.499 L372.921 429.781 C372.832 430.091 371.64 435.266 371.595 435.586 C367.39 465.296 381.408 479.062 408.288 481.573 C413.273 482.039 418 486.994 418 492 C418 497.52 413.52 502 408 502 L248 502 C242.48 502 238 497.52 238 492 C238 486.842 241.873 482.05 247.02 481.711 C283.243 479.332 308.75 462.15 318 427 L333.986 369.146 C335.536 363.535 334.847 338.676 332.987 333.16 L267.106 137.687 C261.115 119.912 235.797 123.435 230.594 141.456 C203.131 236.569 175.225 332.125 148 427 C138 460 152 482 182 482 L186.5 482 C188.984 482 191 484.016 191 486.5 L191 491 C191 495.968 186.968 500 182 500 L182 500 Z " />
<glyph glyph-name="x" unicode="x" horiz-adv-x="499" d="M452 500 L330 500 C324.48 500 320 495.52 320 490 L320 484 C320 481.792 321.792 480 324 480 L328 480 C355 480 360 458 341 425 L299.5 353.5 C279.404 318.877 235.922 318.477 215.193 352.725 L166 434 C152 462 158 480 183 480 L187 480 C189.208 480 191 481.792 191 484 L191 490 C191 495.52 186.52 500 181 500 L22 500 C16.4803 500 12 495.52 12 490 C12 484.828 16.1518 480.037 21.3137 479.711 C59.0381 477.332 89.725 460.15 111 425 L203.942 271.728 C214.636 254.092 213.336 220.767 201.301 204.018 L105 70 C79.1 38.55 48.9219 23.3569 12.8827 21.2548 C7.69324 20.9521 4 16.1983 4 11 C4 5.4803 8.4803 1 14 1 L133 1 C138.52 1 143 5.4803 143 11 L143 17 C143 19.2079 141.208 21 139 21 L135 21 C109 21 107 43 129 76 L180 151.5 C205.6 189.399 254.632 188.263 278.451 149.22 L328 68 C342 40 336 22 311 22 L307 22 C304.792 22 303 20.2079 303 18 L303 12 C303 6.4803 307.48 2 313 2 L472 2 C477.52 2 482 6.4803 482 12 C482 17.1722 477.848 21.963 472.686 22.2886 C434.962 24.6681 404.275 41.85 383 77 L284.534 238.885 C274.934 254.668 275.019 287.281 284.701 303.014 L361 427 C382.275 462.15 413.818 479.332 451.67 481.711 C456.317 482.004 461 486.344 461 491 C461 495.968 456.968 500 452 500 L452 500 Z " />
<glyph glyph-name="y" unicode="y" horiz-adv-x="508" d="M486.5 500 L360 500 C354.48 500 350 495.52 350 490 L350 484.5 C350 482.016 352.016 480 354.5 480 L359 480 C388 480 401 458 390 425 C390 425 304.95 165.8 280.65 92.819 C278.979 87.8019 270.607 88.4224 268.843 93.4072 C229.805 203.697 190 314.8 152 425 C140 458 152 480 181 480 L185.5 480 C187.984 480 190 482.016 190 484.5 L190 490 C190 495.52 185.52 500 180 500 L22 500 C16.4803 500 12 495.52 12 490 C12 484.842 15.8742 480.049 21.0212 479.711 C57.2656 477.332 83.05 460.15 96 425 L239.707 18.6246 C242.241 11.4568 242.248 -15.2695 239.692 -22.4297 C223.128 -68.8297 206.564 -115.795 190 -162 C183 -181 169 -194 163 -194 C141 -194 136 -175 114 -175 C89 -175 73 -191 73 -216 C73 -242 91 -260 118 -260 C140 -260 183 -223 203 -168 L293 87 C333 200 372 313 412 426 C424.95 461.15 450.734 478.332 486.979 480.711 C491.868 481.032 496 485.6 496 490.5 C496 495.744 491.744 500 486.5 500 L486.5 500 Z " />
<glyph glyph-name="z" unicode="z" horiz-adv-x="475" d="M413.375 97.2803 C391.598 49.3206 344.725 16.975 295 16 L198.5 14.5 C155.366 13.8295 132.638 56.7025 157.402 92.0263 L431.556 483.087 C432.647 484.644 435 492.099 435 494 C435 497.312 432.312 500 429 500 L121 500 C104.333 500 94.6111 509.722 94.1481 523.38 C94.0145 527.321 89.7243 532 85.7805 532 L79.1847 532 C76.0104 532 72.248 529.034 71.3782 525.981 C68.1801 514.756 63.5263 501.105 61 491 C61 491 49.2675 452.193 33.5189 393.44 C32.2044 388.536 35.4232 384 40.5 384 L41.2536 384 C45.3933 384 52.3701 387.95 54.5 391.5 L59 399 C88 449 142.5 483 193.5 484 L285.25 485.5 C326.153 486.169 347.691 445.442 324.113 412.011 L45.4581 16.9032 C44.358 15.3434 42 7.90875 42 6 C42 2.68818 44.6882 0 48 0 L423 0 C427.968 0 432 4.03227 432 9 L432 14.1749 C432 14.4208 432.454 21.6896 432.483 21.9337 C434.434 38.0407 437.775 68.11 441.892 106.614 C442.447 111.802 438.717 117 433.5 117 L433.179 117 C428.763 117 421.665 112.849 419.5 109 L416.73 104.076 C416.669 103.966 413.427 97.3948 413.375 97.2803 L413.375 97.2803 Z " />
<glyph glyph-name="bar" unicode="&#x7c;" horiz-adv-x="159" d="M60 780.5 L60 -230.5 C60 -241.263 68.7366 -250 79.5 -250 C90.2634 -250 99 -241.263 99 -230.5 L99 780.5 C99 791.263 90.2634 800 79.5 800 C68.7366 800 60 791.263 60 780.5 L60 780.5 Z " />
<glyph glyph-name="asciitilde" unicode="&#x7e;" horiz-adv-x="340" d="M28.1339 315.893 C29.8225 352.535 47.35 376 73 376 C127 376 198 311 252 311 C291.975 311 319.592 347.124 320.948 401.761 C321.011 404.306 319.045 406 316.5 406 C314.15 406 311.985 403.038 311.859 400.691 C310.075 367.66 291.55 346 264 346 C210 346 139 411 85 411 C46 411 20.3088 372.975 19.0486 314.535 C18.9939 311.999 20.9626 310 23.5 310 C25.8695 310 28.0248 313.526 28.1339 315.893 L28.1339 315.893 Z " />
<glyph glyph-name="exclamdown" unicode="&#xa1;" horiz-adv-x="201" d="M65 470 C65 423 135 423 135 470 C135 516 65 516 65 470 L65 470 Z M100 -255 C124 -255 134 -221 131 -171 C131 -171 105 152 105 290 C105 292.484 102.984 290 100.5 290 C98.0376 290 95.9733 281.773 95.9521 279.311 C94.7162 136.052 70 -171 70 -171 C67 -221 77 -255 100 -255 L100 -255 Z " />
<glyph glyph-name="cent" unicode="&#xa2;" horiz-adv-x="465" d="M238 566 L238 542 C238 527.206 218.397 506.451 204.165 502.412 C106.56 474.71 45 376.7 45 239 C45 107.6 107.37 14.27 204.408 -5.998 C218.868 -9.01818 238 -27.7281 238 -42.5 L238 -66 C238 -70.9677 242.032 -75 247 -75 C251.968 -75 256 -70.9677 256 -66 L256 -42.5 C256 -28.2537 274.838 -8.20451 288.6 -4.5235 C347.699 11.2835 401.966 57.9909 432.308 122.122 C433.229 124.069 433.479 128.652 431.5 129.5 C429.628 130.302 426.617 127.858 425.751 126.015 C400.968 73.2688 351.146 34.4108 294.203 23.7768 C269.439 19.1521 256 32.8379 256 58.0304 L256 470.496 C256 489.999 266.13 500.302 285.164 496.049 C329.612 486.118 366.675 452.025 384 405 C389 390 399 380 409 380 C429 380 439 390 434 405 C413.875 461 357 500.922 286.822 508.688 C271.326 510.402 256 526.91 256 542.5 L256 566 C256 570.968 251.968 575 247 575 C242.032 575 238 570.968 238 566 L238 566 Z M195.307 37.4045 C133.115 70.8056 95 153.45 95 264 C95 372.075 133.796 452.244 195.664 484.294 C222.432 498.16 238 484.658 238 454.511 L238 67.0596 C238 36.5376 222.197 22.9631 195.307 37.4045 L195.307 37.4045 Z " />
<glyph glyph-name="acute" unicode="&#xb4;" horiz-adv-x="340" d="M180.707 566.28 L316 686 C358 724 386 751 386 755 C386 768 375 779 362 779 C358 779 331 751 293 709 L173.28 573.707 C171.473 571.665 171.572 568.428 173.5 566.5 C175.428 564.572 178.665 564.473 180.707 566.28 L180.707 566.28 Z " />
<glyph glyph-name="questiondown" unicode="&#xbf;" horiz-adv-x="305" d="M145 470 C145 423 215 423 215 470 C215 516 145 516 145 470 L145 470 Z M183.996 324.661 C183.9 315.914 181.95 140.975 180 140 C96 140 62 103 24 47 C7 22 -4 -18 -4 -53 C-4 -177 62 -260 160 -260 C188 -260 207 -245 207 -223 C207 -208 196 -198 180 -198 C169 -198 153 -207 142 -207 C63 -207 10 -143 10 -47 C10 -27 20 2 35 24 C62 64 91 90 197 90 C194 89 192 325 192 325 C192 325 190.227 325 188 325 C185.793 325 184.021 326.868 183.996 324.661 L183.996 324.661 Z " />
<glyph glyph-name="Agrave" unicode="&#xc0;" horiz-adv-x="753" d="M201 1005 C201 999 229 972 271 936 L406.548 816.055 C408.453 814.369 411.344 814.568 413 816.5 C414.639 818.413 414.621 821.571 412.959 823.465 L294 959 C258 1001 232 1029 226 1029 C213 1029 201 1018 201 1005 L201 1005 Z M295 12.5 C295 19.3996 289.4 25 282.5 25 L268 25 C210 25 183 62 198 119 L238.295 244.361 C245.497 266.768 273.252 287 296.787 287 L482.84 287 C497.682 287 515.216 272.792 519.476 258.574 C532.889 213.811 546.625 168.725 559 125 C577 65 549 25 489 25 L474.5 25 C467.6 25 462 19.3996 462 12.5 C462 5.60037 467.6 0 474.5 0 L732.5 0 C739.4 0 745 5.60037 745 12.5 L745 18 C745 21.8638 741.864 25 738 25 L731 25 C685 25 641 62 622 119 L436 732 C436 732 428 770 424 770 L419 770 C421.806 752.226 407.985 737.952 382.449 732.91 C379.795 732.386 377.723 729.591 378.5 727 C378.973 725.422 378.886 718.606 378.372 717.04 L184 125 C164 65 111 25 51 25 L28.5 25 C21.6004 25 16 19.3996 16 12.5 C16 5.60037 21.6004 0 28.5 0 L282.5 0 C289.4 0 295 5.60037 295 12.5 L295 12.5 Z M282.818 382.255 L325.391 514.595 C344.336 573.487 425.004 572.661 442.74 513.394 L482.343 381.054 C494.853 339.25 467.117 302 423.482 302 L341.306 302 C297.007 302 269.252 340.085 282.818 382.255 L282.818 382.255 Z " />
<glyph glyph-name="Aacute" unicode="&#xc1;" horiz-adv-x="753" d="M416.452 816.055 L552 936 C594 974 622 1001 622 1005 C622 1018 611 1029 597 1029 C593 1029 567 1001 529 959 L410.041 823.465 C408.379 821.571 408.361 818.413 410 816.5 C411.656 814.568 414.547 814.369 416.452 816.055 L416.452 816.055 Z M295 12.5 C295 19.3996 289.4 25 282.5 25 L268 25 C210 25 183 62 198 119 L238.295 244.361 C245.497 266.768 273.252 287 296.787 287 L482.84 287 C497.682 287 515.216 272.792 519.476 258.574 C532.889 213.811 546.625 168.725 559 125 C577 65 549 25 489 25 L474.5 25 C467.6 25 462 19.3996 462 12.5 C462 5.60037 467.6 0 474.5 0 L732.5 0 C739.4 0 745 5.60037 745 12.5 L745 18 C745 21.8638 741.864 25 738 25 L731 25 C685 25 641 62 622 119 L436 732 C436 732 428 770 424 770 L419 770 C421.806 752.226 407.985 737.952 382.449 732.91 C379.795 732.386 377.723 729.591 378.5 727 C378.973 725.422 378.886 718.606 378.372 717.04 L184 125 C164 65 111 25 51 25 L28.5 25 C21.6004 25 16 19.3996 16 12.5 C16 5.60037 21.6004 0 28.5 0 L282.5 0 C289.4 0 295 5.60037 295 12.5 L295 12.5 Z M282.818 382.255 L325.391 514.595 C344.336 573.487 425.004 572.661 442.74 513.394 L482.343 381.054 C494.853 339.25 467.117 302 423.482 302 L341.306 302 C297.007 302 269.252 340.085 282.818 382.255 L282.818 382.255 Z " />
<glyph glyph-name="Acircumflex" unicode="&#xc2;" horiz-adv-x="753" d="M421.895 1017.8 C417.609 1023.69 411.231 1033 407 1033 C401.923 1033 395.414 1023.69 391.108 1017.8 C391.081 1017.76 387.412 1012.57 387.387 1012.53 L259.353 816.601 C258.055 814.615 258.57 811.879 260.5 810.5 C262.426 809.124 265.244 809.481 266.767 811.293 L359.125 921.213 C384.627 951.563 427.461 951.637 453.067 921.375 L546.222 811.283 C547.75 809.477 550.575 809.125 552.5 810.5 C554.43 811.879 554.945 814.615 553.647 816.601 L425.613 1012.53 C425.59 1012.57 421.92 1017.77 421.895 1017.8 L421.895 1017.8 Z M295 12.5 C295 19.3996 289.4 25 282.5 25 L268 25 C210 25 183 62 198 119 L238.295 244.361 C245.497 266.768 273.252 287 296.787 287 L482.84 287 C497.682 287 515.216 272.792 519.476 258.574 C532.889 213.811 546.625 168.725 559 125 C577 65 549 25 489 25 L474.5 25 C467.6 25 462 19.3996 462 12.5 C462 5.60037 467.6 0 474.5 0 L732.5 0 C739.4 0 745 5.60037 745 12.5 L745 18 C745 21.8638 741.864 25 738 25 L731 25 C685 25 641 62 622 119 L436 732 C436 732 428 770 424 770 L419 770 C421.806 752.226 407.985 737.952 382.449 732.91 C379.795 732.386 377.723 729.591 378.5 727 C378.973 725.422 378.886 718.606 378.372 717.04 L184 125 C164 65 111 25 51 25 L28.5 25 C21.6004 25 16 19.3996 16 12.5 C16 5.60037 21.6004 0 28.5 0 L282.5 0 C289.4 0 295 5.60037 295 12.5 L295 12.5 Z M282.818 382.255 L325.391 514.595 C344.336 573.487 425.004 572.661 442.74 513.394 L482.343 381.054 C494.853 339.25 467.117 302 423.482 302 L341.306 302 C297.007 302 269.252 340.085 282.818 382.255 L282.818 382.255 Z " />
<glyph glyph-name="Atilde" unicode="&#xc3;" horiz-adv-x="753" d="M265.134 875.893 C266.822 912.535 284.35 936 310 936 C364 936 435 871 489 871 C528.975 871 555.641 907.124 556.95 961.761 C557.01 964.304 555.043 966 552.5 966 C550.15 966 547.985 963.038 547.859 960.691 C546.078 927.66 527.6 906 501 906 C447 906 375 971 321 971 C282.975 971 257.308 932.975 256.049 874.535 C255.994 871.999 257.963 870 260.5 870 C262.87 870 265.025 873.526 265.134 875.893 L265.134 875.893 Z M295 12.5 C295 19.3996 289.4 25 282.5 25 L268 25 C210 25 183 62 198 119 L238.295 244.361 C245.497 266.768 273.252 287 296.787 287 L482.84 287 C497.682 287 515.216 272.792 519.476 258.574 C532.889 213.811 546.625 168.725 559 125 C577 65 549 25 489 25 L474.5 25 C467.6 25 462 19.3996 462 12.5 C462 5.60037 467.6 0 474.5 0 L732.5 0 C739.4 0 745 5.60037 745 12.5 L745 18 C745 21.8638 741.864 25 738 25 L731 25 C685 25 641 62 622 119 L436 732 C436 732 428 770 424 770 L419 770 C421.806 752.226 407.985 737.952 382.449 732.91 C379.795 732.386 377.723 729.591 378.5 727 C378.973 725.422 378.886 718.606 378.372 717.04 L184 125 C164 65 111 25 51 25 L28.5 25 C21.6004 25 16 19.3996 16 12.5 C16 5.60037 21.6004 0 28.5 0 L282.5 0 C289.4 0 295 5.60037 295 12.5 L295 12.5 Z M282.818 382.255 L325.391 514.595 C344.336 573.487 425.004 572.661 442.74 513.394 L482.343 381.054 C494.853 339.25 467.117 302 423.482 302 L341.306 302 C297.007 302 269.252 340.085 282.818 382.255 L282.818 382.255 Z " />
<glyph glyph-name="Adieresis" unicode="&#xc4;" horiz-adv-x="753" d="M508 897 C508 940 443 941 443 897 C443 855 508 856 508 897 L508 897 Z M370 897 C370 941 305 940 305 897 C305 856 370 855 370 897 L370 897 Z M295 12.5 C295 19.3996 289.4 25 282.5 25 L268 25 C210 25 183 62 198 119 L238.295 244.361 C245.497 266.768 273.252 287 296.787 287 L482.84 287 C497.682 287 515.216 272.792 519.476 258.574 C532.889 213.811 546.625 168.725 559 125 C577 65 549 25 489 25 L474.5 25 C467.6 25 462 19.3996 462 12.5 C462 5.60037 467.6 0 474.5 0 L732.5 0 C739.4 0 745 5.60037 745 12.5 L745 18 C745 21.8638 741.864 25 738 25 L731 25 C685 25 641 62 622 119 L436 732 C436 732 428 770 424 770 L419 770 C421.806 752.226 407.985 737.952 382.449 732.91 C379.795 732.386 377.723 729.591 378.5 727 C378.973 725.422 378.886 718.606 378.372 717.04 L184 125 C164 65 111 25 51 25 L28.5 25 C21.6004 25 16 19.3996 16 12.5 C16 5.60037 21.6004 0 28.5 0 L282.5 0 C289.4 0 295 5.60037 295 12.5 L295 12.5 Z M282.818 382.255 L325.391 514.595 C344.336 573.487 425.004 572.661 442.74 513.394 L482.343 381.054 C494.853 339.25 467.117 302 423.482 302 L341.306 302 C297.007 302 269.252 340.085 282.818 382.255 L282.818 382.255 Z " />
<glyph glyph-name="Aring" unicode="&#xc5;" horiz-adv-x="753" d="M325 905 C325 955 358 988 407 988 C456 988 488 955 488 905 C488 860 451 822 407 822 C363 822 325 860 325 905 L325 905 Z M310 905 C310 854 355 810 407 810 C459 810 503 854 503 905 C503 962 465 1000 407 1000 C349 1000 310 962 310 905 L310 905 Z M295 12.5 C295 19.3996 289.4 25 282.5 25 L268 25 C210 25 183 62 198 119 L238.295 244.361 C245.497 266.768 273.252 287 296.787 287 L482.84 287 C497.682 287 515.216 272.792 519.476 258.574 C532.889 213.811 546.625 168.725 559 125 C577 65 549 25 489 25 L474.5 25 C467.6 25 462 19.3996 462 12.5 C462 5.60037 467.6 0 474.5 0 L732.5 0 C739.4 0 745 5.60037 745 12.5 L745 18 C745 21.8638 741.864 25 738 25 L731 25 C685 25 641 62 622 119 L436 732 C436 732 428 770 424 770 L419 770 C421.806 752.226 407.985 737.952 382.449 732.91 C379.795 732.386 377.723 729.591 378.5 727 C378.973 725.422 378.886 718.606 378.372 717.04 L184 125 C164 65 111 25 51 25 L28.5 25 C21.6004 25 16 19.3996 16 12.5 C16 5.60037 21.6004 0 28.5 0 L282.5 0 C289.4 0 295 5.60037 295 12.5 L295 12.5 Z M282.818 382.255 L325.391 514.595 C344.336 573.487 425.004 572.661 442.74 513.394 L482.343 381.054 C494.853 339.25 467.117 302 423.482 302 L341.306 302 C297.007 302 269.252 340.085 282.818 382.255 L282.818 382.255 Z " />
<glyph glyph-name="Egrave" unicode="&#xc8;" horiz-adv-x="621" d="M135 1005 C135 999 163 972 205 936 L340.548 816.055 C342.453 814.369 345.344 814.568 347 816.5 C348.639 818.413 348.621 821.571 346.959 823.465 L228 959 C192 1001 166 1029 160 1029 C147 1029 135 1018 135 1005 L135 1005 Z M60 730 L85 730 C127 730 155 702 155 660 L155 90 C155 48 127 20 85 20 L60 20 C54.4803 20 50 15.5197 50 10 C50 4.4803 54.4803 0 60 0 L545.908 0 C547.564 0 549.348 1.39353 549.75 3 L550.5 6 C557.141 43.9487 566.032 92.6982 572.904 131.755 C573.705 136.31 570.125 138 565.5 138 C561.144 138 555.461 134.153 553.843 130.108 L549 118 C524 55 465 13 402 13 L294 13 C222 13 214 40 214 80 L214 323.56 C214 357.473 241.527 385 275.44 385 L340 385 C388 385 427 353 437 305 L446.333 258.335 C447.235 253.824 451.899 250 456.5 250 C461.192 250 465 253.808 465 258.5 L465 525.5 C465 530.192 461.192 534 456.5 534 C451.899 534 447.235 530.176 446.333 525.665 L437 479 C427 431 388 399 340 399 L275.44 399 C241.527 399 214 426.527 214 460.44 L214 676.56 C214 710.473 241.527 738 275.44 738 L401 738 C449 738 492 706 508 658 L523.356 611.078 C524.743 606.841 530.041 603 534.5 603 C539.168 603 542.366 608.311 541.804 612.945 C536.861 653.68 530.115 705.231 525.5 744 C525.475 744.214 524.802 746.791 524.75 747 C524.348 748.606 522.564 750 520.908 750 L60 750 C54.4803 750 50 745.52 50 740 C50 734.48 54.4803 730 60 730 L60 730 Z " />
<glyph glyph-name="Eacute" unicode="&#xc9;" horiz-adv-x="621" d="M350.452 816.055 L486 936 C528 974 556 1001 556 1005 C556 1018 545 1029 531 1029 C527 1029 501 1001 463 959 L344.041 823.465 C342.379 821.571 342.361 818.413 344 816.5 C345.656 814.568 348.547 814.369 350.452 816.055 L350.452 816.055 Z M60 730 L85 730 C127 730 155 702 155 660 L155 90 C155 48 127 20 85 20 L60 20 C54.4803 20 50 15.5197 50 10 C50 4.4803 54.4803 0 60 0 L545.908 0 C547.564 0 549.348 1.39353 549.75 3 L550.5 6 C557.141 43.9487 566.032 92.6982 572.904 131.755 C573.705 136.31 570.125 138 565.5 138 C561.144 138 555.461 134.153 553.843 130.108 L549 118 C524 55 465 13 402 13 L294 13 C222 13 214 40 214 80 L214 323.56 C214 357.473 241.527 385 275.44 385 L340 385 C388 385 427 353 437 305 L446.333 258.335 C447.235 253.824 451.899 250 456.5 250 C461.192 250 465 253.808 465 258.5 L465 525.5 C465 530.192 461.192 534 456.5 534 C451.899 534 447.235 530.176 446.333 525.665 L437 479 C427 431 388 399 340 399 L275.44 399 C241.527 399 214 426.527 214 460.44 L214 676.56 C214 710.473 241.527 738 275.44 738 L401 738 C449 738 492 706 508 658 L523.356 611.078 C524.743 606.841 530.041 603 534.5 603 C539.168 603 542.366 608.311 541.804 612.945 C536.861 653.68 530.115 705.231 525.5 744 C525.475 744.214 524.802 746.791 524.75 747 C524.348 748.606 522.564 750 520.908 750 L60 750 C54.4803 750 50 745.52 50 740 C50 734.48 54.4803 730 60 730 L60 730 Z " />
<glyph glyph-name="Ecircumflex" unicode="&#xca;" horiz-adv-x="621" d="M355.895 1017.8 C351.609 1023.69 345.231 1033 341 1033 C335.923 1033 329.414 1023.69 325.108 1017.8 C325.081 1017.76 321.412 1012.57 321.387 1012.53 L193.353 816.601 C192.055 814.615 192.57 811.879 194.5 810.5 C196.426 809.124 199.244 809.481 200.767 811.293 L293.125 921.213 C318.627 951.563 361.461 951.637 387.067 921.375 L480.222 811.283 C481.75 809.477 484.575 809.125 486.5 810.5 C488.43 811.879 488.945 814.615 487.647 816.601 L359.613 1012.53 C359.59 1012.57 355.92 1017.77 355.895 1017.8 L355.895 1017.8 Z M60 730 L85 730 C127 730 155 702 155 660 L155 90 C155 48 127 20 85 20 L60 20 C54.4803 20 50 15.5197 50 10 C50 4.4803 54.4803 0 60 0 L545.908 0 C547.564 0 549.348 1.39353 549.75 3 L550.5 6 C557.141 43.9487 566.032 92.6982 572.904 131.755 C573.705 136.31 570.125 138 565.5 138 C561.144 138 555.461 134.153 553.843 130.108 L549 118 C524 55 465 13 402 13 L294 13 C222 13 214 40 214 80 L214 323.56 C214 357.473 241.527 385 275.44 385 L340 385 C388 385 427 353 437 305 L446.333 258.335 C447.235 253.824 451.899 250 456.5 250 C461.192 250 465 253.808 465 258.5 L465 525.5 C465 530.192 461.192 534 456.5 534 C451.899 534 447.235 530.176 446.333 525.665 L437 479 C427 431 388 399 340 399 L275.44 399 C241.527 399 214 426.527 214 460.44 L214 676.56 C214 710.473 241.527 738 275.44 738 L401 738 C449 738 492 706 508 658 L523.356 611.078 C524.743 606.841 530.041 603 534.5 603 C539.168 603 542.366 608.311 541.804 612.945 C536.861 653.68 530.115 705.231 525.5 744 C525.475 744.214 524.802 746.791 524.75 747 C524.348 748.606 522.564 750 520.908 750 L60 750 C54.4803 750 50 745.52 50 740 C50 734.48 54.4803 730 60 730 L60 730 Z " />
<glyph glyph-name="Edieresis" unicode="&#xcb;" horiz-adv-x="621" d="M442 897 C442 940 377 941 377 897 C377 855 442 856 442 897 L442 897 Z M304 897 C304 941 239 940 239 897 C239 856 304 855 304 897 L304 897 Z M60 730 L85 730 C127 730 155 702 155 660 L155 90 C155 48 127 20 85 20 L60 20 C54.4803 20 50 15.5197 50 10 C50 4.4803 54.4803 0 60 0 L545.908 0 C547.564 0 549.348 1.39353 549.75 3 L550.5 6 C557.141 43.9487 566.032 92.6982 572.904 131.755 C573.705 136.31 570.125 138 565.5 138 C561.144 138 555.461 134.153 553.843 130.108 L549 118 C524 55 465 13 402 13 L294 13 C222 13 214 40 214 80 L214 323.56 C214 357.473 241.527 385 275.44 385 L340 385 C388 385 427 353 437 305 L446.333 258.335 C447.235 253.824 451.899 250 456.5 250 C461.192 250 465 253.808 465 258.5 L465 525.5 C465 530.192 461.192 534 456.5 534 C451.899 534 447.235 530.176 446.333 525.665 L437 479 C427 431 388 399 340 399 L275.44 399 C241.527 399 214 426.527 214 460.44 L214 676.56 C214 710.473 241.527 738 275.44 738 L401 738 C449 738 492 706 508 658 L523.356 611.078 C524.743 606.841 530.041 603 534.5 603 C539.168 603 542.366 608.311 541.804 612.945 C536.861 653.68 530.115 705.231 525.5 744 C525.475 744.214 524.802 746.791 524.75 747 C524.348 748.606 522.564 750 520.908 750 L60 750 C54.4803 750 50 745.52 50 740 C50 734.48 54.4803 730 60 730 L60 730 Z " />
<glyph glyph-name="Igrave" unicode="&#xcc;" horiz-adv-x="364" d="M-16 1005 C-16 999 12 972 54 936 L189.293 816.28 C191.335 814.473 194.572 814.572 196.5 816.5 C198.428 818.428 198.527 821.665 196.72 823.707 L77 959 C41 1001 14 1029 8 1029 C-5 1029 -16 1018 -16 1005 L-16 1005 Z M294 20 L269 20 C239 20 219 40 219 70 L219 680 C219 710 239 730 269 730 L294 730 C299.52 730 304 734.48 304 740 C304 745.52 299.52 750 294 750 L86 750 C80.4803 750 76 745.52 76 740 C76 734.48 80.4803 730 86 730 L111 730 C141 730 161 710 161 680 L161 70 C161 40 141 20 111 20 L86 20 C80.4803 20 76 15.5197 76 10 C76 4.4803 80.4803 0 86 0 L294 0 C299.52 0 304 4.4803 304 10 C304 15.5197 299.52 20 294 20 L294 20 Z " />
<glyph glyph-name="Iacute" unicode="&#xcd;" horiz-adv-x="364" d="M200.707 816.28 L336 936 C378 974 406 1001 406 1005 C406 1018 395 1029 382 1029 C378 1029 351 1001 313 959 L193.28 823.707 C191.473 821.665 191.572 818.428 193.5 816.5 C195.428 814.572 198.665 814.473 200.707 816.28 L200.707 816.28 Z M294 20 L269 20 C239 20 219 40 219 70 L219 680 C219 710 239 730 269 730 L294 730 C299.52 730 304 734.48 304 740 C304 745.52 299.52 750 294 750 L86 750 C80.4803 750 76 745.52 76 740 C76 734.48 80.4803 730 86 730 L111 730 C141 730 161 710 161 680 L161 70 C161 40 141 20 111 20 L86 20 C80.4803 20 76 15.5197 76 10 C76 4.4803 80.4803 0 86 0 L294 0 C299.52 0 304 4.4803 304 10 C304 15.5197 299.52 20 294 20 L294 20 Z " />
<glyph glyph-name="Icircumflex" unicode="&#xce;" horiz-adv-x="364" d="M205.892 1017.8 C201.586 1023.69 195.077 1033 190 1033 C184.923 1033 178.414 1023.69 174.108 1017.8 C174.077 1017.76 170.366 1012.48 170.337 1012.44 L43.3403 816.609 C42.0498 814.619 42.5701 811.879 44.5 810.5 C46.4255 809.125 49.2491 809.478 50.7765 811.285 L143.076 920.485 C168.615 950.699 211.385 950.699 236.924 920.485 L329.223 811.285 C330.751 809.478 333.575 809.125 335.5 810.5 C337.43 811.879 337.95 814.619 336.66 816.609 L209.663 1012.44 C209.634 1012.48 205.923 1017.76 205.892 1017.8 L205.892 1017.8 Z M294 20 L269 20 C239 20 219 40 219 70 L219 680 C219 710 239 730 269 730 L294 730 C299.52 730 304 734.48 304 740 C304 745.52 299.52 750 294 750 L86 750 C80.4803 750 76 745.52 76 740 C76 734.48 80.4803 730 86 730 L111 730 C141 730 161 710 161 680 L161 70 C161 40 141 20 111 20 L86 20 C80.4803 20 76 15.5197 76 10 C76 4.4803 80.4803 0 86 0 L294 0 C299.52 0 304 4.4803 304 10 C304 15.5197 299.52 20 294 20 L294 20 Z " />
<glyph glyph-name="Idieresis" unicode="&#xcf;" horiz-adv-x="364" d="M291 897 C291 941 226 940 226 897 C226 856 291 855 291 897 L291 897 Z M154 897 C154 940 89 941 89 897 C89 855 154 856 154 897 L154 897 Z M294 20 L269 20 C239 20 219 40 219 70 L219 680 C219 710 239 730 269 730 L294 730 C299.52 730 304 734.48 304 740 C304 745.52 299.52 750 294 750 L86 750 C80.4803 750 76 745.52 76 740 C76 734.48 80.4803 730 86 730 L111 730 C141 730 161 710 161 680 L161 70 C161 40 141 20 111 20 L86 20 C80.4803 20 76 15.5197 76 10 C76 4.4803 80.4803 0 86 0 L294 0 C299.52 0 304 4.4803 304 10 C304 15.5197 299.52 20 294 20 L294 20 Z " />
<glyph glyph-name="Ntilde" unicode="&#xd1;" horiz-adv-x="766" d="M239.134 875.893 C240.822 912.535 258.35 936 284 936 C338 936 409 871 463 871 C502.975 871 530.592 907.124 531.948 961.761 C532.011 964.306 530.045 966 527.5 966 C525.15 966 522.985 963.038 522.859 960.691 C521.075 927.66 502.55 906 475 906 C421 906 350 971 296 971 C257 971 231.309 932.975 230.049 874.535 C229.994 871.999 231.963 870 234.5 870 C236.87 870 239.025 873.526 239.134 875.893 L239.134 875.893 Z M35.5131 730 L61 730 C84.925 730 110.211 717.749 129.559 697.738 C135.349 691.75 141 675.125 141 666.795 L141 70 C141 40 121 20 91 20 L66 20 C60.4803 20 56 15.5197 56 10 C56 4.4803 60.4803 0 66 0 L233 0 C238.52 0 243 4.4803 243 10 C243 15.5197 238.52 20 233 20 L208 20 C178 20 158 40 158 70 L156.45 528.732 C156.312 569.653 211.37 579.839 234.23 545.899 C357.181 363.361 480.25 180.5 604 -1 C605.541 -3.26082 607.264 -1 610 -1 C613.312 -1 616.016 1.68819 616.035 4.9999 L620 679 C620 709 640 729 670 729 L695 729 C700.52 729 705 733.48 705 739 C705 744.52 700.52 749 695 749 L528 749 C522.48 749 518 744.52 518 739 C518 733.48 522.48 729 528 729 L553 729 C583 729 603 709 603 679 L603.993 108.301 C603.995 106.925 602.3 106.38 601.5 107.5 L599 111 L187.266 721.898 C178.905 734.303 151.277 749 136.317 749 L34.5131 749 C29.2694 749 25.2244 744.736 25.5 739.5 C25.7756 734.264 30.2694 730 35.5131 730 L35.5131 730 Z " />
<glyph glyph-name="Ograve" unicode="&#xd2;" horiz-adv-x="806" d="M125 375 C125 597 234 745 398 745 C571 745 687 597 687 375 C687 153 570 5 394 5 C233 5 125 153 125 375 L125 375 Z M61 375 C61 144 193 -10 391 -10 C607 -10 751 144 751 375 C751 606 611 760 401 760 C197 760 61 606 61 375 L61 375 Z M195 1005 C195 999 223 972 265 936 L400.293 816.28 C402.335 814.473 405.572 814.572 407.5 816.5 C409.428 818.428 409.527 821.665 407.72 823.707 L288 959 C252 1001 225 1029 219 1029 C206 1029 195 1018 195 1005 L195 1005 Z " />
<glyph glyph-name="Oacute" unicode="&#xd3;" horiz-adv-x="806" d="M411.707 816.28 L547 936 C589 974 617 1001 617 1005 C617 1018 606 1029 593 1029 C589 1029 562 1001 524 959 L404.28 823.707 C402.473 821.665 402.572 818.428 404.5 816.5 C406.428 814.572 409.665 814.473 411.707 816.28 L411.707 816.28 Z M125 375 C125 597 234 745 398 745 C571 745 687 597 687 375 C687 153 570 5 394 5 C233 5 125 153 125 375 L125 375 Z M61 375 C61 144 193 -10 391 -10 C607 -10 751 144 751 375 C751 606 611 760 401 760 C197 760 61 606 61 375 L61 375 Z " />
<glyph glyph-name="Ocircumflex" unicode="&#xd4;" horiz-adv-x="806" d="M125 375 C125 597 234 745 398 745 C571 745 687 597 687 375 C687 153 570 5 394 5 C233 5 125 153 125 375 L125 375 Z M61 375 C61 144 193 -10 391 -10 C607 -10 751 144 751 375 C751 606 611 760 401 760 C197 760 61 606 61 375 L61 375 Z M416.892 1017.8 C412.586 1023.69 406.077 1033 401 1033 C395.923 1033 389.414 1023.69 385.108 1017.8 C385.077 1017.76 381.366 1012.48 381.337 1012.44 L254.34 816.609 C253.05 814.619 253.57 811.879 255.5 810.5 C257.425 809.125 260.249 809.478 261.777 811.285 L354.076 920.485 C379.615 950.699 422.385 950.699 447.924 920.485 L540.223 811.285 C541.751 809.478 544.575 809.125 546.5 810.5 C548.43 811.879 548.95 814.619 547.66 816.609 L420.663 1012.44 C420.634 1012.48 416.923 1017.76 416.892 1017.8 L416.892 1017.8 Z " />
<glyph glyph-name="Otilde" unicode="&#xd5;" horiz-adv-x="806" d="M259.134 875.893 C260.822 912.535 278.35 936 304 936 C358 936 429 871 483 871 C522.975 871 550.592 907.124 551.948 961.761 C552.011 964.306 550.045 966 547.5 966 C545.15 966 542.985 963.038 542.859 960.691 C541.075 927.66 522.55 906 495 906 C441 906 370 971 316 971 C277 971 251.309 932.975 250.049 874.535 C249.994 871.999 251.963 870 254.5 870 C256.87 870 259.025 873.526 259.134 875.893 L259.134 875.893 Z M125 375 C125 597 234 745 398 745 C571 745 687 597 687 375 C687 153 570 5 394 5 C233 5 125 153 125 375 L125 375 Z M61 375 C61 144 193 -10 391 -10 C607 -10 751 144 751 375 C751 606 611 760 401 760 C197 760 61 606 61 375 L61 375 Z " />
<glyph glyph-name="Odieresis" unicode="&#xd6;" horiz-adv-x="806" d="M502 897 C502 941 437 940 437 897 C437 856 502 855 502 897 L502 897 Z M365 897 C365 940 300 941 300 897 C300 855 365 856 365 897 L365 897 Z M125 375 C125 597 234 745 398 745 C571 745 687 597 687 375 C687 153 570 5 394 5 C233 5 125 153 125 375 L125 375 Z M61 375 C61 144 193 -10 391 -10 C607 -10 751 144 751 375 C751 606 611 760 401 760 C197 760 61 606 61 375 L61 375 Z " />
<glyph glyph-name="Oslash" unicode="&#xd8;" horiz-adv-x="806" d="M79.7175 -9.24015 L135.435 53.1389 C148.6 67.8778 179.311 67.1768 194.822 54.9316 C247.759 13.1412 314.275 -10 391 -10 C607 -10 751 144 751 375 C751 464.925 729.901 543.279 691.632 605.571 C681.194 622.563 680.636 660.409 693.961 675.245 L753.01 740.991 C757.972 746.516 757.52 755.032 752 760 C746.48 764.968 737.977 764.511 733.021 758.981 L676.025 695.385 C662.196 679.956 629.397 680.491 612.899 693.026 C556.11 736.178 484.5 760 402 760 C198 760 62 606 62 375 C62 283.425 82.4187 204.101 119.887 141.521 C129.987 124.652 130.416 86.5922 117.301 71.9431 L60.7286 8.74999 C55.9126 3.37043 56.2584 -5.03425 61.5 -10 C66.7415 -14.9656 74.9078 -14.625 79.7175 -9.24015 L79.7175 -9.24015 Z M588.289 596.837 L202.592 166.333 C189.424 151.635 170.192 155.983 162.55 174.177 C138.932 230.398 126 298.275 126 375 C126 597 235 745 399 745 C474.9 745 539.91 716.414 588.976 665.418 C608.884 644.727 607.449 618.223 588.289 596.837 L588.289 596.837 Z M649.97 572.348 C674.387 516.952 688 449.9 688 374 C688 152 571 4 395 4 C325.7 4 265.929 31.9056 220.74 81.5402 C202.336 101.754 204.167 127.348 222.409 147.709 L609.536 579.81 C622.754 594.564 641.98 590.474 649.97 572.348 L649.97 572.348 Z " />
<glyph glyph-name="Ugrave" unicode="&#xd9;" horiz-adv-x="698" d="M146 1005 C146 999 174 972 216 936 L351.548 816.055 C353.453 814.369 356.344 814.568 358 816.5 C359.639 818.413 359.621 821.571 357.959 823.465 L239 959 C203 1001 177 1029 171 1029 C158 1029 146 1018 146 1005 L146 1005 Z M658.303 47.5065 L633 41 C603 33 583 48 583 78 L583 688.56 C583 722.473 555.473 750 521.56 750 L449 750 C443.48 750 439 745.52 439 740 C439 734.48 443.48 730 449 730 L474 730 C504 730 524 710 524 680 L524 189.472 C524 185.43 519.371 166.438 517.458 162.879 C473.585 81.2475 384 28 289 28 C223 28 179 105 179 220 L179 688.56 C179 722.473 151.473 750 117.56 750 L45 750 C39.4803 750 35 745.52 35 740 C35 734.48 39.4803 730 45 730 L70 730 C100 730 120 710 120 680 L120 220 C120 82 178 -10 265 -10 C356.575 -10 443.386 33.56 495.672 102.15 C502.601 111.24 524 108.082 524 96.6526 L524 15 C524 6.72045 530.72 0 539 0 L545.772 0 C546.967 0 560.785 1.85049 561.938 2.16491 L576 6 C602.25 13 632.328 20.7656 658.195 27.2871 C663.44 28.6093 668.77 34.598 668.5 40 C668.23 45.4078 663.547 48.8549 658.303 47.5065 L658.303 47.5065 Z " />
<glyph glyph-name="Uacute" unicode="&#xda;" horiz-adv-x="698" d="M361.452 816.055 L497 936 C539 974 567 1001 567 1005 C567 1018 556 1029 542 1029 C538 1029 512 1001 474 959 L355.041 823.465 C353.379 821.571 353.361 818.413 355 816.5 C356.656 814.568 359.547 814.369 361.452 816.055 L361.452 816.055 Z M658.303 47.5065 L633 41 C603 33 583 48 583 78 L583 688.56 C583 722.473 555.473 750 521.56 750 L449 750 C443.48 750 439 745.52 439 740 C439 734.48 443.48 730 449 730 L474 730 C504 730 524 710 524 680 L524 189.472 C524 185.43 519.371 166.438 517.458 162.879 C473.585 81.2475 384 28 289 28 C223 28 179 105 179 220 L179 688.56 C179 722.473 151.473 750 117.56 750 L45 750 C39.4803 750 35 745.52 35 740 C35 734.48 39.4803 730 45 730 L70 730 C100 730 120 710 120 680 L120 220 C120 82 178 -10 265 -10 C356.575 -10 443.386 33.56 495.672 102.15 C502.601 111.24 524 108.082 524 96.6526 L524 15 C524 6.72045 530.72 0 539 0 L545.772 0 C546.967 0 560.785 1.85049 561.938 2.16491 L576 6 C602.25 13 632.328 20.7656 658.195 27.2871 C663.44 28.6093 668.77 34.598 668.5 40 C668.23 45.4078 663.547 48.8549 658.303 47.5065 L658.303 47.5065 Z " />
<glyph glyph-name="Ucircumflex" unicode="&#xdb;" horiz-adv-x="698" d="M366.895 1017.8 C362.609 1023.69 356.231 1033 352 1033 C346.923 1033 340.414 1023.69 336.108 1017.8 C336.081 1017.76 332.412 1012.57 332.387 1012.53 L204.353 816.601 C203.055 814.615 203.57 811.879 205.5 810.5 C207.426 809.124 210.244 809.481 211.767 811.293 L304.125 921.213 C329.627 951.563 372.461 951.637 398.067 921.375 L491.222 811.283 C492.75 809.477 495.575 809.125 497.5 810.5 C499.43 811.879 499.945 814.615 498.647 816.601 L370.613 1012.53 C370.59 1012.57 366.92 1017.77 366.895 1017.8 L366.895 1017.8 Z M658.303 47.5065 L633 41 C603 33 583 48 583 78 L583 688.56 C583 722.473 555.473 750 521.56 750 L449 750 C443.48 750 439 745.52 439 740 C439 734.48 443.48 730 449 730 L474 730 C504 730 524 710 524 680 L524 189.472 C524 185.43 519.371 166.438 517.458 162.879 C473.585 81.2475 384 28 289 28 C223 28 179 105 179 220 L179 688.56 C179 722.473 151.473 750 117.56 750 L45 750 C39.4803 750 35 745.52 35 740 C35 734.48 39.4803 730 45 730 L70 730 C100 730 120 710 120 680 L120 220 C120 82 178 -10 265 -10 C356.575 -10 443.386 33.56 495.672 102.15 C502.601 111.24 524 108.082 524 96.6526 L524 15 C524 6.72045 530.72 0 539 0 L545.772 0 C546.967 0 560.785 1.85049 561.938 2.16491 L576 6 C602.25 13 632.328 20.7656 658.195 27.2871 C663.44 28.6093 668.77 34.598 668.5 40 C668.23 45.4078 663.547 48.8549 658.303 47.5065 L658.303 47.5065 Z " />
<glyph glyph-name="Udieresis" unicode="&#xdc;" horiz-adv-x="698" d="M453 897 C453 940 388 941 388 897 C388 855 453 856 453 897 L453 897 Z M315 897 C315 941 250 940 250 897 C250 856 315 855 315 897 L315 897 Z M658.303 47.5065 L633 41 C603 33 583 48 583 78 L583 688.56 C583 722.473 555.473 750 521.56 750 L449 750 C443.48 750 439 745.52 439 740 C439 734.48 443.48 730 449 730 L474 730 C504 730 524 710 524 680 L524 189.472 C524 185.43 519.371 166.438 517.458 162.879 C473.585 81.2475 384 28 289 28 C223 28 179 105 179 220 L179 688.56 C179 722.473 151.473 750 117.56 750 L45 750 C39.4803 750 35 745.52 35 740 C35 734.48 39.4803 730 45 730 L70 730 C100 730 120 710 120 680 L120 220 C120 82 178 -10 265 -10 C356.575 -10 443.386 33.56 495.672 102.15 C502.601 111.24 524 108.082 524 96.6526 L524 15 C524 6.72045 530.72 0 539 0 L545.772 0 C546.967 0 560.785 1.85049 561.938 2.16491 L576 6 C602.25 13 632.328 20.7656 658.195 27.2871 C663.44 28.6093 668.77 34.598 668.5 40 C668.23 45.4078 663.547 48.8549 658.303 47.5065 L658.303 47.5065 Z " />
<glyph glyph-name="Yacute" unicode="&#xdd;" horiz-adv-x="711" d="M371.452 816.055 L507 936 C549 974 577 1001 577 1005 C577 1018 566 1029 552 1029 C548 1029 522 1001 484 959 L365.041 823.465 C363.379 821.571 363.361 818.413 365 816.5 C366.656 814.568 369.547 814.369 371.452 816.055 L371.452 816.055 Z M242 750 L30 750 C24.4803 750 20 745.52 20 740 L20 737.5 C20 733.36 23.3602 730 27.5 730 L35 730 C68 730 103 708 123 675 L323.15 343.651 C325.676 339.47 332 316.769 332 311.884 L332 90 C332 48 304 20 262 20 L237 20 C231.48 20 227 15.5197 227 10 C227 4.4803 231.48 0 237 0 L486 0 C491.52 0 496 4.4803 496 10 C496 15.5197 491.52 20 486 20 L461 20 C419 20 391 48 391 90 L391 315.273 C391 319.444 398.446 344.592 400.45 348.25 C460.3 457.498 520.15 566.7 580 675 C598 708 632 730 665 730 L695 730 C700.52 730 705 734.48 705 740 C705 745.52 700.52 750 695 750 L477 750 C471.48 750 467 745.52 467 740 C467 734.48 471.48 730 477 730 L527 730 C560 730 570 708 553 675 L413.824 405.76 C400.353 379.7 366.263 381.582 351.243 406.781 C297.992 496.119 243.975 585.9 192 675 C172 708 181 730 214 730 L242 730 C247.52 730 252 734.48 252 740 C252 745.52 247.52 750 242 750 L242 750 Z " />
<glyph glyph-name="agrave" unicode="&#xe0;" horiz-adv-x="513" d="M517.5 80 C514.794 81.4762 511.183 78.993 510.336 76.0287 C502.586 48.8935 481.923 31 457 31 C423 31 400 51 400 81 C400 81 400 360 399 358 C399 463 345 510 263 510 C149 510 73 414 73 360 C73 339 83 325 98 325 C118 325 131 340 131 350 C131 363 111 382 111 392 C111 429 165 495 245 495 C308 495 350 458 350 377 L350 310.406 C350 286.7 321.449 256.234 298.842 249.099 C100.915 186.629 53 157.7 53 80 C53 26 99 -10 168 -10 C210.3 -10 263.13 11.87 327.219 67.274 C334.651 73.6988 349.706 69.1181 351.816 59.5232 C360.616 19.5025 389.8 -5 436 -5 C476.85 -5 510.029 24.7825 520.961 69.7721 C521.798 73.2166 520.612 78.3026 517.5 80 L517.5 80 Z M56 755 C56 749 84 722 126 686 L261.293 566.28 C263.335 564.473 266.572 564.572 268.5 566.5 C270.428 568.428 270.527 571.665 268.72 573.707 L149 709 C113 751 86 779 80 779 C67 779 56 768 56 755 L56 755 Z M349 176 L349 125.346 C349 113.629 339.56 90.0359 330.701 82.367 C276.71 35.63 230.9 17 194 17 C139 17 103 45 103 86 C103 157.75 138.984 185.094 281.295 231.674 C320.452 244.49 349 217.201 349 176 L349 176 Z " />
<glyph glyph-name="aacute" unicode="&#xe1;" horiz-adv-x="513" d="M273.707 566.28 L409 686 C451 724 479 751 479 755 C479 768 468 779 455 779 C451 779 424 751 386 709 L266.28 573.707 C264.473 571.665 264.572 568.428 266.5 566.5 C268.428 564.572 271.665 564.473 273.707 566.28 L273.707 566.28 Z M517.5 80 C514.794 81.4762 511.183 78.993 510.336 76.0287 C502.586 48.8935 481.923 31 457 31 C423 31 400 51 400 81 C400 81 400 360 399 358 C399 463 345 510 263 510 C149 510 73 414 73 360 C73 339 83 325 98 325 C118 325 131 340 131 350 C131 363 111 382 111 392 C111 429 165 495 245 495 C308 495 350 458 350 377 L350 310.406 C350 286.7 321.449 256.234 298.842 249.099 C100.915 186.629 53 157.7 53 80 C53 26 99 -10 168 -10 C210.3 -10 263.13 11.87 327.219 67.274 C334.651 73.6988 349.706 69.1181 351.816 59.5232 C360.616 19.5025 389.8 -5 436 -5 C476.85 -5 510.029 24.7825 520.961 69.7721 C521.798 73.2166 520.612 78.3026 517.5 80 L517.5 80 Z M349 176 L349 125.346 C349 113.629 339.56 90.0359 330.701 82.367 C276.71 35.63 230.9 17 194 17 C139 17 103 45 103 86 C103 157.75 138.984 185.094 281.295 231.674 C320.452 244.49 349 217.201 349 176 L349 176 Z " />
<glyph glyph-name="acircumflex" unicode="&#xe2;" horiz-adv-x="513" d="M517.5 80 C514.794 81.4762 511.183 78.993 510.336 76.0287 C502.586 48.8935 481.923 31 457 31 C423 31 400 51 400 81 C400 81 400 360 399 358 C399 463 345 510 263 510 C149 510 73 414 73 360 C73 339 83 325 98 325 C118 325 131 340 131 350 C131 363 111 382 111 392 C111 429 165 495 245 495 C308 495 350 458 350 377 L350 310.406 C350 286.7 321.449 256.234 298.842 249.099 C100.915 186.629 53 157.7 53 80 C53 26 99 -10 168 -10 C210.3 -10 263.13 11.87 327.219 67.274 C334.651 73.6988 349.706 69.1181 351.816 59.5232 C360.616 19.5025 389.8 -5 436 -5 C476.85 -5 510.029 24.7825 520.961 69.7721 C521.798 73.2166 520.612 78.3026 517.5 80 L517.5 80 Z M277.892 767.799 C273.586 773.692 267.077 783 262 783 C256.923 783 250.414 773.692 246.108 767.799 C246.077 767.757 242.366 762.48 242.337 762.436 L115.34 566.609 C114.05 564.619 114.57 561.879 116.5 560.5 C118.425 559.125 121.249 559.478 122.777 561.285 L215.076 670.485 C240.615 700.699 283.385 700.699 308.924 670.485 L401.223 561.285 C402.751 559.478 405.575 559.125 407.5 560.5 C409.43 561.879 409.95 564.619 408.66 566.609 L281.663 762.436 C281.634 762.48 277.923 767.757 277.892 767.799 L277.892 767.799 Z M349 176 L349 125.346 C349 113.629 339.56 90.0359 330.701 82.367 C276.71 35.63 230.9 17 194 17 C139 17 103 45 103 86 C103 157.75 138.984 185.094 281.295 231.674 C320.452 244.49 349 217.201 349 176 L349 176 Z " />
<glyph glyph-name="atilde" unicode="&#xe3;" horiz-adv-x="513" d="M121.134 625.893 C122.822 662.535 140.35 686 166 686 C220 686 291 621 345 621 C384.975 621 412.592 657.124 413.948 711.761 C414.011 714.306 412.045 716 409.5 716 C407.15 716 404.985 713.038 404.859 710.691 C403.075 677.66 384.55 656 357 656 C303 656 232 721 178 721 C139 721 113.309 682.975 112.049 624.535 C111.994 621.999 113.963 620 116.5 620 C118.87 620 121.025 623.526 121.134 625.893 L121.134 625.893 Z M517.5 80 C514.794 81.4762 511.183 78.993 510.336 76.0287 C502.586 48.8935 481.923 31 457 31 C423 31 400 51 400 81 C400 81 400 360 399 358 C399 463 345 510 263 510 C149 510 73 414 73 360 C73 339 83 325 98 325 C118 325 131 340 131 350 C131 363 111 382 111 392 C111 429 165 495 245 495 C308 495 350 458 350 377 L350 310.406 C350 286.7 321.449 256.234 298.842 249.099 C100.915 186.629 53 157.7 53 80 C53 26 99 -10 168 -10 C210.3 -10 263.13 11.87 327.219 67.274 C334.651 73.6988 349.706 69.1181 351.816 59.5232 C360.616 19.5025 389.8 -5 436 -5 C476.85 -5 510.029 24.7825 520.961 69.7721 C521.798 73.2166 520.612 78.3026 517.5 80 L517.5 80 Z M349 176 L349 125.346 C349 113.629 339.56 90.0359 330.701 82.367 C276.71 35.63 230.9 17 194 17 C139 17 103 45 103 86 C103 157.75 138.984 185.094 281.295 231.674 C320.452 244.49 349 217.201 349 176 L349 176 Z " />
<glyph glyph-name="adieresis" unicode="&#xe4;" horiz-adv-x="513" d="M364 647 C364 691 299 690 299 647 C299 606 364 605 364 647 L364 647 Z M227 647 C227 690 162 691 162 647 C162 605 227 606 227 647 L227 647 Z M517.5 80 C514.794 81.4762 511.183 78.993 510.336 76.0287 C502.586 48.8935 481.923 31 457 31 C423 31 400 51 400 81 C400 81 400 360 399 358 C399 463 345 510 263 510 C149 510 73 414 73 360 C73 339 83 325 98 325 C118 325 131 340 131 350 C131 363 111 382 111 392 C111 429 165 495 245 495 C308 495 350 458 350 377 L350 310.406 C350 286.7 321.449 256.234 298.842 249.099 C100.915 186.629 53 157.7 53 80 C53 26 99 -10 168 -10 C210.3 -10 263.13 11.87 327.219 67.274 C334.651 73.6988 349.706 69.1181 351.816 59.5232 C360.616 19.5025 389.8 -5 436 -5 C476.85 -5 510.029 24.7825 520.961 69.7721 C521.798 73.2166 520.612 78.3026 517.5 80 L517.5 80 Z M349 176 L349 125.346 C349 113.629 339.56 90.0359 330.701 82.367 C276.71 35.63 230.9 17 194 17 C139 17 103 45 103 86 C103 157.75 138.984 185.094 281.295 231.674 C320.452 244.49 349 217.201 349 176 L349 176 Z " />
<glyph glyph-name="aring" unicode="&#xe5;" horiz-adv-x="513" d="M181 655 C181 705 214 738 263 738 C312 738 345 705 345 655 C345 610 307 572 263 572 C219 572 181 610 181 655 L181 655 Z M167 655 C167 604 211 560 263 560 C315 560 359 604 359 655 C359 712 321 750 263 750 C205 750 167 712 167 655 L167 655 Z M517.5 80 C514.794 81.4762 511.183 78.993 510.336 76.0287 C502.586 48.8935 481.923 31 457 31 C423 31 400 51 400 81 C400 81 400 360 399 358 C399 463 345 510 263 510 C149 510 73 414 73 360 C73 339 83 325 98 325 C118 325 131 340 131 350 C131 363 111 382 111 392 C111 429 165 495 245 495 C308 495 350 458 350 377 L350 310.406 C350 286.7 321.449 256.234 298.842 249.099 C100.915 186.629 53 157.7 53 80 C53 26 99 -10 168 -10 C210.3 -10 263.13 11.87 327.219 67.274 C334.651 73.6988 349.706 69.1181 351.816 59.5232 C360.616 19.5025 389.8 -5 436 -5 C476.85 -5 510.029 24.7825 520.961 69.7721 C521.798 73.2166 520.612 78.3026 517.5 80 L517.5 80 Z M349 176 L349 125.346 C349 113.629 339.56 90.0359 330.701 82.367 C276.71 35.63 230.9 17 194 17 C139 17 103 45 103 86 C103 157.75 138.984 185.094 281.295 231.674 C320.452 244.49 349 217.201 349 176 L349 176 Z " />
<glyph glyph-name="egrave" unicode="&#xe8;" horiz-adv-x="530" d="M90 755 C90 749 118 722 160 686 L295.293 566.28 C297.335 564.473 300.572 564.572 302.5 566.5 C304.428 568.428 304.527 571.665 302.72 573.707 L183 709 C147 751 120 779 114 779 C101 779 90 768 90 755 L90 755 Z M117.748 340 L438.016 340 C477.681 340 498.821 360.818 483.466 397.391 C449.904 477.33 381.8 510 296 510 C145 510 45 433 45 235 C45 88 136 -10 273 -10 C371 -10 458 48 489 134 C489.56 135.554 487.629 134.229 486 134.5 C484.452 134.758 481.686 131.47 481.096 130.017 C454.991 65.7781 376.65 23 285 23 C173 23 98 116 98 255 C98 281.811 99.7549 305.814 103.265 327.597 C104.413 334.723 110.53 340 117.748 340 L117.748 340 Z M390.34 354.527 L162.965 352.485 C129.512 352.184 111.69 371.198 125.974 401.449 C158.535 470.414 218.1 499 294 499 C352.575 499 400.941 471.094 428.428 403.491 C440.659 373.411 422.811 354.819 390.34 354.527 L390.34 354.527 Z " />
<glyph glyph-name="eacute" unicode="&#xe9;" horiz-adv-x="530" d="M306.707 566.28 L442 686 C484 724 512 751 512 755 C512 768 501 779 488 779 C484 779 457 751 419 709 L299.28 573.707 C297.473 571.665 297.572 568.428 299.5 566.5 C301.428 564.572 304.665 564.473 306.707 566.28 L306.707 566.28 Z M117.748 340 L438.016 340 C477.681 340 498.821 360.818 483.466 397.391 C449.904 477.33 381.8 510 296 510 C145 510 45 433 45 235 C45 88 136 -10 273 -10 C371 -10 458 48 489 134 C489.56 135.554 487.629 134.229 486 134.5 C484.452 134.758 481.686 131.47 481.096 130.017 C454.991 65.7781 376.65 23 285 23 C173 23 98 116 98 255 C98 281.811 99.7549 305.814 103.265 327.597 C104.413 334.723 110.53 340 117.748 340 L117.748 340 Z M390.34 354.527 L162.965 352.485 C129.512 352.184 111.69 371.198 125.974 401.449 C158.535 470.414 218.1 499 294 499 C352.575 499 400.941 471.094 428.428 403.491 C440.659 373.411 422.811 354.819 390.34 354.527 L390.34 354.527 Z " />
<glyph glyph-name="ecircumflex" unicode="&#xea;" horiz-adv-x="530" d="M311.892 767.799 C307.586 773.692 301.077 783 296 783 C290.923 783 284.414 773.692 280.108 767.799 C280.077 767.757 276.366 762.48 276.337 762.436 L149.34 566.609 C148.05 564.619 148.57 561.879 150.5 560.5 C152.425 559.125 155.249 559.478 156.777 561.285 L249.076 670.485 C274.615 700.699 317.385 700.699 342.924 670.485 L435.223 561.285 C436.751 559.478 439.575 559.125 441.5 560.5 C443.43 561.879 443.95 564.619 442.66 566.609 L315.663 762.436 C315.634 762.48 311.923 767.757 311.892 767.799 L311.892 767.799 Z M117.748 340 L438.016 340 C477.681 340 498.821 360.818 483.466 397.391 C449.904 477.33 381.8 510 296 510 C145 510 45 433 45 235 C45 88 136 -10 273 -10 C371 -10 458 48 489 134 C489.56 135.554 487.629 134.229 486 134.5 C484.452 134.758 481.686 131.47 481.096 130.017 C454.991 65.7781 376.65 23 285 23 C173 23 98 116 98 255 C98 281.811 99.7549 305.814 103.265 327.597 C104.413 334.723 110.53 340 117.748 340 L117.748 340 Z M390.34 354.527 L162.965 352.485 C129.512 352.184 111.69 371.198 125.974 401.449 C158.535 470.414 218.1 499 294 499 C352.575 499 400.941 471.094 428.428 403.491 C440.659 373.411 422.811 354.819 390.34 354.527 L390.34 354.527 Z " />
<glyph glyph-name="edieresis" unicode="&#xeb;" horiz-adv-x="530" d="M397 647 C397 691 332 690 332 647 C332 606 397 605 397 647 L397 647 Z M260 647 C260 690 195 691 195 647 C195 605 260 606 260 647 L260 647 Z M117.748 340 L438.016 340 C477.681 340 498.821 360.818 483.466 397.391 C449.904 477.33 381.8 510 296 510 C145 510 45 433 45 235 C45 88 136 -10 273 -10 C371 -10 458 48 489 134 C489.56 135.554 487.629 134.229 486 134.5 C484.452 134.758 481.686 131.47 481.096 130.017 C454.991 65.7781 376.65 23 285 23 C173 23 98 116 98 255 C98 281.811 99.7549 305.814 103.265 327.597 C104.413 334.723 110.53 340 117.748 340 L117.748 340 Z M390.34 354.527 L162.965 352.485 C129.512 352.184 111.69 371.198 125.974 401.449 C158.535 470.414 218.1 499 294 499 C352.575 499 400.941 471.094 428.428 403.491 C440.659 373.411 422.811 354.819 390.34 354.527 L390.34 354.527 Z " />
<glyph glyph-name="igrave" unicode="&#xec;" horiz-adv-x="294" d="M-47 756 C-47 750 -19 723 23 687 L158.293 567.28 C160.335 565.473 163.572 565.572 165.5 567.5 C167.428 569.428 167.527 572.665 165.72 574.707 L46 710 C10 752 -17 780 -23 780 C-36 780 -47 769 -47 756 L-47 756 Z M78.6782 458.516 L119 469 C128 472 134 468 134 459 L134 35 C134 26 128 20 119 20 L79 20 C73.4803 20 69 15.5197 69 10 C69 4.4803 73.4803 0 79 0 L239 0 C244.52 0 249 4.4803 249 10 C249 15.5197 244.52 20 239 20 L199 20 C190 20 184 26 184 35 L184 487.5 C184 494.4 178.4 500 171.5 500 L166.835 500 C165.715 500 151.51 498.043 150.428 497.758 C127.649 491.755 100.351 484.245 77.5723 478.242 C72.4324 476.887 69 471.315 69 466 C69 460.658 73.508 457.172 78.6782 458.516 L78.6782 458.516 Z " />
<glyph glyph-name="iacute" unicode="&#xed;" horiz-adv-x="294" d="M-47 756 C-47 750 -19 723 23 687 L158.293 567.28 C160.335 565.473 163.572 565.572 165.5 567.5 C167.428 569.428 167.527 572.665 165.72 574.707 L46 710 C10 752 -17 780 -23 780 C-36 780 -47 769 -47 756 L-47 756 Z M78.6782 458.516 L119 469 C128 472 134 468 134 459 L134 35 C134 26 128 20 119 20 L79 20 C73.4803 20 69 15.5197 69 10 C69 4.4803 73.4803 0 79 0 L239 0 C244.52 0 249 4.4803 249 10 C249 15.5197 244.52 20 239 20 L199 20 C190 20 184 26 184 35 L184 487.5 C184 494.4 178.4 500 171.5 500 L166.835 500 C165.715 500 151.51 498.043 150.428 497.758 C127.649 491.755 100.351 484.245 77.5723 478.242 C72.4324 476.887 69 471.315 69 466 C69 460.658 73.508 457.172 78.6782 458.516 L78.6782 458.516 Z " />
<glyph glyph-name="icircumflex" unicode="&#xee;" horiz-adv-x="294" d="M174.892 768.799 C170.586 774.692 164.077 784 159 784 C153.923 784 147.414 774.692 143.108 768.799 C143.077 768.757 139.366 763.48 139.337 763.436 L12.3403 567.609 C11.0498 565.619 11.5701 562.879 13.5 561.5 C15.4255 560.125 18.2491 560.478 19.7765 562.285 L112.076 671.485 C137.615 701.699 180.385 701.699 205.924 671.485 L298.223 562.285 C299.751 560.478 302.575 560.125 304.5 561.5 C306.43 562.879 306.95 565.619 305.66 567.609 L178.663 763.436 C178.634 763.48 174.923 768.757 174.892 768.799 L174.892 768.799 Z M78.6782 458.516 L119 469 C128 472 134 468 134 459 L134 35 C134 26 128 20 119 20 L79 20 C73.4803 20 69 15.5197 69 10 C69 4.4803 73.4803 0 79 0 L239 0 C244.52 0 249 4.4803 249 10 C249 15.5197 244.52 20 239 20 L199 20 C190 20 184 26 184 35 L184 487.5 C184 494.4 178.4 500 171.5 500 L166.835 500 C165.715 500 151.51 498.043 150.428 497.758 C127.649 491.755 100.351 484.245 77.5723 478.242 C72.4324 476.887 69 471.315 69 466 C69 460.658 73.508 457.172 78.6782 458.516 L78.6782 458.516 Z " />
<glyph glyph-name="idieresis" unicode="&#xef;" horiz-adv-x="294" d="M260 648 C260 692 195 691 195 648 C195 607 260 606 260 648 L260 648 Z M123 648 C123 691 58 692 58 648 C58 606 123 607 123 648 L123 648 Z M78.6782 458.516 L119 469 C128 472 134 468 134 459 L134 35 C134 26 128 20 119 20 L79 20 C73.4803 20 69 15.5197 69 10 C69 4.4803 73.4803 0 79 0 L239 0 C244.52 0 249 4.4803 249 10 C249 15.5197 244.52 20 239 20 L199 20 C190 20 184 26 184 35 L184 487.5 C184 494.4 178.4 500 171.5 500 L166.835 500 C165.715 500 151.51 498.043 150.428 497.758 C127.649 491.755 100.351 484.245 77.5723 478.242 C72.4324 476.887 69 471.315 69 466 C69 460.658 73.508 457.172 78.6782 458.516 L78.6782 458.516 Z " />
<glyph glyph-name="ntilde" unicode="&#xf1;" horiz-adv-x="535" d="M125.134 625.893 C126.823 662.535 144.35 686 170 686 C224 686 295 621 349 621 C388.975 621 415.641 657.124 416.95 711.761 C417.01 714.304 415.043 716 412.5 716 C410.15 716 407.985 713.038 407.859 710.691 C406.077 677.66 387.6 656 361 656 C307 656 235 721 181 721 C142.975 721 117.308 682.975 116.049 624.535 C115.994 621.999 117.963 620 120.5 620 C122.87 620 125.025 623.526 125.134 625.893 L125.134 625.893 Z M33.9925 463.7 L48 463 C75 462 93 443 93 416 L93 35 C93 26 87 20 78 20 L38 20 C32.4803 20 28 15.5197 28 10 C28 4.4803 32.4803 0 38 0 L198 0 C203.52 0 208 4.4803 208 10 C208 15.5197 203.52 20 198 20 L158 20 C149 20 143 26 143 35 L143 345.79 C143 351.066 148.981 372.222 151.808 376.678 C189.033 435.353 238.15 473 277 473 C352 473 390 416 390 330 L390 35 C390 26 384 20 375 20 L335 20 C329.48 20 325 15.5197 325 10 C325 4.4803 329.48 0 335 0 L495 0 C500.52 0 505 4.4803 505 10 C505 15.5197 500.52 20 495 20 L455 20 C446 20 440 26 440 35 L440 330 C440 438 394 510 306 510 C263.925 510 211.641 473.246 168.8 415.461 C161.497 405.61 143 409.878 143 422.141 L143 487.5 C143 494.4 137.4 500 130.5 500 L125.835 500 C124.715 500 110.51 498.043 109.428 497.758 C85.1796 491.368 55.8096 483.27 32.2224 477.1 C29.1297 476.291 28 473.197 28 470 C28 466.692 30.689 463.866 33.9925 463.7 L33.9925 463.7 Z " />
<glyph glyph-name="ograve" unicode="&#xf2;" horiz-adv-x="604" d="M100 250 C100 397 181 495 302 495 C423 495 504 397 504 250 C504 103 423 5 302 5 C181 5 100 103 100 250 L100 250 Z M45 250 C45 94 148 -10 302 -10 C456 -10 559 94 559 250 C559 406 456 510 302 510 C148 510 45 406 45 250 L45 250 Z M96 755 C96 749 124 722 166 686 L301.293 566.28 C303.335 564.473 306.572 564.572 308.5 566.5 C310.428 568.428 310.527 571.665 308.72 573.707 L189 709 C153 751 126 779 120 779 C107 779 96 768 96 755 L96 755 Z " />
<glyph glyph-name="oacute" unicode="&#xf3;" horiz-adv-x="604" d="M312.707 566.28 L448 686 C490 724 518 751 518 755 C518 768 507 779 494 779 C490 779 463 751 425 709 L305.28 573.707 C303.473 571.665 303.572 568.428 305.5 566.5 C307.428 564.572 310.665 564.473 312.707 566.28 L312.707 566.28 Z M100 250 C100 397 181 495 302 495 C423 495 504 397 504 250 C504 103 423 5 302 5 C181 5 100 103 100 250 L100 250 Z M45 250 C45 94 148 -10 302 -10 C456 -10 559 94 559 250 C559 406 456 510 302 510 C148 510 45 406 45 250 L45 250 Z " />
<glyph glyph-name="ocircumflex" unicode="&#xf4;" horiz-adv-x="604" d="M100 250 C100 397 181 495 302 495 C423 495 504 397 504 250 C504 103 423 5 302 5 C181 5 100 103 100 250 L100 250 Z M45 250 C45 94 148 -10 302 -10 C456 -10 559 94 559 250 C559 406 456 510 302 510 C148 510 45 406 45 250 L45 250 Z M317.892 767.799 C313.586 773.692 307.077 783 302 783 C296.923 783 290.414 773.692 286.108 767.799 C286.077 767.757 282.366 762.48 282.337 762.436 L155.34 566.609 C154.05 564.619 154.57 561.879 156.5 560.5 C158.425 559.125 161.249 559.478 162.777 561.285 L255.076 670.485 C280.615 700.699 323.385 700.699 348.924 670.485 L441.223 561.285 C442.751 559.478 445.575 559.125 447.5 560.5 C449.43 561.879 449.95 564.619 448.66 566.609 L321.663 762.436 C321.634 762.48 317.923 767.757 317.892 767.799 L317.892 767.799 Z " />
<glyph glyph-name="otilde" unicode="&#xf5;" horiz-adv-x="604" d="M160.134 625.893 C161.822 662.535 179.35 686 205 686 C259 686 330 621 384 621 C423.975 621 451.592 657.124 452.948 711.761 C453.011 714.306 451.045 716 448.5 716 C446.15 716 443.985 713.038 443.859 710.691 C442.075 677.66 423.55 656 396 656 C342 656 271 721 217 721 C178 721 152.309 682.975 151.049 624.535 C150.994 621.999 152.963 620 155.5 620 C157.87 620 160.025 623.526 160.134 625.893 L160.134 625.893 Z M100 250 C100 397 181 495 302 495 C423 495 504 397 504 250 C504 103 423 5 302 5 C181 5 100 103 100 250 L100 250 Z M45 250 C45 94 148 -10 302 -10 C456 -10 559 94 559 250 C559 406 456 510 302 510 C148 510 45 406 45 250 L45 250 Z " />
<glyph glyph-name="odieresis" unicode="&#xf6;" horiz-adv-x="604" d="M403 647 C403 691 338 690 338 647 C338 606 403 605 403 647 L403 647 Z M266 647 C266 690 201 691 201 647 C201 605 266 606 266 647 L266 647 Z M100 250 C100 397 181 495 302 495 C423 495 504 397 504 250 C504 103 423 5 302 5 C181 5 100 103 100 250 L100 250 Z M45 250 C45 94 148 -10 302 -10 C456 -10 559 94 559 250 C559 406 456 510 302 510 C148 510 45 406 45 250 L45 250 Z " />
<glyph glyph-name="oslash" unicode="&#xf8;" horiz-adv-x="604" d="M56.7554 -10.2446 L100.237 33.2371 C110.503 43.5034 135.261 42.9553 147.16 34.6359 C189.067 5.335 241.95 -11 303 -11 C457 -11 560 93 560 249 C560 316.5 541.37 374.28 507.755 417.966 C502.765 424.451 502.379 438.377 508.162 444.167 C525.651 461.679 543.605 479.754 561.6 498.392 C564.863 501.77 564.321 506.679 561 510 C557.698 513.302 552.844 513.751 549.6 510.392 C531.605 491.754 513.651 473.679 496.162 456.167 C490.344 450.342 476.445 450.939 469.995 456.054 C426.48 490.56 369.6 510 303 510 C149 510 46 406 46 250 C46 188.125 62.335 134.418 91.0744 92.2466 C99.1417 80.409 99.6061 55.6061 89.4768 45.4768 L45.7554 1.75543 C42.5816 -1.4184 42.467 -6.69131 45.5 -10 C48.533 -13.3087 53.5816 -13.4184 56.7554 -10.2446 L56.7554 -10.2446 Z M436.939 397.646 C321.028 280.07 224.717 182.822 156.044 113.27 C146.262 103.362 132.826 105.925 126.902 118.525 C109.529 155.476 100 199.675 100 250 C100 397 181 495 302 495 C355.625 495 401.423 475.943 436.024 441.758 C450.015 427.936 450.746 411.652 436.939 397.646 L436.939 397.646 Z M478.098 381.475 C495.471 344.524 505 300.325 505 250 C505 103 424 5 303 5 C249.375 5 203.918 24.0575 169.435 58.2419 C155.495 72.0616 157.943 91.0669 171.727 105.042 C239.277 173.527 333.342 268.888 445.939 383.143 C455.713 393.06 472.174 394.076 478.098 381.475 L478.098 381.475 Z " />
<glyph glyph-name="ugrave" unicode="&#xf9;" horiz-adv-x="526" d="M57 755 C57 749 85 722 127 686 L262.548 566.055 C264.453 564.369 267.344 564.568 269 566.5 C270.639 568.413 270.621 571.571 268.959 573.465 L150 709 C114 751 88 779 82 779 C69 779 57 768 57 755 L57 755 Z M500.407 44.0341 L486 40 C456 32 436 47 436 77 L436 442.5 C436 474.238 410.238 500 378.5 500 L331 500 C325.48 500 321 495.52 321 490 C321 484.48 325.48 480 331 480 L371 480 C380 480 386 474 386 465 L386 148.951 C386 145.413 382.881 129.151 381.308 125.982 C350.392 63.71 297.05 24 241 24 C180 24 139 78 139 159 L139 441.5 C139 473.238 113.238 499 81.5 499 L34 499 C28.4803 499 24 494.52 24 489 C24 483.48 28.4803 479 34 479 L74 479 C83 479 89 473 89 464 L89 159 C89 57 140 -11 217 -11 C273.925 -11 328.808 23.7119 365.365 80.2208 C370.253 87.7752 386 84.9946 386 75.9971 L386 10.5 C386 3.60037 391.6 -2 398.5 -2 L402.949 -2 C404.106 -2 416.793 -0.451591 417.91 -0.151906 C443.02 6.58109 473.57 14.9461 499.32 21.8711 C504.97 23.3905 511 30.1495 511 36 C511 41.8468 506.038 45.6105 500.407 44.0341 L500.407 44.0341 Z " />
<glyph glyph-name="uacute" unicode="&#xfa;" horiz-adv-x="526" d="M272.452 566.055 L408 686 C450 724 478 751 478 755 C478 768 467 779 453 779 C449 779 423 751 385 709 L266.041 573.465 C264.379 571.571 264.361 568.413 266 566.5 C267.656 564.568 270.547 564.369 272.452 566.055 L272.452 566.055 Z M500.407 44.0341 L486 40 C456 32 436 47 436 77 L436 442.5 C436 474.238 410.238 500 378.5 500 L331 500 C325.48 500 321 495.52 321 490 C321 484.48 325.48 480 331 480 L371 480 C380 480 386 474 386 465 L386 148.951 C386 145.413 382.881 129.151 381.308 125.982 C350.392 63.71 297.05 24 241 24 C180 24 139 78 139 159 L139 441.5 C139 473.238 113.238 499 81.5 499 L34 499 C28.4803 499 24 494.52 24 489 C24 483.48 28.4803 479 34 479 L74 479 C83 479 89 473 89 464 L89 159 C89 57 140 -11 217 -11 C273.925 -11 328.808 23.7119 365.365 80.2208 C370.253 87.7752 386 84.9946 386 75.9971 L386 10.5 C386 3.60037 391.6 -2 398.5 -2 L402.949 -2 C404.106 -2 416.793 -0.451591 417.91 -0.151906 C443.02 6.58109 473.57 14.9461 499.32 21.8711 C504.97 23.3905 511 30.1495 511 36 C511 41.8468 506.038 45.6105 500.407 44.0341 L500.407 44.0341 Z " />
<glyph glyph-name="ucircumflex" unicode="&#xfb;" horiz-adv-x="526" d="M277.895 767.799 C273.609 773.692 267.231 783 263 783 C257.923 783 251.414 773.692 247.108 767.799 C247.081 767.762 243.412 762.57 243.387 762.531 L115.353 566.601 C114.055 564.615 114.57 561.879 116.5 560.5 C118.426 559.124 121.244 559.481 122.767 561.293 L215.125 671.213 C240.627 701.563 283.461 701.637 309.067 671.375 L402.222 561.283 C403.75 559.477 406.575 559.125 408.5 560.5 C410.43 561.879 410.945 564.615 409.647 566.601 L281.613 762.531 C281.59 762.567 277.92 767.765 277.895 767.799 L277.895 767.799 Z M500.407 44.0341 L486 40 C456 32 436 47 436 77 L436 442.5 C436 474.238 410.238 500 378.5 500 L331 500 C325.48 500 321 495.52 321 490 C321 484.48 325.48 480 331 480 L371 480 C380 480 386 474 386 465 L386 148.951 C386 145.413 382.881 129.151 381.308 125.982 C350.392 63.71 297.05 24 241 24 C180 24 139 78 139 159 L139 441.5 C139 473.238 113.238 499 81.5 499 L34 499 C28.4803 499 24 494.52 24 489 C24 483.48 28.4803 479 34 479 L74 479 C83 479 89 473 89 464 L89 159 C89 57 140 -11 217 -11 C273.925 -11 328.808 23.7119 365.365 80.2208 C370.253 87.7752 386 84.9946 386 75.9971 L386 10.5 C386 3.60037 391.6 -2 398.5 -2 L402.949 -2 C404.106 -2 416.793 -0.451591 417.91 -0.151906 C443.02 6.58109 473.57 14.9461 499.32 21.8711 C504.97 23.3905 511 30.1495 511 36 C511 41.8468 506.038 45.6105 500.407 44.0341 L500.407 44.0341 Z " />
<glyph glyph-name="udieresis" unicode="&#xfc;" horiz-adv-x="526" d="M364 647 C364 690 299 691 299 647 C299 605 364 606 364 647 L364 647 Z M226 647 C226 691 161 690 161 647 C161 606 226 605 226 647 L226 647 Z M500.407 44.0341 L486 40 C456 32 436 47 436 77 L436 442.5 C436 474.238 410.238 500 378.5 500 L331 500 C325.48 500 321 495.52 321 490 C321 484.48 325.48 480 331 480 L371 480 C380 480 386 474 386 465 L386 148.951 C386 145.413 382.881 129.151 381.308 125.982 C350.392 63.71 297.05 24 241 24 C180 24 139 78 139 159 L139 441.5 C139 473.238 113.238 499 81.5 499 L34 499 C28.4803 499 24 494.52 24 489 C24 483.48 28.4803 479 34 479 L74 479 C83 479 89 473 89 464 L89 159 C89 57 140 -11 217 -11 C273.925 -11 328.808 23.7119 365.365 80.2208 C370.253 87.7752 386 84.9946 386 75.9971 L386 10.5 C386 3.60037 391.6 -2 398.5 -2 L402.949 -2 C404.106 -2 416.793 -0.451591 417.91 -0.151906 C443.02 6.58109 473.57 14.9461 499.32 21.8711 C504.97 23.3905 511 30.1495 511 36 C511 41.8468 506.038 45.6105 500.407 44.0341 L500.407 44.0341 Z " />
<glyph glyph-name="ydieresis" unicode="&#xff;" horiz-adv-x="508" d="M371 647 C371 691 306 690 306 647 C306 606 371 605 371 647 L371 647 Z M234 647 C234 690 169 691 169 647 C169 605 234 606 234 647 L234 647 Z M486.5 500 L360 500 C354.48 500 350 495.52 350 490 L350 484.5 C350 482.016 352.016 480 354.5 480 L359 480 C388 480 401 458 390 425 C390 425 304.95 165.8 280.65 92.819 C278.979 87.8019 270.607 88.4224 268.843 93.4072 C229.805 203.697 190 314.8 152 425 C140 458 152 480 181 480 L185.5 480 C187.984 480 190 482.016 190 484.5 L190 490 C190 495.52 185.52 500 180 500 L22 500 C16.4803 500 12 495.52 12 490 C12 484.842 15.8742 480.049 21.0212 479.711 C57.2656 477.332 83.05 460.15 96 425 L239.707 18.6246 C242.241 11.4568 242.248 -15.2695 239.692 -22.4297 C223.128 -68.8297 206.564 -115.795 190 -162 C183 -181 169 -194 163 -194 C141 -194 136 -175 114 -175 C89 -175 73 -191 73 -216 C73 -242 91 -260 118 -260 C140 -260 183 -223 203 -168 L293 87 C333 200 372 313 412 426 C424.95 461.15 450.734 478.332 486.979 480.711 C491.868 481.032 496 485.6 496 490.5 C496 495.744 491.744 500 486.5 500 L486.5 500 Z " />
<glyph glyph-name="Amacron" unicode="&#x100;" horiz-adv-x="753" d="M274.5 901 L539.5 901 C549.159 901 557 908.841 557 918.5 C557 928.159 549.159 936 539.5 936 L274.5 936 C264.841 936 257 928.159 257 918.5 C257 908.841 264.841 901 274.5 901 L274.5 901 Z M295 12.5 C295 19.3996 289.4 25 282.5 25 L268 25 C210 25 183 62 198 119 L238.295 244.361 C245.497 266.768 273.252 287 296.787 287 L482.84 287 C497.682 287 515.216 272.792 519.476 258.574 C532.889 213.811 546.625 168.725 559 125 C577 65 549 25 489 25 L474.5 25 C467.6 25 462 19.3996 462 12.5 C462 5.60037 467.6 0 474.5 0 L732.5 0 C739.4 0 745 5.60037 745 12.5 L745 18 C745 21.8638 741.864 25 738 25 L731 25 C685 25 641 62 622 119 L436 732 C436 732 428 770 424 770 L419 770 C421.806 752.226 407.985 737.952 382.449 732.91 C379.795 732.386 377.723 729.591 378.5 727 C378.973 725.422 378.886 718.606 378.372 717.04 L184 125 C164 65 111 25 51 25 L28.5 25 C21.6004 25 16 19.3996 16 12.5 C16 5.60037 21.6004 0 28.5 0 L282.5 0 C289.4 0 295 5.60037 295 12.5 L295 12.5 Z M282.818 382.255 L325.391 514.595 C344.336 573.487 425.004 572.661 442.74 513.394 L482.343 381.054 C494.853 339.25 467.117 302 423.482 302 L341.306 302 C297.007 302 269.252 340.085 282.818 382.255 L282.818 382.255 Z " />
<glyph glyph-name="amacron" unicode="&#x101;" horiz-adv-x="513" d="M130.5 651 L395.5 651 C405.159 651 413 658.841 413 668.5 C413 678.159 405.159 686 395.5 686 L130.5 686 C120.841 686 113 678.159 113 668.5 C113 658.841 120.841 651 130.5 651 L130.5 651 Z M517.5 80 C514.794 81.4762 511.183 78.993 510.336 76.0287 C502.586 48.8935 481.923 31 457 31 C423 31 400 51 400 81 C400 81 400 360 399 358 C399 463 345 510 263 510 C149 510 73 414 73 360 C73 339 83 325 98 325 C118 325 131 340 131 350 C131 363 111 382 111 392 C111 429 165 495 245 495 C308 495 350 458 350 377 L350 310.406 C350 286.7 321.449 256.234 298.842 249.099 C100.915 186.629 53 157.7 53 80 C53 26 99 -10 168 -10 C210.3 -10 263.13 11.87 327.219 67.274 C334.651 73.6988 349.706 69.1181 351.816 59.5232 C360.616 19.5025 389.8 -5 436 -5 C476.85 -5 510.029 24.7825 520.961 69.7721 C521.798 73.2166 520.612 78.3026 517.5 80 L517.5 80 Z M349 176 L349 125.346 C349 113.629 339.56 90.0359 330.701 82.367 C276.71 35.63 230.9 17 194 17 C139 17 103 45 103 86 C103 157.75 138.984 185.094 281.295 231.674 C320.452 244.49 349 217.201 349 176 L349 176 Z " />
<glyph glyph-name="Abreve" unicode="&#x102;" horiz-adv-x="753" d="M282.313 990.242 C287.514 928.926 336.8 889 407 889 C476.225 889 524.536 928.926 529.689 989.315 C529.934 992.184 527.865 994.213 525 994.5 C522.513 994.749 519.752 991.135 519.38 988.664 C513.447 949.27 469.7 924 407 924 C344.3 924 299.65 950.172 293.627 989.657 C293.214 992.365 290.228 995.748 287.5 995.5 C284.347 995.213 282.045 993.396 282.313 990.242 L282.313 990.242 Z M295 12.5 C295 19.3996 289.4 25 282.5 25 L268 25 C210 25 183 62 198 119 L238.295 244.361 C245.497 266.768 273.252 287 296.787 287 L482.84 287 C497.682 287 515.216 272.792 519.476 258.574 C532.889 213.811 546.625 168.725 559 125 C577 65 549 25 489 25 L474.5 25 C467.6 25 462 19.3996 462 12.5 C462 5.60037 467.6 0 474.5 0 L732.5 0 C739.4 0 745 5.60037 745 12.5 L745 18 C745 21.8638 741.864 25 738 25 L731 25 C685 25 641 62 622 119 L436 732 C436 732 428 770 424 770 L419 770 C421.806 752.226 407.985 737.952 382.449 732.91 C379.795 732.386 377.723 729.591 378.5 727 C378.973 725.422 378.886 718.606 378.372 717.04 L184 125 C164 65 111 25 51 25 L28.5 25 C21.6004 25 16 19.3996 16 12.5 C16 5.60037 21.6004 0 28.5 0 L282.5 0 C289.4 0 295 5.60037 295 12.5 L295 12.5 Z M282.818 382.255 L325.391 514.595 C344.336 573.487 425.004 572.661 442.74 513.394 L482.343 381.054 C494.853 339.25 467.117 302 423.482 302 L341.306 302 C297.007 302 269.252 340.085 282.818 382.255 L282.818 382.255 Z " />
<glyph glyph-name="abreve" unicode="&#x103;" horiz-adv-x="513" d="M139.313 740.242 C144.513 678.926 193.775 639 263 639 C332.225 639 381.487 678.926 386.687 739.315 C386.935 742.186 384.867 744.213 382 744.5 C379.519 744.748 376.75 741.129 376.373 738.664 C370.35 699.27 325.7 674 263 674 C200.3 674 155.65 700.173 149.627 739.657 C149.251 742.122 146.482 745.748 144 745.5 C141.134 745.213 139.069 743.111 139.313 740.242 L139.313 740.242 Z M517.5 80 C514.794 81.4762 511.183 78.993 510.336 76.0287 C502.586 48.8935 481.923 31 457 31 C423 31 400 51 400 81 C400 81 400 360 399 358 C399 463 345 510 263 510 C149 510 73 414 73 360 C73 339 83 325 98 325 C118 325 131 340 131 350 C131 363 111 382 111 392 C111 429 165 495 245 495 C308 495 350 458 350 377 L350 310.406 C350 286.7 321.449 256.234 298.842 249.099 C100.915 186.629 53 157.7 53 80 C53 26 99 -10 168 -10 C210.3 -10 263.13 11.87 327.219 67.274 C334.651 73.6988 349.706 69.1181 351.816 59.5232 C360.616 19.5025 389.8 -5 436 -5 C476.85 -5 510.029 24.7825 520.961 69.7721 C521.798 73.2166 520.612 78.3026 517.5 80 L517.5 80 Z M349 176 L349 125.346 C349 113.629 339.56 90.0359 330.701 82.367 C276.71 35.63 230.9 17 194 17 C139 17 103 45 103 86 C103 157.75 138.984 185.094 281.295 231.674 C320.452 244.49 349 217.201 349 176 L349 176 Z " />
<glyph glyph-name="Cacute" unicode="&#x106;" horiz-adv-x="706" d="M394.707 816.28 L530 936 C572 974 600 1001 600 1005 C600 1018 589 1029 576 1029 C572 1029 545 1001 507 959 L387.28 823.707 C385.473 821.665 385.572 818.428 387.5 816.5 C389.428 814.572 392.665 814.473 394.707 816.28 L394.707 816.28 Z M661 11.5131 L661 205 C661 211.072 656.072 216 650 216 C644.222 216 637.397 211.031 635.623 205.531 L629 185 C607 114 557 51 506 29 C469 13 427 4 378 4 C226 4 125 152 125 375 C125 597 231 745 389 745 C437 745 476 737 509 723 C558 702 606 639 628 565 L634.623 544.469 C636.397 538.969 643.222 534 649 534 C655.072 534 660 538.928 660 545 L660 736.5 C660 741.192 656.192 745 651.5 745 C646.963 745 641.992 741.168 640.837 736.78 L638 726 C631 697 603 693 567 715 C521 744 464 761 382 761 C188 761 59 607 59 376 C59 145 184 -9 372 -9 C452 -9 513 8 563 38 C601 60 630 54 637 23 L639.693 12.2291 C640.91 7.35879 646.487 2.76386 651.5 2.5 C656.736 2.2244 661 6.26943 661 11.5131 L661 11.5131 Z M650 130 L650 130 L650 130 L650 130 Z " />
<glyph glyph-name="Ccircumflex" unicode="&#x108;" horiz-adv-x="706" d="M661 11.5131 L661 205 C661 211.072 656.072 216 650 216 C644.222 216 637.397 211.031 635.623 205.531 L629 185 C607 114 557 51 506 29 C469 13 427 4 378 4 C226 4 125 152 125 375 C125 597 231 745 389 745 C437 745 476 737 509 723 C558 702 606 639 628 565 L634.623 544.469 C636.397 538.969 643.222 534 649 534 C655.072 534 660 538.928 660 545 L660 736.5 C660 741.192 656.192 745 651.5 745 C646.963 745 641.992 741.168 640.837 736.78 L638 726 C631 697 603 693 567 715 C521 744 464 761 382 761 C188 761 59 607 59 376 C59 145 184 -9 372 -9 C452 -9 513 8 563 38 C601 60 630 54 637 23 L639.693 12.2291 C640.91 7.35879 646.487 2.76386 651.5 2.5 C656.736 2.2244 661 6.26943 661 11.5131 L661 11.5131 Z M397.892 1018.8 C393.586 1024.69 387.077 1034 382 1034 C376.923 1034 370.414 1024.69 366.108 1018.8 C366.077 1018.76 362.366 1013.48 362.337 1013.44 L235.34 817.609 C234.05 815.619 234.57 812.879 236.5 811.5 C238.425 810.125 241.249 810.478 242.777 812.285 L335.076 921.485 C360.615 951.699 403.385 951.699 428.924 921.485 L521.223 812.285 C522.751 810.478 525.575 810.125 527.5 811.5 C529.43 812.879 529.95 815.619 528.66 817.609 L401.663 1013.44 C401.634 1013.48 397.923 1018.76 397.892 1018.8 L397.892 1018.8 Z M650 130 L650 130 L650 130 L650 130 Z " />
<glyph glyph-name="Cdot" unicode="&#x10a;" horiz-adv-x="706" d="M416 897 C416 940 352 940 352 897 C352 855 416 855 416 897 L416 897 Z M661 11.5131 L661 205 C661 211.072 656.072 216 650 216 C644.222 216 637.397 211.031 635.623 205.531 L629 185 C607 114 557 51 506 29 C469 13 427 4 378 4 C226 4 125 152 125 375 C125 597 231 745 389 745 C437 745 476 737 509 723 C558 702 606 639 628 565 L634.623 544.469 C636.397 538.969 643.222 534 649 534 C655.072 534 660 538.928 660 545 L660 736.5 C660 741.192 656.192 745 651.5 745 C646.963 745 641.992 741.168 640.837 736.78 L638 726 C631 697 603 693 567 715 C521 744 464 761 382 761 C188 761 59 607 59 376 C59 145 184 -9 372 -9 C452 -9 513 8 563 38 C601 60 630 54 637 23 L639.693 12.2291 C640.91 7.35879 646.487 2.76386 651.5 2.5 C656.736 2.2244 661 6.26943 661 11.5131 L661 11.5131 Z M650 130 L650 130 L650 130 L650 130 Z " />
<glyph glyph-name="cdot" unicode="&#x10b;" horiz-adv-x="465" d="M294 647 C294 690 230 690 230 647 C230 605 294 605 294 647 L294 647 Z M431.5 129.5 C429.627 130.303 426.63 127.932 425.754 126.092 C395.648 62.8275 330.25 21 262 21 C162 21 95 118 95 264 C95 405 161 499 259 499 C314 499 364 461 385 405 C390 390 400 380 410 380 C430 380 440 390 435 405 C412 468 343 510 262 510 C132 510 45 402 45 239 C45 90 125 -10 245 -10 C320.075 -10 394.199 42.2844 432.152 121.828 C433.081 123.773 433.481 128.651 431.5 129.5 L431.5 129.5 Z " />
<glyph glyph-name="Ccaron" unicode="&#x10c;" horiz-adv-x="706" d="M523.223 1038.72 L430.924 929.515 C405.385 899.301 362.615 899.301 337.076 929.515 L244.777 1038.72 C243.249 1040.52 240.425 1040.88 238.5 1039.5 C236.57 1038.12 236.05 1035.38 237.34 1033.39 L364.337 837.564 C364.366 837.52 368.077 832.243 368.108 832.201 C372.414 826.308 378.923 817 384 817 C389.077 817 395.586 826.308 399.892 832.201 C399.923 832.243 403.634 837.52 403.663 837.564 L530.66 1033.39 C531.95 1035.38 531.43 1038.12 529.5 1039.5 C527.575 1040.88 524.751 1040.52 523.223 1038.72 L523.223 1038.72 Z M661 11.5131 L661 205 C661 211.072 656.072 216 650 216 C644.222 216 637.397 211.031 635.623 205.531 L629 185 C607 114 557 51 506 29 C469 13 427 4 378 4 C226 4 125 152 125 375 C125 597 231 745 389 745 C437 745 476 737 509 723 C558 702 606 639 628 565 L634.623 544.469 C636.397 538.969 643.222 534 649 534 C655.072 534 660 538.928 660 545 L660 736.5 C660 741.192 656.192 745 651.5 745 C646.963 745 641.992 741.168 640.837 736.78 L638 726 C631 697 603 693 567 715 C521 744 464 761 382 761 C188 761 59 607 59 376 C59 145 184 -9 372 -9 C452 -9 513 8 563 38 C601 60 630 54 637 23 L639.693 12.2291 C640.91 7.35879 646.487 2.76386 651.5 2.5 C656.736 2.2244 661 6.26943 661 11.5131 L661 11.5131 Z M650 130 L650 130 L650 130 L650 130 Z " />
<glyph glyph-name="ccaron" unicode="&#x10d;" horiz-adv-x="465" d="M401.223 788.715 L308.924 679.515 C283.385 649.301 240.615 649.301 215.076 679.515 L122.777 788.715 C121.249 790.522 118.425 790.875 116.5 789.5 C114.57 788.121 114.05 785.381 115.34 783.391 L242.337 587.564 C242.366 587.52 246.077 582.243 246.108 582.201 C250.414 576.308 256.923 567 262 567 C267.077 567 273.586 576.308 277.892 582.201 C277.923 582.243 281.634 587.52 281.663 587.564 L408.66 783.391 C409.95 785.381 409.43 788.121 407.5 789.5 C405.575 790.875 402.751 790.522 401.223 788.715 L401.223 788.715 Z M431.5 129.5 C429.627 130.303 426.63 127.932 425.754 126.092 C395.648 62.8275 330.25 21 262 21 C162 21 95 118 95 264 C95 405 161 499 259 499 C314 499 364 461 385 405 C390 390 400 380 410 380 C430 380 440 390 435 405 C412 468 343 510 262 510 C132 510 45 402 45 239 C45 90 125 -10 245 -10 C320.075 -10 394.199 42.2844 432.152 121.828 C433.081 123.773 433.481 128.651 431.5 129.5 L431.5 129.5 Z " />
<glyph glyph-name="Dcaron" unicode="&#x10e;" horiz-adv-x="810" d="M562.222 1038.72 L469.067 928.625 C443.461 898.363 400.627 898.437 375.125 928.787 L282.767 1038.71 C281.244 1040.52 278.426 1040.88 276.5 1039.5 C274.57 1038.12 274.055 1035.39 275.353 1033.4 L403.387 837.469 C403.412 837.43 407.081 832.238 407.108 832.201 C411.414 826.308 417.923 817 423 817 C427.231 817 433.609 826.308 437.895 832.201 C437.92 832.235 441.59 837.433 441.613 837.469 L569.647 1033.4 C570.945 1035.39 570.43 1038.12 568.5 1039.5 C566.575 1040.88 563.75 1040.52 562.222 1038.72 L562.222 1038.72 Z M276 12 C220 12 214 39 214 80 L214 701.5 C214 721.647 230.353 738 250.5 738 L287 738 C553 738 690 593 690 375 C690 135 524 12 276 12 L276 12 Z M80 730 L105 730 C135 730 155 710 155 680 L155 70 C155 40 135 20 105 20 L80 20 C74.4803 20 70 15.5197 70 10 C70 4.4803 74.4803 0 80 0 L294 0 C571 0 755 128 755 375 C755 600 612 750 334 750 L80 750 C74.4803 750 70 745.52 70 740 C70 734.48 74.4803 730 80 730 L80 730 Z " />
<glyph glyph-name="dcaron" unicode="&#x10f;" horiz-adv-x="592" d="M578 760 C567 760 558 698 553 653 L540.469 546.004 C540.21 543.794 541.792 541.776 544 541.5 C546.183 541.227 548.494 542.763 549.088 544.881 L578 648 C591 693 600 735 600 753 C600 758 591 760 578 760 L578 760 Z M383.492 714.675 L397 714 C424 713 442 694 442 667 L442 480.418 C442 471.093 429.338 466.914 421.694 472.255 C387.677 496.026 344.2 511 298 511 C131 511 45 409 45 255 C45 100 136 -4 273 -4 C329.95 -4 386.9 17.675 424.198 53.0414 C430.764 59.2674 442 52.7484 442 43.6998 L442 13.5 C442 6.60037 447.6 1 454.5 1 L458.772 1 C459.967 1 473.785 2.85049 474.938 3.16491 L567.352 28.3688 C572.49 29.77 577 35.6748 577 41 C577 46.3458 572.492 49.8409 567.315 48.5096 L542 42 C512 34 492 49 492 79 L492 738.498 C492 745.397 486.398 751.112 479.5 751.25 L475.458 751.331 C474.187 751.356 459.658 749.593 458.428 749.273 C434.18 742.96 404.81 735.225 381.222 729.096 C377.863 728.223 377 724.971 377 721.5 C377 717.917 379.913 714.854 383.492 714.675 L383.492 714.675 Z M442 366.761 L442 110.48 C442 100.844 435.191 81.1286 428.463 74.2305 C394.297 39.2031 343 17 294 17 C175 17 96 117 96 268 C96 405 167 496 304 496 C361.95 496 416.29 446.363 438.727 385.669 C439.456 383.696 442 368.865 442 366.761 L442 366.761 Z " />
<glyph glyph-name="Emacron" unicode="&#x112;" horiz-adv-x="621" d="M208.5 901 L473.5 901 C483.159 901 491 908.841 491 918.5 C491 928.159 483.159 936 473.5 936 L208.5 936 C198.841 936 191 928.159 191 918.5 C191 908.841 198.841 901 208.5 901 L208.5 901 Z M60 730 L85 730 C127 730 155 702 155 660 L155 90 C155 48 127 20 85 20 L60 20 C54.4803 20 50 15.5197 50 10 C50 4.4803 54.4803 0 60 0 L545.908 0 C547.564 0 549.348 1.39353 549.75 3 L550.5 6 C557.141 43.9487 566.032 92.6982 572.904 131.755 C573.705 136.31 570.125 138 565.5 138 C561.144 138 555.461 134.153 553.843 130.108 L549 118 C524 55 465 13 402 13 L294 13 C222 13 214 40 214 80 L214 323.56 C214 357.473 241.527 385 275.44 385 L340 385 C388 385 427 353 437 305 L446.333 258.335 C447.235 253.824 451.899 250 456.5 250 C461.192 250 465 253.808 465 258.5 L465 525.5 C465 530.192 461.192 534 456.5 534 C451.899 534 447.235 530.176 446.333 525.665 L437 479 C427 431 388 399 340 399 L275.44 399 C241.527 399 214 426.527 214 460.44 L214 676.56 C214 710.473 241.527 738 275.44 738 L401 738 C449 738 492 706 508 658 L523.356 611.078 C524.743 606.841 530.041 603 534.5 603 C539.168 603 542.366 608.311 541.804 612.945 C536.861 653.68 530.115 705.231 525.5 744 C525.475 744.214 524.802 746.791 524.75 747 C524.348 748.606 522.564 750 520.908 750 L60 750 C54.4803 750 50 745.52 50 740 C50 734.48 54.4803 730 60 730 L60 730 Z " />
<glyph glyph-name="emacron" unicode="&#x113;" horiz-adv-x="530" d="M163.5 651 L428.5 651 C438.159 651 446 658.841 446 668.5 C446 678.159 438.159 686 428.5 686 L163.5 686 C153.841 686 146 678.159 146 668.5 C146 658.841 153.841 651 163.5 651 L163.5 651 Z M117.748 340 L438.016 340 C477.681 340 498.821 360.818 483.466 397.391 C449.904 477.33 381.8 510 296 510 C145 510 45 433 45 235 C45 88 136 -10 273 -10 C371 -10 458 48 489 134 C489.56 135.554 487.629 134.229 486 134.5 C484.452 134.758 481.686 131.47 481.096 130.017 C454.991 65.7781 376.65 23 285 23 C173 23 98 116 98 255 C98 281.811 99.7549 305.814 103.265 327.597 C104.413 334.723 110.53 340 117.748 340 L117.748 340 Z M390.34 354.527 L162.965 352.485 C129.512 352.184 111.69 371.198 125.974 401.449 C158.535 470.414 218.1 499 294 499 C352.575 499 400.941 471.094 428.428 403.491 C440.659 373.411 422.811 354.819 390.34 354.527 L390.34 354.527 Z " />
<glyph glyph-name="Ebreve" unicode="&#x114;" horiz-adv-x="621" d="M216.313 990.242 C221.514 928.926 270.8 889 341 889 C410.225 889 458.536 928.926 463.689 989.315 C463.934 992.184 461.865 994.213 459 994.5 C456.513 994.749 453.752 991.135 453.38 988.664 C447.447 949.27 403.7 924 341 924 C278.3 924 233.65 950.172 227.627 989.657 C227.214 992.365 224.228 995.748 221.5 995.5 C218.347 995.213 216.045 993.396 216.313 990.242 L216.313 990.242 Z M60 730 L85 730 C127 730 155 702 155 660 L155 90 C155 48 127 20 85 20 L60 20 C54.4803 20 50 15.5197 50 10 C50 4.4803 54.4803 0 60 0 L545.908 0 C547.564 0 549.348 1.39353 549.75 3 L550.5 6 C557.141 43.9487 566.032 92.6982 572.904 131.755 C573.705 136.31 570.125 138 565.5 138 C561.144 138 555.461 134.153 553.843 130.108 L549 118 C524 55 465 13 402 13 L294 13 C222 13 214 40 214 80 L214 323.56 C214 357.473 241.527 385 275.44 385 L340 385 C388 385 427 353 437 305 L446.333 258.335 C447.235 253.824 451.899 250 456.5 250 C461.192 250 465 253.808 465 258.5 L465 525.5 C465 530.192 461.192 534 456.5 534 C451.899 534 447.235 530.176 446.333 525.665 L437 479 C427 431 388 399 340 399 L275.44 399 C241.527 399 214 426.527 214 460.44 L214 676.56 C214 710.473 241.527 738 275.44 738 L401 738 C449 738 492 706 508 658 L523.356 611.078 C524.743 606.841 530.041 603 534.5 603 C539.168 603 542.366 608.311 541.804 612.945 C536.861 653.68 530.115 705.231 525.5 744 C525.475 744.214 524.802 746.791 524.75 747 C524.348 748.606 522.564 750 520.908 750 L60 750 C54.4803 750 50 745.52 50 740 C50 734.48 54.4803 730 60 730 L60 730 Z " />
<glyph glyph-name="ebreve" unicode="&#x115;" horiz-adv-x="530" d="M172.313 740.242 C177.513 678.926 226.775 639 296 639 C365.225 639 414.487 678.926 419.687 739.315 C419.935 742.186 417.867 744.213 415 744.5 C412.519 744.748 409.75 741.129 409.373 738.664 C403.35 699.27 358.7 674 296 674 C233.3 674 188.65 700.173 182.627 739.657 C182.251 742.122 179.482 745.748 177 745.5 C174.134 745.213 172.069 743.111 172.313 740.242 L172.313 740.242 Z M117.748 340 L438.016 340 C477.681 340 498.821 360.818 483.466 397.391 C449.904 477.33 381.8 510 296 510 C145 510 45 433 45 235 C45 88 136 -10 273 -10 C371 -10 458 48 489 134 C489.56 135.554 487.629 134.229 486 134.5 C484.452 134.758 481.686 131.47 481.096 130.017 C454.991 65.7781 376.65 23 285 23 C173 23 98 116 98 255 C98 281.811 99.7549 305.814 103.265 327.597 C104.413 334.723 110.53 340 117.748 340 L117.748 340 Z M390.34 354.527 L162.965 352.485 C129.512 352.184 111.69 371.198 125.974 401.449 C158.535 470.414 218.1 499 294 499 C352.575 499 400.941 471.094 428.428 403.491 C440.659 373.411 422.811 354.819 390.34 354.527 L390.34 354.527 Z " />
<glyph glyph-name="Edot" unicode="&#x116;" horiz-adv-x="621" d="M373 897 C373 941 308 940 308 897 C308 856 373 855 373 897 L373 897 Z M60 730 L85 730 C127 730 155 702 155 660 L155 90 C155 48 127 20 85 20 L60 20 C54.4803 20 50 15.5197 50 10 C50 4.4803 54.4803 0 60 0 L545.908 0 C547.564 0 549.348 1.39353 549.75 3 L550.5 6 C557.141 43.9487 566.032 92.6982 572.904 131.755 C573.705 136.31 570.125 138 565.5 138 C561.144 138 555.461 134.153 553.843 130.108 L549 118 C524 55 465 13 402 13 L294 13 C222 13 214 40 214 80 L214 323.56 C214 357.473 241.527 385 275.44 385 L340 385 C388 385 427 353 437 305 L446.333 258.335 C447.235 253.824 451.899 250 456.5 250 C461.192 250 465 253.808 465 258.5 L465 525.5 C465 530.192 461.192 534 456.5 534 C451.899 534 447.235 530.176 446.333 525.665 L437 479 C427 431 388 399 340 399 L275.44 399 C241.527 399 214 426.527 214 460.44 L214 676.56 C214 710.473 241.527 738 275.44 738 L401 738 C449 738 492 706 508 658 L523.356 611.078 C524.743 606.841 530.041 603 534.5 603 C539.168 603 542.366 608.311 541.804 612.945 C536.861 653.68 530.115 705.231 525.5 744 C525.475 744.214 524.802 746.791 524.75 747 C524.348 748.606 522.564 750 520.908 750 L60 750 C54.4803 750 50 745.52 50 740 C50 734.48 54.4803 730 60 730 L60 730 Z " />
<glyph glyph-name="edot" unicode="&#x117;" horiz-adv-x="530" d="M328 647 C328 690 264 690 264 647 C264 605 328 605 328 647 L328 647 Z M117.748 340 L438.016 340 C477.681 340 498.821 360.818 483.466 397.391 C449.904 477.33 381.8 510 296 510 C145 510 45 433 45 235 C45 88 136 -10 273 -10 C371 -10 458 48 489 134 C489.56 135.554 487.629 134.229 486 134.5 C484.452 134.758 481.686 131.47 481.096 130.017 C454.991 65.7781 376.65 23 285 23 C173 23 98 116 98 255 C98 281.811 99.7549 305.814 103.265 327.597 C104.413 334.723 110.53 340 117.748 340 L117.748 340 Z M390.34 354.527 L162.965 352.485 C129.512 352.184 111.69 371.198 125.974 401.449 C158.535 470.414 218.1 499 294 499 C352.575 499 400.941 471.094 428.428 403.491 C440.659 373.411 422.811 354.819 390.34 354.527 L390.34 354.527 Z " />
<glyph glyph-name="Ecaron" unicode="&#x11a;" horiz-adv-x="621" d="M480.222 1038.72 L387.067 928.625 C361.461 898.363 318.627 898.437 293.125 928.787 L200.767 1038.71 C199.244 1040.52 196.426 1040.88 194.5 1039.5 C192.57 1038.12 192.055 1035.39 193.353 1033.4 L321.387 837.469 C321.412 837.43 325.081 832.238 325.108 832.201 C329.414 826.308 335.923 817 341 817 C345.231 817 351.609 826.308 355.895 832.201 C355.92 832.235 359.59 837.433 359.613 837.469 L487.647 1033.4 C488.945 1035.39 488.43 1038.12 486.5 1039.5 C484.575 1040.88 481.75 1040.52 480.222 1038.72 L480.222 1038.72 Z M60 730 L85 730 C127 730 155 702 155 660 L155 90 C155 48 127 20 85 20 L60 20 C54.4803 20 50 15.5197 50 10 C50 4.4803 54.4803 0 60 0 L545.908 0 C547.564 0 549.348 1.39353 549.75 3 L550.5 6 C557.141 43.9487 566.032 92.6982 572.904 131.755 C573.705 136.31 570.125 138 565.5 138 C561.144 138 555.461 134.153 553.843 130.108 L549 118 C524 55 465 13 402 13 L294 13 C222 13 214 40 214 80 L214 323.56 C214 357.473 241.527 385 275.44 385 L340 385 C388 385 427 353 437 305 L446.333 258.335 C447.235 253.824 451.899 250 456.5 250 C461.192 250 465 253.808 465 258.5 L465 525.5 C465 530.192 461.192 534 456.5 534 C451.899 534 447.235 530.176 446.333 525.665 L437 479 C427 431 388 399 340 399 L275.44 399 C241.527 399 214 426.527 214 460.44 L214 676.56 C214 710.473 241.527 738 275.44 738 L401 738 C449 738 492 706 508 658 L523.356 611.078 C524.743 606.841 530.041 603 534.5 603 C539.168 603 542.366 608.311 541.804 612.945 C536.861 653.68 530.115 705.231 525.5 744 C525.475 744.214 524.802 746.791 524.75 747 C524.348 748.606 522.564 750 520.908 750 L60 750 C54.4803 750 50 745.52 50 740 C50 734.48 54.4803 730 60 730 L60 730 Z " />
<glyph glyph-name="ecaron" unicode="&#x11b;" horiz-adv-x="530" d="M435.223 788.715 L342.924 679.515 C317.385 649.301 274.615 649.301 249.076 679.515 L156.777 788.715 C155.249 790.522 152.425 790.875 150.5 789.5 C148.57 788.121 148.05 785.381 149.34 783.391 L276.337 587.564 C276.366 587.52 280.077 582.243 280.108 582.201 C284.414 576.308 290.923 567 296 567 C301.077 567 307.586 576.308 311.892 582.201 C311.923 582.243 315.634 587.52 315.663 587.564 L442.66 783.391 C443.95 785.381 443.43 788.121 441.5 789.5 C439.575 790.875 436.751 790.522 435.223 788.715 L435.223 788.715 Z M117.748 340 L438.016 340 C477.681 340 498.821 360.818 483.466 397.391 C449.904 477.33 381.8 510 296 510 C145 510 45 433 45 235 C45 88 136 -10 273 -10 C371 -10 458 48 489 134 C489.56 135.554 487.629 134.229 486 134.5 C484.452 134.758 481.686 131.47 481.096 130.017 C454.991 65.7781 376.65 23 285 23 C173 23 98 116 98 255 C98 281.811 99.7549 305.814 103.265 327.597 C104.413 334.723 110.53 340 117.748 340 L117.748 340 Z M390.34 354.527 L162.965 352.485 C129.512 352.184 111.69 371.198 125.974 401.449 C158.535 470.414 218.1 499 294 499 C352.575 499 400.941 471.094 428.428 403.491 C440.659 373.411 422.811 354.819 390.34 354.527 L390.34 354.527 Z " />
<glyph glyph-name="Gcircumflex" unicode="&#x11c;" horiz-adv-x="781" d="M642.091 737.747 L639 726 C632 697 604 693 568 715 C522 744 465 761 383 761 C189 761 60 607 60 376 C60 145 187 -9 377 -9 C482 -9 565.5 5 637.5 29 C663.041 37.5135 688.134 47.8167 711.933 59.063 C714.178 60.1238 715.11 62.7792 714 65 C712.901 67.1974 710.123 68.1387 707.885 67.1241 C689.366 58.7265 670.779 50.9241 651.205 43.7167 C644.378 41.2029 638 45.4816 638 52.7568 L638 215 C638 266 670 300 719 300 L726 300 C729.864 300 733 303.136 733 307 L733 312.5 C733 319.4 727.4 325 720.5 325 L496.5 325 C489.6 325 484 319.4 484 312.5 L484 307 C484 303.136 487.136 300 491 300 L498 300 C547 300 579 266 579 215 L579 77.0849 C579 75.5546 578.19 68.1446 577.735 66.6834 C567.97 35.2891 519.325 13.0884 446.38 5.18413 C446.357 5.18166 447.875 5.08914 447.898 5.09091 C465.16 6.42424 483.27 7.75758 500.451 9.09091 C500.802 9.11822 500.83 8.60246 500.48 8.561 C465.56 4.43 427.4 2 386 2 C229 2 124 151 124 375 C124 597 230 745 388 745 C436 745 475 737 508 723 C557 702 605 639 627 565 L633.623 544.469 C635.397 538.969 642.222 534 648 534 C654.072 534 659 538.928 659 545 L659 737.5 C659 741.64 655.64 745 651.5 745 C647.497 745 643.11 741.619 642.091 737.747 L642.091 737.747 Z M397.892 1017.8 C393.586 1023.69 387.077 1033 382 1033 C376.923 1033 370.414 1023.69 366.108 1017.8 C366.077 1017.76 362.366 1012.48 362.337 1012.44 L235.34 816.609 C234.05 814.619 234.57 811.879 236.5 810.5 C238.425 809.125 241.249 809.478 242.777 811.285 L335.076 920.485 C360.615 950.699 403.385 950.699 428.924 920.485 L521.223 811.285 C522.751 809.478 525.575 809.125 527.5 810.5 C529.43 811.879 529.95 814.619 528.66 816.609 L401.663 1012.44 C401.634 1012.48 397.923 1017.76 397.892 1017.8 L397.892 1017.8 Z M427.51 3.57434 C416.592 2.87464 405.163 2.24781 393.224 2.05831 C393.224 2.05831 392.482 4.05801 392.482 4.05801 L392.55 0.0586058 C392.55 0.0586058 391.808 2.05831 391.808 2.05831 C401.866 2.24781 413.746 2.87464 426.356 3.57434 C426.402 3.57689 427.556 3.57728 427.51 3.57434 L427.51 3.57434 Z " />
<glyph glyph-name="Gbreve" unicode="&#x11e;" horiz-adv-x="781" d="M260.313 990.242 C265.513 928.926 314.775 889 384 889 C453.225 889 502.487 928.926 507.687 989.315 C507.935 992.186 505.867 994.213 503 994.5 C500.519 994.748 497.75 991.129 497.373 988.664 C491.35 949.27 446.7 924 384 924 C321.3 924 276.65 950.172 270.627 989.657 C270.251 992.122 267.482 995.748 265 995.5 C262.134 995.213 260.069 993.111 260.313 990.242 L260.313 990.242 Z M642.091 737.747 L639 726 C632 697 604 693 568 715 C522 744 465 761 383 761 C189 761 60 607 60 376 C60 145 187 -9 377 -9 C482 -9 565.5 5 637.5 29 C663.041 37.5135 688.134 47.8167 711.933 59.063 C714.178 60.1238 715.11 62.7792 714 65 C712.901 67.1974 710.123 68.1387 707.885 67.1241 C689.366 58.7265 670.779 50.9241 651.205 43.7167 C644.378 41.2029 638 45.4816 638 52.7568 L638 215 C638 266 670 300 719 300 L726 300 C729.864 300 733 303.136 733 307 L733 312.5 C733 319.4 727.4 325 720.5 325 L496.5 325 C489.6 325 484 319.4 484 312.5 L484 307 C484 303.136 487.136 300 491 300 L498 300 C547 300 579 266 579 215 L579 77.0849 C579 75.5546 578.19 68.1446 577.735 66.6834 C567.97 35.2891 519.325 13.0884 446.38 5.18413 C446.357 5.18166 447.875 5.08914 447.898 5.09091 C465.16 6.42424 483.27 7.75758 500.451 9.09091 C500.802 9.11822 500.83 8.60246 500.48 8.561 C465.56 4.43 427.4 2 386 2 C229 2 124 151 124 375 C124 597 230 745 388 745 C436 745 475 737 508 723 C557 702 605 639 627 565 L633.623 544.469 C635.397 538.969 642.222 534 648 534 C654.072 534 659 538.928 659 545 L659 737.5 C659 741.64 655.64 745 651.5 745 C647.497 745 643.11 741.619 642.091 737.747 L642.091 737.747 Z M427.51 3.57434 C416.592 2.87464 405.163 2.24781 393.224 2.05831 C393.224 2.05831 392.482 4.05801 392.482 4.05801 L392.55 0.0586058 C392.55 0.0586058 391.808 2.05831 391.808 2.05831 C401.866 2.24781 413.746 2.87464 426.356 3.57434 C426.402 3.57689 427.556 3.57728 427.51 3.57434 L427.51 3.57434 Z " />
<glyph glyph-name="gbreve" unicode="&#x11f;" horiz-adv-x="520" d="M136.313 740.242 C141.513 678.926 190.775 639 260 639 C329.225 639 378.487 678.926 383.687 739.315 C383.935 742.186 381.867 744.213 379 744.5 C376.519 744.748 373.75 741.129 373.373 738.664 C367.35 699.27 322.7 674 260 674 C197.3 674 152.65 700.173 146.627 739.657 C146.251 742.122 143.482 745.748 141 745.5 C138.134 745.213 136.069 743.111 136.313 740.242 L136.313 740.242 Z M540 459 C540 477 527 489 508 489 C475.825 489 446.372 474.026 426.942 449.132 C422.445 443.371 408.766 443.714 404.254 449.463 C373.984 488.031 324 511 261 511 C155 511 85 447 85 351 C85 286.65 115.628 236.593 167.339 210.375 C173.319 207.343 172.652 192.729 166.088 191.367 C100.737 177.807 61 148.1 61 109 C61 70.225 86.1831 40.9788 128.127 27.4379 C133.878 25.5813 136.078 13.7326 130.585 11.2125 C83.6225 -10.335 54 -48.5 54 -91 C54 -173 140 -228 270 -228 C400 -228 486 -168 486 -77 C486 11 434 69 302 69 L187 69 C129 69 90 91 90 124 C90 164 158 190 261 190 C367 190 437 255 437 352 C437 374.781 433.44 395.427 426.321 413.937 C424.166 419.539 424.895 428.96 428.657 433.638 C441.611 449.745 459.594 459 479 459 C491 459 508 439 520 439 C533 439 540.5 447 540.5 460 L540 459 Z M261 202 C185 202 135 262 135 352 C135 441 185 500 261 500 C337 500 387 441 387 352 C387 262 337 202 261 202 L261 202 Z M175.5 20 L183 20 L296 20 C403 20 444 -23 444 -87 C444 -164 375 -216 272 -216 C165 -216 94 -161 94 -78 C94 -35.25 120.173 0.28 161.372 17.4441 C163.075 18.154 173.654 20 175.5 20 L175.5 20 Z " />
<glyph glyph-name="Gdot" unicode="&#x120;" horiz-adv-x="781" d="M416 897 C416 940 352 940 352 897 C352 855 416 855 416 897 L416 897 Z M642.091 737.747 L639 726 C632 697 604 693 568 715 C522 744 465 761 383 761 C189 761 60 607 60 376 C60 145 187 -9 377 -9 C482 -9 565.5 5 637.5 29 C663.041 37.5135 688.134 47.8167 711.933 59.063 C714.178 60.1238 715.11 62.7792 714 65 C712.901 67.1974 710.123 68.1387 707.885 67.1241 C689.366 58.7265 670.779 50.9241 651.205 43.7167 C644.378 41.2029 638 45.4816 638 52.7568 L638 215 C638 266 670 300 719 300 L726 300 C729.864 300 733 303.136 733 307 L733 312.5 C733 319.4 727.4 325 720.5 325 L496.5 325 C489.6 325 484 319.4 484 312.5 L484 307 C484 303.136 487.136 300 491 300 L498 300 C547 300 579 266 579 215 L579 77.0849 C579 75.5546 578.19 68.1446 577.735 66.6834 C567.97 35.2891 519.325 13.0884 446.38 5.18413 C446.357 5.18166 447.875 5.08914 447.898 5.09091 C465.16 6.42424 483.27 7.75758 500.451 9.09091 C500.802 9.11822 500.83 8.60246 500.48 8.561 C465.56 4.43 427.4 2 386 2 C229 2 124 151 124 375 C124 597 230 745 388 745 C436 745 475 737 508 723 C557 702 605 639 627 565 L633.623 544.469 C635.397 538.969 642.222 534 648 534 C654.072 534 659 538.928 659 545 L659 737.5 C659 741.64 655.64 745 651.5 745 C647.497 745 643.11 741.619 642.091 737.747 L642.091 737.747 Z M427.51 3.57434 C416.592 2.87464 405.163 2.24781 393.224 2.05831 C393.224 2.05831 392.482 4.05801 392.482 4.05801 L392.55 0.0586058 C392.55 0.0586058 391.808 2.05831 391.808 2.05831 C401.866 2.24781 413.746 2.87464 426.356 3.57434 C426.402 3.57689 427.556 3.57728 427.51 3.57434 L427.51 3.57434 Z " />
<glyph glyph-name="gdot" unicode="&#x121;" horiz-adv-x="520" d="M292 647 C292 690 228 690 228 647 C228 605 292 605 292 647 L292 647 Z M540 459 C540 477 527 489 508 489 C475.825 489 446.372 474.026 426.942 449.132 C422.445 443.371 408.766 443.714 404.254 449.463 C373.984 488.031 324 511 261 511 C155 511 85 447 85 351 C85 286.65 115.628 236.593 167.339 210.375 C173.319 207.343 172.652 192.729 166.088 191.367 C100.737 177.807 61 148.1 61 109 C61 70.225 86.1831 40.9788 128.127 27.4379 C133.878 25.5813 136.078 13.7326 130.585 11.2125 C83.6225 -10.335 54 -48.5 54 -91 C54 -173 140 -228 270 -228 C400 -228 486 -168 486 -77 C486 11 434 69 302 69 L187 69 C129 69 90 91 90 124 C90 164 158 190 261 190 C367 190 437 255 437 352 C437 374.781 433.44 395.427 426.321 413.937 C424.166 419.539 424.895 428.96 428.657 433.638 C441.611 449.745 459.594 459 479 459 C491 459 508 439 520 439 C533 439 540.5 447 540.5 460 L540 459 Z M261 202 C185 202 135 262 135 352 C135 441 185 500 261 500 C337 500 387 441 387 352 C387 262 337 202 261 202 L261 202 Z M175.5 20 L183 20 L296 20 C403 20 444 -23 444 -87 C444 -164 375 -216 272 -216 C165 -216 94 -161 94 -78 C94 -35.25 120.173 0.28 161.372 17.4441 C163.075 18.154 173.654 20 175.5 20 L175.5 20 Z " />
<glyph glyph-name="Hcircumflex" unicode="&#x124;" horiz-adv-x="820" d="M448.892 1017.8 C444.586 1023.69 438.077 1033 433 1033 C427.923 1033 421.414 1023.69 417.108 1017.8 C417.077 1017.76 413.366 1012.48 413.337 1012.44 L286.34 816.609 C285.05 814.619 285.57 811.879 287.5 810.5 C289.425 809.125 292.249 809.478 293.777 811.285 L386.076 920.485 C411.615 950.699 454.385 950.699 479.924 920.485 L572.223 811.285 C573.751 809.478 576.575 809.125 578.5 810.5 C580.43 811.879 580.95 814.619 579.66 816.609 L452.663 1012.44 C452.634 1012.48 448.923 1017.76 448.892 1017.8 L448.892 1017.8 Z M750 20 L725 20 C695 20 675 40 675 70 L675 680 C675 710 695 730 725 730 L750 730 C755.52 730 760 734.48 760 740 C760 745.52 755.52 750 750 750 L541 750 C535.48 750 531 745.52 531 740 C531 734.48 535.48 730 541 730 L566 730 C596 730 616 710 616 680 L616 459.44 C616 425.527 588.473 398 554.56 398 L311.44 398 C277.527 398 250 425.527 250 459.44 L250 680 C250 710 270 730 300 730 L325 730 C330.52 730 335 734.48 335 740 C335 745.52 330.52 750 325 750 L116 750 C110.48 750 106 745.52 106 740 C106 734.48 110.48 730 116 730 L141 730 C171 730 191 710 191 680 L191 70 C191 40 171 20 141 20 L116 20 C110.48 20 106 15.5197 106 10 C106 4.4803 110.48 0 116 0 L325 0 C330.52 0 335 4.4803 335 10 C335 15.5197 330.52 20 325 20 L300 20 C270 20 250 40 250 70 L250 321.56 C250 355.473 277.527 383 311.44 383 L554.56 383 C588.473 383 616 355.473 616 321.56 L616 70 C616 40 596 20 566 20 L541 20 C535.48 20 531 15.5197 531 10 C531 4.4803 535.48 0 541 0 L750 0 C755.52 0 760 4.4803 760 10 C760 15.5197 755.52 20 750 20 L750 20 Z " />
<glyph glyph-name="Itilde" unicode="&#x128;" horiz-adv-x="364" d="M48.1339 875.893 C49.8225 912.535 67.35 936 93 936 C147 936 218 871 272 871 C311.975 871 339.592 907.124 340.948 961.761 C341.011 964.306 339.045 966 336.5 966 C334.15 966 331.985 963.038 331.859 960.691 C330.075 927.66 311.55 906 284 906 C230 906 159 971 105 971 C66 971 40.3087 932.975 39.0486 874.535 C38.9939 871.999 40.9626 870 43.5 870 C45.8695 870 48.0248 873.526 48.1339 875.893 L48.1339 875.893 Z M294 20 L269 20 C239 20 219 40 219 70 L219 680 C219 710 239 730 269 730 L294 730 C299.52 730 304 734.48 304 740 C304 745.52 299.52 750 294 750 L86 750 C80.4803 750 76 745.52 76 740 C76 734.48 80.4803 730 86 730 L111 730 C141 730 161 710 161 680 L161 70 C161 40 141 20 111 20 L86 20 C80.4803 20 76 15.5197 76 10 C76 4.4803 80.4803 0 86 0 L294 0 C299.52 0 304 4.4803 304 10 C304 15.5197 299.52 20 294 20 L294 20 Z " />
<glyph glyph-name="itilde" unicode="&#x129;" horiz-adv-x="294" d="M17.1339 626.893 C18.8225 663.535 36.35 687 62 687 C116 687 187 622 241 622 C280.975 622 308.592 658.124 309.948 712.761 C310.011 715.306 308.045 717 305.5 717 C303.15 717 300.985 714.038 300.859 711.691 C299.075 678.66 280.55 657 253 657 C199 657 128 722 74 722 C35 722 9.30875 683.975 8.04856 625.535 C7.99386 622.999 9.96259 621 12.5 621 C14.8695 621 17.0248 624.526 17.1339 626.893 L17.1339 626.893 Z M78.6782 458.516 L119 469 C128 472 134 468 134 459 L134 35 C134 26 128 20 119 20 L79 20 C73.4803 20 69 15.5197 69 10 C69 4.4803 73.4803 0 79 0 L239 0 C244.52 0 249 4.4803 249 10 C249 15.5197 244.52 20 239 20 L199 20 C190 20 184 26 184 35 L184 487.5 C184 494.4 178.4 500 171.5 500 L166.835 500 C165.715 500 151.51 498.043 150.428 497.758 C127.649 491.755 100.351 484.245 77.5723 478.242 C72.4324 476.887 69 471.315 69 466 C69 460.658 73.508 457.172 78.6782 458.516 L78.6782 458.516 Z " />
<glyph glyph-name="Imacron" unicode="&#x12a;" horiz-adv-x="364" d="M57.5 901 L322.5 901 C332.159 901 340 908.841 340 918.5 C340 928.159 332.159 936 322.5 936 L57.5 936 C47.8405 936 40 928.159 40 918.5 C40 908.841 47.8405 901 57.5 901 L57.5 901 Z M294 20 L269 20 C239 20 219 40 219 70 L219 680 C219 710 239 730 269 730 L294 730 C299.52 730 304 734.48 304 740 C304 745.52 299.52 750 294 750 L86 750 C80.4803 750 76 745.52 76 740 C76 734.48 80.4803 730 86 730 L111 730 C141 730 161 710 161 680 L161 70 C161 40 141 20 111 20 L86 20 C80.4803 20 76 15.5197 76 10 C76 4.4803 80.4803 0 86 0 L294 0 C299.52 0 304 4.4803 304 10 C304 15.5197 299.52 20 294 20 L294 20 Z " />
<glyph glyph-name="imacron" unicode="&#x12b;" horiz-adv-x="294" d="M26.5 652 L291.5 652 C301.159 652 309 659.841 309 669.5 C309 679.159 301.159 687 291.5 687 L26.5 687 C16.8405 687 9 679.159 9 669.5 C9 659.841 16.8405 652 26.5 652 L26.5 652 Z M78.6782 458.516 L119 469 C128 472 134 468 134 459 L134 35 C134 26 128 20 119 20 L79 20 C73.4803 20 69 15.5197 69 10 C69 4.4803 73.4803 0 79 0 L239 0 C244.52 0 249 4.4803 249 10 C249 15.5197 244.52 20 239 20 L199 20 C190 20 184 26 184 35 L184 487.5 C184 494.4 178.4 500 171.5 500 L166.835 500 C165.715 500 151.51 498.043 150.428 497.758 C127.649 491.755 100.351 484.245 77.5723 478.242 C72.4324 476.887 69 471.315 69 466 C69 460.658 73.508 457.172 78.6782 458.516 L78.6782 458.516 Z " />
<glyph glyph-name="Ibreve" unicode="&#x12c;" horiz-adv-x="364" d="M66.3127 990.242 C71.5131 928.926 120.775 889 190 889 C259.225 889 308.487 928.926 313.687 989.315 C313.935 992.186 311.867 994.213 309 994.5 C306.519 994.748 303.75 991.129 303.373 988.664 C297.35 949.27 252.7 924 190 924 C127.3 924 82.65 950.172 76.627 989.657 C76.2509 992.122 73.4816 995.748 71 995.5 C68.1342 995.213 66.0693 993.111 66.3127 990.242 L66.3127 990.242 Z M294 20 L269 20 C239 20 219 40 219 70 L219 680 C219 710 239 730 269 730 L294 730 C299.52 730 304 734.48 304 740 C304 745.52 299.52 750 294 750 L86 750 C80.4803 750 76 745.52 76 740 C76 734.48 80.4803 730 86 730 L111 730 C141 730 161 710 161 680 L161 70 C161 40 141 20 111 20 L86 20 C80.4803 20 76 15.5197 76 10 C76 4.4803 80.4803 0 86 0 L294 0 C299.52 0 304 4.4803 304 10 C304 15.5197 299.52 20 294 20 L294 20 Z " />
<glyph glyph-name="ibreve" unicode="&#x12d;" horiz-adv-x="294" d="M35.3127 741.242 C40.5131 679.926 89.775 640 159 640 C228.225 640 277.487 679.926 282.687 740.315 C282.935 743.186 280.867 745.213 278 745.5 C275.519 745.748 272.75 742.129 272.373 739.664 C266.35 700.27 221.7 675 159 675 C96.3 675 51.65 701.172 45.627 740.657 C45.2509 743.122 42.4816 746.748 40 746.5 C37.1342 746.213 35.0693 744.111 35.3127 741.242 L35.3127 741.242 Z M78.6782 458.516 L119 469 C128 472 134 468 134 459 L134 35 C134 26 128 20 119 20 L79 20 C73.4803 20 69 15.5197 69 10 C69 4.4803 73.4803 0 79 0 L239 0 C244.52 0 249 4.4803 249 10 C249 15.5197 244.52 20 239 20 L199 20 C190 20 184 26 184 35 L184 487.5 C184 494.4 178.4 500 171.5 500 L166.835 500 C165.715 500 151.51 498.043 150.428 497.758 C127.649 491.755 100.351 484.245 77.5723 478.242 C72.4324 476.887 69 471.315 69 466 C69 460.658 73.508 457.172 78.6782 458.516 L78.6782 458.516 Z " />
<glyph glyph-name="Idot" unicode="&#x130;" horiz-adv-x="364" d="M222 897 C222 940 158 940 158 897 C158 855 222 855 222 897 L222 897 Z M294 20 L269 20 C239 20 219 40 219 70 L219 680 C219 710 239 730 269 730 L294 730 C299.52 730 304 734.48 304 740 C304 745.52 299.52 750 294 750 L86 750 C80.4803 750 76 745.52 76 740 C76 734.48 80.4803 730 86 730 L111 730 C141 730 161 710 161 680 L161 70 C161 40 141 20 111 20 L86 20 C80.4803 20 76 15.5197 76 10 C76 4.4803 80.4803 0 86 0 L294 0 C299.52 0 304 4.4803 304 10 C304 15.5197 299.52 20 294 20 L294 20 Z " />
<glyph glyph-name="dotlessi" unicode="&#x131;" horiz-adv-x="294" d="M78.6782 458.516 L119 469 C128 472 134 468 134 459 L134 35 C134 26 128 20 119 20 L79 20 C73.4803 20 69 15.5197 69 10 C69 4.4803 73.4803 0 79 0 L239 0 C244.52 0 249 4.4803 249 10 C249 15.5197 244.52 20 239 20 L199 20 C190 20 184 26 184 35 L184 487.5 C184 494.4 178.4 500 171.5 500 L166.835 500 C165.715 500 151.51 498.043 150.428 497.758 C127.649 491.755 100.351 484.245 77.5723 478.242 C72.4324 476.887 69 471.315 69 466 C69 460.658 73.508 457.172 78.6782 458.516 L78.6782 458.516 Z " />
<glyph glyph-name="Jcircumflex" unicode="&#x134;" horiz-adv-x="364" d="M205.892 1017.8 C201.586 1023.69 195.077 1033 190 1033 C184.923 1033 178.414 1023.69 174.108 1017.8 C174.077 1017.76 170.366 1012.48 170.337 1012.44 L43.3403 816.609 C42.0498 814.619 42.5701 811.879 44.5 810.5 C46.4255 809.125 49.2491 809.478 50.7765 811.285 L143.076 920.485 C168.615 950.699 211.385 950.699 236.924 920.485 L329.223 811.285 C330.751 809.478 333.575 809.125 335.5 810.5 C337.43 811.879 337.95 814.619 336.66 816.609 L209.663 1012.44 C209.634 1012.48 205.923 1017.76 205.892 1017.8 L205.892 1017.8 Z M293.95 750 L86 750 C80.4803 750 76 745.52 76 740 C76 734.48 80.4803 730 86 730 L111 730 C140 730 160 712 162 684 C162 531 161 151 161 -34 C161 -173 98 -199 52 -199 C23 -199 37 -152 8 -152 C-8 -152 -19 -162 -19 -178 C-19 -203 3 -220 37 -220 C114 -220 221 -172 221 78 C221 233 220 547 220 684 C222 712 242 730 271 730 L295.95 730 C301.47 730 305.549 734.508 305 740 C304.451 745.492 299.47 750 293.95 750 L293.95 750 Z " />
<glyph glyph-name="Lacute" unicode="&#x139;" horiz-adv-x="629" d="M200.707 816.28 L336 936 C378 974 406 1001 406 1005 C406 1018 395 1029 382 1029 C378 1029 351 1001 313 959 L193.28 823.707 C191.473 821.665 191.572 818.428 193.5 816.5 C195.428 814.572 198.665 814.473 200.707 816.28 L200.707 816.28 Z M569.5 135 C565.144 135 559.461 131.153 557.843 127.108 L553 115 C528 52 469 10 406 10 L299 10 C227 10 219 38 219 80 L219 680 C219 710 239 730 269 730 L294 730 C299.52 730 304 734.48 304 740 C304 745.52 299.52 750 294 750 L86 750 C80.4803 750 76 745.52 76 740 C76 734.48 80.4803 730 86 730 L111 730 C141 730 161 710 161 680 L161 70 C161 40 141 20 111 20 L86 20 C80.4803 20 76 15.5197 76 10 C76 4.4803 80.4803 0 86 0 L533.604 0 C544.788 0 555.582 7.86392 557.657 18.8539 C564.038 52.6381 570.748 92.3985 576.393 125.567 C577.168 130.124 574.123 135 569.5 135 L569.5 135 Z " />
<glyph glyph-name="Lcaron" unicode="&#x13d;" horiz-adv-x="629" d="M405 809 C394 809 385 747 380 702 L367.469 595.004 C367.21 592.794 368.792 590.776 371 590.5 C373.183 590.227 375.494 591.763 376.088 593.881 L405 697 C418 742 427 784 427 802 C427 807 418 809 405 809 L405 809 Z M569.5 135 C565.144 135 559.461 131.153 557.843 127.108 L553 115 C528 52 469 10 406 10 L299 10 C227 10 219 38 219 80 L219 680 C219 710 239 730 269 730 L294 730 C299.52 730 304 734.48 304 740 C304 745.52 299.52 750 294 750 L86 750 C80.4803 750 76 745.52 76 740 C76 734.48 80.4803 730 86 730 L111 730 C141 730 161 710 161 680 L161 70 C161 40 141 20 111 20 L86 20 C80.4803 20 76 15.5197 76 10 C76 4.4803 80.4803 0 86 0 L533.604 0 C544.788 0 555.582 7.86392 557.657 18.8539 C564.038 52.6381 570.748 92.3985 576.393 125.567 C577.168 130.124 574.123 135 569.5 135 L569.5 135 Z " />
<glyph glyph-name="lcaron" unicode="&#x13e;" horiz-adv-x="238" d="M229 759 C218 759 209 697 204 652 L191.469 545.004 C191.21 542.794 192.792 540.776 195 540.5 C197.183 540.227 199.494 541.763 200.088 543.881 L229 647 C242 692 251 734 251 752 C251 757 242 759 229 759 L229 759 Z M33.9925 713.7 L48 713 C75 712 93 693 93 666 L93 35 C93 26 87 20 78 20 L38 20 C32.4803 20 28 15.5197 28 10 C28 4.4803 32.4803 0 38 0 L198 0 C203.52 0 208 4.4803 208 10 C208 15.5197 203.52 20 198 20 L158 20 C149 20 143 26 143 35 L143 737.5 C143 744.4 137.4 750 130.5 750 L125.835 750 C124.715 750 110.51 748.043 109.428 747.758 C85.1796 741.368 55.8096 733.27 32.2224 727.1 C29.1297 726.291 28 723.197 28 720 C28 716.692 30.689 713.866 33.9925 713.7 L33.9925 713.7 Z " />
<glyph glyph-name="Nacute" unicode="&#x143;" horiz-adv-x="766" d="M291.707 816.28 L427 936 C469 974 497 1001 497 1005 C497 1018 486 1029 473 1029 C469 1029 442 1001 404 959 L284.28 823.707 C282.473 821.665 282.572 818.428 284.5 816.5 C286.428 814.572 289.665 814.473 291.707 816.28 L291.707 816.28 Z M35.5131 730 L61 730 C84.925 730 110.211 717.749 129.559 697.738 C135.349 691.75 141 675.125 141 666.795 L141 70 C141 40 121 20 91 20 L66 20 C60.4803 20 56 15.5197 56 10 C56 4.4803 60.4803 0 66 0 L233 0 C238.52 0 243 4.4803 243 10 C243 15.5197 238.52 20 233 20 L208 20 C178 20 158 40 158 70 L156.45 528.732 C156.312 569.653 211.37 579.839 234.23 545.899 C357.181 363.361 480.25 180.5 604 -1 C605.541 -3.26082 607.264 -1 610 -1 C613.312 -1 616.016 1.68819 616.035 4.9999 L620 679 C620 709 640 729 670 729 L695 729 C700.52 729 705 733.48 705 739 C705 744.52 700.52 749 695 749 L528 749 C522.48 749 518 744.52 518 739 C518 733.48 522.48 729 528 729 L553 729 C583 729 603 709 603 679 L603.993 108.301 C603.995 106.925 602.3 106.38 601.5 107.5 L599 111 L187.266 721.898 C178.905 734.303 151.277 749 136.317 749 L34.5131 749 C29.2694 749 25.2244 744.736 25.5 739.5 C25.7756 734.264 30.2694 730 35.5131 730 L35.5131 730 Z " />
<glyph glyph-name="Ncaron" unicode="&#x147;" horiz-adv-x="766" d="M520.223 1038.72 L427.924 929.515 C402.385 899.301 359.615 899.301 334.076 929.515 L241.777 1038.72 C240.249 1040.52 237.425 1040.88 235.5 1039.5 C233.57 1038.12 233.05 1035.38 234.34 1033.39 L361.337 837.564 C361.366 837.52 365.077 832.243 365.108 832.201 C369.414 826.308 375.923 817 381 817 C386.077 817 392.586 826.308 396.892 832.201 C396.923 832.243 400.634 837.52 400.663 837.564 L527.66 1033.39 C528.95 1035.38 528.43 1038.12 526.5 1039.5 C524.575 1040.88 521.751 1040.52 520.223 1038.72 L520.223 1038.72 Z M35.5131 730 L61 730 C84.925 730 110.211 717.749 129.559 697.738 C135.349 691.75 141 675.125 141 666.795 L141 70 C141 40 121 20 91 20 L66 20 C60.4803 20 56 15.5197 56 10 C56 4.4803 60.4803 0 66 0 L233 0 C238.52 0 243 4.4803 243 10 C243 15.5197 238.52 20 233 20 L208 20 C178 20 158 40 158 70 L156.45 528.732 C156.312 569.653 211.37 579.839 234.23 545.899 C357.181 363.361 480.25 180.5 604 -1 C605.541 -3.26082 607.264 -1 610 -1 C613.312 -1 616.016 1.68819 616.035 4.9999 L620 679 C620 709 640 729 670 729 L695 729 C700.52 729 705 733.48 705 739 C705 744.52 700.52 749 695 749 L528 749 C522.48 749 518 744.52 518 739 C518 733.48 522.48 729 528 729 L553 729 C583 729 603 709 603 679 L603.993 108.301 C603.995 106.925 602.3 106.38 601.5 107.5 L599 111 L187.266 721.898 C178.905 734.303 151.277 749 136.317 749 L34.5131 749 C29.2694 749 25.2244 744.736 25.5 739.5 C25.7756 734.264 30.2694 730 35.5131 730 L35.5131 730 Z " />
<glyph glyph-name="ncaron" unicode="&#x148;" horiz-adv-x="535" d="M406.222 788.717 L313.067 678.625 C287.461 648.363 244.627 648.437 219.125 678.787 L126.767 788.707 C125.244 790.519 122.426 790.876 120.5 789.5 C118.57 788.121 118.055 785.385 119.353 783.399 L247.387 587.469 C247.412 587.43 251.081 582.238 251.108 582.201 C255.414 576.308 261.923 567 267 567 C271.231 567 277.609 576.308 281.895 582.201 C281.92 582.235 285.59 587.433 285.613 587.469 L413.647 783.399 C414.945 785.385 414.43 788.121 412.5 789.5 C410.575 790.875 407.75 790.523 406.222 788.717 L406.222 788.717 Z M33.9925 463.7 L48 463 C75 462 93 443 93 416 L93 35 C93 26 87 20 78 20 L38 20 C32.4803 20 28 15.5197 28 10 C28 4.4803 32.4803 0 38 0 L198 0 C203.52 0 208 4.4803 208 10 C208 15.5197 203.52 20 198 20 L158 20 C149 20 143 26 143 35 L143 345.79 C143 351.066 148.981 372.222 151.808 376.678 C189.033 435.353 238.15 473 277 473 C352 473 390 416 390 330 L390 35 C390 26 384 20 375 20 L335 20 C329.48 20 325 15.5197 325 10 C325 4.4803 329.48 0 335 0 L495 0 C500.52 0 505 4.4803 505 10 C505 15.5197 500.52 20 495 20 L455 20 C446 20 440 26 440 35 L440 330 C440 438 394 510 306 510 C263.925 510 211.641 473.246 168.8 415.461 C161.497 405.61 143 409.878 143 422.141 L143 487.5 C143 494.4 137.4 500 130.5 500 L125.835 500 C124.715 500 110.51 498.043 109.428 497.758 C85.1796 491.368 55.8096 483.27 32.2224 477.1 C29.1297 476.291 28 473.197 28 470 C28 466.692 30.689 463.866 33.9925 463.7 L33.9925 463.7 Z " />
<glyph glyph-name="Omacron" unicode="&#x14c;" horiz-adv-x="806" d="M268.5 901 L533.5 901 C543.159 901 551 908.841 551 918.5 C551 928.159 543.159 936 533.5 936 L268.5 936 C258.841 936 251 928.159 251 918.5 C251 908.841 258.841 901 268.5 901 L268.5 901 Z M125 375 C125 597 234 745 398 745 C571 745 687 597 687 375 C687 153 570 5 394 5 C233 5 125 153 125 375 L125 375 Z M61 375 C61 144 193 -10 391 -10 C607 -10 751 144 751 375 C751 606 611 760 401 760 C197 760 61 606 61 375 L61 375 Z " />
<glyph glyph-name="omacron" unicode="&#x14d;" horiz-adv-x="604" d="M169.5 651 L434.5 651 C444.159 651 452 658.841 452 668.5 C452 678.159 444.159 686 434.5 686 L169.5 686 C159.841 686 152 678.159 152 668.5 C152 658.841 159.841 651 169.5 651 L169.5 651 Z M100 250 C100 397 181 495 302 495 C423 495 504 397 504 250 C504 103 423 5 302 5 C181 5 100 103 100 250 L100 250 Z M45 250 C45 94 148 -10 302 -10 C456 -10 559 94 559 250 C559 406 456 510 302 510 C148 510 45 406 45 250 L45 250 Z " />
<glyph glyph-name="Obreve" unicode="&#x14e;" horiz-adv-x="806" d="M277.313 990.242 C282.513 928.926 331.775 889 401 889 C470.225 889 519.487 928.926 524.687 989.315 C524.935 992.186 522.867 994.213 520 994.5 C517.519 994.748 514.75 991.129 514.373 988.664 C508.35 949.27 463.7 924 401 924 C338.3 924 293.65 950.172 287.627 989.657 C287.251 992.122 284.482 995.748 282 995.5 C279.134 995.213 277.069 993.111 277.313 990.242 L277.313 990.242 Z M125 375 C125 597 234 745 398 745 C571 745 687 597 687 375 C687 153 570 5 394 5 C233 5 125 153 125 375 L125 375 Z M61 375 C61 144 193 -10 391 -10 C607 -10 751 144 751 375 C751 606 611 760 401 760 C197 760 61 606 61 375 L61 375 Z " />
<glyph glyph-name="obreve" unicode="&#x14f;" horiz-adv-x="604" d="M178.313 740.242 C183.513 678.926 232.775 639 302 639 C371.225 639 420.487 678.926 425.687 739.315 C425.935 742.186 423.867 744.213 421 744.5 C418.519 744.748 415.75 741.129 415.373 738.664 C409.35 699.27 364.7 674 302 674 C239.3 674 194.65 700.173 188.627 739.657 C188.251 742.122 185.482 745.748 183 745.5 C180.134 745.213 178.069 743.111 178.313 740.242 L178.313 740.242 Z M100 250 C100 397 181 495 302 495 C423 495 504 397 504 250 C504 103 423 5 302 5 C181 5 100 103 100 250 L100 250 Z M45 250 C45 94 148 -10 302 -10 C456 -10 559 94 559 250 C559 406 456 510 302 510 C148 510 45 406 45 250 L45 250 Z " />
<glyph glyph-name="Racute" unicode="&#x154;" horiz-adv-x="718" d="M339.707 816.28 L475 936 C517 974 545 1001 545 1005 C545 1018 534 1029 521 1029 C517 1029 490 1001 452 959 L332.28 823.707 C330.473 821.665 330.572 818.428 332.5 816.5 C334.428 814.572 337.665 814.473 339.707 816.28 L339.707 816.28 Z M80.5119 730 L105 730 C135 730 155 710 155 680 L155 70 C155 40 135 20 105 20 L80 20 C74.4803 20 70 15.5197 70 10 C70 4.4803 74.4803 0 80 0 L289 0 C294.52 0 299 4.4803 299 10 C299 15.5197 294.52 20 289 20 L264 20 C234 20 214 40 214 70 L214 303.56 C214 337.473 241.527 365 275.44 365 L332.993 365 C340.888 365 353.843 356.823 357.451 349.801 C379.859 306.188 436.625 206.875 511 80 C554.875 4.925 563.577 0.19625 698.379 0.00673438 C701.696 0.00207182 709 2.68352 709 6 C709 9.30427 706.004 11.999 702.7 12.0065 C622.729 12.1887 617.05 16.625 580 80 C505.625 207.75 448.859 305.641 421.092 352.904 C415.802 361.907 422.027 371.711 432.207 374.037 C516.807 393.37 569 446.65 569 541 C569 667 483 751 354 751 L81.5119 751 C75.7162 751 70.7757 746.289 70.5 740.5 C70.2243 734.711 74.7162 730 80.5119 730 L80.5119 730 Z M215 442.44 L215 678.5 C215 711.894 242.106 739 275.5 739 L336 739 C437 739 504 665 504 553 C504 434 444 381 354 381 L276.44 381 C242.527 381 215 408.527 215 442.44 L215 442.44 Z " />
<glyph glyph-name="Rcaron" unicode="&#x158;" horiz-adv-x="718" d="M468.223 1038.72 L375.924 929.515 C350.385 899.301 307.615 899.301 282.076 929.515 L189.777 1038.72 C188.249 1040.52 185.425 1040.88 183.5 1039.5 C181.57 1038.12 181.05 1035.38 182.34 1033.39 L309.337 837.564 C309.366 837.52 313.077 832.243 313.108 832.201 C317.414 826.308 323.923 817 329 817 C334.077 817 340.586 826.308 344.892 832.201 C344.923 832.243 348.634 837.52 348.663 837.564 L475.66 1033.39 C476.95 1035.38 476.43 1038.12 474.5 1039.5 C472.575 1040.88 469.751 1040.52 468.223 1038.72 L468.223 1038.72 Z M80.5119 730 L105 730 C135 730 155 710 155 680 L155 70 C155 40 135 20 105 20 L80 20 C74.4803 20 70 15.5197 70 10 C70 4.4803 74.4803 0 80 0 L289 0 C294.52 0 299 4.4803 299 10 C299 15.5197 294.52 20 289 20 L264 20 C234 20 214 40 214 70 L214 303.56 C214 337.473 241.527 365 275.44 365 L332.993 365 C340.888 365 353.843 356.823 357.451 349.801 C379.859 306.188 436.625 206.875 511 80 C554.875 4.925 563.577 0.19625 698.379 0.00673438 C701.696 0.00207182 709 2.68352 709 6 C709 9.30427 706.004 11.999 702.7 12.0065 C622.729 12.1887 617.05 16.625 580 80 C505.625 207.75 448.859 305.641 421.092 352.904 C415.802 361.907 422.027 371.711 432.207 374.037 C516.807 393.37 569 446.65 569 541 C569 667 483 751 354 751 L81.5119 751 C75.7162 751 70.7757 746.289 70.5 740.5 C70.2243 734.711 74.7162 730 80.5119 730 L80.5119 730 Z M215 442.44 L215 678.5 C215 711.894 242.106 739 275.5 739 L336 739 C437 739 504 665 504 553 C504 434 444 381 354 381 L276.44 381 C242.527 381 215 408.527 215 442.44 L215 442.44 Z " />
<glyph glyph-name="rcaron" unicode="&#x159;" horiz-adv-x="363" d="M358.223 788.715 L265.924 679.515 C240.385 649.301 197.615 649.301 172.076 679.515 L79.7765 788.715 C78.2491 790.522 75.4255 790.875 73.5 789.5 C71.5701 788.121 71.0498 785.381 72.3403 783.391 L199.337 587.564 C199.366 587.52 203.077 582.243 203.108 582.201 C207.414 576.308 213.923 567 219 567 C224.077 567 230.586 576.308 234.892 582.201 C234.923 582.243 238.634 587.52 238.663 587.564 L365.66 783.391 C366.95 785.381 366.43 788.121 364.5 789.5 C362.575 790.875 359.751 790.522 358.223 788.715 L358.223 788.715 Z M34.9925 463.7 L49 463 C76 462 94 443 94 416 L94 35 C94 26 88 20 79 20 L39 20 C33.4803 20 29 15.5197 29 10 C29 4.4803 33.4803 0 39 0 L199 0 C204.52 0 209 4.4803 209 10 C209 15.5197 204.52 20 199 20 L159 20 C150 20 144 26 144 35 L144 355.286 C144 357.38 147.053 373.944 147.777 375.909 C172.805 443.777 218.5 488 266 488 C283 488 294 474 294 453 C294 416 353 415 353 453 C353 488 327 511 289 511 C236.2 511 188.164 479.011 159.493 427.385 C156.399 421.816 144 423.577 144 429.947 L144 487.5 C144 494.4 138.4 500 131.5 500 L126.835 500 C125.715 500 111.51 498.043 110.428 497.758 C86.1796 491.368 56.8096 483.27 33.2224 477.1 C30.1297 476.291 29 473.197 29 470 C29 466.692 31.689 463.866 34.9925 463.7 L34.9925 463.7 Z " />
<glyph glyph-name="Sacute" unicode="&#x15a;" horiz-adv-x="546" d="M284.707 816.28 L420 936 C462 974 490 1001 490 1005 C490 1018 479 1029 466 1029 C462 1029 435 1001 397 959 L277.28 823.707 C275.473 821.665 275.572 818.428 277.5 816.5 C279.428 814.572 282.665 814.473 284.707 816.28 L284.707 816.28 Z M455 638 L455 638 L455 638 L455 638 Z M72.4589 9.38878 L75 24 C81 55 109 61 145 40 C191 8 246 -10 303 -10 C425 -10 507 67 507 183 C507 264 443 348 320 406 C187 468 119 539 119 598 C119 686 170 745 247 745 C267 745 286 743 304 739 C360 725 411 666 432 588 L438.896 564.553 C440.54 558.965 447.175 554 453 554 C459.072 554 464 558.928 464 565 L464 744.5 C464 749.192 460.192 753 455.5 753 L454.906 753 C450.766 753 445.809 749.427 444.5 745.5 L442 738 C435.212 717.636 415.26 711.377 388.526 722.87 C388.332 722.954 383.24 725.601 383.056 725.706 C344.549 747.642 296.725 760 247 760 C143 760 74 686 74 576 C74 496 146 409 285 344 C401 290 460 223 460 165 C460 71 397 9 303 9 C269 9 236 16 206 29 C154 53 107 120 86 201 L79.7892 225.843 C78.2956 231.818 71.6581 237 65.5 237 C59.1523 237 54 231.848 54 225.5 L54 10.5147 C54 5.82295 57.8164 1.77551 62.5 1.5 C67.1616 1.22579 71.6588 4.78818 72.4589 9.38878 L72.4589 9.38878 Z " />
<glyph glyph-name="Scircumflex" unicode="&#x15c;" horiz-adv-x="546" d="M289.892 1017.8 C285.586 1023.69 279.077 1033 274 1033 C268.923 1033 262.414 1023.69 258.108 1017.8 C258.077 1017.76 254.366 1012.48 254.337 1012.44 L127.34 816.609 C126.05 814.619 126.57 811.879 128.5 810.5 C130.425 809.125 133.249 809.478 134.777 811.285 L227.076 920.485 C252.615 950.699 295.385 950.699 320.924 920.485 L413.223 811.285 C414.751 809.478 417.575 809.125 419.5 810.5 C421.43 811.879 421.95 814.619 420.66 816.609 L293.663 1012.44 C293.634 1012.48 289.923 1017.76 289.892 1017.8 L289.892 1017.8 Z M455 638 L455 638 L455 638 L455 638 Z M72.4589 9.38878 L75 24 C81 55 109 61 145 40 C191 8 246 -10 303 -10 C425 -10 507 67 507 183 C507 264 443 348 320 406 C187 468 119 539 119 598 C119 686 170 745 247 745 C267 745 286 743 304 739 C360 725 411 666 432 588 L438.896 564.553 C440.54 558.965 447.175 554 453 554 C459.072 554 464 558.928 464 565 L464 744.5 C464 749.192 460.192 753 455.5 753 L454.906 753 C450.766 753 445.809 749.427 444.5 745.5 L442 738 C435.212 717.636 415.26 711.377 388.526 722.87 C388.332 722.954 383.24 725.601 383.056 725.706 C344.549 747.642 296.725 760 247 760 C143 760 74 686 74 576 C74 496 146 409 285 344 C401 290 460 223 460 165 C460 71 397 9 303 9 C269 9 236 16 206 29 C154 53 107 120 86 201 L79.7892 225.843 C78.2956 231.818 71.6581 237 65.5 237 C59.1523 237 54 231.848 54 225.5 L54 10.5147 C54 5.82295 57.8164 1.77551 62.5 1.5 C67.1616 1.22579 71.6588 4.78818 72.4589 9.38878 L72.4589 9.38878 Z " />
<glyph glyph-name="Scaron" unicode="&#x160;" horiz-adv-x="546" d="M413.223 1038.72 L320.924 929.515 C295.385 899.301 252.615 899.301 227.076 929.515 L134.777 1038.72 C133.249 1040.52 130.425 1040.88 128.5 1039.5 C126.57 1038.12 126.05 1035.38 127.34 1033.39 L254.337 837.564 C254.366 837.52 258.077 832.243 258.108 832.201 C262.414 826.308 268.923 817 274 817 C279.077 817 285.586 826.308 289.892 832.201 C289.923 832.243 293.634 837.52 293.663 837.564 L420.66 1033.39 C421.95 1035.38 421.43 1038.12 419.5 1039.5 C417.575 1040.88 414.751 1040.52 413.223 1038.72 L413.223 1038.72 Z M455 638 L455 638 L455 638 L455 638 Z M72.4589 9.38878 L75 24 C81 55 109 61 145 40 C191 8 246 -10 303 -10 C425 -10 507 67 507 183 C507 264 443 348 320 406 C187 468 119 539 119 598 C119 686 170 745 247 745 C267 745 286 743 304 739 C360 725 411 666 432 588 L438.896 564.553 C440.54 558.965 447.175 554 453 554 C459.072 554 464 558.928 464 565 L464 744.5 C464 749.192 460.192 753 455.5 753 L454.906 753 C450.766 753 445.809 749.427 444.5 745.5 L442 738 C435.212 717.636 415.26 711.377 388.526 722.87 C388.332 722.954 383.24 725.601 383.056 725.706 C344.549 747.642 296.725 760 247 760 C143 760 74 686 74 576 C74 496 146 409 285 344 C401 290 460 223 460 165 C460 71 397 9 303 9 C269 9 236 16 206 29 C154 53 107 120 86 201 L79.7892 225.843 C78.2956 231.818 71.6581 237 65.5 237 C59.1523 237 54 231.848 54 225.5 L54 10.5147 C54 5.82295 57.8164 1.77551 62.5 1.5 C67.1616 1.22579 71.6588 4.78818 72.4589 9.38878 L72.4589 9.38878 Z " />
<glyph glyph-name="scaron" unicode="&#x161;" horiz-adv-x="422" d="M365.223 788.715 L272.924 679.515 C247.385 649.301 204.615 649.301 179.076 679.515 L86.7765 788.715 C85.2491 790.522 82.4255 790.875 80.5 789.5 C78.5701 788.121 78.0498 785.381 79.3403 783.391 L206.337 587.564 C206.366 587.52 210.077 582.243 210.108 582.201 C214.414 576.308 220.923 567 226 567 C231.077 567 237.586 576.308 241.892 582.201 C241.923 582.243 245.634 587.52 245.663 587.564 L372.66 783.391 C373.95 785.381 373.43 788.121 371.5 789.5 C369.575 790.875 366.751 790.522 365.223 788.715 L365.223 788.715 Z M344 352.018 L344 502.5 C344 506.088 341.088 509 337.5 509 L337.325 509 C334.013 509 330.047 506.142 329 503 L327 497 C324.086 486.314 300.411 486.009 266.059 495.167 C265.886 495.213 259.007 497.577 258.841 497.64 C237.875 505.605 214.438 510 191 510 C113 510 61 462 61 389 C61 328 113 268 214 231 C292 203 332 156 332 107 C332 27 261 -16 179 9 C128 25 87 81 77 149 L74.1059 167.088 C73.5032 170.855 69.8153 174 66 174 C62.1362 174 59 170.864 59 167 L59 7 C59 3.13621 62.1362 0 66 0 L66.3292 0 C69.917 0 73.6932 3.00407 74.5 6.5 L76 13 C80 28 110 24 149 7 C173 -4 199 -10 226 -10 C314 -10 372 42 372 121 C372 180 326 237 237 269 C145 302 98 354 98 406 C98 474 153 509 225 495 C277 483 317 434 327 368 L329.13 350.964 C329.609 347.125 333.142 344.224 337 344.5 C340.854 344.775 344 348.154 344 352.018 L344 352.018 Z " />
<glyph glyph-name="Tcaron" unicode="&#x164;" horiz-adv-x="775" d="M529.223 1038.72 L436.924 929.515 C411.385 899.301 368.615 899.301 343.076 929.515 L250.777 1038.72 C249.249 1040.52 246.425 1040.88 244.5 1039.5 C242.57 1038.12 242.05 1035.38 243.34 1033.39 L370.337 837.564 C370.366 837.52 374.077 832.243 374.108 832.201 C378.414 826.308 384.923 817 390 817 C395.077 817 401.586 826.308 405.892 832.201 C405.923 832.243 409.634 837.52 409.663 837.564 L536.66 1033.39 C537.95 1035.38 537.43 1038.12 535.5 1039.5 C533.575 1040.88 530.751 1040.52 529.223 1038.72 L529.223 1038.72 Z M282.5 0 L492 0 C497.52 0 502 4.4803 502 10 C502 15.5197 497.52 20 492 20 L467 20 C437 20 417 40 417 70 L417 673.56 C417 707.473 444.527 735 478.44 735 L597 735 C648 735 704 701 736 650 L756.495 617.208 C758.604 613.834 765.521 610 769.5 610 C773.805 610 775.778 615.239 774.111 619.208 C757.878 657.877 738.8 706 724 743 C718.522 757.609 711.376 775.552 705.608 790.741 C704.514 793.622 701.082 795 698 795 L696.031 795 C694.099 795 690.958 793.177 690 791.5 L688 788 C673 765 630 750 581 750 L197 750 C148 750 104 765 89 788 L87 791.5 C86.0415 793.177 82.9008 795 80.9689 795 L79 795 C75.8842 795 72.0226 792.287 70.9666 789.355 L56.25 748.5 L53.5 741 C38.3205 703.051 19.0907 654.302 3.49583 615.245 C1.88113 611.201 5.14563 609 9.5 609 C13.4786 609 20.3963 612.834 22.505 616.208 L43 649 C74 700 130 734 181 734 L296.56 734 C330.473 734 358 706.473 358 672.56 L358 69 C358 39 338 19 308 19 L282.5 19 C277.256 19 273 14.7437 273 9.5 C273 4.25628 277.256 0 282.5 0 L282.5 0 Z " />
<glyph glyph-name="tcaron" unicode="&#x165;" horiz-adv-x="339" d="M286 500 L205.008 500 C171.89 500 144.552 526.886 144 560 C143.615 583.103 117.702 593.134 101.861 576.313 L33.4278 503.64 C32.1307 502.263 30 496.892 30 495 C30 492.24 32.2402 490 35 490 L62.5 490 C80.439 490 95 475.439 95 457.5 L95 129 C95 29 142 -10 212 -10 C251.975 -10 296.703 19.4694 326.72 64.5052 C327.63 65.8696 327.906 68.6564 326.5 69.5 C325.155 70.3071 323.204 69.7671 322.32 68.4708 C300.101 35.8644 263.075 14 227 14 C177 14 144 43 144 118 L144.828 412.733 C144.923 446.55 172.45 474 206.268 474 L286 474 C293.176 474 299 479.824 299 487 C299 494.176 293.176 500 286 500 L286 500 Z M385 759 C374 759 365 697 360 652 L347.469 545.004 C347.21 542.794 348.792 540.776 351 540.5 C353.183 540.227 355.494 541.763 356.088 543.881 L385 647 C398 692 407 734 407 752 C407 757 398 759 385 759 L385 759 Z " />
<glyph glyph-name="Utilde" unicode="&#x168;" horiz-adv-x="698" d="M210.134 875.893 C211.822 912.535 229.35 936 255 936 C309 936 380 871 434 871 C473.975 871 500.641 907.124 501.95 961.761 C502.01 964.304 500.043 966 497.5 966 C495.15 966 492.985 963.038 492.859 960.691 C491.077 927.66 472.6 906 446 906 C392 906 320 971 266 971 C227.975 971 202.308 932.975 201.049 874.535 C200.994 871.999 202.963 870 205.5 870 C207.87 870 210.025 873.526 210.134 875.893 L210.134 875.893 Z M658.303 47.5065 L633 41 C603 33 583 48 583 78 L583 688.56 C583 722.473 555.473 750 521.56 750 L449 750 C443.48 750 439 745.52 439 740 C439 734.48 443.48 730 449 730 L474 730 C504 730 524 710 524 680 L524 189.472 C524 185.43 519.371 166.438 517.458 162.879 C473.585 81.2475 384 28 289 28 C223 28 179 105 179 220 L179 688.56 C179 722.473 151.473 750 117.56 750 L45 750 C39.4803 750 35 745.52 35 740 C35 734.48 39.4803 730 45 730 L70 730 C100 730 120 710 120 680 L120 220 C120 82 178 -10 265 -10 C356.575 -10 443.386 33.56 495.672 102.15 C502.601 111.24 524 108.082 524 96.6526 L524 15 C524 6.72045 530.72 0 539 0 L545.772 0 C546.967 0 560.785 1.85049 561.938 2.16491 L576 6 C602.25 13 632.328 20.7656 658.195 27.2871 C663.44 28.6093 668.77 34.598 668.5 40 C668.23 45.4078 663.547 48.8549 658.303 47.5065 L658.303 47.5065 Z " />
<glyph glyph-name="utilde" unicode="&#x169;" horiz-adv-x="526" d="M121.134 625.893 C122.822 662.535 140.35 686 166 686 C220 686 291 621 345 621 C384.975 621 411.641 657.124 412.95 711.761 C413.01 714.304 411.043 716 408.5 716 C406.15 716 403.985 713.038 403.859 710.691 C402.077 677.66 383.6 656 357 656 C303 656 231 721 177 721 C138.975 721 113.308 682.975 112.049 624.535 C111.994 621.999 113.963 620 116.5 620 C118.87 620 121.025 623.526 121.134 625.893 L121.134 625.893 Z M500.407 44.0341 L486 40 C456 32 436 47 436 77 L436 442.5 C436 474.238 410.238 500 378.5 500 L331 500 C325.48 500 321 495.52 321 490 C321 484.48 325.48 480 331 480 L371 480 C380 480 386 474 386 465 L386 148.951 C386 145.413 382.881 129.151 381.308 125.982 C350.392 63.71 297.05 24 241 24 C180 24 139 78 139 159 L139 441.5 C139 473.238 113.238 499 81.5 499 L34 499 C28.4803 499 24 494.52 24 489 C24 483.48 28.4803 479 34 479 L74 479 C83 479 89 473 89 464 L89 159 C89 57 140 -11 217 -11 C273.925 -11 328.808 23.7119 365.365 80.2208 C370.253 87.7752 386 84.9946 386 75.9971 L386 10.5 C386 3.60037 391.6 -2 398.5 -2 L402.949 -2 C404.106 -2 416.793 -0.451591 417.91 -0.151906 C443.02 6.58109 473.57 14.9461 499.32 21.8711 C504.97 23.3905 511 30.1495 511 36 C511 41.8468 506.038 45.6105 500.407 44.0341 L500.407 44.0341 Z " />
<glyph glyph-name="Umacron" unicode="&#x16a;" horiz-adv-x="698" d="M219.5 901 L484.5 901 C494.159 901 502 908.841 502 918.5 C502 928.159 494.159 936 484.5 936 L219.5 936 C209.841 936 202 928.159 202 918.5 C202 908.841 209.841 901 219.5 901 L219.5 901 Z M658.303 47.5065 L633 41 C603 33 583 48 583 78 L583 688.56 C583 722.473 555.473 750 521.56 750 L449 750 C443.48 750 439 745.52 439 740 C439 734.48 443.48 730 449 730 L474 730 C504 730 524 710 524 680 L524 189.472 C524 185.43 519.371 166.438 517.458 162.879 C473.585 81.2475 384 28 289 28 C223 28 179 105 179 220 L179 688.56 C179 722.473 151.473 750 117.56 750 L45 750 C39.4803 750 35 745.52 35 740 C35 734.48 39.4803 730 45 730 L70 730 C100 730 120 710 120 680 L120 220 C120 82 178 -10 265 -10 C356.575 -10 443.386 33.56 495.672 102.15 C502.601 111.24 524 108.082 524 96.6526 L524 15 C524 6.72045 530.72 0 539 0 L545.772 0 C546.967 0 560.785 1.85049 561.938 2.16491 L576 6 C602.25 13 632.328 20.7656 658.195 27.2871 C663.44 28.6093 668.77 34.598 668.5 40 C668.23 45.4078 663.547 48.8549 658.303 47.5065 L658.303 47.5065 Z " />
<glyph glyph-name="umacron" unicode="&#x16b;" horiz-adv-x="526" d="M130.5 651 L395.5 651 C405.159 651 413 658.841 413 668.5 C413 678.159 405.159 686 395.5 686 L130.5 686 C120.841 686 113 678.159 113 668.5 C113 658.841 120.841 651 130.5 651 L130.5 651 Z M500.407 44.0341 L486 40 C456 32 436 47 436 77 L436 442.5 C436 474.238 410.238 500 378.5 500 L331 500 C325.48 500 321 495.52 321 490 C321 484.48 325.48 480 331 480 L371 480 C380 480 386 474 386 465 L386 148.951 C386 145.413 382.881 129.151 381.308 125.982 C350.392 63.71 297.05 24 241 24 C180 24 139 78 139 159 L139 441.5 C139 473.238 113.238 499 81.5 499 L34 499 C28.4803 499 24 494.52 24 489 C24 483.48 28.4803 479 34 479 L74 479 C83 479 89 473 89 464 L89 159 C89 57 140 -11 217 -11 C273.925 -11 328.808 23.7119 365.365 80.2208 C370.253 87.7752 386 84.9946 386 75.9971 L386 10.5 C386 3.60037 391.6 -2 398.5 -2 L402.949 -2 C404.106 -2 416.793 -0.451591 417.91 -0.151906 C443.02 6.58109 473.57 14.9461 499.32 21.8711 C504.97 23.3905 511 30.1495 511 36 C511 41.8468 506.038 45.6105 500.407 44.0341 L500.407 44.0341 Z " />
<glyph glyph-name="Ubreve" unicode="&#x16c;" horiz-adv-x="698" d="M227.313 990.242 C232.514 928.926 281.8 889 352 889 C421.225 889 469.536 928.926 474.689 989.315 C474.934 992.184 472.865 994.213 470 994.5 C467.513 994.749 464.752 991.135 464.38 988.664 C458.447 949.27 414.7 924 352 924 C289.3 924 244.65 950.172 238.627 989.657 C238.214 992.365 235.228 995.748 232.5 995.5 C229.347 995.213 227.045 993.396 227.313 990.242 L227.313 990.242 Z M658.303 47.5065 L633 41 C603 33 583 48 583 78 L583 688.56 C583 722.473 555.473 750 521.56 750 L449 750 C443.48 750 439 745.52 439 740 C439 734.48 443.48 730 449 730 L474 730 C504 730 524 710 524 680 L524 189.472 C524 185.43 519.371 166.438 517.458 162.879 C473.585 81.2475 384 28 289 28 C223 28 179 105 179 220 L179 688.56 C179 722.473 151.473 750 117.56 750 L45 750 C39.4803 750 35 745.52 35 740 C35 734.48 39.4803 730 45 730 L70 730 C100 730 120 710 120 680 L120 220 C120 82 178 -10 265 -10 C356.575 -10 443.386 33.56 495.672 102.15 C502.601 111.24 524 108.082 524 96.6526 L524 15 C524 6.72045 530.72 0 539 0 L545.772 0 C546.967 0 560.785 1.85049 561.938 2.16491 L576 6 C602.25 13 632.328 20.7656 658.195 27.2871 C663.44 28.6093 668.77 34.598 668.5 40 C668.23 45.4078 663.547 48.8549 658.303 47.5065 L658.303 47.5065 Z " />
<glyph glyph-name="ubreve" unicode="&#x16d;" horiz-adv-x="526" d="M138.313 740.242 C143.514 678.926 192.8 639 263 639 C332.225 639 380.536 678.926 385.689 739.315 C385.934 742.184 383.865 744.213 381 744.5 C378.513 744.749 375.752 741.135 375.38 738.664 C369.447 699.27 325.7 674 263 674 C200.3 674 155.65 700.173 149.627 739.657 C149.214 742.365 146.228 745.748 143.5 745.5 C140.347 745.213 138.045 743.396 138.313 740.242 L138.313 740.242 Z M500.407 44.0341 L486 40 C456 32 436 47 436 77 L436 442.5 C436 474.238 410.238 500 378.5 500 L331 500 C325.48 500 321 495.52 321 490 C321 484.48 325.48 480 331 480 L371 480 C380 480 386 474 386 465 L386 148.951 C386 145.413 382.881 129.151 381.308 125.982 C350.392 63.71 297.05 24 241 24 C180 24 139 78 139 159 L139 441.5 C139 473.238 113.238 499 81.5 499 L34 499 C28.4803 499 24 494.52 24 489 C24 483.48 28.4803 479 34 479 L74 479 C83 479 89 473 89 464 L89 159 C89 57 140 -11 217 -11 C273.925 -11 328.808 23.7119 365.365 80.2208 C370.253 87.7752 386 84.9946 386 75.9971 L386 10.5 C386 3.60037 391.6 -2 398.5 -2 L402.949 -2 C404.106 -2 416.793 -0.451591 417.91 -0.151906 C443.02 6.58109 473.57 14.9461 499.32 21.8711 C504.97 23.3905 511 30.1495 511 36 C511 41.8468 506.038 45.6105 500.407 44.0341 L500.407 44.0341 Z " />
<glyph glyph-name="Uring" unicode="&#x16e;" horiz-adv-x="698" d="M270 905 C270 955 303 988 352 988 C401 988 433 955 433 905 C433 860 396 822 352 822 C308 822 270 860 270 905 L270 905 Z M255 905 C255 854 300 810 352 810 C404 810 448 854 448 905 C448 962 410 1000 352 1000 C294 1000 255 962 255 905 L255 905 Z M658.303 47.5065 L633 41 C603 33 583 48 583 78 L583 688.56 C583 722.473 555.473 750 521.56 750 L449 750 C443.48 750 439 745.52 439 740 C439 734.48 443.48 730 449 730 L474 730 C504 730 524 710 524 680 L524 189.472 C524 185.43 519.371 166.438 517.458 162.879 C473.585 81.2475 384 28 289 28 C223 28 179 105 179 220 L179 688.56 C179 722.473 151.473 750 117.56 750 L45 750 C39.4803 750 35 745.52 35 740 C35 734.48 39.4803 730 45 730 L70 730 C100 730 120 710 120 680 L120 220 C120 82 178 -10 265 -10 C356.575 -10 443.386 33.56 495.672 102.15 C502.601 111.24 524 108.082 524 96.6526 L524 15 C524 6.72045 530.72 0 539 0 L545.772 0 C546.967 0 560.785 1.85049 561.938 2.16491 L576 6 C602.25 13 632.328 20.7656 658.195 27.2871 C663.44 28.6093 668.77 34.598 668.5 40 C668.23 45.4078 663.547 48.8549 658.303 47.5065 L658.303 47.5065 Z " />
<glyph glyph-name="uring" unicode="&#x16f;" horiz-adv-x="526" d="M181 655 C181 705 214 738 263 738 C312 738 344 705 344 655 C344 610 307 572 263 572 C219 572 181 610 181 655 L181 655 Z M166 655 C166 604 211 560 263 560 C315 560 359 604 359 655 C359 712 321 750 263 750 C205 750 166 712 166 655 L166 655 Z M500.407 44.0341 L486 40 C456 32 436 47 436 77 L436 442.5 C436 474.238 410.238 500 378.5 500 L331 500 C325.48 500 321 495.52 321 490 C321 484.48 325.48 480 331 480 L371 480 C380 480 386 474 386 465 L386 148.951 C386 145.413 382.881 129.151 381.308 125.982 C350.392 63.71 297.05 24 241 24 C180 24 139 78 139 159 L139 441.5 C139 473.238 113.238 499 81.5 499 L34 499 C28.4803 499 24 494.52 24 489 C24 483.48 28.4803 479 34 479 L74 479 C83 479 89 473 89 464 L89 159 C89 57 140 -11 217 -11 C273.925 -11 328.808 23.7119 365.365 80.2208 C370.253 87.7752 386 84.9946 386 75.9971 L386 10.5 C386 3.60037 391.6 -2 398.5 -2 L402.949 -2 C404.106 -2 416.793 -0.451591 417.91 -0.151906 C443.02 6.58109 473.57 14.9461 499.32 21.8711 C504.97 23.3905 511 30.1495 511 36 C511 41.8468 506.038 45.6105 500.407 44.0341 L500.407 44.0341 Z " />
</font>
</svg>
