<?xml version="1.0" encoding="UTF-8"?>
<svg xmlns="http://www.w3.org/2000/svg" xmlns:xlink="http://www.w3.org/1999/xlink" version="1.2" >
<font id="Moisses Round">
<font-face  font-family="Moisses" units-per-em="1024" ascent="975" descent="-300" font-style="normal" font-weight="400" font-stretch="normal" cap-height="1044" x-height="488" underline-position="-125" underline-thickness="50" />
<missing-glyph  horiz-adv-x="100" d="" />
<glyph glyph-name="NULL" d="" />
<glyph glyph-name="CR" unicode="&#xd;" horiz-adv-x="256" d="" />
<glyph glyph-name="space" unicode="&#x20;" horiz-adv-x="250" d="" />
<glyph glyph-name="exclam" unicode="&#x21;" horiz-adv-x="244" d="M122 -5 C158 -5 182 19 182 55 C182 91 158 115 122 115 C86 115 62 91 62 55 C62 19 86 -5 122 -5 L122 -5 Z M122 755 C81 755 64 713 70 650 L113.204 217.96 C113.641 213.588 117.606 210 122 210 C126.394 210 130.359 213.588 130.796 217.96 L174 650 C180 713 163 755 122 755 L122 755 Z " />
<glyph glyph-name="quotedbl" unicode="&#x22;" horiz-adv-x="325" d="M212 750 C193 750 181 732 187 705 L215.987 564.896 C216.535 562.25 219.297 560 222 560 C224.703 560 227.465 562.25 228.013 564.896 L257 705 C263 732 252 750 232 750 L212 750 L212 750 Z M92 750 C73 750 61 732 67 705 L95.987 564.896 C96.5345 562.25 99.2974 560 102 560 C104.703 560 107.465 562.25 108.013 564.896 L137 705 C143 732 132 750 112 750 L92 750 L92 750 Z " />
<glyph glyph-name="numbersign" unicode="&#x23;" horiz-adv-x="545" d="M387.488 650.187 L371.824 545.36 C367.553 516.776 339.96 493 311.059 493 L295.5 493 C258.105 493 231.597 523.764 237.123 560.748 L250.488 650.187 C251.859 659.365 245.28 667 236 667 C226.72 667 217.859 659.365 216.488 650.187 L200.824 545.36 C196.553 516.776 168.96 493 140.059 493 L100.305 493 C82.0904 493 64.9611 478.048 62.5 460 C60.0389 441.952 73.0904 427 91.3054 427 L120.5 427 C154.619 427 178.804 398.931 173.76 365.187 L161.827 285.357 C157.554 256.775 129.961 233 101.062 233 L59.3766 233 C41.1616 233 23.7287 218.009 21 200 C18.2713 181.991 31.1616 167 49.3766 167 L80 167 C114.937 167 139.697 138.257 134.525 103.705 L121.517 16.8127 C120.143 7.63484 126.72 0 136 0 C145.28 0 154.143 7.63484 155.517 16.8127 L170.164 114.656 C174.442 143.23 202.035 167 230.927 167 L246.5 167 C283.893 167 310.395 136.236 304.859 99.2549 L292.517 16.8127 C291.143 7.63484 297.72 0 307 0 C316.28 0 325.143 7.63484 326.517 16.8127 L341.164 114.656 C345.442 143.23 373.035 167 401.927 167 L434.623 167 C452.838 167 470.271 181.991 473 200 C475.729 218.009 462.838 233 444.623 233 L418.5 233 C386.019 233 362.994 259.722 367.797 291.846 L380.173 374.643 C384.446 403.225 412.039 427 440.938 427 L482.695 427 C500.91 427 518.039 441.952 520.5 460 C522.961 478.048 509.91 493 491.695 493 L461.5 493 C426.835 493 402.261 521.518 407.384 555.803 L421.488 650.187 C422.859 659.365 416.28 667 407 667 C397.72 667 388.859 659.365 387.488 650.187 L387.488 650.187 Z M269.938 427 L285.5 427 C322.894 427 349.401 396.236 343.873 359.253 L332.827 285.357 C328.554 256.775 300.961 233 272.062 233 L256.5 233 C219.106 233 192.599 263.764 198.127 300.747 L209.173 374.643 C213.446 403.225 241.039 427 269.938 427 L269.938 427 Z " />
<glyph glyph-name="dollar" unicode="&#x24;" horiz-adv-x="551" d="M69.2964 7.45448 L72 23 C78 55 110 59 149 34 C167.118 22.4706 186.592 12.9758 206.864 5.51557 C212.961 3.27181 220 -5.62758 220 -12.1244 L220 -60 C220 -68.2796 226.72 -75 235 -75 C243.28 -75 250 -68.2796 250 -60 L250 -14.6313 C250 -10.0887 254.691 -6.82401 259.192 -7.44403 C269.841 -8.91134 280.307 -9.64237 291.362 -9.89482 C296.215 -10.0056 301 -14.1457 301 -19 L301 -60 C301 -68.2796 307.72 -75 316 -75 C324.28 -75 331 -68.2796 331 -60 L331 -41.5 C331 -25.7825 347.613 -5.86009 362.826 -1.91 C454.68 21.94 513 95.2 513 196 C513 279.125 465.531 356.125 373.273 404.893 C357.303 413.335 331 448.183 331 466.247 L331 696.461 C331 710.891 339.746 718.684 351.816 710.776 C390.383 685.507 424 637.95 441 581 L447.623 560.469 C449.397 554.969 456.222 550 462 550 C468.072 550 473 554.928 473 561 L473 745.5 C473 750.192 469.192 754 464.5 754 L464.382 754 C459.966 754 454.817 750.215 453.5 746 L451 738 C445 715 420 712 389 729 C374.333 737.148 359.003 743.968 342.467 748.92 C337.314 750.463 331 757.414 331 762.794 L331 811 C331 819.28 324.28 826 316 826 C307.72 826 301 819.28 301 811 L301 766.062 C301 761.739 296.151 758.6 291.85 759.034 C281.923 760.036 271.923 760.655 261.612 760.891 C257.029 760.996 252 764.916 252 769.5 L252 811 C252 819.28 245.28 826 237 826 C228.72 826 222 819.28 222 811 L222 792 C222 777.149 202.396 754.49 188.352 749.664 C113.703 724.016 67 655.875 67 564 C67 486.125 106.813 414.375 185.768 363.488 C198.831 355.069 222 320.404 222 304.863 L222 68.2568 C222 49.1416 211.777 38.6953 195.279 48.3491 C146.285 77.0175 106.25 135.2 85 210 L79.1136 230.93 C77.4592 236.812 70.6106 242 64.5 242 C58.1523 242 53 236.848 53 230.5 L53 9.56637 C53 5.4266 56.3965 1.54713 60.5 1 C64.6365 0.448464 68.5814 3.34306 69.2964 7.45448 L69.2964 7.45448 Z M260.939 326.428 C272.174 322.05 283.539 317.95 293.923 313.572 C297.965 311.868 302 306.11 302 301.724 L302 33.0139 C302 27.7469 297.635 23.7325 292.368 23.74 C281.334 23.7558 270.963 24.8392 260.739 26.4748 C256.238 27.1949 252 31.5812 252 36.1394 L252 320.808 C252 325.439 256.624 328.11 260.939 326.428 L260.939 326.428 Z M364.576 274.888 C410.859 242.281 434 205.3 434 169 C434 108.775 406.775 62.1625 362.432 39.2698 C344.476 29.9993 332 39.6858 332 59.8944 L332 256.293 C332 276.304 348.217 286.414 364.576 274.888 L364.576 274.888 Z M252 470.746 L252 727.485 C252 732.477 256.275 736.267 261.267 736.26 C272.064 736.244 282.787 735.161 293.18 733.525 C297.696 732.814 302 728.432 302 723.861 L302 446.849 C302 441.853 297.635 438.935 293.088 441.005 C281.329 446.356 270.088 451.782 259.662 457.579 C255.831 459.709 252 466.363 252 470.746 L252 470.746 Z M197.966 500.5 C163.696 532.019 146 567.35 146 602 C146 654.8 165.738 696.71 199.038 718.746 C211.733 727.147 222 720.399 222 705.176 L222 511.806 C222 497.2 208.716 490.613 197.966 500.5 L197.966 500.5 Z " />
<glyph glyph-name="ampersand" unicode="&#x26;" horiz-adv-x="335" d="M354.378 475.353 C436.35 508.59 489 560.7 489 612 C489 701 419 761 315 761 C213 761 145 697 145 600 C145 567 169.503 526.513 210.085 474.609 C222.681 458.498 213.759 431.737 195.326 422.881 C100.484 377.313 40 293.75 40 201 C40 76 122 -8 245 -8 C330.8 -8 419.452 37.63 500.76 118.695 C503.484 121.41 508.827 122.763 511.267 119.789 C518.867 110.526 526.579 101.263 535 92 C585 32 651 -8 700 -8 C768.25 -8 821.29 50.9387 834.095 141.01 C834.714 145.369 831.676 149.108 827.5 150.5 C823.617 151.794 819.481 148.914 818.75 144.887 C809.575 94.3925 776.8 61 735 61 C697 61 647 91 609 136 C595.581 151.935 582.865 167.168 570.262 181.696 C566.317 186.244 564.194 191.493 567.862 196.268 C629.275 276.206 684.213 376.744 726.674 491.88 C728.48 496.776 725.218 501 720 501 C714.877 501 708.554 497.054 706.749 492.259 C671.792 399.382 627.971 318.138 578.358 252.109 C561.197 229.271 530.871 227.807 512.419 249.616 C410.525 370.05 373.81 410.075 345.322 443.096 C335.849 454.077 340.939 469.904 354.378 475.353 L354.378 475.353 Z M296.563 503.457 C249.094 563.094 220 608.375 220 646 C220 704 258 742 315 742 C378 742 420 692 420 618 C420 566.025 392.435 518.814 348.534 491.529 C329.49 479.692 310.527 485.913 296.563 503.457 L296.563 503.457 Z M452.115 126.845 C399.961 90.7381 345.8 71 293 71 C194 71 128 133 128 226 C128 307.6 160.512 377.64 213.255 415.24 C233.374 429.582 250.336 422.893 266.468 404.179 C300.665 364.507 338.811 323.453 459.574 180.473 C475.336 161.811 472.199 140.75 452.115 126.845 L452.115 126.845 Z " />
<glyph glyph-name="quotesingle" unicode="&#x27;" horiz-adv-x="204" d="M92 750 C73 750 61 732 67 705 L95.987 564.896 C96.5345 562.25 99.2974 560 102 560 C104.703 560 107.465 562.25 108.013 564.896 L137 705 C143 732 132 750 112 750 L92 750 L92 750 Z " />
<glyph glyph-name="parenleft" unicode="&#x28;" horiz-adv-x="470" d="M310.183 753.128 C183.655 661.245 100 470.925 100 273 C100 77 185 -118 313 -214 C315.252 -215.689 314.133 -211.961 315.5 -209.5 C316.793 -207.172 312.99 -201.143 310.935 -199.45 C219.889 -124.386 160 63.375 160 273 C160 486.525 222.741 673.432 317.637 744.744 C319.945 746.478 323.791 752.418 322.5 755 C321.09 757.82 312.735 754.981 310.183 753.128 L310.183 753.128 Z " />
<glyph glyph-name="parenright" unicode="&#x29;" horiz-adv-x="470" d="M35.0399 743.21 C164.444 652.494 250 467.025 250 273 C250 72 163 -119 32 -204 C29.4277 -205.669 33.1287 -206.257 34.5 -209 C35.9042 -211.808 46.6053 -207.659 49.196 -205.885 C206.382 -98.2556 310 91.65 310 273 C310 456 198 651 30 760 C27.4277 761.669 28.8713 757.743 27.5 755 C26.1808 752.362 32.6245 744.904 35.0399 743.21 L35.0399 743.21 Z " />
<glyph glyph-name="asterisk" unicode="&#x2a;" horiz-adv-x="296" d="M248.551 540.75 C261.167 534.083 273.667 537.833 282 552 C290.333 566.167 287.556 578.944 275.403 586.861 C269.546 590.677 265.432 588.286 261.935 582.234 L245.965 554.593 C242.521 548.633 242.465 543.966 248.551 540.75 L248.551 540.75 Z M267 666 C286 673 292 688 282 705 C272 722 256 724.5 241 711.5 L197 672.75 C182.212 659.727 160.508 672.195 164.309 691.53 L176 751 C180 771 170 784 150 784 C130 784 120 771 124 751 L135.565 692.674 C139.384 673.412 117.695 660.975 103 674 L78.4462 695.764 C67.9293 705.085 53.0307 702.669 46 690.5 L37.0334 674.981 C37.0227 674.962 36.797 674.619 36.8076 674.637 C45.6231 689.962 59 713 59 713 C59 713 57.301 715.158 51.4491 718.25 C38.8333 724.917 26.3333 721.167 18 707 C8 689 14 674.5 33 667.5 L89.5 648.75 C108.245 642.529 108.295 617.32 89.5751 611.025 L33 592 C14 585 8 570 18 553 C28 535 44 533.5 59 546.5 L103.73 585.893 C118.145 598.588 139.331 586.323 135.5 567.5 L124 511 C120 491 130 478 150 478 C170 478 180 491 176 511 L164.5 568 C160.644 587.113 182.088 599.548 196.761 586.709 L221.444 565.112 C232.034 555.845 246.96 558.316 254 570.5 C261.033 582.673 255.696 596.802 242.37 601.285 L211.851 611.55 C193.752 617.638 193.852 642.061 212 648 L267 666 L267 666 Z " />
<glyph glyph-name="plus" unicode="&#x2b;" horiz-adv-x="620" d="M277 427 L277 341.44 C277 307.527 249.473 280 215.56 280 L130 280 C113.441 280 100 266.559 100 250 C100 233.441 113.441 220 130 220 L215.56 220 C249.473 220 277 192.473 277 158.56 L277 73 C277 54.785 291.785 40 310 40 C328.215 40 343 54.785 343 73 L343 158.56 C343 192.473 370.527 220 404.44 220 L490 220 C506.559 220 520 233.441 520 250 C520 266.559 506.559 280 490 280 L404.44 280 C370.527 280 343 307.527 343 341.44 L343 427 C343 445.215 328.215 460 310 460 C291.785 460 277 445.215 277 427 L277 427 Z " />
<glyph glyph-name="comma" unicode="&#x2c;" horiz-adv-x="265" d="M159.488 4.2 C160 -2.2 160 -8.6 160 -15 C160 -60.6 125.705 -91.76 73.4051 -94.762 C68.2103 -95.0602 65 -99.7966 65 -105 C65 -110.895 70.6202 -115.014 76.5018 -114.613 C148.07 -109.732 195 -59.05 195 16 C195 75 167 115 125 115 C89 115 65 91 65 55 C65 19 89 -5 125 -5 C137.353 -5 147.76 -1.10727 156.22 5.99125 C157.537 7.09617 159.351 5.91354 159.488 4.2 L159.488 4.2 Z " />
<glyph glyph-name="hyphen" unicode="&#x2d;" horiz-adv-x="430" d="M115 250 L315 250 C334.319 250 350 265.681 350 285 C350 304.319 334.319 320 315 320 L115 320 C95.681 320 80 304.319 80 285 C80 265.681 95.681 250 115 250 L115 250 Z " />
<glyph glyph-name="period" unicode="&#x2e;" horiz-adv-x="195" d="M125 -5 C161 -5 185 19 185 55 C185 91 161 115 125 115 C89 115 65 91 65 55 C65 19 89 -5 125 -5 L125 -5 Z " />
<glyph glyph-name="slash" unicode="&#x2f;" horiz-adv-x="389" d="M301.128 746.272 L34.8722 -56.2718 C30.748 -68.7028 38.9027 -80 52 -80 C65.0973 -80 80.748 -68.7028 84.8722 -56.2718 L351.128 746.272 C355.252 758.703 347.097 770 334 770 C320.903 770 305.252 758.703 301.128 746.272 L301.128 746.272 Z " />
<glyph glyph-name="zero" unicode="0" horiz-adv-x="610" d="M85 250 C85 372 173 475 305 475 C424 475 525 385 525 250 C525 128 437 25 305 25 C186 25 85 115 85 250 L85 250 Z M45 250 C45 94 165 -10 305 -10 C461 -10 565 110 565 250 C565 406 445 510 305 510 C149 510 45 390 45 250 L45 250 Z " />
<glyph glyph-name="one" unicode="1" horiz-adv-x="365" d="M300 20 L275 20 C245 20 225 40 225 70 L225 430 C225 460 245 480 275 480 L300 480 C305.52 480 310 484.48 310 490 C310 495.52 305.52 500 300 500 L65 500 C59.4803 500 55 495.52 55 490 C55 484.48 59.4803 480 65 480 L90 480 C120 480 140 460 140 430 L140 70 C140 40 120 20 90 20 L65 20 C59.4803 20 55 15.5197 55 10 C55 4.4803 59.4803 0 65 0 L300 0 C305.52 0 310 4.4803 310 10 C310 15.5197 305.52 20 300 20 L300 20 Z " />
<glyph glyph-name="two" unicode="2" horiz-adv-x="541" d="M506.482 136.852 L501 130 C473 97 430 75 391 75 L258.985 75 C233.977 75 225.381 109.724 246.256 123.495 C362.048 199.882 441 276.525 441 345 C441 444 373 510 270 510 C162.75 510 73.5619 428.246 45.998 303.667 C44.9275 298.829 47.6766 293.135 52.5 292 C57.0613 290.927 61.4201 292.343 62.4395 296.916 C82.3094 386.061 147.025 445 226 445 C304 445 356 397 356 325 C356 237 261 150 132 72 C131.793 71.875 128.363 70.6306 128.14 70.5364 C121.052 67.5379 113.877 62.8637 106.128 57.484 C106.019 57.4083 102.013 54.8658 101.898 54.8 C75.9519 40.0006 49.15 25.2226 21.4925 11.2574 C18.8545 9.92536 19.579 7.19471 22 5.5 L23.2235 4.64353 C24.7609 3.56737 24.3319 1.40709 22.5 1 C21.9612 0.880261 22.0578 0 22.6098 0 L395.995 0 C411.9 0 439.611 15.3374 448.057 28.8145 L477 75 C491 95 506 116 518 134 C516 136 509 140 509 140 C509 140 508.107 138.883 506.482 136.852 L506.482 136.852 Z " />
<glyph glyph-name="three" unicode="3" horiz-adv-x="434" d="M18.5 -223.5 C19.3416 -228.269 31.8547 -230.668 36.6601 -230.068 C251.406 -203.234 394 -110 394 7 C394 88.675 336.147 150.612 241.778 177.088 C224.586 181.912 222.341 212.808 237.702 221.912 C325.911 274.192 379 329.075 379 386 C379 460 314 510 216 510 C122.4 510 44.9606 449.16 20.7563 358.066 C19.3183 352.655 23.085 349.925 28.5 348.5 C33.3629 347.22 38.9562 350.338 40.4262 355.147 C57.835 412.095 113.6 450 182 450 C246 450 288 413 288 357 C288 292.65 234.765 238.757 150.54 194.394 C149.369 193.777 138.548 190.971 137.227 190.892 C131.832 190.567 129.949 189.268 126 184.073 C125.362 183.233 119.581 178.293 118.636 177.824 C113.545 175.3 108.455 172.849 103.364 170.73 C101.43 169.924 99 166.823 99 164.728 L99 155.354 C99 153.698 100.519 152.759 102 153.5 L102.172 153.586 C102.392 153.696 102.234 154.078 102 154 C101.272 153.757 107.463 151.751 108.221 151.63 C227.049 132.589 305 65.875 305 -17 C305 -115.475 195.678 -193.036 29.8654 -213.536 C25.234 -214.109 17.689 -218.904 18.5 -223.5 L18.5 -223.5 Z " />
<glyph glyph-name="four" unicode="4" horiz-adv-x="620" d="M591.089 125.902 L586 110 C579 83 555 65 528 65 L471.5 65 C440.314 65 415 90.3137 415 121.5 L415 524.5 C415 527.536 412.536 530 409.5 530 C407.078 530 402.145 527.544 400.685 525.611 L19.5204 20.9846 C18.0165 18.9936 15 9.99514 15 7.5 C15 3.36022 18.3602 0 22.5 0 L268.56 0 C302.473 0 330 -27.527 330 -61.44 L330 -177.5 C330 -200.959 349.041 -220 372.5 -220 C395.959 -220 415 -200.959 415 -177.5 L415 -52.5 C415 -23.5216 438.522 0 467.5 0 L520 0 C547 0 566 -18 567 -45 L567.5 -50 C567.765 -52.6539 565.694 -54.5715 568.317 -55.059 C570.576 -55.4792 584.25 -58 587 -58 C591 -31 595.5 6 599.5 33 C604.5 63 609 101 613 131 C613 133 594 135 594 135 C594 135 593.064 132.074 591.089 125.902 L591.089 125.902 Z M163.298 158.964 L235.136 254.648 C266.575 296.522 330 275.362 330 223 L330 126.311 C330 92.4691 302.531 64.9422 268.689 64.8709 L211.25 64.75 C158.916 64.6398 131.876 117.113 163.298 158.964 L163.298 158.964 Z " />
<glyph glyph-name="five" unicode="5" horiz-adv-x="436" d="M356.5 555 L352.385 555 C349.625 555 346.025 552.562 345 550 L343 545 C332 518 307 500 280 500 L137.169 500 C109.391 500 81.7682 476.995 76.7429 449.675 L32.9231 211.455 C32.011 206.496 35.2056 197.32 39 194 C41.9078 191.456 53.7664 187 57.6301 187 L85 187 C233 187 331 121 331 21 C331 -98.925 227.382 -193.183 71.1229 -216.358 C66.8707 -216.989 59.2319 -221.71 59.5 -226 C59.7816 -230.505 70.9996 -232.602 75.4677 -231.959 C274.814 -203.281 406 -91.375 406 50 C406 186 281 277 94 277 L84.5 277 C79.3426 277 75.7845 281.271 76.7162 286.344 L92.8315 374.083 C97.8012 401.14 125.242 424.193 152.751 424.421 L319.163 425.802 C332.047 425.909 344.977 437.616 347.195 450.307 C353.172 484.507 359.05 516.457 364.409 546.158 C365.326 551.241 361.665 555 356.5 555 L356.5 555 Z " />
<glyph glyph-name="six" unicode="6" horiz-adv-x="568" d="M527.689 744.978 C240.125 676.832 50 497.7 50 291 C50 110 146 -10 290 -10 C425 -10 515 90 515 239 C515 375 427 466 295 466 C247.975 466 207.756 450.346 177.713 422.406 C174.364 419.291 167.244 423.486 168.913 427.744 C229.525 582.485 368.7 699.05 553 738 C556.338 738.705 552.327 740.69 551.5 744 C550.653 747.387 531.086 745.783 527.689 744.978 L527.689 744.978 Z M135 247 C135 364 195 442 286 442 C372 442 430 363 430 244 C430 107 372 16 285 16 C195 16 135 108 135 247 L135 247 Z " />
<glyph glyph-name="seven" unicode="7" horiz-adv-x="455" d="M100.315 545.676 C89.02 520.08 75.7 489.3 64 465 L54 440 C44 419 33 396 25 378 C29 376 41 371 41 371 C41 371 42.1883 372.782 44.6056 376.408 L51 386 C69 413 98 431 125 431 L306.237 431 C353.99 431 381.816 388.082 362.328 344.487 L123.263 -190.329 C116.58 -205.281 126.123 -220 142.5 -220 C159.213 -220 180.737 -205.292 186.811 -189.722 L447.274 478.013 C447.821 479.414 450 490.996 450 492.5 C450 496.64 446.64 500 442.5 500 L155 500 C128.844 500 113.949 515.016 118.499 537.774 C118.509 537.825 119.441 543.086 119.448 543.138 L119.5 543.5 C119.766 545.362 118.484 547.663 116.761 548.417 L112 550.5 C107.573 552.437 102.266 550.097 100.315 545.676 L100.315 545.676 Z " />
<glyph glyph-name="eight" unicode="8" horiz-adv-x="543" d="M221.915 369.915 C229.857 365.857 238.429 362.429 247 359 C360 313 436 271 436 208 C436 89 370 10 271 10 C177 10 114 76 114 174 C114 256.875 152.5 330.719 213.744 368.653 C215.801 369.927 219.761 371.016 221.915 369.915 L221.915 369.915 Z M157.25 357.637 C85.0725 308.277 41 241 41 173 C41 63 133 -11 272 -11 C411 -11 504 62 504 172 C504 279.95 454.87 343.105 375.648 390.329 C358.995 400.255 358.738 429.143 374.651 440.216 C438.204 484.439 477 541.9 477 598 C477 695 394 760 270 760 C148 760 66 688 66 580 C66 513.175 100.712 453.837 158.344 409.285 C172.818 398.096 172.351 367.964 157.25 357.637 L157.25 357.637 Z M294.5 432 L280 438 C192 473 134 536 134 613 C134 695 195 749 286 749 C357 749 405 686 405 591 C405 528.1 372.914 469.478 322.197 434.129 C315.612 429.54 301.916 428.931 294.5 432 L294.5 432 Z " />
<glyph glyph-name="nine" unicode="9" horiz-adv-x="568" d="M40.3109 -244.978 C327.875 -176.832 518 2.3 518 209 C518 390 422 510 278 510 C143 510 53 410 53 261 C53 125 141 34 273 34 C320.025 34 360.244 49.6544 390.287 77.594 C393.636 80.7088 400.756 76.5145 399.087 72.2557 C338.475 -82.485 199.3 -199.05 15 -238 C11.6623 -238.705 15.6726 -240.69 16.5 -244 C17.3467 -247.387 36.9138 -245.783 40.3109 -244.978 L40.3109 -244.978 Z M433 253 C433 136 373 58 282 58 C196 58 138 137 138 256 C138 393 196 484 283 484 C373 484 433 392 433 253 L433 253 Z " />
<glyph glyph-name="colon" unicode="&#x3a;" horiz-adv-x="135" d="M125 385 C161 385 185 409 185 445 C185 481 161 505 125 505 C89 505 65 481 65 445 C65 409 89 385 125 385 L125 385 Z M125 -5 C161 -5 185 19 185 55 C185 91 161 115 125 115 C89 115 65 91 65 55 C65 19 89 -5 125 -5 L125 -5 Z " />
<glyph glyph-name="semicolon" unicode="&#x3b;" horiz-adv-x="265" d="M125 385 C161 385 185 409 185 445 C185 481 161 505 125 505 C89 505 65 481 65 445 C65 409 89 385 125 385 L125 385 Z M159.488 4.2 C160 -2.2 160 -8.6 160 -15 C160 -60.6 125.705 -91.76 73.4051 -94.762 C68.2103 -95.0602 65 -99.7966 65 -105 C65 -110.895 70.6202 -115.014 76.5018 -114.613 C148.07 -109.732 195 -59.05 195 16 C195 75 167 115 125 115 C89 115 65 91 65 55 C65 19 89 -5 125 -5 C137.353 -5 147.76 -1.10727 156.22 5.99125 C157.537 7.09617 159.351 5.91354 159.488 4.2 L159.488 4.2 Z " />
<glyph glyph-name="equal" unicode="&#x3d;" horiz-adv-x="533" d="M83 200 C83 189.513 91.5126 181 102 181 L444 181 C454.487 181 463 189.513 463 200 C463 210.487 454.487 219 444 219 L102 219 C91.5126 219 83 210.487 83 200 L83 200 Z M83 300 C83 289.513 91.5126 281 102 281 L444 281 C454.487 281 463 289.513 463 300 C463 310.487 454.487 319 444 319 L102 319 C91.5126 319 83 310.487 83 300 L83 300 Z " />
<glyph glyph-name="question" unicode="&#x3f;" horiz-adv-x="299" d="M125 -5 C161 -5 185 19 185 55 C185 91 161 115 125 115 C89 115 65 91 65 55 C65 19 89 -5 125 -5 L125 -5 Z M125 217.5 L125 313.5 C125 335.269 147.123 359.722 168.639 363.027 C229.581 372.39 256.95 402.75 285 444 C303 471 315 515 315 555 C315 678 247 760 145 760 C97 760 65 735 65 697 C65 672 83 655 111 655 C131 655 157 670 176 670 C244 670 289 620 289 545 C289 529 280 505 266 485 C248 458 222 440 97 440 C96.4432 440 98.009 438.457 98.1772 437.926 C105.488 414.867 110 210 110 210 C110 210 113.268 210 117.5 210 C121.64 210 125 213.36 125 217.5 L125 217.5 Z M97 440 L97 440 L97 440 L97 440 Z " />
<glyph glyph-name="at" unicode="&#x40;" horiz-adv-x="1160" d="M1035.76 -10.6343 C964.986 -147.691 788.925 -238 591 -238 C310 -238 122 -39 122 259 C122 556 305 754 580 754 C855 754 1038 590 1038 343 C1038 141 965 7 855 7 C760 7 716 84 745 200 L805.299 441.194 C810.494 461.974 796.42 480 775 480 L774.655 480 C753.404 480 730.591 462.132 725.5 441.5 L722.781 430.482 C720.983 423.194 708.126 422.9 704.297 429.356 C681.649 467.539 639.45 490 585 490 C407 490 289 371 289 192 C289 82 360 8 466 8 C533.65 8 593.813 35.9056 635.259 83.2941 C642.443 91.5086 663.595 90.2719 667.226 79.9809 C689.7 16.2925 750.9 -22 841 -22 C1000 -22 1106 124 1106 343 C1106 604 896 778 581 778 C266 778 56 570 56 259 C56 -48 278 -253 611 -253 C810.875 -253 989.836 -156.987 1064.47 -11.3036 C1067.85 -4.70129 1062.92 0 1055.5 0 C1048.69 0 1038.89 -4.58149 1035.76 -10.6343 L1035.76 -10.6343 Z M703.166 348.662 L666 200 C644 113 582 55 511 55 C434 55 383 116 383 208 C383 363 463 466 584 466 C653.35 466 700.138 426.29 704.643 365.732 C704.77 364.023 703.581 350.325 703.166 348.662 L703.166 348.662 Z " />
<glyph glyph-name="A" unicode="A" horiz-adv-x="796" d="M305 12.5 C305 19.3996 299.4 25 292.5 25 L278 25 C222 25 194 60 207 114 L245.457 236.028 C252.587 258.65 280.336 279 304.056 279 L464.915 279 C488.654 279 516.403 258.637 523.525 235.991 L560 120 C576 63 548 25 490 25 L475.5 25 C468.6 25 463 19.3996 463 12.5 C463 5.60037 468.6 0 475.5 0 L777.5 0 C784.4 0 790 5.60037 790 12.5 L790 18 C790 21.8638 786.864 25 783 25 L776 25 C728 25 684 63 664 120 L472.873 717.273 C472.829 717.409 472.01 719.957 471.979 720.097 C471.44 722.531 460.872 770 456 770 L451 770 C448.783 770 446.432 767.095 446.333 764.88 C445.424 744.635 417.947 727.429 375.566 720.549 C372.792 720.099 372.692 717.692 373.5 715 C373.973 713.422 370.714 696.94 370.2 695.375 C307.799 505.25 245.375 315.125 182 125 C162 65 109 25 49 25 L26.5 25 C19.6004 25 14 19.3996 14 12.5 C14 5.60037 19.6004 0 26.5 0 L292.5 0 C299.4 0 305 5.60037 305 12.5 L305 12.5 Z M292.299 384.972 L326.172 492.044 C344.783 550.873 424.907 550.775 443.374 491.901 L476.96 384.829 C490.148 342.785 462.399 305 418.336 305 L350.878 305 C306.736 305 278.985 342.885 292.299 384.972 L292.299 384.972 Z " />
<glyph glyph-name="B" unicode="B" horiz-adv-x="685" d="M334 9 L284 9 C261 9 245 42 245 91 L245 345 C245 367.079 262.921 385 285 385 L325 385 C451 385 535 311 535 201 C535 45 455 9 334 9 L334 9 Z M365 0 C533 0 645 38 645 201 C645 289.4 590.813 356.125 502.089 385.822 C492.367 389.076 492.423 410.465 501.838 414.525 C574.121 445.693 617 500.7 617 570 C617 678 562 750 330 750 L72.5 750 C65.6004 750 60 744.4 60 737.5 C60 730.6 65.6004 725 72.5 725 L95 725 C125 725 145 705 145 675 L145 75 C145 45 125 25 95 25 L72.5 25 C65.6004 25 60 19.3996 60 12.5 C60 5.60037 65.6004 0 72.5 0 L365 0 L365 0 Z M335 402 L290 402 C265.161 402 245 422.161 245 447 L245 707.5 C245 719.919 255.081 730 267.5 730 L290 730 C474 730 517 662 517 560 C517 465 444 402 335 402 L335 402 Z " />
<glyph glyph-name="C" unicode="C" horiz-adv-x="740" d="M698 7.51665 L698 213 C698 219.072 693.072 224 687 224 C681.282 224 674.223 219.026 672.3 213.641 L666 196 C645 134 603 78 558 50 C517 27 470 14 414 14 C262 14 161 159 161 376 C161 592 267 736 425 736 C476 736 516 726 550 709 C597 686 644 624 667 555 L673.3 537.359 C675.223 531.974 682.282 527 688 527 C694.072 527 699 531.928 699 538 L699 739.5 C699 744.192 695.192 748 690.5 748 C685.963 748 680.992 744.168 679.837 739.78 L677 729 C670 700 642 695 607 716 C561 744 502 761 415 761 C197 761 51 607 51 376 C51 145 192 -9 404 -9 C489 -9 553 8 604 38 C641 59 671 53 678 22 L681.259 8.31224 C682.177 4.45674 686.546 0.763633 690.5 0.5 C694.631 0.224626 698 3.37687 698 7.51665 L698 7.51665 Z M685 133 L685 133 L685 133 L685 133 Z " />
<glyph glyph-name="D" unicode="D" horiz-adv-x="853" d="M295 20 C250 20 245 44 245 80 L245 710 C245 721.039 253.961 730 265 730 L285 730 C551 730 688 588 688 375 C688 141 531 20 295 20 L295 20 Z M70 730 L95 730 C125 730 145 710 145 680 L145 70 C145 40 125 20 95 20 L70 20 C64.4803 20 60 15.5197 60 10 C60 4.4803 64.4803 0 70 0 L325 0 C609 0 798 128 798 375 C798 600 651 750 365 750 L70 750 C64.4803 750 60 745.52 60 740 C60 734.48 64.4803 730 70 730 L70 730 Z " />
<glyph glyph-name="E" unicode="E" horiz-adv-x="652" d="M50 730 L75 730 C117 730 145 702 145 660 L145 90 C145 48 117 20 75 20 L50 20 C44.4803 20 40 15.5197 40 10 C40 4.4803 44.4803 0 50 0 L574.846 0 C577.606 0 580.581 2.32255 581.25 5 L582.5 10 C589.141 48.8974 598.932 99.4957 605.896 139.593 C606.69 144.161 603.136 146 598.5 146 C594.144 146 588.461 142.153 586.843 138.108 L582 126 C557 63 498 21 435 21 L325 21 C253 21 245 45 245 80 L245 323.56 C245 357.473 272.527 385 306.44 385 L371 385 C419 385 458 353 468 305 L477.333 258.335 C478.235 253.824 482.899 250 487.5 250 C492.192 250 496 253.808 496 258.5 L496 535.5 C496 540.192 492.192 544 487.5 544 C482.899 544 478.235 540.176 477.333 535.665 L468 489 C458 441 419 409 371 409 L306.44 409 C272.527 409 245 436.527 245 470.44 L245 667.56 C245 701.473 272.527 729 306.44 729 L433 729 C481 729 524 697 540 649 L555.356 602.078 C556.743 597.841 562.041 594 566.5 594 C571.18 594 574.344 599.742 573.796 604.39 C568.787 646.84 561.615 699.385 557 740 L556 745 C555.459 747.706 552.661 750 549.901 750 L50 750 C44.4803 750 40 745.52 40 740 C40 734.48 44.4803 730 50 730 L50 730 Z " />
<glyph glyph-name="F" unicode="F" horiz-adv-x="627" d="M50 730 L75 730 C117 730 145 702 145 660 L145 90 C145 48 117 20 75 20 L50 20 C44.4803 20 40 15.5197 40 10 C40 4.4803 44.4803 0 50 0 L340 0 C345.52 0 350 4.4803 350 10 C350 15.5197 345.52 20 340 20 L315 20 C273 20 245 48 245 90 L245 327.5 C245 359.238 270.762 385 302.5 385 L360 385 C408 385 447 353 457 305 L466.333 258.335 C467.235 253.824 471.899 250 476.5 250 C481.192 250 485 253.808 485 258.5 L485 535.5 C485 540.192 481.192 544 476.5 544 C471.899 544 467.235 540.176 466.333 535.665 L457 489 C447 441 408 409 360 409 L302.5 409 C270.762 409 245 434.762 245 466.5 L245 671.56 C245 705.473 272.527 733 306.44 733 L432 733 C480 733 523 701 539 653 L554.356 606.078 C555.743 601.841 561.041 598 565.5 598 C570.146 598 573.662 600.576 573.069 605.184 C568.066 644.045 562.459 691.365 557.353 731.676 C555.751 744.324 544.554 750 531.805 750 L50 750 C44.4803 750 40 745.52 40 740 C40 734.48 44.4803 730 50 730 L50 730 Z " />
<glyph glyph-name="G" unicode="G" horiz-adv-x="817" d="M678.695 738.243 L676 728 C669 699 641 694 606 715 C560 743 501 760 414 760 C196 760 50 606 50 375 C50 144 195 -10 412 -10 C558.25 -10 657.919 16.6175 745.302 55.9496 C749.504 57.841 750.449 62.3242 748.5 66.5 C746.594 70.5833 741.081 72.2169 736.954 70.4077 C721.442 63.607 705.384 57.292 688.444 51.4628 C681.817 49.1824 675 53.1158 675 60.1244 L675 216 C675 267 707 301 756 301 L763 301 C766.864 301 770 304.136 770 308 L770 313.5 C770 320.4 764.4 326 757.5 326 L492.5 326 C485.6 326 480 320.4 480 313.5 L480 308 C480 304.136 483.136 301 487 301 L494 301 C543 301 575 267 575 216 C576 216 576 119 576 111 C574 51 516 12 429 12 C268 12 161 158 161 377 C161 593 267 737 425 737 C476 737 516 727 550 710 C597 687 644 625 667 556 L673.3 538.359 C675.223 532.974 682.282 528 688 528 C694.072 528 699 532.928 699 539 L699 739.945 C699 744.912 694.937 748.549 690 748 C685.365 747.485 679.882 742.753 678.695 738.243 L678.695 738.243 Z " />
<glyph glyph-name="H" unicode="H" horiz-adv-x="861" d="M791 20 L766 20 C736 20 716 40 716 70 L716 680 C716 710 736 730 766 730 L791 730 C796.52 730 801 734.48 801 740 C801 745.52 796.52 750 791 750 L541 750 C535.48 750 531 745.52 531 740 C531 734.48 535.48 730 541 730 L566 730 C596 730 616 710 616 680 L616 470.44 C616 436.527 588.473 409 554.56 409 L342.44 409 C308.527 409 281 436.527 281 470.44 L281 680 C281 710 301 730 331 730 L356 730 C361.52 730 366 734.48 366 740 C366 745.52 361.52 750 356 750 L106 750 C100.48 750 96 745.52 96 740 C96 734.48 100.48 730 106 730 L131 730 C161 730 181 710 181 680 L181 70 C181 40 161 20 131 20 L106 20 C100.48 20 96 15.5197 96 10 C96 4.4803 100.48 0 106 0 L356 0 C361.52 0 366 4.4803 366 10 C366 15.5197 361.52 20 356 20 L331 20 C301 20 281 40 281 70 L281 321.56 C281 355.473 308.527 383 342.44 383 L554.56 383 C588.473 383 616 355.473 616 321.56 L616 70 C616 40 596 20 566 20 L541 20 C535.48 20 531 15.5197 531 10 C531 4.4803 535.48 0 541 0 L791 0 C796.52 0 801 4.4803 801 10 C801 15.5197 796.52 20 791 20 L791 20 Z " />
<glyph glyph-name="I" unicode="I" horiz-adv-x="385" d="M315 20 L290 20 C260 20 240 40 240 70 L240 680 C240 710 260 730 290 730 L315 730 C320.52 730 325 734.48 325 740 C325 745.52 320.52 750 315 750 L65 750 C59.4803 750 55 745.52 55 740 C55 734.48 59.4803 730 65 730 L90 730 C120 730 140 710 140 680 L140 70 C140 40 120 20 90 20 L65 20 C59.4803 20 55 15.5197 55 10 C55 4.4803 59.4803 0 65 0 L315 0 C320.52 0 325 4.4803 325 10 C325 15.5197 320.52 20 315 20 L315 20 Z " />
<glyph glyph-name="J" unicode="J" horiz-adv-x="385" d="M315 750 L65 750 C59.4803 750 55 745.52 55 740 C55 734.48 59.4803 730 65 730 L90 730 C120 730 140 710 140 680 L140 -72 C140 -167 82 -185 40 -185 C-9 -185 15 -105 -35 -105 C-62 -105 -80 -123 -80 -150 C-80 -192 -42 -220 15 -220 C110 -220 240 -166 240 116 L240 680 C240 710 260 730 290 730 L315 730 C320.52 730 325 734.48 325 740 C325 745.52 320.52 750 315 750 L315 750 Z " />
<glyph glyph-name="K" unicode="K" horiz-adv-x="775" d="M320 750 L70 750 C64.4803 750 60 745.52 60 740 C60 734.48 64.4803 730 70 730 L95 730 C125 730 145 710 145 680 L145 70 C145 40 125 20 95 20 L70 20 C64.4803 20 60 15.5197 60 10 C60 4.4803 64.4803 0 70 0 L320 0 C325.52 0 330 4.4803 330 10 C330 15.5197 325.52 20 320 20 L295 20 C265 20 245 40 245 70 L245 222.5 C245 276.641 308.264 299.686 343.087 258.23 L541.585 21.9223 C549.368 12.6569 576.53 0 588.63 0 L748 0 C753.52 0 758 4.4803 758 10 C758 15.5197 753.52 20 748 20 L723 20 C695 20 661 38 636 65 L356.557 397.118 C338.282 418.837 338.429 455.039 356.879 476.609 L524 672 C557 707 602 730 639 730 L669 730 C674.52 730 679 734.48 679 740 C679 745.52 674.52 750 669 750 L406 750 C400.48 750 396 745.52 396 740 C396 734.48 400.48 730 406 730 L435 730 C495 730 502 690 453 630 L341.392 493.173 C307.762 451.944 245 474.295 245 527.5 L245 680 C245 710 265 730 295 730 L320 730 C325.52 730 330 734.48 330 740 C330 745.52 325.52 750 320 750 L320 750 Z " />
<glyph glyph-name="L" unicode="L" horiz-adv-x="650" d="M315 750 L65 750 C59.4803 750 55 745.52 55 740 C55 734.48 59.4803 730 65 730 L90 730 C120 730 140 710 140 680 L140 70 C140 40 120 20 90 20 L65 20 C59.4803 20 55 15.5197 55 10 C55 4.4803 59.4803 0 65 0 L570.877 0 C573.085 0 575.465 1.85804 576 4 L577 8 C583.641 45.9487 592.982 96.4984 599.9 135.739 C600.703 140.296 597.126 142 592.5 142 C588.144 142 582.461 138.153 580.843 134.108 L576 122 C551 59 492 17 429 17 L320 17 C248 17 240 42 240 80 L240 680 C240 710 260 730 290 730 L315 730 C320.52 730 325 734.48 325 740 C325 745.52 320.52 750 315 750 L315 750 Z " />
<glyph glyph-name="M" unicode="M" horiz-adv-x="900" d="M855.986 750 L729.261 750 C706.088 750 678.322 729.998 670.983 708.017 L533.605 296.546 C514.468 239.229 438.408 238.136 417.633 294.88 L265.761 709.684 C258.11 730.58 230.32 750 208.066 750 L64 750 C58.4803 750 54 745.52 54 740 C54 734.48 58.4803 730 64 730 L89 730 C109.588 730 129.498 720.505 143.703 704.867 C148.11 700.016 151.739 684.951 151.55 678.4 C145.699 475.601 139.825 272.825 133 71 C132 41 112 21 82 21 L57 21 C51.4803 21 47 16.5197 47 11 C47 5.4803 51.4803 1 57 1 L241 1 C246.52 1 251 5.4803 251 11 C251 16.5197 246.52 21 241 21 L216 21 C188.824 21 170.125 37.0147 167.22 61.7294 C167.185 62.0334 167.045 66.5902 167.051 66.8962 L172 350.5 C173.082 412.494 261.407 428.928 284.714 371.472 L430.301 12.5832 C432.705 6.65855 441.106 1 447.5 1 C454.02 1 461.955 6.65095 464.088 12.8128 L655.106 564.83 C661.288 582.694 689.139 573.441 689.62 554.544 C693.719 393.431 697.7 231.875 701 71 C702 41 682 21 652 21 L628 21 C622.48 21 618 16.5197 618 11 C618 5.4803 622.48 1 628 1 L877 1 C882.52 1 887 5.4803 887 11 C887 16.5197 882.52 21 877 21 L852 21 C822 21 802 41 801 71 L781.106 683.73 C781.095 684.081 781.174 688.943 781.213 689.292 C784.093 715.014 802.8 732 830 732 L854.986 732 C859.954 732 864.224 736.04 864.5 741 C864.776 745.96 860.954 750 855.986 750 L855.986 750 Z " />
<glyph glyph-name="N" unicode="N" horiz-adv-x="786" d="M63 0 L243 0 C248.52 0 253 4.4803 253 10 C253 15.5197 248.52 20 243 20 L218 20 C188 20 168 40 168 70 L165.699 485.692 C165.473 526.499 219.158 537.852 243.23 504.9 C362.455 341.7 481.791 178.5 601.752 15.3 C604.386 11.7158 618.552 0 623 0 C628.519 0 633.046 4.48035 633.102 9.99948 L639.967 682.782 C639.971 683.133 640.245 687.859 640.299 688.206 C644.149 712.958 663.8 729 691 729 L716 729 C721.52 729 726 733.48 726 739 C726 744.52 721.52 749 716 749 L536 749 C530.48 749 526 744.52 526 739 C526 733.48 530.48 729 536 729 L561 729 C591 729 611 709 611 679 L611.765 289.805 C611.841 250.697 560.657 239.864 537.537 271.406 C427.734 421.205 318.427 571.394 209.15 721.043 C200.945 732.279 170.71 750 156.796 750 L4 750 C-1.5197 750 -6 745.52 -6 740 C-6 734.48 -1.5197 730 4 730 L29 730 C59 730 93 710 115 680 L127 664 C130.983 658.689 138.977 634.639 138.965 628 L138 70 C138 40 118 20 88 20 L63 20 C57.4803 20 53 15.5197 53 10 C53 4.4803 57.4803 0 63 0 L63 0 Z " />
<glyph glyph-name="O" unicode="O" horiz-adv-x="851" d="M159 375 C159 591 261 735 414 735 C578 735 687 591 687 375 C687 159 577 15 413 15 C261 15 159 159 159 375 L159 375 Z M50 375 C50 144 193 -10 408 -10 C641 -10 796 144 796 375 C796 606 645 760 418 760 C197 760 50 606 50 375 L50 375 Z " />
<glyph glyph-name="P" unicode="P" horiz-adv-x="628" d="M345 20 L320 20 C290 20 270 40 270 70 L270 319 C270 332.799 281.201 344 295 344 L320 344 C493 344 608 404 608 539 C608 666 513 750 370 750 L95 750 C89.4803 750 85 745.52 85 740 C85 734.48 89.4803 730 95 730 L120 730 C150 730 170 710 170 680 L170 70 C170 40 150 20 120 20 L95 20 C89.4803 20 85 15.5197 85 10 C85 4.4803 89.4803 0 95 0 L345 0 C350.52 0 355 4.4803 355 10 C355 15.5197 350.52 20 345 20 L345 20 Z M270 390 L270 695.5 C270 716.199 286.801 733 307.5 733 L345 733 C447 733 515 662 515 555 C515 424 437 365 320 365 L295 365 C281.201 365 270 376.201 270 390 L270 390 Z " />
<glyph glyph-name="Q" unicode="Q" horiz-adv-x="846" d="M1142.5 -37 C1140.71 -34.9523 1138.46 -33.543 1136.27 -35.1561 C1098.53 -62.9381 972.05 -81 818 -81 C634.7 -81 463.758 -53.4319 364.493 -10.3448 C363.264 -9.81112 364.487 -7.8581 365.82 -7.99174 C379.182 -9.33058 393.091 -10 407 -10 C640 -10 795 144 795 375 C795 606 644 760 417 760 C196 760 49 606 49 375 C49 210 122 84 242 26 C242.282 25.8637 254.296 17.6933 254.557 17.52 C419.167 -91.8019 636.275 -165 803 -165 C917.075 -165 1050.16 -117.469 1139.24 -46.5046 C1141.58 -44.6398 1144.47 -39.2522 1142.5 -37 L1142.5 -37 Z M159 375 C159 591 261 735 414 735 C578 735 687 591 687 375 C687 151 566 2 385 2 C249 2 159 151 159 375 L159 375 Z " />
<glyph glyph-name="R" unicode="R" horiz-adv-x="796" d="M70.5119 730 L95 730 C125 730 145 710 145 680 L145 70 C145 40 125 20 95 20 L70 20 C64.4803 20 60 15.5197 60 10 C60 4.4803 64.4803 0 70 0 L320 0 C325.52 0 330 4.4803 330 10 C330 15.5197 325.52 20 320 20 L295 20 C265 20 245 40 245 70 L245 304.5 C245 332.374 267.626 355 295.5 355 L325.161 355 C334.512 355 351.142 346.339 356.127 338.428 C384.906 292.75 449 199.125 533 81 C586.625 5.925 597.472 1.19625 771.303 1.00673 C776.829 1.00071 785 5.47428 785 11 C785 16.4968 777.762 20.999 772.265 21.0217 C695.41 21.34 688.95 25.9 650 81 C566.7 198.3 501.462 290.313 464.728 341.684 C457.426 351.896 464.827 368.7 476.836 372.356 C559.78 397.61 610 451.7 610 539 C610 666 506 751 349 751 L69.5119 751 C63.7162 751 59.2243 746.289 59.5 740.5 C59.7757 734.711 64.7162 730 70.5119 730 L70.5119 730 Z M244 433.5 L244 693.5 C244 714.199 260.801 731 281.5 731 L319 731 C427 731 499 662 499 559 C499 436 439 381 349 381 L296.5 381 C267.522 381 244 404.522 244 433.5 L244 433.5 Z " />
<glyph glyph-name="S" unicode="S" horiz-adv-x="551" d="M69.5421 8.86691 L72 23 C78 55 110 59 149 34 C192 6 242 -10 293 -10 C424 -10 512 72 512 196 C512 293 448 382 323 427 C205 470 144 536 144 601 C144 681 189 735 257 735 C275 735 293 733 310 729 C365 717 417 657 440 581 L446.623 560.469 C448.397 554.969 455.222 550 461 550 C467.072 550 472 554.928 472 561 L472 745.5 C472 750.192 468.192 754 463.5 754 L463.382 754 C458.966 754 453.817 750.215 452.5 746 L450 738 C444 715 419 712 388 729 C350 749 305 761 257 761 C142 761 65 682 65 564 C65 463 132 372 263 324 C375 283 432 225 432 168 C432 81 376 23 293 23 C263 23 233 29 205 40 C155 61 105 128 82 208 L76.1136 228.93 C74.4592 234.812 67.6106 240 61.5 240 C55.1523 240 50 234.848 50 228.5 L50 9 C50 4.03227 54.0323 0 59 0 C63.8943 0 68.7035 4.04502 69.5421 8.86691 L69.5421 8.86691 Z " />
<glyph glyph-name="T" unicode="T" horiz-adv-x="775" d="M263.012 0 L513 0 C518.52 0 523 4.4803 523 10 C523 15.5197 518.52 20 513 20 L488 20 C458 20 438 40 438 70 L438 663.56 C438 697.473 465.527 725 499.44 725 L596 725 C647 725 703 691 735 640 L755.495 607.208 C757.604 603.834 764.521 600 768.5 600 C772.876 600 774.901 605.376 773.303 609.449 C758.149 648.098 738.803 696.385 723.284 733.899 C723.2 734.102 721.091 740.182 721.03 740.393 L720.836 741.076 C720.783 741.258 719.531 746.813 719.5 747 C719.438 747.374 718.273 751.804 718.13 752.156 C713.128 764.442 706.971 777.851 702.312 789.201 C701.176 791.968 696.991 795 694 795 L692.031 795 C690.099 795 686.958 793.177 686 791.5 L684 788 C669 765 626 750 577 750 L197 750 C148 750 105 765 90 788 L88 791.5 C87.0415 793.177 83.9008 795 81.9689 795 L80 795 C76.9306 795 72.8995 792.284 71.7469 789.439 L50.5 737 C34.3718 698.103 13.2932 646.604 -3.34271 606.414 C-4.99962 602.412 -1.83223 600 2.5 600 C6.47859 600 13.3963 603.834 15.505 607.208 L36 640 C68 691 124 725 175 725 L277.56 725 C311.473 725 339 697.473 339 663.56 L339 70 C339 40 319 20 289 20 L264.012 20 C258.493 20 253.776 15.5128 253.5 10 C253.224 4.48719 257.493 0 263.012 0 L263.012 0 Z " />
<glyph glyph-name="U" unicode="U" horiz-adv-x="760" d="M720.315 52.5096 L695 46 C665 38 645 53 645 83 L645 688.56 C645 722.473 617.473 750 583.56 750 L470 750 C464.48 750 460 745.52 460 740 C460 734.48 464.48 730 470 730 L495 730 C525 730 545 710 545 680 L545 203.544 C545 199.509 540.869 181.469 538.96 177.913 C498.587 102.735 418.55 54 334 54 C260 54 210 120 210 220 L210 688.56 C210 722.473 182.473 750 148.56 750 L35 750 C29.4803 750 25 745.52 25 740 C25 734.48 29.4803 730 35 730 L60 730 C90 730 110 710 110 680 L110 220 C110 82 184 -10 294 -10 C382.275 -10 466.466 32.1987 517.375 99.1893 C524.136 108.086 545 104.944 545 93.7701 L545 25 C545 11.2007 556.201 0 570 0 L587.436 0 C588.458 0 600.111 1.28018 601.102 1.52913 C637.268 10.6138 683.119 22.493 720.567 32.4773 C725.729 33.8535 730 39.658 730 45 C730 50.3458 725.492 53.8409 720.315 52.5096 L720.315 52.5096 Z " />
<glyph glyph-name="V" unicode="V" horiz-adv-x="806" d="M118 635 L375.249 -0.730175 C377.168 -5.47323 383.883 -10 389 -10 C394.133 -10 400.791 -5.47395 402.679 -0.701422 L655 637 C680 690 724 725 767 725 L773.5 725 C777.088 725 780 727.912 780 731.5 L780 737.5 C780 744.4 774.4 750 767.5 750 L522.5 750 C515.6 750 510 744.4 510 737.5 C510 730.6 515.6 725 522.5 725 L551 725 C609 725 634 688 617 632 L488.202 284.106 C467.713 228.763 395.643 227.741 373.594 282.481 L232 634 C214 688 239 724 296 724 L308.5 724 C315.4 724 321 729.6 321 736.5 C321 743.4 315.4 749 308.5 749 L18.5 749 C11.6004 749 6 743.4 6 736.5 L6 729.5 C6 726.464 8.46416 724 11.5 724 L17 724 C54 724 93 688.5 118 634.5 L118 635 Z " />
<glyph glyph-name="W" unicode="W" horiz-adv-x="1109" d="M503 645 L550.571 520.975 C553.68 512.871 553.691 485.124 550.59 477.018 L472.756 273.577 C451.489 217.99 378.048 218.564 357.653 274.477 L222.5 645 C204.5 693 225 725 273 725 L283.5 725 C289.296 725 294 729.704 294 735.5 L294 737.5 C294 744.4 288.4 750 281.5 750 L21.5 750 C14.6004 750 9 744.4 9 737.5 L9 730.5 C9 727.464 11.4642 725 14.5 725 L20 725 C58 725 96 693 114 645 L361.506 2.66406 C363.82 -3.34359 372.062 -9 378.5 -9 C384.915 -9 393.241 -3.34239 395.604 2.62134 L545.221 380.304 C556.731 409.358 596.28 405.273 607.5 376.105 C655.5 251.33 703.5 126.666 751.5 2.62686 C753.822 -3.37482 762.065 -9 768.5 -9 C775.116 -9 782.671 -3.35783 784.55 2.98535 L975 646 C989 694 1031 726 1079 726 L1086.5 726 C1090.64 726 1094 729.36 1094 733.5 L1094 738.5 C1094 745.4 1088.4 751 1081.5 751 L834.5 751 C827.6 751 822 745.4 822 738.5 C822 731.6 827.6 726 834.5 726 L880 726 C926 726 949 696 939 651 L848.446 324.497 C831.995 265.181 752.425 262.123 731.471 320.002 L612 650 C597 696 617 726 664 726 L692.5 726 C699.4 726 705 731.6 705 738.5 C705 745.4 699.4 751 692.5 751 L407.5 751 C400.6 751 395 745.4 395 738.5 L395 732 C395 728.688 397.688 726 401 726 L407 726 C447 726 486 693.5 504 645.5 L503 645 Z " />
<glyph glyph-name="X" unicode="X" horiz-adv-x="789" d="M768.5 750 L538 750 C532.48 750 528 745.52 528 740 C528 734.48 532.48 730 538 730 L584 730 C617 730 623 708 600 675 L476.376 499.398 C449.56 461.307 399.873 462.274 374.56 501.381 L258.622 680.493 C258.477 680.718 255.952 685.089 255.836 685.329 C242.502 713.013 251.811 731 281 731 L308 731 C313.52 731 318 735.48 318 741 C318 746.52 313.52 751 308 751 L48 751 C42.4803 751 38 746.52 38 741 L38 738.5 C38 734.36 41.3602 731 45.5 731 L53 731 C86 731 122 709 143 676 L329.158 387.411 C340.893 369.219 338.992 334.135 326.276 316.615 C268.06 236.41 210.41 156.205 152 76 C128 43 90 21 57 21 L27 21 C21.4803 21 17 16.5197 17 11 C17 5.4803 21.4803 1 27 1 L253 1 C258.52 1 263 5.4803 263 11 C263 16.5197 258.52 21 253 21 L207 21 C177 21 168 40 185 69 L312.836 255.783 C339.392 294.584 389.613 293.922 415.137 254.435 L535 69 C551 40 542 21 511 21 L484 21 C478.48 21 474 16.5197 474 11 C474 5.4803 478.48 1 484 1 L745 1 C750.52 1 755 5.4803 755 11 L755 13.5 C755 17.6398 751.64 21 747.5 21 L740 21 C707 21 671 43 650 76 L460.319 369.871 C448.226 388.608 449.497 422.503 462.959 440.281 L646 682 C671 712 707 731 738 731 L768.5 731 C773.744 731 778 735.256 778 740.5 C778 745.744 773.744 750 768.5 750 L768.5 750 Z " />
<glyph glyph-name="Y" unicode="Y" horiz-adv-x="764" d="M279 750 L19 750 C13.4803 750 9 745.52 9 740 L9 737.5 C9 733.36 12.3602 730 16.5 730 L24 730 C57 730 93 708 114 675 L330.304 337.145 C333.19 332.638 340 309.369 340 304.017 L340 90 C340 48 312 20 270 20 L245 20 C239.48 20 235 15.5197 235 10 C235 4.4803 239.48 0 245 0 L535 0 C540.52 0 545 4.4803 545 10 C545 15.5197 540.52 20 535 20 L510 20 C468 20 440 48 440 90 L440 309.294 C440 313.455 447.603 338.9 449.6 342.55 C510.402 453.697 571.25 564.8 633 675 C651 708 685 730 718 730 L748 730 C753.52 730 758 734.48 758 740 C758 745.52 753.52 750 748 750 L509 750 C503.48 750 499 745.52 499 740 C499 734.48 503.48 730 509 730 L559 730 C592 730 603 708 587 675 L457.57 412.017 C444.654 385.774 409.855 388.344 394.376 413.162 C339.981 500.378 285.154 588.026 231 675 C210 708 218 730 251 730 L279 730 C284.52 730 289 734.48 289 740 C289 745.52 284.52 750 279 750 L279 750 Z " />
<glyph glyph-name="Z" unicode="Z" horiz-adv-x="652" d="M76.4763 605.667 L80 618 C100 681 156 723 218 725 L384.547 727.346 C437.798 728.096 466.124 675.75 436.367 631.582 L30.5875 29.2934 C28.8642 26.7356 25 14.0841 25 11 C25 5.4803 29.4803 1 35 1 L598.238 1 C602.378 1 606.933 4.5 608 8.5 L610 16 C610 16 623.309 69.235 641.585 149.753 C642.598 154.218 639.079 156 634.5 156 C630.188 156 624.35 152.151 622.652 148.187 L617 135 C590 76 534 35 475 29 L258.614 25.1012 C205.53 24.1447 176.986 76.0409 206.22 120.361 L603.494 722.652 C605.167 725.189 609 737.961 609 741 C609 746.52 604.52 751 599 751 L83.0557 751 C75.3281 751 68.4372 744.697 67.75 737 L66.5 723 C64.6 702.1 61.3462 660.443 56.7387 606.601 C56.315 601.649 60.0376 597.776 65 597.5 C69.8449 597.231 75.1432 601.001 76.4763 605.667 L76.4763 605.667 Z " />
<glyph glyph-name="bracketleft" unicode="&#x5b;" horiz-adv-x="295" d="M196.44 725 L332.5 725 C339.4 725 345 730.6 345 737.5 C345 744.4 339.4 750 332.5 750 L166.44 750 C132.527 750 105 722.473 105 688.56 L105 -133.56 C105 -167.473 132.527 -195 166.44 -195 L332.5 -195 C339.4 -195 345 -189.4 345 -182.5 C345 -175.6 339.4 -170 332.5 -170 L196.44 -170 C162.527 -170 135 -142.473 135 -108.56 L135 663.56 C135 697.473 162.527 725 196.44 725 L196.44 725 Z " />
<glyph glyph-name="backslash" unicode="&#x5c;" horiz-adv-x="347" d="M34.3126 746.093 L279.687 -56.0934 C283.547 -68.712 298.804 -80 312 -80 C325.196 -80 333.547 -68.712 329.687 -56.0934 L84.3126 746.093 C80.4528 758.712 65.1957 770 52 770 C38.8043 770 30.4528 758.712 34.3126 746.093 L34.3126 746.093 Z " />
<glyph glyph-name="bracketright" unicode="&#x5d;" horiz-adv-x="298" d="M158 663.56 L158 -108.56 C158 -142.473 130.473 -170 96.56 -170 L-39.5 -170 C-46.3996 -170 -52 -175.6 -52 -182.5 C-52 -189.4 -46.3996 -195 -39.5 -195 L126.56 -195 C160.473 -195 188 -167.473 188 -133.56 L188 688.56 C188 722.473 160.473 750 126.56 750 L-39.5 750 C-46.3996 750 -52 744.4 -52 737.5 C-52 730.6 -46.3996 725 -39.5 725 L96.56 725 C130.473 725 158 697.473 158 663.56 L158 663.56 Z " />
<glyph glyph-name="asciicircum" unicode="&#x5e;" horiz-adv-x="340" d="M200 755 C194 764 180 785 170 785 C160 785 146 764 140 755 L22.2357 572.562 C19.915 568.967 20.7126 563.739 24 561 C27.2971 558.252 32.4968 558.479 35.5424 561.503 L126.711 652.021 C150.605 675.743 189.395 675.743 213.289 652.021 L304.458 561.503 C307.503 558.479 312.703 558.252 316 561 C319.287 563.739 320.085 568.967 317.764 572.562 L200 755 L200 755 Z " />
<glyph glyph-name="underscore" unicode="&#x5f;" horiz-adv-x="455" d="M5 -73.5 C5 -86.4713 15.5287 -97 28.5 -97 L426.5 -97 C439.471 -97 450 -86.4713 450 -73.5 C450 -60.5287 439.471 -50 426.5 -50 L28.5 -50 C15.5287 -50 5 -60.5287 5 -73.5 L5 -73.5 Z " />
<glyph glyph-name="grave" unicode="&#x60;" horiz-adv-x="340" d="M-34 746 C-34 738 -8 714 30 682 L166.059 567.02 C169.327 564.259 174.475 564.475 177.5 567.5 C180.511 570.511 180.852 575.789 178.254 579.162 L69 721 C39 761 16 788 8 788 C-15 788 -34 769 -34 746 L-34 746 Z " />
<glyph glyph-name="a" unicode="a" horiz-adv-x="514" d="M516.5 105.5 C512.745 107.252 508.444 105.813 507.353 101.815 C499.734 73.8935 479.923 56 455 56 C422 56 400 74 400 102 L400 355 C400 462 344 510 259 510 C143 510 65 414 65 360 C65 324 85 300 114 300 C141 300 159 325 159 343 C159 361 139 385 139 403 C139 432 175 484 229 484 C281 484 316 454 316 386 L316 310.393 C316 286.706 292.288 257.733 269.703 250.591 C90.4925 193.918 46 166.7 46 89 C46 30 91 -9 159 -9 C195.9 -9 241.71 12.06 297.888 65.115 C305.153 71.9763 320.302 67.1815 324.054 57.9199 C339.49 19.8219 374.8 -4 421 -4 C469.45 -4 509.326 34.3562 522.624 93.0639 C523.665 97.6599 520.77 103.507 516.5 105.5 L516.5 105.5 Z M316 175 L316 129.071 C316 118.038 306.986 94.8266 298.842 87.3828 C259.891 51.7813 228.5 38 204 38 C160 38 131 63 131 100 C131 166.825 155.503 192.132 247.744 224.772 C284.098 237.636 316 213.562 316 175 L316 175 Z " />
<glyph glyph-name="b" unicode="b" horiz-adv-x="573" d="M15.9925 708.7 L30 708 C57 707 75 688 75 661 L75 0 L80 0 L97.0635 36.4021 C102.83 48.7043 122.745 50.1149 133.298 41.5573 C173.376 9.0575 229.125 -10 291 -10 C433 -10 528 95 528 253 C528 404 437 505 301 505 C258.1 505 213.839 487.304 180.008 458.088 C173.142 452.158 160 455.881 160 464.954 L160 728.999 C160 740.59 150.591 750.112 139 750.25 L126.848 750.395 C125.502 750.411 111.71 748.741 110.413 748.381 C80.166 739.985 41.7409 729.886 12.4848 721.697 C9.40964 720.836 10 718.193 10 715 C10 711.692 12.689 708.866 15.9925 708.7 L15.9925 708.7 Z M160 121.477 L160 390.853 C160 401.76 168.223 422.733 176.236 430.132 C203.197 455.026 236.3 470 266 470 C366 470 432 379 432 242 C432 102 378 9 296 9 C239.95 9 189.315 44.6487 163.815 101.371 C162.592 104.091 160 118.495 160 121.477 L160 121.477 Z " />
<glyph glyph-name="c" unicode="c" horiz-adv-x="503" d="M467 130.5 C463.802 131.832 460.625 132.038 459.133 128.911 C433.996 76.2225 375.35 42 311 42 C204 42 133 134 133 273 C133 404 197 491 292 491 C331 491 369 457 388 405 C397 380 414 363 431 363 C465 363 482 380 473 405 C450 468 380 510 297 510 C146 510 45 400 45 236 C45 88 139 -10 281 -10 C357.05 -10 432.149 42.2844 470.151 121.828 C471.736 125.147 470.396 129.085 467 130.5 L467 130.5 Z " />
<glyph glyph-name="d" unicode="d" horiz-adv-x="600" d="M356.511 708.674 L370 708 C397 707 415 688 415 661 L415 498.03 C415 488.371 403.559 483.004 394.688 486.825 C361.427 501.152 322.075 510 280 510 C125 510 45 406 45 251 C45 97 130 -5 257 -5 C309.7 -5 362.4 15.23 397.904 47.7064 C404.404 53.6511 415 47.3989 415 38.5911 L415 21.0015 C415 9.41012 424.409 -0.112017 436 -0.25 L448.68 -0.400947 C449.896 -0.415426 464.598 1.49728 465.774 1.80611 C499.726 10.7189 542.274 21.7811 576.226 30.6939 C581.393 32.0503 585 37.6579 585 43 C585 48.3458 580.492 51.8409 575.315 50.5096 L550 44 C520 36 500 51 500 81 L500 729 C500 740.591 490.591 750 479 750 L464.509 750 C463.676 750 452.391 748.769 451.578 748.586 C439.245 745.8 425.9 742.4 414 739 L355.307 723.65 C351.881 722.754 349.228 719.03 349.5 715.5 C349.774 711.941 352.946 708.853 356.511 708.674 L356.511 708.674 Z M414 366.836 L414 118.021 C414 108.055 406.03 87.0227 398.973 79.9855 C368.69 49.785 328.4 31 291 31 C195 31 131 129 131 275 C131 402 185 486 289 486 C341.25 486 390.793 439.973 411.049 384.785 C411.764 382.835 414 368.913 414 366.836 L414 366.836 Z " />
<glyph glyph-name="e" unicode="e" horiz-adv-x="540" d="M151.18 340 L448.016 340 C487.835 340 508.917 360.767 493.287 397.391 C459.173 477.33 389.275 510 301 510 C147 510 45 432 45 231 C45 86 138 -10 278 -10 C376.475 -10 462.592 44.1856 495.569 126.605 C496.771 129.61 495.623 133.648 492.5 134.5 C489.64 135.28 486.564 134.709 485.397 131.984 C463.238 80.2225 389.65 46 298 46 C200 46 135 134 135 266 C135 288.781 136.068 310.139 138.804 329.472 C139.695 335.767 144.822 340 151.18 340 L151.18 340 Z M365.309 363.301 L192.665 360.714 C163.375 360.275 147.339 377.023 159.074 403.863 C185.862 465.136 234.125 491 296 491 C338.9 491 375.334 466.498 398.564 406.824 C408.751 380.654 393.389 363.721 365.309 363.301 L365.309 363.301 Z " />
<glyph glyph-name="f" unicode="f" horiz-adv-x="368" d="M260 20 L220 20 C211 20 205 26 205 35 L205 393.56 C205 427.473 232.527 455 266.44 455 L335.5 455 C347.919 455 358 465.081 358 477.5 C358 489.919 347.919 500 335.5 500 L266.44 500 C229.566 500 204.2 521.72 207.42 558.454 C216.542 662.53 251.35 729 310 729 C353 729 394 635 430 635 C457 635 475 653 475 680 C475 725 421 755 340 755 C209.5 755 135.7 672.38 122.245 544.319 C120.278 525.599 97.639 491.674 79.9987 485.106 L30.6857 466.745 C28.2619 465.842 26 462.586 26 460 C26 457.24 28.2402 455 31 455 L73 455 C98.9426 455 120 433.943 120 408 L120 35 C120 26 114 20 105 20 L65 20 C59.4803 20 55 15.5197 55 10 C55 4.4803 59.4803 0 65 0 L260 0 C265.52 0 270 4.4803 270 10 C270 15.5197 265.52 20 260 20 L260 20 Z " />
<glyph glyph-name="g" unicode="g" horiz-adv-x="520" d="M541 479 C541 510 519 530 486 530 C457.1 530 426.033 510.493 402.623 478.847 C397.061 471.327 380.48 470.644 372.849 476.054 C342.244 497.749 302.025 510 255 510 C147 510 75 446 75 350 C75 289.775 102.225 241.801 148.814 213.94 C155.95 209.673 155.987 193.959 147.986 191.699 C89.68 175.23 55 143.95 55 104 C55 61.925 76.78 29.3788 113.04 12.5379 C118.969 9.78429 119.679 -2.63097 113.757 -5.39937 C70.7325 -25.5125 44 -58.45 44 -95 C44 -176 132 -230 264 -230 C396 -230 484 -165 484 -68 C484 23 432 84 298 84 L180 84 C134 84 103 102 103 130 C103 165 163 188 254 188 C362 188 434 253 434 350 C434 385.1 424.28 416.15 407.027 440.963 C403.835 445.553 404.038 453.356 407.621 457.648 C417.628 469.636 427.818 477 436 477 C457 477 484 442 505 442 C527 442 541 457 541 479 L541 479 Z M255 208 C198 208 160 265 160 350 C160 434 198 490 255 490 C312 490 350 434 350 350 C350 265 312 208 255 208 L255 208 Z M168 0.5 L177 0 L291 0 C380 0 414 -35 414 -88 C414 -162 356 -211 270 -211 C178 -211 116 -157 116 -75 C116 -45.3 129.77 -19.65 151.478 -3.882 C154.517 -1.67475 164.25 0.708334 168 0.5 L168 0.5 Z " />
<glyph glyph-name="h" unicode="h" horiz-adv-x="589" d="M24.9925 708.7 L39 708 C66 707 84 688 84 661 L84 35 C84 26 78 20 69 20 L29 20 C23.4803 20 19 15.5197 19 10 C19 4.4803 23.4803 0 29 0 L224 0 C229.52 0 234 4.4803 234 10 C234 15.5197 229.52 20 224 20 L184 20 C175 20 169 26 169 35 L169 343.618 C169 350.046 175.344 370.432 179.11 375.642 C211.78 420.84 264.7 450 316 450 C377 450 409 402 409 330 L409 35 C409 26 403 20 394 20 L354 20 C348.48 20 344 15.5197 344 10 C344 4.4803 348.48 0 354 0 L549 0 C554.52 0 559 4.4803 559 10 C559 15.5197 554.52 20 549 20 L509 20 C500 20 494 26 494 35 L494 330 C494 438 450 510 364 510 C302.95 510 239.178 475.969 194.582 421.944 C187.417 413.264 169 416.971 169 428.226 L169 728.999 C169 740.59 159.591 750.112 148 750.25 L135.848 750.395 C134.502 750.411 120.71 748.741 119.413 748.381 C89.166 739.985 50.7409 729.886 21.4848 721.697 C18.4096 720.836 19 718.193 19 715 C19 711.692 21.689 708.866 24.9925 708.7 L24.9925 708.7 Z " />
<glyph glyph-name="i" unicode="i" horiz-adv-x="274" d="M137 615 C170 615 192 637 192 670 C192 703 170 725 137 725 C104 725 82 703 82 670 C82 637 104 615 137 615 L137 615 Z M34.9925 458.7 L49 458 C76 457 94 438 94 411 L94 35 C94 26 88 20 79 20 L39 20 C33.4803 20 29 15.5197 29 10 C29 4.4803 33.4803 0 39 0 L234 0 C239.52 0 244 4.4803 244 10 C244 15.5197 239.52 20 234 20 L194 20 C185 20 179 26 179 35 L179 478.999 C179 490.59 169.591 500.112 158 500.25 L145.848 500.395 C144.502 500.411 130.71 498.741 129.413 498.381 C99.166 489.985 60.7409 479.886 31.4848 471.697 C28.4096 470.836 29 468.193 29 465 C29 461.692 31.689 458.866 34.9925 458.7 L34.9925 458.7 Z " />
<glyph glyph-name="j" unicode="j" horiz-adv-x="270" d="M138 614 C171 614 193 636 193 669 C193 702 171 724 138 724 C105 724 83 702 83 669 C83 636 105 614 138 614 L138 614 Z M35.9925 458.7 L50 458 C77 457 95 438 95 411 L95 50 C95 -22.625 78.9219 -83.7656 54.1348 -109.975 C44.8341 -119.809 41.4465 -119.761 28.0551 -117.789 C-0.378698 -113.604 -33.7692 -100 -60 -100 C-87 -100 -105 -116 -105 -140 C-105 -169 -81 -187 -45 -185 C-38 -185 4 -163 60 -130 C132 -88 180 -16 180 50 L180 478.999 C180 490.59 170.591 500.112 159 500.25 L146.848 500.395 C145.502 500.411 131.71 498.741 130.413 498.381 C100.166 489.985 61.7409 479.886 32.4848 471.697 C29.4096 470.836 30 468.193 30 465 C30 461.692 32.689 458.866 35.9925 458.7 L35.9925 458.7 Z " />
<glyph glyph-name="k" unicode="k" horiz-adv-x="564" d="M535.885 19.6133 C510.25 22.4844 486.625 35.5 463 60 L291.097 265.8 C268.433 292.932 272.83 332.48 300.901 353.971 L378 413 C428 452 488 478 527 478 L537 478 C542.52 478 547 482.48 547 488 C547 493.52 542.52 498.038 537 498.084 L487.5 498.5 L451.5 498.5 L287 498.029 C281.48 498.013 277 493.52 277 488 C277 482.48 281.48 478 287 478 L326 478 C379 478 377 447 322 398 L245.5 338.5 C212.169 312.576 169 333.689 169 375.915 L169 727.999 C169 739.59 159.591 749.112 148 749.25 L135.848 749.395 C134.502 749.411 120.71 747.741 119.413 747.381 C89.166 738.985 50.7409 728.886 21.4848 720.697 C18.4096 719.836 19 717.193 19 714 C19 710.692 21.689 707.866 24.9925 707.7 L39 707 C66 706 84 687 84 660 L84 34 C84 25 78 19 69 19 L29 19 C23.4803 19 19 14.5197 19 9 C19 3.4803 23.4803 -1 29 -1 L224 -1 C229.52 -1 234 3.4803 234 9 C234 14.5197 229.52 19 224 19 L184 19 C175 19 169 25 169 34 L169 156.5 C169 199.902 219.772 218.348 247.631 185.067 L354 58 C354 58 385 18 346 18 L342 18 C339.792 18 338 16.2079 338 14 L338 8 C338 2.4803 342.48 -2 348 -2 L535.488 -2 C541.284 -2 546.224 2.71087 546.5 8.5 C546.746 13.6731 541.032 19.0368 535.885 19.6133 L535.885 19.6133 Z M458 -2 L457 -1 L458 -2 L458 -2 Z " />
<glyph glyph-name="l" unicode="l" horiz-adv-x="264" d="M24.9925 708.7 L39 708 C66 707 84 688 84 661 L84 35 C84 26 78 20 69 20 L29 20 C23.4803 20 19 15.5197 19 10 C19 4.4803 23.4803 0 29 0 L224 0 C229.52 0 234 4.4803 234 10 C234 15.5197 229.52 20 224 20 L184 20 C175 20 169 26 169 35 L169 728.999 C169 740.59 159.591 750.112 148 750.25 L135.848 750.395 C134.502 750.411 120.71 748.741 119.413 748.381 C89.166 739.985 50.7409 729.886 21.4848 721.697 C18.4096 720.836 19 718.193 19 715 C19 711.692 21.689 708.866 24.9925 708.7 L24.9925 708.7 Z " />
<glyph glyph-name="m" unicode="m" horiz-adv-x="874" d="M834 19 L794 19 C785 19 779 25 779 34 L779 330 C779 438 741 510 642 510 C589.3 510 531.543 475.32 489.608 420.699 C482.482 411.418 463.579 415.166 459.63 426.181 C440.806 478.691 402.175 510 337 510 C288.325 510 234.205 477.33 193.17 425.466 C186.285 416.764 169 420.581 169 431.677 L169 478.999 C169 490.59 159.591 500.112 148 500.25 L135.848 500.395 C134.502 500.411 120.71 498.741 119.413 498.381 C89.166 489.985 50.7409 479.886 21.4848 471.697 C18.4096 470.836 19 468.193 19 465 C19 461.692 21.689 458.866 24.9925 458.7 L39 458 C66 457 84 438 84 411 L84 35 C84 26 78 20 69 20 L29 20 C23.4803 20 19 15.5197 19 10 C19 4.4803 23.4803 0 29 0 L224 0 C229.52 0 234 4.4803 234 10 C234 15.5197 229.52 20 224 20 L184 20 C175 20 169 26 169 35 L169 348.684 C169 355.091 174.403 374.006 178.151 379.203 C207.77 420.27 256.1 447 302 447 C365 447 389 400 389 330 L389 35 C389 26 383 20 374 20 L334 20 C328.48 20 324 15.5197 324 10 C324 4.4803 328.48 0 334 0 L529 0 C534.52 0 539 4.4803 539 10 C539 15.5197 534.52 20 529 20 L489 20 C480 20 474 26 474 35 L474 330 C474 341.529 473.322 352.381 472.524 363.112 C472.34 365.59 475.1 374.757 476.534 376.785 C506.395 419.022 557.6 447 607 447 C670 447 694 400 694 330 L694 34 C694 25 688 19 679 19 L639 19 C633.48 19 629 14.5197 629 9 C629 3.4803 633.48 -1 639 -1 L834 -1 C839.52 -1 844 3.4803 844 9 C844 14.5197 839.52 19 834 19 L834 19 Z " />
<glyph glyph-name="n" unicode="n" horiz-adv-x="569" d="M24.9925 458.7 L39 458 C66 457 84 438 84 411 L84 35 C84 26 78 20 69 20 L29 20 C23.4803 20 19 15.5197 19 10 C19 4.4803 23.4803 0 29 0 L224 0 C229.52 0 234 4.4803 234 10 C234 15.5197 229.52 20 224 20 L184 20 C175 20 169 26 169 35 L169 343.818 C169 349.603 175.254 370.544 178.486 375.343 C208.33 419.65 250 448 286 448 C354 448 389 401 389 330 L389 35 C389 26 383 20 374 20 L334 20 C328.48 20 324 15.5197 324 10 C324 4.4803 328.48 0 334 0 L529 0 C534.52 0 539 4.4803 539 10 C539 15.5197 534.52 20 529 20 L489 20 C480 20 474 26 474 35 L474 330 C474 438 427 510 337 510 C289.975 510 235.463 475.969 193.679 421.944 C186.716 412.941 169 416.845 169 428.226 L169 478.999 C169 490.59 159.591 500.112 148 500.25 L135.848 500.395 C134.502 500.411 120.71 498.741 119.413 498.381 C89.166 489.985 50.7409 479.886 21.4848 471.697 C18.4096 470.836 19 468.193 19 465 C19 461.692 21.689 458.866 24.9925 458.7 L24.9925 458.7 Z " />
<glyph glyph-name="o" unicode="o" horiz-adv-x="613" d="M139 250 C139 390 206 484 307 484 C408 484 475 390 475 250 C475 110 408 16 307 16 C206 16 139 110 139 250 L139 250 Z M45 250 C45 94 150 -10 307 -10 C464 -10 568 94 568 250 C568 406 464 510 307 510 C150 510 45 406 45 250 L45 250 Z " />
<glyph glyph-name="p" unicode="p" horiz-adv-x="571" d="M10.4919 458.675 L24 458 C51 457 69 438 69 411 L69 -185 C69 -194 63 -200 54 -200 L14 -200 C8.4803 -200 4 -204.48 4 -210 C4 -215.52 8.4803 -220 14 -220 L209 -220 C214.52 -220 219 -215.52 219 -210 C219 -204.48 214.52 -200 209 -200 L169 -200 C160 -200 154 -194 154 -185 L154 8.32997 C154 17.4075 164.931 22.3723 173.083 18.3795 C204.142 3.1675 240.05 -5 278 -5 C427 -5 526 116 526 257 C526 409 437 510 303 510 C254.325 510 206.331 491.623 173.055 461.608 C166.956 456.106 154 459.187 154 467.401 L154 479.999 C154 491.59 144.591 501.112 133 501.25 L120.848 501.395 C119.502 501.411 105.905 499.795 104.608 499.435 C75.9924 491.49 40.0076 482.01 11.3924 474.065 C8.04976 473.137 4 468.969 4 465.5 C4 461.917 6.91303 458.854 10.4919 458.675 L10.4919 458.675 Z M154 140.271 L154 387.849 C154 395.794 160.34 415.94 165.449 422.023 C193.422 455.328 229.625 476 262 476 C364 476 432 378 432 231 C432 115 372 17 282 17 C228.8 17 179.661 58.515 156.875 120.968 C156.171 122.898 154 138.217 154 140.271 L154 140.271 Z " />
<glyph glyph-name="q" unicode="q" horiz-adv-x="551" d="M535.988 -200 L496 -200 C487 -200 481 -194 481 -185 L481 500 L476 500 L459.644 465.596 C454.033 453.793 434.989 452.484 424.941 460.842 C387.116 492.304 335.1 510 279 510 C115 510 31 406 31 251 C31 97 118 -5 248 -5 C293.375 -5 340.111 12.6962 374.732 41.9121 C381.63 47.7325 395 44.0714 395 35.0463 L395 -185 C395 -194 389 -200 380 -200 L340 -200 C334.48 -200 330 -204.48 330 -210 C330 -215.52 334.48 -220 340 -220 L534.988 -220 C540.507 -220 545.224 -215.513 545.5 -210 C545.776 -204.487 541.507 -200 535.988 -200 L535.988 -200 Z M395 378.971 L395 113.882 C395 103.721 387.55 82.9954 380.297 75.8787 C351.212 47.34 315.3 30 283 30 C184 30 118 128 118 275 C118 405 171 491 273 491 C321.45 491 367.193 455.351 391.365 398.629 C392.43 396.132 395 381.686 395 378.971 L395 378.971 Z " />
<glyph glyph-name="r" unicode="r" horiz-adv-x="420" d="M26.0133 458.699 L40 458 C67 457 85 438 85 411 L85 35 C85 26 79 20 70 20 L30 20 C24.4803 20 20 15.5197 20 10 C20 4.4803 24.4803 0 30 0 L225 0 C230.52 0 235 4.4803 235 10 C235 15.5197 230.52 20 225 20 L185 20 C176 20 170 26 170 35 L170 346.891 C170 349.072 172.813 364.984 173.583 367.025 C197.1 429.387 236.05 470 275 470 C296 470 310 456 310 435 C310 405 330 385 360 385 C390 385 410 405 410 435 C410 480 372 510 315 510 C262.2 510 214.845 480.733 186.411 433.43 C183.144 427.995 171 429.773 171 436.114 L171 478.999 C171 490.59 161.591 500.112 150 500.25 L137.848 500.395 C136.502 500.411 122.71 498.741 121.413 498.381 C91.166 489.985 52.7409 479.886 23.4848 471.697 C20.4813 470.856 20.759 468.108 20.5 465 C20.2242 461.69 22.696 458.865 26.0133 458.699 L26.0133 458.699 Z " />
<glyph glyph-name="s" unicode="s" horiz-adv-x="428" d="M353 349.5 L353 503.5 C353 507.088 350.088 510 346.5 510 L346.325 510 C343.013 510 339.047 507.142 338 504 L336 498 C333 487 306 488 267 499 C247 506 226 510 204 510 C117 510 59 458 59 380 C59 305 107 243 199 218 C274 198 313 155 313 106 C313 32 247 -9 174 18 C127 35 89 90 78 156 L75.3098 170.124 C74.5996 173.852 70.7955 177 67 177 C63.1362 177 60 173.864 60 170 L60 6 C60 2.13621 63.1362 -1 67 -1 L67.3292 -1 C70.917 -1 74.6932 2.00407 75.5 5.5 L77 12 C81 27 110 22 149 5 C171 -5 194 -10 218 -10 C314 -10 378 46 378 130 C378 199 330 257 237 282 C159 303 119 352 119 409 C119 470 172 501 237 486 C285 474 324 425 335 363 L336.939 349.425 C337.519 345.368 341.402 342 345.5 342 C349.64 342 353 345.36 353 349.5 L353 349.5 Z " />
<glyph glyph-name="t" unicode="t" horiz-adv-x="378" d="M310.5 500 L240 500 C206.882 500 180 526.882 180 560 L180 617 C180 618.656 178.656 620 177 620 C175.79 620 172.777 618.692 171.951 617.809 L33.415 469.652 C32.1276 468.275 30 462.885 30 461 C30 458.24 32.2402 456 35 456 L62.5 456 C80.439 456 95 441.439 95 423.5 L95 160 C95 38 150 -10 232 -10 C288.55 -10 342.248 29.9262 366.215 91.2416 C367.328 94.0875 365.837 96.8652 363 98 C360.41 99.036 356.667 96.3691 355.565 93.8067 C338.987 55.27 300.75 30 258 30 C210 30 178 61 178 141 L179.611 393.951 C179.826 427.648 207.353 455 241.05 455 L310.5 455 C322.919 455 333 465.081 333 477.5 C333 489.919 322.919 500 310.5 500 L310.5 500 Z " />
<glyph glyph-name="u" unicode="u" horiz-adv-x="560" d="M534.889 48.1689 L520 44 C490 36 470 51 470 81 L470 438.56 C470 472.473 442.473 500 408.56 500 L330 500 C324.48 500 320 495.52 320 490 C320 484.48 324.48 480 330 480 L370 480 C379 480 385 474 385 465 L385 157.141 C385 153.107 380.663 134.85 378.754 131.295 C351.489 80.5137 305.1 48 257 48 C202 48 165 92 165 159 L165 437.56 C165 471.473 137.473 499 103.56 499 L25 499 C19.4803 499 15 494.52 15 489 C15 483.48 19.4803 479 25 479 L65 479 C74 479 80 473 80 464 L80 159 C80 57 135 -11 217 -11 C273.925 -11 328.808 23.7119 364.804 79.6593 C369.527 86.9995 385 84.3815 385 75.6532 L385 20.0015 C385 8.41012 394.409 -1.11202 406 -1.25 L420.2 -1.41904 C421.197 -1.43091 432.341 0.0882758 433.3 0.361277 C444.737 3.61773 457.368 6.63158 470 10 C492.176 15.9706 515.08 21.9412 534.989 27.2912 C540.415 28.7494 545 34.8813 545 40.5 C545 46.081 540.263 49.6737 534.889 48.1689 L534.889 48.1689 Z " />
<glyph glyph-name="v" unicode="v" horiz-adv-x="538" d="M515.488 500 L374 500 C368.48 500 364 495.52 364 490 C364 484.997 368.7 480.042 373.681 479.573 C401.14 476.99 414.1 462.5 406 431 L319.156 172.972 C313.237 155.387 288.922 157.613 282.499 175.02 C251.761 258.319 220.7 341.5 191 424 C179 457 190 479 219 479 L223.5 479 C225.984 479 228 481.016 228 483.5 L228 489 C228 494.52 223.52 499 218 499 L22 499 C16.4803 499 12 494.52 12 489 C12 483.84 15.8963 479.048 21.0453 478.711 C57.4822 476.332 84.55 459.15 97.5 424 L253.673 0.727216 C255.914 -5.34567 264.027 -11 270.5 -11 C276.984 -11 284.75 -6.214 286.973 -0.123172 C338.601 141.299 389.35 283.6 442 424 C454.95 459.15 481.59 476.332 517.963 478.711 C523.385 479.066 526.758 484.072 526.5 489.5 C526.224 495.289 521.284 500 515.488 500 L515.488 500 Z " />
<glyph glyph-name="w" unicode="w" horiz-adv-x="810" d="M786.988 500 L645 500 C639.48 500 635 495.52 635 490 L635 484.5 C635 482.016 637.016 480 639.5 480 L644 480 C673 480 685 458 673 425 L522.196 1.77483 C520.014 -4.34747 524.001 -10 530.5 -10 C536.935 -10 545.188 -4.34343 547.509 1.65855 L712 427 C725.875 461.225 751.729 477.482 787.187 479.728 C792.33 480.054 796.243 484.853 796.5 490 C796.776 495.513 792.507 500 786.988 500 L786.988 500 Z M217.989 500 L21 500 C15.4803 500 11 495.52 11 490 C11 484.827 14.6665 480.053 19.8291 479.728 C55.4156 477.488 82.125 461.3 96 428 L254.649 0.718314 C256.9 -5.34536 265.032 -11 271.5 -11 C277.948 -11 286.155 -5.34412 288.45 0.681097 L344.854 148.741 C366.095 204.499 439.953 203.777 460.1 147.615 L493.185 55.3877 C501.492 32.2291 532.302 32.3022 540.5 55.5 L556.735 101.44 C559.263 108.595 558.448 137.577 555.9 144.725 C522.6 238.144 489.3 331.5 456 424 C444 457 456 479 485 479 L489.5 479 C491.984 479 494 481.016 494 483.5 L494 489 C494 494.52 489.52 499 484 499 L286 499 C280.48 499 276 494.52 276 489 C276 483.828 279.652 479.054 284.813 478.728 C320.271 476.488 346.125 460.3 360 427 L380.688 368.631 C383.24 361.431 383.196 334.585 380.621 327.393 L347 233.5 C332.413 192.762 278.648 192.419 263.542 232.967 L192 425 C181 457 192 478 221 478 L225.5 478 C227.981 478 229.908 480.017 229.796 482.495 L229.5 489 C229.224 495.065 224.06 500 217.989 500 L217.989 500 Z " />
<glyph glyph-name="x" unicode="x" horiz-adv-x="547" d="M503 500 L369 500 C363.48 500 359 495.52 359 490 L359 484 C359 481.792 360.792 480 363 480 L367 480 C410 480 372 425 372 425 L330.5 365 C309.557 334.722 270.156 335.836 250.958 367.25 L212 431 C196 461 201 481 227 481 L231 481 C233.208 481 235 482.792 235 485 L235 491 C235 496.52 230.52 501 225 501 L23 501 C17.4803 501 13 496.52 13 491 C13 485.827 17.1666 481.036 22.3298 480.711 C60.1825 478.332 91.725 461.15 113 426 L209.052 270.527 C220.316 252.293 218.852 218.702 206.044 201.518 L111 74 C85.1 40.7 54.0662 23.6569 17.1073 21.2877 C11.9513 20.9572 8 16.1666 8 11 C8 5.4803 12.4803 1 18 1 L152 1 C157.52 1 162 5.4803 162 11 L162 17 C162 19.2079 160.208 21 158 21 L154 21 C128 21 126 43 148 76 L195.5 146 C219.417 181.245 265.04 180.247 287.391 143.988 L333 70 C349 40 344 20 318 20 L314 20 C311.792 20 310 18.2079 310 16 L310 10 C310 4.4803 314.48 0 320 0 L522 0 C527.52 0 532 4.4803 532 10 C532 15.1734 527.833 19.964 522.67 20.2886 C484.818 22.6681 453.275 39.85 432 75 L318.336 260.034 C310.471 272.838 312.396 297.62 321.375 309.67 C350.25 348.419 379.125 387.05 408 425 C433.9 459.225 465.789 477.193 503.668 479.696 C508.813 480.036 513 484.844 513 490 C513 495.52 508.52 500 503 500 L503 500 Z " />
<glyph glyph-name="y" unicode="y" horiz-adv-x="558" d="M535.888 500 L394 500 C388.48 500 384 495.52 384 490 L384 484.5 C384 482.016 386.016 480 388.5 480 L393 480 C422 480 435 458 424 425 L373.5 271.5 C355.199 215.873 283.03 212.965 260.314 266.939 L191.242 431.048 C191.124 431.33 189.344 436.269 189.264 436.564 C181.762 464.312 193.649 477.116 217.722 479.56 C222.659 480.061 227 485.038 227 490 C227 495.52 222.52 500 217 500 L22 500 C16.4803 500 12 495.52 12 490 C12 484.839 15.9043 480.047 21.0541 479.711 C57.5656 477.332 85.2 460.15 100 425 L268.206 24.329 C271.916 15.4911 272.171 -13.5359 268.675 -22.4607 C251.277 -66.8775 235 -111.8 218 -156 C209 -179 195 -194 191 -194 C169 -194 164 -165 141 -165 C114 -165 96 -183 96 -210 C96 -240 116 -260 146 -260 C172 -260 218 -223 239 -167 L299 -10 C354.385 141.795 409.769 292.538 465.154 444.387 C465.249 444.648 462.095 435.193 462.222 435.439 C476.746 463.486 500.419 477.081 531.902 479.575 C536.903 479.971 543.756 485.039 544.5 490 C545.319 495.459 541.408 500 535.888 500 L535.888 500 Z " />
<glyph glyph-name="z" unicode="z" horiz-adv-x="475" d="M299 27 L221.5 25 C186.021 24.0844 166.578 58.4572 185.64 88.3937 L429.629 471.565 C431.221 474.066 435 487.035 435 490 C435 495.52 430.52 500 425 500 L122 500 C105.333 500 95.6111 509.722 95.1481 523.38 C95.0145 527.321 90.7243 532 86.7805 532 L85 532 C79.1696 532 72.9637 528.457 71.3297 522.86 C55.9239 470.091 59.2562 480.681 32.2566 381.302 C30.9302 376.42 34.4409 373 39.5 373 L40.6783 373 C44.5421 373 51.4106 376.75 53.5 380 L58 387 C84.325 431.85 128.712 464.342 174.477 471.5 C174.757 471.543 180.826 472.073 181.11 472.08 L255.5 474 C290.904 474.914 310.272 440.55 291.157 410.736 L45.3973 27.4184 C43.7894 24.9104 40 11.9792 40 9 C40 3.4803 44.4803 -1 50 -1 L422.483 -1 C426.623 -1 430.225 2.36939 430.5 6.5 L431 14 C431 14 436.415 54.6125 442.958 116.975 C443.503 122.172 439.725 127 434.5 127 L433.276 127 C429.137 127 423.251 123.251 421.5 119.5 L418 112 C397 62 349 28.5 299 26.5 L299 27 Z " />
<glyph glyph-name="bar" unicode="&#x7c;" horiz-adv-x="186" d="M60 767 L60 -217 C60 -235.215 74.785 -250 93 -250 C111.215 -250 126 -235.215 126 -217 L126 767 C126 785.215 111.215 800 93 800 C74.785 800 60 785.215 60 767 L60 767 Z " />
<glyph glyph-name="asciitilde" unicode="&#x7e;" horiz-adv-x="340" d="M30.2808 318.089 C32.5148 349.55 47.9231 370 71 370 C123 370 192 305 244 305 C291.775 305 323.389 350.63 324.94 419.645 C325.035 423.877 321.733 425 317.5 425 C313.681 425 309.996 420.915 309.7 417.108 C307.244 385.535 289.9 365 264 365 C212 365 143 430 91 430 C46.15 430 16.51 384.37 15.056 315.355 C14.967 311.129 18.273 310 22.5 310 C26.3466 310 30.0084 314.252 30.2808 318.089 L30.2808 318.089 Z " />
<glyph glyph-name="exclamdown" unicode="&#xa1;" horiz-adv-x="244" d="M122 505 C86 505 62 481 62 445 C62 409 86 385 122 385 C158 385 182 409 182 445 C182 481 158 505 122 505 L122 505 Z M122 -255 C163 -255 180 -213 174 -150 C174 -150 132.173 142.792 130.081 279.778 C130.015 284.125 126.348 290 122 290 C117.652 290 113.985 284.125 113.919 279.778 C111.827 142.792 70 -150 70 -150 C64 -213 81 -255 122 -255 L122 -255 Z " />
<glyph glyph-name="cent" unicode="&#xa2;" horiz-adv-x="503" d="M267 560.491 L267 542 C267 526.073 253.209 507.696 237.644 504.316 C120.295 478.836 45 377.525 45 236 C45 103.725 120.295 11.6644 237.644 -6.14939 C253.408 -8.5424 267 -25.5553 267 -41.5 L267 -59 C267 -67.2796 273.72 -74 282 -74 C290.28 -74 297 -67.2796 297 -59 L297 -41 C297 -26.4921 315.15 -5.84083 329.089 -1.81925 C387.153 14.9324 439.908 60.7467 469.385 123.27 C470.952 126.593 469.391 130.087 466 131.5 C462.806 132.831 459.531 132.815 458.05 129.688 C436.466 84.0999 389.777 51.6959 333.857 44.7639 C309.095 41.6943 296 56.1696 296 81.1214 L296 473.439 C296 485.786 300.774 492.457 312.525 488.669 C343.395 478.717 371.7 448.5 387 406 C396 381 413 364 430 364 C464 364 481 381 472 406 C451.875 461.125 395.766 500.172 326.449 509.072 C310.922 511.066 296 527.846 296 543.5 L296 561.491 C296 569.495 289.499 575.776 281.5 575.5 C273.501 575.224 267 568.495 267 560.491 L267 560.491 Z M225.824 66.1827 C167.392 101.791 132 176.825 132 275 C132 373.175 168.073 446.848 226.181 477.487 C250.959 490.552 266 477.91 266 449.9 L266 91.45 C266 64.1235 249.159 51.9623 225.824 66.1827 L225.824 66.1827 Z " />
<glyph glyph-name="acute" unicode="&#xb4;" horiz-adv-x="340" d="M183.941 567.02 L320 682 C358 715 384 740 384 746 C384 769 365 788 342 788 C336 788 313 761 281 721 L171.746 579.162 C169.148 575.789 169.489 570.511 172.5 567.5 C175.525 564.475 180.673 564.259 183.941 567.02 L183.941 567.02 Z " />
<glyph glyph-name="questiondown" unicode="&#xbf;" horiz-adv-x="299" d="M174 505 C138 505 114 481 114 445 C114 409 138 385 174 385 C210 385 234 409 234 445 C234 481 210 505 174 505 L174 505 Z M174 282.5 L174 186.5 C174 164.731 151.877 140.278 130.361 136.973 C69.4194 127.61 42.05 97.25 14 56 C-4 29 -16 -15 -16 -55 C-16 -178 52 -260 154 -260 C202 -260 234 -235 234 -197 C234 -172 216 -155 188 -155 C168 -155 142 -170 123 -170 C55 -170 10 -120 10 -45 C10 -29 19 -5 33 15 C51 42 77 60 202 60 C202.557 60 200.991 61.5429 200.823 62.0736 C193.512 85.1325 189 290 189 290 C189 290 185.732 290 181.5 290 C177.36 290 174 286.64 174 282.5 L174 282.5 Z M202 60 L202 60 L202 60 L202 60 Z " />
<glyph glyph-name="Agrave" unicode="&#xc0;" horiz-adv-x="796" d="M217 996 C217 988 243 964 281 932 L417.059 817.02 C420.327 814.259 425.475 814.475 428.5 817.5 C431.511 820.511 431.852 825.789 429.254 829.162 L320 971 C290 1011 267 1038 259 1038 C236 1038 217 1019 217 996 L217 996 Z M305 12.5 C305 19.3996 299.4 25 292.5 25 L278 25 C222 25 194 60 207 114 L245.457 236.028 C252.587 258.65 280.336 279 304.056 279 L464.915 279 C488.654 279 516.403 258.637 523.525 235.991 L560 120 C576 63 548 25 490 25 L475.5 25 C468.6 25 463 19.3996 463 12.5 C463 5.60037 468.6 0 475.5 0 L777.5 0 C784.4 0 790 5.60037 790 12.5 L790 18 C790 21.8638 786.864 25 783 25 L776 25 C728 25 684 63 664 120 L472.873 717.273 C472.829 717.409 472.01 719.957 471.979 720.097 C471.44 722.531 460.872 770 456 770 L451 770 C448.783 770 446.432 767.095 446.333 764.88 C445.424 744.635 417.947 727.429 375.566 720.549 C372.792 720.099 372.692 717.692 373.5 715 C373.973 713.422 370.714 696.94 370.2 695.375 C307.799 505.25 245.375 315.125 182 125 C162 65 109 25 49 25 L26.5 25 C19.6004 25 14 19.3996 14 12.5 C14 5.60037 19.6004 0 26.5 0 L292.5 0 C299.4 0 305 5.60037 305 12.5 L305 12.5 Z M292.299 384.972 L326.172 492.044 C344.783 550.873 424.907 550.775 443.374 491.901 L476.96 384.829 C490.148 342.785 462.399 305 418.336 305 L350.878 305 C306.736 305 278.985 342.885 292.299 384.972 L292.299 384.972 Z " />
<glyph glyph-name="Aacute" unicode="&#xc1;" horiz-adv-x="796" d="M434.941 817.02 L571 932 C609 965 635 990 635 996 C635 1019 616 1038 593 1038 C587 1038 564 1011 532 971 L422.746 829.162 C420.148 825.789 420.489 820.511 423.5 817.5 C426.525 814.475 431.673 814.259 434.941 817.02 L434.941 817.02 Z M305 12.5 C305 19.3996 299.4 25 292.5 25 L278 25 C222 25 194 60 207 114 L245.457 236.028 C252.587 258.65 280.336 279 304.056 279 L464.915 279 C488.654 279 516.403 258.637 523.525 235.991 L560 120 C576 63 548 25 490 25 L475.5 25 C468.6 25 463 19.3996 463 12.5 C463 5.60037 468.6 0 475.5 0 L777.5 0 C784.4 0 790 5.60037 790 12.5 L790 18 C790 21.8638 786.864 25 783 25 L776 25 C728 25 684 63 664 120 L472.873 717.273 C472.829 717.409 472.01 719.957 471.979 720.097 C471.44 722.531 460.872 770 456 770 L451 770 C448.783 770 446.432 767.095 446.333 764.88 C445.424 744.635 417.947 727.429 375.566 720.549 C372.792 720.099 372.692 717.692 373.5 715 C373.973 713.422 370.714 696.94 370.2 695.375 C307.799 505.25 245.375 315.125 182 125 C162 65 109 25 49 25 L26.5 25 C19.6004 25 14 19.3996 14 12.5 C14 5.60037 19.6004 0 26.5 0 L292.5 0 C299.4 0 305 5.60037 305 12.5 L305 12.5 Z M292.299 384.972 L326.172 492.044 C344.783 550.873 424.907 550.775 443.374 491.901 L476.96 384.829 C490.148 342.785 462.399 305 418.336 305 L350.878 305 C306.736 305 278.985 342.885 292.299 384.972 L292.299 384.972 Z " />
<glyph glyph-name="Acircumflex" unicode="&#xc2;" horiz-adv-x="796" d="M451 1005 C445 1014 431 1035 421 1035 C411 1035 397 1014 391 1005 L273.236 822.562 C270.915 818.967 271.713 813.739 275 811 C278.297 808.252 283.497 808.479 286.542 811.503 L377.711 902.021 C401.605 925.743 440.395 925.743 464.289 902.021 L555.458 811.503 C558.503 808.479 563.703 808.252 567 811 C570.287 813.739 571.085 818.967 568.764 822.562 L451 1005 L451 1005 Z M305 12.5 C305 19.3996 299.4 25 292.5 25 L278 25 C222 25 194 60 207 114 L245.457 236.028 C252.587 258.65 280.336 279 304.056 279 L464.915 279 C488.654 279 516.403 258.637 523.525 235.991 L560 120 C576 63 548 25 490 25 L475.5 25 C468.6 25 463 19.3996 463 12.5 C463 5.60037 468.6 0 475.5 0 L777.5 0 C784.4 0 790 5.60037 790 12.5 L790 18 C790 21.8638 786.864 25 783 25 L776 25 C728 25 684 63 664 120 L472.873 717.273 C472.829 717.409 472.01 719.957 471.979 720.097 C471.44 722.531 460.872 770 456 770 L451 770 C448.783 770 446.432 767.095 446.333 764.88 C445.424 744.635 417.947 727.429 375.566 720.549 C372.792 720.099 372.692 717.692 373.5 715 C373.973 713.422 370.714 696.94 370.2 695.375 C307.799 505.25 245.375 315.125 182 125 C162 65 109 25 49 25 L26.5 25 C19.6004 25 14 19.3996 14 12.5 C14 5.60037 19.6004 0 26.5 0 L292.5 0 C299.4 0 305 5.60037 305 12.5 L305 12.5 Z M292.299 384.972 L326.172 492.044 C344.783 550.873 424.907 550.775 443.374 491.901 L476.96 384.829 C490.148 342.785 462.399 305 418.336 305 L350.878 305 C306.736 305 278.985 342.885 292.299 384.972 L292.299 384.972 Z " />
<glyph glyph-name="Atilde" unicode="&#xc3;" horiz-adv-x="796" d="M281.281 878.089 C283.515 909.55 298.923 930 322 930 C374 930 443 865 495 865 C542.775 865 574.389 910.63 575.94 979.645 C576.035 983.877 572.733 985 568.5 985 C564.681 985 560.996 980.915 560.7 977.108 C558.244 945.535 540.9 925 515 925 C463 925 394 990 342 990 C297.15 990 267.51 944.37 266.056 875.355 C265.967 871.129 269.273 870 273.5 870 C277.347 870 281.008 874.252 281.281 878.089 L281.281 878.089 Z M305 12.5 C305 19.3996 299.4 25 292.5 25 L278 25 C222 25 194 60 207 114 L245.457 236.028 C252.587 258.65 280.336 279 304.056 279 L464.915 279 C488.654 279 516.403 258.637 523.525 235.991 L560 120 C576 63 548 25 490 25 L475.5 25 C468.6 25 463 19.3996 463 12.5 C463 5.60037 468.6 0 475.5 0 L777.5 0 C784.4 0 790 5.60037 790 12.5 L790 18 C790 21.8638 786.864 25 783 25 L776 25 C728 25 684 63 664 120 L472.873 717.273 C472.829 717.409 472.01 719.957 471.979 720.097 C471.44 722.531 460.872 770 456 770 L451 770 C448.783 770 446.432 767.095 446.333 764.88 C445.424 744.635 417.947 727.429 375.566 720.549 C372.792 720.099 372.692 717.692 373.5 715 C373.973 713.422 370.714 696.94 370.2 695.375 C307.799 505.25 245.375 315.125 182 125 C162 65 109 25 49 25 L26.5 25 C19.6004 25 14 19.3996 14 12.5 C14 5.60037 19.6004 0 26.5 0 L292.5 0 C299.4 0 305 5.60037 305 12.5 L305 12.5 Z M292.299 384.972 L326.172 492.044 C344.783 550.873 424.907 550.775 443.374 491.901 L476.96 384.829 C490.148 342.785 462.399 305 418.336 305 L350.878 305 C306.736 305 278.985 342.885 292.299 384.972 L292.299 384.972 Z " />
<glyph glyph-name="Adieresis" unicode="&#xc4;" horiz-adv-x="796" d="M496 865 C529 865 551 887 551 920 C551 953 529 975 496 975 C463 975 441 953 441 920 C441 887 463 865 496 865 L496 865 Z M346 865 C379 865 401 887 401 920 C401 953 379 975 346 975 C313 975 291 953 291 920 C291 887 313 865 346 865 L346 865 Z M305 12.5 C305 19.3996 299.4 25 292.5 25 L278 25 C222 25 194 60 207 114 L245.457 236.028 C252.587 258.65 280.336 279 304.056 279 L464.915 279 C488.654 279 516.403 258.637 523.525 235.991 L560 120 C576 63 548 25 490 25 L475.5 25 C468.6 25 463 19.3996 463 12.5 C463 5.60037 468.6 0 475.5 0 L777.5 0 C784.4 0 790 5.60037 790 12.5 L790 18 C790 21.8638 786.864 25 783 25 L776 25 C728 25 684 63 664 120 L472.873 717.273 C472.829 717.409 472.01 719.957 471.979 720.097 C471.44 722.531 460.872 770 456 770 L451 770 C448.783 770 446.432 767.095 446.333 764.88 C445.424 744.635 417.947 727.429 375.566 720.549 C372.792 720.099 372.692 717.692 373.5 715 C373.973 713.422 370.714 696.94 370.2 695.375 C307.799 505.25 245.375 315.125 182 125 C162 65 109 25 49 25 L26.5 25 C19.6004 25 14 19.3996 14 12.5 C14 5.60037 19.6004 0 26.5 0 L292.5 0 C299.4 0 305 5.60037 305 12.5 L305 12.5 Z M292.299 384.972 L326.172 492.044 C344.783 550.873 424.907 550.775 443.374 491.901 L476.96 384.829 C490.148 342.785 462.399 305 418.336 305 L350.878 305 C306.736 305 278.985 342.885 292.299 384.972 L292.299 384.972 Z " />
<glyph glyph-name="Aring" unicode="&#xc5;" horiz-adv-x="796" d="M349 905 C349 950 378 980 421 980 C465 980 494 950 494 905 C494 864 460 830 421 830 C382 830 349 865 349 905 L349 905 Z M324 905 C324 854 369 810 421 810 C474 810 519 854 519 905 C519 962 480 1000 421 1000 C363 1000 324 962 324 905 L324 905 Z M305 12.5 C305 19.3996 299.4 25 292.5 25 L278 25 C222 25 194 60 207 114 L245.457 236.028 C252.587 258.65 280.336 279 304.056 279 L464.915 279 C488.654 279 516.403 258.637 523.525 235.991 L560 120 C576 63 548 25 490 25 L475.5 25 C468.6 25 463 19.3996 463 12.5 C463 5.60037 468.6 0 475.5 0 L777.5 0 C784.4 0 790 5.60037 790 12.5 L790 18 C790 21.8638 786.864 25 783 25 L776 25 C728 25 684 63 664 120 L472.873 717.273 C472.829 717.409 472.01 719.957 471.979 720.097 C471.44 722.531 460.872 770 456 770 L451 770 C448.783 770 446.432 767.095 446.333 764.88 C445.424 744.635 417.947 727.429 375.566 720.549 C372.792 720.099 372.692 717.692 373.5 715 C373.973 713.422 370.714 696.94 370.2 695.375 C307.799 505.25 245.375 315.125 182 125 C162 65 109 25 49 25 L26.5 25 C19.6004 25 14 19.3996 14 12.5 C14 5.60037 19.6004 0 26.5 0 L292.5 0 C299.4 0 305 5.60037 305 12.5 L305 12.5 Z M292.299 384.972 L326.172 492.044 C344.783 550.873 424.907 550.775 443.374 491.901 L476.96 384.829 C490.148 342.785 462.399 305 418.336 305 L350.878 305 C306.736 305 278.985 342.885 292.299 384.972 L292.299 384.972 Z " />
<glyph glyph-name="Egrave" unicode="&#xc8;" horiz-adv-x="652" d="M147 996 C147 988 173 964 211 932 L347.059 817.02 C350.327 814.259 355.475 814.475 358.5 817.5 C361.511 820.511 361.852 825.789 359.254 829.162 L250 971 C220 1011 197 1038 189 1038 C166 1038 147 1019 147 996 L147 996 Z M50 730 L75 730 C117 730 145 702 145 660 L145 90 C145 48 117 20 75 20 L50 20 C44.4803 20 40 15.5197 40 10 C40 4.4803 44.4803 0 50 0 L574.846 0 C577.606 0 580.581 2.32255 581.25 5 L582.5 10 C589.141 48.8974 598.932 99.4957 605.896 139.593 C606.69 144.161 603.136 146 598.5 146 C594.144 146 588.461 142.153 586.843 138.108 L582 126 C557 63 498 21 435 21 L325 21 C253 21 245 45 245 80 L245 323.56 C245 357.473 272.527 385 306.44 385 L371 385 C419 385 458 353 468 305 L477.333 258.335 C478.235 253.824 482.899 250 487.5 250 C492.192 250 496 253.808 496 258.5 L496 535.5 C496 540.192 492.192 544 487.5 544 C482.899 544 478.235 540.176 477.333 535.665 L468 489 C458 441 419 409 371 409 L306.44 409 C272.527 409 245 436.527 245 470.44 L245 667.56 C245 701.473 272.527 729 306.44 729 L433 729 C481 729 524 697 540 649 L555.356 602.078 C556.743 597.841 562.041 594 566.5 594 C571.18 594 574.344 599.742 573.796 604.39 C568.787 646.84 561.615 699.385 557 740 L556 745 C555.459 747.706 552.661 750 549.901 750 L50 750 C44.4803 750 40 745.52 40 740 C40 734.48 44.4803 730 50 730 L50 730 Z " />
<glyph glyph-name="Eacute" unicode="&#xc9;" horiz-adv-x="652" d="M364.941 817.02 L501 932 C539 965 565 990 565 996 C565 1019 546 1038 523 1038 C517 1038 494 1011 462 971 L352.746 829.162 C350.148 825.789 350.489 820.511 353.5 817.5 C356.525 814.475 361.673 814.259 364.941 817.02 L364.941 817.02 Z M50 730 L75 730 C117 730 145 702 145 660 L145 90 C145 48 117 20 75 20 L50 20 C44.4803 20 40 15.5197 40 10 C40 4.4803 44.4803 0 50 0 L574.846 0 C577.606 0 580.581 2.32255 581.25 5 L582.5 10 C589.141 48.8974 598.932 99.4957 605.896 139.593 C606.69 144.161 603.136 146 598.5 146 C594.144 146 588.461 142.153 586.843 138.108 L582 126 C557 63 498 21 435 21 L325 21 C253 21 245 45 245 80 L245 323.56 C245 357.473 272.527 385 306.44 385 L371 385 C419 385 458 353 468 305 L477.333 258.335 C478.235 253.824 482.899 250 487.5 250 C492.192 250 496 253.808 496 258.5 L496 535.5 C496 540.192 492.192 544 487.5 544 C482.899 544 478.235 540.176 477.333 535.665 L468 489 C458 441 419 409 371 409 L306.44 409 C272.527 409 245 436.527 245 470.44 L245 667.56 C245 701.473 272.527 729 306.44 729 L433 729 C481 729 524 697 540 649 L555.356 602.078 C556.743 597.841 562.041 594 566.5 594 C571.18 594 574.344 599.742 573.796 604.39 C568.787 646.84 561.615 699.385 557 740 L556 745 C555.459 747.706 552.661 750 549.901 750 L50 750 C44.4803 750 40 745.52 40 740 C40 734.48 44.4803 730 50 730 L50 730 Z " />
<glyph glyph-name="Ecircumflex" unicode="&#xca;" horiz-adv-x="652" d="M381 1005 C375 1014 361 1035 351 1035 C341 1035 327 1014 321 1005 L203.236 822.562 C200.915 818.967 201.713 813.739 205 811 C208.297 808.252 213.497 808.479 216.542 811.503 L307.711 902.021 C331.605 925.743 370.395 925.743 394.289 902.021 L485.458 811.503 C488.503 808.479 493.703 808.252 497 811 C500.287 813.739 501.085 818.967 498.764 822.562 L381 1005 L381 1005 Z M50 730 L75 730 C117 730 145 702 145 660 L145 90 C145 48 117 20 75 20 L50 20 C44.4803 20 40 15.5197 40 10 C40 4.4803 44.4803 0 50 0 L574.846 0 C577.606 0 580.581 2.32255 581.25 5 L582.5 10 C589.141 48.8974 598.932 99.4957 605.896 139.593 C606.69 144.161 603.136 146 598.5 146 C594.144 146 588.461 142.153 586.843 138.108 L582 126 C557 63 498 21 435 21 L325 21 C253 21 245 45 245 80 L245 323.56 C245 357.473 272.527 385 306.44 385 L371 385 C419 385 458 353 468 305 L477.333 258.335 C478.235 253.824 482.899 250 487.5 250 C492.192 250 496 253.808 496 258.5 L496 535.5 C496 540.192 492.192 544 487.5 544 C482.899 544 478.235 540.176 477.333 535.665 L468 489 C458 441 419 409 371 409 L306.44 409 C272.527 409 245 436.527 245 470.44 L245 667.56 C245 701.473 272.527 729 306.44 729 L433 729 C481 729 524 697 540 649 L555.356 602.078 C556.743 597.841 562.041 594 566.5 594 C571.18 594 574.344 599.742 573.796 604.39 C568.787 646.84 561.615 699.385 557 740 L556 745 C555.459 747.706 552.661 750 549.901 750 L50 750 C44.4803 750 40 745.52 40 740 C40 734.48 44.4803 730 50 730 L50 730 Z " />
<glyph glyph-name="Edieresis" unicode="&#xcb;" horiz-adv-x="652" d="M426 865 C459 865 481 887 481 920 C481 953 459 975 426 975 C393 975 371 953 371 920 C371 887 393 865 426 865 L426 865 Z M276 865 C309 865 331 887 331 920 C331 953 309 975 276 975 C243 975 221 953 221 920 C221 887 243 865 276 865 L276 865 Z M50 730 L75 730 C117 730 145 702 145 660 L145 90 C145 48 117 20 75 20 L50 20 C44.4803 20 40 15.5197 40 10 C40 4.4803 44.4803 0 50 0 L574.846 0 C577.606 0 580.581 2.32255 581.25 5 L582.5 10 C589.141 48.8974 598.932 99.4957 605.896 139.593 C606.69 144.161 603.136 146 598.5 146 C594.144 146 588.461 142.153 586.843 138.108 L582 126 C557 63 498 21 435 21 L325 21 C253 21 245 45 245 80 L245 323.56 C245 357.473 272.527 385 306.44 385 L371 385 C419 385 458 353 468 305 L477.333 258.335 C478.235 253.824 482.899 250 487.5 250 C492.192 250 496 253.808 496 258.5 L496 535.5 C496 540.192 492.192 544 487.5 544 C482.899 544 478.235 540.176 477.333 535.665 L468 489 C458 441 419 409 371 409 L306.44 409 C272.527 409 245 436.527 245 470.44 L245 667.56 C245 701.473 272.527 729 306.44 729 L433 729 C481 729 524 697 540 649 L555.356 602.078 C556.743 597.841 562.041 594 566.5 594 C571.18 594 574.344 599.742 573.796 604.39 C568.787 646.84 561.615 699.385 557 740 L556 745 C555.459 747.706 552.661 750 549.901 750 L50 750 C44.4803 750 40 745.52 40 740 C40 734.48 44.4803 730 50 730 L50 730 Z " />
<glyph glyph-name="Igrave" unicode="&#xcc;" horiz-adv-x="385" d="M-14 996 C-14 988 12 964 50 932 L186.059 817.02 C189.327 814.259 194.475 814.475 197.5 817.5 C200.511 820.511 200.852 825.789 198.254 829.162 L89 971 C59 1011 36 1038 28 1038 C5 1038 -14 1019 -14 996 L-14 996 Z M315 20 L290 20 C260 20 240 40 240 70 L240 680 C240 710 260 730 290 730 L315 730 C320.52 730 325 734.48 325 740 C325 745.52 320.52 750 315 750 L65 750 C59.4803 750 55 745.52 55 740 C55 734.48 59.4803 730 65 730 L90 730 C120 730 140 710 140 680 L140 70 C140 40 120 20 90 20 L65 20 C59.4803 20 55 15.5197 55 10 C55 4.4803 59.4803 0 65 0 L315 0 C320.52 0 325 4.4803 325 10 C325 15.5197 320.52 20 315 20 L315 20 Z " />
<glyph glyph-name="Iacute" unicode="&#xcd;" horiz-adv-x="385" d="M203.941 817.02 L340 932 C378 965 404 990 404 996 C404 1019 385 1038 362 1038 C356 1038 333 1011 301 971 L191.746 829.162 C189.148 825.789 189.489 820.511 192.5 817.5 C195.525 814.475 200.673 814.259 203.941 817.02 L203.941 817.02 Z M315 20 L290 20 C260 20 240 40 240 70 L240 680 C240 710 260 730 290 730 L315 730 C320.52 730 325 734.48 325 740 C325 745.52 320.52 750 315 750 L65 750 C59.4803 750 55 745.52 55 740 C55 734.48 59.4803 730 65 730 L90 730 C120 730 140 710 140 680 L140 70 C140 40 120 20 90 20 L65 20 C59.4803 20 55 15.5197 55 10 C55 4.4803 59.4803 0 65 0 L315 0 C320.52 0 325 4.4803 325 10 C325 15.5197 320.52 20 315 20 L315 20 Z " />
<glyph glyph-name="Icircumflex" unicode="&#xce;" horiz-adv-x="385" d="M220 1005 C214 1014 200 1035 190 1035 C180 1035 166 1014 160 1005 L42.2357 822.562 C39.915 818.967 40.7126 813.739 44 811 C47.2971 808.252 52.4968 808.479 55.5424 811.503 L146.711 902.021 C170.605 925.743 209.395 925.743 233.289 902.021 L324.458 811.503 C327.503 808.479 332.703 808.252 336 811 C339.287 813.739 340.085 818.967 337.764 822.562 L220 1005 L220 1005 Z M315 20 L290 20 C260 20 240 40 240 70 L240 680 C240 710 260 730 290 730 L315 730 C320.52 730 325 734.48 325 740 C325 745.52 320.52 750 315 750 L65 750 C59.4803 750 55 745.52 55 740 C55 734.48 59.4803 730 65 730 L90 730 C120 730 140 710 140 680 L140 70 C140 40 120 20 90 20 L65 20 C59.4803 20 55 15.5197 55 10 C55 4.4803 59.4803 0 65 0 L315 0 C320.52 0 325 4.4803 325 10 C325 15.5197 320.52 20 315 20 L315 20 Z " />
<glyph glyph-name="Idieresis" unicode="&#xcf;" horiz-adv-x="385" d="M265 865 C298 865 320 887 320 920 C320 953 298 975 265 975 C232 975 210 953 210 920 C210 887 232 865 265 865 L265 865 Z M115 865 C148 865 170 887 170 920 C170 953 148 975 115 975 C82 975 60 953 60 920 C60 887 82 865 115 865 L115 865 Z M315 20 L290 20 C260 20 240 40 240 70 L240 680 C240 710 260 730 290 730 L315 730 C320.52 730 325 734.48 325 740 C325 745.52 320.52 750 315 750 L65 750 C59.4803 750 55 745.52 55 740 C55 734.48 59.4803 730 65 730 L90 730 C120 730 140 710 140 680 L140 70 C140 40 120 20 90 20 L65 20 C59.4803 20 55 15.5197 55 10 C55 4.4803 59.4803 0 65 0 L315 0 C320.52 0 325 4.4803 325 10 C325 15.5197 320.52 20 315 20 L315 20 Z " />
<glyph glyph-name="Ntilde" unicode="&#xd1;" horiz-adv-x="786" d="M249.283 877.892 C251.595 909.465 267.875 930 291 930 C343 930 412 865 464 865 C511.775 865 543.389 910.63 544.94 979.645 C545.035 983.877 541.733 985 537.5 985 C533.681 985 529.996 980.915 529.7 977.108 C527.244 945.535 509.9 925 484 925 C432 925 362 990 310 990 C265.15 990 235.51 944.37 234.056 875.355 C233.967 871.129 237.273 870 241.5 870 C245.337 870 249.003 874.065 249.283 877.892 L249.283 877.892 Z M63 0 L243 0 C248.52 0 253 4.4803 253 10 C253 15.5197 248.52 20 243 20 L218 20 C188 20 168 40 168 70 L165.699 485.692 C165.473 526.499 219.158 537.852 243.23 504.9 C362.455 341.7 481.791 178.5 601.752 15.3 C604.386 11.7158 618.552 0 623 0 C628.519 0 633.046 4.48035 633.102 9.99948 L639.967 682.782 C639.971 683.133 640.245 687.859 640.299 688.206 C644.149 712.958 663.8 729 691 729 L716 729 C721.52 729 726 733.48 726 739 C726 744.52 721.52 749 716 749 L536 749 C530.48 749 526 744.52 526 739 C526 733.48 530.48 729 536 729 L561 729 C591 729 611 709 611 679 L611.765 289.805 C611.841 250.697 560.657 239.864 537.537 271.406 C427.734 421.205 318.427 571.394 209.15 721.043 C200.945 732.279 170.71 750 156.796 750 L4 750 C-1.5197 750 -6 745.52 -6 740 C-6 734.48 -1.5197 730 4 730 L29 730 C59 730 93 710 115 680 L127 664 C130.983 658.689 138.977 634.639 138.965 628 L138 70 C138 40 118 20 88 20 L63 20 C57.4803 20 53 15.5197 53 10 C53 4.4803 57.4803 0 63 0 L63 0 Z " />
<glyph glyph-name="Ograve" unicode="&#xd2;" horiz-adv-x="851" d="M159 375 C159 591 261 735 414 735 C578 735 687 591 687 375 C687 159 577 15 413 15 C261 15 159 159 159 375 L159 375 Z M50 375 C50 144 193 -10 408 -10 C641 -10 796 144 796 375 C796 606 645 760 418 760 C197 760 50 606 50 375 L50 375 Z M214 996 C214 988 240 964 278 932 L414.059 817.02 C417.327 814.259 422.475 814.475 425.5 817.5 C428.511 820.511 428.852 825.789 426.254 829.162 L317 971 C287 1011 264 1038 256 1038 C233 1038 214 1019 214 996 L214 996 Z " />
<glyph glyph-name="Oacute" unicode="&#xd3;" horiz-adv-x="851" d="M431.941 817.02 L568 932 C606 965 632 990 632 996 C632 1019 613 1038 590 1038 C584 1038 561 1011 529 971 L419.746 829.162 C417.148 825.789 417.489 820.511 420.5 817.5 C423.525 814.475 428.673 814.259 431.941 817.02 L431.941 817.02 Z M159 375 C159 591 261 735 414 735 C578 735 687 591 687 375 C687 159 577 15 413 15 C261 15 159 159 159 375 L159 375 Z M50 375 C50 144 193 -10 408 -10 C641 -10 796 144 796 375 C796 606 645 760 418 760 C197 760 50 606 50 375 L50 375 Z " />
<glyph glyph-name="Ocircumflex" unicode="&#xd4;" horiz-adv-x="851" d="M159 375 C159 591 261 735 414 735 C578 735 687 591 687 375 C687 159 577 15 413 15 C261 15 159 159 159 375 L159 375 Z M50 375 C50 144 193 -10 408 -10 C641 -10 796 144 796 375 C796 606 645 760 418 760 C197 760 50 606 50 375 L50 375 Z M448 1005 C442 1014 428 1035 418 1035 C408 1035 394 1014 388 1005 L270.236 822.562 C267.915 818.967 268.713 813.739 272 811 C275.297 808.252 280.497 808.479 283.542 811.503 L374.711 902.021 C398.605 925.743 437.395 925.743 461.289 902.021 L552.458 811.503 C555.503 808.479 560.703 808.252 564 811 C567.287 813.739 568.085 818.967 565.764 822.562 L448 1005 L448 1005 Z " />
<glyph glyph-name="Otilde" unicode="&#xd5;" horiz-adv-x="851" d="M278.281 878.089 C280.515 909.55 295.923 930 319 930 C371 930 440 865 492 865 C539.775 865 571.389 910.63 572.94 979.645 C573.035 983.877 569.733 985 565.5 985 C561.681 985 557.996 980.915 557.7 977.108 C555.244 945.535 537.9 925 512 925 C460 925 391 990 339 990 C294.15 990 264.51 944.37 263.056 875.355 C262.967 871.129 266.273 870 270.5 870 C274.347 870 278.008 874.252 278.281 878.089 L278.281 878.089 Z M159 375 C159 591 261 735 414 735 C578 735 687 591 687 375 C687 159 577 15 413 15 C261 15 159 159 159 375 L159 375 Z M50 375 C50 144 193 -10 408 -10 C641 -10 796 144 796 375 C796 606 645 760 418 760 C197 760 50 606 50 375 L50 375 Z " />
<glyph glyph-name="Odieresis" unicode="&#xd6;" horiz-adv-x="851" d="M493 865 C526 865 548 887 548 920 C548 953 526 975 493 975 C460 975 438 953 438 920 C438 887 460 865 493 865 L493 865 Z M343 865 C376 865 398 887 398 920 C398 953 376 975 343 975 C310 975 288 953 288 920 C288 887 310 865 343 865 L343 865 Z M159 375 C159 591 261 735 414 735 C578 735 687 591 687 375 C687 159 577 15 413 15 C261 15 159 159 159 375 L159 375 Z M50 375 C50 144 193 -10 408 -10 C641 -10 796 144 796 375 C796 606 645 760 418 760 C197 760 50 606 50 375 L50 375 Z " />
<glyph glyph-name="Oslash" unicode="&#xd8;" horiz-adv-x="851" d="M81.7642 -9.76759 L138.155 48.298 C151.827 62.3768 184.867 62.0095 201.009 50.8479 C257.509 11.78 328.15 -10 409 -10 C642 -10 797 144 797 375 C797 462.45 775.22 539.01 736.152 600.188 C725.242 617.272 725.038 653.496 739.168 668.03 L798.227 728.776 C806.932 737.73 806.831 752.169 798 761 C789.169 769.831 774.932 769.73 766.227 760.776 L707.363 700.23 C693.021 685.479 657.806 685.66 640.713 697.11 C580.36 737.539 504.625 760 418 760 C197 760 50 606 50 375 C50 286.725 71.0994 209.34 109.368 147.899 C119.948 130.911 118.08 92.5382 104.138 78.1803 C58.5025 31.1831 34 6 34 6 C34 6 41.0467 -1.04667 50 -10 C58.8306 -18.8306 73.0638 -18.7264 81.7642 -9.76759 L81.7642 -9.76759 Z M598.391 589.499 C444.593 430.54 315.753 297.344 219.912 198.621 C208.514 186.88 189.606 188.971 184.421 204.492 C167.848 254.106 159 311.65 159 376 C159 592 261 736 414 736 C488.25 736 550.929 706.393 597.546 653.917 C616.626 632.438 618.369 610.147 598.391 589.499 L598.391 589.499 Z M660.098 545.952 C677.471 496.924 687 439.525 687 376 C687 160 577 16 413 16 C344.525 16 286.259 44.5862 242.695 95.5821 C224.771 116.564 229.557 144.059 248.71 163.926 C342.507 261.217 469.54 392.176 620.596 548.207 C632.007 559.994 654.619 561.416 660.098 545.952 L660.098 545.952 Z " />
<glyph glyph-name="Ugrave" unicode="&#xd9;" horiz-adv-x="760" d="M174 996 C174 988 200 964 238 932 L374.323 816.798 C377.454 814.151 382.242 814.466 385 817.5 C387.715 820.486 387.938 825.7 385.489 828.908 L277 971 C247 1011 224 1038 216 1038 C193 1038 174 1019 174 996 L174 996 Z M720.315 52.5096 L695 46 C665 38 645 53 645 83 L645 688.56 C645 722.473 617.473 750 583.56 750 L470 750 C464.48 750 460 745.52 460 740 C460 734.48 464.48 730 470 730 L495 730 C525 730 545 710 545 680 L545 203.544 C545 199.509 540.869 181.469 538.96 177.913 C498.587 102.735 418.55 54 334 54 C260 54 210 120 210 220 L210 688.56 C210 722.473 182.473 750 148.56 750 L35 750 C29.4803 750 25 745.52 25 740 C25 734.48 29.4803 730 35 730 L60 730 C90 730 110 710 110 680 L110 220 C110 82 184 -10 294 -10 C382.275 -10 466.466 32.1987 517.375 99.1893 C524.136 108.086 545 104.944 545 93.7701 L545 25 C545 11.2007 556.201 0 570 0 L587.436 0 C588.458 0 600.111 1.28018 601.102 1.52913 C637.268 10.6138 683.119 22.493 720.567 32.4773 C725.729 33.8535 730 39.658 730 45 C730 50.3458 725.492 53.8409 720.315 52.5096 L720.315 52.5096 Z " />
<glyph glyph-name="Uacute" unicode="&#xda;" horiz-adv-x="760" d="M390.677 816.798 L527 932 C565 965 591 990 591 996 C591 1019 572 1038 549 1038 C543 1038 519 1011 488 971 L379.511 828.908 C377.062 825.7 377.285 820.486 380 817.5 C382.758 814.466 387.546 814.151 390.677 816.798 L390.677 816.798 Z M720.315 52.5096 L695 46 C665 38 645 53 645 83 L645 688.56 C645 722.473 617.473 750 583.56 750 L470 750 C464.48 750 460 745.52 460 740 C460 734.48 464.48 730 470 730 L495 730 C525 730 545 710 545 680 L545 203.544 C545 199.509 540.869 181.469 538.96 177.913 C498.587 102.735 418.55 54 334 54 C260 54 210 120 210 220 L210 688.56 C210 722.473 182.473 750 148.56 750 L35 750 C29.4803 750 25 745.52 25 740 C25 734.48 29.4803 730 35 730 L60 730 C90 730 110 710 110 680 L110 220 C110 82 184 -10 294 -10 C382.275 -10 466.466 32.1987 517.375 99.1893 C524.136 108.086 545 104.944 545 93.7701 L545 25 C545 11.2007 556.201 0 570 0 L587.436 0 C588.458 0 600.111 1.28018 601.102 1.52913 C637.268 10.6138 683.119 22.493 720.567 32.4773 C725.729 33.8535 730 39.658 730 45 C730 50.3458 725.492 53.8409 720.315 52.5096 L720.315 52.5096 Z " />
<glyph glyph-name="Ucircumflex" unicode="&#xdb;" horiz-adv-x="760" d="M408 1005 C402 1014 388 1035 378 1035 C368 1035 354 1014 348 1005 L230.031 822.245 C227.836 818.845 228.505 813.723 231.5 811 C234.532 808.244 239.367 808.35 242.275 811.237 L333.865 902.173 C357.673 925.811 396.395 925.88 420.287 902.327 L512.707 811.218 C515.624 808.342 520.469 808.244 523.5 811 C526.493 813.721 527.173 818.854 524.992 822.26 L408 1005 L408 1005 Z M720.315 52.5096 L695 46 C665 38 645 53 645 83 L645 688.56 C645 722.473 617.473 750 583.56 750 L470 750 C464.48 750 460 745.52 460 740 C460 734.48 464.48 730 470 730 L495 730 C525 730 545 710 545 680 L545 203.544 C545 199.509 540.869 181.469 538.96 177.913 C498.587 102.735 418.55 54 334 54 C260 54 210 120 210 220 L210 688.56 C210 722.473 182.473 750 148.56 750 L35 750 C29.4803 750 25 745.52 25 740 C25 734.48 29.4803 730 35 730 L60 730 C90 730 110 710 110 680 L110 220 C110 82 184 -10 294 -10 C382.275 -10 466.466 32.1987 517.375 99.1893 C524.136 108.086 545 104.944 545 93.7701 L545 25 C545 11.2007 556.201 0 570 0 L587.436 0 C588.458 0 600.111 1.28018 601.102 1.52913 C637.268 10.6138 683.119 22.493 720.567 32.4773 C725.729 33.8535 730 39.658 730 45 C730 50.3458 725.492 53.8409 720.315 52.5096 L720.315 52.5096 Z " />
<glyph glyph-name="Udieresis" unicode="&#xdc;" horiz-adv-x="760" d="M453 865 C486 865 508 887 508 920 C508 953 486 975 453 975 C420 975 398 953 398 920 C398 887 420 865 453 865 L453 865 Z M303 865 C336 865 358 887 358 920 C358 953 336 975 303 975 C270 975 248 953 248 920 C248 887 270 865 303 865 L303 865 Z M720.315 52.5096 L695 46 C665 38 645 53 645 83 L645 688.56 C645 722.473 617.473 750 583.56 750 L470 750 C464.48 750 460 745.52 460 740 C460 734.48 464.48 730 470 730 L495 730 C525 730 545 710 545 680 L545 203.544 C545 199.509 540.869 181.469 538.96 177.913 C498.587 102.735 418.55 54 334 54 C260 54 210 120 210 220 L210 688.56 C210 722.473 182.473 750 148.56 750 L35 750 C29.4803 750 25 745.52 25 740 C25 734.48 29.4803 730 35 730 L60 730 C90 730 110 710 110 680 L110 220 C110 82 184 -10 294 -10 C382.275 -10 466.466 32.1987 517.375 99.1893 C524.136 108.086 545 104.944 545 93.7701 L545 25 C545 11.2007 556.201 0 570 0 L587.436 0 C588.458 0 600.111 1.28018 601.102 1.52913 C637.268 10.6138 683.119 22.493 720.567 32.4773 C725.729 33.8535 730 39.658 730 45 C730 50.3458 725.492 53.8409 720.315 52.5096 L720.315 52.5096 Z " />
<glyph glyph-name="Yacute" unicode="&#xdd;" horiz-adv-x="764" d="M403.941 817.02 L540 932 C578 965 604 990 604 996 C604 1019 585 1038 562 1038 C556 1038 533 1011 501 971 L391.746 829.162 C389.148 825.789 389.489 820.511 392.5 817.5 C395.525 814.475 400.673 814.259 403.941 817.02 L403.941 817.02 Z M279 750 L19 750 C13.4803 750 9 745.52 9 740 L9 737.5 C9 733.36 12.3602 730 16.5 730 L24 730 C57 730 93 708 114 675 L330.304 337.145 C333.19 332.638 340 309.369 340 304.017 L340 90 C340 48 312 20 270 20 L245 20 C239.48 20 235 15.5197 235 10 C235 4.4803 239.48 0 245 0 L535 0 C540.52 0 545 4.4803 545 10 C545 15.5197 540.52 20 535 20 L510 20 C468 20 440 48 440 90 L440 309.294 C440 313.455 447.603 338.9 449.6 342.55 C510.402 453.697 571.25 564.8 633 675 C651 708 685 730 718 730 L748 730 C753.52 730 758 734.48 758 740 C758 745.52 753.52 750 748 750 L509 750 C503.48 750 499 745.52 499 740 C499 734.48 503.48 730 509 730 L559 730 C592 730 603 708 587 675 L457.57 412.017 C444.654 385.774 409.855 388.344 394.376 413.162 C339.981 500.378 285.154 588.026 231 675 C210 708 218 730 251 730 L279 730 C284.52 730 289 734.48 289 740 C289 745.52 284.52 750 279 750 L279 750 Z " />
<glyph glyph-name="agrave" unicode="&#xe0;" horiz-adv-x="514" d="M516.5 105.5 C512.745 107.252 508.444 105.813 507.353 101.815 C499.734 73.8935 479.923 56 455 56 C422 56 400 74 400 102 L400 355 C400 462 344 510 259 510 C143 510 65 414 65 360 C65 324 85 300 114 300 C141 300 159 325 159 343 C159 361 139 385 139 403 C139 432 175 484 229 484 C281 484 316 454 316 386 L316 310.393 C316 286.706 292.288 257.733 269.703 250.591 C90.4925 193.918 46 166.7 46 89 C46 30 91 -9 159 -9 C195.9 -9 241.71 12.06 297.888 65.115 C305.153 71.9763 320.302 67.1815 324.054 57.9199 C339.49 19.8219 374.8 -4 421 -4 C469.45 -4 509.326 34.3562 522.624 93.0639 C523.665 97.6599 520.77 103.507 516.5 105.5 L516.5 105.5 Z M56 747 C56 739 82 715 120 683 L256.059 568.02 C259.327 565.259 264.475 565.475 267.5 568.5 C270.511 571.511 270.852 576.789 268.254 580.162 L159 722 C129 762 106 789 98 789 C75 789 56 770 56 747 L56 747 Z M316 175 L316 129.071 C316 118.038 306.986 94.8266 298.842 87.3828 C259.891 51.7813 228.5 38 204 38 C160 38 131 63 131 100 C131 166.825 155.503 192.132 247.744 224.772 C284.098 237.636 316 213.562 316 175 L316 175 Z " />
<glyph glyph-name="aacute" unicode="&#xe1;" horiz-adv-x="514" d="M272.941 567.02 L409 682 C447 715 473 740 473 746 C473 769 454 788 431 788 C425 788 402 761 370 721 L260.746 579.162 C258.148 575.789 258.489 570.511 261.5 567.5 C264.525 564.475 269.673 564.259 272.941 567.02 L272.941 567.02 Z M516.5 105.5 C512.745 107.252 508.444 105.813 507.353 101.815 C499.734 73.8935 479.923 56 455 56 C422 56 400 74 400 102 L400 355 C400 462 344 510 259 510 C143 510 65 414 65 360 C65 324 85 300 114 300 C141 300 159 325 159 343 C159 361 139 385 139 403 C139 432 175 484 229 484 C281 484 316 454 316 386 L316 310.393 C316 286.706 292.288 257.733 269.703 250.591 C90.4925 193.918 46 166.7 46 89 C46 30 91 -9 159 -9 C195.9 -9 241.71 12.06 297.888 65.115 C305.153 71.9763 320.302 67.1815 324.054 57.9199 C339.49 19.8219 374.8 -4 421 -4 C469.45 -4 509.326 34.3562 522.624 93.0639 C523.665 97.6599 520.77 103.507 516.5 105.5 L516.5 105.5 Z M316 175 L316 129.071 C316 118.038 306.986 94.8266 298.842 87.3828 C259.891 51.7813 228.5 38 204 38 C160 38 131 63 131 100 C131 166.825 155.503 192.132 247.744 224.772 C284.098 237.636 316 213.562 316 175 L316 175 Z " />
<glyph glyph-name="acircumflex" unicode="&#xe2;" horiz-adv-x="514" d="M516.5 105.5 C512.745 107.252 508.444 105.813 507.353 101.815 C499.734 73.8935 479.923 56 455 56 C422 56 400 74 400 102 L400 355 C400 462 344 510 259 510 C143 510 65 414 65 360 C65 324 85 300 114 300 C141 300 159 325 159 343 C159 361 139 385 139 403 C139 432 175 484 229 484 C281 484 316 454 316 386 L316 310.393 C316 286.706 292.288 257.733 269.703 250.591 C90.4925 193.918 46 166.7 46 89 C46 30 91 -9 159 -9 C195.9 -9 241.71 12.06 297.888 65.115 C305.153 71.9763 320.302 67.1815 324.054 57.9199 C339.49 19.8219 374.8 -4 421 -4 C469.45 -4 509.326 34.3562 522.624 93.0639 C523.665 97.6599 520.77 103.507 516.5 105.5 L516.5 105.5 Z M290 756 C284 765 270 786 260 786 C250 786 236 765 230 756 L112.236 573.562 C109.915 569.967 110.713 564.739 114 562 C117.297 559.252 122.497 559.479 125.542 562.503 L216.711 653.021 C240.605 676.743 279.395 676.743 303.289 653.021 L394.458 562.503 C397.503 559.479 402.703 559.252 406 562 C409.287 564.739 410.085 569.967 407.764 573.562 L290 756 L290 756 Z M316 175 L316 129.071 C316 118.038 306.986 94.8266 298.842 87.3828 C259.891 51.7813 228.5 38 204 38 C160 38 131 63 131 100 C131 166.825 155.503 192.132 247.744 224.772 C284.098 237.636 316 213.562 316 175 L316 175 Z " />
<glyph glyph-name="atilde" unicode="&#xe3;" horiz-adv-x="514" d="M119.281 628.089 C121.515 659.55 136.923 680 160 680 C212 680 281 615 333 615 C380.775 615 412.389 660.63 413.94 729.645 C414.035 733.877 410.733 735 406.5 735 C402.681 735 398.996 730.915 398.7 727.108 C396.244 695.535 378.9 675 353 675 C301 675 232 740 180 740 C135.15 740 105.51 694.37 104.056 625.355 C103.967 621.129 107.273 620 111.5 620 C115.347 620 119.008 624.252 119.281 628.089 L119.281 628.089 Z M516.5 105.5 C512.745 107.252 508.444 105.813 507.353 101.815 C499.734 73.8935 479.923 56 455 56 C422 56 400 74 400 102 L400 355 C400 462 344 510 259 510 C143 510 65 414 65 360 C65 324 85 300 114 300 C141 300 159 325 159 343 C159 361 139 385 139 403 C139 432 175 484 229 484 C281 484 316 454 316 386 L316 310.393 C316 286.706 292.288 257.733 269.703 250.591 C90.4925 193.918 46 166.7 46 89 C46 30 91 -9 159 -9 C195.9 -9 241.71 12.06 297.888 65.115 C305.153 71.9763 320.302 67.1815 324.054 57.9199 C339.49 19.8219 374.8 -4 421 -4 C469.45 -4 509.326 34.3562 522.624 93.0639 C523.665 97.6599 520.77 103.507 516.5 105.5 L516.5 105.5 Z M316 175 L316 129.071 C316 118.038 306.986 94.8266 298.842 87.3828 C259.891 51.7813 228.5 38 204 38 C160 38 131 63 131 100 C131 166.825 155.503 192.132 247.744 224.772 C284.098 237.636 316 213.562 316 175 L316 175 Z " />
<glyph glyph-name="adieresis" unicode="&#xe4;" horiz-adv-x="514" d="M334 615 C367 615 389 637 389 670 C389 703 367 725 334 725 C301 725 279 703 279 670 C279 637 301 615 334 615 L334 615 Z M184 615 C217 615 239 637 239 670 C239 703 217 725 184 725 C151 725 129 703 129 670 C129 637 151 615 184 615 L184 615 Z M516.5 105.5 C512.745 107.252 508.444 105.813 507.353 101.815 C499.734 73.8935 479.923 56 455 56 C422 56 400 74 400 102 L400 355 C400 462 344 510 259 510 C143 510 65 414 65 360 C65 324 85 300 114 300 C141 300 159 325 159 343 C159 361 139 385 139 403 C139 432 175 484 229 484 C281 484 316 454 316 386 L316 310.393 C316 286.706 292.288 257.733 269.703 250.591 C90.4925 193.918 46 166.7 46 89 C46 30 91 -9 159 -9 C195.9 -9 241.71 12.06 297.888 65.115 C305.153 71.9763 320.302 67.1815 324.054 57.9199 C339.49 19.8219 374.8 -4 421 -4 C469.45 -4 509.326 34.3562 522.624 93.0639 C523.665 97.6599 520.77 103.507 516.5 105.5 L516.5 105.5 Z M316 175 L316 129.071 C316 118.038 306.986 94.8266 298.842 87.3828 C259.891 51.7813 228.5 38 204 38 C160 38 131 63 131 100 C131 166.825 155.503 192.132 247.744 224.772 C284.098 237.636 316 213.562 316 175 L316 175 Z " />
<glyph glyph-name="aring" unicode="&#xe5;" horiz-adv-x="514" d="M187 655 C187 700 216 730 259 730 C303 730 332 700 332 655 C332 615 298 580 259 580 C220 580 187 615 187 655 L187 655 Z M162 655 C162 604 207 560 259 560 C312 560 357 604 357 655 C357 712 318 750 259 750 C201 750 162 712 162 655 L162 655 Z M516.5 105.5 C512.745 107.252 508.444 105.813 507.353 101.815 C499.734 73.8935 479.923 56 455 56 C422 56 400 74 400 102 L400 355 C400 462 344 510 259 510 C143 510 65 414 65 360 C65 324 85 300 114 300 C141 300 159 325 159 343 C159 361 139 385 139 403 C139 432 175 484 229 484 C281 484 316 454 316 386 L316 310.393 C316 286.706 292.288 257.733 269.703 250.591 C90.4925 193.918 46 166.7 46 89 C46 30 91 -9 159 -9 C195.9 -9 241.71 12.06 297.888 65.115 C305.153 71.9763 320.302 67.1815 324.054 57.9199 C339.49 19.8219 374.8 -4 421 -4 C469.45 -4 509.326 34.3562 522.624 93.0639 C523.665 97.6599 520.77 103.507 516.5 105.5 L516.5 105.5 Z M316 175 L316 129.071 C316 118.038 306.986 94.8266 298.842 87.3828 C259.891 51.7813 228.5 38 204 38 C160 38 131 63 131 100 C131 166.825 155.503 192.132 247.744 224.772 C284.098 237.636 316 213.562 316 175 L316 175 Z " />
<glyph glyph-name="egrave" unicode="&#xe8;" horiz-adv-x="540" d="M97 746 C97 738 123 714 161 682 L297.059 567.02 C300.327 564.259 305.475 564.475 308.5 567.5 C311.511 570.511 311.852 575.789 309.254 579.162 L200 721 C170 761 147 788 139 788 C116 788 97 769 97 746 L97 746 Z M151.18 340 L448.016 340 C487.835 340 508.917 360.767 493.287 397.391 C459.173 477.33 389.275 510 301 510 C147 510 45 432 45 231 C45 86 138 -10 278 -10 C376.475 -10 462.592 44.1856 495.569 126.605 C496.771 129.61 495.623 133.648 492.5 134.5 C489.64 135.28 486.564 134.709 485.397 131.984 C463.238 80.2225 389.65 46 298 46 C200 46 135 134 135 266 C135 288.781 136.068 310.139 138.804 329.472 C139.695 335.767 144.822 340 151.18 340 L151.18 340 Z M365.309 363.301 L192.665 360.714 C163.375 360.275 147.339 377.023 159.074 403.863 C185.862 465.136 234.125 491 296 491 C338.9 491 375.334 466.498 398.564 406.824 C408.751 380.654 393.389 363.721 365.309 363.301 L365.309 363.301 Z " />
<glyph glyph-name="eacute" unicode="&#xe9;" horiz-adv-x="540" d="M314.941 567.02 L451 682 C489 715 515 740 515 746 C515 769 496 788 473 788 C467 788 444 761 412 721 L302.746 579.162 C300.148 575.789 300.489 570.511 303.5 567.5 C306.525 564.475 311.673 564.259 314.941 567.02 L314.941 567.02 Z M151.18 340 L448.016 340 C487.835 340 508.917 360.767 493.287 397.391 C459.173 477.33 389.275 510 301 510 C147 510 45 432 45 231 C45 86 138 -10 278 -10 C376.475 -10 462.592 44.1856 495.569 126.605 C496.771 129.61 495.623 133.648 492.5 134.5 C489.64 135.28 486.564 134.709 485.397 131.984 C463.238 80.2225 389.65 46 298 46 C200 46 135 134 135 266 C135 288.781 136.068 310.139 138.804 329.472 C139.695 335.767 144.822 340 151.18 340 L151.18 340 Z M365.309 363.301 L192.665 360.714 C163.375 360.275 147.339 377.023 159.074 403.863 C185.862 465.136 234.125 491 296 491 C338.9 491 375.334 466.498 398.564 406.824 C408.751 380.654 393.389 363.721 365.309 363.301 L365.309 363.301 Z " />
<glyph glyph-name="ecircumflex" unicode="&#xea;" horiz-adv-x="540" d="M331 755 C325 764 311 785 301 785 C291 785 277 764 271 755 L153.236 572.562 C150.915 568.967 151.713 563.739 155 561 C158.297 558.252 163.497 558.479 166.542 561.503 L257.711 652.021 C281.605 675.743 320.395 675.743 344.289 652.021 L435.458 561.503 C438.503 558.479 443.703 558.252 447 561 C450.287 563.739 451.085 568.967 448.764 572.562 L331 755 L331 755 Z M151.18 340 L448.016 340 C487.835 340 508.917 360.767 493.287 397.391 C459.173 477.33 389.275 510 301 510 C147 510 45 432 45 231 C45 86 138 -10 278 -10 C376.475 -10 462.592 44.1856 495.569 126.605 C496.771 129.61 495.623 133.648 492.5 134.5 C489.64 135.28 486.564 134.709 485.397 131.984 C463.238 80.2225 389.65 46 298 46 C200 46 135 134 135 266 C135 288.781 136.068 310.139 138.804 329.472 C139.695 335.767 144.822 340 151.18 340 L151.18 340 Z M365.309 363.301 L192.665 360.714 C163.375 360.275 147.339 377.023 159.074 403.863 C185.862 465.136 234.125 491 296 491 C338.9 491 375.334 466.498 398.564 406.824 C408.751 380.654 393.389 363.721 365.309 363.301 L365.309 363.301 Z " />
<glyph glyph-name="edieresis" unicode="&#xeb;" horiz-adv-x="540" d="M376 615 C409 615 431 637 431 670 C431 703 409 725 376 725 C343 725 321 703 321 670 C321 637 343 615 376 615 L376 615 Z M226 615 C259 615 281 637 281 670 C281 703 259 725 226 725 C193 725 171 703 171 670 C171 637 193 615 226 615 L226 615 Z M151.18 340 L448.016 340 C487.835 340 508.917 360.767 493.287 397.391 C459.173 477.33 389.275 510 301 510 C147 510 45 432 45 231 C45 86 138 -10 278 -10 C376.475 -10 462.592 44.1856 495.569 126.605 C496.771 129.61 495.623 133.648 492.5 134.5 C489.64 135.28 486.564 134.709 485.397 131.984 C463.238 80.2225 389.65 46 298 46 C200 46 135 134 135 266 C135 288.781 136.068 310.139 138.804 329.472 C139.695 335.767 144.822 340 151.18 340 L151.18 340 Z M365.309 363.301 L192.665 360.714 C163.375 360.275 147.339 377.023 159.074 403.863 C185.862 465.136 234.125 491 296 491 C338.9 491 375.334 466.498 398.564 406.824 C408.751 380.654 393.389 363.721 365.309 363.301 L365.309 363.301 Z " />
<glyph glyph-name="igrave" unicode="&#xec;" horiz-adv-x="320" d="M-36 745 C-36 737 -10 713 28 681 L164.323 565.798 C167.454 563.151 172.242 563.466 175 566.5 C177.715 569.486 177.938 574.7 175.489 577.908 L67 720 C37 760 14 787 6 787 C-17 787 -36 768 -36 745 L-36 745 Z M69.6782 453.516 L110 464 C119 466 125 462 125 453 L125 35 C125 26 119 20 110 20 L70 20 C64.4803 20 60 15.5197 60 10 C60 4.4803 64.4803 0 70 0 L265 0 C270.52 0 275 4.4803 275 10 C275 15.5197 270.52 20 265 20 L225 20 C216 20 210 26 210 35 L210 478.999 C210 490.59 200.591 500.112 189 500.25 L176.848 500.395 C175.502 500.411 161.71 498.741 160.413 498.381 C131.894 490.465 96.1056 481.035 67.5867 473.119 C62.4436 471.691 60 466.338 60 461 C60 455.658 64.508 452.172 69.6782 453.516 L69.6782 453.516 Z " />
<glyph glyph-name="iacute" unicode="&#xed;" horiz-adv-x="320" d="M-36 745 C-36 737 -10 713 28 681 L164.323 565.798 C167.454 563.151 172.242 563.466 175 566.5 C177.715 569.486 177.938 574.7 175.489 577.908 L67 720 C37 760 14 787 6 787 C-17 787 -36 768 -36 745 L-36 745 Z M69.6782 453.516 L110 464 C119 466 125 462 125 453 L125 35 C125 26 119 20 110 20 L70 20 C64.4803 20 60 15.5197 60 10 C60 4.4803 64.4803 0 70 0 L265 0 C270.52 0 275 4.4803 275 10 C275 15.5197 270.52 20 265 20 L225 20 C216 20 210 26 210 35 L210 478.999 C210 490.59 200.591 500.112 189 500.25 L176.848 500.395 C175.502 500.411 161.71 498.741 160.413 498.381 C131.894 490.465 96.1056 481.035 67.5867 473.119 C62.4436 471.691 60 466.338 60 461 C60 455.658 64.508 452.172 69.6782 453.516 L69.6782 453.516 Z " />
<glyph glyph-name="icircumflex" unicode="&#xee;" horiz-adv-x="320" d="M198 754 C192 763 178 784 168 784 C158 784 144 763 138 754 L20.0312 571.245 C17.8362 567.845 18.5052 562.723 21.5 560 C24.5319 557.244 29.3671 557.35 32.2748 560.237 L123.865 651.173 C147.673 674.811 186.395 674.88 210.287 651.327 L302.707 560.218 C305.624 557.342 310.469 557.244 313.5 560 C316.493 562.721 317.173 567.854 314.992 571.26 L198 754 L198 754 Z M69.6782 453.516 L110 464 C119 466 125 462 125 453 L125 35 C125 26 119 20 110 20 L70 20 C64.4803 20 60 15.5197 60 10 C60 4.4803 64.4803 0 70 0 L265 0 C270.52 0 275 4.4803 275 10 C275 15.5197 270.52 20 265 20 L225 20 C216 20 210 26 210 35 L210 478.999 C210 490.59 200.591 500.112 189 500.25 L176.848 500.395 C175.502 500.411 161.71 498.741 160.413 498.381 C131.894 490.465 96.1056 481.035 67.5867 473.119 C62.4436 471.691 60 466.338 60 461 C60 455.658 64.508 452.172 69.6782 453.516 L69.6782 453.516 Z " />
<glyph glyph-name="idieresis" unicode="&#xef;" horiz-adv-x="320" d="M243 614 C276 614 298 636 298 669 C298 702 276 724 243 724 C210 724 188 702 188 669 C188 636 210 614 243 614 L243 614 Z M93 614 C126 614 148 636 148 669 C148 702 126 724 93 724 C60 724 38 702 38 669 C38 636 60 614 93 614 L93 614 Z M69.6782 453.516 L110 464 C119 466 125 462 125 453 L125 35 C125 26 119 20 110 20 L70 20 C64.4803 20 60 15.5197 60 10 C60 4.4803 64.4803 0 70 0 L265 0 C270.52 0 275 4.4803 275 10 C275 15.5197 270.52 20 265 20 L225 20 C216 20 210 26 210 35 L210 478.999 C210 490.59 200.591 500.112 189 500.25 L176.848 500.395 C175.502 500.411 161.71 498.741 160.413 498.381 C131.894 490.465 96.1056 481.035 67.5867 473.119 C62.4436 471.691 60 466.338 60 461 C60 455.658 64.508 452.172 69.6782 453.516 L69.6782 453.516 Z " />
<glyph glyph-name="ntilde" unicode="&#xf1;" horiz-adv-x="569" d="M139.281 627.089 C141.515 658.55 156.923 679 180 679 C232 679 301 614 353 614 C400.775 614 432.389 659.63 433.94 728.645 C434.035 732.877 430.733 734 426.5 734 C422.681 734 418.996 729.915 418.7 726.108 C416.244 694.535 398.9 674 373 674 C321 674 252 739 200 739 C155.15 739 125.51 693.37 124.056 624.355 C123.967 620.129 127.273 619 131.5 619 C135.347 619 139.008 623.252 139.281 627.089 L139.281 627.089 Z M24.9925 458.7 L39 458 C66 457 84 438 84 411 L84 35 C84 26 78 20 69 20 L29 20 C23.4803 20 19 15.5197 19 10 C19 4.4803 23.4803 0 29 0 L224 0 C229.52 0 234 4.4803 234 10 C234 15.5197 229.52 20 224 20 L184 20 C175 20 169 26 169 35 L169 343.818 C169 349.603 175.254 370.544 178.486 375.343 C208.33 419.65 250 448 286 448 C354 448 389 401 389 330 L389 35 C389 26 383 20 374 20 L334 20 C328.48 20 324 15.5197 324 10 C324 4.4803 328.48 0 334 0 L529 0 C534.52 0 539 4.4803 539 10 C539 15.5197 534.52 20 529 20 L489 20 C480 20 474 26 474 35 L474 330 C474 438 427 510 337 510 C289.975 510 235.463 475.969 193.679 421.944 C186.716 412.941 169 416.845 169 428.226 L169 478.999 C169 490.59 159.591 500.112 148 500.25 L135.848 500.395 C134.502 500.411 120.71 498.741 119.413 498.381 C89.166 489.985 50.7409 479.886 21.4848 471.697 C18.4096 470.836 19 468.193 19 465 C19 461.692 21.689 458.866 24.9925 458.7 L24.9925 458.7 Z " />
<glyph glyph-name="ograve" unicode="&#xf2;" horiz-adv-x="613" d="M139 250 C139 390 206 484 307 484 C408 484 475 390 475 250 C475 110 408 16 307 16 C206 16 139 110 139 250 L139 250 Z M45 250 C45 94 150 -10 307 -10 C464 -10 568 94 568 250 C568 406 464 510 307 510 C150 510 45 406 45 250 L45 250 Z M103 746 C103 738 129 714 167 682 L303.059 567.02 C306.327 564.259 311.475 564.475 314.5 567.5 C317.511 570.511 317.852 575.789 315.254 579.162 L206 721 C176 761 153 788 145 788 C122 788 103 769 103 746 L103 746 Z " />
<glyph glyph-name="oacute" unicode="&#xf3;" horiz-adv-x="613" d="M320.941 567.02 L457 682 C495 715 521 740 521 746 C521 769 502 788 479 788 C473 788 450 761 418 721 L308.746 579.162 C306.148 575.789 306.489 570.511 309.5 567.5 C312.525 564.475 317.673 564.259 320.941 567.02 L320.941 567.02 Z M139 250 C139 390 206 484 307 484 C408 484 475 390 475 250 C475 110 408 16 307 16 C206 16 139 110 139 250 L139 250 Z M45 250 C45 94 150 -10 307 -10 C464 -10 568 94 568 250 C568 406 464 510 307 510 C150 510 45 406 45 250 L45 250 Z " />
<glyph glyph-name="ocircumflex" unicode="&#xf4;" horiz-adv-x="613" d="M139 250 C139 390 206 484 307 484 C408 484 475 390 475 250 C475 110 408 16 307 16 C206 16 139 110 139 250 L139 250 Z M45 250 C45 94 150 -10 307 -10 C464 -10 568 94 568 250 C568 406 464 510 307 510 C150 510 45 406 45 250 L45 250 Z M337 755 C331 764 317 785 307 785 C297 785 283 764 277 755 L159.236 572.562 C156.915 568.967 157.713 563.739 161 561 C164.297 558.252 169.497 558.479 172.542 561.503 L263.711 652.021 C287.605 675.743 326.395 675.743 350.289 652.021 L441.458 561.503 C444.503 558.479 449.703 558.252 453 561 C456.287 563.739 457.085 568.967 454.764 572.562 L337 755 L337 755 Z " />
<glyph glyph-name="otilde" unicode="&#xf5;" horiz-adv-x="613" d="M167.281 628.089 C169.515 659.55 184.923 680 208 680 C260 680 329 615 381 615 C428.775 615 460.389 660.63 461.94 729.645 C462.035 733.877 458.733 735 454.5 735 C450.681 735 446.996 730.915 446.7 727.108 C444.244 695.535 426.9 675 401 675 C349 675 280 740 228 740 C183.15 740 153.51 694.37 152.056 625.355 C151.967 621.129 155.273 620 159.5 620 C163.347 620 167.008 624.252 167.281 628.089 L167.281 628.089 Z M139 250 C139 390 206 484 307 484 C408 484 475 390 475 250 C475 110 408 16 307 16 C206 16 139 110 139 250 L139 250 Z M45 250 C45 94 150 -10 307 -10 C464 -10 568 94 568 250 C568 406 464 510 307 510 C150 510 45 406 45 250 L45 250 Z " />
<glyph glyph-name="odieresis" unicode="&#xf6;" horiz-adv-x="613" d="M382 615 C415 615 437 637 437 670 C437 703 415 725 382 725 C349 725 327 703 327 670 C327 637 349 615 382 615 L382 615 Z M232 615 C265 615 287 637 287 670 C287 703 265 725 232 725 C199 725 177 703 177 670 C177 637 199 615 232 615 L232 615 Z M139 250 C139 390 206 484 307 484 C408 484 475 390 475 250 C475 110 408 16 307 16 C206 16 139 110 139 250 L139 250 Z M45 250 C45 94 150 -10 307 -10 C464 -10 568 94 568 250 C568 406 464 510 307 510 C150 510 45 406 45 250 L45 250 Z " />
<glyph glyph-name="oslash" unicode="&#xf8;" horiz-adv-x="613" d="M67.7527 -9.24734 L107.946 30.9465 C117.855 40.8554 142.33 40.7681 154.068 33.1137 C195.687 5.97375 247.6 -9 307 -9 C464 -9 568 95 568 251 C568 310.4 553.026 362.313 525.886 403.932 C518.232 415.67 518.145 440.145 528.054 450.054 L568 490 C574.072 496.072 574.072 505.928 568 512 C561.928 518.072 552.072 518.072 546 512 L506.054 472.054 C496.145 462.145 471.67 462.232 459.932 469.886 C418.313 497.026 366.4 512 307 512 C150 512 45 408 45 252 C45 192.6 59.9738 140.687 87.1137 99.0682 C94.8022 87.278 93.357 61.6294 83.2812 51.8008 C50.6962 20.0156 33 3 33 3 C33 3 38.1417 -2.3653 44.5 -9 C50.8462 -15.6221 61.267 -15.733 67.7527 -9.24734 L67.7527 -9.24734 Z M417.258 385.258 L173.328 141.328 C166.242 134.242 156.237 137.455 153.212 147.007 C143.445 177.853 138 213.225 138 252 C138 392 205 486 306 486 C353.025 486 392.563 465.922 421.245 430.257 C433.123 415.487 430.66 398.66 417.258 385.258 L417.258 385.258 Z M458.788 355.993 C468.555 325.147 474 289.775 474 251 C474 111 407 17 306 17 C258.975 17 219.437 37.4187 190.755 73.2026 C178.921 87.966 181.823 105.824 195.203 119.202 C257.534 181.524 338.866 262.775 434.901 358.043 C442.031 365.117 455.756 365.567 458.788 355.993 L458.788 355.993 Z " />
<glyph glyph-name="ugrave" unicode="&#xf9;" horiz-adv-x="560" d="M71 746 C71 738 97 714 135 682 L271.059 567.02 C274.327 564.259 279.475 564.475 282.5 567.5 C285.511 570.511 285.852 575.789 283.254 579.162 L174 721 C144 761 121 788 113 788 C90 788 71 769 71 746 L71 746 Z M534.889 48.1689 L520 44 C490 36 470 51 470 81 L470 438.56 C470 472.473 442.473 500 408.56 500 L330 500 C324.48 500 320 495.52 320 490 C320 484.48 324.48 480 330 480 L370 480 C379 480 385 474 385 465 L385 157.141 C385 153.107 380.663 134.85 378.754 131.295 C351.489 80.5137 305.1 48 257 48 C202 48 165 92 165 159 L165 437.56 C165 471.473 137.473 499 103.56 499 L25 499 C19.4803 499 15 494.52 15 489 C15 483.48 19.4803 479 25 479 L65 479 C74 479 80 473 80 464 L80 159 C80 57 135 -11 217 -11 C273.925 -11 328.808 23.7119 364.804 79.6593 C369.527 86.9995 385 84.3815 385 75.6532 L385 20.0015 C385 8.41012 394.409 -1.11202 406 -1.25 L420.2 -1.41904 C421.197 -1.43091 432.341 0.0882758 433.3 0.361277 C444.737 3.61773 457.368 6.63158 470 10 C492.176 15.9706 515.08 21.9412 534.989 27.2912 C540.415 28.7494 545 34.8813 545 40.5 C545 46.081 540.263 49.6737 534.889 48.1689 L534.889 48.1689 Z " />
<glyph glyph-name="uacute" unicode="&#xfa;" horiz-adv-x="560" d="M288.941 567.02 L425 682 C463 715 489 740 489 746 C489 769 470 788 447 788 C441 788 418 761 386 721 L276.746 579.162 C274.148 575.789 274.489 570.511 277.5 567.5 C280.525 564.475 285.673 564.259 288.941 567.02 L288.941 567.02 Z M534.889 48.1689 L520 44 C490 36 470 51 470 81 L470 438.56 C470 472.473 442.473 500 408.56 500 L330 500 C324.48 500 320 495.52 320 490 C320 484.48 324.48 480 330 480 L370 480 C379 480 385 474 385 465 L385 157.141 C385 153.107 380.663 134.85 378.754 131.295 C351.489 80.5137 305.1 48 257 48 C202 48 165 92 165 159 L165 437.56 C165 471.473 137.473 499 103.56 499 L25 499 C19.4803 499 15 494.52 15 489 C15 483.48 19.4803 479 25 479 L65 479 C74 479 80 473 80 464 L80 159 C80 57 135 -11 217 -11 C273.925 -11 328.808 23.7119 364.804 79.6593 C369.527 86.9995 385 84.3815 385 75.6532 L385 20.0015 C385 8.41012 394.409 -1.11202 406 -1.25 L420.2 -1.41904 C421.197 -1.43091 432.341 0.0882758 433.3 0.361277 C444.737 3.61773 457.368 6.63158 470 10 C492.176 15.9706 515.08 21.9412 534.989 27.2912 C540.415 28.7494 545 34.8813 545 40.5 C545 46.081 540.263 49.6737 534.889 48.1689 L534.889 48.1689 Z " />
<glyph glyph-name="ucircumflex" unicode="&#xfb;" horiz-adv-x="560" d="M305 755 C299 764 285 785 275 785 C265 785 251 764 245 755 L127.236 572.562 C124.915 568.967 125.713 563.739 129 561 C132.297 558.252 137.497 558.479 140.542 561.503 L231.711 652.021 C255.605 675.743 294.395 675.743 318.289 652.021 L409.458 561.503 C412.503 558.479 417.703 558.252 421 561 C424.287 563.739 425.085 568.967 422.764 572.562 L305 755 L305 755 Z M534.889 48.1689 L520 44 C490 36 470 51 470 81 L470 438.56 C470 472.473 442.473 500 408.56 500 L330 500 C324.48 500 320 495.52 320 490 C320 484.48 324.48 480 330 480 L370 480 C379 480 385 474 385 465 L385 157.141 C385 153.107 380.663 134.85 378.754 131.295 C351.489 80.5137 305.1 48 257 48 C202 48 165 92 165 159 L165 437.56 C165 471.473 137.473 499 103.56 499 L25 499 C19.4803 499 15 494.52 15 489 C15 483.48 19.4803 479 25 479 L65 479 C74 479 80 473 80 464 L80 159 C80 57 135 -11 217 -11 C273.925 -11 328.808 23.7119 364.804 79.6593 C369.527 86.9995 385 84.3815 385 75.6532 L385 20.0015 C385 8.41012 394.409 -1.11202 406 -1.25 L420.2 -1.41904 C421.197 -1.43091 432.341 0.0882758 433.3 0.361277 C444.737 3.61773 457.368 6.63158 470 10 C492.176 15.9706 515.08 21.9412 534.989 27.2912 C540.415 28.7494 545 34.8813 545 40.5 C545 46.081 540.263 49.6737 534.889 48.1689 L534.889 48.1689 Z " />
<glyph glyph-name="udieresis" unicode="&#xfc;" horiz-adv-x="560" d="M350 615 C383 615 405 637 405 670 C405 703 383 725 350 725 C317 725 295 703 295 670 C295 637 317 615 350 615 L350 615 Z M200 615 C233 615 255 637 255 670 C255 703 233 725 200 725 C167 725 145 703 145 670 C145 637 167 615 200 615 L200 615 Z M534.889 48.1689 L520 44 C490 36 470 51 470 81 L470 438.56 C470 472.473 442.473 500 408.56 500 L330 500 C324.48 500 320 495.52 320 490 C320 484.48 324.48 480 330 480 L370 480 C379 480 385 474 385 465 L385 157.141 C385 153.107 380.663 134.85 378.754 131.295 C351.489 80.5137 305.1 48 257 48 C202 48 165 92 165 159 L165 437.56 C165 471.473 137.473 499 103.56 499 L25 499 C19.4803 499 15 494.52 15 489 C15 483.48 19.4803 479 25 479 L65 479 C74 479 80 473 80 464 L80 159 C80 57 135 -11 217 -11 C273.925 -11 328.808 23.7119 364.804 79.6593 C369.527 86.9995 385 84.3815 385 75.6532 L385 20.0015 C385 8.41012 394.409 -1.11202 406 -1.25 L420.2 -1.41904 C421.197 -1.43091 432.341 0.0882758 433.3 0.361277 C444.737 3.61773 457.368 6.63158 470 10 C492.176 15.9706 515.08 21.9412 534.989 27.2912 C540.415 28.7494 545 34.8813 545 40.5 C545 46.081 540.263 49.6737 534.889 48.1689 L534.889 48.1689 Z " />
<glyph glyph-name="ydieresis" unicode="&#xff;" horiz-adv-x="558" d="M381 615 C414 615 436 637 436 670 C436 703 414 725 381 725 C348 725 326 703 326 670 C326 637 348 615 381 615 L381 615 Z M231 615 C264 615 286 637 286 670 C286 703 264 725 231 725 C198 725 176 703 176 670 C176 637 198 615 231 615 L231 615 Z M535.888 500 L394 500 C388.48 500 384 495.52 384 490 L384 484.5 C384 482.016 386.016 480 388.5 480 L393 480 C422 480 435 458 424 425 L373.5 271.5 C355.199 215.873 283.03 212.965 260.314 266.939 L191.242 431.048 C191.124 431.33 189.344 436.269 189.264 436.564 C181.762 464.312 193.649 477.116 217.722 479.56 C222.659 480.061 227 485.038 227 490 C227 495.52 222.52 500 217 500 L22 500 C16.4803 500 12 495.52 12 490 C12 484.839 15.9043 480.047 21.0541 479.711 C57.5656 477.332 85.2 460.15 100 425 L268.206 24.329 C271.916 15.4911 272.171 -13.5359 268.675 -22.4607 C251.277 -66.8775 235 -111.8 218 -156 C209 -179 195 -194 191 -194 C169 -194 164 -165 141 -165 C114 -165 96 -183 96 -210 C96 -240 116 -260 146 -260 C172 -260 218 -223 239 -167 L299 -10 C354.385 141.795 409.769 292.538 465.154 444.387 C465.249 444.648 462.095 435.193 462.222 435.439 C476.746 463.486 500.419 477.081 531.902 479.575 C536.903 479.971 543.756 485.039 544.5 490 C545.319 495.459 541.408 500 535.888 500 L535.888 500 Z " />
<glyph glyph-name="Amacron" unicode="&#x100;" horiz-adv-x="796" d="M300.5 895 L541.5 895 C557.783 895 571 908.217 571 924.5 C571 940.783 557.783 954 541.5 954 L300.5 954 C284.217 954 271 940.783 271 924.5 C271 908.217 284.217 895 300.5 895 L300.5 895 Z M305 12.5 C305 19.3996 299.4 25 292.5 25 L278 25 C222 25 194 60 207 114 L245.457 236.028 C252.587 258.65 280.336 279 304.056 279 L464.915 279 C488.654 279 516.403 258.637 523.525 235.991 L560 120 C576 63 548 25 490 25 L475.5 25 C468.6 25 463 19.3996 463 12.5 C463 5.60037 468.6 0 475.5 0 L777.5 0 C784.4 0 790 5.60037 790 12.5 L790 18 C790 21.8638 786.864 25 783 25 L776 25 C728 25 684 63 664 120 L472.873 717.273 C472.829 717.409 472.01 719.957 471.979 720.097 C471.44 722.531 460.872 770 456 770 L451 770 C448.783 770 446.432 767.095 446.333 764.88 C445.424 744.635 417.947 727.429 375.566 720.549 C372.792 720.099 372.692 717.692 373.5 715 C373.973 713.422 370.714 696.94 370.2 695.375 C307.799 505.25 245.375 315.125 182 125 C162 65 109 25 49 25 L26.5 25 C19.6004 25 14 19.3996 14 12.5 C14 5.60037 19.6004 0 26.5 0 L292.5 0 C299.4 0 305 5.60037 305 12.5 L305 12.5 Z M292.299 384.972 L326.172 492.044 C344.783 550.873 424.907 550.775 443.374 491.901 L476.96 384.829 C490.148 342.785 462.399 305 418.336 305 L350.878 305 C306.736 305 278.985 342.885 292.299 384.972 L292.299 384.972 Z " />
<glyph glyph-name="amacron" unicode="&#x101;" horiz-adv-x="514" d="M138.5 645 L379.5 645 C395.783 645 409 658.217 409 674.5 C409 690.783 395.783 704 379.5 704 L138.5 704 C122.217 704 109 690.783 109 674.5 C109 658.217 122.217 645 138.5 645 L138.5 645 Z M516.5 105.5 C512.745 107.252 508.444 105.813 507.353 101.815 C499.734 73.8935 479.923 56 455 56 C422 56 400 74 400 102 L400 355 C400 462 344 510 259 510 C143 510 65 414 65 360 C65 324 85 300 114 300 C141 300 159 325 159 343 C159 361 139 385 139 403 C139 432 175 484 229 484 C281 484 316 454 316 386 L316 310.393 C316 286.706 292.288 257.733 269.703 250.591 C90.4925 193.918 46 166.7 46 89 C46 30 91 -9 159 -9 C195.9 -9 241.71 12.06 297.888 65.115 C305.153 71.9763 320.302 67.1815 324.054 57.9199 C339.49 19.8219 374.8 -4 421 -4 C469.45 -4 509.326 34.3562 522.624 93.0639 C523.665 97.6599 520.77 103.507 516.5 105.5 L516.5 105.5 Z M316 175 L316 129.071 C316 118.038 306.986 94.8266 298.842 87.3828 C259.891 51.7813 228.5 38 204 38 C160 38 131 63 131 100 C131 166.825 155.503 192.132 247.744 224.772 C284.098 237.636 316 213.562 316 175 L316 175 Z " />
<glyph glyph-name="Abreve" unicode="&#x102;" horiz-adv-x="796" d="M288.392 983.083 C299.352 915.125 350.7 870 421 870 C492.25 870 544.548 914.222 554.743 981.233 C555.555 986.568 552.323 992.613 547 993.5 C542.841 994.193 537.638 990.535 536.593 986.45 C527.837 952.246 482.975 930 421 930 C359.025 930 315.018 953.102 305.6 988.225 C304.555 992.122 299.473 996.201 295.5 995.5 C290.49 994.616 287.582 988.105 288.392 983.083 L288.392 983.083 Z M305 12.5 C305 19.3996 299.4 25 292.5 25 L278 25 C222 25 194 60 207 114 L245.457 236.028 C252.587 258.65 280.336 279 304.056 279 L464.915 279 C488.654 279 516.403 258.637 523.525 235.991 L560 120 C576 63 548 25 490 25 L475.5 25 C468.6 25 463 19.3996 463 12.5 C463 5.60037 468.6 0 475.5 0 L777.5 0 C784.4 0 790 5.60037 790 12.5 L790 18 C790 21.8638 786.864 25 783 25 L776 25 C728 25 684 63 664 120 L472.873 717.273 C472.829 717.409 472.01 719.957 471.979 720.097 C471.44 722.531 460.872 770 456 770 L451 770 C448.783 770 446.432 767.095 446.333 764.88 C445.424 744.635 417.947 727.429 375.566 720.549 C372.792 720.099 372.692 717.692 373.5 715 C373.973 713.422 370.714 696.94 370.2 695.375 C307.799 505.25 245.375 315.125 182 125 C162 65 109 25 49 25 L26.5 25 C19.6004 25 14 19.3996 14 12.5 C14 5.60037 19.6004 0 26.5 0 L292.5 0 C299.4 0 305 5.60037 305 12.5 L305 12.5 Z M292.299 384.972 L326.172 492.044 C344.783 550.873 424.907 550.775 443.374 491.901 L476.96 384.829 C490.148 342.785 462.399 305 418.336 305 L350.878 305 C306.736 305 278.985 342.885 292.299 384.972 L292.299 384.972 Z " />
<glyph glyph-name="abreve" unicode="&#x103;" horiz-adv-x="514" d="M126.392 733.083 C137.352 665.125 188.7 620 259 620 C330.25 620 382.548 664.222 392.743 731.233 C393.555 736.568 390.323 742.613 385 743.5 C380.841 744.193 375.638 740.535 374.593 736.45 C365.838 702.246 320.975 680 259 680 C197.025 680 153.018 703.102 143.6 738.225 C142.555 742.122 137.473 746.201 133.5 745.5 C128.49 744.616 125.582 738.105 126.392 733.083 L126.392 733.083 Z M516.5 105.5 C512.745 107.252 508.444 105.813 507.353 101.815 C499.734 73.8935 479.923 56 455 56 C422 56 400 74 400 102 L400 355 C400 462 344 510 259 510 C143 510 65 414 65 360 C65 324 85 300 114 300 C141 300 159 325 159 343 C159 361 139 385 139 403 C139 432 175 484 229 484 C281 484 316 454 316 386 L316 310.393 C316 286.706 292.288 257.733 269.703 250.591 C90.4925 193.918 46 166.7 46 89 C46 30 91 -9 159 -9 C195.9 -9 241.71 12.06 297.888 65.115 C305.153 71.9763 320.302 67.1815 324.054 57.9199 C339.49 19.8219 374.8 -4 421 -4 C469.45 -4 509.326 34.3562 522.624 93.0639 C523.665 97.6599 520.77 103.507 516.5 105.5 L516.5 105.5 Z M316 175 L316 129.071 C316 118.038 306.986 94.8266 298.842 87.3828 C259.891 51.7813 228.5 38 204 38 C160 38 131 63 131 100 C131 166.825 155.503 192.132 247.744 224.772 C284.098 237.636 316 213.562 316 175 L316 175 Z " />
<glyph glyph-name="Cacute" unicode="&#x106;" horiz-adv-x="740" d="M427.941 817.02 L564 932 C602 965 628 990 628 996 C628 1019 609 1038 586 1038 C580 1038 557 1011 525 971 L415.746 829.162 C413.148 825.789 413.489 820.511 416.5 817.5 C419.525 814.475 424.673 814.259 427.941 817.02 L427.941 817.02 Z M698 7.51665 L698 213 C698 219.072 693.072 224 687 224 C681.282 224 674.223 219.026 672.3 213.641 L666 196 C645 134 603 78 558 50 C517 27 470 14 414 14 C262 14 161 159 161 376 C161 592 267 736 425 736 C476 736 516 726 550 709 C597 686 644 624 667 555 L673.3 537.359 C675.223 531.974 682.282 527 688 527 C694.072 527 699 531.928 699 538 L699 739.5 C699 744.192 695.192 748 690.5 748 C685.963 748 680.992 744.168 679.837 739.78 L677 729 C670 700 642 695 607 716 C561 744 502 761 415 761 C197 761 51 607 51 376 C51 145 192 -9 404 -9 C489 -9 553 8 604 38 C641 59 671 53 678 22 L681.259 8.31224 C682.177 4.45674 686.546 0.763633 690.5 0.5 C694.631 0.224626 698 3.37687 698 7.51665 L698 7.51665 Z M685 133 L685 133 L685 133 L685 133 Z " />
<glyph glyph-name="Ccircumflex" unicode="&#x108;" horiz-adv-x="740" d="M698 7.51665 L698 213 C698 219.072 693.072 224 687 224 C681.282 224 674.223 219.026 672.3 213.641 L666 196 C645 134 603 78 558 50 C517 27 470 14 414 14 C262 14 161 159 161 376 C161 592 267 736 425 736 C476 736 516 726 550 709 C597 686 644 624 667 555 L673.3 537.359 C675.223 531.974 682.282 527 688 527 C694.072 527 699 531.928 699 538 L699 739.5 C699 744.192 695.192 748 690.5 748 C685.963 748 680.992 744.168 679.837 739.78 L677 729 C670 700 642 695 607 716 C561 744 502 761 415 761 C197 761 51 607 51 376 C51 145 192 -9 404 -9 C489 -9 553 8 604 38 C641 59 671 53 678 22 L681.259 8.31224 C682.177 4.45674 686.546 0.763633 690.5 0.5 C694.631 0.224626 698 3.37687 698 7.51665 L698 7.51665 Z M446 1006 C440 1015 426 1036 416 1036 C406 1036 392 1015 386 1006 L268.236 823.562 C265.915 819.967 266.713 814.739 270 812 C273.297 809.252 278.497 809.479 281.542 812.503 L372.711 903.021 C396.605 926.743 435.395 926.743 459.289 903.021 L550.458 812.503 C553.503 809.479 558.703 809.252 562 812 C565.287 814.739 566.085 819.967 563.764 823.562 L446 1006 L446 1006 Z M685 133 L685 133 L685 133 L685 133 Z " />
<glyph glyph-name="Cdot" unicode="&#x10a;" horiz-adv-x="740" d="M414 865 C447 865 469 887 469 920 C469 953 447 975 414 975 C381 975 359 953 359 920 C359 887 381 865 414 865 L414 865 Z M698 7.51665 L698 213 C698 219.072 693.072 224 687 224 C681.282 224 674.223 219.026 672.3 213.641 L666 196 C645 134 603 78 558 50 C517 27 470 14 414 14 C262 14 161 159 161 376 C161 592 267 736 425 736 C476 736 516 726 550 709 C597 686 644 624 667 555 L673.3 537.359 C675.223 531.974 682.282 527 688 527 C694.072 527 699 531.928 699 538 L699 739.5 C699 744.192 695.192 748 690.5 748 C685.963 748 680.992 744.168 679.837 739.78 L677 729 C670 700 642 695 607 716 C561 744 502 761 415 761 C197 761 51 607 51 376 C51 145 192 -9 404 -9 C489 -9 553 8 604 38 C641 59 671 53 678 22 L681.259 8.31224 C682.177 4.45674 686.546 0.763633 690.5 0.5 C694.631 0.224626 698 3.37687 698 7.51665 L698 7.51665 Z M685 133 L685 133 L685 133 L685 133 Z " />
<glyph glyph-name="cdot" unicode="&#x10b;" horiz-adv-x="503" d="M297 615 C330 615 352 637 352 670 C352 703 330 725 297 725 C264 725 242 703 242 670 C242 637 264 615 297 615 L297 615 Z M467 130.5 C463.802 131.832 460.625 132.038 459.133 128.911 C433.996 76.2225 375.35 42 311 42 C204 42 133 134 133 273 C133 404 197 491 292 491 C331 491 369 457 388 405 C397 380 414 363 431 363 C465 363 482 380 473 405 C450 468 380 510 297 510 C146 510 45 400 45 236 C45 88 139 -10 281 -10 C357.05 -10 432.149 42.2844 470.151 121.828 C471.736 125.147 470.396 129.085 467 130.5 L467 130.5 Z " />
<glyph glyph-name="Ccaron" unicode="&#x10c;" horiz-adv-x="740" d="M548.458 1038.5 L457.289 947.979 C433.395 924.257 394.605 924.257 370.711 947.979 L279.542 1038.5 C276.497 1041.52 271.297 1041.75 268 1039 C264.713 1036.26 263.915 1031.03 266.236 1027.44 L384 845 C390 836 404 815 414 815 C424 815 438 836 444 845 L561.764 1027.44 C564.085 1031.03 563.287 1036.26 560 1039 C556.703 1041.75 551.503 1041.52 548.458 1038.5 L548.458 1038.5 Z M698 7.51665 L698 213 C698 219.072 693.072 224 687 224 C681.282 224 674.223 219.026 672.3 213.641 L666 196 C645 134 603 78 558 50 C517 27 470 14 414 14 C262 14 161 159 161 376 C161 592 267 736 425 736 C476 736 516 726 550 709 C597 686 644 624 667 555 L673.3 537.359 C675.223 531.974 682.282 527 688 527 C694.072 527 699 531.928 699 538 L699 739.5 C699 744.192 695.192 748 690.5 748 C685.963 748 680.992 744.168 679.837 739.78 L677 729 C670 700 642 695 607 716 C561 744 502 761 415 761 C197 761 51 607 51 376 C51 145 192 -9 404 -9 C489 -9 553 8 604 38 C641 59 671 53 678 22 L681.259 8.31224 C682.177 4.45674 686.546 0.763633 690.5 0.5 C694.631 0.224626 698 3.37687 698 7.51665 L698 7.51665 Z M685 133 L685 133 L685 133 L685 133 Z " />
<glyph glyph-name="ccaron" unicode="&#x10d;" horiz-adv-x="503" d="M431.458 788.497 L340.289 697.979 C316.395 674.257 277.605 674.257 253.711 697.979 L162.542 788.497 C159.497 791.521 154.297 791.748 151 789 C147.713 786.261 146.915 781.033 149.236 777.438 L267 595 C273 586 287 565 297 565 C307 565 321 586 327 595 L444.764 777.438 C447.085 781.033 446.287 786.261 443 789 C439.703 791.748 434.503 791.521 431.458 788.497 L431.458 788.497 Z M467 130.5 C463.802 131.832 460.625 132.038 459.133 128.911 C433.996 76.2225 375.35 42 311 42 C204 42 133 134 133 273 C133 404 197 491 292 491 C331 491 369 457 388 405 C397 380 414 363 431 363 C465 363 482 380 473 405 C450 468 380 510 297 510 C146 510 45 400 45 236 C45 88 139 -10 281 -10 C357.05 -10 432.149 42.2844 470.151 121.828 C471.736 125.147 470.396 129.085 467 130.5 L467 130.5 Z " />
<glyph glyph-name="Dcaron" unicode="&#x10e;" horiz-adv-x="853" d="M551.707 1038.78 L459.287 947.673 C435.395 924.12 396.673 924.189 372.865 947.827 L281.275 1038.76 C278.367 1041.65 273.532 1041.76 270.5 1039 C267.505 1036.28 266.836 1031.16 269.031 1027.76 L387 845 C393 836 407 815 417 815 C427 815 441 836 447 845 L563.992 1027.74 C566.173 1031.15 565.493 1036.28 562.5 1039 C559.469 1041.76 554.624 1041.66 551.707 1038.78 L551.707 1038.78 Z M295 20 C250 20 245 44 245 80 L245 710 C245 721.039 253.961 730 265 730 L285 730 C551 730 688 588 688 375 C688 141 531 20 295 20 L295 20 Z M70 730 L95 730 C125 730 145 710 145 680 L145 70 C145 40 125 20 95 20 L70 20 C64.4803 20 60 15.5197 60 10 C60 4.4803 64.4803 0 70 0 L325 0 C609 0 798 128 798 375 C798 600 651 750 365 750 L70 750 C64.4803 750 60 745.52 60 740 C60 734.48 64.4803 730 70 730 L70 730 Z " />
<glyph glyph-name="dcaron" unicode="&#x10f;" horiz-adv-x="600" d="M587 757 C570 757 560 694 556 649 L546.686 545.618 C546.31 541.437 549.384 537.323 553.5 536.5 C557.588 535.682 562.212 538.262 563.663 542.17 L600 640 C615 679 625 721 625 745 C625 754 610 757 587 757 L587 757 Z M356.511 708.674 L370 708 C397 707 415 688 415 661 L415 498.03 C415 488.371 403.559 483.004 394.688 486.825 C361.427 501.152 322.075 510 280 510 C125 510 45 406 45 251 C45 97 130 -5 257 -5 C309.7 -5 362.4 15.23 397.904 47.7064 C404.404 53.6511 415 47.3989 415 38.5911 L415 21.0015 C415 9.41012 424.409 -0.112017 436 -0.25 L448.68 -0.400947 C449.896 -0.415426 464.598 1.49728 465.774 1.80611 C499.726 10.7189 542.274 21.7811 576.226 30.6939 C581.393 32.0503 585 37.6579 585 43 C585 48.3458 580.492 51.8409 575.315 50.5096 L550 44 C520 36 500 51 500 81 L500 729 C500 740.591 490.591 750 479 750 L464.509 750 C463.676 750 452.391 748.769 451.578 748.586 C439.245 745.8 425.9 742.4 414 739 L355.307 723.65 C351.881 722.754 349.228 719.03 349.5 715.5 C349.774 711.941 352.946 708.853 356.511 708.674 L356.511 708.674 Z M414 366.836 L414 118.021 C414 108.055 406.03 87.0227 398.973 79.9855 C368.69 49.785 328.4 31 291 31 C195 31 131 129 131 275 C131 402 185 486 289 486 C341.25 486 390.793 439.973 411.049 384.785 C411.764 382.835 414 368.913 414 366.836 L414 366.836 Z " />
<glyph glyph-name="Emacron" unicode="&#x112;" horiz-adv-x="652" d="M230.5 895 L471.5 895 C487.783 895 501 908.217 501 924.5 C501 940.783 487.783 954 471.5 954 L230.5 954 C214.217 954 201 940.783 201 924.5 C201 908.217 214.217 895 230.5 895 L230.5 895 Z M50 730 L75 730 C117 730 145 702 145 660 L145 90 C145 48 117 20 75 20 L50 20 C44.4803 20 40 15.5197 40 10 C40 4.4803 44.4803 0 50 0 L574.846 0 C577.606 0 580.581 2.32255 581.25 5 L582.5 10 C589.141 48.8974 598.932 99.4957 605.896 139.593 C606.69 144.161 603.136 146 598.5 146 C594.144 146 588.461 142.153 586.843 138.108 L582 126 C557 63 498 21 435 21 L325 21 C253 21 245 45 245 80 L245 323.56 C245 357.473 272.527 385 306.44 385 L371 385 C419 385 458 353 468 305 L477.333 258.335 C478.235 253.824 482.899 250 487.5 250 C492.192 250 496 253.808 496 258.5 L496 535.5 C496 540.192 492.192 544 487.5 544 C482.899 544 478.235 540.176 477.333 535.665 L468 489 C458 441 419 409 371 409 L306.44 409 C272.527 409 245 436.527 245 470.44 L245 667.56 C245 701.473 272.527 729 306.44 729 L433 729 C481 729 524 697 540 649 L555.356 602.078 C556.743 597.841 562.041 594 566.5 594 C571.18 594 574.344 599.742 573.796 604.39 C568.787 646.84 561.615 699.385 557 740 L556 745 C555.459 747.706 552.661 750 549.901 750 L50 750 C44.4803 750 40 745.52 40 740 C40 734.48 44.4803 730 50 730 L50 730 Z " />
<glyph glyph-name="emacron" unicode="&#x113;" horiz-adv-x="540" d="M180.5 645 L421.5 645 C437.783 645 451 658.217 451 674.5 C451 690.783 437.783 704 421.5 704 L180.5 704 C164.217 704 151 690.783 151 674.5 C151 658.217 164.217 645 180.5 645 L180.5 645 Z M151.18 340 L448.016 340 C487.835 340 508.917 360.767 493.287 397.391 C459.173 477.33 389.275 510 301 510 C147 510 45 432 45 231 C45 86 138 -10 278 -10 C376.475 -10 462.592 44.1856 495.569 126.605 C496.771 129.61 495.623 133.648 492.5 134.5 C489.64 135.28 486.564 134.709 485.397 131.984 C463.238 80.2225 389.65 46 298 46 C200 46 135 134 135 266 C135 288.781 136.068 310.139 138.804 329.472 C139.695 335.767 144.822 340 151.18 340 L151.18 340 Z M365.309 363.301 L192.665 360.714 C163.375 360.275 147.339 377.023 159.074 403.863 C185.862 465.136 234.125 491 296 491 C338.9 491 375.334 466.498 398.564 406.824 C408.751 380.654 393.389 363.721 365.309 363.301 L365.309 363.301 Z " />
<glyph glyph-name="Ebreve" unicode="&#x114;" horiz-adv-x="652" d="M218.392 983.083 C229.352 915.125 280.7 870 351 870 C422.25 870 474.548 914.222 484.743 981.233 C485.555 986.568 482.323 992.613 477 993.5 C472.841 994.193 467.638 990.535 466.593 986.45 C457.838 952.246 412.975 930 351 930 C289.025 930 245.018 953.102 235.6 988.225 C234.555 992.122 229.473 996.201 225.5 995.5 C220.49 994.616 217.582 988.105 218.392 983.083 L218.392 983.083 Z M50 730 L75 730 C117 730 145 702 145 660 L145 90 C145 48 117 20 75 20 L50 20 C44.4803 20 40 15.5197 40 10 C40 4.4803 44.4803 0 50 0 L574.846 0 C577.606 0 580.581 2.32255 581.25 5 L582.5 10 C589.141 48.8974 598.932 99.4957 605.896 139.593 C606.69 144.161 603.136 146 598.5 146 C594.144 146 588.461 142.153 586.843 138.108 L582 126 C557 63 498 21 435 21 L325 21 C253 21 245 45 245 80 L245 323.56 C245 357.473 272.527 385 306.44 385 L371 385 C419 385 458 353 468 305 L477.333 258.335 C478.235 253.824 482.899 250 487.5 250 C492.192 250 496 253.808 496 258.5 L496 535.5 C496 540.192 492.192 544 487.5 544 C482.899 544 478.235 540.176 477.333 535.665 L468 489 C458 441 419 409 371 409 L306.44 409 C272.527 409 245 436.527 245 470.44 L245 667.56 C245 701.473 272.527 729 306.44 729 L433 729 C481 729 524 697 540 649 L555.356 602.078 C556.743 597.841 562.041 594 566.5 594 C571.18 594 574.344 599.742 573.796 604.39 C568.787 646.84 561.615 699.385 557 740 L556 745 C555.459 747.706 552.661 750 549.901 750 L50 750 C44.4803 750 40 745.52 40 740 C40 734.48 44.4803 730 50 730 L50 730 Z " />
<glyph glyph-name="ebreve" unicode="&#x115;" horiz-adv-x="540" d="M168.392 733.083 C179.352 665.125 230.7 620 301 620 C372.25 620 424.548 664.222 434.743 731.233 C435.555 736.568 432.323 742.613 427 743.5 C422.841 744.193 417.638 740.535 416.593 736.45 C407.838 702.246 362.975 680 301 680 C239.025 680 195.018 703.102 185.6 738.225 C184.555 742.122 179.473 746.201 175.5 745.5 C170.49 744.616 167.582 738.105 168.392 733.083 L168.392 733.083 Z M151.18 340 L448.016 340 C487.835 340 508.917 360.767 493.287 397.391 C459.173 477.33 389.275 510 301 510 C147 510 45 432 45 231 C45 86 138 -10 278 -10 C376.475 -10 462.592 44.1856 495.569 126.605 C496.771 129.61 495.623 133.648 492.5 134.5 C489.64 135.28 486.564 134.709 485.397 131.984 C463.238 80.2225 389.65 46 298 46 C200 46 135 134 135 266 C135 288.781 136.068 310.139 138.804 329.472 C139.695 335.767 144.822 340 151.18 340 L151.18 340 Z M365.309 363.301 L192.665 360.714 C163.375 360.275 147.339 377.023 159.074 403.863 C185.862 465.136 234.125 491 296 491 C338.9 491 375.334 466.498 398.564 406.824 C408.751 380.654 393.389 363.721 365.309 363.301 L365.309 363.301 Z " />
<glyph glyph-name="Edot" unicode="&#x116;" horiz-adv-x="652" d="M351 865 C384 865 406 887 406 920 C406 953 384 975 351 975 C318 975 296 953 296 920 C296 887 318 865 351 865 L351 865 Z M50 730 L75 730 C117 730 145 702 145 660 L145 90 C145 48 117 20 75 20 L50 20 C44.4803 20 40 15.5197 40 10 C40 4.4803 44.4803 0 50 0 L574.846 0 C577.606 0 580.581 2.32255 581.25 5 L582.5 10 C589.141 48.8974 598.932 99.4957 605.896 139.593 C606.69 144.161 603.136 146 598.5 146 C594.144 146 588.461 142.153 586.843 138.108 L582 126 C557 63 498 21 435 21 L325 21 C253 21 245 45 245 80 L245 323.56 C245 357.473 272.527 385 306.44 385 L371 385 C419 385 458 353 468 305 L477.333 258.335 C478.235 253.824 482.899 250 487.5 250 C492.192 250 496 253.808 496 258.5 L496 535.5 C496 540.192 492.192 544 487.5 544 C482.899 544 478.235 540.176 477.333 535.665 L468 489 C458 441 419 409 371 409 L306.44 409 C272.527 409 245 436.527 245 470.44 L245 667.56 C245 701.473 272.527 729 306.44 729 L433 729 C481 729 524 697 540 649 L555.356 602.078 C556.743 597.841 562.041 594 566.5 594 C571.18 594 574.344 599.742 573.796 604.39 C568.787 646.84 561.615 699.385 557 740 L556 745 C555.459 747.706 552.661 750 549.901 750 L50 750 C44.4803 750 40 745.52 40 740 C40 734.48 44.4803 730 50 730 L50 730 Z " />
<glyph glyph-name="edot" unicode="&#x117;" horiz-adv-x="540" d="M301 615 C334 615 356 637 356 670 C356 703 334 725 301 725 C268 725 246 703 246 670 C246 637 268 615 301 615 L301 615 Z M151.18 340 L448.016 340 C487.835 340 508.917 360.767 493.287 397.391 C459.173 477.33 389.275 510 301 510 C147 510 45 432 45 231 C45 86 138 -10 278 -10 C376.475 -10 462.592 44.1856 495.569 126.605 C496.771 129.61 495.623 133.648 492.5 134.5 C489.64 135.28 486.564 134.709 485.397 131.984 C463.238 80.2225 389.65 46 298 46 C200 46 135 134 135 266 C135 288.781 136.068 310.139 138.804 329.472 C139.695 335.767 144.822 340 151.18 340 L151.18 340 Z M365.309 363.301 L192.665 360.714 C163.375 360.275 147.339 377.023 159.074 403.863 C185.862 465.136 234.125 491 296 491 C338.9 491 375.334 466.498 398.564 406.824 C408.751 380.654 393.389 363.721 365.309 363.301 L365.309 363.301 Z " />
<glyph glyph-name="Ecaron" unicode="&#x11a;" horiz-adv-x="652" d="M485.458 1038.5 L394.289 947.979 C370.395 924.257 331.605 924.257 307.711 947.979 L216.542 1038.5 C213.497 1041.52 208.297 1041.75 205 1039 C201.713 1036.26 200.915 1031.03 203.236 1027.44 L321 845 C327 836 341 815 351 815 C361 815 375 836 381 845 L498.764 1027.44 C501.085 1031.03 500.287 1036.26 497 1039 C493.703 1041.75 488.503 1041.52 485.458 1038.5 L485.458 1038.5 Z M50 730 L75 730 C117 730 145 702 145 660 L145 90 C145 48 117 20 75 20 L50 20 C44.4803 20 40 15.5197 40 10 C40 4.4803 44.4803 0 50 0 L574.846 0 C577.606 0 580.581 2.32255 581.25 5 L582.5 10 C589.141 48.8974 598.932 99.4957 605.896 139.593 C606.69 144.161 603.136 146 598.5 146 C594.144 146 588.461 142.153 586.843 138.108 L582 126 C557 63 498 21 435 21 L325 21 C253 21 245 45 245 80 L245 323.56 C245 357.473 272.527 385 306.44 385 L371 385 C419 385 458 353 468 305 L477.333 258.335 C478.235 253.824 482.899 250 487.5 250 C492.192 250 496 253.808 496 258.5 L496 535.5 C496 540.192 492.192 544 487.5 544 C482.899 544 478.235 540.176 477.333 535.665 L468 489 C458 441 419 409 371 409 L306.44 409 C272.527 409 245 436.527 245 470.44 L245 667.56 C245 701.473 272.527 729 306.44 729 L433 729 C481 729 524 697 540 649 L555.356 602.078 C556.743 597.841 562.041 594 566.5 594 C571.18 594 574.344 599.742 573.796 604.39 C568.787 646.84 561.615 699.385 557 740 L556 745 C555.459 747.706 552.661 750 549.901 750 L50 750 C44.4803 750 40 745.52 40 740 C40 734.48 44.4803 730 50 730 L50 730 Z " />
<glyph glyph-name="ecaron" unicode="&#x11b;" horiz-adv-x="540" d="M435.458 788.497 L344.289 697.979 C320.395 674.257 281.605 674.257 257.711 697.979 L166.542 788.497 C163.497 791.521 158.297 791.748 155 789 C151.713 786.261 150.915 781.033 153.236 777.438 L271 595 C277 586 291 565 301 565 C311 565 325 586 331 595 L448.764 777.438 C451.085 781.033 450.287 786.261 447 789 C443.703 791.748 438.503 791.521 435.458 788.497 L435.458 788.497 Z M151.18 340 L448.016 340 C487.835 340 508.917 360.767 493.287 397.391 C459.173 477.33 389.275 510 301 510 C147 510 45 432 45 231 C45 86 138 -10 278 -10 C376.475 -10 462.592 44.1856 495.569 126.605 C496.771 129.61 495.623 133.648 492.5 134.5 C489.64 135.28 486.564 134.709 485.397 131.984 C463.238 80.2225 389.65 46 298 46 C200 46 135 134 135 266 C135 288.781 136.068 310.139 138.804 329.472 C139.695 335.767 144.822 340 151.18 340 L151.18 340 Z M365.309 363.301 L192.665 360.714 C163.375 360.275 147.339 377.023 159.074 403.863 C185.862 465.136 234.125 491 296 491 C338.9 491 375.334 466.498 398.564 406.824 C408.751 380.654 393.389 363.721 365.309 363.301 L365.309 363.301 Z " />
<glyph glyph-name="Gcircumflex" unicode="&#x11c;" horiz-adv-x="817" d="M678.695 738.243 L676 728 C669 699 641 694 606 715 C560 743 501 760 414 760 C196 760 50 606 50 375 C50 144 195 -10 412 -10 C558.25 -10 657.919 16.6175 745.302 55.9496 C749.504 57.841 750.449 62.3242 748.5 66.5 C746.594 70.5833 741.081 72.2169 736.954 70.4077 C721.442 63.607 705.384 57.292 688.444 51.4628 C681.817 49.1824 675 53.1158 675 60.1244 L675 216 C675 267 707 301 756 301 L763 301 C766.864 301 770 304.136 770 308 L770 313.5 C770 320.4 764.4 326 757.5 326 L492.5 326 C485.6 326 480 320.4 480 313.5 L480 308 C480 304.136 483.136 301 487 301 L494 301 C543 301 575 267 575 216 C576 216 576 119 576 111 C574 51 516 12 429 12 C268 12 161 158 161 377 C161 593 267 737 425 737 C476 737 516 727 550 710 C597 687 644 625 667 556 L673.3 538.359 C675.223 532.974 682.282 528 688 528 C694.072 528 699 532.928 699 539 L699 739.945 C699 744.912 694.937 748.549 690 748 C685.365 747.485 679.882 742.753 678.695 738.243 L678.695 738.243 Z M445 1007 C439 1016 425 1037 415 1037 C405 1037 391 1016 385 1007 L267.236 824.562 C264.915 820.967 265.713 815.739 269 813 C272.297 810.252 277.497 810.479 280.542 813.503 L371.711 904.021 C395.605 927.743 434.395 927.743 458.289 904.021 L549.458 813.503 C552.503 810.479 557.703 810.252 561 813 C564.287 815.739 565.085 820.967 562.764 824.562 L445 1007 L445 1007 Z " />
<glyph glyph-name="Gbreve" unicode="&#x11e;" horiz-adv-x="817" d="M281.392 983.083 C292.353 915.125 343.7 870 414 870 C485.25 870 537.548 914.222 547.743 981.233 C548.555 986.568 545.323 992.613 540 993.5 C535.841 994.193 530.638 990.535 529.593 986.45 C520.838 952.246 475.975 930 414 930 C352.025 930 308.018 953.102 298.6 988.225 C297.555 992.122 292.473 996.201 288.5 995.5 C283.49 994.616 280.582 988.105 281.392 983.083 L281.392 983.083 Z M678.695 738.243 L676 728 C669 699 641 694 606 715 C560 743 501 760 414 760 C196 760 50 606 50 375 C50 144 195 -10 412 -10 C558.25 -10 657.919 16.6175 745.302 55.9496 C749.504 57.841 750.449 62.3242 748.5 66.5 C746.594 70.5833 741.081 72.2169 736.954 70.4077 C721.442 63.607 705.384 57.292 688.444 51.4628 C681.817 49.1824 675 53.1158 675 60.1244 L675 216 C675 267 707 301 756 301 L763 301 C766.864 301 770 304.136 770 308 L770 313.5 C770 320.4 764.4 326 757.5 326 L492.5 326 C485.6 326 480 320.4 480 313.5 L480 308 C480 304.136 483.136 301 487 301 L494 301 C543 301 575 267 575 216 C576 216 576 119 576 111 C574 51 516 12 429 12 C268 12 161 158 161 377 C161 593 267 737 425 737 C476 737 516 727 550 710 C597 687 644 625 667 556 L673.3 538.359 C675.223 532.974 682.282 528 688 528 C694.072 528 699 532.928 699 539 L699 739.945 C699 744.912 694.937 748.549 690 748 C685.365 747.485 679.882 742.753 678.695 738.243 L678.695 738.243 Z " />
<glyph glyph-name="gbreve" unicode="&#x11f;" horiz-adv-x="520" d="M122.392 733.083 C133.352 665.125 184.7 620 255 620 C326.25 620 378.547 664.222 388.743 731.233 C389.555 736.568 386.323 742.613 381 743.5 C376.841 744.193 371.638 740.535 370.593 736.45 C361.837 702.246 316.975 680 255 680 C193.025 680 149.018 703.102 139.6 738.225 C138.555 742.122 133.473 746.201 129.5 745.5 C124.49 744.616 121.582 738.105 122.392 733.083 L122.392 733.083 Z M541 479 C541 510 519 530 486 530 C457.1 530 426.033 510.493 402.623 478.847 C397.061 471.327 380.48 470.644 372.849 476.054 C342.244 497.749 302.025 510 255 510 C147 510 75 446 75 350 C75 289.775 102.225 241.801 148.814 213.94 C155.95 209.673 155.987 193.959 147.986 191.699 C89.68 175.23 55 143.95 55 104 C55 61.925 76.78 29.3788 113.04 12.5379 C118.969 9.78429 119.679 -2.63097 113.757 -5.39937 C70.7325 -25.5125 44 -58.45 44 -95 C44 -176 132 -230 264 -230 C396 -230 484 -165 484 -68 C484 23 432 84 298 84 L180 84 C134 84 103 102 103 130 C103 165 163 188 254 188 C362 188 434 253 434 350 C434 385.1 424.28 416.15 407.027 440.963 C403.835 445.553 404.038 453.356 407.621 457.648 C417.628 469.636 427.818 477 436 477 C457 477 484 442 505 442 C527 442 541 457 541 479 L541 479 Z M255 208 C198 208 160 265 160 350 C160 434 198 490 255 490 C312 490 350 434 350 350 C350 265 312 208 255 208 L255 208 Z M168 0.5 L177 0 L291 0 C380 0 414 -35 414 -88 C414 -162 356 -211 270 -211 C178 -211 116 -157 116 -75 C116 -45.3 129.77 -19.65 151.478 -3.882 C154.517 -1.67475 164.25 0.708334 168 0.5 L168 0.5 Z " />
<glyph glyph-name="Gdot" unicode="&#x120;" horiz-adv-x="817" d="M414 865 C447 865 469 887 469 920 C469 953 447 975 414 975 C381 975 359 953 359 920 C359 887 381 865 414 865 L414 865 Z M678.695 738.243 L676 728 C669 699 641 694 606 715 C560 743 501 760 414 760 C196 760 50 606 50 375 C50 144 195 -10 412 -10 C558.25 -10 657.919 16.6175 745.302 55.9496 C749.504 57.841 750.449 62.3242 748.5 66.5 C746.594 70.5833 741.081 72.2169 736.954 70.4077 C721.442 63.607 705.384 57.292 688.444 51.4628 C681.817 49.1824 675 53.1158 675 60.1244 L675 216 C675 267 707 301 756 301 L763 301 C766.864 301 770 304.136 770 308 L770 313.5 C770 320.4 764.4 326 757.5 326 L492.5 326 C485.6 326 480 320.4 480 313.5 L480 308 C480 304.136 483.136 301 487 301 L494 301 C543 301 575 267 575 216 C576 216 576 119 576 111 C574 51 516 12 429 12 C268 12 161 158 161 377 C161 593 267 737 425 737 C476 737 516 727 550 710 C597 687 644 625 667 556 L673.3 538.359 C675.223 532.974 682.282 528 688 528 C694.072 528 699 532.928 699 539 L699 739.945 C699 744.912 694.937 748.549 690 748 C685.365 747.485 679.882 742.753 678.695 738.243 L678.695 738.243 Z " />
<glyph glyph-name="gdot" unicode="&#x121;" horiz-adv-x="520" d="M255 615 C288 615 310 637 310 670 C310 703 288 725 255 725 C222 725 200 703 200 670 C200 637 222 615 255 615 L255 615 Z M541 479 C541 510 519 530 486 530 C457.1 530 426.033 510.493 402.623 478.847 C397.061 471.327 380.48 470.644 372.849 476.054 C342.244 497.749 302.025 510 255 510 C147 510 75 446 75 350 C75 289.775 102.225 241.801 148.814 213.94 C155.95 209.673 155.987 193.959 147.986 191.699 C89.68 175.23 55 143.95 55 104 C55 61.925 76.78 29.3788 113.04 12.5379 C118.969 9.78429 119.679 -2.63097 113.757 -5.39937 C70.7325 -25.5125 44 -58.45 44 -95 C44 -176 132 -230 264 -230 C396 -230 484 -165 484 -68 C484 23 432 84 298 84 L180 84 C134 84 103 102 103 130 C103 165 163 188 254 188 C362 188 434 253 434 350 C434 385.1 424.28 416.15 407.027 440.963 C403.835 445.553 404.038 453.356 407.621 457.648 C417.628 469.636 427.818 477 436 477 C457 477 484 442 505 442 C527 442 541 457 541 479 L541 479 Z M255 208 C198 208 160 265 160 350 C160 434 198 490 255 490 C312 490 350 434 350 350 C350 265 312 208 255 208 L255 208 Z M168 0.5 L177 0 L291 0 C380 0 414 -35 414 -88 C414 -162 356 -211 270 -211 C178 -211 116 -157 116 -75 C116 -45.3 129.77 -19.65 151.478 -3.882 C154.517 -1.67475 164.25 0.708334 168 0.5 L168 0.5 Z " />
<glyph glyph-name="Hcircumflex" unicode="&#x124;" horiz-adv-x="861" d="M479 1005 C473 1014 459 1035 449 1035 C439 1035 425 1014 419 1005 L301.031 822.245 C298.836 818.845 299.505 813.723 302.5 811 C305.532 808.244 310.367 808.35 313.275 811.237 L404.865 902.173 C428.673 925.811 467.395 925.88 491.287 902.327 L583.707 811.218 C586.624 808.342 591.469 808.244 594.5 811 C597.493 813.721 598.173 818.854 595.992 822.26 L479 1005 L479 1005 Z M791 20 L766 20 C736 20 716 40 716 70 L716 680 C716 710 736 730 766 730 L791 730 C796.52 730 801 734.48 801 740 C801 745.52 796.52 750 791 750 L541 750 C535.48 750 531 745.52 531 740 C531 734.48 535.48 730 541 730 L566 730 C596 730 616 710 616 680 L616 470.44 C616 436.527 588.473 409 554.56 409 L342.44 409 C308.527 409 281 436.527 281 470.44 L281 680 C281 710 301 730 331 730 L356 730 C361.52 730 366 734.48 366 740 C366 745.52 361.52 750 356 750 L106 750 C100.48 750 96 745.52 96 740 C96 734.48 100.48 730 106 730 L131 730 C161 730 181 710 181 680 L181 70 C181 40 161 20 131 20 L106 20 C100.48 20 96 15.5197 96 10 C96 4.4803 100.48 0 106 0 L356 0 C361.52 0 366 4.4803 366 10 C366 15.5197 361.52 20 356 20 L331 20 C301 20 281 40 281 70 L281 321.56 C281 355.473 308.527 383 342.44 383 L554.56 383 C588.473 383 616 355.473 616 321.56 L616 70 C616 40 596 20 566 20 L541 20 C535.48 20 531 15.5197 531 10 C531 4.4803 535.48 0 541 0 L791 0 C796.52 0 801 4.4803 801 10 C801 15.5197 796.52 20 791 20 L791 20 Z " />
<glyph glyph-name="Itilde" unicode="&#x128;" horiz-adv-x="385" d="M50.2808 878.089 C52.5148 909.55 67.9231 930 91 930 C143 930 212 865 264 865 C311.775 865 343.389 910.63 344.94 979.645 C345.035 983.877 341.733 985 337.5 985 C333.681 985 329.996 980.915 329.7 977.108 C327.244 945.535 309.9 925 284 925 C232 925 163 990 111 990 C66.15 990 36.51 944.37 35.056 875.355 C34.967 871.129 38.273 870 42.5 870 C46.3466 870 50.0084 874.252 50.2808 878.089 L50.2808 878.089 Z M315 20 L290 20 C260 20 240 40 240 70 L240 680 C240 710 260 730 290 730 L315 730 C320.52 730 325 734.48 325 740 C325 745.52 320.52 750 315 750 L65 750 C59.4803 750 55 745.52 55 740 C55 734.48 59.4803 730 65 730 L90 730 C120 730 140 710 140 680 L140 70 C140 40 120 20 90 20 L65 20 C59.4803 20 55 15.5197 55 10 C55 4.4803 59.4803 0 65 0 L315 0 C320.52 0 325 4.4803 325 10 C325 15.5197 320.52 20 315 20 L315 20 Z " />
<glyph glyph-name="itilde" unicode="&#x129;" horiz-adv-x="320" d="M27.2831 626.892 C29.595 658.465 45.875 679 69 679 C121 679 190 614 242 614 C289.775 614 321.389 659.63 322.94 728.645 C323.035 732.877 319.733 734 315.5 734 C311.681 734 307.996 729.915 307.7 726.108 C305.244 694.535 287.9 674 262 674 C210 674 140 739 88 739 C43.15 739 13.51 693.37 12.056 624.355 C11.967 620.129 15.273 619 19.5 619 C23.3374 619 27.0028 623.065 27.2831 626.892 L27.2831 626.892 Z M69.6782 453.516 L110 464 C119 466 125 462 125 453 L125 35 C125 26 119 20 110 20 L70 20 C64.4803 20 60 15.5197 60 10 C60 4.4803 64.4803 0 70 0 L265 0 C270.52 0 275 4.4803 275 10 C275 15.5197 270.52 20 265 20 L225 20 C216 20 210 26 210 35 L210 478.999 C210 490.59 200.591 500.112 189 500.25 L176.848 500.395 C175.502 500.411 161.71 498.741 160.413 498.381 C131.894 490.465 96.1056 481.035 67.5867 473.119 C62.4436 471.691 60 466.338 60 461 C60 455.658 64.508 452.172 69.6782 453.516 L69.6782 453.516 Z " />
<glyph glyph-name="Imacron" unicode="&#x12a;" horiz-adv-x="385" d="M69.5 895 L310.5 895 C326.783 895 340 908.217 340 924.5 C340 940.783 326.783 954 310.5 954 L69.5 954 C53.2169 954 40 940.783 40 924.5 C40 908.217 53.2169 895 69.5 895 L69.5 895 Z M315 20 L290 20 C260 20 240 40 240 70 L240 680 C240 710 260 730 290 730 L315 730 C320.52 730 325 734.48 325 740 C325 745.52 320.52 750 315 750 L65 750 C59.4803 750 55 745.52 55 740 C55 734.48 59.4803 730 65 730 L90 730 C120 730 140 710 140 680 L140 70 C140 40 120 20 90 20 L65 20 C59.4803 20 55 15.5197 55 10 C55 4.4803 59.4803 0 65 0 L315 0 C320.52 0 325 4.4803 325 10 C325 15.5197 320.52 20 315 20 L315 20 Z " />
<glyph glyph-name="imacron" unicode="&#x12b;" horiz-adv-x="320" d="M47.5 644 L288.5 644 C304.783 644 318 657.217 318 673.5 C318 689.783 304.783 703 288.5 703 L47.5 703 C31.2169 703 18 689.783 18 673.5 C18 657.217 31.2169 644 47.5 644 L47.5 644 Z M69.6782 453.516 L110 464 C119 466 125 462 125 453 L125 35 C125 26 119 20 110 20 L70 20 C64.4803 20 60 15.5197 60 10 C60 4.4803 64.4803 0 70 0 L265 0 C270.52 0 275 4.4803 275 10 C275 15.5197 270.52 20 265 20 L225 20 C216 20 210 26 210 35 L210 478.999 C210 490.59 200.591 500.112 189 500.25 L176.848 500.395 C175.502 500.411 161.71 498.741 160.413 498.381 C131.894 490.465 96.1056 481.035 67.5867 473.119 C62.4436 471.691 60 466.338 60 461 C60 455.658 64.508 452.172 69.6782 453.516 L69.6782 453.516 Z " />
<glyph glyph-name="Ibreve" unicode="&#x12c;" horiz-adv-x="385" d="M57.3919 983.083 C68.3525 915.125 119.7 870 190 870 C261.25 870 313.548 914.222 323.743 981.233 C324.555 986.568 321.323 992.613 316 993.5 C311.841 994.193 306.638 990.535 305.593 986.45 C296.838 952.246 251.975 930 190 930 C128.025 930 84.0181 953.102 74.5999 988.225 C73.555 992.122 68.4729 996.201 64.5 995.5 C59.4903 994.616 56.5819 988.105 57.3919 983.083 L57.3919 983.083 Z M315 20 L290 20 C260 20 240 40 240 70 L240 680 C240 710 260 730 290 730 L315 730 C320.52 730 325 734.48 325 740 C325 745.52 320.52 750 315 750 L65 750 C59.4803 750 55 745.52 55 740 C55 734.48 59.4803 730 65 730 L90 730 C120 730 140 710 140 680 L140 70 C140 40 120 20 90 20 L65 20 C59.4803 20 55 15.5197 55 10 C55 4.4803 59.4803 0 65 0 L315 0 C320.52 0 325 4.4803 325 10 C325 15.5197 320.52 20 315 20 L315 20 Z " />
<glyph glyph-name="ibreve" unicode="&#x12d;" horiz-adv-x="320" d="M34.3991 732.083 C45.45 664.125 97.7 619 168 619 C238.3 619 290.55 663.223 300.743 730.233 C301.555 735.568 298.322 741.613 293 742.5 C288.84 743.193 283.638 739.535 282.593 735.45 C273.843 701.246 229.05 679 168 679 C106.025 679 62.0181 702.102 52.5999 737.225 C51.4964 741.341 46.2028 745.2 42 744.5 C36.6884 743.615 33.5348 737.398 34.3991 732.083 L34.3991 732.083 Z M69.6782 453.516 L110 464 C119 466 125 462 125 453 L125 35 C125 26 119 20 110 20 L70 20 C64.4803 20 60 15.5197 60 10 C60 4.4803 64.4803 0 70 0 L265 0 C270.52 0 275 4.4803 275 10 C275 15.5197 270.52 20 265 20 L225 20 C216 20 210 26 210 35 L210 478.999 C210 490.59 200.591 500.112 189 500.25 L176.848 500.395 C175.502 500.411 161.71 498.741 160.413 498.381 C131.894 490.465 96.1056 481.035 67.5867 473.119 C62.4436 471.691 60 466.338 60 461 C60 455.658 64.508 452.172 69.6782 453.516 L69.6782 453.516 Z " />
<glyph glyph-name="Idot" unicode="&#x130;" horiz-adv-x="385" d="M190 865 C223 865 245 887 245 920 C245 953 223 975 190 975 C157 975 135 953 135 920 C135 887 157 865 190 865 L190 865 Z M315 20 L290 20 C260 20 240 40 240 70 L240 680 C240 710 260 730 290 730 L315 730 C320.52 730 325 734.48 325 740 C325 745.52 320.52 750 315 750 L65 750 C59.4803 750 55 745.52 55 740 C55 734.48 59.4803 730 65 730 L90 730 C120 730 140 710 140 680 L140 70 C140 40 120 20 90 20 L65 20 C59.4803 20 55 15.5197 55 10 C55 4.4803 59.4803 0 65 0 L315 0 C320.52 0 325 4.4803 325 10 C325 15.5197 320.52 20 315 20 L315 20 Z " />
<glyph glyph-name="dotlessi" unicode="&#x131;" horiz-adv-x="320" d="M69.6782 453.516 L110 464 C119 466 125 462 125 453 L125 35 C125 26 119 20 110 20 L70 20 C64.4803 20 60 15.5197 60 10 C60 4.4803 64.4803 0 70 0 L265 0 C270.52 0 275 4.4803 275 10 C275 15.5197 270.52 20 265 20 L225 20 C216 20 210 26 210 35 L210 478.999 C210 490.59 200.591 500.112 189 500.25 L176.848 500.395 C175.502 500.411 161.71 498.741 160.413 498.381 C131.894 490.465 96.1056 481.035 67.5867 473.119 C62.4436 471.691 60 466.338 60 461 C60 455.658 64.508 452.172 69.6782 453.516 L69.6782 453.516 Z " />
<glyph glyph-name="Jcircumflex" unicode="&#x134;" horiz-adv-x="385" d="M220 1005 C214 1014 200 1035 190 1035 C180 1035 166 1014 160 1005 L42.2357 822.562 C39.915 818.967 40.7126 813.739 44 811 C47.2971 808.252 52.4968 808.479 55.5424 811.503 L146.711 902.021 C170.605 925.743 209.395 925.743 233.289 902.021 L324.458 811.503 C327.503 808.479 332.703 808.252 336 811 C339.287 813.739 340.085 818.967 337.764 822.562 L220 1005 L220 1005 Z M315 750 L65 750 C59.4803 750 55 745.52 55 740 C55 734.48 59.4803 730 65 730 L90 730 C120 730 140 710 140 680 L140 -72 C140 -167 82 -185 40 -185 C-9 -185 15 -105 -35 -105 C-62 -105 -80 -123 -80 -150 C-80 -192 -42 -220 15 -220 C110 -220 240 -166 240 116 L240 680 C240 710 260 730 290 730 L315 730 C320.52 730 325 734.48 325 740 C325 745.52 320.52 750 315 750 L315 750 Z " />
<glyph glyph-name="Lacute" unicode="&#x139;" horiz-adv-x="650" d="M203.941 817.02 L340 932 C378 965 404 990 404 996 C404 1019 385 1038 362 1038 C356 1038 333 1011 301 971 L191.746 829.162 C189.148 825.789 189.489 820.511 192.5 817.5 C195.525 814.475 200.673 814.259 203.941 817.02 L203.941 817.02 Z M315 750 L65 750 C59.4803 750 55 745.52 55 740 C55 734.48 59.4803 730 65 730 L90 730 C120 730 140 710 140 680 L140 70 C140 40 120 20 90 20 L65 20 C59.4803 20 55 15.5197 55 10 C55 4.4803 59.4803 0 65 0 L570.877 0 C573.085 0 575.465 1.85804 576 4 L577 8 C583.641 45.9487 592.982 96.4984 599.9 135.739 C600.703 140.296 597.126 142 592.5 142 C588.144 142 582.461 138.153 580.843 134.108 L576 122 C551 59 492 17 429 17 L320 17 C248 17 240 42 240 80 L240 680 C240 710 260 730 290 730 L315 730 C320.52 730 325 734.48 325 740 C325 745.52 320.52 750 315 750 L315 750 Z " />
<glyph glyph-name="Lcaron" unicode="&#x13d;" horiz-adv-x="650" d="M427 808 C410 808 400 745 396 700 L386.686 596.618 C386.31 592.437 389.384 588.323 393.5 587.5 C397.588 586.682 402.212 589.262 403.663 593.17 L440 691 C455 730 465 772 465 796 C465 805 450 808 427 808 L427 808 Z M315 750 L65 750 C59.4803 750 55 745.52 55 740 C55 734.48 59.4803 730 65 730 L90 730 C120 730 140 710 140 680 L140 70 C140 40 120 20 90 20 L65 20 C59.4803 20 55 15.5197 55 10 C55 4.4803 59.4803 0 65 0 L570.877 0 C573.085 0 575.465 1.85804 576 4 L577 8 C583.641 45.9487 592.982 96.4984 599.9 135.739 C600.703 140.296 597.126 142 592.5 142 C588.144 142 582.461 138.153 580.843 134.108 L576 122 C551 59 492 17 429 17 L320 17 C248 17 240 42 240 80 L240 680 C240 710 260 730 290 730 L315 730 C320.52 730 325 734.48 325 740 C325 745.52 320.52 750 315 750 L315 750 Z " />
<glyph glyph-name="lcaron" unicode="&#x13e;" horiz-adv-x="264" d="M256 757 C239 757 229 694 225 649 L215.686 545.618 C215.31 541.437 218.384 537.323 222.5 536.5 C226.588 535.682 231.212 538.262 232.663 542.17 L269 640 C284 679 294 721 294 745 C294 754 279 757 256 757 L256 757 Z M24.9925 708.7 L39 708 C66 707 84 688 84 661 L84 35 C84 26 78 20 69 20 L29 20 C23.4803 20 19 15.5197 19 10 C19 4.4803 23.4803 0 29 0 L224 0 C229.52 0 234 4.4803 234 10 C234 15.5197 229.52 20 224 20 L184 20 C175 20 169 26 169 35 L169 728.999 C169 740.59 159.591 750.112 148 750.25 L135.848 750.395 C134.502 750.411 120.71 748.741 119.413 748.381 C89.166 739.985 50.7409 729.886 21.4848 721.697 C18.4096 720.836 19 718.193 19 715 C19 711.692 21.689 708.866 24.9925 708.7 L24.9925 708.7 Z " />
<glyph glyph-name="Nacute" unicode="&#x143;" horiz-adv-x="786" d="M302.677 816.798 L439 932 C477 965 503 990 503 996 C503 1019 484 1038 461 1038 C455 1038 431 1011 400 971 L291.511 828.908 C289.062 825.7 289.285 820.486 292 817.5 C294.758 814.466 299.546 814.151 302.677 816.798 L302.677 816.798 Z M63 0 L243 0 C248.52 0 253 4.4803 253 10 C253 15.5197 248.52 20 243 20 L218 20 C188 20 168 40 168 70 L165.699 485.692 C165.473 526.499 219.158 537.852 243.23 504.9 C362.455 341.7 481.791 178.5 601.752 15.3 C604.386 11.7158 618.552 0 623 0 C628.519 0 633.046 4.48035 633.102 9.99948 L639.967 682.782 C639.971 683.133 640.245 687.859 640.299 688.206 C644.149 712.958 663.8 729 691 729 L716 729 C721.52 729 726 733.48 726 739 C726 744.52 721.52 749 716 749 L536 749 C530.48 749 526 744.52 526 739 C526 733.48 530.48 729 536 729 L561 729 C591 729 611 709 611 679 L611.765 289.805 C611.841 250.697 560.657 239.864 537.537 271.406 C427.734 421.205 318.427 571.394 209.15 721.043 C200.945 732.279 170.71 750 156.796 750 L4 750 C-1.5197 750 -6 745.52 -6 740 C-6 734.48 -1.5197 730 4 730 L29 730 C59 730 93 710 115 680 L127 664 C130.983 658.689 138.977 634.639 138.965 628 L138 70 C138 40 118 20 88 20 L63 20 C57.4803 20 53 15.5197 53 10 C53 4.4803 57.4803 0 63 0 L63 0 Z " />
<glyph glyph-name="Ncaron" unicode="&#x147;" horiz-adv-x="786" d="M524.707 1038.78 L432.287 947.673 C408.395 924.12 369.673 924.189 345.865 947.827 L254.275 1038.76 C251.367 1041.65 246.532 1041.76 243.5 1039 C240.505 1036.28 239.836 1031.16 242.031 1027.76 L360 845 C366 836 380 815 390 815 C400 815 414 836 420 845 L536.992 1027.74 C539.173 1031.15 538.493 1036.28 535.5 1039 C532.469 1041.76 527.624 1041.66 524.707 1038.78 L524.707 1038.78 Z M63 0 L243 0 C248.52 0 253 4.4803 253 10 C253 15.5197 248.52 20 243 20 L218 20 C188 20 168 40 168 70 L165.699 485.692 C165.473 526.499 219.158 537.852 243.23 504.9 C362.455 341.7 481.791 178.5 601.752 15.3 C604.386 11.7158 618.552 0 623 0 C628.519 0 633.046 4.48035 633.102 9.99948 L639.967 682.782 C639.971 683.133 640.245 687.859 640.299 688.206 C644.149 712.958 663.8 729 691 729 L716 729 C721.52 729 726 733.48 726 739 C726 744.52 721.52 749 716 749 L536 749 C530.48 749 526 744.52 526 739 C526 733.48 530.48 729 536 729 L561 729 C591 729 611 709 611 679 L611.765 289.805 C611.841 250.697 560.657 239.864 537.537 271.406 C427.734 421.205 318.427 571.394 209.15 721.043 C200.945 732.279 170.71 750 156.796 750 L4 750 C-1.5197 750 -6 745.52 -6 740 C-6 734.48 -1.5197 730 4 730 L29 730 C59 730 93 710 115 680 L127 664 C130.983 658.689 138.977 634.639 138.965 628 L138 70 C138 40 118 20 88 20 L63 20 C57.4803 20 53 15.5197 53 10 C53 4.4803 57.4803 0 63 0 L63 0 Z " />
<glyph glyph-name="ncaron" unicode="&#x148;" horiz-adv-x="569" d="M413.458 787.497 L322.289 696.979 C298.395 673.257 259.605 673.257 235.711 696.979 L144.542 787.497 C141.497 790.521 136.297 790.748 133 788 C129.713 785.261 128.915 780.033 131.236 776.438 L249 594 C255 585 269 564 279 564 C289 564 303 585 309 594 L426.764 776.438 C429.085 780.033 428.287 785.261 425 788 C421.703 790.748 416.503 790.521 413.458 787.497 L413.458 787.497 Z M24.9925 458.7 L39 458 C66 457 84 438 84 411 L84 35 C84 26 78 20 69 20 L29 20 C23.4803 20 19 15.5197 19 10 C19 4.4803 23.4803 0 29 0 L224 0 C229.52 0 234 4.4803 234 10 C234 15.5197 229.52 20 224 20 L184 20 C175 20 169 26 169 35 L169 343.818 C169 349.603 175.254 370.544 178.486 375.343 C208.33 419.65 250 448 286 448 C354 448 389 401 389 330 L389 35 C389 26 383 20 374 20 L334 20 C328.48 20 324 15.5197 324 10 C324 4.4803 328.48 0 334 0 L529 0 C534.52 0 539 4.4803 539 10 C539 15.5197 534.52 20 529 20 L489 20 C480 20 474 26 474 35 L474 330 C474 438 427 510 337 510 C289.975 510 235.463 475.969 193.679 421.944 C186.716 412.941 169 416.845 169 428.226 L169 478.999 C169 490.59 159.591 500.112 148 500.25 L135.848 500.395 C134.502 500.411 120.71 498.741 119.413 498.381 C89.166 489.985 50.7409 479.886 21.4848 471.697 C18.4096 470.836 19 468.193 19 465 C19 461.692 21.689 458.866 24.9925 458.7 L24.9925 458.7 Z " />
<glyph glyph-name="Omacron" unicode="&#x14c;" horiz-adv-x="851" d="M297.5 895 L538.5 895 C554.783 895 568 908.217 568 924.5 C568 940.783 554.783 954 538.5 954 L297.5 954 C281.217 954 268 940.783 268 924.5 C268 908.217 281.217 895 297.5 895 L297.5 895 Z M159 375 C159 591 261 735 414 735 C578 735 687 591 687 375 C687 159 577 15 413 15 C261 15 159 159 159 375 L159 375 Z M50 375 C50 144 193 -10 408 -10 C641 -10 796 144 796 375 C796 606 645 760 418 760 C197 760 50 606 50 375 L50 375 Z " />
<glyph glyph-name="omacron" unicode="&#x14d;" horiz-adv-x="613" d="M186.5 645 L427.5 645 C443.783 645 457 658.217 457 674.5 C457 690.783 443.783 704 427.5 704 L186.5 704 C170.217 704 157 690.783 157 674.5 C157 658.217 170.217 645 186.5 645 L186.5 645 Z M139 250 C139 390 206 484 307 484 C408 484 475 390 475 250 C475 110 408 16 307 16 C206 16 139 110 139 250 L139 250 Z M45 250 C45 94 150 -10 307 -10 C464 -10 568 94 568 250 C568 406 464 510 307 510 C150 510 45 406 45 250 L45 250 Z " />
<glyph glyph-name="Obreve" unicode="&#x14e;" horiz-adv-x="851" d="M285.392 983.083 C296.353 915.125 347.7 870 418 870 C489.25 870 541.548 914.222 551.743 981.233 C552.555 986.568 549.323 992.613 544 993.5 C539.841 994.193 534.638 990.535 533.593 986.45 C524.838 952.246 479.975 930 418 930 C356.025 930 312.018 953.102 302.6 988.225 C301.555 992.122 296.473 996.201 292.5 995.5 C287.49 994.616 284.582 988.105 285.392 983.083 L285.392 983.083 Z M159 375 C159 591 261 735 414 735 C578 735 687 591 687 375 C687 159 577 15 413 15 C261 15 159 159 159 375 L159 375 Z M50 375 C50 144 193 -10 408 -10 C641 -10 796 144 796 375 C796 606 645 760 418 760 C197 760 50 606 50 375 L50 375 Z " />
<glyph glyph-name="obreve" unicode="&#x14f;" horiz-adv-x="613" d="M174.392 733.083 C185.352 665.125 236.7 620 307 620 C378.25 620 430.547 664.222 440.743 731.233 C441.555 736.568 438.323 742.613 433 743.5 C428.841 744.193 423.638 740.535 422.593 736.45 C413.838 702.246 368.975 680 307 680 C245.025 680 201.018 703.102 191.6 738.225 C190.555 742.122 185.473 746.201 181.5 745.5 C176.49 744.616 173.582 738.105 174.392 733.083 L174.392 733.083 Z M139 250 C139 390 206 484 307 484 C408 484 475 390 475 250 C475 110 408 16 307 16 C206 16 139 110 139 250 L139 250 Z M45 250 C45 94 150 -10 307 -10 C464 -10 568 94 568 250 C568 406 464 510 307 510 C150 510 45 406 45 250 L45 250 Z " />
<glyph glyph-name="Racute" unicode="&#x154;" horiz-adv-x="796" d="M335.677 816.798 L472 932 C510 965 536 990 536 996 C536 1019 517 1038 494 1038 C488 1038 464 1011 433 971 L324.511 828.908 C322.062 825.7 322.285 820.486 325 817.5 C327.758 814.466 332.546 814.151 335.677 816.798 L335.677 816.798 Z M70.5119 730 L95 730 C125 730 145 710 145 680 L145 70 C145 40 125 20 95 20 L70 20 C64.4803 20 60 15.5197 60 10 C60 4.4803 64.4803 0 70 0 L320 0 C325.52 0 330 4.4803 330 10 C330 15.5197 325.52 20 320 20 L295 20 C265 20 245 40 245 70 L245 304.5 C245 332.374 267.626 355 295.5 355 L325.161 355 C334.512 355 351.142 346.339 356.127 338.428 C384.906 292.75 449 199.125 533 81 C586.625 5.925 597.472 1.19625 771.303 1.00673 C776.829 1.00071 785 5.47428 785 11 C785 16.4968 777.762 20.999 772.265 21.0217 C695.41 21.34 688.95 25.9 650 81 C566.7 198.3 501.462 290.313 464.728 341.684 C457.426 351.896 464.827 368.7 476.836 372.356 C559.78 397.61 610 451.7 610 539 C610 666 506 751 349 751 L69.5119 751 C63.7162 751 59.2243 746.289 59.5 740.5 C59.7757 734.711 64.7162 730 70.5119 730 L70.5119 730 Z M244 433.5 L244 693.5 C244 714.199 260.801 731 281.5 731 L319 731 C427 731 499 662 499 559 C499 436 439 381 349 381 L296.5 381 C267.522 381 244 404.522 244 433.5 L244 433.5 Z " />
<glyph glyph-name="Rcaron" unicode="&#x158;" horiz-adv-x="796" d="M457.707 1038.78 L365.287 947.673 C341.395 924.12 302.673 924.189 278.865 947.827 L187.275 1038.76 C184.367 1041.65 179.532 1041.76 176.5 1039 C173.505 1036.28 172.836 1031.16 175.031 1027.76 L293 845 C299 836 313 815 323 815 C333 815 347 836 353 845 L469.992 1027.74 C472.173 1031.15 471.493 1036.28 468.5 1039 C465.469 1041.76 460.624 1041.66 457.707 1038.78 L457.707 1038.78 Z M70.5119 730 L95 730 C125 730 145 710 145 680 L145 70 C145 40 125 20 95 20 L70 20 C64.4803 20 60 15.5197 60 10 C60 4.4803 64.4803 0 70 0 L320 0 C325.52 0 330 4.4803 330 10 C330 15.5197 325.52 20 320 20 L295 20 C265 20 245 40 245 70 L245 304.5 C245 332.374 267.626 355 295.5 355 L325.161 355 C334.512 355 351.142 346.339 356.127 338.428 C384.906 292.75 449 199.125 533 81 C586.625 5.925 597.472 1.19625 771.303 1.00673 C776.829 1.00071 785 5.47428 785 11 C785 16.4968 777.762 20.999 772.265 21.0217 C695.41 21.34 688.95 25.9 650 81 C566.7 198.3 501.462 290.313 464.728 341.684 C457.426 351.896 464.827 368.7 476.836 372.356 C559.78 397.61 610 451.7 610 539 C610 666 506 751 349 751 L69.5119 751 C63.7162 751 59.2243 746.289 59.5 740.5 C59.7757 734.711 64.7162 730 70.5119 730 L70.5119 730 Z M244 433.5 L244 693.5 C244 714.199 260.801 731 281.5 731 L319 731 C427 731 499 662 499 559 C499 436 439 381 349 381 L296.5 381 C267.522 381 244 404.522 244 433.5 L244 433.5 Z " />
<glyph glyph-name="rcaron" unicode="&#x159;" horiz-adv-x="420" d="M374.458 787.497 L283.289 696.979 C259.395 673.257 220.605 673.257 196.711 696.979 L105.542 787.497 C102.497 790.521 97.2971 790.748 94 788 C90.7126 785.261 89.915 780.033 92.2357 776.438 L210 594 C216 585 230 564 240 564 C250 564 264 585 270 594 L387.764 776.438 C390.085 780.033 389.287 785.261 386 788 C382.703 790.748 377.503 790.521 374.458 787.497 L374.458 787.497 Z M26.0133 458.699 L40 458 C67 457 85 438 85 411 L85 35 C85 26 79 20 70 20 L30 20 C24.4803 20 20 15.5197 20 10 C20 4.4803 24.4803 0 30 0 L225 0 C230.52 0 235 4.4803 235 10 C235 15.5197 230.52 20 225 20 L185 20 C176 20 170 26 170 35 L170 346.891 C170 349.072 172.813 364.984 173.583 367.025 C197.1 429.387 236.05 470 275 470 C296 470 310 456 310 435 C310 405 330 385 360 385 C390 385 410 405 410 435 C410 480 372 510 315 510 C262.2 510 214.845 480.733 186.411 433.43 C183.144 427.995 171 429.773 171 436.114 L171 478.999 C171 490.59 161.591 500.112 150 500.25 L137.848 500.395 C136.502 500.411 122.71 498.741 121.413 498.381 C91.166 489.985 52.7409 479.886 23.4848 471.697 C20.4813 470.856 20.759 468.108 20.5 465 C20.2242 461.69 22.696 458.865 26.0133 458.699 L26.0133 458.699 Z " />
<glyph glyph-name="Sacute" unicode="&#x15a;" horiz-adv-x="551" d="M287.941 817.02 L424 932 C462 965 488 990 488 996 C488 1019 469 1038 446 1038 C440 1038 417 1011 385 971 L275.746 829.162 C273.148 825.789 273.489 820.511 276.5 817.5 C279.525 814.475 284.673 814.259 287.941 817.02 L287.941 817.02 Z M69.5421 8.86691 L72 23 C78 55 110 59 149 34 C192 6 242 -10 293 -10 C424 -10 512 72 512 196 C512 293 448 382 323 427 C205 470 144 536 144 601 C144 681 189 735 257 735 C275 735 293 733 310 729 C365 717 417 657 440 581 L446.623 560.469 C448.397 554.969 455.222 550 461 550 C467.072 550 472 554.928 472 561 L472 745.5 C472 750.192 468.192 754 463.5 754 L463.382 754 C458.966 754 453.817 750.215 452.5 746 L450 738 C444 715 419 712 388 729 C350 749 305 761 257 761 C142 761 65 682 65 564 C65 463 132 372 263 324 C375 283 432 225 432 168 C432 81 376 23 293 23 C263 23 233 29 205 40 C155 61 105 128 82 208 L76.1136 228.93 C74.4592 234.812 67.6106 240 61.5 240 C55.1523 240 50 234.848 50 228.5 L50 9 C50 4.03227 54.0323 0 59 0 C63.8943 0 68.7035 4.04502 69.5421 8.86691 L69.5421 8.86691 Z " />
<glyph glyph-name="Scircumflex" unicode="&#x15c;" horiz-adv-x="551" d="M69.5421 8.86691 L72 23 C78 55 110 59 149 34 C192 6 242 -10 293 -10 C424 -10 512 72 512 196 C512 293 448 382 323 427 C205 470 144 536 144 601 C144 681 189 735 257 735 C275 735 293 733 310 729 C365 717 417 657 440 581 L446.623 560.469 C448.397 554.969 455.222 550 461 550 C467.072 550 472 554.928 472 561 L472 745.5 C472 750.192 468.192 754 463.5 754 L463.382 754 C458.966 754 453.817 750.215 452.5 746 L450 738 C444 715 419 712 388 729 C350 749 305 761 257 761 C142 761 65 682 65 564 C65 463 132 372 263 324 C375 283 432 225 432 168 C432 81 376 23 293 23 C263 23 233 29 205 40 C155 61 105 128 82 208 L76.1136 228.93 C74.4592 234.812 67.6106 240 61.5 240 C55.1523 240 50 234.848 50 228.5 L50 9 C50 4.03227 54.0323 0 59 0 C63.8943 0 68.7035 4.04502 69.5421 8.86691 L69.5421 8.86691 Z M304 1005 C298 1014 284 1035 274 1035 C264 1035 250 1014 244 1005 L126.236 822.562 C123.915 818.967 124.713 813.739 128 811 C131.297 808.252 136.497 808.479 139.542 811.503 L230.711 902.021 C254.605 925.743 293.395 925.743 317.289 902.021 L408.458 811.503 C411.503 808.479 416.703 808.252 420 811 C423.287 813.739 424.085 818.967 421.764 822.562 L304 1005 L304 1005 Z " />
<glyph glyph-name="Scaron" unicode="&#x160;" horiz-adv-x="551" d="M408.458 1038.5 L317.289 947.979 C293.395 924.257 254.605 924.257 230.711 947.979 L139.542 1038.5 C136.497 1041.52 131.297 1041.75 128 1039 C124.713 1036.26 123.915 1031.03 126.236 1027.44 L244 845 C250 836 264 815 274 815 C284 815 298 836 304 845 L421.764 1027.44 C424.085 1031.03 423.287 1036.26 420 1039 C416.703 1041.75 411.503 1041.52 408.458 1038.5 L408.458 1038.5 Z M69.5421 8.86691 L72 23 C78 55 110 59 149 34 C192 6 242 -10 293 -10 C424 -10 512 72 512 196 C512 293 448 382 323 427 C205 470 144 536 144 601 C144 681 189 735 257 735 C275 735 293 733 310 729 C365 717 417 657 440 581 L446.623 560.469 C448.397 554.969 455.222 550 461 550 C467.072 550 472 554.928 472 561 L472 745.5 C472 750.192 468.192 754 463.5 754 L463.382 754 C458.966 754 453.817 750.215 452.5 746 L450 738 C444 715 419 712 388 729 C350 749 305 761 257 761 C142 761 65 682 65 564 C65 463 132 372 263 324 C375 283 432 225 432 168 C432 81 376 23 293 23 C263 23 233 29 205 40 C155 61 105 128 82 208 L76.1136 228.93 C74.4592 234.812 67.6106 240 61.5 240 C55.1523 240 50 234.848 50 228.5 L50 9 C50 4.03227 54.0323 0 59 0 C63.8943 0 68.7035 4.04502 69.5421 8.86691 L69.5421 8.86691 Z " />
<glyph glyph-name="scaron" unicode="&#x161;" horiz-adv-x="428" d="M352.458 788.497 L261.289 697.979 C237.395 674.257 198.605 674.257 174.711 697.979 L83.5424 788.497 C80.4968 791.521 75.2971 791.748 72 789 C68.7126 786.261 67.915 781.033 70.2357 777.438 L188 595 C194 586 208 565 218 565 C228 565 242 586 248 595 L365.764 777.438 C368.085 781.033 367.287 786.261 364 789 C360.703 791.748 355.503 791.521 352.458 788.497 L352.458 788.497 Z M353 349.5 L353 503.5 C353 507.088 350.088 510 346.5 510 L346.325 510 C343.013 510 339.047 507.142 338 504 L336 498 C333 487 306 488 267 499 C247 506 226 510 204 510 C117 510 59 458 59 380 C59 305 107 243 199 218 C274 198 313 155 313 106 C313 32 247 -9 174 18 C127 35 89 90 78 156 L75.3098 170.124 C74.5996 173.852 70.7955 177 67 177 C63.1362 177 60 173.864 60 170 L60 6 C60 2.13621 63.1362 -1 67 -1 L67.3292 -1 C70.917 -1 74.6932 2.00407 75.5 5.5 L77 12 C81 27 110 22 149 5 C171 -5 194 -10 218 -10 C314 -10 378 46 378 130 C378 199 330 257 237 282 C159 303 119 352 119 409 C119 470 172 501 237 486 C285 474 324 425 335 363 L336.939 349.425 C337.519 345.368 341.402 342 345.5 342 C349.64 342 353 345.36 353 349.5 L353 349.5 Z " />
<glyph glyph-name="Tcaron" unicode="&#x164;" horiz-adv-x="775" d="M519.458 1038.5 L428.289 947.979 C404.395 924.257 365.605 924.257 341.711 947.979 L250.542 1038.5 C247.497 1041.52 242.297 1041.75 239 1039 C235.713 1036.26 234.915 1031.03 237.236 1027.44 L355 845 C361 836 375 815 385 815 C395 815 409 836 415 845 L532.764 1027.44 C535.085 1031.03 534.287 1036.26 531 1039 C527.703 1041.75 522.503 1041.52 519.458 1038.5 L519.458 1038.5 Z M263.012 0 L513 0 C518.52 0 523 4.4803 523 10 C523 15.5197 518.52 20 513 20 L488 20 C458 20 438 40 438 70 L438 663.56 C438 697.473 465.527 725 499.44 725 L596 725 C647 725 703 691 735 640 L755.495 607.208 C757.604 603.834 764.521 600 768.5 600 C772.876 600 774.901 605.376 773.303 609.449 C758.149 648.098 738.803 696.385 723.284 733.899 C723.2 734.102 721.091 740.182 721.03 740.393 L720.836 741.076 C720.783 741.258 719.531 746.813 719.5 747 C719.438 747.374 718.273 751.804 718.13 752.156 C713.128 764.442 706.971 777.851 702.312 789.201 C701.176 791.968 696.991 795 694 795 L692.031 795 C690.099 795 686.958 793.177 686 791.5 L684 788 C669 765 626 750 577 750 L197 750 C148 750 105 765 90 788 L88 791.5 C87.0415 793.177 83.9008 795 81.9689 795 L80 795 C76.9306 795 72.8995 792.284 71.7469 789.439 L50.5 737 C34.3718 698.103 13.2932 646.604 -3.34271 606.414 C-4.99962 602.412 -1.83223 600 2.5 600 C6.47859 600 13.3963 603.834 15.505 607.208 L36 640 C68 691 124 725 175 725 L277.56 725 C311.473 725 339 697.473 339 663.56 L339 70 C339 40 319 20 289 20 L264.012 20 C258.493 20 253.776 15.5128 253.5 10 C253.224 4.48719 257.493 0 263.012 0 L263.012 0 Z " />
<glyph glyph-name="tcaron" unicode="&#x165;" horiz-adv-x="378" d="M310.5 500 L240 500 C206.882 500 180 526.882 180 560 L180 617 C180 618.656 178.656 620 177 620 C175.79 620 172.777 618.692 171.951 617.809 L33.415 469.652 C32.1276 468.275 30 462.885 30 461 C30 458.24 32.2402 456 35 456 L62.5 456 C80.439 456 95 441.439 95 423.5 L95 160 C95 38 150 -10 232 -10 C288.55 -10 342.248 29.9262 366.215 91.2416 C367.328 94.0875 365.837 96.8652 363 98 C360.41 99.036 356.667 96.3691 355.565 93.8067 C338.987 55.27 300.75 30 258 30 C210 30 178 61 178 141 L179.611 393.951 C179.826 427.648 207.353 455 241.05 455 L310.5 455 C322.919 455 333 465.081 333 477.5 C333 489.919 322.919 500 310.5 500 L310.5 500 Z M425 758 C408 758 398 695 394 650 L384.686 546.618 C384.31 542.437 387.384 538.323 391.5 537.5 C395.588 536.682 400.212 539.262 401.663 543.17 L438 641 C453 680 463 722 463 746 C463 755 448 758 425 758 L425 758 Z " />
<glyph glyph-name="Utilde" unicode="&#x168;" horiz-adv-x="760" d="M237.283 877.892 C239.595 909.465 255.875 930 279 930 C331 930 400 865 452 865 C499.775 865 531.389 910.63 532.94 979.645 C533.035 983.877 529.733 985 525.5 985 C521.681 985 517.996 980.915 517.7 977.108 C515.244 945.535 497.9 925 472 925 C420 925 350 990 298 990 C253.15 990 223.51 944.37 222.056 875.355 C221.967 871.129 225.273 870 229.5 870 C233.337 870 237.003 874.065 237.283 877.892 L237.283 877.892 Z M720.315 52.5096 L695 46 C665 38 645 53 645 83 L645 688.56 C645 722.473 617.473 750 583.56 750 L470 750 C464.48 750 460 745.52 460 740 C460 734.48 464.48 730 470 730 L495 730 C525 730 545 710 545 680 L545 203.544 C545 199.509 540.869 181.469 538.96 177.913 C498.587 102.735 418.55 54 334 54 C260 54 210 120 210 220 L210 688.56 C210 722.473 182.473 750 148.56 750 L35 750 C29.4803 750 25 745.52 25 740 C25 734.48 29.4803 730 35 730 L60 730 C90 730 110 710 110 680 L110 220 C110 82 184 -10 294 -10 C382.275 -10 466.466 32.1987 517.375 99.1893 C524.136 108.086 545 104.944 545 93.7701 L545 25 C545 11.2007 556.201 0 570 0 L587.436 0 C588.458 0 600.111 1.28018 601.102 1.52913 C637.268 10.6138 683.119 22.493 720.567 32.4773 C725.729 33.8535 730 39.658 730 45 C730 50.3458 725.492 53.8409 720.315 52.5096 L720.315 52.5096 Z " />
<glyph glyph-name="utilde" unicode="&#x169;" horiz-adv-x="560" d="M135.281 628.089 C137.515 659.55 152.923 680 176 680 C228 680 297 615 349 615 C396.775 615 428.389 660.63 429.94 729.645 C430.035 733.877 426.733 735 422.5 735 C418.681 735 414.996 730.915 414.7 727.108 C412.244 695.535 394.9 675 369 675 C317 675 248 740 196 740 C151.15 740 121.51 694.37 120.056 625.355 C119.967 621.129 123.273 620 127.5 620 C131.347 620 135.008 624.252 135.281 628.089 L135.281 628.089 Z M534.889 48.1689 L520 44 C490 36 470 51 470 81 L470 438.56 C470 472.473 442.473 500 408.56 500 L330 500 C324.48 500 320 495.52 320 490 C320 484.48 324.48 480 330 480 L370 480 C379 480 385 474 385 465 L385 157.141 C385 153.107 380.663 134.85 378.754 131.295 C351.489 80.5137 305.1 48 257 48 C202 48 165 92 165 159 L165 437.56 C165 471.473 137.473 499 103.56 499 L25 499 C19.4803 499 15 494.52 15 489 C15 483.48 19.4803 479 25 479 L65 479 C74 479 80 473 80 464 L80 159 C80 57 135 -11 217 -11 C273.925 -11 328.808 23.7119 364.804 79.6593 C369.527 86.9995 385 84.3815 385 75.6532 L385 20.0015 C385 8.41012 394.409 -1.11202 406 -1.25 L420.2 -1.41904 C421.197 -1.43091 432.341 0.0882758 433.3 0.361277 C444.737 3.61773 457.368 6.63158 470 10 C492.176 15.9706 515.08 21.9412 534.989 27.2912 C540.415 28.7494 545 34.8813 545 40.5 C545 46.081 540.263 49.6737 534.889 48.1689 L534.889 48.1689 Z " />
<glyph glyph-name="Umacron" unicode="&#x16a;" horiz-adv-x="760" d="M257.5 895 L498.5 895 C514.783 895 528 908.217 528 924.5 C528 940.783 514.783 954 498.5 954 L257.5 954 C241.217 954 228 940.783 228 924.5 C228 908.217 241.217 895 257.5 895 L257.5 895 Z M720.315 52.5096 L695 46 C665 38 645 53 645 83 L645 688.56 C645 722.473 617.473 750 583.56 750 L470 750 C464.48 750 460 745.52 460 740 C460 734.48 464.48 730 470 730 L495 730 C525 730 545 710 545 680 L545 203.544 C545 199.509 540.869 181.469 538.96 177.913 C498.587 102.735 418.55 54 334 54 C260 54 210 120 210 220 L210 688.56 C210 722.473 182.473 750 148.56 750 L35 750 C29.4803 750 25 745.52 25 740 C25 734.48 29.4803 730 35 730 L60 730 C90 730 110 710 110 680 L110 220 C110 82 184 -10 294 -10 C382.275 -10 466.466 32.1987 517.375 99.1893 C524.136 108.086 545 104.944 545 93.7701 L545 25 C545 11.2007 556.201 0 570 0 L587.436 0 C588.458 0 600.111 1.28018 601.102 1.52913 C637.268 10.6138 683.119 22.493 720.567 32.4773 C725.729 33.8535 730 39.658 730 45 C730 50.3458 725.492 53.8409 720.315 52.5096 L720.315 52.5096 Z " />
<glyph glyph-name="umacron" unicode="&#x16b;" horiz-adv-x="560" d="M154.5 645 L395.5 645 C411.783 645 425 658.217 425 674.5 C425 690.783 411.783 704 395.5 704 L154.5 704 C138.217 704 125 690.783 125 674.5 C125 658.217 138.217 645 154.5 645 L154.5 645 Z M534.889 48.1689 L520 44 C490 36 470 51 470 81 L470 438.56 C470 472.473 442.473 500 408.56 500 L330 500 C324.48 500 320 495.52 320 490 C320 484.48 324.48 480 330 480 L370 480 C379 480 385 474 385 465 L385 157.141 C385 153.107 380.663 134.85 378.754 131.295 C351.489 80.5137 305.1 48 257 48 C202 48 165 92 165 159 L165 437.56 C165 471.473 137.473 499 103.56 499 L25 499 C19.4803 499 15 494.52 15 489 C15 483.48 19.4803 479 25 479 L65 479 C74 479 80 473 80 464 L80 159 C80 57 135 -11 217 -11 C273.925 -11 328.808 23.7119 364.804 79.6593 C369.527 86.9995 385 84.3815 385 75.6532 L385 20.0015 C385 8.41012 394.409 -1.11202 406 -1.25 L420.2 -1.41904 C421.197 -1.43091 432.341 0.0882758 433.3 0.361277 C444.737 3.61773 457.368 6.63158 470 10 C492.176 15.9706 515.08 21.9412 534.989 27.2912 C540.415 28.7494 545 34.8813 545 40.5 C545 46.081 540.263 49.6737 534.889 48.1689 L534.889 48.1689 Z " />
<glyph glyph-name="Ubreve" unicode="&#x16c;" horiz-adv-x="760" d="M244.399 983.083 C255.45 915.125 307.7 870 378 870 C448.3 870 500.55 914.222 510.743 981.233 C511.555 986.568 508.322 992.613 503 993.5 C498.84 994.193 493.638 990.535 492.593 986.45 C483.843 952.246 439.05 930 378 930 C316.025 930 272.018 953.102 262.6 988.225 C261.496 992.341 256.203 996.2 252 995.5 C246.688 994.615 243.535 988.398 244.399 983.083 L244.399 983.083 Z M720.315 52.5096 L695 46 C665 38 645 53 645 83 L645 688.56 C645 722.473 617.473 750 583.56 750 L470 750 C464.48 750 460 745.52 460 740 C460 734.48 464.48 730 470 730 L495 730 C525 730 545 710 545 680 L545 203.544 C545 199.509 540.869 181.469 538.96 177.913 C498.587 102.735 418.55 54 334 54 C260 54 210 120 210 220 L210 688.56 C210 722.473 182.473 750 148.56 750 L35 750 C29.4803 750 25 745.52 25 740 C25 734.48 29.4803 730 35 730 L60 730 C90 730 110 710 110 680 L110 220 C110 82 184 -10 294 -10 C382.275 -10 466.466 32.1987 517.375 99.1893 C524.136 108.086 545 104.944 545 93.7701 L545 25 C545 11.2007 556.201 0 570 0 L587.436 0 C588.458 0 600.111 1.28018 601.102 1.52913 C637.268 10.6138 683.119 22.493 720.567 32.4773 C725.729 33.8535 730 39.658 730 45 C730 50.3458 725.492 53.8409 720.315 52.5096 L720.315 52.5096 Z " />
<glyph glyph-name="ubreve" unicode="&#x16d;" horiz-adv-x="560" d="M142.392 733.083 C153.352 665.125 204.7 620 275 620 C346.25 620 398.548 664.222 408.743 731.233 C409.555 736.568 406.323 742.613 401 743.5 C396.841 744.193 391.638 740.535 390.593 736.45 C381.838 702.246 336.975 680 275 680 C213.025 680 169.018 703.102 159.6 738.225 C158.555 742.122 153.473 746.201 149.5 745.5 C144.49 744.616 141.582 738.105 142.392 733.083 L142.392 733.083 Z M534.889 48.1689 L520 44 C490 36 470 51 470 81 L470 438.56 C470 472.473 442.473 500 408.56 500 L330 500 C324.48 500 320 495.52 320 490 C320 484.48 324.48 480 330 480 L370 480 C379 480 385 474 385 465 L385 157.141 C385 153.107 380.663 134.85 378.754 131.295 C351.489 80.5137 305.1 48 257 48 C202 48 165 92 165 159 L165 437.56 C165 471.473 137.473 499 103.56 499 L25 499 C19.4803 499 15 494.52 15 489 C15 483.48 19.4803 479 25 479 L65 479 C74 479 80 473 80 464 L80 159 C80 57 135 -11 217 -11 C273.925 -11 328.808 23.7119 364.804 79.6593 C369.527 86.9995 385 84.3815 385 75.6532 L385 20.0015 C385 8.41012 394.409 -1.11202 406 -1.25 L420.2 -1.41904 C421.197 -1.43091 432.341 0.0882758 433.3 0.361277 C444.737 3.61773 457.368 6.63158 470 10 C492.176 15.9706 515.08 21.9412 534.989 27.2912 C540.415 28.7494 545 34.8813 545 40.5 C545 46.081 540.263 49.6737 534.889 48.1689 L534.889 48.1689 Z " />
<glyph glyph-name="Uring" unicode="&#x16e;" horiz-adv-x="760" d="M305 905 C305 950 334 980 378 980 C421 980 450 950 450 905 C450 865 417 830 378 830 C339 830 305 865 305 905 L305 905 Z M280 905 C280 854 325 810 378 810 C430 810 475 854 475 905 C475 962 436 1000 378 1000 C319 1000 280 962 280 905 L280 905 Z M720.315 52.5096 L695 46 C665 38 645 53 645 83 L645 688.56 C645 722.473 617.473 750 583.56 750 L470 750 C464.48 750 460 745.52 460 740 C460 734.48 464.48 730 470 730 L495 730 C525 730 545 710 545 680 L545 203.544 C545 199.509 540.869 181.469 538.96 177.913 C498.587 102.735 418.55 54 334 54 C260 54 210 120 210 220 L210 688.56 C210 722.473 182.473 750 148.56 750 L35 750 C29.4803 750 25 745.52 25 740 C25 734.48 29.4803 730 35 730 L60 730 C90 730 110 710 110 680 L110 220 C110 82 184 -10 294 -10 C382.275 -10 466.466 32.1987 517.375 99.1893 C524.136 108.086 545 104.944 545 93.7701 L545 25 C545 11.2007 556.201 0 570 0 L587.436 0 C588.458 0 600.111 1.28018 601.102 1.52913 C637.268 10.6138 683.119 22.493 720.567 32.4773 C725.729 33.8535 730 39.658 730 45 C730 50.3458 725.492 53.8409 720.315 52.5096 L720.315 52.5096 Z " />
<glyph glyph-name="uring" unicode="&#x16f;" horiz-adv-x="560" d="M203 655 C203 700 232 730 275 730 C319 730 348 700 348 655 C348 615 314 580 275 580 C236 580 203 615 203 655 L203 655 Z M178 655 C178 604 223 560 275 560 C328 560 373 604 373 655 C373 712 334 750 275 750 C217 750 178 712 178 655 L178 655 Z M534.889 48.1689 L520 44 C490 36 470 51 470 81 L470 438.56 C470 472.473 442.473 500 408.56 500 L330 500 C324.48 500 320 495.52 320 490 C320 484.48 324.48 480 330 480 L370 480 C379 480 385 474 385 465 L385 157.141 C385 153.107 380.663 134.85 378.754 131.295 C351.489 80.5137 305.1 48 257 48 C202 48 165 92 165 159 L165 437.56 C165 471.473 137.473 499 103.56 499 L25 499 C19.4803 499 15 494.52 15 489 C15 483.48 19.4803 479 25 479 L65 479 C74 479 80 473 80 464 L80 159 C80 57 135 -11 217 -11 C273.925 -11 328.808 23.7119 364.804 79.6593 C369.527 86.9995 385 84.3815 385 75.6532 L385 20.0015 C385 8.41012 394.409 -1.11202 406 -1.25 L420.2 -1.41904 C421.197 -1.43091 432.341 0.0882758 433.3 0.361277 C444.737 3.61773 457.368 6.63158 470 10 C492.176 15.9706 515.08 21.9412 534.989 27.2912 C540.415 28.7494 545 34.8813 545 40.5 C545 46.081 540.263 49.6737 534.889 48.1689 L534.889 48.1689 Z " />
<glyph glyph-name="Wcircumflex" unicode="&#x174;" horiz-adv-x="1109" d="M503 645 L550.571 520.975 C553.68 512.871 553.691 485.124 550.59 477.018 L472.756 273.577 C451.489 217.99 378.048 218.564 357.653 274.477 L222.5 645 C204.5 693 225 725 273 725 L283.5 725 C289.296 725 294 729.704 294 735.5 L294 737.5 C294 744.4 288.4 750 281.5 750 L21.5 750 C14.6004 750 9 744.4 9 737.5 L9 730.5 C9 727.464 11.4642 725 14.5 725 L20 725 C58 725 96 693 114 645 L361.506 2.66406 C363.82 -3.34359 372.062 -9 378.5 -9 C384.915 -9 393.241 -3.34239 395.604 2.62134 L545.221 380.304 C556.731 409.358 596.28 405.273 607.5 376.105 C655.5 251.33 703.5 126.666 751.5 2.62686 C753.822 -3.37482 762.065 -9 768.5 -9 C775.116 -9 782.671 -3.35783 784.55 2.98535 L975 646 C989 694 1031 726 1079 726 L1086.5 726 C1090.64 726 1094 729.36 1094 733.5 L1094 738.5 C1094 745.4 1088.4 751 1081.5 751 L834.5 751 C827.6 751 822 745.4 822 738.5 C822 731.6 827.6 726 834.5 726 L880 726 C926 726 949 696 939 651 L848.446 324.497 C831.995 265.181 752.425 262.123 731.471 320.002 L612 650 C597 696 617 726 664 726 L692.5 726 C699.4 726 705 731.6 705 738.5 C705 745.4 699.4 751 692.5 751 L407.5 751 C400.6 751 395 745.4 395 738.5 L395 732 C395 728.688 397.688 726 401 726 L407 726 C447 726 486 693.5 504 645.5 L503 645 Z M571 1006 C565 1015 551 1036 541 1036 C531 1036 517 1015 511 1006 L393.031 823.245 C390.836 819.845 391.505 814.723 394.5 812 C397.532 809.244 402.367 809.35 405.275 812.237 L496.865 903.173 C520.673 926.811 559.395 926.88 583.287 903.327 L675.707 812.218 C678.624 809.342 683.469 809.244 686.5 812 C689.493 814.721 690.173 819.854 687.992 823.26 L571 1006 L571 1006 Z " />
<glyph glyph-name="Ycircumflex" unicode="&#x176;" horiz-adv-x="764" d="M279 750 L19 750 C13.4803 750 9 745.52 9 740 L9 737.5 C9 733.36 12.3602 730 16.5 730 L24 730 C57 730 93 708 114 675 L330.304 337.145 C333.19 332.638 340 309.369 340 304.017 L340 90 C340 48 312 20 270 20 L245 20 C239.48 20 235 15.5197 235 10 C235 4.4803 239.48 0 245 0 L535 0 C540.52 0 545 4.4803 545 10 C545 15.5197 540.52 20 535 20 L510 20 C468 20 440 48 440 90 L440 309.294 C440 313.455 447.603 338.9 449.6 342.55 C510.402 453.697 571.25 564.8 633 675 C651 708 685 730 718 730 L748 730 C753.52 730 758 734.48 758 740 C758 745.52 753.52 750 748 750 L509 750 C503.48 750 499 745.52 499 740 C499 734.48 503.48 730 509 730 L559 730 C592 730 603 708 587 675 L457.57 412.017 C444.654 385.774 409.855 388.344 394.376 413.162 C339.981 500.378 285.154 588.026 231 675 C210 708 218 730 251 730 L279 730 C284.52 730 289 734.48 289 740 C289 745.52 284.52 750 279 750 L279 750 Z M420 1005 C414 1014 400 1035 390 1035 C380 1035 366 1014 360 1005 L242.236 822.562 C239.915 818.967 240.713 813.739 244 811 C247.297 808.252 252.497 808.479 255.542 811.503 L346.711 902.021 C370.605 925.743 409.395 925.743 433.289 902.021 L524.458 811.503 C527.503 808.479 532.703 808.252 536 811 C539.287 813.739 540.085 818.967 537.764 822.562 L420 1005 L420 1005 Z " />
</font>
</svg>
