<?xml version="1.0" encoding="UTF-8"?>
<svg xmlns="http://www.w3.org/2000/svg" xmlns:xlink="http://www.w3.org/1999/xlink" version="1.2" >
<font id="Montrell Bold">
<font-face  font-family="Montrell" units-per-em="1024" ascent="1054" descent="-300" font-style="normal" font-weight="700" font-stretch="normal" cap-height="811" x-height="581" underline-position="0" underline-thickness="0" />
<missing-glyph  horiz-adv-x="472" d="M0 700 C0 700 432 700 432 700 C432 700 432 0 432 0 C432 0 0 0 0 0 C0 0 0 700 0 700 L0 700 Z M50 50 C50 50 382 50 382 50 C382 50 382 650 382 650 C382 650 50 650 50 650 C50 650 50 50 50 50 L50 50 Z " />
<glyph glyph-name="NULL" d="" />
<glyph glyph-name="CR" unicode="&#xd;" horiz-adv-x="256" d="" />
<glyph glyph-name="space" unicode="&#x20;" horiz-adv-x="100" d="" />
<glyph glyph-name="exclam" unicode="&#x21;" horiz-adv-x="225" d="M50 0 C50 0 175 0 175 0 C175 0 175 125 175 125 C175 125 50 125 50 125 C50 125 50 0 50 0 L50 0 Z M45 811 C45 811 45 476 45 476 C45 476 95 210 95 210 C95 210 130 210 130 210 C130 210 180 476 180 476 C180 476 180 811 180 811 C180 811 45 811 45 811 L45 811 Z " />
<glyph glyph-name="quotedbl" unicode="&#x22;" horiz-adv-x="465" d="M268 811 C268 811 268 691 268 691 C268 691 298 581 298 581 C298 581 353 581 353 581 C353 581 383 691 383 691 C383 691 383 811 383 811 C383 811 268 811 268 811 L268 811 Z M80 811 C80 811 80 691 80 691 C80 691 110 581 110 581 C110 581 165 581 165 581 C165 581 195 691 195 691 C195 691 195 811 195 811 C195 811 80 811 80 811 L80 811 Z " />
<glyph glyph-name="numbersign" unicode="&#x23;" horiz-adv-x="511" d="M362 811 C362 811 338 628 338 628 C338 628 230 628 230 628 C230 628 254 811 254 811 C254 811 194 811 194 811 C194 811 170 628 170 628 C170 628 85 628 85 628 C85 628 71 534 71 534 C71 534 157 534 157 534 C157 534 123 277 123 277 C123 277 29 277 29 277 C29 277 15 183 15 183 C15 183 110 183 110 183 C110 183 86 0 86 0 C86 0 146 0 146 0 C146 0 170 183 170 183 C170 183 278 183 278 183 C278 183 254 0 254 0 C254 0 314 0 314 0 C314 0 338 183 338 183 C338 183 423 183 423 183 C423 183 436 277 436 277 C436 277 351 277 351 277 C351 277 385 534 385 534 C385 534 479 534 479 534 C479 534 492 628 492 628 C492 628 398 628 398 628 C398 628 422 811 422 811 C422 811 362 811 362 811 L362 811 Z M217 534 C217 534 325 534 325 534 C325 534 291 277 291 277 C291 277 183 277 183 277 C183 277 217 534 217 534 L217 534 Z " />
<glyph glyph-name="dollar" unicode="&#x24;" horiz-adv-x="505" d="M267 887 C267 887 267 819 267 819 C252 821 236 822 220 822 C219 822 218 822 217 822 C217 822 217 887 217 887 C217 887 142 887 142 887 C142 887 142 800 142 800 C80 764 37 684 37 591 C37 521 76 454 142 404 C142 404 142 111 142 111 C121 138 108 172 108 212 C108 212 49 171 49 171 C49 171 49 141 49 141 C49 141 52 141 52 141 C59 100 82 65 115 40 C115 40 115 40 115 40 C115 40 115 40 115 40 C123 34 132 28 142 23 C142 23 142 -74 142 -74 C142 -74 217 -74 217 -74 C217 -74 217 -4 217 -4 C233 -7 250 -8 267 -9 C267 -9 267 -74 267 -74 C267 -74 342 -74 342 -74 C342 -74 342 3 342 3 C422 34 470 122 470 228 C470 312 422 391 342 445 C342 445 342 723 342 723 C369 702 386 673 386 637 C386 637 411 659 411 659 C411 659 436 681 436 681 C436 681 436 711 436 711 C436 711 432 711 432 711 C423 741 401 767 370 785 C370 786 370 786 370 786 C370 786 370 786 370 786 C361 791 352 795 342 800 C342 800 342 887 342 887 C342 887 267 887 267 887 L267 887 Z M217 512 C217 512 217 759 217 759 C218 759 219 759 220 759 C236 759 252 757 267 755 C267 755 267 482 267 482 C248 490 231 500 217 512 L217 512 Z M217 360 C222 357 228 355 233 353 C245 348 257 343 267 336 C267 336 267 51 267 51 C249 52 233 55 217 60 C217 60 217 360 217 360 L217 360 Z " />
<glyph glyph-name="percent" unicode="&#x25;" horiz-adv-x="552" d="M428 140 C428 75 425 23 420 23 C416 23 413 75 413 140 C413 205 416 257 420 257 C425 257 428 205 428 140 L428 140 Z M420 -10 C465 -10 493 57 493 140 C493 223 465 290 420 290 C376 290 348 223 348 140 C348 57 376 -10 420 -10 L420 -10 Z M124 671 C124 736 127 788 132 788 C136 788 139 736 139 671 C139 606 136 554 132 554 C127 554 124 606 124 671 L124 671 Z M132 821 C87 821 59 754 59 671 C59 588 87 521 132 521 C176 521 204 588 204 671 C204 754 176 821 132 821 L132 821 Z M106 0 C106 0 146 0 146 0 C146 0 446 811 446 811 C446 811 406 811 406 811 C406 811 106 0 106 0 L106 0 Z " />
<glyph glyph-name="ampersand" unicode="&#x26;" horiz-adv-x="553" d="M493 2 C493 2 485 55 485 55 C474 50 463 47 458 47 C467 47 441 102 405 172 C424 231 434 301 433 376 C433 376 376 389 376 389 C377 339 373 291 365 249 C327 320 293 382 272 418 C272 418 288 428 288 428 C320 485 345 557 345 591 C345 681 299 752 241 752 C178 752 128 671 128 571 C128 497 140 423 155 393 C155 393 151 390 151 390 C87 274 35 187 35 195 C35 76 114 -20 213 -20 C261 -20 306 6 342 50 C373 13 409 -10 453 -10 C459 -10 477 -5 493 2 L493 2 Z M248 459 C241 481 236 530 236 580 C236 647 238 700 241 700 C244 700 246 649 246 586 C246 528 247 479 248 459 L248 459 Z M179 344 C199 303 234 235 275 155 C286 134 296 115 308 97 C283 61 254 41 221 41 C184 41 155 116 155 210 C155 253 165 307 179 344 C179 344 179 344 179 344 L179 344 Z " />
<glyph glyph-name="quotesingle" unicode="&#x27;" horiz-adv-x="245" d="M80 811 C80 811 80 691 80 691 C80 691 110 581 110 581 C110 581 165 581 165 581 C165 581 195 691 195 691 C195 691 195 811 195 811 C195 811 80 811 80 811 L80 811 Z " />
<glyph glyph-name="parenleft" unicode="&#x28;" horiz-adv-x="330" d="M270 856 C166 769 100 577 100 362 C100 158 166 -28 270 -115 C270 -115 310 -70 310 -70 C228 -1 175 167 175 362 C175 567 228 742 310 812 C310 812 270 856 270 856 L270 856 Z " />
<glyph glyph-name="parenright" unicode="&#x29;" horiz-adv-x="290" d="M60 -115 C164 -28 230 165 230 379 C230 583 164 769 60 856 C60 856 20 812 20 812 C103 742 155 574 155 379 C155 174 103 -1 20 -70 C20 -70 60 -115 60 -115 L60 -115 Z " />
<glyph glyph-name="asterisk" unicode="&#x2a;" horiz-adv-x="406" d="M340 756 C340 756 224 690 224 690 C224 690 251 821 251 821 C251 821 155 821 155 821 C155 821 182 690 182 690 C182 690 66 756 66 756 C66 756 36 665 36 665 C36 665 169 650 169 650 C169 650 70 560 70 560 C70 560 148 503 148 503 C148 503 203 625 203 625 C203 625 258 503 258 503 C258 503 336 560 336 560 C336 560 237 650 237 650 C237 650 370 665 370 665 C370 665 340 756 340 756 L340 756 Z " />
<glyph glyph-name="plus" unicode="&#x2b;" horiz-adv-x="651" d="M288 260 C288 260 288 0 288 0 C288 0 363 0 363 0 C363 0 363 260 363 260 C363 260 626 260 626 260 C626 260 626 330 626 330 C626 330 363 330 363 330 C363 330 363 581 363 581 C363 581 288 581 288 581 C288 581 288 330 288 330 C288 330 25 330 25 330 C25 330 25 260 25 260 C25 260 288 260 288 260 L288 260 Z " />
<glyph glyph-name="comma" unicode="&#x2c;" horiz-adv-x="225" d="M50 125 C50 125 50 0 50 0 C50 0 100 0 100 0 C100 -40 83 -60 50 -60 C50 -60 50 -120 50 -120 C133 -120 175 -80 175 0 C175 0 175 125 175 125 C175 125 50 125 50 125 L50 125 Z " />
<glyph glyph-name="hyphen" unicode="&#x2d;" horiz-adv-x="245" d="M50 237 C50 237 195 237 195 237 C195 237 195 332 195 332 C195 332 50 332 50 332 C50 332 50 237 50 237 L50 237 Z " />
<glyph glyph-name="period" unicode="&#x2e;" horiz-adv-x="225" d="M50 0 C50 0 175 0 175 0 C175 0 175 125 175 125 C175 125 50 125 50 125 C50 125 50 0 50 0 L50 0 Z " />
<glyph glyph-name="slash" unicode="&#x2f;" horiz-adv-x="320" d="M0 0 C0 0 50 0 50 0 C50 0 320 811 320 811 C320 811 270 811 270 811 C270 811 0 0 0 0 L0 0 Z " />
<glyph glyph-name="zero" unicode="0" horiz-adv-x="580" d="M288 47 C225 47 185 186 185 406 C185 615 228 764 288 764 C349 764 392 615 392 406 C392 186 352 47 288 47 L288 47 Z M52 406 C52 152 144 -10 288 -10 C433 -10 525 152 525 406 C525 648 426 821 288 821 C151 821 52 648 52 406 L52 406 Z " />
<glyph glyph-name="one" unicode="1" horiz-adv-x="370" d="M206 0 C206 0 270 0 270 0 C270 0 300 0 300 0 C300 0 300 13 300 13 C300 13 270 66 270 66 C270 66 270 811 270 811 C270 811 170 811 170 811 C170 811 50 608 50 608 C50 608 50 522 50 522 C50 522 142 681 142 681 C142 681 142 66 142 66 C142 66 112 13 112 13 C112 13 112 0 112 0 C112 0 142 0 142 0 C142 0 206 0 206 0 L206 0 Z " />
<glyph glyph-name="two" unicode="2" horiz-adv-x="477" d="M60 0 C60 0 135 0 135 0 C135 0 442 0 442 0 C442 0 442 62 442 62 C442 62 442 124 442 124 C442 124 442 153 442 153 C442 153 429 153 429 153 C429 153 377 124 377 124 C377 124 143 124 143 124 C157 222 190 277 244 321 C346 405 427 516 427 571 C427 710 350 821 253 821 C156 821 78 713 78 579 C78 523 97 454 122 424 C122 424 184 455 184 455 C163 482 146 537 146 579 C146 658 179 722 220 722 C266 722 302 643 302 544 C302 484 246 389 176 332 C99 269 60 184 60 0 L60 0 Z " />
<glyph glyph-name="three" unicode="3" horiz-adv-x="479" d="M46 265 C46 112 132 -10 240 -10 C348 -10 434 95 434 226 C434 312 396 400 344 437 C378 465 403 538 403 611 C403 728 330 821 238 821 C146 821 73 716 73 584 C73 584 201 584 201 584 C201 684 217 764 236 764 C263 764 285 691 285 600 C285 532 263 477 235 477 C235 477 155 477 155 477 C155 477 155 448 155 448 C155 448 155 428 155 428 C155 428 155 379 155 379 C155 379 215 379 215 379 C261 379 297 313 297 231 C297 131 272 52 240 52 C206 52 179 147 179 265 C179 265 46 265 46 265 L46 265 Z " />
<glyph glyph-name="four" unicode="4" horiz-adv-x="475" d="M25 284 C25 284 25 230 25 230 C25 230 290 230 290 230 C290 230 290 66 290 66 C290 66 260 13 260 13 C260 13 260 0 260 0 C260 0 290 0 290 0 C290 0 354 0 354 0 C354 0 418 0 418 0 C418 0 448 0 448 0 C448 0 448 13 448 13 C448 13 418 66 418 66 C418 66 418 230 418 230 C418 230 455 230 455 230 C455 230 455 292 455 292 C455 292 418 292 418 292 C418 292 418 811 418 811 C418 811 319 811 319 811 C319 811 25 284 25 284 L25 284 Z M91 292 C91 292 299 666 299 666 C299 666 290 598 290 598 C290 598 290 292 290 292 C290 292 91 292 91 292 L91 292 Z " />
<glyph glyph-name="five" unicode="5" horiz-adv-x="475" d="M88 375 C88 375 155 360 155 360 C187 395 213 423 215 423 C261 423 297 348 297 254 C297 142 272 52 241 52 C207 52 180 147 180 265 C180 265 47 265 47 265 C47 112 133 -10 241 -10 C349 -10 435 107 435 254 C435 406 348 528 239 528 C217 528 176 505 144 473 C144 473 125 679 125 679 C125 679 330 686 330 686 C330 686 377 658 377 658 C377 658 390 658 390 658 C391 677 393 703 395 726 C395 726 401 811 401 811 C401 811 63 811 63 811 C63 811 88 375 88 375 L88 375 Z " />
<glyph glyph-name="six" unicode="6" horiz-adv-x="473" d="M424 679 C390 758 316 821 258 821 C135 821 56 634 56 400 C56 149 135 -10 260 -10 C371 -10 460 112 460 265 C460 411 375 527 268 527 C229 527 224 499 189 422 C189 422 189 423 189 423 C189 614 216 767 258 767 C292 767 343 713 372 646 C372 646 424 679 424 679 L424 679 Z M190 350 C190 410 193 470 255 470 C292 470 322 379 322 265 C322 144 294 47 260 47 C221 47 195 162 190 350 L190 350 Z " />
<glyph glyph-name="seven" unicode="7" horiz-adv-x="370" d="M30 811 C30 811 30 749 30 749 C30 749 30 688 30 688 C30 688 30 658 30 658 C30 658 43 658 43 658 C43 658 96 688 96 688 C96 688 303 688 303 688 C144 413 65 183 65 0 C65 0 208 0 208 0 C208 283 259 512 360 688 C360 688 360 811 360 811 C360 811 30 811 30 811 L30 811 Z " />
<glyph glyph-name="eight" unicode="8" horiz-adv-x="508" d="M255 464 C223 464 205 525 205 600 C205 700 227 764 255 764 C287 764 307 691 307 600 C307 513 284 464 255 464 L255 464 Z M86 611 C86 529 123 459 191 433 C113 408 57 333 57 219 C57 92 129 -10 255 -10 C366 -10 454 73 454 219 C454 320 406 406 319 433 C382 458 425 519 425 611 C425 727 359 821 255 821 C161 821 86 739 86 611 L86 611 Z M255 47 C216 47 194 128 194 229 C194 339 221 402 255 402 C295 402 317 326 317 231 C317 113 290 47 255 47 L255 47 Z " />
<glyph glyph-name="nine" unicode="9" horiz-adv-x="473" d="M87 132 C120 53 194 -10 252 -10 C376 -10 454 177 454 411 C454 662 375 821 251 821 C139 821 50 699 50 546 C50 401 135 284 242 284 C282 284 286 312 322 389 C322 389 322 388 322 388 C321 197 294 44 252 44 C218 44 167 98 138 165 C138 165 87 132 87 132 L87 132 Z M320 478 C320 478 320 478 320 478 C320 413 323 341 255 341 C218 341 188 432 188 546 C188 667 216 764 251 764 C288 764 313 655 320 478 L320 478 Z " />
<glyph glyph-name="colon" unicode="&#x3a;" horiz-adv-x="225" d="M50 456 C50 456 175 456 175 456 C175 456 175 581 175 581 C175 581 50 581 50 581 C50 581 50 456 50 456 L50 456 Z M50 0 C50 0 175 0 175 0 C175 0 175 125 175 125 C175 125 50 125 50 125 C50 125 50 0 50 0 L50 0 Z " />
<glyph glyph-name="semicolon" unicode="&#x3b;" horiz-adv-x="225" d="M50 456 C50 456 175 456 175 456 C175 456 175 581 175 581 C175 581 50 581 50 581 C50 581 50 456 50 456 L50 456 Z M50 125 C50 125 50 0 50 0 C50 0 100 0 100 0 C100 -40 83 -60 50 -60 C50 -60 50 -120 50 -120 C133 -120 175 -80 175 0 C175 0 175 125 175 125 C175 125 50 125 50 125 L50 125 Z " />
<glyph glyph-name="less" unicode="&#x3c;" horiz-adv-x="285" d="M225 549 C225 549 45 333 45 333 C45 333 45 248 45 248 C45 248 225 32 225 32 C225 32 225 127 225 127 C225 127 82 291 82 291 C82 291 225 454 225 454 C225 454 225 549 225 549 L225 549 Z " />
<glyph glyph-name="equal" unicode="&#x3d;" horiz-adv-x="484" d="M39 224 C39 224 39 154 39 154 C39 154 434 154 434 154 C434 154 434 224 434 224 C434 224 39 224 39 224 L39 224 Z M39 447 C39 447 39 377 39 377 C39 377 434 377 434 377 C434 377 434 447 434 447 C434 447 39 447 39 447 L39 447 Z " />
<glyph glyph-name="greater" unicode="&#x3e;" horiz-adv-x="285" d="M203 291 C203 291 60 127 60 127 C60 127 60 32 60 32 C60 32 240 248 240 248 C240 248 240 333 240 333 C240 333 60 549 60 549 C60 549 60 454 60 454 C60 454 203 291 203 291 L203 291 Z " />
<glyph glyph-name="question" unicode="&#x3f;" horiz-adv-x="445" d="M142 0 C142 0 267 0 267 0 C267 0 267 125 267 125 C267 125 142 125 142 125 C142 125 142 0 142 0 L142 0 Z M15 605 C15 605 126 586 126 586 C133 667 171 731 213 731 C247 731 275 673 275 601 C275 551 254 511 211 481 C164 448 150 387 150 210 C150 210 260 210 260 210 C260 345 267 388 292 406 C361 455 395 520 395 601 C395 723 314 821 213 821 C113 821 26 725 15 605 L15 605 Z " />
<glyph glyph-name="at" unicode="&#x40;" horiz-adv-x="1116" d="M919 -123 C832 -183 683 -232 582 -232 C339 -232 144 4 144 300 C144 595 338 831 582 831 C801 831 977 639 977 399 C977 192 905 27 815 27 C755 27 717 118 729 232 C729 232 764 558 764 558 C764 558 659 558 659 558 C659 558 647 450 647 450 C633 529 601 569 560 569 C445 569 340 449 324 300 C306 136 388 6 509 6 C556 6 603 59 630 136 C651 50 714 -9 796 -9 C944 -9 1062 172 1062 399 C1062 662 848 872 582 872 C291 872 59 618 59 300 C59 -19 291 -273 582 -273 C687 -273 846 -220 940 -154 C940 -154 919 -123 919 -123 L919 -123 Z M624 232 C614 137 565 61 515 61 C458 61 425 167 439 300 C452 419 503 515 554 515 C610 515 644 421 624 232 L624 232 Z " />
<glyph glyph-name="A" unicode="A" horiz-adv-x="649" d="M606 66 C606 66 606 66 606 66 C606 66 398 811 398 811 C398 811 330 811 330 811 C330 811 297 811 297 811 C297 811 273 811 273 811 C273 811 263 811 263 811 C263 811 233 811 233 811 C234 811 234 811 233 810 C234 803 234 798 233 798 C233 798 245 745 245 745 C245 745 245 745 245 745 C245 745 60 66 60 66 C60 66 15 13 15 13 C15 13 15 0 15 0 C15 0 42 0 42 0 C42 0 76 0 76 0 C76 0 111 0 111 0 C111 0 141 0 141 0 C141 0 141 13 141 13 C141 13 129 66 129 66 C129 66 129 66 129 66 C129 66 302 707 302 707 C302 707 423 269 423 269 C423 269 184 269 184 269 C184 269 169 214 169 214 C169 214 438 214 438 214 C438 214 479 66 479 66 C479 66 467 13 467 13 C467 13 467 0 467 0 C467 0 497 0 497 0 C497 0 561 0 561 0 C561 0 624 0 624 0 C624 0 651 0 651 0 C651 0 651 13 651 13 C651 13 606 66 606 66 L606 66 Z " />
<glyph glyph-name="B" unicode="B" horiz-adv-x="587" d="M396 433 C466 458 515 522 515 597 C515 740 443 811 300 811 C300 811 230 811 230 811 C230 811 166 811 166 811 C166 811 102 811 102 811 C102 811 72 811 72 811 C72 811 72 798 72 798 C72 798 102 745 102 745 C102 745 102 66 102 66 C102 66 72 13 72 13 C72 13 72 0 72 0 C72 0 102 0 102 0 C102 0 166 0 166 0 C166 0 230 0 230 0 C230 0 338 0 338 0 C481 0 553 80 553 241 C553 339 486 419 396 433 C396 433 396 433 396 433 L396 433 Z M230 449 C230 449 230 757 230 757 C230 757 303 757 303 757 C356 757 382 701 382 588 C382 511 344 449 297 449 C297 449 230 449 230 449 L230 449 Z M230 54 C230 54 230 397 230 397 C230 397 321 397 321 397 C373 397 415 334 415 256 C415 121 383 54 318 54 C318 54 230 54 230 54 L230 54 Z " />
<glyph glyph-name="C" unicode="C" horiz-adv-x="583" d="M512 205 C512 117 440 47 351 47 C261 47 189 226 189 406 C189 585 261 764 351 764 C440 764 512 694 512 606 C512 606 538 628 538 628 C538 628 538 627 538 627 C538 627 563 649 563 649 C563 649 563 679 563 679 C563 679 560 679 560 679 C552 715 530 748 499 773 C498 774 498 774 498 774 C498 774 498 774 498 774 C460 803 408 821 351 821 C185 821 52 613 52 406 C52 198 185 -10 351 -10 C469 -10 563 67 563 162 C563 162 512 205 512 205 L512 205 Z " />
<glyph glyph-name="D" unicode="D" horiz-adv-x="660" d="M166 0 C166 0 230 0 230 0 C230 0 305 0 305 0 C493 0 605 151 605 406 C605 653 477 811 275 811 C275 811 230 811 230 811 C230 811 166 811 166 811 C166 811 102 811 102 811 C102 811 72 811 72 811 C72 811 72 798 72 798 C72 798 102 745 102 745 C102 745 102 66 102 66 C102 66 72 13 72 13 C72 13 72 0 72 0 C72 0 102 0 102 0 C102 0 166 0 166 0 L166 0 Z M230 54 C230 54 230 757 230 757 C230 757 278 757 278 757 C394 757 468 620 468 406 C468 185 406 54 301 54 C301 54 230 54 230 54 L230 54 Z " />
<glyph glyph-name="E" unicode="E" horiz-adv-x="535" d="M485 28 C485 28 485 57 485 57 C485 57 485 87 485 87 C485 87 472 87 472 87 C472 87 419 57 419 57 C419 57 230 57 230 57 C230 57 230 373 230 373 C230 373 384 373 384 373 C384 373 437 343 437 343 C437 343 450 343 450 343 C450 343 450 373 450 373 C450 373 450 401 450 401 C450 401 450 428 450 428 C450 428 450 458 450 458 C450 458 437 458 437 458 C437 458 384 428 384 428 C384 428 230 428 230 428 C230 428 230 754 230 754 C230 754 404 754 404 754 C404 754 457 724 457 724 C457 724 470 724 470 724 C470 724 470 754 470 754 C470 754 470 783 470 783 C470 783 470 811 470 811 C470 811 230 811 230 811 C230 811 229 811 229 811 C229 811 166 811 166 811 C166 811 102 811 102 811 C102 811 72 811 72 811 C72 811 72 798 72 798 C72 798 102 745 102 745 C102 745 102 66 102 66 C102 66 72 13 72 13 C72 13 72 0 72 0 C72 0 102 0 102 0 C102 0 166 0 166 0 C166 0 229 0 229 0 C229 0 230 0 230 0 C230 0 485 0 485 0 C485 0 485 28 485 28 L485 28 Z " />
<glyph glyph-name="F" unicode="F" horiz-adv-x="500" d="M374 373 C374 373 427 343 427 343 C427 343 440 343 440 343 C440 343 440 373 440 373 C440 373 440 401 440 401 C440 401 440 428 440 428 C440 428 440 458 440 458 C440 458 427 458 427 458 C427 458 374 428 374 428 C374 428 230 428 230 428 C230 428 230 754 230 754 C230 754 404 754 404 754 C404 754 457 724 457 724 C457 724 470 724 470 724 C470 724 470 754 470 754 C470 754 470 783 470 783 C470 783 470 811 470 811 C470 811 230 811 230 811 C230 811 229 811 229 811 C229 811 166 811 166 811 C166 811 102 811 102 811 C102 811 72 811 72 811 C72 811 72 798 72 798 C72 798 102 745 102 745 C102 745 102 66 102 66 C102 66 72 13 72 13 C72 13 72 0 72 0 C72 0 102 0 102 0 C102 0 166 0 166 0 C166 0 230 0 230 0 C230 0 260 0 260 0 C260 0 260 13 260 13 C260 13 230 66 230 66 C230 66 230 373 230 373 C230 373 374 373 374 373 L374 373 Z " />
<glyph glyph-name="G" unicode="G" horiz-adv-x="637" d="M355 376 C355 376 525 376 525 376 C525 376 525 132 525 132 C470 85 404 47 372 47 C270 47 189 206 189 406 C189 605 270 764 372 764 C455 764 522 694 522 606 C522 606 547 627 547 627 C547 627 547 627 547 627 C547 627 573 649 573 649 C573 649 573 679 573 679 C573 679 570 679 570 679 C562 717 540 751 507 777 C507 777 507 777 507 777 C507 777 507 777 507 777 C471 804 424 821 372 821 C194 821 52 636 52 406 C52 175 194 -10 372 -10 C428 -10 521 38 592 97 C592 97 592 433 592 433 C592 433 355 433 355 433 C355 433 355 376 355 376 L355 376 Z " />
<glyph glyph-name="H" unicode="H" horiz-adv-x="661" d="M497 0 C497 0 561 0 561 0 C561 0 591 0 591 0 C591 0 591 13 591 13 C591 13 561 66 561 66 C561 66 561 745 561 745 C561 745 591 798 591 798 C591 798 591 811 591 811 C591 811 561 811 561 811 C561 811 497 811 497 811 C497 811 433 811 433 811 C433 811 403 811 403 811 C403 811 403 798 403 798 C403 798 433 745 433 745 C433 745 433 439 433 439 C433 439 230 439 230 439 C230 439 230 745 230 745 C230 745 260 798 260 798 C260 798 260 811 260 811 C260 811 230 811 230 811 C230 811 166 811 166 811 C166 811 102 811 102 811 C102 811 72 811 72 811 C72 811 72 798 72 798 C72 798 102 745 102 745 C102 745 102 66 102 66 C102 66 72 13 72 13 C72 13 72 0 72 0 C72 0 102 0 102 0 C102 0 166 0 166 0 C166 0 230 0 230 0 C230 0 260 0 260 0 C260 0 260 13 260 13 C260 13 230 66 230 66 C230 66 230 382 230 382 C230 382 433 382 433 382 C433 382 433 66 433 66 C433 66 403 13 403 13 C403 13 403 0 403 0 C403 0 433 0 433 0 C433 0 497 0 497 0 L497 0 Z " />
<glyph glyph-name="I" unicode="I" horiz-adv-x="331" d="M167 0 C167 0 231 0 231 0 C231 0 261 0 261 0 C261 0 261 13 261 13 C261 13 231 66 231 66 C231 66 231 745 231 745 C231 745 261 798 261 798 C261 798 261 811 261 811 C261 811 231 811 231 811 C231 811 167 811 167 811 C167 811 103 811 103 811 C103 811 73 811 73 811 C73 811 73 798 73 798 C73 798 103 745 103 745 C103 745 103 66 103 66 C103 66 73 13 73 13 C73 13 73 0 73 0 C73 0 103 0 103 0 C103 0 167 0 167 0 L167 0 Z " />
<glyph glyph-name="J" unicode="J" horiz-adv-x="445" d="M49 279 C49 279 49 216 49 216 C49 72 105 -10 205 -10 C300 -10 360 100 360 238 C360 238 360 745 360 745 C360 745 390 798 390 798 C390 798 390 811 390 811 C390 811 360 811 360 811 C360 811 296 811 296 811 C296 811 232 811 232 811 C232 811 202 811 202 811 C202 811 202 798 202 798 C202 798 232 745 232 745 C232 745 232 238 232 238 C232 136 221 55 205 55 C187 55 177 126 177 252 C177 252 177 302 177 302 C177 302 49 279 49 279 L49 279 Z " />
<glyph glyph-name="K" unicode="K" horiz-adv-x="559" d="M529 811 C529 811 507 811 507 811 C507 811 469 811 469 811 C469 811 431 811 431 811 C431 811 401 811 401 811 C402 811 402 811 401 810 C402 803 402 798 401 798 C401 798 393 745 393 745 C393 745 215 434 215 434 C215 434 215 745 215 745 C215 745 245 798 245 798 C245 798 245 811 245 811 C245 811 215 811 215 811 C215 811 151 811 151 811 C151 811 87 811 87 811 C87 811 57 811 57 811 C57 811 57 798 57 798 C57 798 87 745 87 745 C87 745 87 66 87 66 C87 66 57 13 57 13 C57 13 57 0 57 0 C57 0 87 0 87 0 C87 0 151 0 151 0 C151 0 215 0 215 0 C215 0 245 0 245 0 C245 0 245 13 245 13 C245 13 215 66 215 66 C215 66 215 313 215 313 C215 313 271 409 271 409 C271 409 390 66 390 66 C390 66 390 66 390 66 C390 66 383 13 383 13 C383 13 383 0 383 0 C383 0 413 0 413 0 C413 0 481 0 481 0 C481 0 549 0 549 0 C549 0 574 0 574 0 C574 0 574 13 574 13 C574 13 523 66 523 66 C523 66 341 528 341 528 C341 528 304 466 304 466 C304 466 468 745 468 745 C468 745 469 745 469 745 C469 745 529 798 529 798 C529 798 529 811 529 811 L529 811 Z " />
<glyph glyph-name="L" unicode="L" horiz-adv-x="481" d="M436 28 C436 28 436 57 436 57 C436 57 436 87 436 87 C436 87 423 87 423 87 C423 87 370 57 370 57 C370 57 231 57 231 57 C231 57 231 745 231 745 C231 745 261 798 261 798 C261 798 261 811 261 811 C261 811 231 811 231 811 C231 811 167 811 167 811 C167 811 103 811 103 811 C103 811 73 811 73 811 C73 811 73 798 73 798 C73 798 103 745 103 745 C103 745 103 66 103 66 C103 66 73 13 73 13 C73 13 73 0 73 0 C73 0 103 0 103 0 C103 0 167 0 167 0 C167 0 231 0 231 0 C231 0 436 0 436 0 C436 0 436 28 436 28 L436 28 Z " />
<glyph glyph-name="M" unicode="M" horiz-adv-x="771" d="M609 0 C609 0 671 0 671 0 C671 0 701 0 701 0 C701 0 701 13 701 13 C701 13 671 66 671 66 C671 66 671 745 671 745 C671 745 701 798 701 798 C701 798 701 811 701 811 C701 811 671 811 671 811 C671 811 609 811 609 811 C609 811 570 811 570 811 C570 811 548 811 548 811 C548 811 506 811 506 811 C506 811 393 496 393 496 C393 496 277 811 277 811 C277 811 184 811 184 811 C184 811 159 811 159 811 C159 811 151 811 151 811 C151 811 117 811 117 811 C117 811 87 811 87 811 C87 811 87 798 87 798 C87 798 117 745 117 745 C117 745 117 66 117 66 C117 66 87 13 87 13 C87 13 87 0 87 0 C87 0 117 0 117 0 C117 0 151 0 151 0 C151 0 184 0 184 0 C184 0 214 0 214 0 C215 0 215 1 214 1 C215 8 215 13 214 13 C214 13 184 66 184 66 C184 66 184 745 184 745 C184 745 309 413 309 413 C309 413 363 413 363 413 C363 413 423 413 423 413 C423 413 425 413 425 413 C425 413 548 751 548 751 C548 751 548 66 548 66 C548 66 518 13 518 13 C518 13 518 0 518 0 C518 0 548 0 548 0 C548 0 609 0 609 0 L609 0 Z " />
<glyph glyph-name="N" unicode="N" horiz-adv-x="576" d="M406 745 C406 745 406 188 406 188 C406 188 247 811 247 811 C247 811 186 811 186 811 C186 811 151 811 151 811 C151 811 117 811 117 811 C117 811 87 811 87 811 C87 811 87 798 87 798 C87 798 117 745 117 745 C117 745 117 66 117 66 C117 66 87 13 87 13 C87 13 87 0 87 0 C87 0 117 0 117 0 C117 0 151 0 151 0 C151 0 186 0 186 0 C186 0 216 0 216 0 C216 0 216 13 216 13 C216 13 186 66 186 66 C186 66 186 539 186 539 C186 539 323 0 323 0 C323 0 406 0 406 0 C406 0 454 0 454 0 C454 0 476 0 476 0 C476 0 476 745 476 745 C476 745 506 798 506 798 C506 798 506 811 506 811 C506 811 476 811 476 811 C476 811 441 811 441 811 C441 811 406 811 406 811 C406 811 377 811 377 811 C377 811 377 798 377 798 C377 798 406 745 406 745 L406 745 Z " />
<glyph glyph-name="O" unicode="O" horiz-adv-x="694" d="M348 47 C262 47 194 206 194 406 C194 595 267 764 348 764 C429 764 501 595 501 406 C501 206 433 47 348 47 L348 47 Z M57 406 C57 175 186 -10 348 -10 C510 -10 639 175 639 406 C639 625 501 821 348 821 C194 821 57 625 57 406 L57 406 Z " />
<glyph glyph-name="P" unicode="P" horiz-adv-x="518" d="M166 0 C166 0 230 0 230 0 C230 0 260 0 260 0 C260 0 260 13 260 13 C260 13 230 66 230 66 C230 66 230 323 230 323 C385 323 484 418 484 568 C484 716 385 811 230 811 C230 811 166 811 166 811 C166 811 134 811 134 811 C134 811 102 811 102 811 C102 811 72 811 72 811 C72 811 72 798 72 798 C72 798 102 745 102 745 C102 745 102 66 102 66 C102 66 72 13 72 13 C72 13 72 0 72 0 C72 0 102 0 102 0 C102 0 166 0 166 0 L166 0 Z M230 377 C230 377 230 757 230 757 C307 755 356 682 356 568 C356 451 308 377 233 377 C233 377 230 377 230 377 L230 377 Z " />
<glyph glyph-name="Q" unicode="Q" horiz-adv-x="694" d="M57 406 C57 175 186 -10 348 -10 C380 -10 411 -3 440 11 C440 11 496 -90 496 -90 C496 -90 562 -9 562 -9 C562 -9 508 57 508 57 C587 131 639 259 639 406 C639 625 501 821 348 821 C194 821 57 625 57 406 C57 406 57 406 57 406 L57 406 Z M405 72 C387 56 368 47 348 47 C262 47 194 206 194 406 C194 595 267 764 348 764 C429 764 501 595 501 406 C501 295 480 197 447 131 C447 131 402 186 402 186 C402 186 366 142 366 142 C366 142 405 72 405 72 L405 72 Z " />
<glyph glyph-name="R" unicode="R" horiz-adv-x="533" d="M537 13 C537 13 479 66 479 66 C479 66 479 66 479 66 C479 66 331 351 331 351 C331 351 302 351 302 351 C415 374 484 454 484 568 C484 716 385 811 230 811 C230 811 166 811 166 811 C166 811 134 811 134 811 C134 811 102 811 102 811 C102 811 72 811 72 811 C72 811 72 798 72 798 C72 798 102 745 102 745 C102 745 102 66 102 66 C102 66 72 13 72 13 C72 13 72 0 72 0 C72 0 102 0 102 0 C102 0 166 0 166 0 C166 0 230 0 230 0 C230 0 260 0 260 0 C260 0 260 13 260 13 C260 13 230 66 230 66 C230 66 230 261 230 261 C230 261 366 0 366 0 C366 0 440 0 440 0 C440 0 513 0 513 0 C513 0 537 0 537 0 C537 0 537 13 537 13 L537 13 Z M230 398 C230 398 230 757 230 757 C307 755 356 682 356 568 C356 464 308 398 232 398 C232 398 230 398 230 398 L230 398 Z " />
<glyph glyph-name="S" unicode="S" horiz-adv-x="505" d="M52 140 C59 99 82 64 115 39 C115 39 115 39 115 39 C115 39 115 39 115 39 C156 8 213 -10 277 -10 C395 -10 470 95 470 227 C470 335 391 434 268 482 C208 506 169 553 169 604 C169 690 192 759 220 759 C312 759 386 711 386 636 C386 636 411 658 411 658 C411 658 436 680 436 680 C436 680 435 710 435 710 C435 710 432 710 432 710 C423 740 401 766 370 784 C370 785 370 785 370 785 C370 785 370 785 370 785 C331 808 278 821 220 821 C118 821 37 718 37 590 C37 492 113 400 233 353 C300 327 342 276 342 223 C342 127 317 51 277 51 C183 51 108 113 108 211 C108 211 49 170 49 170 C49 170 52 140 52 140 C52 140 52 140 52 140 L52 140 Z " />
<glyph glyph-name="T" unicode="T" horiz-adv-x="513" d="M257 0 C257 0 321 0 321 0 C321 0 351 0 351 0 C350 0 350 1 351 1 C350 8 350 13 351 13 C351 13 321 66 321 66 C321 66 321 754 321 754 C321 754 418 754 418 754 C418 754 471 724 471 724 C471 724 484 724 484 724 C484 724 484 754 484 754 C484 754 484 783 484 783 C484 783 484 811 484 811 C484 811 321 811 321 811 C321 811 192 811 192 811 C192 811 29 811 29 811 C29 811 29 783 29 783 C29 783 29 754 29 754 C29 754 29 724 29 724 C29 724 42 724 42 724 C42 724 95 754 95 754 C95 754 192 754 192 754 C192 754 192 66 192 66 C192 66 162 13 162 13 C162 13 162 0 162 0 C162 0 192 0 192 0 C192 0 257 0 257 0 L257 0 Z " />
<glyph glyph-name="U" unicode="U" horiz-adv-x="626" d="M95 745 C95 745 95 313 95 313 C95 116 180 -10 313 -10 C447 -10 532 117 532 316 C532 316 532 745 532 745 C532 745 562 798 562 798 C561 798 561 803 562 810 C561 811 561 811 562 811 C562 811 532 811 532 811 C532 811 497 811 497 811 C497 811 462 811 462 811 C462 811 432 811 432 811 C432 811 432 798 432 798 C432 798 462 745 462 745 C462 745 462 328 462 328 C462 161 404 55 313 55 C258 55 223 164 223 336 C223 336 223 745 223 745 C223 745 253 798 253 798 C253 798 253 811 253 811 C253 811 223 811 223 811 C223 811 159 811 159 811 C159 811 95 811 95 811 C95 811 65 811 65 811 C65 811 65 798 65 798 C65 798 95 745 95 745 L95 745 Z " />
<glyph glyph-name="V" unicode="V" horiz-adv-x="581" d="M56 745 C56 745 56 745 56 745 C56 745 220 0 220 0 C220 0 277 0 277 0 C277 0 339 0 339 0 C339 0 341 0 341 0 C341 0 503 745 503 745 C503 745 503 745 503 745 C503 745 544 798 544 798 C544 798 544 811 544 811 C544 811 517 811 517 811 C517 811 480 811 480 811 C480 811 442 811 442 811 C442 811 412 811 412 811 C412 811 412 798 412 798 C412 798 429 746 429 746 C429 746 308 155 308 155 C308 155 192 745 192 745 C192 745 209 798 209 798 C209 798 209 811 209 811 C209 811 179 811 179 811 C179 811 110 811 110 811 C110 811 42 811 42 811 C42 811 14 811 14 811 C14 811 14 798 14 798 C14 798 56 745 56 745 L56 745 Z " />
<glyph glyph-name="W" unicode="W" horiz-adv-x="780" d="M68 745 C68 745 68 745 68 745 C68 745 172 0 172 0 C172 0 234 0 234 0 C234 0 296 0 296 0 C296 0 391 217 391 217 C391 217 484 0 484 0 C484 0 546 0 546 0 C546 0 608 0 608 0 C608 0 715 745 715 745 C715 745 715 745 715 745 C715 745 752 798 752 798 C752 798 752 811 752 811 C752 811 724 811 724 811 C724 811 687 811 687 811 C687 811 649 811 649 811 C649 811 619 811 619 811 C619 811 619 798 619 798 C619 798 641 746 641 746 C641 746 560 111 560 111 C560 111 481 294 481 294 C481 294 425 294 425 294 C425 294 358 294 358 294 C358 294 282 114 282 114 C282 114 204 745 204 745 C204 745 226 798 226 798 C226 798 226 811 226 811 C226 811 196 811 196 811 C196 811 127 811 127 811 C127 811 59 811 59 811 C59 811 30 811 30 811 C30 811 30 798 30 798 C30 798 68 745 68 745 L68 745 Z " />
<glyph glyph-name="X" unicode="X" horiz-adv-x="600" d="M505 66 C505 66 505 66 505 66 C505 66 361 443 361 443 C361 443 514 745 514 745 C514 745 515 745 515 745 C515 745 572 798 572 798 C572 798 572 811 572 811 C572 811 548 811 548 811 C548 811 512 811 512 811 C512 811 476 811 476 811 C476 811 446 811 446 811 C446 811 446 798 446 798 C446 798 443 746 443 746 C443 746 330 523 330 523 C330 523 245 745 245 745 C245 745 250 798 250 798 C250 798 250 811 250 811 C250 811 220 811 220 811 C220 811 159 811 159 811 C159 811 97 811 97 811 C97 811 72 811 72 811 C72 811 72 798 72 798 C72 798 122 745 122 745 C122 745 122 745 122 745 C122 745 260 385 260 385 C260 385 98 66 98 66 C98 66 97 66 97 66 C97 66 41 13 41 13 C41 13 41 0 41 0 C41 0 64 0 64 0 C64 0 100 0 100 0 C100 0 136 0 136 0 C136 0 166 0 166 0 C166 0 166 13 166 13 C166 13 169 65 169 65 C169 65 291 304 291 304 C291 304 382 66 382 66 C382 66 377 13 377 13 C377 13 377 0 377 0 C377 0 407 0 407 0 C407 0 469 0 469 0 C469 0 530 0 530 0 C530 0 555 0 555 0 C555 0 555 13 555 13 C555 13 505 66 505 66 L505 66 Z " />
<glyph glyph-name="Y" unicode="Y" horiz-adv-x="571" d="M431 745 C431 745 432 745 432 745 C432 745 321 445 321 445 C321 445 205 746 205 746 C205 746 210 798 210 798 C209 798 209 803 210 810 C209 811 209 811 210 811 C210 811 180 811 180 811 C180 811 119 811 119 811 C119 811 59 811 59 811 C59 811 34 811 34 811 C34 811 34 798 34 798 C34 798 85 745 85 745 C85 745 233 369 233 369 C233 369 233 66 233 66 C233 66 203 13 203 13 C203 13 203 0 203 0 C203 0 233 0 233 0 C233 0 297 0 297 0 C297 0 361 0 361 0 C361 0 391 0 391 0 C391 0 391 13 391 13 C391 13 361 66 361 66 C361 66 361 384 361 384 C361 384 496 745 496 745 C496 745 497 745 497 745 C497 745 546 798 546 798 C547 798 547 803 546 809 C547 810 547 811 546 811 C546 811 521 811 521 811 C521 811 489 811 489 811 C489 811 456 811 456 811 C456 811 426 811 426 811 C425 811 425 811 426 810 C425 803 425 798 426 798 C426 798 431 745 431 745 L431 745 Z " />
<glyph glyph-name="Z" unicode="Z" horiz-adv-x="535" d="M490 28 C490 28 490 57 490 57 C490 57 490 87 490 87 C490 87 477 87 477 87 C477 87 424 57 424 57 C424 57 179 57 179 57 C179 57 490 754 490 754 C490 754 490 811 490 811 C490 811 60 811 60 811 C60 811 60 783 60 783 C60 783 60 754 60 754 C60 754 60 724 60 724 C60 724 73 724 73 724 C73 724 126 754 126 754 C126 754 355 754 355 754 C355 754 45 57 45 57 C45 57 45 0 45 0 C45 0 490 0 490 0 C490 0 490 28 490 28 L490 28 Z " />
<glyph glyph-name="bracketleft" unicode="&#x5b;" horiz-adv-x="282" d="M200 746 C200 746 252 746 252 746 C252 746 252 811 252 811 C252 811 200 811 200 811 C200 811 125 811 125 811 C125 811 125 -115 125 -115 C125 -115 200 -115 200 -115 C200 -115 252 -115 252 -115 C252 -115 252 -50 252 -50 C252 -50 200 -50 200 -50 C200 -50 200 746 200 746 L200 746 Z " />
<glyph glyph-name="backslash" unicode="&#x5c;" horiz-adv-x="340" d="M290 0 C290 0 340 0 340 0 C340 0 50 811 50 811 C50 811 0 811 0 811 C0 811 290 0 290 0 L290 0 Z " />
<glyph glyph-name="bracketright" unicode="&#x5d;" horiz-adv-x="282" d="M82 746 C82 746 82 -50 82 -50 C82 -50 30 -50 30 -50 C30 -50 30 -115 30 -115 C30 -115 82 -115 82 -115 C82 -115 157 -115 157 -115 C157 -115 157 811 157 811 C157 811 82 811 82 811 C82 811 30 811 30 811 C30 811 30 746 30 746 C30 746 82 746 82 746 L82 746 Z " />
<glyph glyph-name="underscore" unicode="&#x5f;" horiz-adv-x="560" d="M50 -135 C50 -135 510 -135 510 -135 C510 -135 510 -65 510 -65 C510 -65 50 -65 50 -65 C50 -65 50 -135 50 -135 L50 -135 Z " />
<glyph glyph-name="a" unicode="a" horiz-adv-x="430" d="M67 448 C67 448 124 429 124 429 C124 490 163 539 211 539 C227 539 240 502 240 429 C240 429 240 411 240 411 C240 324 197 285 143 280 C86 273 40 204 40 123 C40 49 75 -10 146 -10 C186 -10 220 14 241 70 C246 9 274 0 400 0 C400 0 400 85 400 85 C360 85 355 86 355 95 C355 95 355 380 355 380 C355 521 291 591 211 591 C131 591 67 527 67 448 L67 448 Z M240 274 C240 274 240 170 240 170 C234 72 203 33 165 33 C158 33 155 75 155 127 C155 188 166 238 180 240 C203 242 224 253 240 274 L240 274 Z " />
<glyph glyph-name="b" unicode="b" horiz-adv-x="479" d="M269 50 C223 50 185 137 185 291 C185 450 224 540 273 540 C291 540 305 429 305 291 C305 157 289 50 269 50 L269 50 Z M128 0 C128 0 185 0 185 0 C185 0 185 102 185 102 C209 29 249 -10 294 -10 C369 -10 430 124 430 291 C430 457 369 591 294 591 C249 591 209 552 185 479 C185 479 185 801 185 801 C185 801 185 811 185 811 C185 811 128 811 128 811 C128 811 70 811 70 811 C70 811 40 811 40 811 C40 811 40 798 40 798 C40 798 70 745 70 745 C70 745 70 66 70 66 C70 66 40 13 40 13 C40 13 40 0 40 0 C40 0 70 0 70 0 C70 0 128 0 128 0 L128 0 Z " />
<glyph glyph-name="c" unicode="c" horiz-adv-x="421" d="M336 156 C336 92 300 42 255 42 C211 42 175 132 175 291 C175 451 211 542 255 542 C310 542 337 483 337 409 C337 409 364 422 364 422 C364 422 364 422 364 422 C364 422 391 436 391 436 C391 436 391 466 391 466 C391 466 389 466 389 466 C383 512 362 551 326 573 C326 573 326 573 326 573 C326 573 326 573 326 573 C307 584 283 591 255 591 C141 591 50 482 50 291 C50 99 141 -10 255 -10 C331 -10 392 51 392 128 C392 128 336 156 336 156 L336 156 Z " />
<glyph glyph-name="d" unicode="d" horiz-adv-x="497" d="M50 291 C50 124 114 -10 195 -10 C243 -10 286 38 312 113 C312 113 312 10 312 10 C312 10 312 0 312 0 C312 0 370 0 370 0 C370 0 427 0 427 0 C427 0 457 0 457 0 C458 0 458 1 457 1 C458 8 458 13 457 13 C457 13 427 66 427 66 C427 66 427 801 427 801 C427 801 427 811 427 811 C427 811 370 811 370 811 C370 811 312 811 312 811 C312 811 282 811 282 811 C282 811 282 798 282 798 C282 798 312 745 312 745 C312 745 312 468 312 468 C286 543 243 591 195 591 C114 591 50 457 50 291 C50 291 50 291 50 291 L50 291 Z M312 291 C312 152 269 41 215 41 C193 41 175 152 175 291 C175 429 193 540 215 540 C269 540 312 429 312 291 L312 291 Z " />
<glyph glyph-name="e" unicode="e" horiz-adv-x="428" d="M340 152 C340 91 288 42 224 42 C198 42 177 123 175 267 C175 267 300 267 300 267 C300 267 415 267 415 267 C415 447 354 591 232 591 C131 591 50 482 50 291 C50 99 127 -10 224 -10 C321 -10 398 52 398 129 C398 129 340 152 340 152 L340 152 Z M299 311 C299 311 175 311 175 311 C177 459 201 542 232 542 C273 542 295 443 299 311 L299 311 Z " />
<glyph glyph-name="f" unicode="f" horiz-adv-x="356" d="M120 0 C120 0 177 0 177 0 C177 0 207 0 207 0 C207 0 207 13 207 13 C207 13 177 66 177 66 C177 66 177 532 177 532 C177 532 287 532 287 532 C287 532 287 581 287 581 C287 581 177 581 177 581 C177 581 177 654 177 654 C177 725 189 760 214 760 C214 760 221 760 221 760 C221 760 221 759 221 759 C221 759 274 729 274 729 C274 729 287 729 287 729 C287 729 287 759 287 759 C287 759 287 785 287 785 C287 785 287 811 287 811 C287 811 197 811 197 811 C107 811 62 759 62 654 C62 654 62 581 62 581 C62 581 30 581 30 581 C30 581 30 532 30 532 C30 532 62 532 62 532 C62 532 62 66 62 66 C62 66 32 13 32 13 C32 13 32 0 32 0 C32 0 62 0 62 0 C62 0 120 0 120 0 L120 0 Z " />
<glyph glyph-name="g" unicode="g" horiz-adv-x="487" d="M64 -69 C64 -144 143 -181 242 -181 C359 -181 417 -79 417 49 C417 49 417 515 417 515 C417 515 447 568 447 568 C448 568 448 573 447 580 C448 581 448 581 447 581 C447 581 417 581 417 581 C417 581 360 581 360 581 C360 581 302 581 302 581 C302 581 302 472 302 472 C277 544 236 591 190 591 C112 591 50 491 50 291 C50 97 112 0 190 0 C236 0 277 45 302 115 C302 115 302 0 302 0 C302 -72 280 -129 236 -129 C178 -129 132 -109 132 -69 C132 -69 64 -69 64 -69 L64 -69 Z M210 540 C261 540 302 429 302 291 C302 157 261 51 210 51 C191 51 175 131 175 291 C175 457 191 540 210 540 L210 540 Z " />
<glyph glyph-name="h" unicode="h" horiz-adv-x="464" d="M322 0 C322 0 380 0 380 0 C380 0 410 0 410 0 C410 0 410 13 410 13 C410 13 380 66 380 66 C380 66 380 376 380 376 C380 504 329 586 265 586 C239 586 216 559 200 516 C200 516 200 801 200 801 C200 801 200 811 200 811 C200 811 143 811 143 811 C143 811 114 811 114 811 C114 811 85 811 85 811 C85 811 55 811 55 811 C55 811 55 798 55 798 C55 798 85 745 85 745 C85 745 85 66 85 66 C85 66 55 13 55 13 C55 13 55 0 55 0 C55 0 85 0 85 0 C85 0 143 0 143 0 C143 0 200 0 200 0 C200 0 230 0 230 0 C230 0 230 13 230 13 C230 13 200 66 200 66 C200 66 200 381 200 381 C200 464 218 530 241 530 C254 530 265 470 265 376 C265 376 265 66 265 66 C265 66 235 13 235 13 C235 13 235 0 235 0 C235 0 265 0 265 0 C265 0 322 0 322 0 L322 0 Z " />
<glyph glyph-name="i" unicode="i" horiz-adv-x="284" d="M79 661 C79 661 204 661 204 661 C204 661 204 786 204 786 C204 786 79 786 79 786 C79 786 79 661 79 661 L79 661 Z M142 0 C142 0 199 0 199 0 C199 0 229 0 229 0 C229 0 229 13 229 13 C229 13 199 66 199 66 C199 66 199 571 199 571 C199 571 199 581 199 581 C199 581 142 581 142 581 C142 581 84 581 84 581 C84 581 55 581 55 581 C55 581 55 568 55 568 C55 568 84 515 84 515 C84 515 84 66 84 66 C84 66 55 13 55 13 C55 13 55 0 55 0 C55 0 84 0 84 0 C84 0 142 0 142 0 L142 0 Z " />
<glyph glyph-name="j" unicode="j" horiz-adv-x="179" d="M-11 661 C-11 661 114 661 114 661 C114 661 114 786 114 786 C114 786 -11 786 -11 786 C-11 786 -11 661 -11 661 L-11 661 Z M-40 -75 C-40 -75 -40 -127 -40 -127 C-40 -127 -39 -127 -39 -127 C68 -127 109 -92 109 0 C109 0 109 571 109 571 C109 571 109 581 109 581 C109 581 52 581 52 581 C52 581 -6 581 -6 581 C-6 581 -35 581 -35 581 C-35 581 -35 568 -35 568 C-35 568 -6 515 -6 515 C-6 515 -6 0 -6 0 C-6 -54 -20 -75 -56 -75 C-56 -75 -40 -75 -40 -75 L-40 -75 Z " />
<glyph glyph-name="k" unicode="k" horiz-adv-x="396" d="M365 66 C365 66 365 66 365 66 C365 66 254 396 254 396 C254 396 314 515 314 515 C314 515 314 515 314 515 C314 515 370 568 370 568 C370 568 370 581 370 581 C370 581 347 581 347 581 C347 581 327 581 327 581 C327 581 307 581 307 581 C307 581 277 581 277 581 C276 581 276 581 277 580 C276 573 276 568 277 568 C277 568 274 515 274 515 C274 515 274 515 274 515 C274 515 185 335 185 335 C185 335 185 801 185 801 C185 801 185 811 185 811 C185 811 128 811 128 811 C128 811 99 811 99 811 C99 811 70 811 70 811 C70 811 40 811 40 811 C40 811 40 798 40 798 C40 798 70 745 70 745 C70 745 70 66 70 66 C70 66 40 13 40 13 C40 13 40 0 40 0 C40 0 70 0 70 0 C70 0 128 0 128 0 C128 0 185 0 185 0 C185 0 215 0 215 0 C215 0 215 13 215 13 C215 13 185 66 185 66 C185 66 185 258 185 258 C185 258 232 352 232 352 C232 352 199 285 199 285 C199 285 261 0 261 0 C261 0 324 0 324 0 C324 0 387 0 387 0 C387 0 412 0 412 0 C412 0 412 13 412 13 C412 13 365 66 365 66 L365 66 Z " />
<glyph glyph-name="l" unicode="l" horiz-adv-x="314" d="M157 0 C157 0 214 0 214 0 C214 0 244 0 244 0 C244 0 244 13 244 13 C244 13 214 66 214 66 C214 66 214 801 214 801 C214 801 214 811 214 811 C214 811 157 811 157 811 C157 811 99 811 99 811 C99 811 69 811 69 811 C70 811 70 811 69 810 C70 803 70 798 69 798 C69 798 99 745 99 745 C99 745 99 66 99 66 C99 66 69 13 69 13 C70 13 70 8 69 1 C70 1 70 0 69 0 C69 0 99 0 99 0 C99 0 157 0 157 0 L157 0 Z " />
<glyph glyph-name="m" unicode="m" horiz-adv-x="628" d="M404 0 C404 0 433 0 433 0 C433 0 491 0 491 0 C491 0 548 0 548 0 C548 0 578 0 578 0 C578 0 578 13 578 13 C578 13 548 66 548 66 C548 66 548 376 548 376 C548 504 497 586 433 586 C402 586 375 541 362 475 C343 545 304 586 259 586 C235 586 214 561 200 521 C200 521 200 571 200 571 C200 571 200 581 200 581 C200 581 143 581 143 581 C143 581 114 581 114 581 C114 581 85 581 85 581 C85 581 55 581 55 581 C55 581 55 568 55 568 C55 568 85 515 85 515 C85 515 85 66 85 66 C85 66 55 13 55 13 C55 13 55 0 55 0 C55 0 85 0 85 0 C85 0 143 0 143 0 C143 0 200 0 200 0 C200 0 229 0 229 0 C229 0 230 0 230 0 C230 0 259 0 259 0 C259 0 316 0 316 0 C316 0 374 0 374 0 C374 0 404 0 404 0 L404 0 Z M404 13 C404 13 374 66 374 66 C374 66 374 376 374 376 C374 378 374 379 374 381 C374 381 374 381 374 381 C374 464 390 530 409 530 C423 530 433 470 433 376 C433 376 433 66 433 66 C433 66 404 13 404 13 L404 13 Z M230 14 C230 14 200 66 200 66 C200 66 200 381 200 381 C200 464 215 530 235 530 C248 530 259 470 259 376 C259 376 259 66 259 66 C259 66 230 14 230 14 L230 14 Z " />
<glyph glyph-name="n" unicode="n" horiz-adv-x="446" d="M309 0 C309 0 367 0 367 0 C367 0 397 0 397 0 C397 0 397 13 397 13 C397 13 367 66 367 66 C367 66 367 376 367 376 C367 504 316 586 252 586 C226 586 203 559 187 516 C187 516 187 571 187 571 C187 571 187 581 187 581 C187 581 130 581 130 581 C130 581 101 581 101 581 C101 581 72 581 72 581 C72 581 42 581 42 581 C42 581 42 568 42 568 C42 568 72 515 72 515 C72 515 72 66 72 66 C72 66 42 13 42 13 C42 13 42 0 42 0 C42 0 72 0 72 0 C72 0 130 0 130 0 C130 0 187 0 187 0 C187 0 217 0 217 0 C217 0 217 13 217 13 C217 13 187 66 187 66 C187 66 187 381 187 381 C187 464 205 530 228 530 C241 530 252 470 252 376 C252 376 252 66 252 66 C252 66 222 13 222 13 C222 13 222 0 222 0 C222 0 252 0 252 0 C252 0 309 0 309 0 L309 0 Z " />
<glyph glyph-name="o" unicode="o" horiz-adv-x="457" d="M222 36 C184 36 162 149 162 291 C162 453 189 545 222 545 C260 545 282 432 282 291 C282 128 255 36 222 36 L222 36 Z M37 291 C37 124 104 -10 222 -10 C325 -10 407 99 407 291 C407 457 340 591 222 591 C119 591 37 482 37 291 L37 291 Z " />
<glyph glyph-name="p" unicode="p" horiz-adv-x="481" d="M275 41 C226 41 187 131 187 291 C187 450 226 540 275 540 C292 540 306 429 306 291 C306 152 292 41 275 41 L275 41 Z M130 -155 C130 -155 187 -155 187 -155 C187 -155 217 -155 217 -155 C217 -155 217 -142 217 -142 C217 -142 187 -89 187 -89 C187 -89 187 102 187 102 C211 29 251 -10 296 -10 C371 -10 431 124 431 291 C431 457 371 591 296 591 C251 591 211 552 187 479 C187 479 187 571 187 571 C187 571 187 581 187 581 C187 581 130 581 130 581 C130 581 101 581 101 581 C101 581 72 581 72 581 C72 581 42 581 42 581 C42 581 42 568 42 568 C42 568 72 515 72 515 C72 515 72 -89 72 -89 C72 -89 42 -142 42 -142 C42 -142 42 -155 42 -155 C42 -155 72 -155 72 -155 C72 -155 130 -155 130 -155 L130 -155 Z " />
<glyph glyph-name="q" unicode="q" horiz-adv-x="512" d="M50 291 C50 124 114 -10 195 -10 C243 -10 286 38 312 113 C312 113 312 -89 312 -89 C312 -89 282 -142 282 -142 C282 -142 282 -155 282 -155 C282 -155 312 -155 312 -155 C312 -155 370 -155 370 -155 C370 -155 427 -155 427 -155 C427 -155 457 -155 457 -155 C458 -155 458 -154 457 -154 C458 -147 458 -142 457 -142 C457 -142 427 -89 427 -89 C427 -89 427 515 427 515 C427 515 457 568 457 568 C458 568 458 573 457 580 C458 581 458 581 457 581 C457 581 427 581 427 581 C427 581 370 581 370 581 C370 581 312 581 312 581 C312 581 312 468 312 468 C286 543 243 591 195 591 C114 591 50 457 50 291 C50 291 50 291 50 291 L50 291 Z M312 291 C312 152 269 41 215 41 C193 41 175 152 175 291 C175 429 193 540 215 540 C269 540 312 429 312 291 L312 291 Z " />
<glyph glyph-name="r" unicode="r" horiz-adv-x="286" d="M266 513 C266 513 266 581 266 581 C266 581 262 581 262 581 C235 581 214 549 200 497 C200 497 200 571 200 571 C200 571 200 581 200 581 C200 581 143 581 143 581 C143 581 114 581 114 581 C114 581 85 581 85 581 C85 581 55 581 55 581 C55 581 55 568 55 568 C55 568 85 515 85 515 C85 515 85 66 85 66 C85 66 55 13 55 13 C55 13 55 0 55 0 C55 0 85 0 85 0 C85 0 143 0 143 0 C143 0 200 0 200 0 C200 0 230 0 230 0 C230 0 230 13 230 13 C230 13 200 66 200 66 C200 66 200 291 200 291 C200 414 219 513 256 513 C256 513 266 513 266 513 L266 513 Z " />
<glyph glyph-name="s" unicode="s" horiz-adv-x="393" d="M43 105 C59 42 126 -5 208 -5 C294 -5 363 68 363 159 C363 223 306 301 217 342 C187 355 168 394 168 432 C168 492 181 540 198 540 C247 540 286 487 286 421 C286 421 312 432 312 432 C312 432 312 432 312 432 C312 432 338 444 338 444 C338 444 335 474 335 474 C335 474 335 474 335 474 C327 512 304 545 272 565 C272 565 272 565 272 565 C272 565 272 565 272 565 C251 578 225 586 198 586 C121 586 59 513 59 422 C59 354 110 276 190 239 C226 223 249 184 249 149 C249 91 231 44 208 44 C146 44 96 94 96 156 C96 156 39 135 39 135 C39 135 43 105 43 105 C43 105 43 105 43 105 L43 105 Z " />
<glyph glyph-name="t" unicode="t" horiz-adv-x="225" d="M195 581 C195 581 151 581 151 581 C151 581 151 828 151 828 C151 828 36 732 36 732 C36 732 36 581 36 581 C36 581 10 581 10 581 C10 581 10 532 10 532 C10 532 36 532 36 532 C36 532 36 145 36 145 C36 44 45 0 115 0 C115 0 195 0 195 0 C195 0 195 51 195 51 C195 51 143 51 143 51 C150 51 151 80 151 145 C151 145 151 532 151 532 C151 532 195 532 195 532 C195 532 195 581 195 581 L195 581 Z " />
<glyph glyph-name="u" unicode="u" horiz-adv-x="462" d="M378 66 C378 66 378 581 378 581 C378 581 320 581 320 581 C320 581 263 581 263 581 C263 581 233 581 233 581 C233 581 233 568 233 568 C233 568 263 515 263 515 C263 515 263 146 263 146 C263 91 234 47 198 47 C196 47 195 107 195 200 C195 200 195 581 195 581 C195 581 138 581 138 581 C138 581 80 581 80 581 C80 581 50 581 50 581 C50 581 50 568 50 568 C50 568 80 515 80 515 C80 515 80 200 80 200 C80 72 107 -10 179 -10 C214 -10 245 18 263 61 C263 61 263 10 263 10 C263 10 263 0 263 0 C263 0 320 0 320 0 C320 0 378 0 378 0 C378 0 408 0 408 0 C408 0 408 13 408 13 C408 13 378 66 378 66 L378 66 Z " />
<glyph glyph-name="v" unicode="v" horiz-adv-x="421" d="M347 515 C347 515 388 568 388 568 C387 568 387 573 388 579 C387 580 387 581 388 581 C388 581 360 581 360 581 C360 581 325 581 325 581 C325 581 289 581 289 581 C289 581 259 581 259 581 C260 581 260 581 259 580 C260 573 260 568 259 568 C259 568 278 517 278 517 C278 517 215 135 215 135 C215 135 163 515 163 515 C163 515 184 568 184 568 C184 568 184 581 184 581 C184 581 154 581 154 581 C154 581 89 581 89 581 C89 581 24 581 24 581 C24 581 -3 581 -3 581 C-3 581 -3 568 -3 568 C-3 568 36 516 36 516 C36 516 134 0 134 0 C134 0 193 0 193 0 C193 0 234 0 234 0 C234 0 248 0 248 0 C248 0 347 515 347 515 L347 515 Z " />
<glyph glyph-name="w" unicode="w" horiz-adv-x="683" d="M544 515 C544 515 545 515 545 515 C545 515 477 80 477 80 C477 80 404 341 404 341 C404 341 356 341 356 341 C356 341 304 341 304 341 C304 341 301 341 301 341 C301 341 231 89 231 89 C231 89 178 515 178 515 C178 515 179 515 179 515 C179 515 200 568 200 568 C200 568 200 581 200 581 C200 581 170 581 170 581 C170 581 109 581 109 581 C109 581 48 581 48 581 C48 581 21 581 21 581 C21 581 21 568 21 568 C21 568 60 515 60 515 C60 515 152 0 152 0 C152 0 206 0 206 0 C206 0 242 0 242 0 C242 0 255 0 255 0 C255 0 331 255 331 255 C331 255 409 0 409 0 C409 0 464 0 464 0 C464 0 499 0 499 0 C499 0 513 0 513 0 C513 0 609 515 609 515 C609 515 609 515 609 515 C609 515 649 568 649 568 C648 568 648 573 649 579 C648 580 648 581 649 581 C649 581 621 581 621 581 C621 581 588 581 588 581 C588 581 555 581 555 581 C555 581 525 581 525 581 C525 581 525 568 525 568 C525 568 544 515 544 515 L544 515 Z " />
<glyph glyph-name="x" unicode="x" horiz-adv-x="441" d="M261 515 C261 515 261 515 261 515 C261 515 224 434 224 434 C224 434 190 516 190 516 C190 516 193 568 193 568 C193 568 193 581 193 581 C193 581 163 581 163 581 C163 581 101 581 101 581 C101 581 39 581 39 581 C39 581 14 581 14 581 C15 581 15 580 14 579 C15 573 15 568 14 568 C14 568 66 515 66 515 C66 515 66 515 66 515 C66 515 158 293 158 293 C158 293 52 66 52 66 C52 66 51 66 51 66 C51 66 -3 13 -3 13 C-3 13 -3 0 -3 0 C-3 0 21 0 21 0 C21 0 55 0 55 0 C55 0 88 0 88 0 C88 0 118 0 118 0 C118 0 118 13 118 13 C118 13 119 66 119 66 C119 66 119 66 119 66 C119 66 189 217 189 217 C189 217 252 65 252 65 C252 65 249 13 249 13 C249 13 249 0 249 0 C249 0 279 0 279 0 C279 0 341 0 341 0 C341 0 403 0 403 0 C403 0 428 0 428 0 C428 0 428 13 428 13 C428 13 376 66 376 66 C376 66 376 66 376 66 C376 66 255 358 255 358 C255 358 328 515 328 515 C328 515 329 515 329 515 C329 515 383 568 383 568 C383 568 383 581 383 581 C383 581 359 581 359 581 C359 581 325 581 325 581 C325 581 292 581 292 581 C292 581 262 581 262 581 C261 581 261 581 262 580 C261 573 261 568 262 568 C262 568 261 515 261 515 L261 515 Z " />
<glyph glyph-name="y" unicode="y" horiz-adv-x="412" d="M50 515 C50 515 51 515 51 515 C51 515 180 -26 180 -26 C180 -26 174 -55 174 -55 C160 -121 145 -146 120 -146 C120 -146 70 -146 70 -146 C70 -146 70 -200 70 -200 C70 -200 120 -200 120 -200 C175 -200 204 -166 223 -79 C223 -79 354 515 354 515 C354 515 355 515 355 515 C355 515 396 568 396 568 C396 568 396 581 396 581 C396 581 369 581 369 581 C369 581 334 581 334 581 C334 581 298 581 298 581 C298 581 269 581 269 581 C269 581 269 568 269 568 C269 568 285 517 285 517 C285 517 217 166 217 166 C217 166 173 516 173 516 C173 516 194 568 194 568 C194 568 194 581 194 581 C194 581 165 581 165 581 C165 581 100 581 100 581 C100 581 35 581 35 581 C35 581 8 581 8 581 C8 581 8 568 8 568 C8 568 50 515 50 515 L50 515 Z " />
<glyph glyph-name="z" unicode="z" horiz-adv-x="340" d="M45 581 C45 581 45 557 45 557 C45 557 45 532 45 532 C45 532 45 502 45 502 C45 502 58 502 58 502 C58 502 111 532 111 532 C111 532 166 532 166 532 C166 532 30 38 30 38 C30 38 30 0 30 0 C30 0 320 0 320 0 C320 0 320 24 320 24 C320 24 320 49 320 49 C320 49 320 79 320 79 C320 79 307 79 307 79 C307 79 254 49 254 49 C254 49 161 49 161 49 C161 49 164 50 164 50 C164 50 304 543 304 543 C304 543 304 581 304 581 C304 581 45 581 45 581 L45 581 Z " />
<glyph glyph-name="braceleft" unicode="&#x7b;" horiz-adv-x="263" d="M234 811 C234 811 206 811 206 811 C161 811 125 771 125 721 C125 721 125 437 125 437 C125 403 96 376 59 376 C59 376 55 376 55 376 C55 376 55 321 55 321 C55 321 59 321 59 321 C96 321 125 294 125 259 C125 259 125 -25 125 -25 C125 -75 161 -115 206 -115 C206 -115 234 -115 234 -115 C234 -115 234 -50 234 -50 C234 -50 206 -50 206 -50 C202 -50 200 -39 200 -25 C200 -25 200 245 200 245 C200 288 171 333 134 348 C171 363 200 408 200 451 C200 451 200 721 200 721 C200 735 202 746 206 746 C206 746 234 746 234 746 C234 746 234 811 234 811 L234 811 Z " />
<glyph glyph-name="bar" unicode="&#x7c;" horiz-adv-x="165" d="M45 861 C45 861 45 -250 45 -250 C45 -250 120 -250 120 -250 C120 -250 120 861 120 861 C120 861 45 861 45 861 L45 861 Z " />
<glyph glyph-name="braceright" unicode="&#x7d;" horiz-adv-x="263" d="M30 811 C30 811 58 811 58 811 C103 811 138 771 138 721 C138 721 138 437 138 437 C138 403 168 376 205 376 C205 376 209 376 209 376 C209 376 209 321 209 321 C209 321 205 321 205 321 C168 321 138 294 138 259 C138 259 138 -25 138 -25 C138 -75 103 -115 58 -115 C58 -115 30 -115 30 -115 C30 -115 30 -50 30 -50 C30 -50 58 -50 58 -50 C61 -50 63 -39 63 -25 C63 -25 64 245 64 245 C64 288 92 333 130 348 C92 363 64 408 64 451 C64 451 63 570 63 721 C63 735 61 746 58 746 C58 746 30 746 30 746 C30 746 30 811 30 811 L30 811 Z " />
<glyph glyph-name="[namenotfound]" unicode="&#xa0;" horiz-adv-x="88" d="" />
<glyph glyph-name="exclamdown" unicode="&#xa1;" horiz-adv-x="225" d="M175 581 C175 581 50 581 50 581 C50 581 50 456 50 456 C50 456 175 456 175 456 C175 456 175 581 175 581 L175 581 Z M180 -230 C180 -230 180 105 180 105 C180 105 130 371 130 371 C130 371 95 371 95 371 C95 371 45 105 45 105 C45 105 45 -230 45 -230 C45 -230 180 -230 180 -230 L180 -230 Z " />
<glyph glyph-name="cent" unicode="&#xa2;" horiz-adv-x="417" d="M216 656 C216 656 216 587 216 587 C121 566 50 461 50 291 C50 120 121 15 216 -6 C216 -6 216 -75 216 -75 C216 -75 291 -75 291 -75 C291 -75 291 -5 291 -5 C347 12 388 65 388 128 C388 128 332 156 332 156 C332 112 316 75 291 56 C291 56 291 378 291 378 C304 358 324 345 347 345 C378 345 396 381 387 426 C374 500 340 562 291 583 C291 583 291 656 291 656 C291 656 216 656 216 656 L216 656 Z M216 68 C192 105 175 181 175 291 C175 401 192 479 216 516 C216 516 216 68 216 68 L216 68 Z M291 516 C295 510 299 504 302 497 C298 493 294 488 291 483 C291 483 291 516 291 516 L291 516 Z " />
<glyph glyph-name="guillemotleft" unicode="&#xab;" horiz-adv-x="397" d="M227 525 C227 525 171 291 171 291 C171 291 227 56 227 56 C227 56 327 56 327 56 C327 56 271 291 271 291 C271 291 327 525 327 525 C327 525 227 525 227 525 L227 525 Z M126 525 C126 525 70 291 70 291 C70 291 126 56 126 56 C126 56 226 56 226 56 C226 56 170 291 170 291 C170 291 226 525 226 525 C226 525 126 525 126 525 L126 525 Z " />
<glyph glyph-name="logicalnot" unicode="&#xac;" horiz-adv-x="342" d="M293 109 C293 109 293 259 293 259 C293 259 293 310 293 310 C293 310 230 310 230 310 C230 310 50 310 50 310 C50 310 50 259 50 259 C50 259 230 259 230 259 C230 259 230 109 230 109 C230 109 293 109 293 109 L293 109 Z " />
<glyph glyph-name="periodcentered" unicode="&#xb7;" horiz-adv-x="225" d="M50 228 C50 228 175 228 175 228 C175 228 175 353 175 353 C175 353 50 353 50 353 C50 353 50 228 50 228 L50 228 Z " />
<glyph glyph-name="guillemotright" unicode="&#xbb;" horiz-adv-x="379" d="M153 525 C153 525 209 291 209 291 C209 291 153 56 153 56 C153 56 253 56 253 56 C253 56 309 291 309 291 C309 291 253 525 253 525 C253 525 153 525 153 525 L153 525 Z M52 525 C52 525 108 291 108 291 C108 291 52 56 52 56 C52 56 152 56 152 56 C152 56 208 291 208 291 C208 291 152 525 152 525 C152 525 52 525 52 525 L52 525 Z " />
<glyph glyph-name="questiondown" unicode="&#xbf;" horiz-adv-x="430" d="M288 581 C288 581 163 581 163 581 C163 581 163 456 163 456 C163 456 288 456 288 456 C288 456 288 581 288 581 L288 581 Z M415 -24 C415 -24 305 -5 305 -5 C298 -85 259 -150 218 -150 C183 -150 155 -92 155 -20 C155 30 177 70 219 100 C267 134 281 194 281 371 C281 371 171 371 171 371 C171 237 163 193 139 175 C70 126 35 62 35 -20 C35 -142 117 -240 218 -240 C317 -240 405 -144 415 -24 L415 -24 Z " />
<glyph glyph-name="Agrave" unicode="&#xc0;" horiz-adv-x="649" d="M283 891 C283 891 388 891 388 891 C388 891 381 1041 381 1041 C381 1041 231 1041 231 1041 C231 1041 283 891 283 891 L283 891 Z M606 66 C606 66 606 66 606 66 C606 66 398 811 398 811 C398 811 330 811 330 811 C330 811 297 811 297 811 C297 811 273 811 273 811 C273 811 263 811 263 811 C263 811 233 811 233 811 C234 811 234 811 233 810 C234 803 234 798 233 798 C233 798 245 745 245 745 C245 745 245 745 245 745 C245 745 60 66 60 66 C60 66 15 13 15 13 C15 13 15 0 15 0 C15 0 42 0 42 0 C42 0 76 0 76 0 C76 0 111 0 111 0 C111 0 141 0 141 0 C141 0 141 13 141 13 C141 13 129 66 129 66 C129 66 129 66 129 66 C129 66 302 707 302 707 C302 707 423 269 423 269 C423 269 184 269 184 269 C184 269 169 214 169 214 C169 214 438 214 438 214 C438 214 479 66 479 66 C479 66 467 13 467 13 C467 13 467 0 467 0 C467 0 497 0 497 0 C497 0 561 0 561 0 C561 0 624 0 624 0 C624 0 651 0 651 0 C651 0 651 13 651 13 C651 13 606 66 606 66 L606 66 Z " />
<glyph glyph-name="Aacute" unicode="&#xc1;" horiz-adv-x="649" d="M283 891 C283 891 388 891 388 891 C388 891 441 1041 441 1041 C441 1041 291 1041 291 1041 C291 1041 283 891 283 891 L283 891 Z M606 66 C606 66 606 66 606 66 C606 66 398 811 398 811 C398 811 330 811 330 811 C330 811 297 811 297 811 C297 811 273 811 273 811 C273 811 263 811 263 811 C263 811 233 811 233 811 C234 811 234 811 233 810 C234 803 234 798 233 798 C233 798 245 745 245 745 C245 745 245 745 245 745 C245 745 60 66 60 66 C60 66 15 13 15 13 C15 13 15 0 15 0 C15 0 42 0 42 0 C42 0 76 0 76 0 C76 0 111 0 111 0 C111 0 141 0 141 0 C141 0 141 13 141 13 C141 13 129 66 129 66 C129 66 129 66 129 66 C129 66 302 707 302 707 C302 707 423 269 423 269 C423 269 184 269 184 269 C184 269 169 214 169 214 C169 214 438 214 438 214 C438 214 479 66 479 66 C479 66 467 13 467 13 C467 13 467 0 467 0 C467 0 497 0 497 0 C497 0 561 0 561 0 C561 0 624 0 624 0 C624 0 651 0 651 0 C651 0 651 13 651 13 C651 13 606 66 606 66 L606 66 Z " />
<glyph glyph-name="Acircumflex" unicode="&#xc2;" horiz-adv-x="649" d="M336 951 C336 951 362 891 362 891 C362 891 467 891 467 891 C467 891 394 1041 394 1041 C394 1041 278 1041 278 1041 C278 1041 205 891 205 891 C205 891 310 891 310 891 C310 891 336 951 336 951 L336 951 Z M606 66 C606 66 606 66 606 66 C606 66 398 811 398 811 C398 811 330 811 330 811 C330 811 297 811 297 811 C297 811 273 811 273 811 C273 811 263 811 263 811 C263 811 233 811 233 811 C234 811 234 811 233 810 C234 803 234 798 233 798 C233 798 245 745 245 745 C245 745 245 745 245 745 C245 745 60 66 60 66 C60 66 15 13 15 13 C15 13 15 0 15 0 C15 0 42 0 42 0 C42 0 76 0 76 0 C76 0 111 0 111 0 C111 0 141 0 141 0 C141 0 141 13 141 13 C141 13 129 66 129 66 C129 66 129 66 129 66 C129 66 302 707 302 707 C302 707 423 269 423 269 C423 269 184 269 184 269 C184 269 169 214 169 214 C169 214 438 214 438 214 C438 214 479 66 479 66 C479 66 467 13 467 13 C467 13 467 0 467 0 C467 0 497 0 497 0 C497 0 561 0 561 0 C561 0 624 0 624 0 C624 0 651 0 651 0 C651 0 651 13 651 13 C651 13 606 66 606 66 L606 66 Z " />
<glyph glyph-name="Atilde" unicode="&#xc3;" horiz-adv-x="649" d="M304 891 C304 930 310 961 317 961 C363 961 290 881 363 881 C413 881 453 952 453 1041 C453 1041 368 1041 368 1041 C368 1002 362 971 355 971 C308 971 382 1051 309 1051 C259 1051 219 980 219 891 C219 891 304 891 304 891 L304 891 Z M606 66 C606 66 606 66 606 66 C606 66 398 811 398 811 C398 811 330 811 330 811 C330 811 297 811 297 811 C297 811 273 811 273 811 C273 811 263 811 263 811 C263 811 233 811 233 811 C234 811 234 811 233 810 C234 803 234 798 233 798 C233 798 245 745 245 745 C245 745 245 745 245 745 C245 745 60 66 60 66 C60 66 15 13 15 13 C15 13 15 0 15 0 C15 0 42 0 42 0 C42 0 76 0 76 0 C76 0 111 0 111 0 C111 0 141 0 141 0 C141 0 141 13 141 13 C141 13 129 66 129 66 C129 66 129 66 129 66 C129 66 302 707 302 707 C302 707 423 269 423 269 C423 269 184 269 184 269 C184 269 169 214 169 214 C169 214 438 214 438 214 C438 214 479 66 479 66 C479 66 467 13 467 13 C467 13 467 0 467 0 C467 0 497 0 497 0 C497 0 561 0 561 0 C561 0 624 0 624 0 C624 0 651 0 651 0 C651 0 651 13 651 13 C651 13 606 66 606 66 L606 66 Z " />
<glyph glyph-name="Adieresis" unicode="&#xc4;" horiz-adv-x="649" d="M342 891 C342 891 467 891 467 891 C467 891 467 1016 467 1016 C467 1016 342 1016 342 1016 C342 1016 342 891 342 891 L342 891 Z M205 891 C205 891 330 891 330 891 C330 891 330 1016 330 1016 C330 1016 205 1016 205 1016 C205 1016 205 891 205 891 L205 891 Z M606 66 C606 66 606 66 606 66 C606 66 398 811 398 811 C398 811 330 811 330 811 C330 811 297 811 297 811 C297 811 273 811 273 811 C273 811 263 811 263 811 C263 811 233 811 233 811 C234 811 234 811 233 810 C234 803 234 798 233 798 C233 798 245 745 245 745 C245 745 245 745 245 745 C245 745 60 66 60 66 C60 66 15 13 15 13 C15 13 15 0 15 0 C15 0 42 0 42 0 C42 0 76 0 76 0 C76 0 111 0 111 0 C111 0 141 0 141 0 C141 0 141 13 141 13 C141 13 129 66 129 66 C129 66 129 66 129 66 C129 66 302 707 302 707 C302 707 423 269 423 269 C423 269 184 269 184 269 C184 269 169 214 169 214 C169 214 438 214 438 214 C438 214 479 66 479 66 C479 66 467 13 467 13 C467 13 467 0 467 0 C467 0 497 0 497 0 C497 0 561 0 561 0 C561 0 624 0 624 0 C624 0 651 0 651 0 C651 0 651 13 651 13 C651 13 606 66 606 66 L606 66 Z " />
<glyph glyph-name="Aring" unicode="&#xc5;" horiz-adv-x="649" d="M336 944 C318 944 307 956 307 976 C307 995 319 1008 336 1008 C353 1008 365 995 365 976 C365 956 354 944 336 944 L336 944 Z M250 976 C250 924 283 891 336 891 C389 891 422 924 422 976 C422 1026 386 1061 336 1061 C286 1061 250 1026 250 976 L250 976 Z M606 66 C606 66 606 66 606 66 C606 66 398 811 398 811 C398 811 330 811 330 811 C330 811 297 811 297 811 C297 811 273 811 273 811 C273 811 263 811 263 811 C263 811 233 811 233 811 C234 811 234 811 233 810 C234 803 234 798 233 798 C233 798 245 745 245 745 C245 745 245 745 245 745 C245 745 60 66 60 66 C60 66 15 13 15 13 C15 13 15 0 15 0 C15 0 42 0 42 0 C42 0 76 0 76 0 C76 0 111 0 111 0 C111 0 141 0 141 0 C141 0 141 13 141 13 C141 13 129 66 129 66 C129 66 129 66 129 66 C129 66 302 707 302 707 C302 707 423 269 423 269 C423 269 184 269 184 269 C184 269 169 214 169 214 C169 214 438 214 438 214 C438 214 479 66 479 66 C479 66 467 13 467 13 C467 13 467 0 467 0 C467 0 497 0 497 0 C497 0 561 0 561 0 C561 0 624 0 624 0 C624 0 651 0 651 0 C651 0 651 13 651 13 C651 13 606 66 606 66 L606 66 Z " />
<glyph glyph-name="Ccedilla" unicode="&#xc7;" horiz-adv-x="583" d="M512 205 C512 117 440 47 351 47 C261 47 189 226 189 406 C189 585 261 764 351 764 C440 764 512 694 512 606 C512 606 538 628 538 628 C538 628 538 627 538 627 C538 627 563 649 563 649 C563 649 563 679 563 679 C563 679 560 679 560 679 C552 715 530 748 499 773 C498 774 498 774 498 774 C498 774 498 774 498 774 C460 803 408 821 351 821 C185 821 52 613 52 406 C52 223 155 40 293 -1 C293 -1 265 -102 265 -102 C265 -102 284 -113 284 -113 C284 -113 287 -103 287 -103 C288 -111 289 -127 289 -146 C289 -170 287 -190 283 -194 C285 -191 283 -177 277 -161 C277 -161 253 -180 253 -180 C267 -219 281 -250 285 -250 C323 -250 354 -204 354 -146 C354 -105 329 -72 296 -68 C296 -68 313 -6 313 -6 C325 -9 338 -10 351 -10 C469 -10 563 67 563 162 C563 162 512 205 512 205 L512 205 Z " />
<glyph glyph-name="Egrave" unicode="&#xc8;" horiz-adv-x="535" d="M234 891 C234 891 339 891 339 891 C339 891 331 1041 331 1041 C331 1041 181 1041 181 1041 C181 1041 234 891 234 891 L234 891 Z M485 28 C485 28 485 57 485 57 C485 57 485 87 485 87 C485 87 472 87 472 87 C472 87 419 57 419 57 C419 57 230 57 230 57 C230 57 230 373 230 373 C230 373 384 373 384 373 C384 373 437 343 437 343 C437 343 450 343 450 343 C450 343 450 373 450 373 C450 373 450 401 450 401 C450 401 450 428 450 428 C450 428 450 458 450 458 C450 458 437 458 437 458 C437 458 384 428 384 428 C384 428 230 428 230 428 C230 428 230 754 230 754 C230 754 404 754 404 754 C404 754 457 724 457 724 C457 724 470 724 470 724 C470 724 470 754 470 754 C470 754 470 783 470 783 C470 783 470 811 470 811 C470 811 230 811 230 811 C230 811 229 811 229 811 C229 811 166 811 166 811 C166 811 102 811 102 811 C102 811 72 811 72 811 C72 811 72 798 72 798 C72 798 102 745 102 745 C102 745 102 66 102 66 C102 66 72 13 72 13 C72 13 72 0 72 0 C72 0 102 0 102 0 C102 0 166 0 166 0 C166 0 229 0 229 0 C229 0 230 0 230 0 C230 0 485 0 485 0 C485 0 485 28 485 28 L485 28 Z " />
<glyph glyph-name="Eacute" unicode="&#xc9;" horiz-adv-x="535" d="M234 891 C234 891 339 891 339 891 C339 891 391 1041 391 1041 C391 1041 241 1041 241 1041 C241 1041 234 891 234 891 L234 891 Z M485 28 C485 28 485 57 485 57 C485 57 485 87 485 87 C485 87 472 87 472 87 C472 87 419 57 419 57 C419 57 230 57 230 57 C230 57 230 373 230 373 C230 373 384 373 384 373 C384 373 437 343 437 343 C437 343 450 343 450 343 C450 343 450 373 450 373 C450 373 450 401 450 401 C450 401 450 428 450 428 C450 428 450 458 450 458 C450 458 437 458 437 458 C437 458 384 428 384 428 C384 428 230 428 230 428 C230 428 230 754 230 754 C230 754 404 754 404 754 C404 754 457 724 457 724 C457 724 470 724 470 724 C470 724 470 754 470 754 C470 754 470 783 470 783 C470 783 470 811 470 811 C470 811 230 811 230 811 C230 811 229 811 229 811 C229 811 166 811 166 811 C166 811 102 811 102 811 C102 811 72 811 72 811 C72 811 72 798 72 798 C72 798 102 745 102 745 C102 745 102 66 102 66 C102 66 72 13 72 13 C72 13 72 0 72 0 C72 0 102 0 102 0 C102 0 166 0 166 0 C166 0 229 0 229 0 C229 0 230 0 230 0 C230 0 485 0 485 0 C485 0 485 28 485 28 L485 28 Z " />
<glyph glyph-name="Ecircumflex" unicode="&#xca;" horiz-adv-x="535" d="M286 951 C286 951 312 891 312 891 C312 891 417 891 417 891 C417 891 344 1041 344 1041 C344 1041 228 1041 228 1041 C228 1041 155 891 155 891 C155 891 260 891 260 891 C260 891 286 951 286 951 L286 951 Z M485 28 C485 28 485 57 485 57 C485 57 485 87 485 87 C485 87 472 87 472 87 C472 87 419 57 419 57 C419 57 230 57 230 57 C230 57 230 373 230 373 C230 373 384 373 384 373 C384 373 437 343 437 343 C437 343 450 343 450 343 C450 343 450 373 450 373 C450 373 450 401 450 401 C450 401 450 428 450 428 C450 428 450 458 450 458 C450 458 437 458 437 458 C437 458 384 428 384 428 C384 428 230 428 230 428 C230 428 230 754 230 754 C230 754 404 754 404 754 C404 754 457 724 457 724 C457 724 470 724 470 724 C470 724 470 754 470 754 C470 754 470 783 470 783 C470 783 470 811 470 811 C470 811 230 811 230 811 C230 811 229 811 229 811 C229 811 166 811 166 811 C166 811 102 811 102 811 C102 811 72 811 72 811 C72 811 72 798 72 798 C72 798 102 745 102 745 C102 745 102 66 102 66 C102 66 72 13 72 13 C72 13 72 0 72 0 C72 0 102 0 102 0 C102 0 166 0 166 0 C166 0 229 0 229 0 C229 0 230 0 230 0 C230 0 485 0 485 0 C485 0 485 28 485 28 L485 28 Z " />
<glyph glyph-name="Edieresis" unicode="&#xcb;" horiz-adv-x="535" d="M292 891 C292 891 417 891 417 891 C417 891 417 1016 417 1016 C417 1016 292 1016 292 1016 C292 1016 292 891 292 891 L292 891 Z M155 891 C155 891 280 891 280 891 C280 891 280 1016 280 1016 C280 1016 155 1016 155 1016 C155 1016 155 891 155 891 L155 891 Z M485 28 C485 28 485 57 485 57 C485 57 485 87 485 87 C485 87 472 87 472 87 C472 87 419 57 419 57 C419 57 230 57 230 57 C230 57 230 373 230 373 C230 373 384 373 384 373 C384 373 437 343 437 343 C437 343 450 343 450 343 C450 343 450 373 450 373 C450 373 450 401 450 401 C450 401 450 428 450 428 C450 428 450 458 450 458 C450 458 437 458 437 458 C437 458 384 428 384 428 C384 428 230 428 230 428 C230 428 230 754 230 754 C230 754 404 754 404 754 C404 754 457 724 457 724 C457 724 470 724 470 724 C470 724 470 754 470 754 C470 754 470 783 470 783 C470 783 470 811 470 811 C470 811 230 811 230 811 C230 811 229 811 229 811 C229 811 166 811 166 811 C166 811 102 811 102 811 C102 811 72 811 72 811 C72 811 72 798 72 798 C72 798 102 745 102 745 C102 745 102 66 102 66 C102 66 72 13 72 13 C72 13 72 0 72 0 C72 0 102 0 102 0 C102 0 166 0 166 0 C166 0 229 0 229 0 C229 0 230 0 230 0 C230 0 485 0 485 0 C485 0 485 28 485 28 L485 28 Z " />
<glyph glyph-name="Igrave" unicode="&#xcc;" horiz-adv-x="331" d="M114 891 C114 891 219 891 219 891 C219 891 212 1041 212 1041 C212 1041 62 1041 62 1041 C62 1041 114 891 114 891 L114 891 Z M167 0 C167 0 231 0 231 0 C231 0 261 0 261 0 C261 0 261 13 261 13 C261 13 231 66 231 66 C231 66 231 745 231 745 C231 745 261 798 261 798 C261 798 261 811 261 811 C261 811 231 811 231 811 C231 811 167 811 167 811 C167 811 103 811 103 811 C103 811 73 811 73 811 C73 811 73 798 73 798 C73 798 103 745 103 745 C103 745 103 66 103 66 C103 66 73 13 73 13 C73 13 73 0 73 0 C73 0 103 0 103 0 C103 0 167 0 167 0 L167 0 Z " />
<glyph glyph-name="Iacute" unicode="&#xcd;" horiz-adv-x="331" d="M114 891 C114 891 219 891 219 891 C219 891 272 1041 272 1041 C272 1041 122 1041 122 1041 C122 1041 114 891 114 891 L114 891 Z M167 0 C167 0 231 0 231 0 C231 0 261 0 261 0 C261 0 261 13 261 13 C261 13 231 66 231 66 C231 66 231 745 231 745 C231 745 261 798 261 798 C261 798 261 811 261 811 C261 811 231 811 231 811 C231 811 167 811 167 811 C167 811 103 811 103 811 C103 811 73 811 73 811 C73 811 73 798 73 798 C73 798 103 745 103 745 C103 745 103 66 103 66 C103 66 73 13 73 13 C73 13 73 0 73 0 C73 0 103 0 103 0 C103 0 167 0 167 0 L167 0 Z " />
<glyph glyph-name="Icircumflex" unicode="&#xce;" horiz-adv-x="331" d="M167 951 C167 951 193 891 193 891 C193 891 298 891 298 891 C298 891 225 1041 225 1041 C225 1041 109 1041 109 1041 C109 1041 36 891 36 891 C36 891 141 891 141 891 C141 891 167 951 167 951 L167 951 Z M167 0 C167 0 231 0 231 0 C231 0 261 0 261 0 C261 0 261 13 261 13 C261 13 231 66 231 66 C231 66 231 745 231 745 C231 745 261 798 261 798 C261 798 261 811 261 811 C261 811 231 811 231 811 C231 811 167 811 167 811 C167 811 103 811 103 811 C103 811 73 811 73 811 C73 811 73 798 73 798 C73 798 103 745 103 745 C103 745 103 66 103 66 C103 66 73 13 73 13 C73 13 73 0 73 0 C73 0 103 0 103 0 C103 0 167 0 167 0 L167 0 Z " />
<glyph glyph-name="Idieresis" unicode="&#xcf;" horiz-adv-x="331" d="M173 891 C173 891 298 891 298 891 C298 891 298 1016 298 1016 C298 1016 173 1016 173 1016 C173 1016 173 891 173 891 L173 891 Z M36 891 C36 891 161 891 161 891 C161 891 161 1016 161 1016 C161 1016 36 1016 36 1016 C36 1016 36 891 36 891 L36 891 Z M167 0 C167 0 231 0 231 0 C231 0 261 0 261 0 C261 0 261 13 261 13 C261 13 231 66 231 66 C231 66 231 745 231 745 C231 745 261 798 261 798 C261 798 261 811 261 811 C261 811 231 811 231 811 C231 811 167 811 167 811 C167 811 103 811 103 811 C103 811 73 811 73 811 C73 811 73 798 73 798 C73 798 103 745 103 745 C103 745 103 66 103 66 C103 66 73 13 73 13 C73 13 73 0 73 0 C73 0 103 0 103 0 C103 0 167 0 167 0 L167 0 Z " />
<glyph glyph-name="Ntilde" unicode="&#xd1;" horiz-adv-x="576" d="M264 891 C264 930 270 961 277 961 C324 961 251 881 323 881 C373 881 413 952 413 1041 C413 1041 328 1041 328 1041 C328 1002 322 971 315 971 C269 971 342 1051 270 1051 C219 1051 179 980 179 891 C179 891 264 891 264 891 L264 891 Z M406 745 C406 745 406 188 406 188 C406 188 247 811 247 811 C247 811 186 811 186 811 C186 811 151 811 151 811 C151 811 117 811 117 811 C117 811 87 811 87 811 C87 811 87 798 87 798 C87 798 117 745 117 745 C117 745 117 66 117 66 C117 66 87 13 87 13 C87 13 87 0 87 0 C87 0 117 0 117 0 C117 0 151 0 151 0 C151 0 186 0 186 0 C186 0 216 0 216 0 C216 0 216 13 216 13 C216 13 186 66 186 66 C186 66 186 539 186 539 C186 539 323 0 323 0 C323 0 406 0 406 0 C406 0 454 0 454 0 C454 0 476 0 476 0 C476 0 476 745 476 745 C476 745 506 798 506 798 C506 798 506 811 506 811 C506 811 476 811 476 811 C476 811 441 811 441 811 C441 811 406 811 406 811 C406 811 377 811 377 811 C377 811 377 798 377 798 C377 798 406 745 406 745 L406 745 Z " />
<glyph glyph-name="Ograve" unicode="&#xd2;" horiz-adv-x="694" d="M295 891 C295 891 400 891 400 891 C400 891 393 1041 393 1041 C393 1041 243 1041 243 1041 C243 1041 295 891 295 891 L295 891 Z M348 47 C262 47 194 206 194 406 C194 595 267 764 348 764 C429 764 501 595 501 406 C501 206 433 47 348 47 L348 47 Z M57 406 C57 175 186 -10 348 -10 C510 -10 639 175 639 406 C639 625 501 821 348 821 C194 821 57 625 57 406 L57 406 Z " />
<glyph glyph-name="Oacute" unicode="&#xd3;" horiz-adv-x="694" d="M295 891 C295 891 400 891 400 891 C400 891 453 1041 453 1041 C453 1041 303 1041 303 1041 C303 1041 295 891 295 891 L295 891 Z M348 47 C262 47 194 206 194 406 C194 595 267 764 348 764 C429 764 501 595 501 406 C501 206 433 47 348 47 L348 47 Z M57 406 C57 175 186 -10 348 -10 C510 -10 639 175 639 406 C639 625 501 821 348 821 C194 821 57 625 57 406 L57 406 Z " />
<glyph glyph-name="Ocircumflex" unicode="&#xd4;" horiz-adv-x="694" d="M348 951 C348 951 374 891 374 891 C374 891 479 891 479 891 C479 891 406 1041 406 1041 C406 1041 290 1041 290 1041 C290 1041 217 891 217 891 C217 891 322 891 322 891 C322 891 348 951 348 951 L348 951 Z M348 47 C262 47 194 206 194 406 C194 595 267 764 348 764 C429 764 501 595 501 406 C501 206 433 47 348 47 L348 47 Z M57 406 C57 175 186 -10 348 -10 C510 -10 639 175 639 406 C639 625 501 821 348 821 C194 821 57 625 57 406 L57 406 Z " />
<glyph glyph-name="Otilde" unicode="&#xd5;" horiz-adv-x="694" d="M316 891 C316 930 322 961 329 961 C375 961 302 881 375 881 C425 881 465 952 465 1041 C465 1041 380 1041 380 1041 C380 1002 374 971 367 971 C320 971 393 1051 321 1051 C271 1051 231 980 231 891 C231 891 316 891 316 891 L316 891 Z M348 47 C262 47 194 206 194 406 C194 595 267 764 348 764 C429 764 501 595 501 406 C501 206 433 47 348 47 L348 47 Z M57 406 C57 175 186 -10 348 -10 C510 -10 639 175 639 406 C639 625 501 821 348 821 C194 821 57 625 57 406 L57 406 Z " />
<glyph glyph-name="Odieresis" unicode="&#xd6;" horiz-adv-x="694" d="M353 891 C353 891 478 891 478 891 C478 891 478 1016 478 1016 C478 1016 353 1016 353 1016 C353 1016 353 891 353 891 L353 891 Z M217 891 C217 891 342 891 342 891 C342 891 342 1016 342 1016 C342 1016 217 1016 217 1016 C217 1016 217 891 217 891 L217 891 Z M348 47 C262 47 194 206 194 406 C194 595 267 764 348 764 C429 764 501 595 501 406 C501 206 433 47 348 47 L348 47 Z M57 406 C57 175 186 -10 348 -10 C510 -10 639 175 639 406 C639 625 501 821 348 821 C194 821 57 625 57 406 L57 406 Z " />
<glyph glyph-name="Oslash" unicode="&#xd8;" horiz-adv-x="694" d="M348 47 C303 47 262 91 234 163 C234 163 483 567 483 567 C494 518 501 463 501 406 C501 206 433 47 348 47 C348 47 348 47 348 47 L348 47 Z M57 406 C57 294 87 194 136 119 C136 119 57 -10 57 -10 C57 -10 128 -10 128 -10 C128 -10 177 69 177 69 C224 19 284 -10 348 -10 C510 -10 639 175 639 406 C639 511 607 612 557 687 C557 687 639 821 639 821 C639 821 568 821 568 821 C568 821 517 738 517 738 C468 790 409 821 348 821 C194 821 57 625 57 406 C57 406 57 406 57 406 L57 406 Z M211 240 C200 290 194 346 194 406 C194 595 267 764 348 764 C391 764 431 717 460 645 C460 645 211 240 211 240 L211 240 Z " />
<glyph glyph-name="Ugrave" unicode="&#xd9;" horiz-adv-x="626" d="M261 881 C261 881 366 881 366 881 C366 881 358 1031 358 1031 C358 1031 208 1031 208 1031 C208 1031 261 881 261 881 L261 881 Z M95 745 C95 745 95 313 95 313 C95 116 180 -10 313 -10 C447 -10 532 117 532 316 C532 316 532 745 532 745 C532 745 562 798 562 798 C561 798 561 803 562 810 C561 811 561 811 562 811 C562 811 532 811 532 811 C532 811 497 811 497 811 C497 811 462 811 462 811 C462 811 432 811 432 811 C432 811 432 798 432 798 C432 798 462 745 462 745 C462 745 462 328 462 328 C462 161 404 55 313 55 C258 55 223 164 223 336 C223 336 223 745 223 745 C223 745 253 798 253 798 C253 798 253 811 253 811 C253 811 223 811 223 811 C223 811 159 811 159 811 C159 811 95 811 95 811 C95 811 65 811 65 811 C65 811 65 798 65 798 C65 798 95 745 95 745 L95 745 Z " />
<glyph glyph-name="Uacute" unicode="&#xda;" horiz-adv-x="626" d="M261 881 C261 881 366 881 366 881 C366 881 418 1031 418 1031 C418 1031 268 1031 268 1031 C268 1031 261 881 261 881 L261 881 Z M95 745 C95 745 95 313 95 313 C95 116 180 -10 313 -10 C447 -10 532 117 532 316 C532 316 532 745 532 745 C532 745 562 798 562 798 C561 798 561 803 562 810 C561 811 561 811 562 811 C562 811 532 811 532 811 C532 811 497 811 497 811 C497 811 462 811 462 811 C462 811 432 811 432 811 C432 811 432 798 432 798 C432 798 462 745 462 745 C462 745 462 328 462 328 C462 161 404 55 313 55 C258 55 223 164 223 336 C223 336 223 745 223 745 C223 745 253 798 253 798 C253 798 253 811 253 811 C253 811 223 811 223 811 C223 811 159 811 159 811 C159 811 95 811 95 811 C95 811 65 811 65 811 C65 811 65 798 65 798 C65 798 95 745 95 745 L95 745 Z " />
<glyph glyph-name="Ucircumflex" unicode="&#xdb;" horiz-adv-x="626" d="M313 941 C313 941 339 881 339 881 C339 881 444 881 444 881 C444 881 371 1031 371 1031 C371 1031 255 1031 255 1031 C255 1031 182 881 182 881 C182 881 287 881 287 881 C287 881 313 941 313 941 L313 941 Z M95 745 C95 745 95 313 95 313 C95 116 180 -10 313 -10 C447 -10 532 117 532 316 C532 316 532 745 532 745 C532 745 562 798 562 798 C561 798 561 803 562 810 C561 811 561 811 562 811 C562 811 532 811 532 811 C532 811 497 811 497 811 C497 811 462 811 462 811 C462 811 432 811 432 811 C432 811 432 798 432 798 C432 798 462 745 462 745 C462 745 462 328 462 328 C462 161 404 55 313 55 C258 55 223 164 223 336 C223 336 223 745 223 745 C223 745 253 798 253 798 C253 798 253 811 253 811 C253 811 223 811 223 811 C223 811 159 811 159 811 C159 811 95 811 95 811 C95 811 65 811 65 811 C65 811 65 798 65 798 C65 798 95 745 95 745 L95 745 Z " />
<glyph glyph-name="Udieresis" unicode="&#xdc;" horiz-adv-x="626" d="M319 881 C319 881 444 881 444 881 C444 881 444 1006 444 1006 C444 1006 319 1006 319 1006 C319 1006 319 881 319 881 L319 881 Z M183 881 C183 881 308 881 308 881 C308 881 308 1006 308 1006 C308 1006 183 1006 183 1006 C183 1006 183 881 183 881 L183 881 Z M95 745 C95 745 95 313 95 313 C95 116 180 -10 313 -10 C447 -10 532 117 532 316 C532 316 532 745 532 745 C532 745 562 798 562 798 C561 798 561 803 562 810 C561 811 561 811 562 811 C562 811 532 811 532 811 C532 811 497 811 497 811 C497 811 462 811 462 811 C462 811 432 811 432 811 C432 811 432 798 432 798 C432 798 462 745 462 745 C462 745 462 328 462 328 C462 161 404 55 313 55 C258 55 223 164 223 336 C223 336 223 745 223 745 C223 745 253 798 253 798 C253 798 253 811 253 811 C253 811 223 811 223 811 C223 811 159 811 159 811 C159 811 95 811 95 811 C95 811 65 811 65 811 C65 811 65 798 65 798 C65 798 95 745 95 745 L95 745 Z " />
<glyph glyph-name="Yacute" unicode="&#xdd;" horiz-adv-x="521" d="M213 891 C213 891 318 891 318 891 C318 891 370 1041 370 1041 C370 1041 220 1041 220 1041 C220 1041 213 891 213 891 L213 891 Z M406 745 C406 745 407 745 407 745 C407 745 296 445 296 445 C296 445 180 746 180 746 C180 746 185 798 185 798 C184 798 184 803 185 810 C184 811 184 811 185 811 C185 811 155 811 155 811 C155 811 94 811 94 811 C94 811 34 811 34 811 C34 811 9 811 9 811 C9 811 9 798 9 798 C9 798 60 745 60 745 C60 745 208 369 208 369 C208 369 208 66 208 66 C208 66 178 13 178 13 C178 13 178 0 178 0 C178 0 208 0 208 0 C208 0 272 0 272 0 C272 0 336 0 336 0 C336 0 366 0 366 0 C366 0 366 13 366 13 C366 13 336 66 336 66 C336 66 336 384 336 384 C336 384 471 745 471 745 C471 745 472 745 472 745 C472 745 521 798 521 798 C522 798 522 803 521 809 C522 810 522 811 521 811 C521 811 496 811 496 811 C496 811 464 811 464 811 C464 811 431 811 431 811 C431 811 401 811 401 811 C400 811 400 811 401 810 C400 803 400 798 401 798 C401 798 406 745 406 745 L406 745 Z " />
<glyph glyph-name="Thorn" unicode="&#xde;" horiz-adv-x="518" d="M166 0 C166 0 230 0 230 0 C230 0 260 0 260 0 C260 0 260 13 260 13 C260 13 230 66 230 66 C230 66 230 162 230 162 C385 162 484 257 484 406 C484 554 385 649 230 649 C230 649 230 745 230 745 C230 745 260 798 260 798 C260 798 260 811 260 811 C260 811 230 811 230 811 C230 811 166 811 166 811 C166 811 102 811 102 811 C102 811 72 811 72 811 C72 811 72 798 72 798 C72 798 102 745 102 745 C102 745 102 66 102 66 C102 66 72 13 72 13 C72 13 72 0 72 0 C72 0 102 0 102 0 C102 0 166 0 166 0 L166 0 Z M230 216 C230 216 230 595 230 595 C307 593 356 520 356 406 C356 290 308 216 233 216 C233 216 230 216 230 216 L230 216 Z " />
<glyph glyph-name="agrave" unicode="&#xe0;" horiz-adv-x="430" d="M158 661 C158 661 263 661 263 661 C263 661 256 811 256 811 C256 811 106 811 106 811 C106 811 158 661 158 661 L158 661 Z M67 448 C67 448 124 429 124 429 C124 490 163 539 211 539 C227 539 240 502 240 429 C240 429 240 411 240 411 C240 324 197 285 143 280 C86 273 40 204 40 123 C40 49 75 -10 146 -10 C186 -10 220 14 241 70 C246 9 274 0 400 0 C400 0 400 85 400 85 C360 85 355 86 355 95 C355 95 355 380 355 380 C355 521 291 591 211 591 C131 591 67 527 67 448 L67 448 Z M240 274 C240 274 240 170 240 170 C234 72 203 33 165 33 C158 33 155 75 155 127 C155 188 166 238 180 240 C203 242 224 253 240 274 L240 274 Z " />
<glyph glyph-name="aacute" unicode="&#xe1;" horiz-adv-x="430" d="M158 661 C158 661 263 661 263 661 C263 661 316 811 316 811 C316 811 166 811 166 811 C166 811 158 661 158 661 L158 661 Z M67 448 C67 448 124 429 124 429 C124 490 163 539 211 539 C227 539 240 502 240 429 C240 429 240 411 240 411 C240 324 197 285 143 280 C86 273 40 204 40 123 C40 49 75 -10 146 -10 C186 -10 220 14 241 70 C246 9 274 0 400 0 C400 0 400 85 400 85 C360 85 355 86 355 95 C355 95 355 380 355 380 C355 521 291 591 211 591 C131 591 67 527 67 448 L67 448 Z M240 274 C240 274 240 170 240 170 C234 72 203 33 165 33 C158 33 155 75 155 127 C155 188 166 238 180 240 C203 242 224 253 240 274 L240 274 Z " />
<glyph glyph-name="acircumflex" unicode="&#xe2;" horiz-adv-x="430" d="M211 721 C211 721 237 661 237 661 C237 661 342 661 342 661 C342 661 269 811 269 811 C269 811 153 811 153 811 C153 811 80 661 80 661 C80 661 185 661 185 661 C185 661 211 721 211 721 L211 721 Z M67 448 C67 448 124 429 124 429 C124 490 163 539 211 539 C227 539 240 502 240 429 C240 429 240 411 240 411 C240 324 197 285 143 280 C86 273 40 204 40 123 C40 49 75 -10 146 -10 C186 -10 220 14 241 70 C246 9 274 0 400 0 C400 0 400 85 400 85 C360 85 355 86 355 95 C355 95 355 380 355 380 C355 521 291 591 211 591 C131 591 67 527 67 448 L67 448 Z M240 274 C240 274 240 170 240 170 C234 72 203 33 165 33 C158 33 155 75 155 127 C155 188 166 238 180 240 C203 242 224 253 240 274 L240 274 Z " />
<glyph glyph-name="atilde" unicode="&#xe3;" horiz-adv-x="547" d="M232 661 C232 700 238 731 245 731 C291 731 218 651 290 651 C341 651 381 722 381 811 C381 811 296 811 296 811 C296 772 290 741 283 741 C236 741 309 821 237 821 C187 821 147 750 147 661 C147 661 232 661 232 661 L232 661 Z M50 291 C50 124 133 -10 237 -10 C289 -10 334 40 362 117 C362 117 362 0 362 0 C362 0 477 0 477 0 C477 0 477 581 477 581 C477 581 362 581 362 581 C362 581 362 465 362 465 C334 541 289 591 237 591 C133 591 50 457 50 291 C50 291 50 291 50 291 L50 291 Z M362 291 C362 152 316 41 257 41 C212 41 175 152 175 291 C175 429 212 540 257 540 C316 540 362 429 362 291 L362 291 Z " />
<glyph glyph-name="adieresis" unicode="&#xe4;" horiz-adv-x="430" d="M258 661 C258 661 383 661 383 661 C383 661 383 786 383 786 C383 786 258 786 258 786 C258 786 258 661 258 661 L258 661 Z M38 661 C38 661 163 661 163 661 C163 661 163 786 163 786 C163 786 38 786 38 786 C38 786 38 661 38 661 L38 661 Z M67 448 C67 448 124 429 124 429 C124 490 163 539 211 539 C227 539 240 502 240 429 C240 429 240 411 240 411 C240 324 197 285 143 280 C86 273 40 204 40 123 C40 49 75 -10 146 -10 C186 -10 220 14 241 70 C246 9 274 0 400 0 C400 0 400 85 400 85 C360 85 355 86 355 95 C355 95 355 380 355 380 C355 521 291 591 211 591 C131 591 67 527 67 448 L67 448 Z M240 274 C240 274 240 170 240 170 C234 72 203 33 165 33 C158 33 155 75 155 127 C155 188 166 238 180 240 C203 242 224 253 240 274 L240 274 Z " />
<glyph glyph-name="aring" unicode="&#xe5;" horiz-adv-x="430" d="M211 714 C193 714 182 726 182 746 C182 765 194 778 211 778 C228 778 240 765 240 746 C240 726 229 714 211 714 L211 714 Z M125 746 C125 694 158 661 211 661 C264 661 297 694 297 746 C297 796 261 831 211 831 C161 831 125 796 125 746 L125 746 Z M67 448 C67 448 124 429 124 429 C124 490 163 539 211 539 C227 539 240 502 240 429 C240 429 240 411 240 411 C240 324 197 285 143 280 C86 273 40 204 40 123 C40 49 75 -10 146 -10 C186 -10 220 14 241 70 C246 9 274 0 400 0 C400 0 400 85 400 85 C360 85 355 86 355 95 C355 95 355 380 355 380 C355 521 291 591 211 591 C131 591 67 527 67 448 L67 448 Z M240 274 C240 274 240 170 240 170 C234 72 203 33 165 33 C158 33 155 75 155 127 C155 188 166 238 180 240 C203 242 224 253 240 274 L240 274 Z " />
<glyph glyph-name="ccedilla" unicode="&#xe7;" horiz-adv-x="421" d="M336 156 C336 92 300 42 255 42 C211 42 175 132 175 291 C175 451 211 542 255 542 C310 542 337 483 337 409 C337 409 391 436 391 436 C391 522 346 591 255 591 C141 591 50 482 50 291 C50 127 116 24 206 -3 C206 -3 178 -102 178 -102 C178 -102 197 -113 197 -113 C197 -113 200 -103 200 -103 C201 -111 202 -127 202 -146 C202 -167 200 -186 197 -192 C198 -187 195 -175 190 -161 C190 -161 166 -180 166 -180 C180 -219 194 -250 198 -250 C236 -250 267 -204 267 -146 C267 -106 242 -72 210 -68 C210 -68 227 -8 227 -8 C236 -9 245 -10 255 -10 C331 -10 392 51 392 128 C392 128 336 156 336 156 L336 156 Z " />
<glyph glyph-name="egrave" unicode="&#xe8;" horiz-adv-x="428" d="M180 661 C180 661 285 661 285 661 C285 661 277 811 277 811 C277 811 127 811 127 811 C127 811 180 661 180 661 L180 661 Z M340 152 C340 91 288 42 224 42 C198 42 177 123 175 267 C175 267 300 267 300 267 C300 267 415 267 415 267 C415 447 354 591 232 591 C131 591 50 482 50 291 C50 99 127 -10 224 -10 C321 -10 398 52 398 129 C398 129 340 152 340 152 L340 152 Z M299 311 C299 311 175 311 175 311 C177 459 201 542 232 542 C273 542 295 443 299 311 L299 311 Z " />
<glyph glyph-name="eacute" unicode="&#xe9;" horiz-adv-x="428" d="M180 661 C180 661 285 661 285 661 C285 661 337 811 337 811 C337 811 187 811 187 811 C187 811 180 661 180 661 L180 661 Z M340 152 C340 91 288 42 224 42 C198 42 177 123 175 267 C175 267 300 267 300 267 C300 267 415 267 415 267 C415 447 354 591 232 591 C131 591 50 482 50 291 C50 99 127 -10 224 -10 C321 -10 398 52 398 129 C398 129 340 152 340 152 L340 152 Z M299 311 C299 311 175 311 175 311 C177 459 201 542 232 542 C273 542 295 443 299 311 L299 311 Z " />
<glyph glyph-name="ecircumflex" unicode="&#xea;" horiz-adv-x="428" d="M232 721 C232 721 258 661 258 661 C258 661 363 661 363 661 C363 661 290 811 290 811 C290 811 174 811 174 811 C174 811 101 661 101 661 C101 661 206 661 206 661 C206 661 232 721 232 721 L232 721 Z M340 152 C340 91 288 42 224 42 C198 42 177 123 175 267 C175 267 300 267 300 267 C300 267 415 267 415 267 C415 447 354 591 232 591 C131 591 50 482 50 291 C50 99 127 -10 224 -10 C321 -10 398 52 398 129 C398 129 340 152 340 152 L340 152 Z M299 311 C299 311 175 311 175 311 C177 459 201 542 232 542 C273 542 295 443 299 311 L299 311 Z " />
<glyph glyph-name="edieresis" unicode="&#xeb;" horiz-adv-x="428" d="M238 661 C238 661 363 661 363 661 C363 661 363 786 363 786 C363 786 238 786 238 786 C238 786 238 661 238 661 L238 661 Z M102 661 C102 661 227 661 227 661 C227 661 227 786 227 786 C227 786 102 786 102 786 C102 786 102 661 102 661 L102 661 Z M340 152 C340 91 288 42 224 42 C198 42 177 123 175 267 C175 267 300 267 300 267 C300 267 415 267 415 267 C415 447 354 591 232 591 C131 591 50 482 50 291 C50 99 127 -10 224 -10 C321 -10 398 52 398 129 C398 129 340 152 340 152 L340 152 Z M299 311 C299 311 175 311 175 311 C177 459 201 542 232 542 C273 542 295 443 299 311 L299 311 Z " />
<glyph glyph-name="igrave" unicode="&#xec;" horiz-adv-x="227" d="M32 661 C32 661 137 661 137 661 C137 661 130 811 130 811 C130 811 -20 811 -20 811 C-20 811 32 661 32 661 L32 661 Z M85 581 C85 581 27 581 27 581 C27 581 -2 581 -2 581 C-2 581 -2 568 -2 568 C-2 568 27 515 27 515 C27 515 27 66 27 66 C27 66 -2 13 -2 13 C-2 13 -2 0 -2 0 C-2 0 27 0 27 0 C27 0 85 0 85 0 C85 0 142 0 142 0 C142 0 172 0 172 0 C172 0 172 13 172 13 C172 13 142 66 142 66 C142 66 142 581 142 581 C142 581 85 581 85 581 L85 581 Z " />
<glyph glyph-name="iacute" unicode="&#xed;" horiz-adv-x="227" d="M32 661 C32 661 137 661 137 661 C137 661 190 811 190 811 C190 811 40 811 40 811 C40 811 32 661 32 661 L32 661 Z M85 581 C85 581 27 581 27 581 C27 581 -2 581 -2 581 C-2 581 -2 568 -2 568 C-2 568 27 515 27 515 C27 515 27 66 27 66 C27 66 -2 13 -2 13 C-2 13 -2 0 -2 0 C-2 0 27 0 27 0 C27 0 85 0 85 0 C85 0 142 0 142 0 C142 0 172 0 172 0 C172 0 172 13 172 13 C172 13 142 66 142 66 C142 66 142 581 142 581 C142 581 85 581 85 581 L85 581 Z " />
<glyph glyph-name="icircumflex" unicode="&#xee;" horiz-adv-x="227" d="M85 721 C85 721 111 661 111 661 C111 661 216 661 216 661 C216 661 143 811 143 811 C143 811 27 811 27 811 C27 811 -46 661 -46 661 C-46 661 59 661 59 661 C59 661 85 721 85 721 L85 721 Z M85 581 C85 581 27 581 27 581 C27 581 -2 581 -2 581 C-2 581 -2 568 -2 568 C-2 568 27 515 27 515 C27 515 27 66 27 66 C27 66 -2 13 -2 13 C-2 13 -2 0 -2 0 C-2 0 27 0 27 0 C27 0 85 0 85 0 C85 0 142 0 142 0 C142 0 172 0 172 0 C172 0 172 13 172 13 C172 13 142 66 142 66 C142 66 142 581 142 581 C142 581 85 581 85 581 L85 581 Z " />
<glyph glyph-name="idieresis" unicode="&#xef;" horiz-adv-x="227" d="M132 661 C132 661 257 661 257 661 C257 661 257 786 257 786 C257 786 132 786 132 786 C132 786 132 661 132 661 L132 661 Z M-88 661 C-88 661 37 661 37 661 C37 661 37 786 37 786 C37 786 -88 786 -88 786 C-88 786 -88 661 -88 661 L-88 661 Z M85 581 C85 581 27 581 27 581 C27 581 -2 581 -2 581 C-2 581 -2 568 -2 568 C-2 568 27 515 27 515 C27 515 27 66 27 66 C27 66 -2 13 -2 13 C-2 13 -2 0 -2 0 C-2 0 27 0 27 0 C27 0 85 0 85 0 C85 0 142 0 142 0 C142 0 172 0 172 0 C172 0 172 13 172 13 C172 13 142 66 142 66 C142 66 142 581 142 581 C142 581 85 581 85 581 L85 581 Z " />
<glyph glyph-name="ntilde" unicode="&#xf1;" horiz-adv-x="459" d="M201 661 C201 700 207 731 214 731 C260 731 187 651 259 651 C310 651 350 722 350 811 C350 811 265 811 265 811 C265 772 259 741 252 741 C205 741 278 821 206 821 C156 821 116 750 116 661 C116 661 201 661 201 661 L201 661 Z M322 0 C322 0 380 0 380 0 C380 0 410 0 410 0 C410 0 410 13 410 13 C410 13 380 66 380 66 C380 66 380 376 380 376 C380 504 329 586 265 586 C239 586 216 559 200 516 C200 516 200 571 200 571 C200 571 200 581 200 581 C200 581 143 581 143 581 C143 581 114 581 114 581 C114 581 85 581 85 581 C85 581 55 581 55 581 C55 581 55 568 55 568 C55 568 85 515 85 515 C85 515 85 66 85 66 C85 66 55 13 55 13 C55 13 55 0 55 0 C55 0 85 0 85 0 C85 0 143 0 143 0 C143 0 200 0 200 0 C200 0 230 0 230 0 C230 0 230 13 230 13 C230 13 200 66 200 66 C200 66 200 381 200 381 C200 464 218 530 241 530 C254 530 265 470 265 376 C265 376 265 66 265 66 C265 66 235 13 235 13 C235 13 235 0 235 0 C235 0 265 0 265 0 C265 0 322 0 322 0 L322 0 Z " />
<glyph glyph-name="ograve" unicode="&#xf2;" horiz-adv-x="470" d="M182 661 C182 661 287 661 287 661 C287 661 280 811 280 811 C280 811 130 811 130 811 C130 811 182 661 182 661 L182 661 Z M235 36 C197 36 175 149 175 291 C175 453 202 545 235 545 C273 545 295 432 295 291 C295 128 268 36 235 36 L235 36 Z M50 291 C50 124 117 -10 235 -10 C338 -10 420 99 420 291 C420 457 353 591 235 591 C132 591 50 482 50 291 L50 291 Z " />
<glyph glyph-name="oacute" unicode="&#xf3;" horiz-adv-x="470" d="M182 661 C182 661 287 661 287 661 C287 661 340 811 340 811 C340 811 190 811 190 811 C190 811 182 661 182 661 L182 661 Z M235 36 C197 36 175 149 175 291 C175 453 202 545 235 545 C273 545 295 432 295 291 C295 128 268 36 235 36 L235 36 Z M50 291 C50 124 117 -10 235 -10 C338 -10 420 99 420 291 C420 457 353 591 235 591 C132 591 50 482 50 291 L50 291 Z " />
<glyph glyph-name="ocircumflex" unicode="&#xf4;" horiz-adv-x="470" d="M235 721 C235 721 261 661 261 661 C261 661 366 661 366 661 C366 661 293 811 293 811 C293 811 177 811 177 811 C177 811 104 661 104 661 C104 661 209 661 209 661 C209 661 235 721 235 721 L235 721 Z M235 36 C197 36 175 149 175 291 C175 453 202 545 235 545 C273 545 295 432 295 291 C295 128 268 36 235 36 L235 36 Z M50 291 C50 124 117 -10 235 -10 C338 -10 420 99 420 291 C420 457 353 591 235 591 C132 591 50 482 50 291 L50 291 Z " />
<glyph glyph-name="otilde" unicode="&#xf5;" horiz-adv-x="470" d="M203 661 C203 700 209 731 216 731 C262 731 189 651 262 651 C312 651 352 722 352 811 C352 811 267 811 267 811 C267 772 261 741 254 741 C207 741 280 821 208 821 C158 821 118 750 118 661 C118 661 203 661 203 661 L203 661 Z M235 36 C197 36 175 149 175 291 C175 453 202 545 235 545 C273 545 295 432 295 291 C295 128 268 36 235 36 L235 36 Z M50 291 C50 124 117 -10 235 -10 C338 -10 420 99 420 291 C420 457 353 591 235 591 C132 591 50 482 50 291 L50 291 Z " />
<glyph glyph-name="odieresis" unicode="&#xf6;" horiz-adv-x="470" d="M240 661 C240 661 365 661 365 661 C365 661 365 786 365 786 C365 786 240 786 240 786 C240 786 240 661 240 661 L240 661 Z M104 661 C104 661 229 661 229 661 C229 661 229 786 229 786 C229 786 104 786 104 786 C104 786 104 661 104 661 L104 661 Z M235 36 C197 36 175 149 175 291 C175 453 202 545 235 545 C273 545 295 432 295 291 C295 128 268 36 235 36 L235 36 Z M50 291 C50 124 117 -10 235 -10 C338 -10 420 99 420 291 C420 457 353 591 235 591 C132 591 50 482 50 291 L50 291 Z " />
<glyph glyph-name="oslash" unicode="&#xf8;" horiz-adv-x="470" d="M235 36 C211 36 194 80 184 148 C184 148 293 353 293 353 C294 333 295 313 295 291 C295 128 268 36 235 36 C235 36 235 36 235 36 L235 36 Z M50 291 C50 208 66 133 97 79 C97 79 50 -10 50 -10 C50 -10 100 -10 100 -10 C100 -10 126 39 126 39 C155 8 192 -10 235 -10 C338 -10 420 99 420 291 C420 373 404 448 373 502 C373 502 420 591 420 591 C420 591 370 591 370 591 C370 591 344 542 344 542 C315 573 278 591 235 591 C132 591 50 482 50 291 C50 291 50 291 50 291 L50 291 Z M177 228 C176 248 175 269 175 291 C175 453 202 545 235 545 C259 545 276 501 286 433 C286 433 177 228 177 228 L177 228 Z " />
<glyph glyph-name="ugrave" unicode="&#xf9;" horiz-adv-x="462" d="M176 661 C176 661 281 661 281 661 C281 661 274 811 274 811 C274 811 124 811 124 811 C124 811 176 661 176 661 L176 661 Z M378 66 C378 66 378 581 378 581 C378 581 320 581 320 581 C320 581 263 581 263 581 C263 581 233 581 233 581 C233 581 233 568 233 568 C233 568 263 515 263 515 C263 515 263 146 263 146 C263 91 234 47 198 47 C196 47 195 107 195 200 C195 200 195 581 195 581 C195 581 138 581 138 581 C138 581 80 581 80 581 C80 581 50 581 50 581 C50 581 50 568 50 568 C50 568 80 515 80 515 C80 515 80 200 80 200 C80 72 107 -10 179 -10 C214 -10 245 18 263 61 C263 61 263 10 263 10 C263 10 263 0 263 0 C263 0 320 0 320 0 C320 0 378 0 378 0 C378 0 408 0 408 0 C408 0 408 13 408 13 C408 13 378 66 378 66 L378 66 Z " />
<glyph glyph-name="uacute" unicode="&#xfa;" horiz-adv-x="462" d="M176 661 C176 661 281 661 281 661 C281 661 334 811 334 811 C334 811 184 811 184 811 C184 811 176 661 176 661 L176 661 Z M378 66 C378 66 378 581 378 581 C378 581 320 581 320 581 C320 581 263 581 263 581 C263 581 233 581 233 581 C233 581 233 568 233 568 C233 568 263 515 263 515 C263 515 263 146 263 146 C263 91 234 47 198 47 C196 47 195 107 195 200 C195 200 195 581 195 581 C195 581 138 581 138 581 C138 581 80 581 80 581 C80 581 50 581 50 581 C50 581 50 568 50 568 C50 568 80 515 80 515 C80 515 80 200 80 200 C80 72 107 -10 179 -10 C214 -10 245 18 263 61 C263 61 263 10 263 10 C263 10 263 0 263 0 C263 0 320 0 320 0 C320 0 378 0 378 0 C378 0 408 0 408 0 C408 0 408 13 408 13 C408 13 378 66 378 66 L378 66 Z " />
<glyph glyph-name="ucircumflex" unicode="&#xfb;" horiz-adv-x="462" d="M229 721 C229 721 255 661 255 661 C255 661 360 661 360 661 C360 661 287 811 287 811 C287 811 171 811 171 811 C171 811 98 661 98 661 C98 661 203 661 203 661 C203 661 229 721 229 721 L229 721 Z M378 66 C378 66 378 581 378 581 C378 581 320 581 320 581 C320 581 263 581 263 581 C263 581 233 581 233 581 C233 581 233 568 233 568 C233 568 263 515 263 515 C263 515 263 146 263 146 C263 91 234 47 198 47 C196 47 195 107 195 200 C195 200 195 581 195 581 C195 581 138 581 138 581 C138 581 80 581 80 581 C80 581 50 581 50 581 C50 581 50 568 50 568 C50 568 80 515 80 515 C80 515 80 200 80 200 C80 72 107 -10 179 -10 C214 -10 245 18 263 61 C263 61 263 10 263 10 C263 10 263 0 263 0 C263 0 320 0 320 0 C320 0 378 0 378 0 C378 0 408 0 408 0 C408 0 408 13 408 13 C408 13 378 66 378 66 L378 66 Z " />
<glyph glyph-name="udieresis" unicode="&#xfc;" horiz-adv-x="462" d="M235 661 C235 661 360 661 360 661 C360 661 360 786 360 786 C360 786 235 786 235 786 C235 786 235 661 235 661 L235 661 Z M98 661 C98 661 223 661 223 661 C223 661 223 786 223 786 C223 786 98 786 98 786 C98 786 98 661 98 661 L98 661 Z M378 66 C378 66 378 581 378 581 C378 581 320 581 320 581 C320 581 263 581 263 581 C263 581 233 581 233 581 C233 581 233 568 233 568 C233 568 263 515 263 515 C263 515 263 146 263 146 C263 91 234 47 198 47 C196 47 195 107 195 200 C195 200 195 581 195 581 C195 581 138 581 138 581 C138 581 80 581 80 581 C80 581 50 581 50 581 C50 581 50 568 50 568 C50 568 80 515 80 515 C80 515 80 200 80 200 C80 72 107 -10 179 -10 C214 -10 245 18 263 61 C263 61 263 10 263 10 C263 10 263 0 263 0 C263 0 320 0 320 0 C320 0 378 0 378 0 C378 0 408 0 408 0 C408 0 408 13 408 13 C408 13 378 66 378 66 L378 66 Z " />
<glyph glyph-name="yacute" unicode="&#xfd;" horiz-adv-x="369" d="M124 661 C124 661 229 661 229 661 C229 661 282 811 282 811 C282 811 132 811 132 811 C132 811 124 661 124 661 L124 661 Z M25 515 C25 515 26 515 26 515 C26 515 155 -26 155 -26 C155 -26 149 -55 149 -55 C135 -121 120 -146 95 -146 C95 -146 45 -146 45 -146 C45 -146 45 -200 45 -200 C45 -200 95 -200 95 -200 C150 -200 179 -166 198 -79 C198 -79 329 515 329 515 C329 515 330 515 330 515 C330 515 371 568 371 568 C371 568 371 581 371 581 C371 581 344 581 344 581 C344 581 309 581 309 581 C309 581 273 581 273 581 C273 581 244 581 244 581 C244 581 244 568 244 568 C244 568 260 517 260 517 C260 517 192 166 192 166 C192 166 148 516 148 516 C148 516 169 568 169 568 C169 568 169 581 169 581 C169 581 140 581 140 581 C140 581 75 581 75 581 C75 581 10 581 10 581 C10 581 -17 581 -17 581 C-17 581 -17 568 -17 568 C-17 568 25 515 25 515 L25 515 Z " />
<glyph glyph-name="thorn" unicode="&#xfe;" horiz-adv-x="479" d="M269 50 C223 50 185 137 185 291 C185 450 224 540 273 540 C291 540 305 429 305 291 C305 157 289 50 269 50 L269 50 Z M128 811 C128 811 70 811 70 811 C70 811 40 811 40 811 C40 811 40 798 40 798 C40 798 70 745 70 745 C70 745 70 -184 70 -184 C70 -184 40 -237 40 -237 C40 -237 40 -250 40 -250 C40 -250 70 -250 70 -250 C70 -250 128 -250 128 -250 C128 -250 185 -250 185 -250 C185 -250 215 -250 215 -250 C215 -250 215 -237 215 -237 C215 -237 185 -184 185 -184 C185 -184 185 102 185 102 C209 29 249 -10 294 -10 C369 -10 430 124 430 291 C430 457 369 591 294 591 C249 591 209 552 185 479 C185 479 185 811 185 811 C185 811 128 811 128 811 L128 811 Z " />
<glyph glyph-name="ydieresis" unicode="&#xff;" horiz-adv-x="369" d="M182 661 C182 661 307 661 307 661 C307 661 307 786 307 786 C307 786 182 786 182 786 C182 786 182 661 182 661 L182 661 Z M46 661 C46 661 171 661 171 661 C171 661 171 786 171 786 C171 786 46 786 46 786 C46 786 46 661 46 661 L46 661 Z M25 515 C25 515 26 515 26 515 C26 515 155 -26 155 -26 C155 -26 149 -55 149 -55 C135 -121 120 -146 95 -146 C95 -146 45 -146 45 -146 C45 -146 45 -200 45 -200 C45 -200 95 -200 95 -200 C150 -200 179 -166 198 -79 C198 -79 329 515 329 515 C329 515 330 515 330 515 C330 515 371 568 371 568 C371 568 371 581 371 581 C371 581 344 581 344 581 C344 581 309 581 309 581 C309 581 273 581 273 581 C273 581 244 581 244 581 C244 581 244 568 244 568 C244 568 260 517 260 517 C260 517 192 166 192 166 C192 166 148 516 148 516 C148 516 169 568 169 568 C169 568 169 581 169 581 C169 581 140 581 140 581 C140 581 75 581 75 581 C75 581 10 581 10 581 C10 581 -17 581 -17 581 C-17 581 -17 568 -17 568 C-17 568 25 515 25 515 L25 515 Z " />
<glyph glyph-name="Amacron" unicode="&#x100;" horiz-adv-x="649" d="M280 891 C280 891 392 891 392 891 C392 891 392 971 392 971 C392 971 280 971 280 971 C280 971 280 891 280 891 L280 891 Z M606 66 C606 66 606 66 606 66 C606 66 398 811 398 811 C398 811 330 811 330 811 C330 811 297 811 297 811 C297 811 273 811 273 811 C273 811 263 811 263 811 C263 811 233 811 233 811 C234 811 234 811 233 810 C234 803 234 798 233 798 C233 798 245 745 245 745 C245 745 245 745 245 745 C245 745 60 66 60 66 C60 66 15 13 15 13 C15 13 15 0 15 0 C15 0 42 0 42 0 C42 0 76 0 76 0 C76 0 111 0 111 0 C111 0 141 0 141 0 C141 0 141 13 141 13 C141 13 129 66 129 66 C129 66 129 66 129 66 C129 66 302 707 302 707 C302 707 423 269 423 269 C423 269 184 269 184 269 C184 269 169 214 169 214 C169 214 438 214 438 214 C438 214 479 66 479 66 C479 66 467 13 467 13 C467 13 467 0 467 0 C467 0 497 0 497 0 C497 0 561 0 561 0 C561 0 624 0 624 0 C624 0 651 0 651 0 C651 0 651 13 651 13 C651 13 606 66 606 66 L606 66 Z " />
<glyph glyph-name="amacron" unicode="&#x101;" horiz-adv-x="430" d="M155 661 C155 661 267 661 267 661 C267 661 267 741 267 741 C267 741 155 741 155 741 C155 741 155 661 155 661 L155 661 Z M67 448 C67 448 124 429 124 429 C124 490 163 539 211 539 C227 539 240 502 240 429 C240 429 240 411 240 411 C240 324 197 285 143 280 C86 273 40 204 40 123 C40 49 75 -10 146 -10 C186 -10 220 14 241 70 C246 9 274 0 400 0 C400 0 400 85 400 85 C360 85 355 86 355 95 C355 95 355 380 355 380 C355 521 291 591 211 591 C131 591 67 527 67 448 L67 448 Z M240 274 C240 274 240 170 240 170 C234 72 203 33 165 33 C158 33 155 75 155 127 C155 188 166 238 180 240 C203 242 224 253 240 274 L240 274 Z " />
<glyph glyph-name="Abreve" unicode="&#x102;" horiz-adv-x="649" d="M606 66 C606 66 606 66 606 66 C606 66 398 811 398 811 C398 811 330 811 330 811 C330 811 297 811 297 811 C297 811 273 811 273 811 C273 811 263 811 263 811 C263 811 233 811 233 811 C234 811 234 811 233 810 C234 803 234 798 233 798 C233 798 245 745 245 745 C245 745 245 745 245 745 C245 745 60 66 60 66 C60 66 15 13 15 13 C15 13 15 0 15 0 C15 0 42 0 42 0 C42 0 76 0 76 0 C76 0 111 0 111 0 C111 0 141 0 141 0 C141 0 141 13 141 13 C141 13 129 66 129 66 C129 66 129 66 129 66 C129 66 302 707 302 707 C302 707 423 269 423 269 C423 269 184 269 184 269 C184 269 169 214 169 214 C169 214 438 214 438 214 C438 214 479 66 479 66 C479 66 467 13 467 13 C467 13 467 0 467 0 C467 0 497 0 497 0 C497 0 561 0 561 0 C561 0 624 0 624 0 C624 0 651 0 651 0 C651 0 651 13 651 13 C651 13 606 66 606 66 L606 66 Z M348 1026 C348 1026 324 1026 324 1026 C324 1026 263 1026 263 1026 C263 945 295 881 336 881 C377 881 409 945 409 1026 C409 1026 348 1026 348 1026 L348 1026 Z " />
<glyph glyph-name="abreve" unicode="&#x103;" horiz-adv-x="430" d="M67 448 C67 448 124 429 124 429 C124 490 163 539 211 539 C227 539 240 502 240 429 C240 429 240 411 240 411 C240 324 197 285 143 280 C86 273 40 204 40 123 C40 49 75 -10 146 -10 C186 -10 220 14 241 70 C246 9 274 0 400 0 C400 0 400 85 400 85 C360 85 355 86 355 95 C355 95 355 380 355 380 C355 521 291 591 211 591 C131 591 67 527 67 448 L67 448 Z M223 796 C223 796 199 796 199 796 C199 796 138 796 138 796 C138 715 170 651 211 651 C252 651 284 715 284 796 C284 796 223 796 223 796 L223 796 Z M240 274 C240 274 240 170 240 170 C234 72 203 33 165 33 C158 33 155 75 155 127 C155 188 166 238 180 240 C203 242 224 253 240 274 L240 274 Z " />
<glyph glyph-name="Aogonek" unicode="&#x104;" horiz-adv-x="649" d="M606 66 C606 66 606 66 606 66 C606 66 398 811 398 811 C398 811 330 811 330 811 C330 811 297 811 297 811 C297 811 273 811 273 811 C273 811 263 811 263 811 C263 811 233 811 233 811 C234 811 234 811 233 810 C234 803 234 798 233 798 C233 798 245 745 245 745 C245 745 245 745 245 745 C245 745 60 66 60 66 C60 66 15 13 15 13 C15 13 15 0 15 0 C15 0 42 0 42 0 C42 0 76 0 76 0 C76 0 111 0 111 0 C111 0 141 0 141 0 C141 0 141 13 141 13 C141 13 129 66 129 66 C129 66 129 66 129 66 C129 66 302 707 302 707 C302 707 423 269 423 269 C423 269 184 269 184 269 C184 269 169 214 169 214 C169 214 438 214 438 214 C438 214 479 66 479 66 C479 66 467 13 467 13 C467 13 467 0 467 0 C467 0 497 0 497 0 C497 0 561 0 561 0 C561 0 588 0 588 0 C552 -29 506 -75 506 -100 C506 -160 567 -208 644 -208 C674 -208 710 -194 724 -177 C724 -177 718 -143 718 -143 C705 -158 674 -170 647 -170 C604 -170 570 -134 570 -89 C570 -57 609 -9 624 0 C624 0 651 0 651 0 C651 0 651 13 651 13 C651 13 606 66 606 66 L606 66 Z " />
<glyph glyph-name="aogonek" unicode="&#x105;" horiz-adv-x="479" d="M50 291 C50 124 116 -10 199 -10 C238 -10 272 34 295 102 C295 102 295 0 295 0 C295 0 352 0 352 0 C352 0 379 0 379 0 C340 -30 291 -77 291 -99 C291 -160 352 -208 429 -208 C459 -208 495 -194 509 -177 C509 -177 503 -143 503 -143 C490 -158 459 -170 432 -170 C390 -170 356 -134 356 -88 C356 -56 395 -9 410 0 C410 0 439 0 439 0 C439 0 439 13 439 13 C439 13 410 66 410 66 C410 66 410 515 410 515 C410 515 439 568 439 568 C439 568 439 581 439 581 C439 581 410 581 410 581 C410 581 352 581 352 581 C352 581 295 581 295 581 C295 581 295 479 295 479 C272 547 238 591 199 591 C116 591 50 457 50 291 C50 291 50 291 50 291 L50 291 Z M295 291 C295 152 262 41 220 41 C195 41 175 152 175 291 C175 429 195 540 220 540 C262 540 295 429 295 291 L295 291 Z " />
<glyph glyph-name="Cacute" unicode="&#x106;" horiz-adv-x="583" d="M255 891 C255 891 360 891 360 891 C360 891 412 1041 412 1041 C412 1041 262 1041 262 1041 C262 1041 255 891 255 891 L255 891 Z M512 205 C512 117 440 47 351 47 C261 47 189 226 189 406 C189 585 261 764 351 764 C440 764 512 694 512 606 C512 606 538 628 538 628 C538 628 538 627 538 627 C538 627 563 649 563 649 C563 649 563 679 563 679 C563 679 560 679 560 679 C552 715 530 748 499 773 C498 774 498 774 498 774 C498 774 498 774 498 774 C460 803 408 821 351 821 C185 821 52 613 52 406 C52 198 185 -10 351 -10 C469 -10 563 67 563 162 C563 162 512 205 512 205 L512 205 Z " />
<glyph glyph-name="cacute" unicode="&#x107;" horiz-adv-x="421" d="M203 661 C203 661 308 661 308 661 C308 661 360 811 360 811 C360 811 210 811 210 811 C210 811 203 661 203 661 L203 661 Z M336 156 C336 92 300 42 255 42 C211 42 175 132 175 291 C175 451 211 542 255 542 C310 542 337 483 337 409 C337 409 391 436 391 436 C391 522 346 591 255 591 C141 591 50 482 50 291 C50 99 141 -10 255 -10 C331 -10 392 51 392 128 C392 128 336 156 336 156 L336 156 Z " />
<glyph glyph-name="Ccircumflex" unicode="&#x108;" horiz-adv-x="583" d="M307 951 C307 951 333 891 333 891 C333 891 438 891 438 891 C438 891 365 1041 365 1041 C365 1041 249 1041 249 1041 C249 1041 176 891 176 891 C176 891 281 891 281 891 C281 891 307 951 307 951 L307 951 Z M512 205 C512 117 440 47 351 47 C261 47 189 226 189 406 C189 585 261 764 351 764 C440 764 512 694 512 606 C512 606 538 628 538 628 C538 628 538 627 538 627 C538 627 563 649 563 649 C563 649 563 679 563 679 C563 679 560 679 560 679 C552 715 530 748 499 773 C498 774 498 774 498 774 C498 774 498 774 498 774 C460 803 408 821 351 821 C185 821 52 613 52 406 C52 198 185 -10 351 -10 C469 -10 563 67 563 162 C563 162 512 205 512 205 L512 205 Z " />
<glyph glyph-name="Cdotaccent" unicode="&#x10a;" horiz-adv-x="583" d="M245 891 C245 891 370 891 370 891 C370 891 370 1016 370 1016 C370 1016 245 1016 245 1016 C245 1016 245 891 245 891 L245 891 Z M512 205 C512 117 440 47 351 47 C261 47 189 226 189 406 C189 585 261 764 351 764 C440 764 512 694 512 606 C512 606 538 628 538 628 C538 628 538 627 538 627 C538 627 563 649 563 649 C563 649 563 679 563 679 C563 679 560 679 560 679 C552 715 530 748 499 773 C498 774 498 774 498 774 C498 774 498 774 498 774 C460 803 408 821 351 821 C185 821 52 613 52 406 C52 198 185 -10 351 -10 C469 -10 563 67 563 162 C563 162 512 205 512 205 L512 205 Z " />
<glyph glyph-name="cdotaccent" unicode="&#x10b;" horiz-adv-x="421" d="M193 661 C193 661 318 661 318 661 C318 661 318 786 318 786 C318 786 193 786 193 786 C193 786 193 661 193 661 L193 661 Z M336 156 C336 92 300 42 255 42 C211 42 175 132 175 291 C175 451 211 542 255 542 C310 542 337 483 337 409 C337 409 391 436 391 436 C391 522 346 591 255 591 C141 591 50 482 50 291 C50 99 141 -10 255 -10 C331 -10 392 51 392 128 C392 128 336 156 336 156 L336 156 Z " />
<glyph glyph-name="Ccaron" unicode="&#x10c;" horiz-adv-x="583" d="M307 981 C307 981 333 1041 333 1041 C333 1041 438 1041 438 1041 C438 1041 365 891 365 891 C365 891 249 891 249 891 C249 891 176 1041 176 1041 C176 1041 281 1041 281 1041 C281 1041 307 981 307 981 L307 981 Z M512 205 C512 117 440 47 351 47 C261 47 189 226 189 406 C189 585 261 764 351 764 C440 764 512 694 512 606 C512 606 538 628 538 628 C538 628 538 627 538 627 C538 627 563 649 563 649 C563 649 563 679 563 679 C563 679 560 679 560 679 C552 715 530 748 499 773 C498 774 498 774 498 774 C498 774 498 774 498 774 C460 803 408 821 351 821 C185 821 52 613 52 406 C52 198 185 -10 351 -10 C469 -10 563 67 563 162 C563 162 512 205 512 205 L512 205 Z " />
<glyph glyph-name="ccaron" unicode="&#x10d;" horiz-adv-x="421" d="M255 751 C255 751 281 811 281 811 C281 811 386 811 386 811 C386 811 313 661 313 661 C313 661 197 661 197 661 C197 661 124 811 124 811 C124 811 229 811 229 811 C229 811 255 751 255 751 L255 751 Z M336 156 C336 92 300 42 255 42 C211 42 175 132 175 291 C175 451 211 542 255 542 C310 542 337 483 337 409 C337 409 391 436 391 436 C391 522 346 591 255 591 C141 591 50 482 50 291 C50 99 141 -10 255 -10 C331 -10 392 51 392 128 C392 128 336 156 336 156 L336 156 Z " />
<glyph glyph-name="Dcaron" unicode="&#x10e;" horiz-adv-x="660" d="M285 981 C285 981 311 1041 311 1041 C311 1041 416 1041 416 1041 C416 1041 343 891 343 891 C343 891 227 891 227 891 C227 891 154 1041 154 1041 C154 1041 259 1041 259 1041 C259 1041 285 981 285 981 L285 981 Z M166 0 C166 0 230 0 230 0 C230 0 305 0 305 0 C493 0 605 151 605 406 C605 653 477 811 275 811 C275 811 230 811 230 811 C230 811 166 811 166 811 C166 811 102 811 102 811 C102 811 72 811 72 811 C72 811 72 798 72 798 C72 798 102 745 102 745 C102 745 102 66 102 66 C102 66 72 13 72 13 C72 13 72 0 72 0 C72 0 102 0 102 0 C102 0 166 0 166 0 L166 0 Z M230 54 C230 54 230 757 230 757 C230 757 278 757 278 757 C394 757 468 620 468 406 C468 185 406 54 301 54 C301 54 230 54 230 54 L230 54 Z " />
<glyph glyph-name="dcaron" unicode="&#x10f;" horiz-adv-x="497" d="M477 821 C477 821 489 671 489 671 C489 671 574 671 574 671 C574 671 602 821 602 821 C602 821 477 821 477 821 L477 821 Z M50 291 C50 124 114 -10 195 -10 C243 -10 286 38 312 113 C312 113 312 10 312 10 C312 10 312 0 312 0 C312 0 370 0 370 0 C370 0 427 0 427 0 C427 0 457 0 457 0 C458 0 458 1 457 1 C458 8 458 13 457 13 C457 13 427 66 427 66 C427 66 427 801 427 801 C427 801 427 811 427 811 C427 811 370 811 370 811 C370 811 312 811 312 811 C312 811 282 811 282 811 C282 811 282 798 282 798 C282 798 312 745 312 745 C312 745 312 468 312 468 C286 543 243 591 195 591 C114 591 50 457 50 291 C50 291 50 291 50 291 L50 291 Z M312 291 C312 152 269 41 215 41 C193 41 175 152 175 291 C175 429 193 540 215 540 C269 540 312 429 312 291 L312 291 Z " />
<glyph glyph-name="Dcroat" unicode="&#x110;" horiz-adv-x="660" d="M22 384 C22 384 102 384 102 384 C102 384 102 66 102 66 C102 66 72 13 72 13 C72 13 72 0 72 0 C72 0 102 0 102 0 C102 0 166 0 166 0 C166 0 230 0 230 0 C230 0 305 0 305 0 C493 0 605 151 605 406 C605 653 477 811 275 811 C275 811 230 811 230 811 C230 811 166 811 166 811 C166 811 102 811 102 811 C102 811 72 811 72 811 C72 811 72 798 72 798 C72 798 102 745 102 745 C102 745 102 427 102 427 C102 427 22 427 22 427 C22 427 22 384 22 384 L22 384 Z M230 54 C230 54 230 384 230 384 C230 384 285 384 285 384 C285 384 285 427 285 427 C285 427 230 427 230 427 C230 427 230 757 230 757 C230 757 278 757 278 757 C394 757 468 620 468 406 C468 185 406 54 301 54 C301 54 230 54 230 54 L230 54 Z " />
<glyph glyph-name="dcroat" unicode="&#x111;" horiz-adv-x="497" d="M195 679 C195 679 312 679 312 679 C312 679 312 468 312 468 C286 543 243 591 195 591 C114 591 50 457 50 291 C50 124 114 -10 195 -10 C243 -10 286 38 312 113 C312 113 312 10 312 10 C312 10 312 0 312 0 C312 0 370 0 370 0 C370 0 427 0 427 0 C427 0 457 0 457 0 C458 0 458 1 457 1 C458 8 458 13 457 13 C457 13 427 66 427 66 C427 66 427 679 427 679 C427 679 540 679 540 679 C540 679 540 723 540 723 C540 723 427 723 427 723 C427 723 427 801 427 801 C427 801 427 811 427 811 C427 811 370 811 370 811 C370 811 312 811 312 811 C312 811 282 811 282 811 C282 811 282 798 282 798 C282 798 312 745 312 745 C312 745 312 723 312 723 C312 723 195 723 195 723 C195 723 195 679 195 679 L195 679 Z M312 291 C312 152 269 41 215 41 C193 41 175 152 175 291 C175 429 193 540 215 540 C269 540 312 429 312 291 L312 291 Z " />
<glyph glyph-name="Emacron" unicode="&#x112;" horiz-adv-x="535" d="M230 891 C230 891 342 891 342 891 C342 891 342 971 342 971 C342 971 230 971 230 971 C230 971 230 891 230 891 L230 891 Z M485 28 C485 28 485 57 485 57 C485 57 485 87 485 87 C485 87 472 87 472 87 C472 87 419 57 419 57 C419 57 230 57 230 57 C230 57 230 373 230 373 C230 373 384 373 384 373 C384 373 437 343 437 343 C437 343 450 343 450 343 C450 343 450 373 450 373 C450 373 450 401 450 401 C450 401 450 428 450 428 C450 428 450 458 450 458 C450 458 437 458 437 458 C437 458 384 428 384 428 C384 428 230 428 230 428 C230 428 230 754 230 754 C230 754 404 754 404 754 C404 754 457 724 457 724 C457 724 470 724 470 724 C470 724 470 754 470 754 C470 754 470 783 470 783 C470 783 470 811 470 811 C470 811 230 811 230 811 C230 811 229 811 229 811 C229 811 166 811 166 811 C166 811 102 811 102 811 C102 811 72 811 72 811 C72 811 72 798 72 798 C72 798 102 745 102 745 C102 745 102 66 102 66 C102 66 72 13 72 13 C72 13 72 0 72 0 C72 0 102 0 102 0 C102 0 166 0 166 0 C166 0 229 0 229 0 C229 0 230 0 230 0 C230 0 485 0 485 0 C485 0 485 28 485 28 L485 28 Z " />
<glyph glyph-name="emacron" unicode="&#x113;" horiz-adv-x="428" d="M176 661 C176 661 288 661 288 661 C288 661 288 741 288 741 C288 741 176 741 176 741 C176 741 176 661 176 661 L176 661 Z M340 152 C340 91 288 42 224 42 C198 42 177 123 175 267 C175 267 300 267 300 267 C300 267 415 267 415 267 C415 447 354 591 232 591 C131 591 50 482 50 291 C50 99 127 -10 224 -10 C321 -10 398 52 398 129 C398 129 340 152 340 152 L340 152 Z M299 311 C299 311 175 311 175 311 C177 459 201 542 232 542 C273 542 295 443 299 311 L299 311 Z " />
<glyph glyph-name="Ebreve" unicode="&#x114;" horiz-adv-x="535" d="M298 1026 C298 1026 274 1026 274 1026 C274 1026 213 1026 213 1026 C213 945 245 881 286 881 C327 881 359 945 359 1026 C359 1026 298 1026 298 1026 L298 1026 Z M485 28 C485 28 485 57 485 57 C485 57 485 87 485 87 C485 87 472 87 472 87 C472 87 419 57 419 57 C419 57 230 57 230 57 C230 57 230 373 230 373 C230 373 384 373 384 373 C384 373 437 343 437 343 C437 343 450 343 450 343 C450 343 450 373 450 373 C450 373 450 401 450 401 C450 401 450 428 450 428 C450 428 450 458 450 458 C450 458 437 458 437 458 C437 458 384 428 384 428 C384 428 230 428 230 428 C230 428 230 754 230 754 C230 754 404 754 404 754 C404 754 457 724 457 724 C457 724 470 724 470 724 C470 724 470 754 470 754 C470 754 470 783 470 783 C470 783 470 811 470 811 C470 811 230 811 230 811 C230 811 229 811 229 811 C229 811 166 811 166 811 C166 811 102 811 102 811 C102 811 72 811 72 811 C72 811 72 798 72 798 C72 798 102 745 102 745 C102 745 102 66 102 66 C102 66 72 13 72 13 C72 13 72 0 72 0 C72 0 102 0 102 0 C102 0 166 0 166 0 C166 0 229 0 229 0 C229 0 230 0 230 0 C230 0 485 0 485 0 C485 0 485 28 485 28 L485 28 Z " />
<glyph glyph-name="ebreve" unicode="&#x115;" horiz-adv-x="428" d="M340 152 C340 91 288 42 224 42 C198 42 177 123 175 267 C175 267 300 267 300 267 C300 267 415 267 415 267 C415 447 354 591 232 591 C131 591 50 482 50 291 C50 99 127 -10 224 -10 C321 -10 398 52 398 129 C398 129 340 152 340 152 L340 152 Z M244 796 C244 796 220 796 220 796 C220 796 159 796 159 796 C159 715 192 651 232 651 C273 651 305 715 305 796 C305 796 244 796 244 796 L244 796 Z M299 311 C299 311 175 311 175 311 C177 459 201 542 232 542 C273 542 295 443 299 311 L299 311 Z " />
<glyph glyph-name="Edotaccent" unicode="&#x116;" horiz-adv-x="535" d="M224 891 C224 891 349 891 349 891 C349 891 349 1016 349 1016 C349 1016 224 1016 224 1016 C224 1016 224 891 224 891 L224 891 Z M485 28 C485 28 485 57 485 57 C485 57 485 87 485 87 C485 87 472 87 472 87 C472 87 419 57 419 57 C419 57 230 57 230 57 C230 57 230 373 230 373 C230 373 384 373 384 373 C384 373 437 343 437 343 C437 343 450 343 450 343 C450 343 450 373 450 373 C450 373 450 401 450 401 C450 401 450 428 450 428 C450 428 450 458 450 458 C450 458 437 458 437 458 C437 458 384 428 384 428 C384 428 230 428 230 428 C230 428 230 754 230 754 C230 754 404 754 404 754 C404 754 457 724 457 724 C457 724 470 724 470 724 C470 724 470 754 470 754 C470 754 470 783 470 783 C470 783 470 811 470 811 C470 811 230 811 230 811 C230 811 229 811 229 811 C229 811 166 811 166 811 C166 811 102 811 102 811 C102 811 72 811 72 811 C72 811 72 798 72 798 C72 798 102 745 102 745 C102 745 102 66 102 66 C102 66 72 13 72 13 C72 13 72 0 72 0 C72 0 102 0 102 0 C102 0 166 0 166 0 C166 0 229 0 229 0 C229 0 230 0 230 0 C230 0 485 0 485 0 C485 0 485 28 485 28 L485 28 Z " />
<glyph glyph-name="edotaccent" unicode="&#x117;" horiz-adv-x="428" d="M170 661 C170 661 295 661 295 661 C295 661 295 786 295 786 C295 786 170 786 170 786 C170 786 170 661 170 661 L170 661 Z M340 152 C340 91 288 42 224 42 C198 42 177 123 175 267 C175 267 300 267 300 267 C300 267 415 267 415 267 C415 447 354 591 232 591 C131 591 50 482 50 291 C50 99 127 -10 224 -10 C321 -10 398 52 398 129 C398 129 340 152 340 152 L340 152 Z M299 311 C299 311 175 311 175 311 C177 459 201 542 232 542 C273 542 295 443 299 311 L299 311 Z " />
<glyph glyph-name="Eogonek" unicode="&#x118;" horiz-adv-x="535" d="M279 0 C241 -30 192 -77 192 -99 C192 -160 253 -208 329 -208 C359 -208 395 -194 409 -177 C409 -177 403 -143 403 -143 C390 -158 359 -170 332 -170 C290 -170 256 -134 256 -88 C256 -56 295 -9 310 0 C310 0 485 0 485 0 C485 0 485 28 485 28 C485 28 485 57 485 57 C485 57 485 87 485 87 C485 87 472 87 472 87 C472 87 419 57 419 57 C419 57 230 57 230 57 C230 57 230 373 230 373 C230 373 384 373 384 373 C384 373 437 343 437 343 C437 343 450 343 450 343 C450 343 450 373 450 373 C450 373 450 401 450 401 C450 401 450 428 450 428 C450 428 450 458 450 458 C450 458 437 458 437 458 C437 458 384 428 384 428 C384 428 230 428 230 428 C230 428 230 754 230 754 C230 754 404 754 404 754 C404 754 457 724 457 724 C457 724 470 724 470 724 C470 724 470 754 470 754 C470 754 470 783 470 783 C470 783 470 811 470 811 C470 811 230 811 230 811 C230 811 229 811 229 811 C229 811 166 811 166 811 C166 811 102 811 102 811 C102 811 72 811 72 811 C72 811 72 798 72 798 C72 798 102 745 102 745 C102 745 102 66 102 66 C102 66 72 13 72 13 C72 13 72 0 72 0 C72 0 102 0 102 0 C102 0 166 0 166 0 C166 0 229 0 229 0 C229 0 230 0 230 0 C230 0 279 0 279 0 L279 0 Z " />
<glyph glyph-name="eogonek" unicode="&#x119;" horiz-adv-x="428" d="M340 152 C340 91 288 42 224 42 C198 42 177 123 175 267 C175 267 300 267 300 267 C300 267 415 267 415 267 C415 447 354 591 232 591 C131 591 50 482 50 291 C50 99 127 -10 224 -10 C236 -10 247 -9 258 -7 C224 -37 186 -76 186 -96 C186 -158 247 -208 323 -208 C354 -208 390 -194 404 -177 C404 -177 398 -143 398 -143 C385 -158 354 -170 327 -170 C284 -170 250 -132 250 -85 C250 -54 285 -8 302 4 C359 27 398 74 398 129 C398 129 340 152 340 152 L340 152 Z M299 311 C299 311 175 311 175 311 C177 459 201 542 232 542 C273 542 295 443 299 311 L299 311 Z " />
<glyph glyph-name="Ecaron" unicode="&#x11a;" horiz-adv-x="535" d="M286 981 C286 981 312 1041 312 1041 C312 1041 417 1041 417 1041 C417 1041 344 891 344 891 C344 891 228 891 228 891 C228 891 155 1041 155 1041 C155 1041 260 1041 260 1041 C260 1041 286 981 286 981 L286 981 Z M485 28 C485 28 485 57 485 57 C485 57 485 87 485 87 C485 87 472 87 472 87 C472 87 419 57 419 57 C419 57 230 57 230 57 C230 57 230 373 230 373 C230 373 384 373 384 373 C384 373 437 343 437 343 C437 343 450 343 450 343 C450 343 450 373 450 373 C450 373 450 401 450 401 C450 401 450 428 450 428 C450 428 450 458 450 458 C450 458 437 458 437 458 C437 458 384 428 384 428 C384 428 230 428 230 428 C230 428 230 754 230 754 C230 754 404 754 404 754 C404 754 457 724 457 724 C457 724 470 724 470 724 C470 724 470 754 470 754 C470 754 470 783 470 783 C470 783 470 811 470 811 C470 811 230 811 230 811 C230 811 229 811 229 811 C229 811 166 811 166 811 C166 811 102 811 102 811 C102 811 72 811 72 811 C72 811 72 798 72 798 C72 798 102 745 102 745 C102 745 102 66 102 66 C102 66 72 13 72 13 C72 13 72 0 72 0 C72 0 102 0 102 0 C102 0 166 0 166 0 C166 0 229 0 229 0 C229 0 230 0 230 0 C230 0 485 0 485 0 C485 0 485 28 485 28 L485 28 Z " />
<glyph glyph-name="ecaron" unicode="&#x11b;" horiz-adv-x="428" d="M232 751 C232 751 258 811 258 811 C258 811 363 811 363 811 C363 811 290 661 290 661 C290 661 174 661 174 661 C174 661 101 811 101 811 C101 811 206 811 206 811 C206 811 232 751 232 751 L232 751 Z M340 152 C340 91 288 42 224 42 C198 42 177 123 175 267 C175 267 300 267 300 267 C300 267 415 267 415 267 C415 447 354 591 232 591 C131 591 50 482 50 291 C50 99 127 -10 224 -10 C321 -10 398 52 398 129 C398 129 340 152 340 152 L340 152 Z M299 311 C299 311 175 311 175 311 C177 459 201 542 232 542 C273 542 295 443 299 311 L299 311 Z " />
<glyph glyph-name="Gcircumflex" unicode="&#x11c;" horiz-adv-x="637" d="M372 951 C372 951 398 891 398 891 C398 891 503 891 503 891 C503 891 430 1041 430 1041 C430 1041 314 1041 314 1041 C314 1041 241 891 241 891 C241 891 346 891 346 891 C346 891 372 951 372 951 L372 951 Z M355 376 C355 376 525 376 525 376 C525 376 525 132 525 132 C470 85 404 47 372 47 C270 47 189 206 189 406 C189 605 270 764 372 764 C455 764 522 694 522 606 C522 606 547 627 547 627 C547 627 547 627 547 627 C547 627 573 649 573 649 C573 649 573 679 573 679 C573 679 570 679 570 679 C562 717 540 751 507 777 C507 777 507 777 507 777 C507 777 507 777 507 777 C471 804 424 821 372 821 C194 821 52 636 52 406 C52 175 194 -10 372 -10 C428 -10 521 38 592 97 C592 97 592 433 592 433 C592 433 355 433 355 433 C355 433 355 376 355 376 L355 376 Z " />
<glyph glyph-name="Gbreve" unicode="&#x11e;" horiz-adv-x="637" d="M355 376 C355 376 525 376 525 376 C525 376 525 132 525 132 C470 85 404 47 372 47 C270 47 189 206 189 406 C189 605 270 764 372 764 C455 764 522 694 522 606 C522 606 547 627 547 627 C547 627 547 627 547 627 C547 627 573 649 573 649 C573 649 573 679 573 679 C573 679 570 679 570 679 C562 717 540 751 507 777 C507 777 507 777 507 777 C507 777 507 777 507 777 C471 804 424 821 372 821 C194 821 52 636 52 406 C52 175 194 -10 372 -10 C428 -10 521 38 592 97 C592 97 592 433 592 433 C592 433 355 433 355 433 C355 433 355 376 355 376 L355 376 Z M384 1026 C384 1026 361 1026 361 1026 C361 1026 299 1026 299 1026 C299 945 332 881 372 881 C413 881 446 945 446 1026 C446 1026 384 1026 384 1026 L384 1026 Z " />
<glyph glyph-name="gbreve" unicode="&#x11f;" horiz-adv-x="487" d="M64 -69 C64 -144 143 -181 242 -181 C359 -181 417 -79 417 49 C417 49 417 515 417 515 C417 515 447 568 447 568 C448 568 448 573 447 580 C448 581 448 581 447 581 C447 581 417 581 417 581 C417 581 360 581 360 581 C360 581 302 581 302 581 C302 581 302 472 302 472 C277 544 236 591 190 591 C112 591 50 491 50 291 C50 97 112 0 190 0 C236 0 277 45 302 115 C302 115 302 0 302 0 C302 -72 280 -129 236 -129 C178 -129 132 -109 132 -69 C132 -69 64 -69 64 -69 L64 -69 Z M210 540 C261 540 302 429 302 291 C302 157 261 51 210 51 C191 51 175 131 175 291 C175 457 191 540 210 540 L210 540 Z M245 796 C245 796 222 796 222 796 C222 796 160 796 160 796 C160 715 193 651 234 651 C274 651 307 715 307 796 C307 796 245 796 245 796 L245 796 Z " />
<glyph glyph-name="Gdotaccent" unicode="&#x120;" horiz-adv-x="637" d="M310 891 C310 891 435 891 435 891 C435 891 435 1016 435 1016 C435 1016 310 1016 310 1016 C310 1016 310 891 310 891 L310 891 Z M355 376 C355 376 525 376 525 376 C525 376 525 132 525 132 C470 85 404 47 372 47 C270 47 189 206 189 406 C189 605 270 764 372 764 C455 764 522 694 522 606 C522 606 547 627 547 627 C547 627 547 627 547 627 C547 627 573 649 573 649 C573 649 573 679 573 679 C573 679 570 679 570 679 C562 717 540 751 507 777 C507 777 507 777 507 777 C507 777 507 777 507 777 C471 804 424 821 372 821 C194 821 52 636 52 406 C52 175 194 -10 372 -10 C428 -10 521 38 592 97 C592 97 592 433 592 433 C592 433 355 433 355 433 C355 433 355 376 355 376 L355 376 Z " />
<glyph glyph-name="gdotaccent" unicode="&#x121;" horiz-adv-x="487" d="M171 661 C171 661 296 661 296 661 C296 661 296 786 296 786 C296 786 171 786 171 786 C171 786 171 661 171 661 L171 661 Z M64 -69 C64 -144 143 -181 242 -181 C359 -181 417 -79 417 49 C417 49 417 515 417 515 C417 515 447 568 447 568 C448 568 448 573 447 580 C448 581 448 581 447 581 C447 581 417 581 417 581 C417 581 360 581 360 581 C360 581 302 581 302 581 C302 581 302 472 302 472 C277 544 236 591 190 591 C112 591 50 491 50 291 C50 97 112 0 190 0 C236 0 277 45 302 115 C302 115 302 0 302 0 C302 -72 280 -129 236 -129 C178 -129 132 -109 132 -69 C132 -69 64 -69 64 -69 L64 -69 Z M210 540 C261 540 302 429 302 291 C302 157 261 51 210 51 C191 51 175 131 175 291 C175 457 191 540 210 540 L210 540 Z " />
<glyph glyph-name="Hcircumflex" unicode="&#x124;" horiz-adv-x="661" d="M332 951 C332 951 358 891 358 891 C358 891 463 891 463 891 C463 891 390 1041 390 1041 C390 1041 274 1041 274 1041 C274 1041 201 891 201 891 C201 891 306 891 306 891 C306 891 332 951 332 951 L332 951 Z M497 0 C497 0 561 0 561 0 C561 0 591 0 591 0 C591 0 591 13 591 13 C591 13 561 66 561 66 C561 66 561 745 561 745 C561 745 591 798 591 798 C591 798 591 811 591 811 C591 811 561 811 561 811 C561 811 497 811 497 811 C497 811 433 811 433 811 C433 811 403 811 403 811 C403 811 403 798 403 798 C403 798 433 745 433 745 C433 745 433 439 433 439 C433 439 230 439 230 439 C230 439 230 745 230 745 C230 745 260 798 260 798 C260 798 260 811 260 811 C260 811 230 811 230 811 C230 811 166 811 166 811 C166 811 102 811 102 811 C102 811 72 811 72 811 C72 811 72 798 72 798 C72 798 102 745 102 745 C102 745 102 66 102 66 C102 66 72 13 72 13 C72 13 72 0 72 0 C72 0 102 0 102 0 C102 0 166 0 166 0 C166 0 230 0 230 0 C230 0 260 0 260 0 C260 0 260 13 260 13 C260 13 230 66 230 66 C230 66 230 382 230 382 C230 382 433 382 433 382 C433 382 433 66 433 66 C433 66 403 13 403 13 C403 13 403 0 403 0 C403 0 433 0 433 0 C433 0 497 0 497 0 L497 0 Z " />
<glyph glyph-name="Itilde" unicode="&#x128;" horiz-adv-x="331" d="M135 891 C135 930 141 961 148 961 C195 961 121 881 194 881 C244 881 284 952 284 1041 C284 1041 199 1041 199 1041 C199 1002 193 971 186 971 C139 971 213 1051 140 1051 C90 1051 50 980 50 891 C50 891 135 891 135 891 L135 891 Z M167 0 C167 0 231 0 231 0 C231 0 261 0 261 0 C261 0 261 13 261 13 C261 13 231 66 231 66 C231 66 231 745 231 745 C231 745 261 798 261 798 C261 798 261 811 261 811 C261 811 231 811 231 811 C231 811 167 811 167 811 C167 811 103 811 103 811 C103 811 73 811 73 811 C73 811 73 798 73 798 C73 798 103 745 103 745 C103 745 103 66 103 66 C103 66 73 13 73 13 C73 13 73 0 73 0 C73 0 103 0 103 0 C103 0 167 0 167 0 L167 0 Z " />
<glyph glyph-name="itilde" unicode="&#x129;" horiz-adv-x="227" d="M53 661 C53 700 59 731 66 731 C113 731 39 651 112 651 C162 651 202 722 202 811 C202 811 117 811 117 811 C117 772 111 741 104 741 C57 741 131 821 58 821 C8 821 -32 750 -32 661 C-32 661 53 661 53 661 L53 661 Z M27 581 C27 581 85 581 85 581 C85 581 27 581 27 581 L27 581 Z M27 581 C27 581 -2 581 -2 581 C-2 581 -2 568 -2 568 C-2 568 27 515 27 515 C27 515 27 0 27 0 C27 0 142 0 142 0 C142 0 142 581 142 581 C142 581 27 581 27 581 L27 581 Z " />
<glyph glyph-name="Imacron" unicode="&#x12a;" horiz-adv-x="331" d="M111 891 C111 891 223 891 223 891 C223 891 223 971 223 971 C223 971 111 971 111 971 C111 971 111 891 111 891 L111 891 Z M167 0 C167 0 231 0 231 0 C231 0 261 0 261 0 C261 0 261 13 261 13 C261 13 231 66 231 66 C231 66 231 745 231 745 C231 745 261 798 261 798 C261 798 261 811 261 811 C261 811 231 811 231 811 C231 811 167 811 167 811 C167 811 103 811 103 811 C103 811 73 811 73 811 C73 811 73 798 73 798 C73 798 103 745 103 745 C103 745 103 66 103 66 C103 66 73 13 73 13 C73 13 73 0 73 0 C73 0 103 0 103 0 C103 0 167 0 167 0 L167 0 Z " />
<glyph glyph-name="imacron" unicode="&#x12b;" horiz-adv-x="227" d="M29 661 C29 661 141 661 141 661 C141 661 141 741 141 741 C141 741 29 741 29 741 C29 741 29 661 29 661 L29 661 Z M85 581 C85 581 27 581 27 581 C27 581 -2 581 -2 581 C-2 581 -2 568 -2 568 C-2 568 27 515 27 515 C27 515 27 66 27 66 C27 66 -2 13 -2 13 C-2 13 -2 0 -2 0 C-2 0 27 0 27 0 C27 0 85 0 85 0 C85 0 142 0 142 0 C142 0 172 0 172 0 C172 0 172 13 172 13 C172 13 142 66 142 66 C142 66 142 581 142 581 C142 581 85 581 85 581 L85 581 Z " />
<glyph glyph-name="Ibreve" unicode="&#x12c;" horiz-adv-x="331" d="M179 1026 C179 1026 155 1026 155 1026 C155 1026 94 1026 94 1026 C94 945 126 881 167 881 C208 881 240 945 240 1026 C240 1026 179 1026 179 1026 L179 1026 Z M167 0 C167 0 231 0 231 0 C231 0 261 0 261 0 C261 0 261 13 261 13 C261 13 231 66 231 66 C231 66 231 745 231 745 C231 745 261 798 261 798 C261 798 261 811 261 811 C261 811 231 811 231 811 C231 811 167 811 167 811 C167 811 103 811 103 811 C103 811 73 811 73 811 C73 811 73 798 73 798 C73 798 103 745 103 745 C103 745 103 66 103 66 C103 66 73 13 73 13 C73 13 73 0 73 0 C73 0 103 0 103 0 C103 0 167 0 167 0 L167 0 Z " />
<glyph glyph-name="ibreve" unicode="&#x12d;" horiz-adv-x="227" d="M97 796 C97 796 73 796 73 796 C73 796 12 796 12 796 C12 715 44 651 85 651 C126 651 158 715 158 796 C158 796 97 796 97 796 L97 796 Z M85 581 C85 581 27 581 27 581 C27 581 -2 581 -2 581 C-2 581 -2 568 -2 568 C-2 568 27 515 27 515 C27 515 27 66 27 66 C27 66 -2 13 -2 13 C-2 13 -2 0 -2 0 C-2 0 27 0 27 0 C27 0 85 0 85 0 C85 0 142 0 142 0 C142 0 172 0 172 0 C172 0 172 13 172 13 C172 13 142 66 142 66 C142 66 142 581 142 581 C142 581 85 581 85 581 L85 581 Z " />
<glyph glyph-name="Idotaccent" unicode="&#x130;" horiz-adv-x="331" d="M104 891 C104 891 229 891 229 891 C229 891 229 1016 229 1016 C229 1016 104 1016 104 1016 C104 1016 104 891 104 891 L104 891 Z M167 0 C167 0 231 0 231 0 C231 0 261 0 261 0 C261 0 261 13 261 13 C261 13 231 66 231 66 C231 66 231 745 231 745 C231 745 261 798 261 798 C261 798 261 811 261 811 C261 811 231 811 231 811 C231 811 167 811 167 811 C167 811 103 811 103 811 C103 811 73 811 73 811 C73 811 73 798 73 798 C73 798 103 745 103 745 C103 745 103 66 103 66 C103 66 73 13 73 13 C73 13 73 0 73 0 C73 0 103 0 103 0 C103 0 167 0 167 0 L167 0 Z " />
<glyph glyph-name="dotlessi" unicode="&#x131;" horiz-adv-x="294" d="M110 0 C110 0 225 0 225 0 C225 0 225 581 225 581 C225 581 110 581 110 581 C110 581 110 0 110 0 L110 0 Z " />
<glyph glyph-name="Jcircumflex" unicode="&#x134;" horiz-adv-x="445" d="M296 951 C296 951 322 891 322 891 C322 891 427 891 427 891 C427 891 354 1041 354 1041 C354 1041 238 1041 238 1041 C238 1041 165 891 165 891 C165 891 270 891 270 891 C270 891 296 951 296 951 L296 951 Z M49 279 C49 279 49 216 49 216 C49 72 105 -10 205 -10 C300 -10 360 100 360 238 C360 238 360 745 360 745 C360 745 390 798 390 798 C390 798 390 811 390 811 C390 811 360 811 360 811 C360 811 296 811 296 811 C296 811 232 811 232 811 C232 811 202 811 202 811 C202 811 202 798 202 798 C202 798 232 745 232 745 C232 745 232 238 232 238 C232 136 221 55 205 55 C187 55 177 126 177 252 C177 252 177 302 177 302 C177 302 49 279 49 279 L49 279 Z " />
<glyph glyph-name="Lacute" unicode="&#x139;" horiz-adv-x="481" d="M114 891 C114 891 219 891 219 891 C219 891 272 1041 272 1041 C272 1041 122 1041 122 1041 C122 1041 114 891 114 891 L114 891 Z M436 28 C436 28 436 57 436 57 C436 57 436 87 436 87 C436 87 423 87 423 87 C423 87 370 57 370 57 C370 57 231 57 231 57 C231 57 231 745 231 745 C231 745 261 798 261 798 C261 798 261 811 261 811 C261 811 231 811 231 811 C231 811 167 811 167 811 C167 811 103 811 103 811 C103 811 73 811 73 811 C73 811 73 798 73 798 C73 798 103 745 103 745 C103 745 103 66 103 66 C103 66 73 13 73 13 C73 13 73 0 73 0 C73 0 103 0 103 0 C103 0 167 0 167 0 C167 0 231 0 231 0 C231 0 436 0 436 0 C436 0 436 28 436 28 L436 28 Z " />
<glyph glyph-name="lacute" unicode="&#x13a;" horiz-adv-x="314" d="M76 851 C76 851 181 851 181 851 C181 851 233 1001 233 1001 C233 1001 83 1001 83 1001 C83 1001 76 851 76 851 L76 851 Z M157 0 C157 0 214 0 214 0 C214 0 244 0 244 0 C244 0 244 13 244 13 C244 13 214 66 214 66 C214 66 214 801 214 801 C214 801 214 811 214 811 C214 811 157 811 157 811 C157 811 99 811 99 811 C99 811 69 811 69 811 C70 811 70 811 69 810 C70 803 70 798 69 798 C69 798 99 745 99 745 C99 745 99 66 99 66 C99 66 69 13 69 13 C70 13 70 8 69 1 C70 1 70 0 69 0 C69 0 99 0 99 0 C99 0 157 0 157 0 L157 0 Z " />
<glyph glyph-name="Lcaron" unicode="&#x13d;" horiz-adv-x="481" d="M301 821 C301 821 313 671 313 671 C313 671 398 671 398 671 C398 671 426 821 426 821 C426 821 301 821 301 821 L301 821 Z M436 28 C436 28 436 57 436 57 C436 57 436 87 436 87 C436 87 423 87 423 87 C423 87 370 57 370 57 C370 57 231 57 231 57 C231 57 231 745 231 745 C231 745 261 798 261 798 C261 798 261 811 261 811 C261 811 231 811 231 811 C231 811 167 811 167 811 C167 811 103 811 103 811 C103 811 73 811 73 811 C73 811 73 798 73 798 C73 798 103 745 103 745 C103 745 103 66 103 66 C103 66 73 13 73 13 C73 13 73 0 73 0 C73 0 103 0 103 0 C103 0 167 0 167 0 C167 0 231 0 231 0 C231 0 436 0 436 0 C436 0 436 28 436 28 L436 28 Z " />
<glyph glyph-name="lcaron" unicode="&#x13e;" horiz-adv-x="314" d="M264 821 C264 821 276 671 276 671 C276 671 361 671 361 671 C361 671 389 821 389 821 C389 821 264 821 264 821 L264 821 Z M157 0 C157 0 214 0 214 0 C214 0 244 0 244 0 C244 0 244 13 244 13 C244 13 214 66 214 66 C214 66 214 801 214 801 C214 801 214 811 214 811 C214 811 157 811 157 811 C157 811 99 811 99 811 C99 811 69 811 69 811 C70 811 70 811 69 810 C70 803 70 798 69 798 C69 798 99 745 99 745 C99 745 99 66 99 66 C99 66 69 13 69 13 C70 13 70 8 69 1 C70 1 70 0 69 0 C69 0 99 0 99 0 C99 0 157 0 157 0 L157 0 Z " />
<glyph glyph-name="Lslash" unicode="&#x141;" horiz-adv-x="481" d="M23 332 C23 332 103 358 103 358 C103 358 103 66 103 66 C103 66 73 13 73 13 C73 13 73 0 73 0 C73 0 103 0 103 0 C103 0 167 0 167 0 C167 0 231 0 231 0 C231 0 436 0 436 0 C436 0 436 28 436 28 C436 28 436 57 436 57 C436 57 436 87 436 87 C436 87 423 87 423 87 C423 87 370 57 370 57 C370 57 231 57 231 57 C231 57 231 399 231 399 C231 399 334 432 334 432 C334 432 334 479 334 479 C334 479 231 446 231 446 C231 446 231 745 231 745 C231 745 261 798 261 798 C261 798 261 811 261 811 C261 811 231 811 231 811 C231 811 167 811 167 811 C167 811 103 811 103 811 C103 811 73 811 73 811 C73 811 73 798 73 798 C73 798 103 745 103 745 C103 745 103 405 103 405 C103 405 23 379 23 379 C23 379 23 332 23 332 L23 332 Z " />
<glyph glyph-name="lslash" unicode="&#x142;" horiz-adv-x="314" d="M19 332 C19 332 99 361 99 361 C99 361 99 66 99 66 C99 66 69 13 69 13 C70 13 70 8 69 1 C70 1 70 0 69 0 C69 0 99 0 99 0 C99 0 157 0 157 0 C157 0 214 0 214 0 C214 0 244 0 244 0 C244 0 244 13 244 13 C244 13 214 66 214 66 C214 66 214 403 214 403 C214 403 294 432 294 432 C294 432 294 479 294 479 C294 479 214 450 214 450 C214 450 214 801 214 801 C214 801 214 811 214 811 C214 811 157 811 157 811 C157 811 99 811 99 811 C99 811 69 811 69 811 C70 811 70 811 69 810 C70 803 70 798 69 798 C69 798 99 745 99 745 C99 745 99 408 99 408 C99 408 19 379 19 379 C19 379 19 332 19 332 L19 332 Z " />
<glyph glyph-name="Nacute" unicode="&#x143;" horiz-adv-x="576" d="M144 891 C144 891 249 891 249 891 C249 891 301 1041 301 1041 C301 1041 151 1041 151 1041 C151 1041 144 891 144 891 L144 891 Z M406 745 C406 745 406 188 406 188 C406 188 247 811 247 811 C247 811 186 811 186 811 C186 811 151 811 151 811 C151 811 117 811 117 811 C117 811 87 811 87 811 C87 811 87 798 87 798 C87 798 117 745 117 745 C117 745 117 66 117 66 C117 66 87 13 87 13 C87 13 87 0 87 0 C87 0 117 0 117 0 C117 0 151 0 151 0 C151 0 186 0 186 0 C186 0 216 0 216 0 C216 0 216 13 216 13 C216 13 186 66 186 66 C186 66 186 539 186 539 C186 539 323 0 323 0 C323 0 406 0 406 0 C406 0 454 0 454 0 C454 0 476 0 476 0 C476 0 476 745 476 745 C476 745 506 798 506 798 C506 798 506 811 506 811 C506 811 476 811 476 811 C476 811 441 811 441 811 C441 811 406 811 406 811 C406 811 377 811 377 811 C377 811 377 798 377 798 C377 798 406 745 406 745 L406 745 Z " />
<glyph glyph-name="nacute" unicode="&#x144;" horiz-adv-x="459" d="M180 661 C180 661 285 661 285 661 C285 661 338 811 338 811 C338 811 188 811 188 811 C188 811 180 661 180 661 L180 661 Z M322 0 C322 0 380 0 380 0 C380 0 410 0 410 0 C410 0 410 13 410 13 C410 13 380 66 380 66 C380 66 380 376 380 376 C380 504 329 586 265 586 C239 586 216 559 200 516 C200 516 200 571 200 571 C200 571 200 581 200 581 C200 581 143 581 143 581 C143 581 114 581 114 581 C114 581 85 581 85 581 C85 581 55 581 55 581 C55 581 55 568 55 568 C55 568 85 515 85 515 C85 515 85 66 85 66 C85 66 55 13 55 13 C55 13 55 0 55 0 C55 0 85 0 85 0 C85 0 143 0 143 0 C143 0 200 0 200 0 C200 0 230 0 230 0 C230 0 230 13 230 13 C230 13 200 66 200 66 C200 66 200 381 200 381 C200 464 218 530 241 530 C254 530 265 470 265 376 C265 376 265 66 265 66 C265 66 235 13 235 13 C235 13 235 0 235 0 C235 0 265 0 265 0 C265 0 322 0 322 0 L322 0 Z " />
<glyph glyph-name="Ncaron" unicode="&#x147;" horiz-adv-x="576" d="M296 981 C296 981 322 1041 322 1041 C322 1041 427 1041 427 1041 C427 1041 354 891 354 891 C354 891 238 891 238 891 C238 891 165 1041 165 1041 C165 1041 270 1041 270 1041 C270 1041 296 981 296 981 L296 981 Z M406 745 C406 745 406 188 406 188 C406 188 247 811 247 811 C247 811 186 811 186 811 C186 811 151 811 151 811 C151 811 117 811 117 811 C117 811 87 811 87 811 C87 811 87 798 87 798 C87 798 117 745 117 745 C117 745 117 66 117 66 C117 66 87 13 87 13 C87 13 87 0 87 0 C87 0 117 0 117 0 C117 0 151 0 151 0 C151 0 186 0 186 0 C186 0 216 0 216 0 C216 0 216 13 216 13 C216 13 186 66 186 66 C186 66 186 539 186 539 C186 539 323 0 323 0 C323 0 406 0 406 0 C406 0 454 0 454 0 C454 0 476 0 476 0 C476 0 476 745 476 745 C476 745 506 798 506 798 C506 798 506 811 506 811 C506 811 476 811 476 811 C476 811 441 811 441 811 C441 811 406 811 406 811 C406 811 377 811 377 811 C377 811 377 798 377 798 C377 798 406 745 406 745 L406 745 Z " />
<glyph glyph-name="ncaron" unicode="&#x148;" horiz-adv-x="459" d="M233 751 C233 751 259 811 259 811 C259 811 364 811 364 811 C364 811 291 661 291 661 C291 661 175 661 175 661 C175 661 102 811 102 811 C102 811 207 811 207 811 C207 811 233 751 233 751 L233 751 Z M322 0 C322 0 380 0 380 0 C380 0 410 0 410 0 C410 0 410 13 410 13 C410 13 380 66 380 66 C380 66 380 376 380 376 C380 504 329 586 265 586 C239 586 216 559 200 516 C200 516 200 571 200 571 C200 571 200 581 200 581 C200 581 143 581 143 581 C143 581 114 581 114 581 C114 581 85 581 85 581 C85 581 55 581 55 581 C55 581 55 568 55 568 C55 568 85 515 85 515 C85 515 85 66 85 66 C85 66 55 13 55 13 C55 13 55 0 55 0 C55 0 85 0 85 0 C85 0 143 0 143 0 C143 0 200 0 200 0 C200 0 230 0 230 0 C230 0 230 13 230 13 C230 13 200 66 200 66 C200 66 200 381 200 381 C200 464 218 530 241 530 C254 530 265 470 265 376 C265 376 265 66 265 66 C265 66 235 13 235 13 C235 13 235 0 235 0 C235 0 265 0 265 0 C265 0 322 0 322 0 L322 0 Z " />
<glyph glyph-name="Omacron" unicode="&#x14c;" horiz-adv-x="694" d="M292 891 C292 891 404 891 404 891 C404 891 404 971 404 971 C404 971 292 971 292 971 C292 971 292 891 292 891 L292 891 Z M348 47 C262 47 194 206 194 406 C194 595 267 764 348 764 C429 764 501 595 501 406 C501 206 433 47 348 47 L348 47 Z M57 406 C57 175 186 -10 348 -10 C510 -10 639 175 639 406 C639 625 501 821 348 821 C194 821 57 625 57 406 L57 406 Z " />
<glyph glyph-name="omacron" unicode="&#x14d;" horiz-adv-x="470" d="M179 661 C179 661 291 661 291 661 C291 661 291 741 291 741 C291 741 179 741 179 741 C179 741 179 661 179 661 L179 661 Z M235 36 C197 36 175 149 175 291 C175 453 202 545 235 545 C273 545 295 432 295 291 C295 128 268 36 235 36 L235 36 Z M50 291 C50 124 117 -10 235 -10 C338 -10 420 99 420 291 C420 457 353 591 235 591 C132 591 50 482 50 291 L50 291 Z " />
<glyph glyph-name="Obreve" unicode="&#x14e;" horiz-adv-x="694" d="M348 47 C262 47 194 206 194 406 C194 595 267 764 348 764 C429 764 501 595 501 406 C501 206 433 47 348 47 L348 47 Z M57 406 C57 175 186 -10 348 -10 C510 -10 639 175 639 406 C639 625 501 821 348 821 C194 821 57 625 57 406 L57 406 Z M360 1026 C360 1026 336 1026 336 1026 C336 1026 275 1026 275 1026 C275 945 307 881 348 881 C388 881 421 945 421 1026 C421 1026 360 1026 360 1026 L360 1026 Z " />
<glyph glyph-name="obreve" unicode="&#x14f;" horiz-adv-x="470" d="M235 36 C197 36 175 149 175 291 C175 453 202 545 235 545 C273 545 295 432 295 291 C295 128 268 36 235 36 L235 36 Z M50 291 C50 124 117 -10 235 -10 C338 -10 420 99 420 291 C420 457 353 591 235 591 C132 591 50 482 50 291 L50 291 Z M247 796 C247 796 223 796 223 796 C223 796 162 796 162 796 C162 715 194 651 235 651 C275 651 308 715 308 796 C308 796 247 796 247 796 L247 796 Z " />
<glyph glyph-name="Racute" unicode="&#x154;" horiz-adv-x="533" d="M240 891 C240 891 345 891 345 891 C345 891 398 1041 398 1041 C398 1041 248 1041 248 1041 C248 1041 240 891 240 891 L240 891 Z M537 13 C537 13 479 66 479 66 C479 66 479 66 479 66 C479 66 331 351 331 351 C331 351 302 351 302 351 C415 374 484 454 484 568 C484 716 385 811 230 811 C230 811 166 811 166 811 C166 811 134 811 134 811 C134 811 102 811 102 811 C102 811 72 811 72 811 C72 811 72 798 72 798 C72 798 102 745 102 745 C102 745 102 66 102 66 C102 66 72 13 72 13 C72 13 72 0 72 0 C72 0 102 0 102 0 C102 0 166 0 166 0 C166 0 230 0 230 0 C230 0 260 0 260 0 C260 0 260 13 260 13 C260 13 230 66 230 66 C230 66 230 261 230 261 C230 261 366 0 366 0 C366 0 440 0 440 0 C440 0 513 0 513 0 C513 0 537 0 537 0 C537 0 537 13 537 13 L537 13 Z M230 398 C230 398 230 757 230 757 C307 755 356 682 356 568 C356 464 308 398 232 398 C232 398 230 398 230 398 L230 398 Z " />
<glyph glyph-name="racute" unicode="&#x155;" horiz-adv-x="286" d="M123 661 C123 661 228 661 228 661 C228 661 281 811 281 811 C281 811 131 811 131 811 C131 811 123 661 123 661 L123 661 Z M266 513 C266 513 266 581 266 581 C266 581 262 581 262 581 C235 581 214 549 200 497 C200 497 200 571 200 571 C200 571 200 581 200 581 C200 581 143 581 143 581 C143 581 114 581 114 581 C114 581 85 581 85 581 C85 581 55 581 55 581 C55 581 55 568 55 568 C55 568 85 515 85 515 C85 515 85 66 85 66 C85 66 55 13 55 13 C55 13 55 0 55 0 C55 0 85 0 85 0 C85 0 143 0 143 0 C143 0 200 0 200 0 C200 0 230 0 230 0 C230 0 230 13 230 13 C230 13 200 66 200 66 C200 66 200 291 200 291 C200 414 219 513 256 513 C256 513 266 513 266 513 L266 513 Z " />
<glyph glyph-name="Rcaron" unicode="&#x158;" horiz-adv-x="533" d="M293 981 C293 981 319 1041 319 1041 C319 1041 424 1041 424 1041 C424 1041 351 891 351 891 C351 891 235 891 235 891 C235 891 162 1041 162 1041 C162 1041 267 1041 267 1041 C267 1041 293 981 293 981 L293 981 Z M537 13 C537 13 479 66 479 66 C479 66 479 66 479 66 C479 66 331 351 331 351 C331 351 302 351 302 351 C415 374 484 454 484 568 C484 716 385 811 230 811 C230 811 166 811 166 811 C166 811 134 811 134 811 C134 811 102 811 102 811 C102 811 72 811 72 811 C72 811 72 798 72 798 C72 798 102 745 102 745 C102 745 102 66 102 66 C102 66 72 13 72 13 C72 13 72 0 72 0 C72 0 102 0 102 0 C102 0 166 0 166 0 C166 0 230 0 230 0 C230 0 260 0 260 0 C260 0 260 13 260 13 C260 13 230 66 230 66 C230 66 230 261 230 261 C230 261 366 0 366 0 C366 0 440 0 440 0 C440 0 513 0 513 0 C513 0 537 0 537 0 C537 0 537 13 537 13 L537 13 Z M230 398 C230 398 230 757 230 757 C307 755 356 682 356 568 C356 464 308 398 232 398 C232 398 230 398 230 398 L230 398 Z " />
<glyph glyph-name="rcaron" unicode="&#x159;" horiz-adv-x="286" d="M176 751 C176 751 202 811 202 811 C202 811 307 811 307 811 C307 811 234 661 234 661 C234 661 118 661 118 661 C118 661 45 811 45 811 C45 811 150 811 150 811 C150 811 176 751 176 751 L176 751 Z M266 513 C266 513 266 581 266 581 C266 581 262 581 262 581 C235 581 214 549 200 497 C200 497 200 571 200 571 C200 571 200 581 200 581 C200 581 143 581 143 581 C143 581 114 581 114 581 C114 581 85 581 85 581 C85 581 55 581 55 581 C55 581 55 568 55 568 C55 568 85 515 85 515 C85 515 85 66 85 66 C85 66 55 13 55 13 C55 13 55 0 55 0 C55 0 85 0 85 0 C85 0 143 0 143 0 C143 0 200 0 200 0 C200 0 230 0 230 0 C230 0 230 13 230 13 C230 13 200 66 200 66 C200 66 200 291 200 291 C200 414 219 513 256 513 C256 513 266 513 266 513 L266 513 Z " />
<glyph glyph-name="Sacute" unicode="&#x15a;" horiz-adv-x="505" d="M190 891 C190 891 295 891 295 891 C295 891 347 1041 347 1041 C347 1041 197 1041 197 1041 C197 1041 190 891 190 891 L190 891 Z M52 140 C59 99 82 64 115 39 C115 39 115 39 115 39 C115 39 115 39 115 39 C156 8 213 -10 277 -10 C395 -10 470 95 470 227 C470 335 391 434 268 482 C208 506 169 553 169 604 C169 690 192 759 220 759 C312 759 386 711 386 636 C386 636 411 658 411 658 C411 658 436 680 436 680 C436 680 436 710 436 710 C436 710 432 710 432 710 C423 740 401 766 370 784 C370 785 370 785 370 785 C370 785 370 785 370 785 C331 808 278 821 220 821 C118 821 37 718 37 590 C37 492 113 400 233 353 C300 327 342 276 342 223 C342 127 317 51 277 51 C183 51 108 113 108 211 C108 211 49 170 49 170 C49 170 49 140 49 140 C49 140 52 140 52 140 L52 140 Z " />
<glyph glyph-name="sacute" unicode="&#x15b;" horiz-adv-x="393" d="M146 661 C146 661 251 661 251 661 C251 661 303 811 303 811 C303 811 153 811 153 811 C153 811 146 661 146 661 L146 661 Z M43 105 C59 42 126 -5 208 -5 C294 -5 363 68 363 159 C363 223 306 301 217 342 C187 355 168 394 168 432 C168 492 181 540 198 540 C247 540 286 487 286 421 C286 421 312 432 312 432 C312 432 312 432 312 432 C312 432 338 444 338 444 C338 444 338 474 338 474 C338 474 335 474 335 474 C327 512 304 545 272 565 C272 565 272 565 272 565 C272 565 272 565 272 565 C251 578 225 586 198 586 C121 586 59 513 59 422 C59 354 110 276 190 239 C226 223 249 184 249 149 C249 91 231 44 208 44 C146 44 96 94 96 156 C96 156 39 135 39 135 C39 135 39 105 39 105 C39 105 43 105 43 105 L43 105 Z " />
<glyph glyph-name="Scircumflex" unicode="&#x15c;" horiz-adv-x="505" d="M242 951 C242 951 268 891 268 891 C268 891 373 891 373 891 C373 891 300 1041 300 1041 C300 1041 184 1041 184 1041 C184 1041 111 891 111 891 C111 891 216 891 216 891 C216 891 242 951 242 951 L242 951 Z M52 140 C59 99 82 64 115 39 C115 39 115 39 115 39 C115 39 115 39 115 39 C156 8 213 -10 277 -10 C395 -10 470 95 470 227 C470 335 391 434 268 482 C208 506 169 553 169 604 C169 690 192 759 220 759 C312 759 386 711 386 636 C386 636 411 658 411 658 C411 658 436 680 436 680 C436 680 436 710 436 710 C436 710 432 710 432 710 C423 740 401 766 370 784 C370 785 370 785 370 785 C370 785 370 785 370 785 C331 808 278 821 220 821 C118 821 37 718 37 590 C37 492 113 400 233 353 C300 327 342 276 342 223 C342 127 317 51 277 51 C183 51 108 113 108 211 C108 211 49 170 49 170 C49 170 49 140 49 140 C49 140 52 140 52 140 L52 140 Z " />
<glyph glyph-name="Scedilla" unicode="&#x15e;" horiz-adv-x="505" d="M252 -194 C254 -191 252 -177 246 -161 C246 -161 222 -180 222 -180 C236 -219 250 -250 254 -250 C292 -250 323 -204 323 -146 C323 -105 297 -71 264 -68 C264 -68 278 -10 278 -10 C395 -9 470 95 470 227 C470 335 391 434 268 482 C208 506 169 553 169 604 C169 690 192 759 220 759 C312 759 386 711 386 636 C386 636 411 658 411 658 C411 658 436 680 436 680 C436 680 436 710 436 710 C436 710 432 710 432 710 C423 740 401 766 370 784 C370 785 370 785 370 785 C370 785 370 785 370 785 C331 808 278 821 220 821 C118 821 37 718 37 590 C37 492 113 400 233 353 C300 327 342 276 342 223 C342 127 317 51 277 51 C183 51 108 113 108 211 C108 211 49 170 49 170 C49 170 49 140 49 140 C49 140 52 140 52 140 C59 99 82 64 115 39 C115 39 115 39 115 39 C115 39 115 39 115 39 C152 11 201 -6 257 -9 C257 -9 234 -102 234 -102 C234 -102 253 -113 253 -113 C253 -113 256 -102 256 -102 C257 -110 258 -127 258 -146 C258 -170 256 -190 252 -194 C252 -194 252 -194 252 -194 L252 -194 Z " />
<glyph glyph-name="scedilla" unicode="&#x15f;" horiz-adv-x="393" d="M183 -194 C185 -191 183 -177 177 -161 C177 -161 153 -180 153 -180 C167 -219 181 -250 185 -250 C223 -250 254 -204 254 -146 C254 -105 229 -71 195 -68 C195 -68 211 -5 211 -5 C295 -3 363 69 363 159 C363 223 306 301 217 342 C187 355 168 394 168 432 C168 492 181 540 198 540 C247 540 286 487 286 421 C286 421 312 432 312 432 C312 432 312 432 312 432 C312 432 338 444 338 444 C338 444 338 474 338 474 C338 474 335 474 335 474 C327 512 304 545 272 565 C272 565 272 565 272 565 C272 565 272 565 272 565 C251 578 225 586 198 586 C121 586 59 513 59 422 C59 354 110 276 190 239 C226 223 249 184 249 149 C249 91 231 44 208 44 C146 44 96 94 96 156 C96 156 39 135 39 135 C39 135 39 105 39 105 C39 105 43 105 43 105 C58 46 117 2 190 -4 C190 -4 165 -102 165 -102 C165 -102 184 -113 184 -113 C184 -113 187 -102 187 -102 C188 -110 189 -127 189 -146 C189 -170 187 -190 183 -194 C183 -194 183 -194 183 -194 L183 -194 Z " />
<glyph glyph-name="Scaron" unicode="&#x160;" horiz-adv-x="505" d="M242 981 C242 981 268 1041 268 1041 C268 1041 373 1041 373 1041 C373 1041 300 891 300 891 C300 891 184 891 184 891 C184 891 111 1041 111 1041 C111 1041 216 1041 216 1041 C216 1041 242 981 242 981 L242 981 Z M52 140 C59 99 82 64 115 39 C115 39 115 39 115 39 C115 39 115 39 115 39 C156 8 213 -10 277 -10 C395 -10 470 95 470 227 C470 335 391 434 268 482 C208 506 169 553 169 604 C169 690 192 759 220 759 C312 759 386 711 386 636 C386 636 411 658 411 658 C411 658 436 680 436 680 C436 680 436 710 436 710 C436 710 432 710 432 710 C423 740 401 766 370 784 C370 785 370 785 370 785 C370 785 370 785 370 785 C331 808 278 821 220 821 C118 821 37 718 37 590 C37 492 113 400 233 353 C300 327 342 276 342 223 C342 127 317 51 277 51 C183 51 108 113 108 211 C108 211 49 170 49 170 C49 170 49 140 49 140 C49 140 52 140 52 140 L52 140 Z " />
<glyph glyph-name="scaron" unicode="&#x161;" horiz-adv-x="393" d="M198 751 C198 751 224 811 224 811 C224 811 329 811 329 811 C329 811 256 661 256 661 C256 661 140 661 140 661 C140 661 67 811 67 811 C67 811 172 811 172 811 C172 811 198 751 198 751 L198 751 Z M43 105 C59 42 126 -5 208 -5 C294 -5 363 68 363 159 C363 223 306 301 217 342 C187 355 168 394 168 432 C168 492 181 540 198 540 C247 540 286 487 286 421 C286 421 312 432 312 432 C312 432 312 432 312 432 C312 432 338 444 338 444 C338 444 338 474 338 474 C338 474 335 474 335 474 C327 512 304 545 272 565 C272 565 272 565 272 565 C272 565 272 565 272 565 C251 578 225 586 198 586 C121 586 59 513 59 422 C59 354 110 276 190 239 C226 223 249 184 249 149 C249 91 231 44 208 44 C146 44 96 94 96 156 C96 156 39 135 39 135 C39 135 39 105 39 105 C39 105 43 105 43 105 L43 105 Z " />
<glyph glyph-name="Tcaron" unicode="&#x164;" horiz-adv-x="475" d="M238 981 C238 981 264 1041 264 1041 C264 1041 369 1041 369 1041 C369 1041 296 891 296 891 C296 891 180 891 180 891 C180 891 107 1041 107 1041 C107 1041 212 1041 212 1041 C212 1041 238 981 238 981 L238 981 Z M238 0 C238 0 302 0 302 0 C302 0 332 0 332 0 C331 0 331 1 332 1 C331 8 331 13 332 13 C332 13 302 66 302 66 C302 66 302 754 302 754 C302 754 399 754 399 754 C399 754 452 724 452 724 C452 724 465 724 465 724 C465 724 465 754 465 754 C465 754 465 783 465 783 C465 783 465 811 465 811 C465 811 302 811 302 811 C302 811 173 811 173 811 C173 811 10 811 10 811 C10 811 10 783 10 783 C10 783 10 754 10 754 C10 754 10 724 10 724 C10 724 23 724 23 724 C23 724 76 754 76 754 C76 754 173 754 173 754 C173 754 173 66 173 66 C173 66 143 13 143 13 C143 13 143 0 143 0 C143 0 173 0 173 0 C173 0 238 0 238 0 L238 0 Z " />
<glyph glyph-name="tcaron" unicode="&#x165;" horiz-adv-x="225" d="M201 821 C201 821 213 671 213 671 C213 671 298 671 298 671 C298 671 326 821 326 821 C326 821 201 821 201 821 L201 821 Z M195 581 C195 581 151 581 151 581 C151 581 151 828 151 828 C151 828 36 732 36 732 C36 732 36 581 36 581 C36 581 10 581 10 581 C10 581 10 532 10 532 C10 532 36 532 36 532 C36 532 36 145 36 145 C36 44 45 0 115 0 C115 0 195 0 195 0 C195 0 195 51 195 51 C195 51 143 51 143 51 C150 51 151 80 151 145 C151 145 151 532 151 532 C151 532 195 532 195 532 C195 532 195 581 195 581 L195 581 Z " />
<glyph glyph-name="Utilde" unicode="&#x168;" horiz-adv-x="626" d="M281 881 C281 920 287 951 294 951 C341 951 268 871 340 871 C390 871 430 942 430 1031 C430 1031 345 1031 345 1031 C345 992 339 961 332 961 C286 961 359 1041 286 1041 C236 1041 196 970 196 881 C196 881 281 881 281 881 L281 881 Z M95 745 C95 745 95 313 95 313 C95 116 180 -10 313 -10 C447 -10 532 117 532 316 C532 316 532 745 532 745 C532 745 562 798 562 798 C561 798 561 803 562 810 C561 811 561 811 562 811 C562 811 532 811 532 811 C532 811 497 811 497 811 C497 811 462 811 462 811 C462 811 432 811 432 811 C432 811 432 798 432 798 C432 798 462 745 462 745 C462 745 462 328 462 328 C462 161 404 55 313 55 C258 55 223 164 223 336 C223 336 223 745 223 745 C223 745 253 798 253 798 C253 798 253 811 253 811 C253 811 223 811 223 811 C223 811 159 811 159 811 C159 811 95 811 95 811 C95 811 65 811 65 811 C65 811 65 798 65 798 C65 798 95 745 95 745 L95 745 Z " />
<glyph glyph-name="utilde" unicode="&#x169;" horiz-adv-x="462" d="M197 661 C197 700 203 731 210 731 C257 731 183 651 256 651 C306 651 346 722 346 811 C346 811 261 811 261 811 C261 772 255 741 248 741 C201 741 275 821 202 821 C152 821 112 750 112 661 C112 661 197 661 197 661 L197 661 Z M378 66 C378 66 378 581 378 581 C378 581 320 581 320 581 C320 581 263 581 263 581 C263 581 233 581 233 581 C233 581 233 568 233 568 C233 568 263 515 263 515 C263 515 263 146 263 146 C263 91 234 47 198 47 C196 47 195 107 195 200 C195 200 195 581 195 581 C195 581 138 581 138 581 C138 581 80 581 80 581 C80 581 50 581 50 581 C50 581 50 568 50 568 C50 568 80 515 80 515 C80 515 80 200 80 200 C80 72 107 -10 179 -10 C214 -10 245 18 263 61 C263 61 263 10 263 10 C263 10 263 0 263 0 C263 0 320 0 320 0 C320 0 378 0 378 0 C378 0 408 0 408 0 C408 0 408 13 408 13 C408 13 378 66 378 66 L378 66 Z " />
<glyph glyph-name="Umacron" unicode="&#x16a;" horiz-adv-x="626" d="M257 881 C257 881 369 881 369 881 C369 881 369 961 369 961 C369 961 257 961 257 961 C257 961 257 881 257 881 L257 881 Z M95 745 C95 745 95 313 95 313 C95 116 180 -10 313 -10 C447 -10 532 117 532 316 C532 316 532 745 532 745 C532 745 562 798 562 798 C561 798 561 803 562 810 C561 811 561 811 562 811 C562 811 532 811 532 811 C532 811 497 811 497 811 C497 811 462 811 462 811 C462 811 432 811 432 811 C432 811 432 798 432 798 C432 798 462 745 462 745 C462 745 462 328 462 328 C462 161 404 55 313 55 C258 55 223 164 223 336 C223 336 223 745 223 745 C223 745 253 798 253 798 C253 798 253 811 253 811 C253 811 223 811 223 811 C223 811 159 811 159 811 C159 811 95 811 95 811 C95 811 65 811 65 811 C65 811 65 798 65 798 C65 798 95 745 95 745 L95 745 Z " />
<glyph glyph-name="umacron" unicode="&#x16b;" horiz-adv-x="462" d="M173 661 C173 661 285 661 285 661 C285 661 285 741 285 741 C285 741 173 741 173 741 C173 741 173 661 173 661 L173 661 Z M378 66 C378 66 378 581 378 581 C378 581 320 581 320 581 C320 581 263 581 263 581 C263 581 233 581 233 581 C233 581 233 568 233 568 C233 568 263 515 263 515 C263 515 263 146 263 146 C263 91 234 47 198 47 C196 47 195 107 195 200 C195 200 195 581 195 581 C195 581 138 581 138 581 C138 581 80 581 80 581 C80 581 50 581 50 581 C50 581 50 568 50 568 C50 568 80 515 80 515 C80 515 80 200 80 200 C80 72 107 -10 179 -10 C214 -10 245 18 263 61 C263 61 263 10 263 10 C263 10 263 0 263 0 C263 0 320 0 320 0 C320 0 378 0 378 0 C378 0 408 0 408 0 C408 0 408 13 408 13 C408 13 378 66 378 66 L378 66 Z " />
<glyph glyph-name="Ubreve" unicode="&#x16c;" horiz-adv-x="626" d="M325 1016 C325 1016 302 1016 302 1016 C302 1016 240 1016 240 1016 C240 935 273 871 313 871 C354 871 387 935 387 1016 C387 1016 325 1016 325 1016 L325 1016 Z M95 745 C95 745 95 313 95 313 C95 116 180 -10 313 -10 C447 -10 532 117 532 316 C532 316 532 745 532 745 C532 745 562 798 562 798 C561 798 561 803 562 810 C561 811 561 811 562 811 C562 811 532 811 532 811 C532 811 497 811 497 811 C497 811 462 811 462 811 C462 811 432 811 432 811 C432 811 432 798 432 798 C432 798 462 745 462 745 C462 745 462 328 462 328 C462 161 404 55 313 55 C258 55 223 164 223 336 C223 336 223 745 223 745 C223 745 253 798 253 798 C253 798 253 811 253 811 C253 811 223 811 223 811 C223 811 159 811 159 811 C159 811 95 811 95 811 C95 811 65 811 65 811 C65 811 65 798 65 798 C65 798 95 745 95 745 L95 745 Z " />
<glyph glyph-name="ubreve" unicode="&#x16d;" horiz-adv-x="462" d="M241 796 C241 796 217 796 217 796 C217 796 156 796 156 796 C156 715 188 651 229 651 C270 651 302 715 302 796 C302 796 241 796 241 796 L241 796 Z M378 66 C378 66 378 581 378 581 C378 581 320 581 320 581 C320 581 263 581 263 581 C263 581 233 581 233 581 C233 581 233 568 233 568 C233 568 263 515 263 515 C263 515 263 146 263 146 C263 91 234 47 198 47 C196 47 195 107 195 200 C195 200 195 581 195 581 C195 581 138 581 138 581 C138 581 80 581 80 581 C80 581 50 581 50 581 C50 581 50 568 50 568 C50 568 80 515 80 515 C80 515 80 200 80 200 C80 72 107 -10 179 -10 C214 -10 245 18 263 61 C263 61 263 10 263 10 C263 10 263 0 263 0 C263 0 320 0 320 0 C320 0 378 0 378 0 C378 0 408 0 408 0 C408 0 408 13 408 13 C408 13 378 66 378 66 L378 66 Z " />
<glyph glyph-name="Uring" unicode="&#x16e;" horiz-adv-x="626" d="M313 934 C295 934 284 946 284 966 C284 985 296 998 313 998 C330 998 342 985 342 966 C342 946 331 934 313 934 L313 934 Z M227 966 C227 914 261 881 313 881 C366 881 399 914 399 966 C399 1016 363 1051 313 1051 C263 1051 227 1016 227 966 L227 966 Z M95 745 C95 745 95 313 95 313 C95 116 180 -10 313 -10 C447 -10 532 117 532 316 C532 316 532 745 532 745 C532 745 562 798 562 798 C561 798 561 803 562 810 C561 811 561 811 562 811 C562 811 532 811 532 811 C532 811 497 811 497 811 C497 811 462 811 462 811 C462 811 432 811 432 811 C432 811 432 798 432 798 C432 798 462 745 462 745 C462 745 462 328 462 328 C462 161 404 55 313 55 C258 55 223 164 223 336 C223 336 223 745 223 745 C223 745 253 798 253 798 C253 798 253 811 253 811 C253 811 223 811 223 811 C223 811 159 811 159 811 C159 811 95 811 95 811 C95 811 65 811 65 811 C65 811 65 798 65 798 C65 798 95 745 95 745 L95 745 Z " />
<glyph glyph-name="uring" unicode="&#x16f;" horiz-adv-x="462" d="M229 714 C211 714 200 726 200 746 C200 765 212 778 229 778 C246 778 258 765 258 746 C258 726 247 714 229 714 L229 714 Z M143 746 C143 694 176 661 229 661 C282 661 315 694 315 746 C315 796 279 831 229 831 C179 831 143 796 143 746 L143 746 Z M378 66 C378 66 378 581 378 581 C378 581 320 581 320 581 C320 581 263 581 263 581 C263 581 233 581 233 581 C233 581 233 568 233 568 C233 568 263 515 263 515 C263 515 263 146 263 146 C263 91 234 47 198 47 C196 47 195 107 195 200 C195 200 195 581 195 581 C195 581 138 581 138 581 C138 581 80 581 80 581 C80 581 50 581 50 581 C50 581 50 568 50 568 C50 568 80 515 80 515 C80 515 80 200 80 200 C80 72 107 -10 179 -10 C214 -10 245 18 263 61 C263 61 263 10 263 10 C263 10 263 0 263 0 C263 0 320 0 320 0 C320 0 378 0 378 0 C378 0 408 0 408 0 C408 0 408 13 408 13 C408 13 378 66 378 66 L378 66 Z " />
<glyph glyph-name="Wcircumflex" unicode="&#x174;" horiz-adv-x="746" d="M374 951 C374 951 400 891 400 891 C400 891 505 891 505 891 C505 891 432 1041 432 1041 C432 1041 316 1041 316 1041 C316 1041 243 891 243 891 C243 891 348 891 348 891 C348 891 374 951 374 951 L374 951 Z M51 745 C51 745 51 745 51 745 C51 745 155 0 155 0 C155 0 217 0 217 0 C217 0 279 0 279 0 C279 0 374 598 374 598 C374 598 467 0 467 0 C467 0 529 0 529 0 C529 0 591 0 591 0 C591 0 698 745 698 745 C698 745 698 745 698 745 C698 745 735 798 735 798 C735 798 735 811 735 811 C735 811 707 811 707 811 C707 811 670 811 670 811 C670 811 632 811 632 811 C632 811 602 811 602 811 C602 811 602 798 602 798 C602 798 624 746 624 746 C624 746 557 219 557 219 C557 219 464 811 464 811 C464 811 408 811 408 811 C408 811 341 811 341 811 C341 811 251 224 251 224 C251 224 187 745 187 745 C187 745 209 798 209 798 C209 798 209 811 209 811 C209 811 179 811 179 811 C179 811 110 811 110 811 C110 811 42 811 42 811 C42 811 13 811 13 811 C13 811 13 798 13 798 C13 798 51 745 51 745 L51 745 Z " />
<glyph glyph-name="Ycircumflex" unicode="&#x176;" horiz-adv-x="521" d="M265 951 C265 951 291 891 291 891 C291 891 396 891 396 891 C396 891 323 1041 323 1041 C323 1041 207 1041 207 1041 C207 1041 134 891 134 891 C134 891 239 891 239 891 C239 891 265 951 265 951 L265 951 Z M406 745 C406 745 407 745 407 745 C407 745 296 445 296 445 C296 445 180 746 180 746 C180 746 185 798 185 798 C184 798 184 803 185 810 C184 811 184 811 185 811 C185 811 155 811 155 811 C155 811 94 811 94 811 C94 811 34 811 34 811 C34 811 9 811 9 811 C9 811 9 798 9 798 C9 798 60 745 60 745 C60 745 208 369 208 369 C208 369 208 66 208 66 C208 66 178 13 178 13 C178 13 178 0 178 0 C178 0 208 0 208 0 C208 0 272 0 272 0 C272 0 336 0 336 0 C336 0 366 0 366 0 C366 0 366 13 366 13 C366 13 336 66 336 66 C336 66 336 384 336 384 C336 384 471 745 471 745 C471 745 472 745 472 745 C472 745 521 798 521 798 C522 798 522 803 521 809 C522 810 522 811 521 811 C521 811 496 811 496 811 C496 811 464 811 464 811 C464 811 431 811 431 811 C431 811 401 811 401 811 C400 811 400 811 401 810 C400 803 400 798 401 798 C401 798 406 745 406 745 L406 745 Z " />
<glyph glyph-name="Ydieresis" unicode="&#x178;" horiz-adv-x="521" d="M271 891 C271 891 396 891 396 891 C396 891 396 1016 396 1016 C396 1016 271 1016 271 1016 C271 1016 271 891 271 891 L271 891 Z M134 891 C134 891 259 891 259 891 C259 891 259 1016 259 1016 C259 1016 134 1016 134 1016 C134 1016 134 891 134 891 L134 891 Z M406 745 C406 745 407 745 407 745 C407 745 296 445 296 445 C296 445 180 746 180 746 C180 746 185 798 185 798 C184 798 184 803 185 810 C184 811 184 811 185 811 C185 811 155 811 155 811 C155 811 94 811 94 811 C94 811 34 811 34 811 C34 811 9 811 9 811 C9 811 9 798 9 798 C9 798 60 745 60 745 C60 745 208 369 208 369 C208 369 208 66 208 66 C208 66 178 13 178 13 C178 13 178 0 178 0 C178 0 208 0 208 0 C208 0 272 0 272 0 C272 0 336 0 336 0 C336 0 366 0 366 0 C366 0 366 13 366 13 C366 13 336 66 336 66 C336 66 336 384 336 384 C336 384 471 745 471 745 C471 745 472 745 472 745 C472 745 521 798 521 798 C522 798 522 803 521 809 C522 810 522 811 521 811 C521 811 496 811 496 811 C496 811 464 811 464 811 C464 811 431 811 431 811 C431 811 401 811 401 811 C400 811 400 811 401 810 C400 803 400 798 401 798 C401 798 406 745 406 745 L406 745 Z " />
<glyph glyph-name="Zacute" unicode="&#x179;" horiz-adv-x="535" d="M223 891 C223 891 328 891 328 891 C328 891 380 1041 380 1041 C380 1041 230 1041 230 1041 C230 1041 223 891 223 891 L223 891 Z M490 28 C490 28 490 57 490 57 C490 57 490 87 490 87 C490 87 477 87 477 87 C477 87 424 57 424 57 C424 57 179 57 179 57 C179 57 490 754 490 754 C490 754 490 811 490 811 C490 811 60 811 60 811 C60 811 60 783 60 783 C60 783 60 754 60 754 C60 754 60 724 60 724 C60 724 73 724 73 724 C73 724 126 754 126 754 C126 754 355 754 355 754 C355 754 45 57 45 57 C45 57 45 0 45 0 C45 0 490 0 490 0 C490 0 490 28 490 28 L490 28 Z " />
<glyph glyph-name="zacute" unicode="&#x17a;" horiz-adv-x="340" d="M130 661 C130 661 235 661 235 661 C235 661 288 811 288 811 C288 811 138 811 138 811 C138 811 130 661 130 661 L130 661 Z M45 581 C45 581 45 557 45 557 C45 557 45 532 45 532 C45 532 45 502 45 502 C45 502 58 502 58 502 C58 502 111 532 111 532 C111 532 166 532 166 532 C166 532 30 38 30 38 C30 38 30 0 30 0 C30 0 320 0 320 0 C320 0 320 24 320 24 C320 24 320 49 320 49 C320 49 320 79 320 79 C320 79 307 79 307 79 C307 79 254 49 254 49 C254 49 161 49 161 49 C161 49 164 50 164 50 C164 50 304 543 304 543 C304 543 304 581 304 581 C304 581 45 581 45 581 L45 581 Z " />
<glyph glyph-name="Zdotaccent" unicode="&#x17b;" horiz-adv-x="535" d="M213 891 C213 891 338 891 338 891 C338 891 338 1016 338 1016 C338 1016 213 1016 213 1016 C213 1016 213 891 213 891 L213 891 Z M490 28 C490 28 490 57 490 57 C490 57 490 87 490 87 C490 87 477 87 477 87 C477 87 424 57 424 57 C424 57 179 57 179 57 C179 57 490 754 490 754 C490 754 490 811 490 811 C490 811 60 811 60 811 C60 811 60 783 60 783 C60 783 60 754 60 754 C60 754 60 724 60 724 C60 724 73 724 73 724 C73 724 126 754 126 754 C126 754 355 754 355 754 C355 754 45 57 45 57 C45 57 45 0 45 0 C45 0 490 0 490 0 C490 0 490 28 490 28 L490 28 Z " />
<glyph glyph-name="zdotaccent" unicode="&#x17c;" horiz-adv-x="340" d="M120 661 C120 661 245 661 245 661 C245 661 245 786 245 786 C245 786 120 786 120 786 C120 786 120 661 120 661 L120 661 Z M45 581 C45 581 45 557 45 557 C45 557 45 532 45 532 C45 532 45 502 45 502 C45 502 58 502 58 502 C58 502 111 532 111 532 C111 532 166 532 166 532 C166 532 30 38 30 38 C30 38 30 0 30 0 C30 0 320 0 320 0 C320 0 320 24 320 24 C320 24 320 49 320 49 C320 49 320 79 320 79 C320 79 307 79 307 79 C307 79 254 49 254 49 C254 49 161 49 161 49 C161 49 164 50 164 50 C164 50 304 543 304 543 C304 543 304 581 304 581 C304 581 45 581 45 581 L45 581 Z " />
<glyph glyph-name="Zcaron" unicode="&#x17d;" horiz-adv-x="535" d="M275 981 C275 981 301 1041 301 1041 C301 1041 406 1041 406 1041 C406 1041 333 891 333 891 C333 891 217 891 217 891 C217 891 144 1041 144 1041 C144 1041 249 1041 249 1041 C249 1041 275 981 275 981 L275 981 Z M490 28 C490 28 490 57 490 57 C490 57 490 87 490 87 C490 87 477 87 477 87 C477 87 424 57 424 57 C424 57 179 57 179 57 C179 57 490 754 490 754 C490 754 490 811 490 811 C490 811 60 811 60 811 C60 811 60 783 60 783 C60 783 60 754 60 754 C60 754 60 724 60 724 C60 724 73 724 73 724 C73 724 126 754 126 754 C126 754 355 754 355 754 C355 754 45 57 45 57 C45 57 45 0 45 0 C45 0 490 0 490 0 C490 0 490 28 490 28 L490 28 Z " />
<glyph glyph-name="zcaron" unicode="&#x17e;" horiz-adv-x="340" d="M183 751 C183 751 209 811 209 811 C209 811 314 811 314 811 C314 811 241 661 241 661 C241 661 125 661 125 661 C125 661 52 811 52 811 C52 811 157 811 157 811 C157 811 183 751 183 751 L183 751 Z M45 581 C45 581 45 557 45 557 C45 557 45 532 45 532 C45 532 45 502 45 502 C45 502 58 502 58 502 C58 502 111 532 111 532 C111 532 166 532 166 532 C166 532 30 38 30 38 C30 38 30 0 30 0 C30 0 320 0 320 0 C320 0 320 24 320 24 C320 24 320 49 320 49 C320 49 320 79 320 79 C320 79 307 79 307 79 C307 79 254 49 254 49 C254 49 161 49 161 49 C161 49 164 50 164 50 C164 50 304 543 304 543 C304 543 304 581 304 581 C304 581 45 581 45 581 L45 581 Z " />
<glyph glyph-name="SmallLetterOwithogon" unicode="&#x1eb;" horiz-adv-x="670" d="M60 329 C60 141 183 -10 338 -10 C369 -10 399 -4 427 8 C427 8 486 -90 486 -90 C486 -90 551 -22 551 -22 C551 -22 492 47 492 47 C567 108 615 211 615 329 C615 508 484 668 338 668 C191 668 60 508 60 329 C60 329 60 329 60 329 L60 329 Z M395 62 C378 48 358 41 338 41 C252 41 184 169 184 329 C184 481 256 617 338 617 C419 617 491 481 491 329 C491 241 471 163 438 111 C438 111 391 166 391 166 C391 166 355 129 355 129 C355 129 395 62 395 62 L395 62 Z " />
<glyph glyph-name="CapitalLetterAwithdo" unicode="&#x226;" horiz-adv-x="649" d="M273 891 C273 891 398 891 398 891 C398 891 398 1016 398 1016 C398 1016 273 1016 273 1016 C273 1016 273 891 273 891 L273 891 Z M606 66 C606 66 606 66 606 66 C606 66 398 811 398 811 C398 811 330 811 330 811 C330 811 297 811 297 811 C297 811 273 811 273 811 C273 811 263 811 263 811 C263 811 233 811 233 811 C234 811 234 811 233 810 C234 803 234 798 233 798 C233 798 245 745 245 745 C245 745 245 745 245 745 C245 745 60 66 60 66 C60 66 15 13 15 13 C15 13 15 0 15 0 C15 0 42 0 42 0 C42 0 76 0 76 0 C76 0 111 0 111 0 C111 0 141 0 141 0 C141 0 141 13 141 13 C141 13 129 66 129 66 C129 66 129 66 129 66 C129 66 302 707 302 707 C302 707 423 269 423 269 C423 269 184 269 184 269 C184 269 169 214 169 214 C169 214 438 214 438 214 C438 214 479 66 479 66 C479 66 467 13 467 13 C467 13 467 0 467 0 C467 0 497 0 497 0 C497 0 561 0 561 0 C561 0 624 0 624 0 C624 0 651 0 651 0 C651 0 651 13 651 13 C651 13 606 66 606 66 L606 66 Z " />
<glyph glyph-name="LETTERSMALLCAPITALG" unicode="&#x262;" horiz-adv-x="615" d="M352 316 C352 316 510 316 510 316 C510 316 510 129 510 129 C452 80 387 41 358 41 C259 41 179 169 179 329 C179 489 259 617 358 617 C440 617 505 545 505 456 C505 456 528 475 528 475 C528 475 551 494 551 494 C551 494 551 524 551 524 C551 524 548 524 548 524 C533 606 454 668 358 668 C190 668 55 517 55 329 C55 141 190 -10 358 -10 C409 -10 498 38 570 98 C570 98 570 368 570 368 C570 368 352 368 352 368 C352 368 352 316 352 316 L352 316 Z " />
<glyph glyph-name="LETTERSMALLCAPITALI" unicode="&#x26a;" horiz-adv-x="324" d="M167 0 C167 0 225 0 225 0 C225 0 255 0 255 0 C255 0 255 13 255 13 C255 13 225 66 225 66 C225 66 225 592 225 592 C225 592 255 645 255 645 C255 645 255 658 255 658 C255 658 225 658 225 658 C225 658 167 658 167 658 C167 658 109 658 109 658 C109 658 79 658 79 658 C79 658 79 645 79 645 C79 645 109 592 109 592 C109 592 109 66 109 66 C109 66 79 13 79 13 C79 13 79 0 79 0 C79 0 109 0 109 0 C109 0 167 0 167 0 L167 0 Z " />
<glyph glyph-name="LETTERSMALLCAPITALN" unicode="&#x274;" horiz-adv-x="536" d="M374 592 C374 592 374 153 374 153 C374 153 232 658 232 658 C232 658 181 658 181 658 C181 658 150 658 150 658 C150 658 118 658 118 658 C118 658 88 658 88 658 C88 658 88 645 88 645 C88 645 118 592 118 592 C118 592 118 66 118 66 C118 66 88 13 88 13 C88 13 88 0 88 0 C88 0 118 0 118 0 C118 0 150 0 150 0 C150 0 181 0 181 0 C181 0 211 0 211 0 C211 0 211 13 211 13 C211 13 181 66 181 66 C181 66 181 434 181 434 C181 434 303 0 303 0 C303 0 374 0 374 0 C374 0 417 0 417 0 C417 0 437 0 437 0 C437 0 437 592 437 592 C437 592 467 645 467 645 C467 645 467 658 467 658 C467 658 437 658 437 658 C437 658 406 658 406 658 C406 658 374 658 374 658 C374 658 344 658 344 658 C344 658 344 645 344 645 C344 645 374 592 374 592 L374 592 Z " />
<glyph glyph-name="LETTERSMALLCAPITALR" unicode="&#x280;" horiz-adv-x="509" d="M508 13 C508 13 446 66 446 66 C446 66 446 66 446 66 C446 66 310 289 310 289 C310 289 296 289 296 289 C398 309 460 371 460 460 C460 581 367 658 221 658 C221 658 163 658 163 658 C163 658 134 658 134 658 C134 658 105 658 105 658 C105 658 75 658 75 658 C75 658 75 645 75 645 C75 645 105 592 105 592 C105 592 105 66 105 66 C105 66 75 13 75 13 C75 13 75 0 75 0 C75 0 105 0 105 0 C105 0 163 0 163 0 C163 0 221 0 221 0 C221 0 251 0 251 0 C250 0 250 1 251 1 C250 8 250 13 251 13 C251 13 221 66 221 66 C221 66 221 217 221 217 C221 217 354 0 354 0 C354 0 420 0 420 0 C420 0 486 0 486 0 C486 0 508 0 508 0 C508 0 508 13 508 13 L508 13 Z M221 331 C221 331 221 609 221 609 C297 608 345 550 345 460 C345 381 297 331 222 331 C222 331 221 331 221 331 L221 331 Z " />
<glyph glyph-name="LETTERSMALLCAPITALY" unicode="&#x28f;" horiz-adv-x="496" d="M494 658 C494 658 472 658 472 658 C472 658 440 658 440 658 C440 658 409 658 409 658 C409 658 379 658 379 658 C379 658 379 645 379 645 C379 645 372 593 372 593 C372 593 280 430 280 430 C280 430 188 592 188 592 C188 592 188 592 188 592 C188 592 180 645 180 645 C180 645 180 658 180 658 C180 658 150 658 150 658 C150 658 93 658 93 658 C93 658 35 658 35 658 C35 658 13 658 13 658 C13 658 13 645 13 645 C13 645 73 592 73 592 C73 592 73 592 73 592 C73 592 202 369 202 369 C202 369 202 66 202 66 C202 66 172 13 172 13 C172 13 172 0 172 0 C172 0 202 0 202 0 C202 0 260 0 260 0 C260 0 318 0 318 0 C318 0 348 0 348 0 C348 0 348 13 348 13 C348 13 318 66 318 66 C318 66 318 388 318 388 C318 388 435 593 435 593 C435 593 494 645 494 645 C494 645 494 658 494 658 L494 658 Z " />
<glyph glyph-name="LETTERSMALLCAPITALB" unicode="&#x299;" horiz-adv-x="596" d="M389 356 C450 378 491 427 491 484 C491 600 423 658 288 658 C288 658 221 658 221 658 C221 658 163 658 163 658 C163 658 105 658 105 658 C105 658 75 658 75 658 C75 658 75 645 75 645 C75 645 105 592 105 592 C105 592 105 66 105 66 C105 66 75 13 75 13 C75 13 75 0 75 0 C75 0 105 0 105 0 C105 0 163 0 163 0 C163 0 221 0 221 0 C221 0 358 0 358 0 C493 0 561 63 561 190 C561 282 485 355 389 356 C389 356 389 356 389 356 L389 356 Z M221 369 C221 369 221 609 221 609 C221 609 291 609 291 609 C345 609 372 565 372 476 C372 417 334 369 287 369 C287 369 221 369 221 369 L221 369 Z M221 49 C221 49 221 322 221 322 C221 322 346 321 346 321 C397 321 437 268 437 203 C437 100 405 49 340 49 C340 49 221 49 221 49 L221 49 Z " />
<glyph glyph-name="LETTERSMALLCAPITALH" unicode="&#x29c;" horiz-adv-x="618" d="M461 0 C461 0 519 0 519 0 C519 0 549 0 549 0 C549 0 549 13 549 13 C549 13 519 66 519 66 C519 66 519 592 519 592 C519 592 549 645 549 645 C549 645 549 658 549 658 C549 658 519 658 519 658 C519 658 461 658 461 658 C461 658 404 658 404 658 C404 658 374 658 374 658 C374 658 374 645 374 645 C374 645 404 592 404 592 C404 592 404 348 404 348 C404 348 221 348 221 348 C221 348 221 592 221 592 C221 592 251 645 251 645 C250 645 250 650 251 656 C250 657 250 658 251 658 C251 658 221 658 221 658 C221 658 163 658 163 658 C163 658 105 658 105 658 C105 658 75 658 75 658 C75 658 75 645 75 645 C75 645 105 592 105 592 C105 592 105 66 105 66 C105 66 75 13 75 13 C75 13 75 0 75 0 C75 0 105 0 105 0 C105 0 163 0 163 0 C163 0 221 0 221 0 C221 0 251 0 251 0 C250 0 250 1 251 1 C250 8 250 13 251 13 C251 13 221 66 221 66 C221 66 221 297 221 297 C221 297 404 297 404 297 C404 297 404 66 404 66 C404 66 374 13 374 13 C374 13 374 0 374 0 C374 0 404 0 404 0 C404 0 461 0 461 0 L461 0 Z " />
<glyph glyph-name="LETTERSMALLCAPITALL" unicode="&#x29f;" horiz-adv-x="450" d="M406 26 C406 26 406 51 406 51 C406 51 406 81 406 81 C406 81 393 81 393 81 C393 81 340 51 340 51 C340 51 225 51 225 51 C225 51 225 592 225 592 C225 592 255 645 255 645 C255 645 255 658 255 658 C255 658 225 658 225 658 C225 658 167 658 167 658 C167 658 109 658 109 658 C109 658 79 658 79 658 C79 658 79 645 79 645 C79 645 109 592 109 592 C109 592 109 66 109 66 C109 66 79 13 79 13 C79 13 79 0 79 0 C79 0 109 0 109 0 C109 0 167 0 167 0 C167 0 225 0 225 0 C225 0 406 0 406 0 C406 0 406 26 406 26 L406 26 Z " />
<glyph glyph-name="LETTERSMALLCAPITALA" unicode="&#x1d00;" horiz-adv-x="623" d="M577 66 C577 66 577 66 577 66 C577 66 379 658 379 658 C379 658 317 658 317 658 C317 658 288 658 288 658 C288 658 269 658 269 658 C269 658 258 658 258 658 C258 658 228 658 228 658 C229 658 229 657 228 656 C229 650 229 645 228 645 C228 645 237 593 237 593 C237 593 65 66 65 66 C65 66 65 66 65 66 C65 66 18 13 18 13 C18 13 18 0 18 0 C18 0 44 0 44 0 C44 0 74 0 74 0 C74 0 105 0 105 0 C105 0 135 0 135 0 C135 0 135 13 135 13 C135 13 126 65 126 65 C126 65 160 170 160 170 C160 170 431 170 431 170 C431 170 465 66 465 66 C465 66 465 66 465 66 C465 66 457 13 457 13 C457 13 457 0 457 0 C457 0 487 0 487 0 C487 0 543 0 543 0 C543 0 599 0 599 0 C599 0 624 0 624 0 C624 0 624 13 624 13 C624 13 577 66 577 66 L577 66 Z M175 218 C175 218 293 585 293 585 C293 585 426 184 426 184 C426 184 414 218 414 218 C414 218 175 218 175 218 L175 218 Z " />
<glyph glyph-name="LETTERSMALLCAPITALC" unicode="&#x1d04;" horiz-adv-x="561" d="M496 202 C496 113 425 41 337 41 C249 41 179 185 179 329 C179 473 249 617 337 617 C425 617 496 545 496 456 C496 456 519 475 519 475 C519 475 519 475 519 475 C519 475 541 494 541 494 C541 494 541 524 541 524 C541 524 538 524 538 524 C530 562 508 596 476 622 C476 622 476 622 476 622 C476 622 476 622 476 622 C440 651 391 668 337 668 C180 668 55 498 55 329 C55 159 180 -10 337 -10 C450 -10 541 67 541 163 C541 163 496 202 496 202 L496 202 Z " />
<glyph glyph-name="LETTERSMALLCAPITALD" unicode="&#x1d05;" horiz-adv-x="636" d="M163 0 C163 0 221 0 221 0 C221 0 293 0 293 0 C474 0 581 122 581 329 C581 530 457 658 263 658 C263 658 221 658 221 658 C221 658 163 658 163 658 C163 658 105 658 105 658 C105 658 75 658 75 658 C75 658 75 645 75 645 C75 645 105 592 105 592 C105 592 105 66 105 66 C105 66 75 13 75 13 C75 13 75 0 75 0 C75 0 105 0 105 0 C105 0 163 0 163 0 L163 0 Z M221 49 C221 49 221 609 221 609 C221 609 266 609 266 609 C383 609 457 500 457 329 C457 153 394 49 289 49 C289 49 221 49 221 49 L221 49 Z " />
<glyph glyph-name="LETTERSMALLCAPITALE" unicode="&#x1d07;" horiz-adv-x="501" d="M452 26 C452 26 452 51 452 51 C452 51 452 81 452 81 C452 81 438 81 438 81 C438 81 386 51 386 51 C386 51 221 51 221 51 C221 51 221 300 221 300 C221 300 351 300 351 300 C351 300 403 270 403 270 C403 270 417 270 417 270 C417 270 417 300 417 300 C417 300 417 325 417 325 C417 325 417 349 417 349 C417 349 417 379 417 379 C417 379 403 379 403 379 C403 379 351 349 351 349 C351 349 221 349 221 349 C221 349 221 607 221 607 C221 607 371 607 371 607 C371 607 423 577 423 577 C423 577 437 577 437 577 C437 577 437 607 437 607 C437 607 437 632 437 632 C437 632 437 658 437 658 C437 658 221 658 221 658 C221 658 220 658 220 658 C220 658 163 658 163 658 C163 658 105 658 105 658 C105 658 75 658 75 658 C75 658 75 645 75 645 C75 645 105 592 105 592 C105 592 105 66 105 66 C105 66 75 13 75 13 C75 13 75 0 75 0 C75 0 105 0 105 0 C105 0 163 0 163 0 C163 0 220 0 220 0 C220 0 221 0 221 0 C221 0 452 0 452 0 C452 0 452 26 452 26 L452 26 Z " />
<glyph glyph-name="LETTERSMALLCAPITALJ" unicode="&#x1d0a;" horiz-adv-x="408" d="M52 280 C52 280 52 217 52 217 C52 72 101 -10 188 -10 C270 -10 323 80 323 193 C323 193 323 592 323 592 C323 592 353 645 353 645 C354 645 354 650 353 656 C354 657 354 658 353 658 C353 658 323 658 323 658 C323 658 266 658 266 658 C266 658 208 658 208 658 C208 658 178 658 178 658 C178 658 178 645 178 645 C178 645 208 592 208 592 C208 592 208 193 208 193 C208 112 200 48 188 48 C175 48 167 121 167 250 C167 250 168 300 168 300 C168 300 52 280 52 280 L52 280 Z " />
<glyph glyph-name="LETTERSMALLCAPITALK" unicode="&#x1d0b;" horiz-adv-x="521" d="M488 658 C488 658 467 658 467 658 C467 658 434 658 434 658 C434 658 401 658 401 658 C401 658 371 658 371 658 C371 658 371 645 371 645 C371 645 359 593 359 593 C359 593 206 354 206 354 C206 354 206 592 206 592 C206 592 236 645 236 645 C235 645 235 650 236 656 C235 657 235 658 236 658 C236 658 206 658 206 658 C206 658 148 658 148 658 C148 658 90 658 90 658 C90 658 60 658 60 658 C60 658 60 645 60 645 C60 645 90 592 90 592 C90 592 90 66 90 66 C90 66 60 13 60 13 C60 13 60 0 60 0 C60 0 90 0 90 0 C90 0 148 0 148 0 C148 0 206 0 206 0 C206 0 236 0 236 0 C235 0 235 1 236 1 C235 8 235 13 236 13 C236 13 206 66 206 66 C206 66 206 255 206 255 C206 255 247 319 247 319 C247 319 363 66 363 66 C363 66 363 0 363 0 C363 0 393 0 393 0 C393 0 452 0 452 0 C452 0 511 0 511 0 C511 0 535 0 535 0 C535 0 535 13 535 13 C535 13 481 66 481 66 C481 66 480 66 480 66 C480 66 315 424 315 424 C315 424 425 592 425 592 C425 592 488 645 488 645 C488 645 488 658 488 658 L488 658 Z " />
<glyph glyph-name="LETTERSMALLCAPITALM" unicode="&#x1d0d;" horiz-adv-x="739" d="M584 0 C584 0 639 0 639 0 C639 0 669 0 669 0 C669 0 669 13 669 13 C669 13 639 66 639 66 C639 66 639 592 639 592 C639 592 669 645 669 645 C669 645 669 658 669 658 C669 658 639 658 639 658 C639 658 584 658 584 658 C584 658 548 658 548 658 C548 658 528 658 528 658 C528 658 490 658 490 658 C490 658 377 130 377 130 C377 130 263 658 263 658 C263 658 179 658 179 658 C179 658 156 658 156 658 C156 658 149 658 149 658 C149 658 119 658 119 658 C119 658 89 658 89 658 C89 658 89 645 89 645 C89 645 119 592 119 592 C119 592 119 66 119 66 C119 66 89 13 89 13 C89 13 89 0 89 0 C89 0 119 0 119 0 C119 0 149 0 149 0 C149 0 179 0 179 0 C179 0 209 0 209 0 C209 0 209 13 209 13 C209 13 179 66 179 66 C179 66 179 554 179 554 C179 554 302 0 302 0 C302 0 349 0 349 0 C349 0 405 0 405 0 C405 0 528 566 528 566 C528 566 528 66 528 66 C528 66 498 13 498 13 C498 13 498 0 498 0 C498 0 528 0 528 0 C528 0 584 0 584 0 L584 0 Z " />
<glyph glyph-name="LETTERSMALLCAPITALO" unicode="&#x1d0f;" horiz-adv-x="670" d="M338 41 C252 41 184 169 184 329 C184 481 256 617 338 617 C419 617 491 481 491 329 C491 169 423 41 338 41 L338 41 Z M60 329 C60 141 183 -10 338 -10 C492 -10 615 141 615 329 C615 508 484 668 338 668 C191 668 60 508 60 329 L60 329 Z " />
<glyph glyph-name="LETTERSMALLCAPITALP" unicode="&#x1d18;" horiz-adv-x="494" d="M163 0 C163 0 221 0 221 0 C221 0 251 0 251 0 C250 0 250 1 251 1 C250 8 250 13 251 13 C251 13 221 66 221 66 C221 66 221 266 221 266 C367 266 460 342 460 460 C460 581 367 658 221 658 C221 658 163 658 163 658 C163 658 134 658 134 658 C134 658 105 658 105 658 C105 658 75 658 75 658 C75 658 75 645 75 645 C75 645 105 592 105 592 C105 592 105 66 105 66 C105 66 75 13 75 13 C75 13 75 0 75 0 C75 0 105 0 105 0 C105 0 163 0 163 0 L163 0 Z M221 314 C221 314 221 609 221 609 C297 608 345 550 345 460 C345 371 298 314 223 314 C223 314 221 314 221 314 L221 314 Z " />
<glyph glyph-name="LETTERSMALLCAPITALT" unicode="&#x1d1b;" horiz-adv-x="451" d="M226 0 C226 0 283 0 283 0 C283 0 313 0 313 0 C313 0 313 13 313 13 C313 13 283 66 283 66 C283 66 283 607 283 607 C283 607 375 607 375 607 C375 607 428 577 428 577 C428 577 441 577 441 577 C441 577 441 607 441 607 C441 607 441 632 441 632 C441 632 441 658 441 658 C441 658 283 658 283 658 C283 658 168 658 168 658 C168 658 10 658 10 658 C10 658 10 632 10 632 C10 632 10 607 10 607 C10 607 10 577 10 577 C10 577 23 577 23 577 C23 577 76 607 76 607 C76 607 168 607 168 607 C168 607 168 66 168 66 C168 66 138 13 138 13 C138 13 138 0 138 0 C138 0 168 0 168 0 C168 0 225 0 225 0 C225 0 226 0 226 0 L226 0 Z " />
<glyph glyph-name="LETTERSMALLCAPITALU" unicode="&#x1d1c;" horiz-adv-x="591" d="M98 592 C98 592 98 254 98 254 C98 93 175 -10 297 -10 C419 -10 496 93 496 256 C496 256 496 592 496 592 C496 592 526 645 526 645 C526 645 526 658 526 658 C526 658 496 658 496 658 C496 658 465 658 465 658 C465 658 433 658 433 658 C433 658 404 658 404 658 C404 658 404 645 404 645 C404 645 433 592 433 592 C433 592 433 267 433 267 C433 133 380 48 297 48 C246 48 213 136 213 274 C213 274 214 592 214 592 C214 592 214 592 214 592 C214 592 244 645 244 645 C243 645 243 650 244 656 C243 657 243 658 244 658 C244 658 214 658 214 658 C214 658 156 658 156 658 C156 658 98 658 98 658 C98 658 68 658 68 658 C68 658 68 645 68 645 C68 645 98 592 98 592 L98 592 Z " />
<glyph glyph-name="LETTERSMALLCAPITALV" unicode="&#x1d20;" horiz-adv-x="520" d="M61 592 C61 592 61 592 61 592 C61 592 209 0 209 0 C209 0 261 0 261 0 C261 0 316 0 316 0 C316 0 319 0 319 0 C319 0 465 592 465 592 C465 592 465 592 465 592 C465 592 508 645 508 645 C508 645 508 658 508 658 C508 658 481 658 481 658 C481 658 447 658 447 658 C447 658 413 658 413 658 C413 658 383 658 383 658 C384 658 384 657 383 656 C384 650 384 645 383 645 C383 645 398 592 398 592 C398 592 289 121 289 121 C289 121 184 592 184 592 C184 592 184 592 184 592 C184 592 199 645 199 645 C199 645 199 658 199 658 C199 658 169 658 169 658 C169 658 107 658 107 658 C107 658 45 658 45 658 C45 658 18 658 18 658 C18 658 18 645 18 645 C18 645 61 592 61 592 L61 592 Z " />
<glyph glyph-name="LETTERSMALLCAPITALW" unicode="&#x1d21;" horiz-adv-x="710" d="M593 592 C593 592 593 592 593 592 C593 592 529 165 529 165 C529 165 439 658 439 658 C439 658 388 658 388 658 C388 658 328 658 328 658 C328 658 240 171 240 171 C240 171 179 592 179 592 C179 592 179 592 179 592 C179 592 199 645 199 645 C199 645 199 658 199 658 C199 658 169 658 169 658 C169 658 107 658 107 658 C107 658 45 658 45 658 C45 658 17 658 17 658 C17 658 17 645 17 645 C17 645 56 592 56 592 C56 592 154 0 154 0 C154 0 209 0 209 0 C209 0 265 0 265 0 C265 0 358 496 358 496 C358 496 448 0 448 0 C448 0 504 0 504 0 C504 0 559 0 559 0 C559 0 660 592 660 592 C660 592 660 592 660 592 C660 592 699 645 699 645 C699 645 699 658 699 658 C699 658 671 658 671 658 C671 658 637 658 637 658 C637 658 603 658 603 658 C603 658 573 658 573 658 C574 658 574 657 573 656 C574 650 574 645 573 645 C573 645 593 592 593 592 L593 592 Z " />
<glyph glyph-name="LETTERSMALLCAPITALZ" unicode="&#x1d22;" horiz-adv-x="511" d="M466 26 C466 26 466 51 466 51 C466 51 466 81 466 81 C466 81 453 81 453 81 C453 81 400 51 400 51 C400 51 164 51 164 51 C164 51 466 607 466 607 C466 607 466 658 466 658 C466 658 60 658 60 658 C60 658 60 632 60 632 C60 632 60 607 60 607 C60 607 60 577 60 577 C60 577 73 577 73 577 C73 577 126 607 126 607 C126 607 346 607 346 607 C346 607 45 51 45 51 C45 51 45 0 45 0 C45 0 466 0 466 0 C466 0 466 26 466 26 L466 26 Z " />
<glyph glyph-name="Wgrave" unicode="&#x1e80;" horiz-adv-x="746" d="M322 891 C322 891 427 891 427 891 C427 891 419 1041 419 1041 C419 1041 269 1041 269 1041 C269 1041 322 891 322 891 L322 891 Z M51 745 C51 745 51 745 51 745 C51 745 155 0 155 0 C155 0 217 0 217 0 C217 0 279 0 279 0 C279 0 374 598 374 598 C374 598 467 0 467 0 C467 0 529 0 529 0 C529 0 591 0 591 0 C591 0 698 745 698 745 C698 745 698 745 698 745 C698 745 735 798 735 798 C735 798 735 811 735 811 C735 811 707 811 707 811 C707 811 670 811 670 811 C670 811 632 811 632 811 C632 811 602 811 602 811 C602 811 602 798 602 798 C602 798 624 746 624 746 C624 746 557 219 557 219 C557 219 464 811 464 811 C464 811 408 811 408 811 C408 811 341 811 341 811 C341 811 251 224 251 224 C251 224 187 745 187 745 C187 745 209 798 209 798 C209 798 209 811 209 811 C209 811 179 811 179 811 C179 811 110 811 110 811 C110 811 42 811 42 811 C42 811 13 811 13 811 C13 811 13 798 13 798 C13 798 51 745 51 745 L51 745 Z " />
<glyph glyph-name="Wacute" unicode="&#x1e82;" horiz-adv-x="746" d="M322 891 C322 891 427 891 427 891 C427 891 479 1041 479 1041 C479 1041 329 1041 329 1041 C329 1041 322 891 322 891 L322 891 Z M51 745 C51 745 51 745 51 745 C51 745 155 0 155 0 C155 0 217 0 217 0 C217 0 279 0 279 0 C279 0 374 598 374 598 C374 598 467 0 467 0 C467 0 529 0 529 0 C529 0 591 0 591 0 C591 0 698 745 698 745 C698 745 698 745 698 745 C698 745 735 798 735 798 C735 798 735 811 735 811 C735 811 707 811 707 811 C707 811 670 811 670 811 C670 811 632 811 632 811 C632 811 602 811 602 811 C602 811 602 798 602 798 C602 798 624 746 624 746 C624 746 557 219 557 219 C557 219 464 811 464 811 C464 811 408 811 408 811 C408 811 341 811 341 811 C341 811 251 224 251 224 C251 224 187 745 187 745 C187 745 209 798 209 798 C209 798 209 811 209 811 C209 811 179 811 179 811 C179 811 110 811 110 811 C110 811 42 811 42 811 C42 811 13 811 13 811 C13 811 13 798 13 798 C13 798 51 745 51 745 L51 745 Z " />
<glyph glyph-name="Wdieresis" unicode="&#x1e84;" horiz-adv-x="746" d="M380 891 C380 891 505 891 505 891 C505 891 505 1016 505 1016 C505 1016 380 1016 380 1016 C380 1016 380 891 380 891 L380 891 Z M244 891 C244 891 369 891 369 891 C369 891 369 1016 369 1016 C369 1016 244 1016 244 1016 C244 1016 244 891 244 891 L244 891 Z M51 745 C51 745 51 745 51 745 C51 745 155 0 155 0 C155 0 217 0 217 0 C217 0 279 0 279 0 C279 0 374 598 374 598 C374 598 467 0 467 0 C467 0 529 0 529 0 C529 0 591 0 591 0 C591 0 698 745 698 745 C698 745 698 745 698 745 C698 745 735 798 735 798 C735 798 735 811 735 811 C735 811 707 811 707 811 C707 811 670 811 670 811 C670 811 632 811 632 811 C632 811 602 811 602 811 C602 811 602 798 602 798 C602 798 624 746 624 746 C624 746 557 219 557 219 C557 219 464 811 464 811 C464 811 408 811 408 811 C408 811 341 811 341 811 C341 811 251 224 251 224 C251 224 187 745 187 745 C187 745 209 798 209 798 C209 798 209 811 209 811 C209 811 179 811 179 811 C179 811 110 811 110 811 C110 811 42 811 42 811 C42 811 13 811 13 811 C13 811 13 798 13 798 C13 798 51 745 51 745 L51 745 Z " />
<glyph glyph-name="CapitalLetterEWITHTI" unicode="&#x1ebc;" horiz-adv-x="535" d="M254 891 C254 930 260 961 267 961 C314 961 240 881 313 881 C363 881 403 952 403 1041 C403 1041 318 1041 318 1041 C318 1002 312 971 305 971 C259 971 332 1051 259 1051 C209 1051 169 980 169 891 C169 891 254 891 254 891 L254 891 Z M485 28 C485 28 485 57 485 57 C485 57 485 87 485 87 C485 87 472 87 472 87 C472 87 419 57 419 57 C419 57 230 57 230 57 C230 57 230 373 230 373 C230 373 384 373 384 373 C384 373 437 343 437 343 C437 343 450 343 450 343 C450 343 450 373 450 373 C450 373 450 401 450 401 C450 401 450 428 450 428 C450 428 450 458 450 458 C450 458 437 458 437 458 C437 458 384 428 384 428 C384 428 230 428 230 428 C230 428 230 754 230 754 C230 754 404 754 404 754 C404 754 457 724 457 724 C457 724 470 724 470 724 C470 724 470 754 470 754 C470 754 470 783 470 783 C470 783 470 811 470 811 C470 811 230 811 230 811 C230 811 229 811 229 811 C229 811 166 811 166 811 C166 811 102 811 102 811 C102 811 72 811 72 811 C72 811 72 798 72 798 C72 798 102 745 102 745 C102 745 102 66 102 66 C102 66 72 13 72 13 C72 13 72 0 72 0 C72 0 102 0 102 0 C102 0 166 0 166 0 C166 0 229 0 229 0 C229 0 230 0 230 0 C230 0 485 0 485 0 C485 0 485 28 485 28 L485 28 Z " />
<glyph glyph-name="Ygrave" unicode="&#x1ef2;" horiz-adv-x="521" d="M213 891 C213 891 318 891 318 891 C318 891 310 1041 310 1041 C310 1041 160 1041 160 1041 C160 1041 213 891 213 891 L213 891 Z M406 745 C406 745 407 745 407 745 C407 745 296 445 296 445 C296 445 180 746 180 746 C180 746 185 798 185 798 C184 798 184 803 185 810 C184 811 184 811 185 811 C185 811 155 811 155 811 C155 811 94 811 94 811 C94 811 34 811 34 811 C34 811 9 811 9 811 C9 811 9 798 9 798 C9 798 60 745 60 745 C60 745 208 369 208 369 C208 369 208 66 208 66 C208 66 178 13 178 13 C178 13 178 0 178 0 C178 0 208 0 208 0 C208 0 272 0 272 0 C272 0 336 0 336 0 C336 0 366 0 366 0 C366 0 366 13 366 13 C366 13 336 66 336 66 C336 66 336 384 336 384 C336 384 471 745 471 745 C471 745 472 745 472 745 C472 745 521 798 521 798 C522 798 522 803 521 809 C522 810 522 811 521 811 C521 811 496 811 496 811 C496 811 464 811 464 811 C464 811 431 811 431 811 C431 811 401 811 401 811 C400 811 400 811 401 810 C400 803 400 798 401 798 C401 798 406 745 406 745 L406 745 Z " />
<glyph glyph-name="endash" unicode="&#x2013;" horiz-adv-x="290" d="M5 237 C5 237 285 237 285 237 C285 237 285 332 285 332 C285 332 5 332 5 332 C5 332 5 237 5 237 L5 237 Z " />
<glyph glyph-name="emdash" unicode="&#x2014;" horiz-adv-x="580" d="M50 237 C50 237 530 237 530 237 C530 237 530 332 530 332 C530 332 50 332 50 332 C50 332 50 237 50 237 L50 237 Z " />
<glyph glyph-name="quoteleft" unicode="&#x2018;" horiz-adv-x="225" d="M175 821 C92 821 50 768 50 701 C50 701 50 576 50 576 C50 576 175 576 175 576 C175 576 175 701 175 701 C175 701 125 701 125 701 C125 734 142 761 175 761 C175 761 175 821 175 821 L175 821 Z " />
<glyph glyph-name="quoteright" unicode="&#x2019;" horiz-adv-x="225" d="M113 821 C113 821 113 696 113 696 C113 696 163 696 163 696 C163 656 146 636 113 636 C113 636 113 576 113 576 C196 576 238 616 238 696 C238 696 238 821 238 821 C238 821 113 821 113 821 L113 821 Z " />
<glyph glyph-name="quotedblleft" unicode="&#x201c;" horiz-adv-x="475" d="M425 821 C342 821 300 768 300 701 C300 701 300 576 300 576 C300 576 425 576 425 576 C425 576 425 701 425 701 C425 701 375 701 375 701 C375 734 392 761 425 761 C425 761 425 821 425 821 L425 821 Z M238 821 C155 821 113 768 113 701 C113 701 113 576 113 576 C113 576 238 576 238 576 C238 576 238 701 238 701 C238 701 188 701 188 701 C188 734 205 761 238 761 C238 761 238 821 238 821 L238 821 Z " />
<glyph glyph-name="quotedblright" unicode="&#x201d;" horiz-adv-x="475" d="M300 821 C300 821 300 696 300 696 C300 696 350 696 350 696 C350 656 333 636 300 636 C300 636 300 576 300 576 C383 576 425 616 425 696 C425 696 425 821 425 821 C425 821 300 821 300 821 L300 821 Z M113 821 C113 821 113 696 113 696 C113 696 163 696 163 696 C163 656 146 636 113 636 C113 636 113 576 113 576 C196 576 238 616 238 696 C238 696 238 821 238 821 C238 821 113 821 113 821 L113 821 Z " />
<glyph glyph-name="dagger" unicode="&#x2020;" horiz-adv-x="575" d="M515 641 C515 641 345 641 345 641 C345 641 345 811 345 811 C345 811 230 811 230 811 C230 811 230 641 230 641 C230 641 60 641 60 641 C60 641 60 541 60 541 C60 541 230 541 230 541 C230 541 230 -50 230 -50 C230 -50 345 -50 345 -50 C345 -50 345 541 345 541 C345 541 515 541 515 541 C515 541 515 641 515 641 L515 641 Z " />
<glyph glyph-name="daggerdbl" unicode="&#x2021;" horiz-adv-x="575" d="M60 120 C60 120 230 120 230 120 C230 120 230 -50 230 -50 C230 -50 345 -50 345 -50 C345 -50 345 120 345 120 C345 120 515 120 515 120 C515 120 515 220 515 220 C515 220 345 220 345 220 C345 220 345 541 345 541 C345 541 515 541 515 541 C515 541 515 641 515 641 C515 641 345 641 345 641 C345 641 345 811 345 811 C345 811 230 811 230 811 C230 811 230 641 230 641 C230 641 60 641 60 641 C60 641 60 541 60 541 C60 541 230 541 230 541 C230 541 230 220 230 220 C230 220 60 220 60 220 C60 220 60 120 60 120 L60 120 Z " />
<glyph glyph-name="bullet" unicode="&#x2022;" horiz-adv-x="225" d="M34 228 C34 228 191 228 191 228 C191 228 191 384 191 384 C191 384 34 384 34 384 C34 384 34 228 34 228 L34 228 Z " />
<glyph glyph-name="ellipsis" unicode="&#x2026;" horiz-adv-x="625" d="M450 0 C450 0 575 0 575 0 C575 0 575 125 575 125 C575 125 450 125 450 125 C450 125 450 0 450 0 L450 0 Z M250 0 C250 0 375 0 375 0 C375 0 375 125 375 125 C375 125 250 125 250 125 C250 125 250 0 250 0 L250 0 Z M50 0 C50 0 175 0 175 0 C175 0 175 125 175 125 C175 125 50 125 50 125 C50 125 50 0 50 0 L50 0 Z " />
<glyph glyph-name="perthousand" unicode="&#x2030;" horiz-adv-x="552" d="M593 140 C593 75 590 23 585 23 C581 23 578 75 578 140 C578 205 581 257 585 257 C590 257 593 205 593 140 L593 140 Z M585 -10 C630 -10 658 57 658 140 C658 223 630 290 585 290 C541 290 513 223 513 140 C513 57 541 -10 585 -10 L585 -10 Z M428 140 C428 75 425 23 420 23 C416 23 413 75 413 140 C413 205 416 257 420 257 C425 257 428 205 428 140 L428 140 Z M420 -10 C465 -10 493 57 493 140 C493 223 465 290 420 290 C376 290 348 223 348 140 C348 57 376 -10 420 -10 L420 -10 Z M124 671 C124 736 127 788 132 788 C136 788 139 736 139 671 C139 606 136 554 132 554 C127 554 124 606 124 671 L124 671 Z M132 821 C87 821 59 754 59 671 C59 588 87 521 132 521 C176 521 204 588 204 671 C204 754 176 821 132 821 L132 821 Z M106 0 C106 0 146 0 146 0 C146 0 446 811 446 811 C446 811 406 811 406 811 C406 811 106 0 106 0 L106 0 Z " />
<glyph glyph-name="guilsinglleft" unicode="&#x2039;" horiz-adv-x="181" d="M106 525 C106 525 50 291 50 291 C50 291 106 56 106 56 C106 56 206 56 206 56 C206 56 150 291 150 291 C150 291 206 525 206 525 C206 525 106 525 106 525 L106 525 Z " />
<glyph glyph-name="guilsinglright" unicode="&#x203a;" horiz-adv-x="181" d="M50 525 C50 525 106 291 106 291 C106 291 50 56 50 56 C50 56 150 56 150 56 C150 56 206 291 206 291 C206 291 150 525 150 525 C150 525 50 525 50 525 L50 525 Z " />
<glyph glyph-name="fraction" unicode="&#x2044;" horiz-adv-x="580" d="M60 0 C60 0 100 0 100 0 C100 0 520 811 520 811 C520 811 480 811 480 811 C480 811 60 0 60 0 L60 0 Z " />
<glyph glyph-name="Euro" unicode="&#x20ac;" horiz-adv-x="583" d="M-7 311 C-7 311 61 311 61 311 C94 139 210 -10 351 -10 C469 -10 563 67 563 162 C563 162 512 205 512 205 C512 117 440 47 351 47 C277 47 215 168 196 311 C196 311 374 311 374 311 C374 311 383 376 383 376 C383 376 190 376 190 376 C189 386 189 396 189 406 C189 416 189 426 190 436 C190 436 383 436 383 436 C383 436 392 500 392 500 C392 500 195 500 195 500 C215 643 277 764 351 764 C440 764 512 694 512 606 C512 606 563 649 563 649 C563 744 469 821 351 821 C210 821 93 672 61 500 C61 500 11 500 11 500 C11 500 2 436 2 436 C2 436 53 436 53 436 C52 426 52 416 52 406 C52 396 52 386 53 376 C53 376 2 376 2 376 C2 376 -7 311 -7 311 L-7 311 Z " />
<glyph glyph-name="minus" unicode="&#x2212;" horiz-adv-x="495" d="M50 249 C50 249 445 249 445 249 C445 249 445 319 445 319 C445 319 50 319 50 319 C50 319 50 249 50 249 L50 249 Z " />
<glyph glyph-name="DIVISIONSLASH" unicode="&#x2215;" horiz-adv-x="460" d="M0 0 C0 0 40 0 40 0 C40 0 460 811 460 811 C460 811 420 811 420 811 C420 811 0 0 0 0 L0 0 Z " />
<glyph glyph-name="BULLETOPERATOR" unicode="&#x2219;" horiz-adv-x="225" d="M50 228 C50 228 175 228 175 228 C175 228 175 353 175 353 C175 353 50 353 50 353 C50 353 50 228 50 228 L50 228 Z " />
<glyph glyph-name="LETTERSMALLCAPITALF" unicode="&#xa730;" horiz-adv-x="466" d="M341 300 C341 300 393 270 393 270 C393 270 407 270 407 270 C407 270 407 300 407 300 C407 300 407 325 407 325 C407 325 407 349 407 349 C407 349 407 379 407 379 C407 379 393 379 393 379 C393 379 341 349 341 349 C341 349 221 349 221 349 C221 349 221 607 221 607 C221 607 371 607 371 607 C371 607 423 577 423 577 C423 577 437 577 437 577 C437 577 437 607 437 607 C437 607 437 632 437 632 C437 632 437 658 437 658 C437 658 221 658 221 658 C221 658 220 658 220 658 C220 658 163 658 163 658 C163 658 105 658 105 658 C105 658 75 658 75 658 C75 658 75 645 75 645 C75 645 105 592 105 592 C105 592 105 66 105 66 C105 66 75 13 75 13 C75 13 75 0 75 0 C75 0 105 0 105 0 C105 0 163 0 163 0 C163 0 221 0 221 0 C221 0 251 0 251 0 C250 0 250 1 251 1 C250 8 250 13 251 13 C251 13 221 66 221 66 C221 66 221 300 221 300 C221 300 341 300 341 300 L341 300 Z " />
<glyph glyph-name="LETTERSMALLCAPITALS" unicode="&#xa731;" horiz-adv-x="468" d="M53 141 C60 97 83 61 116 35 C116 35 116 35 116 35 C116 35 116 35 116 35 C153 6 202 -10 257 -10 C365 -10 433 76 433 184 C433 277 361 360 249 397 C194 415 159 451 159 491 C159 558 179 612 204 612 C287 612 353 563 353 486 C353 486 375 506 375 506 C375 506 397 526 397 526 C397 526 397 556 397 556 C397 556 393 556 393 556 C385 589 363 616 333 635 C332 636 332 636 332 636 C332 636 332 636 332 636 C298 656 253 668 204 668 C113 668 40 584 40 479 C40 393 109 316 217 280 C279 260 318 221 318 180 C318 105 294 45 257 45 C172 45 104 108 104 208 C104 208 51 171 51 171 C51 171 51 141 51 141 C51 141 53 141 53 141 L53 141 Z " />
<glyph glyph-name="[namenotfound]001" unicode="&#xf078;" horiz-adv-x="545" d="M538 658 C538 658 515 658 515 658 C515 658 482 658 482 658 C482 658 448 658 448 658 C448 658 418 658 418 658 C418 658 418 645 418 645 C418 645 410 593 410 593 C410 593 314 428 314 428 C314 428 242 594 242 594 C242 594 244 645 244 645 C244 645 244 658 244 658 C244 658 214 658 214 658 C214 658 157 658 157 658 C157 658 101 658 101 658 C101 658 77 658 77 658 C77 658 77 645 77 645 C77 645 130 592 130 592 C130 592 250 317 250 317 C250 317 103 66 103 66 C103 66 103 66 103 66 C103 66 43 13 43 13 C43 13 43 0 43 0 C43 0 65 0 65 0 C65 0 99 0 99 0 C99 0 133 0 133 0 C133 0 162 0 162 0 C162 0 162 13 162 13 C162 13 171 65 171 65 C171 65 279 251 279 251 C279 251 359 66 359 66 C359 66 359 66 359 66 C359 66 358 13 358 13 C358 13 358 0 358 0 C358 0 388 0 388 0 C388 0 444 0 444 0 C444 0 501 0 501 0 C501 0 525 0 525 0 C525 0 525 13 525 13 C525 13 472 66 472 66 C472 66 343 362 343 362 C343 362 477 592 477 592 C477 592 477 592 477 592 C477 592 538 645 538 645 C538 645 538 658 538 658 L538 658 Z " />
</font>
</svg>
