<?xml version="1.0" encoding="UTF-8"?>
<svg xmlns="http://www.w3.org/2000/svg" xmlns:xlink="http://www.w3.org/1999/xlink" version="1.2" >
<font id="Montrell Light">
<font-face  font-family="Montrell" units-per-em="1024" ascent="1054" descent="-300" font-style="normal" font-weight="300" font-stretch="normal" cap-height="811" x-height="581" underline-position="0" underline-thickness="0" />
<missing-glyph  horiz-adv-x="472" d="M0 700 C0 700 432 700 432 700 C432 700 432 0 432 0 C432 0 0 0 0 0 C0 0 0 700 0 700 L0 700 Z M50 50 C50 50 382 50 382 50 C382 50 382 650 382 650 C382 650 50 650 50 650 C50 650 50 50 50 50 L50 50 Z " />
<glyph glyph-name="NULL" d="" />
<glyph glyph-name="CR" unicode="&#xd;" horiz-adv-x="256" d="" />
<glyph glyph-name="space" unicode="&#x20;" horiz-adv-x="100" d="" />
<glyph glyph-name="exclam" unicode="&#x21;" horiz-adv-x="148" d="M44 0 C44 0 104 0 104 0 C104 0 104 60 104 60 C104 60 44 60 44 60 C44 60 44 0 44 0 L44 0 Z M45 811 C45 811 45 476 45 476 C45 476 67 193 67 193 C67 193 82 193 82 193 C82 193 104 476 104 476 C104 476 104 811 104 811 C104 811 45 811 45 811 L45 811 Z " />
<glyph glyph-name="quotedbl" unicode="&#x22;" horiz-adv-x="270" d="M167 811 C167 811 167 756 167 756 C167 756 183 711 183 711 C183 711 207 711 207 711 C207 711 223 756 223 756 C223 756 223 811 223 811 C223 811 167 811 167 811 L167 811 Z M77 811 C77 811 77 756 77 756 C77 756 93 711 93 711 C93 711 117 711 117 711 C117 711 133 756 133 756 C133 756 133 811 133 811 C133 811 77 811 77 811 L77 811 Z " />
<glyph glyph-name="numbersign" unicode="&#x23;" horiz-adv-x="491" d="M375 811 C375 811 348 602 348 602 C348 602 210 602 210 602 C210 602 237 811 237 811 C237 811 211 811 211 811 C211 811 184 602 184 602 C184 602 77 602 77 602 C77 602 71 561 71 561 C71 561 179 561 179 561 C179 561 139 250 139 250 C139 250 25 250 25 250 C25 250 19 210 19 210 C19 210 134 210 134 210 C134 210 107 0 107 0 C107 0 133 0 133 0 C133 0 160 210 160 210 C160 210 298 210 298 210 C298 210 271 0 271 0 C271 0 297 0 297 0 C297 0 324 210 324 210 C324 210 413 210 413 210 C413 210 419 250 419 250 C419 250 329 250 329 250 C329 250 369 561 369 561 C369 561 465 561 465 561 C465 561 471 602 471 602 C471 602 374 602 374 602 C374 602 401 811 401 811 C401 811 375 811 375 811 L375 811 Z M205 561 C205 561 343 561 343 561 C343 561 303 250 303 250 C303 250 165 250 165 250 C165 250 205 561 205 561 L205 561 Z " />
<glyph glyph-name="dollar" unicode="&#x24;" horiz-adv-x="431" d="M252 886 C252 886 252 812 252 812 C234 818 214 821 193 821 C182 821 171 819 160 814 C160 814 160 886 160 886 C160 886 127 886 127 886 C127 886 127 793 127 793 C85 754 56 679 56 592 C56 537 82 483 127 442 C127 442 127 67 127 67 C123 72 119 76 116 82 C116 82 89 142 89 142 C85 158 83 176 83 194 C83 194 70 184 70 184 C70 184 70 185 70 185 C70 185 58 175 58 175 C58 175 58 146 58 146 C58 146 60 146 60 146 C66 97 89 57 123 30 C123 29 123 29 123 29 C123 29 123 29 123 29 C125 28 126 27 127 26 C127 26 127 -75 127 -75 C127 -75 160 -75 160 -75 C160 -75 160 7 160 7 C184 -4 211 -10 240 -10 C244 -10 248 -10 252 -9 C252 -9 252 -75 252 -75 C252 -75 285 -75 285 -75 C285 -75 285 -1 285 -1 C354 26 396 117 396 227 C396 299 354 367 285 414 C285 414 285 763 285 763 C290 759 294 755 298 750 C298 750 328 693 328 693 C331 682 333 669 333 655 C333 655 344 665 344 665 C344 665 344 664 344 664 C344 664 354 674 354 674 C354 674 354 704 354 704 C354 704 351 704 351 704 C344 743 321 774 289 794 C289 795 289 795 289 795 C289 795 289 795 289 795 C288 796 286 796 285 797 C285 797 285 886 285 886 C285 886 252 886 252 886 L252 886 Z M252 434 C244 438 235 442 226 446 C200 457 178 472 160 490 C160 490 160 777 160 777 C170 788 181 794 193 794 C214 794 234 790 252 783 C252 783 252 434 252 434 L252 434 Z M127 537 C118 556 113 577 113 598 C113 639 118 677 127 709 C127 709 127 537 127 537 L127 537 Z M160 416 C176 406 193 397 211 389 C226 383 239 376 252 368 C252 368 252 18 252 18 C248 17 244 17 240 17 C211 17 183 25 160 39 C160 39 160 416 160 416 L160 416 Z M285 342 C320 309 340 268 340 225 C340 141 320 69 285 36 C285 36 285 342 285 342 L285 342 Z " />
<glyph glyph-name="percent" unicode="&#x25;" horiz-adv-x="506" d="M424 140 C424 64 411 4 390 4 C368 4 355 64 355 140 C355 216 368 276 390 276 C411 276 424 216 424 140 L424 140 Z M390 -10 C428 -10 453 57 453 140 C453 223 428 290 390 290 C351 290 327 223 327 140 C327 57 351 -10 390 -10 L390 -10 Z M82 671 C82 747 96 807 117 807 C139 807 152 747 152 671 C152 596 139 535 117 535 C96 535 82 596 82 671 L82 671 Z M117 821 C79 821 54 754 54 671 C54 588 79 521 117 521 C156 521 180 588 180 671 C180 754 156 821 117 821 L117 821 Z M106 0 C106 0 123 0 123 0 C123 0 401 811 401 811 C401 811 383 811 383 811 C383 811 106 0 106 0 L106 0 Z " />
<glyph glyph-name="ampersand" unicode="&#x26;" horiz-adv-x="562" d="M502 2 C502 2 499 25 499 25 C484 19 469 15 464 15 C454 15 428 57 396 117 C427 187 444 278 442 378 C442 378 417 383 417 383 C419 292 405 210 382 145 C378 152 375 159 371 166 C315 276 264 372 245 408 C245 408 252 412 252 412 C314 523 363 598 363 583 C363 677 320 752 267 752 C207 752 160 672 160 572 C160 502 175 426 194 397 C194 397 193 396 193 396 C115 255 52 167 52 197 C52 76 136 -20 242 -20 C291 -20 335 12 369 65 C399 20 430 -10 462 -10 C468 -10 485 -5 502 2 L502 2 Z M236 423 C219 446 207 513 207 576 C207 661 234 729 267 729 C296 729 320 663 320 580 C320 577 282 507 236 423 C236 423 236 423 236 423 L236 423 Z M204 377 C221 343 264 259 316 158 C329 133 342 109 355 87 C325 37 287 7 245 7 C167 7 104 94 104 203 C104 200 149 277 204 377 L204 377 Z " />
<glyph glyph-name="quotesingle" unicode="&#x27;" horiz-adv-x="180" d="M77 811 C77 811 77 756 77 756 C77 756 93 711 93 711 C93 711 117 711 117 711 C117 711 133 756 133 756 C133 756 133 811 133 811 C133 811 77 811 77 811 L77 811 Z " />
<glyph glyph-name="parenleft" unicode="&#x28;" horiz-adv-x="318" d="M281 856 C177 769 111 577 111 362 C111 158 177 -28 281 -115 C281 -115 298 -96 298 -96 C203 -16 143 162 143 362 C143 573 203 757 298 837 C298 837 281 856 281 856 L281 856 Z " />
<glyph glyph-name="parenright" unicode="&#x29;" horiz-adv-x="300" d="M37 -115 C141 -28 207 165 207 379 C207 583 141 769 37 856 C37 856 20 837 20 837 C115 758 175 579 175 379 C175 168 115 -16 20 -96 C20 -96 37 -115 37 -115 L37 -115 Z " />
<glyph glyph-name="asterisk" unicode="&#x2a;" horiz-adv-x="351" d="M322 730 C322 730 183 671 183 671 C183 671 197 821 197 821 C197 821 155 821 155 821 C155 821 168 671 168 671 C168 671 30 730 30 730 C30 730 17 691 17 691 C17 691 164 657 164 657 C164 657 65 544 65 544 C65 544 99 519 99 519 C99 519 176 649 176 649 C176 649 253 519 253 519 C253 519 287 544 287 544 C287 544 188 657 188 657 C188 657 334 691 334 691 C334 691 322 730 322 730 L322 730 Z " />
<glyph glyph-name="plus" unicode="&#x2b;" horiz-adv-x="651" d="M309 279 C309 279 309 0 309 0 C309 0 342 0 342 0 C342 0 342 279 342 279 C342 279 626 279 626 279 C626 279 626 310 626 310 C626 310 342 310 342 310 C342 310 342 581 342 581 C342 581 309 581 309 581 C309 581 309 310 309 310 C309 310 25 310 25 310 C25 310 25 279 25 279 C25 279 309 279 309 279 L309 279 Z " />
<glyph glyph-name="comma" unicode="&#x2c;" horiz-adv-x="160" d="M50 60 C50 60 50 0 50 0 C50 0 77 0 77 0 C77 -40 68 -60 50 -60 C50 -60 50 -86 50 -86 C90 -86 110 -57 110 0 C110 0 110 60 110 60 C110 60 50 60 50 60 L50 60 Z " />
<glyph glyph-name="hyphen" unicode="&#x2d;" horiz-adv-x="245" d="M50 264 C50 264 195 264 195 264 C195 264 195 305 195 305 C195 305 50 305 50 305 C50 305 50 264 50 264 L50 264 Z " />
<glyph glyph-name="period" unicode="&#x2e;" horiz-adv-x="160" d="M50 0 C50 0 110 0 110 0 C110 0 110 60 110 60 C110 60 50 60 50 60 C50 60 50 0 50 0 L50 0 Z " />
<glyph glyph-name="slash" unicode="&#x2f;" horiz-adv-x="263" d="M0 0 C0 0 22 0 22 0 C22 0 263 811 263 811 C263 811 242 811 242 811 C242 811 0 0 0 0 L0 0 Z " />
<glyph glyph-name="zero" unicode="0" horiz-adv-x="579" d="M298 15 C194 15 128 167 128 406 C128 633 199 796 298 796 C396 796 467 633 467 406 C467 167 401 15 298 15 L298 15 Z M71 406 C71 152 159 -10 298 -10 C437 -10 525 152 525 406 C525 648 430 821 298 821 C165 821 71 648 71 406 L71 406 Z " />
<glyph glyph-name="one" unicode="1" horiz-adv-x="315" d="M188 0 C188 0 216 0 216 0 C216 0 246 0 246 0 C246 0 246 13 246 13 C246 13 216 66 216 66 C216 66 216 811 216 811 C216 811 172 811 172 811 C172 811 50 596 50 596 C50 596 50 558 50 558 C50 558 160 755 160 755 C160 755 160 66 160 66 C160 66 130 13 130 13 C130 13 130 0 130 0 C130 0 160 0 160 0 C160 0 188 0 188 0 L188 0 Z " />
<glyph glyph-name="two" unicode="2" horiz-adv-x="459" d="M71 0 C71 0 103 0 103 0 C103 0 425 0 425 0 C425 0 425 27 425 27 C425 27 425 54 425 54 C425 54 425 84 425 84 C425 84 411 84 411 84 C411 84 359 54 359 54 C359 54 105 54 105 54 C116 174 164 250 249 326 C339 405 410 513 410 567 C410 708 341 821 254 821 C168 821 99 713 99 579 C99 525 118 458 141 428 C141 428 168 442 168 442 C146 470 128 531 128 579 C128 689 178 778 240 778 C304 778 355 679 355 556 C355 498 295 397 220 330 C121 241 71 153 71 0 C71 0 71 0 71 0 L71 0 Z " />
<glyph glyph-name="three" unicode="3" horiz-adv-x="478" d="M65 265 C65 112 147 -10 249 -10 C352 -10 434 95 434 227 C434 314 373 403 293 436 C356 456 405 532 405 609 C405 727 339 821 258 821 C176 821 110 716 110 584 C110 584 165 584 165 584 C165 702 206 796 257 796 C311 796 354 711 354 605 C354 522 305 455 244 455 C244 455 164 455 164 455 C164 455 164 443 164 443 C164 443 164 434 164 434 C164 434 164 412 164 412 C164 412 224 412 224 412 C307 412 374 331 374 229 C374 111 318 17 249 17 C178 17 122 127 122 265 C122 265 65 265 65 265 L65 265 Z " />
<glyph glyph-name="four" unicode="4" horiz-adv-x="475" d="M25 284 C25 284 25 260 25 260 C25 260 50 261 50 261 C50 261 344 261 344 261 C344 261 344 66 344 66 C344 66 314 13 314 13 C314 13 314 0 314 0 C314 0 344 0 344 0 C344 0 372 0 372 0 C372 0 400 0 400 0 C400 0 430 0 430 0 C430 0 430 13 430 13 C430 13 400 66 400 66 C400 66 400 261 400 261 C400 261 455 261 455 261 C455 261 455 287 455 287 C455 287 400 287 400 287 C400 287 400 811 400 811 C400 811 357 811 357 811 C357 811 25 284 25 284 L25 284 Z M54 287 C54 287 354 764 354 764 C354 764 344 598 344 598 C344 598 344 287 344 287 C344 287 54 287 54 287 L54 287 Z " />
<glyph glyph-name="five" unicode="5" horiz-adv-x="474" d="M116 373 C116 373 145 366 145 366 C196 423 249 468 264 468 C325 468 375 373 375 254 C375 122 319 17 250 17 C179 17 123 127 123 265 C123 265 66 265 66 265 C66 112 148 -10 250 -10 C353 -10 435 107 435 254 C435 398 363 513 274 513 C251 513 192 469 143 414 C143 414 125 754 125 754 C125 754 352 757 352 757 C352 757 401 728 401 728 C401 728 414 728 414 728 C415 743 417 769 418 784 C418 784 418 784 418 784 C418 784 420 811 420 811 C420 811 98 811 98 811 C98 811 116 373 116 373 L116 373 Z " />
<glyph glyph-name="six" unicode="6" horiz-adv-x="485" d="M435 674 C400 756 328 821 273 821 C152 821 75 635 75 403 C75 151 152 -10 274 -10 C377 -10 460 112 460 265 C460 406 383 519 286 519 C248 519 161 450 132 389 C132 396 132 405 132 413 C132 627 187 798 273 798 C318 798 380 737 413 660 C413 660 435 674 435 674 L435 674 Z M133 361 C176 424 261 494 280 494 C347 494 400 392 400 265 C400 126 344 15 274 15 C195 15 142 144 133 352 C133 352 133 352 133 352 C133 352 133 352 133 352 C133 364 133 361 133 361 L133 361 Z " />
<glyph glyph-name="seven" unicode="7" horiz-adv-x="370" d="M30 811 C30 811 30 784 30 784 C30 784 30 757 30 757 C30 757 30 727 30 727 C30 727 43 727 43 727 C43 727 96 757 96 757 C96 757 335 757 335 757 C195 515 125 263 125 0 C125 0 187 0 187 0 C187 305 245 558 360 757 C360 757 360 811 360 811 C360 811 30 811 30 811 L30 811 Z " />
<glyph glyph-name="eight" unicode="8" horiz-adv-x="508" d="M265 446 C195 446 155 517 155 605 C155 722 204 796 265 796 C332 796 374 711 374 605 C374 503 326 446 265 446 L265 446 Z M103 609 C103 523 146 451 224 433 C139 415 76 340 76 221 C76 93 144 -10 265 -10 C370 -10 454 73 454 220 C454 326 401 414 306 433 C375 450 425 512 425 609 C425 727 363 821 265 821 C175 821 103 739 103 609 L103 609 Z M265 15 C183 15 136 108 136 225 C136 349 193 419 265 419 C347 419 394 333 394 226 C394 91 337 15 265 15 L265 15 Z " />
<glyph glyph-name="nine" unicode="9" horiz-adv-x="485" d="M74 137 C109 55 182 -10 237 -10 C358 -10 435 176 435 408 C435 660 357 821 236 821 C132 821 50 699 50 546 C50 405 127 292 223 292 C261 292 349 361 377 422 C377 414 377 406 377 398 C377 184 323 13 237 14 C192 13 129 75 97 151 C97 151 74 137 74 137 L74 137 Z M386 462 C343 398 248 317 229 317 C163 317 110 419 110 546 C110 685 166 796 236 796 C315 796 367 667 376 459 C376 459 377 449 377 449 C377 449 386 462 386 462 L386 462 Z " />
<glyph glyph-name="colon" unicode="&#x3a;" horiz-adv-x="160" d="M50 521 C50 521 110 521 110 521 C110 521 110 581 110 581 C110 581 50 581 50 581 C50 581 50 521 50 521 L50 521 Z M50 0 C50 0 110 0 110 0 C110 0 110 60 110 60 C110 60 50 60 50 60 C50 60 50 0 50 0 L50 0 Z " />
<glyph glyph-name="semicolon" unicode="&#x3b;" horiz-adv-x="160" d="M50 521 C50 521 110 521 110 521 C110 521 110 581 110 581 C110 581 50 581 50 581 C50 581 50 521 50 521 L50 521 Z M50 60 C50 60 50 0 50 0 C50 0 77 0 77 0 C77 -40 68 -60 50 -60 C50 -60 50 -86 50 -86 C90 -86 110 -57 110 0 C110 0 110 60 110 60 C110 60 50 60 50 60 L50 60 Z " />
<glyph glyph-name="less" unicode="&#x3c;" horiz-adv-x="285" d="M225 536 C225 536 45 309 45 309 C45 309 45 272 45 272 C45 272 225 46 225 46 C225 46 225 87 225 87 C225 87 60 291 60 291 C60 291 225 494 225 494 C225 494 225 536 225 536 L225 536 Z " />
<glyph glyph-name="equal" unicode="&#x3d;" horiz-adv-x="484" d="M39 204 C39 204 39 173 39 173 C39 173 434 173 434 173 C434 173 434 204 434 204 C434 204 39 204 39 204 L39 204 Z M39 427 C39 427 39 397 39 397 C39 397 434 397 434 397 C434 397 434 427 434 427 C434 427 39 427 39 427 L39 427 Z " />
<glyph glyph-name="greater" unicode="&#x3e;" horiz-adv-x="285" d="M225 291 C225 291 60 87 60 87 C60 87 60 46 60 46 C60 46 240 272 240 272 C240 272 240 309 240 309 C240 309 60 536 60 536 C60 536 60 494 60 494 C60 494 225 291 225 291 L225 291 Z " />
<glyph glyph-name="question" unicode="&#x3f;" horiz-adv-x="444" d="M198 0 C198 0 258 0 258 0 C258 0 258 60 258 60 C258 60 198 60 198 60 C198 60 198 0 198 0 L198 0 Z M31 603 C31 603 79 594 79 594 C88 699 156 782 231 782 C293 782 342 701 342 601 C342 513 323 460 285 443 C222 413 204 358 204 193 C204 193 252 193 252 193 C252 338 267 386 320 410 C369 433 394 497 394 601 C394 723 322 821 231 821 C131 821 42 724 31 603 L31 603 Z " />
<glyph glyph-name="at" unicode="&#x40;" horiz-adv-x="1045" d="M871 -122 C779 -186 626 -238 527 -238 C286 -238 94 1 94 300 C94 598 289 837 533 837 C766 837 953 642 953 399 C953 184 878 12 784 12 C695 12 635 110 648 232 C648 232 683 558 683 558 C683 558 637 558 637 558 C637 558 619 386 619 386 C612 508 574 569 523 569 C425 569 334 449 318 300 C301 141 371 14 476 14 C528 14 578 79 602 169 C615 69 683 -4 775 -4 C895 -4 990 175 990 399 C990 652 787 854 533 854 C268 854 57 608 57 300 C57 -9 266 -255 527 -255 C628 -255 785 -202 881 -135 C881 -135 871 -122 871 -122 L871 -122 Z M603 239 C603 239 602 232 602 232 C590 124 535 38 479 38 C402 38 352 154 368 300 C382 436 450 546 521 546 C584 546 624 443 603 239 L603 239 Z " />
<glyph glyph-name="A" unicode="A" horiz-adv-x="641" d="M596 66 C596 66 595 66 595 66 C595 66 362 811 362 811 C362 811 333 811 333 811 C333 811 318 811 318 811 C318 811 308 811 308 811 C308 811 304 811 304 811 C304 811 274 811 274 811 C273 811 273 811 274 810 C273 803 273 798 274 798 C274 798 283 745 283 745 C283 745 283 745 283 745 C283 745 71 65 71 65 C71 65 26 13 26 13 C26 13 26 0 26 0 C26 0 51 0 51 0 C51 0 67 0 67 0 C67 0 82 0 82 0 C82 0 112 0 112 0 C112 0 112 13 112 13 C112 13 102 65 102 65 C102 65 158 246 158 246 C158 246 484 246 484 246 C484 246 477 269 477 269 C477 269 165 269 165 269 C165 269 321 771 321 771 C321 771 540 66 540 66 C540 66 540 66 540 66 C540 66 531 13 531 13 C531 13 531 0 531 0 C531 0 561 0 561 0 C561 0 589 0 589 0 C589 0 616 0 616 0 C616 0 642 0 642 0 C642 0 642 13 642 13 C642 13 596 66 596 66 L596 66 Z " />
<glyph glyph-name="B" unicode="B" horiz-adv-x="586" d="M373 431 C455 450 514 517 514 596 C514 739 442 811 299 811 C299 811 176 811 176 811 C176 811 148 811 148 811 C148 811 120 811 120 811 C120 811 90 811 90 811 C90 811 90 798 90 798 C90 798 120 745 120 745 C120 745 120 66 120 66 C120 66 90 13 90 13 C90 13 90 0 90 0 C90 0 120 0 120 0 C120 0 148 0 148 0 C148 0 176 0 176 0 C176 0 336 0 336 0 C479 0 551 81 551 243 C551 346 473 427 373 431 L373 431 Z M176 437 C176 437 176 788 176 788 C176 788 301 788 301 788 C405 788 457 723 457 592 C457 506 391 437 309 437 C309 437 176 437 176 437 L176 437 Z M176 24 C176 24 176 414 176 414 C176 414 346 414 346 414 C427 414 491 341 491 250 C491 99 437 24 328 24 C328 24 176 24 176 24 L176 24 Z " />
<glyph glyph-name="C" unicode="C" horiz-adv-x="595" d="M553 187 C553 91 459 15 342 15 C225 15 131 210 131 406 C131 601 225 796 342 796 C419 796 486 763 523 713 C523 713 546 667 546 667 C551 654 553 639 553 624 C553 624 564 633 564 633 C564 633 564 633 564 633 C564 633 576 643 576 643 C576 643 576 673 576 673 C576 673 573 673 573 673 C554 757 459 821 342 821 C192 821 71 613 71 406 C71 198 192 -10 342 -10 C472 -10 576 69 576 168 C576 168 553 187 553 187 L553 187 Z " />
<glyph glyph-name="D" unicode="D" horiz-adv-x="659" d="M148 0 C148 0 176 0 176 0 C176 0 304 0 304 0 C492 0 604 151 604 406 C604 653 476 811 274 811 C274 811 176 811 176 811 C176 811 148 811 148 811 C148 811 120 811 120 811 C120 811 90 811 90 811 C90 811 90 798 90 798 C90 798 120 745 120 745 C120 745 120 66 120 66 C120 66 90 13 90 13 C90 13 90 0 90 0 C90 0 120 0 120 0 C120 0 148 0 148 0 L148 0 Z M176 24 C176 24 176 788 176 788 C176 788 275 788 275 788 C439 788 544 639 544 406 C544 165 454 23 302 23 C267 23 211 24 176 24 L176 24 Z " />
<glyph glyph-name="E" unicode="E" horiz-adv-x="480" d="M431 12 C431 12 431 25 431 25 C431 25 431 55 431 55 C431 55 418 55 418 55 C418 55 365 25 365 25 C365 25 176 25 176 25 C176 25 176 389 176 389 C176 389 330 389 330 389 C330 389 383 359 383 359 C383 359 396 359 396 359 C396 359 396 389 396 389 C396 389 396 401 396 401 C396 401 396 412 396 412 C396 412 396 442 396 442 C396 443 395 443 394 442 C388 443 383 443 383 442 C383 442 330 412 330 412 C330 412 176 412 176 412 C176 412 176 786 176 786 C176 786 350 786 350 786 C350 786 403 756 403 756 C403 756 416 756 416 756 C416 756 416 786 416 786 C416 786 416 799 416 799 C416 799 416 811 416 811 C416 811 176 811 176 811 C176 811 175 811 175 811 C175 811 148 811 148 811 C148 811 120 811 120 811 C120 811 90 811 90 811 C90 811 90 798 90 798 C90 798 120 745 120 745 C120 745 120 66 120 66 C120 66 90 13 90 13 C90 13 90 0 90 0 C90 0 120 0 120 0 C120 0 148 0 148 0 C148 0 175 0 175 0 C175 0 176 0 176 0 C176 0 431 0 431 0 C431 0 431 12 431 12 L431 12 Z " />
<glyph glyph-name="F" unicode="F" horiz-adv-x="445" d="M320 389 C320 389 373 359 373 359 C373 359 386 359 386 359 C386 359 386 389 386 389 C386 389 386 401 386 401 C386 401 386 412 386 412 C386 412 386 442 386 442 C386 443 385 443 384 442 C378 443 373 443 373 442 C373 442 320 412 320 412 C320 412 176 412 176 412 C176 412 176 786 176 786 C176 786 350 786 350 786 C350 786 403 756 403 756 C403 756 416 756 416 756 C416 756 416 786 416 786 C416 786 416 799 416 799 C416 799 416 811 416 811 C416 811 176 811 176 811 C176 811 175 811 175 811 C175 811 148 811 148 811 C148 811 120 811 120 811 C120 811 90 811 90 811 C90 811 90 798 90 798 C90 798 120 745 120 745 C120 745 120 66 120 66 C120 66 90 13 90 13 C90 13 90 0 90 0 C90 0 120 0 120 0 C120 0 148 0 148 0 C148 0 176 0 176 0 C176 0 206 0 206 0 C206 0 206 13 206 13 C206 13 176 66 176 66 C176 66 176 389 176 389 C176 389 320 389 320 389 L320 389 Z " />
<glyph glyph-name="G" unicode="G" horiz-adv-x="647" d="M403 400 C403 400 573 400 573 400 C573 400 573 117 573 117 C505 60 418 15 367 15 C236 15 131 189 131 406 C131 622 236 796 367 796 C433 796 492 767 526 722 C526 722 554 666 554 666 C558 653 560 639 560 624 C560 624 571 633 571 633 C571 633 571 633 571 633 C571 633 582 643 582 643 C582 643 582 673 582 673 C582 673 579 673 579 673 C562 757 474 821 367 821 C202 821 71 636 71 406 C71 175 202 -10 367 -10 C429 -10 528 40 602 102 C602 102 602 425 602 425 C602 425 403 425 403 425 C403 425 403 400 403 400 L403 400 Z " />
<glyph glyph-name="H" unicode="H" horiz-adv-x="588" d="M461 0 C461 0 489 0 489 0 C489 0 519 0 519 0 C519 0 519 13 519 13 C519 13 489 66 489 66 C489 66 489 745 489 745 C489 745 519 798 519 798 C519 798 519 811 519 811 C519 811 489 811 489 811 C489 811 461 811 461 811 C461 811 433 811 433 811 C433 811 403 811 403 811 C403 811 403 798 403 798 C403 798 433 745 433 745 C433 745 433 423 433 423 C433 423 176 423 176 423 C176 423 176 745 176 745 C176 745 206 798 206 798 C206 798 206 811 206 811 C206 811 176 811 176 811 C176 811 148 811 148 811 C148 811 120 811 120 811 C120 811 90 811 90 811 C90 811 90 798 90 798 C90 798 120 745 120 745 C120 745 120 66 120 66 C120 66 90 13 90 13 C90 13 90 0 90 0 C90 0 120 0 120 0 C120 0 148 0 148 0 C148 0 176 0 176 0 C176 0 206 0 206 0 C206 0 206 13 206 13 C206 13 176 66 176 66 C176 66 176 398 176 398 C176 398 433 398 433 398 C433 398 433 66 433 66 C433 66 403 13 403 13 C403 13 403 0 403 0 C403 0 433 0 433 0 C433 0 461 0 461 0 L461 0 Z " />
<glyph glyph-name="I" unicode="I" horiz-adv-x="256" d="M129 0 C129 0 157 0 157 0 C157 0 187 0 187 0 C187 0 187 13 187 13 C187 13 157 66 157 66 C157 66 157 745 157 745 C157 745 187 798 187 798 C187 798 187 811 187 811 C187 811 157 811 157 811 C157 811 129 811 129 811 C129 811 101 811 101 811 C101 811 71 811 71 811 C71 811 71 798 71 798 C71 798 101 745 101 745 C101 745 101 66 101 66 C101 66 71 13 71 13 C71 13 71 0 71 0 C71 0 101 0 101 0 C101 0 129 0 129 0 L129 0 Z " />
<glyph glyph-name="J" unicode="J" horiz-adv-x="372" d="M67 283 C67 283 67 221 67 221 C67 73 107 -10 177 -10 C245 -10 288 100 288 238 C288 238 288 745 288 745 C288 745 318 798 318 798 C318 798 318 811 318 811 C318 811 288 811 288 811 C288 811 260 811 260 811 C260 811 232 811 232 811 C232 811 202 811 202 811 C202 811 202 798 202 798 C202 798 232 745 232 745 C232 745 232 238 232 238 C232 116 211 18 177 18 C143 18 123 97 123 237 C123 237 123 292 123 292 C123 292 67 283 67 283 L67 283 Z " />
<glyph glyph-name="K" unicode="K" horiz-adv-x="485" d="M356 745 C356 745 356 745 356 745 C356 745 161 364 161 364 C161 364 161 745 161 745 C161 745 191 798 191 798 C191 798 191 811 191 811 C191 811 161 811 161 811 C161 811 133 811 133 811 C133 811 105 811 105 811 C105 811 75 811 75 811 C75 811 75 798 75 798 C75 798 105 745 105 745 C105 745 105 66 105 66 C105 66 75 13 75 13 C75 13 75 0 75 0 C75 0 105 0 105 0 C105 0 133 0 133 0 C133 0 161 0 161 0 C161 0 191 0 191 0 C191 0 191 13 191 13 C191 13 161 66 161 66 C161 66 161 305 161 305 C161 305 240 458 240 458 C240 458 391 65 391 65 C391 65 386 13 386 13 C386 13 386 0 386 0 C386 0 416 0 416 0 C416 0 446 0 446 0 C446 0 476 0 476 0 C476 0 500 0 500 0 C500 0 500 13 500 13 C500 13 449 66 449 66 C449 66 267 510 267 510 C267 510 389 745 389 745 C389 745 389 745 389 745 C389 745 446 798 446 798 C446 798 446 811 446 811 C446 811 423 811 423 811 C423 811 406 811 406 811 C406 811 390 811 390 811 C390 811 360 811 360 811 C360 811 360 798 360 798 C360 798 356 745 356 745 L356 745 Z " />
<glyph glyph-name="L" unicode="L" horiz-adv-x="406" d="M362 12 C362 12 362 25 362 25 C362 25 362 55 362 55 C362 55 349 55 349 55 C349 55 296 25 296 25 C296 25 157 25 157 25 C157 25 157 745 157 745 C157 745 187 798 187 798 C187 798 187 811 187 811 C187 811 157 811 157 811 C157 811 129 811 129 811 C129 811 101 811 101 811 C101 811 71 811 71 811 C71 811 71 798 71 798 C71 798 101 745 101 745 C101 745 101 66 101 66 C101 66 71 13 71 13 C71 13 71 0 71 0 C71 0 101 0 101 0 C101 0 129 0 129 0 C129 0 157 0 157 0 C157 0 362 0 362 0 C362 0 362 12 362 12 L362 12 Z " />
<glyph glyph-name="M" unicode="M" horiz-adv-x="725" d="M598 0 C598 0 625 0 625 0 C625 0 655 0 655 0 C655 0 655 13 655 13 C655 13 625 66 625 66 C625 66 625 745 625 745 C625 745 655 798 655 798 C655 798 655 811 655 811 C655 811 625 811 625 811 C625 811 598 811 598 811 C598 811 581 811 581 811 C581 811 572 811 572 811 C572 811 553 811 553 811 C553 811 376 440 376 440 C376 440 196 811 196 811 C196 811 156 811 156 811 C156 811 145 811 145 811 C145 811 141 811 141 811 C141 811 127 811 127 811 C127 811 97 811 97 811 C97 811 97 798 97 798 C97 798 127 745 127 745 C127 745 127 66 127 66 C127 66 97 13 97 13 C97 13 97 0 97 0 C97 0 127 0 127 0 C127 0 141 0 141 0 C141 0 156 0 156 0 C156 0 186 0 186 0 C186 0 186 13 186 13 C186 13 156 66 156 66 C156 66 156 788 156 788 C156 788 339 413 339 413 C339 413 363 413 363 413 C363 413 389 413 389 413 C389 413 390 413 390 413 C390 413 572 792 572 792 C572 792 572 66 572 66 C572 66 542 13 542 13 C542 13 542 0 542 0 C542 0 572 0 572 0 C572 0 598 0 598 0 L598 0 Z " />
<glyph glyph-name="N" unicode="N" horiz-adv-x="533" d="M404 745 C404 745 404 65 404 65 C404 65 176 811 176 811 C176 811 157 811 157 811 C157 811 142 811 142 811 C142 811 126 811 126 811 C126 811 96 811 96 811 C96 811 96 798 96 798 C96 798 126 745 126 745 C126 745 126 66 126 66 C126 66 96 13 96 13 C96 13 96 0 96 0 C96 0 126 0 126 0 C126 0 142 0 142 0 C142 0 157 0 157 0 C157 0 187 0 187 0 C187 0 187 13 187 13 C187 13 157 66 157 66 C157 66 157 710 157 710 C157 710 374 0 374 0 C374 0 404 0 404 0 C404 0 424 0 424 0 C424 0 434 0 434 0 C434 0 434 745 434 745 C434 745 464 798 464 798 C464 798 464 811 464 811 C464 811 434 811 434 811 C434 811 419 811 419 811 C419 811 404 811 404 811 C404 811 374 811 374 811 C374 811 374 798 374 798 C374 798 404 745 404 745 L404 745 Z " />
<glyph glyph-name="O" unicode="O" horiz-adv-x="694" d="M358 15 C234 15 136 189 136 406 C136 612 241 796 358 796 C474 796 579 612 579 406 C579 189 481 15 358 15 L358 15 Z M76 406 C76 175 201 -10 358 -10 C514 -10 639 175 639 406 C639 625 506 821 358 821 C209 821 76 625 76 406 L76 406 Z " />
<glyph glyph-name="P" unicode="P" horiz-adv-x="518" d="M148 0 C148 0 176 0 176 0 C176 0 206 0 206 0 C206 0 206 13 206 13 C206 13 176 66 176 66 C176 66 176 331 176 331 C176 331 293 331 293 331 C410 331 484 423 484 568 C484 716 410 811 293 811 C293 811 176 811 176 811 C176 811 148 811 148 811 C148 811 134 811 134 811 C134 811 120 811 120 811 C120 811 90 811 90 811 C90 811 90 798 90 798 C90 798 120 745 120 745 C120 745 120 66 120 66 C120 66 90 13 90 13 C90 13 90 0 90 0 C90 0 120 0 120 0 C120 0 148 0 148 0 L148 0 Z M176 354 C176 354 176 788 176 788 C176 788 292 788 292 788 C375 788 428 702 428 568 C428 437 376 354 294 354 C294 354 176 354 176 354 L176 354 Z " />
<glyph glyph-name="Q" unicode="Q" horiz-adv-x="694" d="M76 406 C76 175 201 -10 358 -10 C389 -10 419 -3 447 11 C447 11 574 -90 574 -90 C574 -90 601 -53 601 -53 C601 -53 478 29 478 29 C573 95 639 238 639 406 C639 625 506 821 358 821 C209 821 76 625 76 406 C76 406 76 406 76 406 L76 406 Z M421 31 C401 21 380 15 358 15 C234 15 136 189 136 406 C136 612 241 796 358 796 C474 796 579 612 579 406 C579 246 526 109 448 48 C448 48 393 85 393 85 C393 85 378 65 378 65 C378 65 421 31 421 31 L421 31 Z " />
<glyph glyph-name="R" unicode="R" horiz-adv-x="533" d="M466 66 C466 66 466 66 466 66 C466 66 331 351 331 351 C331 351 293 351 293 351 C410 351 484 435 484 568 C484 716 410 811 293 811 C293 811 176 811 176 811 C176 811 148 811 148 811 C148 811 134 811 134 811 C134 811 120 811 120 811 C120 811 90 811 90 811 C90 811 90 798 90 798 C90 798 120 745 120 745 C120 745 120 66 120 66 C120 66 90 13 90 13 C90 13 90 0 90 0 C90 0 120 0 120 0 C120 0 148 0 148 0 C148 0 176 0 176 0 C176 0 206 0 206 0 C206 0 206 13 206 13 C206 13 176 66 176 66 C176 66 176 351 176 351 C176 351 267 351 267 351 C267 351 433 0 433 0 C433 0 465 0 465 0 C465 0 497 0 497 0 C497 0 521 0 521 0 C521 0 521 13 521 13 C521 13 466 66 466 66 L466 66 Z M176 375 C176 375 176 788 176 788 C176 788 292 788 292 788 C375 788 428 702 428 568 C428 450 376 375 294 375 C294 375 176 375 176 375 L176 375 Z " />
<glyph glyph-name="S" unicode="S" horiz-adv-x="431" d="M60 146 C66 97 89 57 123 30 C123 29 123 29 123 29 C123 29 123 29 123 29 C155 4 195 -10 240 -10 C335 -10 396 95 396 227 C396 317 330 402 226 446 C157 475 113 534 113 598 C113 707 149 794 193 794 C235 794 273 778 298 750 C298 750 328 693 328 693 C331 682 333 669 333 655 C333 655 344 665 344 665 C344 665 344 664 344 664 C344 664 354 674 354 674 C354 674 354 704 354 704 C354 704 351 704 351 704 C344 743 321 774 289 794 C289 795 289 795 289 795 C289 795 289 795 289 795 C262 812 229 821 193 821 C117 821 56 719 56 592 C56 508 116 429 211 389 C290 356 340 292 340 225 C340 109 301 17 240 17 C189 17 144 41 116 82 C116 82 89 142 89 142 C85 158 83 176 83 194 C83 194 70 184 70 184 C70 184 70 185 70 185 C70 185 58 175 58 175 C58 175 58 146 58 146 C58 146 60 146 60 146 L60 146 Z " />
<glyph glyph-name="T" unicode="T" horiz-adv-x="513" d="M257 0 C257 0 284 0 284 0 C284 0 314 0 314 0 C315 0 315 1 314 1 C315 8 315 13 314 13 C314 13 284 66 284 66 C284 66 284 786 284 786 C284 786 418 786 418 786 C418 786 471 756 471 756 C471 756 484 756 484 756 C484 756 484 786 484 786 C484 786 484 799 484 799 C484 799 484 811 484 811 C484 811 284 811 284 811 C284 811 229 811 229 811 C229 811 29 811 29 811 C29 811 29 799 29 799 C29 799 29 786 29 786 C29 786 29 756 29 756 C29 756 42 756 42 756 C42 756 95 786 95 786 C95 786 229 786 229 786 C229 786 229 66 229 66 C229 66 199 13 199 13 C199 13 199 0 199 0 C199 0 229 0 229 0 C229 0 256 0 256 0 C256 0 257 0 257 0 L257 0 Z " />
<glyph glyph-name="U" unicode="U" horiz-adv-x="562" d="M113 745 C113 745 113 317 113 317 C113 117 182 -10 290 -10 C398 -10 467 117 467 318 C467 318 467 745 467 745 C467 745 497 798 497 798 C498 798 498 803 497 810 C498 811 498 811 497 811 C497 811 467 811 467 811 C467 811 452 811 452 811 C452 811 437 811 437 811 C437 811 407 811 407 811 C407 811 407 798 407 798 C407 798 437 745 437 745 C437 745 437 323 437 323 C437 137 380 18 290 18 C216 18 169 138 169 326 C169 326 169 745 169 745 C169 745 199 798 199 798 C199 798 199 811 199 811 C199 811 169 811 169 811 C169 811 141 811 141 811 C141 811 113 811 113 811 C113 811 83 811 83 811 C83 811 83 798 83 798 C83 798 113 745 113 745 L113 745 Z " />
<glyph glyph-name="V" unicode="V" horiz-adv-x="512" d="M434 745 C434 745 435 745 435 745 C435 745 475 798 475 798 C475 798 475 811 475 811 C475 811 448 811 448 811 C448 811 432 811 432 811 C432 811 415 811 415 811 C415 811 385 811 385 811 C386 811 386 811 385 810 C386 803 386 798 385 798 C385 798 402 745 402 745 C402 745 267 68 267 68 C267 68 134 745 134 745 C134 745 134 745 134 745 C134 745 151 798 151 798 C151 798 151 811 151 811 C151 811 121 811 121 811 C121 811 91 811 91 811 C91 811 61 811 61 811 C61 811 34 811 34 811 C34 811 34 798 34 798 C34 798 75 746 75 746 C75 746 229 0 229 0 C229 0 253 0 253 0 C253 0 280 0 280 0 C280 0 281 0 281 0 C281 0 434 745 434 745 L434 745 Z " />
<glyph glyph-name="W" unicode="W" horiz-adv-x="711" d="M645 745 C645 745 683 798 683 798 C683 798 683 811 683 811 C683 811 655 811 655 811 C655 811 639 811 639 811 C639 811 622 811 622 811 C622 811 592 811 592 811 C593 811 593 811 592 810 C593 803 593 798 592 798 C592 798 613 746 613 746 C613 746 513 47 513 47 C513 47 406 294 406 294 C406 294 381 294 381 294 C381 294 352 294 352 294 C352 294 246 47 246 47 C246 47 147 746 147 746 C147 746 168 798 168 798 C168 798 168 811 168 811 C168 811 138 811 138 811 C138 811 108 811 108 811 C108 811 78 811 78 811 C78 811 50 811 50 811 C50 811 50 798 50 798 C50 798 88 745 88 745 C88 745 199 0 199 0 C199 0 226 0 226 0 C226 0 253 0 253 0 C253 0 366 261 366 261 C366 261 479 0 479 0 C479 0 506 0 506 0 C506 0 533 0 533 0 C533 0 645 745 645 745 L645 745 Z " />
<glyph glyph-name="X" unicode="X" horiz-adv-x="559" d="M435 745 C435 745 435 745 435 745 C435 745 306 478 306 478 C306 478 203 745 203 745 C203 745 204 745 204 745 C204 745 208 798 208 798 C208 798 208 811 208 811 C208 811 178 811 178 811 C178 811 152 811 152 811 C152 811 125 811 125 811 C125 811 100 811 100 811 C100 811 100 798 100 798 C100 798 150 745 150 745 C150 745 150 745 150 745 C150 745 276 417 276 417 C276 417 106 66 106 66 C106 66 51 13 51 13 C51 13 51 0 51 0 C51 0 74 0 74 0 C74 0 90 0 90 0 C90 0 105 0 105 0 C105 0 135 0 135 0 C135 0 135 13 135 13 C135 13 137 66 137 66 C137 66 137 66 137 66 C137 66 290 382 290 382 C290 382 411 65 411 65 C411 65 406 13 406 13 C406 13 406 0 406 0 C406 0 436 0 436 0 C436 0 463 0 463 0 C463 0 489 0 489 0 C489 0 514 0 514 0 C514 0 514 13 514 13 C514 13 464 66 464 66 C464 66 464 66 464 66 C464 66 319 443 319 443 C319 443 465 745 465 745 C465 745 521 798 521 798 C521 798 521 811 521 811 C521 811 497 811 497 811 C497 811 482 811 482 811 C482 811 467 811 467 811 C467 811 437 811 437 811 C437 811 437 798 437 798 C437 798 435 745 435 745 L435 745 Z " />
<glyph glyph-name="Y" unicode="Y" horiz-adv-x="562" d="M269 66 C269 66 239 13 239 13 C239 13 239 0 239 0 C239 0 269 0 269 0 C269 0 297 0 297 0 C297 0 325 0 325 0 C325 0 355 0 355 0 C355 0 355 13 355 13 C355 13 325 66 325 66 C325 66 325 377 325 377 C325 377 484 745 484 745 C484 745 484 745 484 745 C484 745 537 798 537 798 C537 798 537 811 537 811 C537 811 512 811 512 811 C512 811 498 811 498 811 C498 811 483 811 483 811 C483 811 453 811 453 811 C453 811 453 798 453 798 C453 798 455 746 455 746 C455 746 307 401 307 401 C307 401 158 745 158 745 C158 745 158 745 158 745 C158 745 159 798 159 798 C159 798 159 811 159 811 C159 811 129 811 129 811 C129 811 102 811 102 811 C102 811 75 811 75 811 C75 811 51 811 51 811 C51 811 51 798 51 798 C51 798 104 745 104 745 C104 745 269 369 269 369 C269 369 269 66 269 66 L269 66 Z " />
<glyph glyph-name="Z" unicode="Z" horiz-adv-x="535" d="M490 12 C490 12 490 25 490 25 C490 25 490 55 490 55 C490 55 477 55 477 55 C477 55 424 25 424 25 C424 25 103 25 103 25 C103 25 490 786 490 786 C490 786 490 811 490 811 C490 811 60 811 60 811 C60 811 60 799 60 799 C60 799 60 786 60 786 C60 786 60 756 60 756 C60 756 73 756 73 756 C73 756 126 786 126 786 C126 786 432 786 432 786 C432 786 45 25 45 25 C45 25 45 0 45 0 C45 0 490 0 490 0 C490 0 490 12 490 12 L490 12 Z " />
<glyph glyph-name="bracketleft" unicode="&#x5b;" horiz-adv-x="250" d="M168 783 C168 783 220 783 220 783 C220 783 220 811 220 811 C220 811 168 811 168 811 C168 811 136 811 136 811 C136 811 136 -115 136 -115 C136 -115 168 -115 168 -115 C168 -115 220 -115 220 -115 C220 -115 220 -87 220 -87 C220 -87 168 -87 168 -87 C168 -87 168 783 168 783 L168 783 Z " />
<glyph glyph-name="backslash" unicode="&#x5c;" horiz-adv-x="311" d="M290 0 C290 0 312 0 312 0 C312 0 22 811 22 811 C22 811 0 811 0 811 C0 811 290 0 290 0 L290 0 Z " />
<glyph glyph-name="bracketright" unicode="&#x5d;" horiz-adv-x="239" d="M82 783 C82 783 82 -87 82 -87 C82 -87 30 -87 30 -87 C30 -87 30 -115 30 -115 C30 -115 82 -115 82 -115 C82 -115 115 -115 115 -115 C115 -115 115 811 115 811 C115 811 82 811 82 811 C82 811 30 811 30 811 C30 811 30 783 30 783 C30 783 82 783 82 783 L82 783 Z " />
<glyph glyph-name="underscore" unicode="&#x5f;" horiz-adv-x="560" d="M50 -115 C50 -115 510 -115 510 -115 C510 -115 510 -85 510 -85 C510 -85 50 -85 50 -85 C50 -85 50 -115 50 -115 L50 -115 Z " />
<glyph glyph-name="a" unicode="a" horiz-adv-x="430" d="M75 445 C75 445 100 437 100 437 C100 510 151 569 215 569 C265 569 305 521 305 426 C305 426 305 407 305 407 C305 302 250 262 182 262 C113 262 57 193 57 107 C57 42 100 -10 187 -10 C240 -10 286 20 305 93 C305 93 305 45 305 45 C305 5 316 0 400 0 C400 0 400 37 400 37 C360 37 355 38 355 45 C355 45 355 404 355 404 C355 529 293 591 215 591 C137 591 75 526 75 445 L75 445 Z M305 316 C305 316 305 174 305 174 C305 55 256 9 195 9 C136 9 106 53 106 108 C106 184 147 245 198 245 C244 245 285 266 305 316 L305 316 Z " />
<glyph glyph-name="b" unicode="b" horiz-adv-x="478" d="M266 16 C194 16 137 115 137 291 C137 468 195 569 267 569 C326 569 374 445 374 291 C374 138 326 16 266 16 L266 16 Z M112 0 C112 0 137 0 137 0 C137 0 137 162 137 162 C160 51 213 -10 276 -10 C360 -10 428 124 428 291 C428 457 360 591 276 591 C213 591 160 530 137 420 C137 420 137 801 137 801 C137 801 137 811 137 811 C137 811 112 811 112 811 C112 811 87 811 87 811 C87 811 57 811 57 811 C57 811 57 798 57 798 C57 798 87 745 87 745 C87 745 87 66 87 66 C87 66 57 13 57 13 C57 13 57 0 57 0 C57 0 87 0 87 0 C87 0 112 0 112 0 L112 0 Z " />
<glyph glyph-name="c" unicode="c" horiz-adv-x="431" d="M377 144 C377 71 320 12 249 12 C179 12 122 113 122 291 C122 469 179 570 249 570 C288 570 318 556 340 533 C340 533 375 456 375 456 C377 445 378 433 378 420 C378 420 401 432 401 432 C401 432 401 462 401 462 C401 462 399 462 399 462 C393 507 372 545 336 567 C336 568 336 568 336 568 C336 568 336 568 336 568 C313 583 284 591 249 591 C148 591 67 482 67 291 C67 99 148 -10 249 -10 C334 -10 402 53 402 132 C402 132 377 144 377 144 L377 144 Z " />
<glyph glyph-name="d" unicode="d" horiz-adv-x="461" d="M67 291 C67 124 131 -10 210 -10 C270 -10 321 66 342 174 C342 174 342 10 342 10 C342 10 342 0 342 0 C342 0 367 0 367 0 C367 0 392 0 392 0 C392 0 422 0 422 0 C421 0 421 1 422 1 C421 8 421 13 422 13 C422 13 392 66 392 66 C392 66 392 801 392 801 C392 801 392 811 392 811 C392 811 367 811 367 811 C367 811 342 811 342 811 C342 811 312 811 312 811 C312 811 312 798 312 798 C312 798 342 745 342 745 C342 745 342 407 342 407 C321 515 270 591 210 591 C131 591 67 457 67 291 L67 291 Z M342 291 C342 136 288 12 219 12 C165 12 122 136 122 291 C122 445 165 569 219 569 C288 569 342 445 342 291 L342 291 Z " />
<glyph glyph-name="e" unicode="e" horiz-adv-x="437" d="M382 142 C382 70 318 12 238 12 C176 12 127 104 122 267 C122 267 415 267 415 267 C415 447 357 591 241 591 C144 591 67 482 67 291 C67 99 143 -10 238 -10 C332 -10 408 53 408 133 C408 133 382 142 382 142 L382 142 Z M122 286 C122 288 122 289 122 291 C122 469 175 570 241 570 C321 570 362 445 365 286 C365 286 122 286 122 286 L122 286 Z " />
<glyph glyph-name="f" unicode="f" horiz-adv-x="308" d="M104 0 C104 0 129 0 129 0 C129 0 158 0 158 0 C158 0 158 13 158 13 C158 13 129 66 129 66 C129 66 129 560 129 560 C129 560 238 560 238 560 C238 560 238 581 238 581 C238 581 129 581 129 581 C129 581 129 719 129 719 C129 766 138 789 156 789 C156 789 173 789 173 789 C173 789 225 759 225 759 C225 759 238 759 238 759 C238 759 238 789 238 789 C238 789 238 800 238 800 C238 800 238 811 238 811 C238 811 149 811 149 811 C102 811 79 780 79 719 C79 719 79 581 79 581 C79 581 30 581 30 581 C30 581 30 560 30 560 C30 560 79 560 79 560 C79 560 79 66 79 66 C79 66 49 13 49 13 C49 13 49 0 49 0 C49 0 79 0 79 0 C79 0 104 0 104 0 L104 0 Z " />
<glyph glyph-name="g" unicode="g" horiz-adv-x="451" d="M74 -84 C74 -139 142 -166 227 -166 C330 -166 382 -83 382 21 C382 21 382 515 382 515 C382 515 412 568 412 568 C411 568 411 573 412 580 C411 581 411 581 412 581 C412 581 382 581 382 581 C382 581 357 581 357 581 C357 581 332 581 332 581 C332 581 332 409 332 409 C311 516 263 591 205 591 C129 591 67 491 67 291 C67 97 129 0 205 0 C263 0 311 72 332 176 C332 176 332 0 332 0 C332 -80 296 -144 225 -144 C157 -144 103 -124 103 -84 C103 -84 74 -84 74 -84 L74 -84 Z M214 569 C280 569 332 445 332 291 C332 141 280 22 214 22 C163 22 122 112 122 291 C122 476 163 569 214 569 L214 569 Z " />
<glyph glyph-name="h" unicode="h" horiz-adv-x="433" d="M324 0 C324 0 349 0 349 0 C349 0 378 0 378 0 C378 0 378 13 378 13 C378 13 349 66 349 66 C349 66 349 376 349 376 C349 504 308 586 256 586 C209 586 168 542 151 478 C151 478 151 801 151 801 C151 801 151 811 151 811 C151 811 126 811 126 811 C126 811 114 811 114 811 C114 811 101 811 101 811 C101 811 72 811 72 811 C72 811 72 798 72 798 C72 798 101 745 101 745 C101 745 101 66 101 66 C101 66 72 13 72 13 C72 13 72 0 72 0 C72 0 101 0 101 0 C101 0 126 0 126 0 C126 0 151 0 151 0 C151 0 181 0 181 0 C181 0 181 13 181 13 C181 13 151 66 151 66 C151 66 151 409 151 409 C151 494 193 562 245 562 C275 562 299 490 299 376 C299 376 299 66 299 66 C299 66 269 13 269 13 C269 13 269 0 269 0 C269 0 299 0 299 0 C299 0 324 0 324 0 L324 0 Z " />
<glyph glyph-name="i" unicode="i" horiz-adv-x="251" d="M112 661 C112 661 172 661 172 661 C172 661 172 721 172 721 C172 721 112 721 112 721 C112 721 112 661 112 661 L112 661 Z M142 0 C142 0 167 0 167 0 C167 0 197 0 197 0 C197 0 197 13 197 13 C197 13 167 66 167 66 C167 66 167 571 167 571 C167 571 167 581 167 581 C167 581 142 581 142 581 C142 581 117 581 117 581 C117 581 87 581 87 581 C87 581 87 568 87 568 C87 568 117 515 117 515 C117 515 117 66 117 66 C117 66 87 13 87 13 C87 13 87 0 87 0 C87 0 117 0 117 0 C117 0 142 0 142 0 L142 0 Z " />
<glyph glyph-name="j" unicode="j" horiz-adv-x="146" d="M22 661 C22 661 82 661 82 661 C82 661 82 721 82 721 C82 721 22 721 22 721 C22 721 22 661 22 661 L22 661 Z M-7 -75 C-7 -75 -7 -97 -7 -97 C53 -94 77 -67 77 0 C77 0 77 571 77 571 C77 571 77 581 77 581 C77 581 52 581 52 581 C52 581 27 581 27 581 C27 581 -3 581 -3 581 C-3 581 -3 568 -3 568 C-3 568 27 515 27 515 C27 515 27 0 27 0 C27 -54 13 -75 -23 -75 C-23 -75 -7 -75 -7 -75 L-7 -75 Z M-7 -97 C-7 -97 -7 -97 -7 -97 C-7 -97 -16 -97 -16 -97 C-13 -97 -10 -97 -7 -97 L-7 -97 Z " />
<glyph glyph-name="k" unicode="k" horiz-adv-x="395" d="M357 66 C357 66 357 66 357 66 C357 66 222 380 222 380 C222 380 217 371 217 371 C217 371 301 515 301 515 C301 515 362 568 362 568 C362 568 362 581 362 581 C362 581 340 581 340 581 C340 581 331 581 331 581 C331 581 322 581 322 581 C322 581 292 581 292 581 C292 581 292 568 292 568 C292 568 283 515 283 515 C283 515 137 268 137 268 C137 268 137 801 137 801 C137 801 137 811 137 811 C137 811 112 811 112 811 C112 811 99 811 99 811 C99 811 87 811 87 811 C87 811 57 811 57 811 C57 811 57 798 57 798 C57 798 87 745 87 745 C87 745 87 66 87 66 C87 66 57 13 57 13 C57 13 57 0 57 0 C57 0 87 0 87 0 C87 0 112 0 112 0 C112 0 137 0 137 0 C137 0 166 0 166 0 C166 0 166 13 166 13 C166 13 137 66 137 66 C137 66 137 235 137 235 C137 235 194 333 194 333 C194 333 330 0 330 0 C330 0 358 0 358 0 C358 0 385 0 385 0 C385 0 409 0 409 0 C409 0 409 13 409 13 C409 13 357 66 357 66 L357 66 Z " />
<glyph glyph-name="l" unicode="l" horiz-adv-x="281" d="M157 0 C157 0 182 0 182 0 C182 0 212 0 212 0 C212 0 212 13 212 13 C212 13 182 66 182 66 C182 66 182 801 182 801 C182 801 182 811 182 811 C182 811 157 811 157 811 C157 811 132 811 132 811 C132 811 102 811 102 811 C102 811 102 798 102 798 C102 798 132 745 132 745 C132 745 132 66 132 66 C132 66 102 13 102 13 C102 13 102 0 102 0 C102 0 132 0 132 0 C132 0 157 0 157 0 L157 0 Z " />
<glyph glyph-name="m" unicode="m" horiz-adv-x="564" d="M460 0 C460 0 485 0 485 0 C485 0 514 0 514 0 C514 0 514 13 514 13 C514 13 485 66 485 66 C485 66 485 376 485 376 C485 504 451 586 409 586 C367 586 331 532 320 457 C308 538 278 586 243 586 C202 586 167 544 151 482 C151 482 151 571 151 571 C151 571 151 581 151 581 C151 581 126 581 126 581 C126 581 114 581 114 581 C114 581 101 581 101 581 C101 581 72 581 72 581 C72 581 72 568 72 568 C72 568 101 515 101 515 C101 515 101 66 101 66 C101 66 72 13 72 13 C72 13 72 0 72 0 C72 0 101 0 101 0 C101 0 126 0 126 0 C126 0 151 0 151 0 C151 0 181 0 181 0 C181 0 181 13 181 13 C181 13 151 66 151 66 C151 66 151 409 151 409 C151 494 187 562 233 562 C257 562 276 490 276 376 C276 376 276 66 276 66 C276 66 246 13 246 13 C246 13 246 0 246 0 C246 0 276 0 276 0 C276 0 301 0 301 0 C301 0 326 0 326 0 C326 0 356 0 356 0 C356 0 356 13 356 13 C356 13 326 66 326 66 C326 66 326 376 326 376 C326 387 326 398 325 409 C325 409 326 409 326 409 C326 494 358 562 399 562 C419 562 435 490 435 376 C435 376 435 66 435 66 C435 66 405 13 405 13 C405 13 405 0 405 0 C405 0 435 0 435 0 C435 0 460 0 460 0 L460 0 Z " />
<glyph glyph-name="n" unicode="n" horiz-adv-x="428" d="M324 0 C324 0 349 0 349 0 C349 0 378 0 378 0 C378 0 378 13 378 13 C378 13 349 66 349 66 C349 66 349 376 349 376 C349 504 305 586 250 586 C199 586 156 541 138 476 C138 476 138 571 138 571 C138 571 138 581 138 581 C138 581 113 581 113 581 C113 581 101 581 101 581 C101 581 88 581 88 581 C88 581 59 581 59 581 C59 581 59 568 59 568 C59 568 88 515 88 515 C88 515 88 66 88 66 C88 66 59 13 59 13 C59 13 59 0 59 0 C59 0 88 0 88 0 C88 0 113 0 113 0 C113 0 138 0 138 0 C138 0 168 0 168 0 C168 0 168 13 168 13 C168 13 138 66 138 66 C138 66 138 409 138 409 C138 494 183 562 239 562 C273 562 299 490 299 376 C299 376 299 66 299 66 C299 66 269 13 269 13 C269 13 269 0 269 0 C269 0 299 0 299 0 C299 0 324 0 324 0 L324 0 Z " />
<glyph glyph-name="o" unicode="o" horiz-adv-x="457" d="M231 10 C153 10 109 135 109 291 C109 470 163 571 231 571 C309 571 353 446 353 291 C353 111 299 10 231 10 L231 10 Z M54 291 C54 124 118 -10 231 -10 C329 -10 407 99 407 291 C407 457 343 591 231 591 C133 591 54 482 54 291 L54 291 Z " />
<glyph glyph-name="p" unicode="p" horiz-adv-x="480" d="M269 12 C196 12 138 113 138 291 C138 468 196 569 269 569 C328 569 376 445 376 291 C376 136 328 12 269 12 L269 12 Z M113 -155 C113 -155 138 -155 138 -155 C138 -155 168 -155 168 -155 C168 -155 168 -142 168 -142 C168 -142 138 -89 138 -89 C138 -89 138 167 138 167 C160 53 214 -10 278 -10 C362 -10 430 124 430 291 C430 457 362 591 278 591 C214 591 160 528 138 415 C138 415 138 571 138 571 C138 571 138 581 138 581 C138 581 113 581 113 581 C113 581 101 581 101 581 C101 581 88 581 88 581 C88 581 59 581 59 581 C59 581 59 568 59 568 C59 568 88 515 88 515 C88 515 88 -89 88 -89 C88 -89 59 -142 59 -142 C59 -142 59 -155 59 -155 C59 -155 88 -155 88 -155 C88 -155 113 -155 113 -155 L113 -155 Z " />
<glyph glyph-name="q" unicode="q" horiz-adv-x="476" d="M67 291 C67 124 131 -10 210 -10 C270 -10 321 66 342 174 C342 174 342 -89 342 -89 C342 -89 312 -142 312 -142 C312 -142 312 -155 312 -155 C312 -155 342 -155 342 -155 C342 -155 367 -155 367 -155 C367 -155 392 -155 392 -155 C392 -155 422 -155 422 -155 C421 -155 421 -154 422 -154 C421 -147 421 -142 422 -142 C422 -142 392 -89 392 -89 C392 -89 392 515 392 515 C392 515 422 568 422 568 C421 568 421 573 422 580 C421 581 421 581 422 581 C422 581 392 581 392 581 C392 581 367 581 367 581 C367 581 342 581 342 581 C342 581 342 407 342 407 C321 515 270 591 210 591 C131 591 67 457 67 291 L67 291 Z M342 291 C342 136 288 12 219 12 C165 12 122 136 122 291 C122 445 165 569 219 569 C288 569 342 445 342 291 L342 291 Z " />
<glyph glyph-name="r" unicode="r" horiz-adv-x="244" d="M224 552 C224 552 224 581 224 581 C224 581 220 581 220 581 C186 581 163 530 151 454 C151 454 151 571 151 571 C151 571 151 581 151 581 C151 581 126 581 126 581 C126 581 114 581 114 581 C114 581 101 581 101 581 C101 581 72 581 72 581 C72 581 72 568 72 568 C72 568 101 515 101 515 C101 515 101 66 101 66 C101 66 72 13 72 13 C72 13 72 0 72 0 C72 0 101 0 101 0 C101 0 126 0 126 0 C126 0 151 0 151 0 C151 0 181 0 181 0 C181 0 181 13 181 13 C181 13 151 66 151 66 C151 66 151 319 151 319 C151 449 173 552 217 552 C217 552 224 552 224 552 L224 552 Z " />
<glyph glyph-name="s" unicode="s" horiz-adv-x="385" d="M50 108 C66 43 129 -5 207 -5 C289 -5 355 67 355 158 C355 216 300 282 213 313 C157 332 122 381 122 428 C122 505 159 566 206 566 C233 566 258 554 277 534 C277 534 313 464 313 464 C315 454 316 442 316 431 C316 431 327 436 327 436 C327 436 338 441 338 441 C338 441 338 471 338 471 C338 471 335 471 335 471 C328 511 305 545 274 565 C273 566 273 567 273 567 C273 567 273 566 273 566 C253 579 230 586 206 586 C133 586 74 514 74 424 C74 362 123 295 201 268 C264 246 305 197 305 153 C305 77 262 16 207 16 C165 16 128 34 104 62 C104 62 78 108 78 108 C74 120 72 133 72 147 C72 147 47 138 47 138 C47 138 47 108 47 108 C47 108 50 108 50 108 L50 108 Z " />
<glyph glyph-name="t" unicode="t" horiz-adv-x="225" d="M195 581 C195 581 118 581 118 581 C118 581 118 774 118 774 C118 774 68 732 68 732 C68 732 68 581 68 581 C68 581 10 581 10 581 C10 581 10 560 10 560 C10 560 68 560 68 560 C68 560 68 137 68 137 C68 42 75 0 132 0 C132 0 195 0 195 0 C195 0 195 22 195 22 C195 22 144 22 144 22 C121 22 118 57 118 137 C118 137 118 560 118 560 C118 560 195 560 195 560 C195 560 195 581 195 581 L195 581 Z " />
<glyph glyph-name="u" unicode="u" horiz-adv-x="427" d="M343 66 C343 66 343 581 343 581 C343 581 318 581 318 581 C318 581 293 581 293 581 C293 581 263 581 263 581 C263 581 263 568 263 568 C263 568 293 515 293 515 C293 515 293 147 293 147 C293 74 257 15 211 15 C164 15 146 76 146 172 C146 172 146 581 146 581 C146 581 121 581 121 581 C121 581 96 581 96 581 C96 581 67 581 67 581 C67 581 67 568 67 568 C67 568 96 515 96 515 C96 515 96 172 96 172 C96 61 126 -10 203 -10 C244 -10 279 30 293 88 C293 88 293 10 293 10 C293 10 293 0 293 0 C293 0 318 0 318 0 C318 0 343 0 343 0 C343 0 373 0 373 0 C373 0 373 13 373 13 C373 13 343 66 343 66 L343 66 Z " />
<glyph glyph-name="v" unicode="v" horiz-adv-x="429" d="M323 515 C323 515 323 515 323 515 C323 515 215 41 215 41 C215 41 113 515 113 515 C113 515 129 568 129 568 C130 568 130 573 129 580 C130 581 130 581 129 581 C129 581 99 581 99 581 C99 581 71 581 71 581 C71 581 43 581 43 581 C43 581 16 581 16 581 C16 581 16 568 16 568 C16 568 58 515 58 515 C58 515 59 515 59 515 C59 515 180 0 180 0 C180 0 206 0 206 0 C206 0 224 0 224 0 C224 0 230 0 230 0 C230 0 353 515 353 515 C353 515 395 568 395 568 C395 568 395 581 395 581 C395 581 369 581 369 581 C369 581 353 581 353 581 C353 581 338 581 338 581 C338 581 308 581 308 581 C308 581 308 568 308 568 C308 568 323 515 323 515 L323 515 Z " />
<glyph glyph-name="w" unicode="w" horiz-adv-x="690" d="M79 515 C79 515 80 515 80 515 C80 515 187 0 187 0 C187 0 211 0 211 0 C211 0 227 0 227 0 C227 0 233 0 233 0 C233 0 343 312 343 312 C343 312 457 0 457 0 C457 0 481 0 481 0 C481 0 497 0 497 0 C497 0 502 0 502 0 C502 0 615 515 615 515 C615 515 615 515 615 515 C615 515 656 568 656 568 C656 568 656 581 656 581 C656 581 629 581 629 581 C629 581 615 581 615 581 C615 581 600 581 600 581 C600 581 570 581 570 581 C570 581 570 568 570 568 C570 568 587 516 587 516 C587 516 487 29 487 29 C487 29 376 341 376 341 C376 341 353 341 353 341 C353 341 332 341 332 341 C332 341 329 341 329 341 C329 341 221 30 221 30 C221 30 131 516 131 516 C131 516 149 568 149 568 C149 568 149 581 149 581 C149 581 119 581 119 581 C119 581 92 581 92 581 C92 581 66 581 66 581 C66 581 39 581 39 581 C38 581 38 580 39 579 C38 573 38 568 39 568 C39 568 79 515 79 515 L79 515 Z " />
<glyph glyph-name="x" unicode="x" horiz-adv-x="408" d="M79 66 C79 66 79 66 79 66 C79 66 25 13 25 13 C25 13 25 0 25 0 C25 0 48 0 48 0 C48 0 63 0 63 0 C63 0 78 0 78 0 C78 0 108 0 108 0 C108 0 108 13 108 13 C108 13 109 66 109 66 C109 66 200 259 200 259 C200 259 287 65 287 65 C287 65 286 13 286 13 C286 13 286 0 286 0 C286 0 316 0 316 0 C316 0 343 0 343 0 C343 0 371 0 371 0 C371 0 395 0 395 0 C395 0 395 13 395 13 C395 13 342 65 342 65 C342 65 228 319 228 319 C228 319 320 515 320 515 C320 515 321 515 321 515 C321 515 375 568 375 568 C375 568 375 581 375 581 C375 581 351 581 351 581 C351 581 337 581 337 581 C337 581 322 581 322 581 C322 581 292 581 292 581 C291 581 291 581 292 580 C291 573 291 568 292 568 C292 568 291 515 291 515 C291 515 214 351 214 351 C214 351 140 516 140 516 C140 516 141 568 141 568 C141 568 141 581 141 581 C141 581 111 581 111 581 C111 581 84 581 84 581 C84 581 56 581 56 581 C56 581 32 581 32 581 C32 581 32 568 32 568 C32 568 85 516 85 516 C85 516 186 292 186 292 C186 292 79 66 79 66 L79 66 Z " />
<glyph glyph-name="y" unicode="y" horiz-adv-x="420" d="M331 515 C331 515 331 515 331 515 C331 515 224 71 224 71 C224 71 124 515 124 515 C124 515 124 515 124 515 C124 515 139 568 139 568 C140 568 140 573 139 580 C140 581 140 581 139 581 C139 581 109 581 109 581 C109 581 81 581 81 581 C81 581 53 581 53 581 C53 581 26 581 26 581 C27 581 27 580 26 579 C27 573 27 568 26 568 C26 568 70 515 70 515 C70 515 70 515 70 515 C70 515 206 -6 206 -6 C206 -6 203 -17 203 -17 C175 -132 157 -176 138 -176 C138 -176 88 -176 88 -176 C88 -176 88 -200 88 -200 C88 -200 138 -200 138 -200 C170 -200 194 -152 224 -28 C224 -28 361 516 361 516 C361 516 404 568 404 568 C404 568 404 581 404 581 C404 581 378 581 378 581 C378 581 362 581 362 581 C362 581 347 581 347 581 C347 581 317 581 317 581 C317 581 317 568 317 568 C317 568 331 515 331 515 L331 515 Z " />
<glyph glyph-name="z" unicode="z" horiz-adv-x="340" d="M45 581 C45 581 45 570 45 570 C45 570 45 560 45 560 C45 560 45 530 45 530 C45 530 58 530 58 530 C58 530 111 560 111 560 C111 560 245 560 245 560 C245 560 30 17 30 17 C30 17 30 0 30 0 C30 0 320 0 320 0 C320 0 320 11 320 11 C320 11 320 21 320 21 C320 21 320 51 320 51 C320 51 307 51 307 51 C307 51 254 21 254 21 C254 21 85 21 85 21 C85 21 88 22 88 22 C88 22 304 565 304 565 C304 565 304 581 304 581 C304 581 45 581 45 581 L45 581 Z " />
<glyph glyph-name="braceleft" unicode="&#x7b;" horiz-adv-x="242" d="M212 811 C212 811 184 811 184 811 C157 811 136 786 136 754 C136 754 136 423 136 423 C136 388 102 360 59 360 C59 360 55 360 55 360 C55 360 55 336 55 336 C55 336 59 336 59 336 C102 336 136 308 136 273 C136 273 136 -58 136 -58 C136 -90 157 -115 184 -115 C184 -115 212 -115 212 -115 C212 -115 212 -87 212 -87 C212 -87 184 -87 184 -87 C175 -87 168 -74 168 -58 C168 -58 168 266 168 266 C168 297 135 333 92 348 C135 363 168 399 168 430 C168 430 168 754 168 754 C168 770 175 783 184 783 C184 783 212 783 212 783 C212 783 212 811 212 811 L212 811 Z " />
<glyph glyph-name="bar" unicode="&#x7c;" horiz-adv-x="122" d="M45 861 C45 861 45 -250 45 -250 C45 -250 78 -250 78 -250 C78 -250 78 861 78 861 C78 861 45 861 45 861 L45 861 Z " />
<glyph glyph-name="braceright" unicode="&#x7d;" horiz-adv-x="242" d="M30 811 C30 811 58 811 58 811 C85 811 106 786 106 754 C106 754 106 423 106 423 C106 388 141 360 183 360 C183 360 187 360 187 360 C187 360 187 336 187 336 C187 336 183 336 183 336 C141 336 106 308 106 273 C106 273 106 -58 106 -58 C106 -90 85 -115 58 -115 C58 -115 30 -115 30 -115 C30 -115 30 -87 30 -87 C30 -87 58 -87 58 -87 C67 -87 74 -74 74 -58 C74 -58 74 266 74 266 C74 297 107 333 150 348 C107 363 74 399 74 430 C74 430 74 754 74 754 C74 770 67 783 58 783 C58 783 30 783 30 783 C30 783 30 811 30 811 L30 811 Z " />
<glyph glyph-name="[namenotfound]" unicode="&#xa0;" horiz-adv-x="88" d="" />
<glyph glyph-name="exclamdown" unicode="&#xa1;" horiz-adv-x="148" d="M104 581 C104 581 44 581 44 581 C44 581 44 521 44 521 C44 521 104 521 104 521 C104 521 104 581 104 581 L104 581 Z M104 -230 C104 -230 104 105 104 105 C104 105 82 388 82 388 C82 388 67 388 67 388 C67 388 45 105 45 105 C45 105 45 -230 45 -230 C45 -230 104 -230 104 -230 L104 -230 Z " />
<glyph glyph-name="cent" unicode="&#xa2;" horiz-adv-x="427" d="M231 656 C231 656 231 590 231 590 C139 579 67 472 67 291 C67 109 139 2 231 -9 C231 -9 231 -75 231 -75 C231 -75 264 -75 264 -75 C264 -75 264 -9 264 -9 C340 -1 398 58 398 132 C398 132 373 144 373 144 C373 77 326 22 264 13 C264 13 264 568 264 568 C309 559 343 515 362 455 C354 449 349 437 349 423 C349 403 363 387 380 387 C393 387 401 403 397 422 C381 509 334 580 264 590 C264 590 264 656 264 656 C264 656 231 656 231 656 L231 656 Z M231 14 C170 28 122 127 122 291 C122 455 170 554 231 568 C231 568 231 14 231 14 L231 14 Z " />
<glyph glyph-name="guillemotleft" unicode="&#xab;" horiz-adv-x="315" d="M216 525 C216 525 160 291 160 291 C160 291 216 56 216 56 C216 56 259 56 259 56 C259 56 203 291 203 291 C203 291 259 525 259 525 C259 525 216 525 216 525 L216 525 Z M140 525 C140 525 84 291 84 291 C84 291 140 56 140 56 C140 56 184 56 184 56 C184 56 128 291 128 291 C128 291 184 525 184 525 C184 525 140 525 140 525 L140 525 Z " />
<glyph glyph-name="logicalnot" unicode="&#xac;" horiz-adv-x="307" d="M257 123 C257 123 257 273 257 273 C257 273 257 296 257 296 C257 296 230 296 230 296 C230 296 50 296 50 296 C50 296 50 273 50 273 C50 273 230 273 230 273 C230 273 230 123 230 123 C230 123 257 123 257 123 L257 123 Z " />
<glyph glyph-name="periodcentered" unicode="&#xb7;" horiz-adv-x="160" d="M50 261 C50 261 110 261 110 261 C110 261 110 321 110 321 C110 321 50 321 50 321 C50 321 50 261 50 261 L50 261 Z " />
<glyph glyph-name="guillemotright" unicode="&#xbb;" horiz-adv-x="297" d="M170 525 C170 525 226 291 226 291 C226 291 170 56 170 56 C170 56 213 56 213 56 C213 56 269 291 269 291 C269 291 213 525 213 525 C213 525 170 525 170 525 L170 525 Z M94 525 C94 525 150 291 150 291 C150 291 94 56 94 56 C94 56 138 56 138 56 C138 56 194 291 194 291 C194 291 138 525 138 525 C138 525 94 525 94 525 L94 525 Z " />
<glyph glyph-name="questiondown" unicode="&#xbf;" horiz-adv-x="429" d="M231 581 C231 581 171 581 171 581 C171 581 171 521 171 521 C171 521 231 521 231 521 C231 521 231 581 231 581 L231 581 Z M398 -22 C398 -22 350 -13 350 -13 C341 -117 273 -201 198 -201 C136 -201 87 -120 87 -20 C87 68 106 121 144 138 C207 168 225 223 225 388 C225 388 177 388 177 388 C177 243 162 195 109 171 C60 148 35 84 35 -20 C35 -142 107 -240 198 -240 C298 -240 387 -143 398 -22 L398 -22 Z " />
<glyph glyph-name="Agrave" unicode="&#xc0;" horiz-adv-x="641" d="M312 891 C312 891 358 891 358 891 C358 891 338 1041 338 1041 C338 1041 272 1041 272 1041 C272 1041 312 891 312 891 L312 891 Z M596 66 C596 66 595 66 595 66 C595 66 362 811 362 811 C362 811 333 811 333 811 C333 811 318 811 318 811 C318 811 308 811 308 811 C308 811 304 811 304 811 C304 811 274 811 274 811 C273 811 273 811 274 810 C273 803 273 798 274 798 C274 798 283 745 283 745 C283 745 283 745 283 745 C283 745 71 65 71 65 C71 65 26 13 26 13 C26 13 26 0 26 0 C26 0 51 0 51 0 C51 0 67 0 67 0 C67 0 82 0 82 0 C82 0 112 0 112 0 C112 0 112 13 112 13 C112 13 102 65 102 65 C102 65 158 246 158 246 C158 246 484 246 484 246 C484 246 477 269 477 269 C477 269 165 269 165 269 C165 269 321 771 321 771 C321 771 540 66 540 66 C540 66 540 66 540 66 C540 66 531 13 531 13 C531 13 531 0 531 0 C531 0 561 0 561 0 C561 0 589 0 589 0 C589 0 616 0 616 0 C616 0 642 0 642 0 C642 0 642 13 642 13 C642 13 596 66 596 66 L596 66 Z " />
<glyph glyph-name="Aacute" unicode="&#xc1;" horiz-adv-x="641" d="M312 891 C312 891 358 891 358 891 C358 891 398 1041 398 1041 C398 1041 332 1041 332 1041 C332 1041 312 891 312 891 L312 891 Z M596 66 C596 66 595 66 595 66 C595 66 362 811 362 811 C362 811 333 811 333 811 C333 811 318 811 318 811 C318 811 308 811 308 811 C308 811 304 811 304 811 C304 811 274 811 274 811 C273 811 273 811 274 810 C273 803 273 798 274 798 C274 798 283 745 283 745 C283 745 283 745 283 745 C283 745 71 65 71 65 C71 65 26 13 26 13 C26 13 26 0 26 0 C26 0 51 0 51 0 C51 0 67 0 67 0 C67 0 82 0 82 0 C82 0 112 0 112 0 C112 0 112 13 112 13 C112 13 102 65 102 65 C102 65 158 246 158 246 C158 246 484 246 484 246 C484 246 477 269 477 269 C477 269 165 269 165 269 C165 269 321 771 321 771 C321 771 540 66 540 66 C540 66 540 66 540 66 C540 66 531 13 531 13 C531 13 531 0 531 0 C531 0 561 0 561 0 C561 0 589 0 589 0 C589 0 616 0 616 0 C616 0 642 0 642 0 C642 0 642 13 642 13 C642 13 596 66 596 66 L596 66 Z " />
<glyph glyph-name="Acircumflex" unicode="&#xc2;" horiz-adv-x="641" d="M335 1002 C335 1002 420 891 420 891 C420 891 466 891 466 891 C466 891 360 1041 360 1041 C360 1041 310 1041 310 1041 C310 1041 204 891 204 891 C204 891 250 891 250 891 C250 891 335 1002 335 1002 L335 1002 Z M596 66 C596 66 595 66 595 66 C595 66 362 811 362 811 C362 811 333 811 333 811 C333 811 318 811 318 811 C318 811 308 811 308 811 C308 811 304 811 304 811 C304 811 274 811 274 811 C273 811 273 811 274 810 C273 803 273 798 274 798 C274 798 283 745 283 745 C283 745 283 745 283 745 C283 745 71 65 71 65 C71 65 26 13 26 13 C26 13 26 0 26 0 C26 0 51 0 51 0 C51 0 67 0 67 0 C67 0 82 0 82 0 C82 0 112 0 112 0 C112 0 112 13 112 13 C112 13 102 65 102 65 C102 65 158 246 158 246 C158 246 484 246 484 246 C484 246 477 269 477 269 C477 269 165 269 165 269 C165 269 321 771 321 771 C321 771 540 66 540 66 C540 66 540 66 540 66 C540 66 531 13 531 13 C531 13 531 0 531 0 C531 0 561 0 561 0 C561 0 589 0 589 0 C589 0 616 0 616 0 C616 0 642 0 642 0 C642 0 642 13 642 13 C642 13 596 66 596 66 L596 66 Z " />
<glyph glyph-name="Atilde" unicode="&#xc3;" horiz-adv-x="641" d="M303 891 C303 927 310 956 318 956 C329 956 333 952 335 946 C339 968 349 995 315 995 C288 995 266 949 266 891 C266 891 303 891 303 891 L303 891 Z M596 66 C596 66 595 66 595 66 C595 66 362 811 362 811 C362 811 333 811 333 811 C333 811 318 811 318 811 C318 811 308 811 308 811 C308 811 304 811 304 811 C304 811 274 811 274 811 C273 811 273 811 274 810 C273 803 273 798 274 798 C274 798 283 745 283 745 C283 745 283 745 283 745 C283 745 71 65 71 65 C71 65 26 13 26 13 C26 13 26 0 26 0 C26 0 51 0 51 0 C51 0 67 0 67 0 C67 0 82 0 82 0 C82 0 112 0 112 0 C112 0 112 13 112 13 C112 13 102 65 102 65 C102 65 158 246 158 246 C158 246 484 246 484 246 C484 246 477 269 477 269 C477 269 165 269 165 269 C165 269 321 771 321 771 C321 771 540 66 540 66 C540 66 540 66 540 66 C540 66 531 13 531 13 C531 13 531 0 531 0 C531 0 561 0 561 0 C561 0 589 0 589 0 C589 0 616 0 616 0 C616 0 642 0 642 0 C642 0 642 13 642 13 C642 13 596 66 596 66 L596 66 Z M355 881 C382 881 404 927 404 985 C404 985 367 985 367 985 C367 949 360 920 352 920 C341 920 337 924 335 930 C331 908 321 881 355 881 L355 881 Z M335 930 C334 934 334 940 335 946 C336 942 336 936 335 930 C335 930 335 930 335 930 L335 930 Z " />
<glyph glyph-name="Adieresis" unicode="&#xc4;" horiz-adv-x="641" d="M369 891 C369 891 429 891 429 891 C429 891 429 951 429 951 C429 951 369 951 369 951 C369 951 369 891 369 891 L369 891 Z M242 891 C242 891 302 891 302 891 C302 891 302 951 302 951 C302 951 242 951 242 951 C242 951 242 891 242 891 L242 891 Z M596 66 C596 66 595 66 595 66 C595 66 362 811 362 811 C362 811 333 811 333 811 C333 811 318 811 318 811 C318 811 308 811 308 811 C308 811 304 811 304 811 C304 811 274 811 274 811 C273 811 273 811 274 810 C273 803 273 798 274 798 C274 798 283 745 283 745 C283 745 283 745 283 745 C283 745 71 65 71 65 C71 65 26 13 26 13 C26 13 26 0 26 0 C26 0 51 0 51 0 C51 0 67 0 67 0 C67 0 82 0 82 0 C82 0 112 0 112 0 C112 0 112 13 112 13 C112 13 102 65 102 65 C102 65 158 246 158 246 C158 246 484 246 484 246 C484 246 477 269 477 269 C477 269 165 269 165 269 C165 269 321 771 321 771 C321 771 540 66 540 66 C540 66 540 66 540 66 C540 66 531 13 531 13 C531 13 531 0 531 0 C531 0 561 0 561 0 C561 0 589 0 589 0 C589 0 616 0 616 0 C616 0 642 0 642 0 C642 0 642 13 642 13 C642 13 596 66 596 66 L596 66 Z " />
<glyph glyph-name="Aring" unicode="&#xc5;" horiz-adv-x="641" d="M335 914 C301 914 279 938 279 976 C279 1012 302 1038 335 1038 C368 1038 391 1012 391 976 C391 938 369 914 335 914 L335 914 Z M254 976 C254 924 286 891 335 891 C385 891 416 924 416 976 C416 1026 382 1061 335 1061 C288 1061 254 1026 254 976 L254 976 Z M596 66 C596 66 595 66 595 66 C595 66 362 811 362 811 C362 811 333 811 333 811 C333 811 318 811 318 811 C318 811 308 811 308 811 C308 811 304 811 304 811 C304 811 274 811 274 811 C273 811 273 811 274 810 C273 803 273 798 274 798 C274 798 283 745 283 745 C283 745 283 745 283 745 C283 745 71 65 71 65 C71 65 26 13 26 13 C26 13 26 0 26 0 C26 0 51 0 51 0 C51 0 67 0 67 0 C67 0 82 0 82 0 C82 0 112 0 112 0 C112 0 112 13 112 13 C112 13 102 65 102 65 C102 65 158 246 158 246 C158 246 484 246 484 246 C484 246 477 269 477 269 C477 269 165 269 165 269 C165 269 321 771 321 771 C321 771 540 66 540 66 C540 66 540 66 540 66 C540 66 531 13 531 13 C531 13 531 0 531 0 C531 0 561 0 561 0 C561 0 589 0 589 0 C589 0 616 0 616 0 C616 0 642 0 642 0 C642 0 642 13 642 13 C642 13 596 66 596 66 L596 66 Z " />
<glyph glyph-name="Ccedilla" unicode="&#xc7;" horiz-adv-x="595" d="M553 187 C553 91 459 15 342 15 C225 15 131 210 131 406 C131 601 225 796 342 796 C419 796 486 763 523 713 C523 713 546 667 546 667 C551 654 553 639 553 624 C553 624 564 633 564 633 C564 633 564 633 564 633 C564 633 576 643 576 643 C576 643 576 673 576 673 C576 673 573 673 573 673 C554 757 459 821 342 821 C192 821 71 613 71 406 C71 210 179 14 317 -8 C317 -8 288 -104 288 -104 C288 -104 296 -109 296 -109 C296 -109 297 -106 297 -106 C300 -98 306 -93 310 -93 C319 -93 326 -116 326 -146 C326 -175 318 -198 309 -198 C303 -198 296 -184 293 -168 C293 -168 282 -176 282 -176 C286 -201 298 -222 310 -222 C335 -222 354 -188 354 -146 C354 -109 336 -80 313 -80 C308 -80 304 -86 300 -94 C300 -94 325 -9 325 -9 C331 -10 336 -10 342 -10 C472 -10 576 69 576 168 C576 168 553 187 553 187 L553 187 Z " />
<glyph glyph-name="Egrave" unicode="&#xc8;" horiz-adv-x="480" d="M245 891 C245 891 291 891 291 891 C291 891 271 1041 271 1041 C271 1041 205 1041 205 1041 C205 1041 245 891 245 891 L245 891 Z M431 12 C431 12 431 25 431 25 C431 25 431 55 431 55 C431 55 418 55 418 55 C418 55 365 25 365 25 C365 25 176 25 176 25 C176 25 176 389 176 389 C176 389 330 389 330 389 C330 389 383 359 383 359 C383 359 396 359 396 359 C396 359 396 389 396 389 C396 389 396 401 396 401 C396 401 396 412 396 412 C396 412 396 442 396 442 C396 443 395 443 394 442 C388 443 383 443 383 442 C383 442 330 412 330 412 C330 412 176 412 176 412 C176 412 176 786 176 786 C176 786 350 786 350 786 C350 786 403 756 403 756 C403 756 416 756 416 756 C416 756 416 786 416 786 C416 786 416 799 416 799 C416 799 416 811 416 811 C416 811 176 811 176 811 C176 811 175 811 175 811 C175 811 148 811 148 811 C148 811 120 811 120 811 C120 811 90 811 90 811 C90 811 90 798 90 798 C90 798 120 745 120 745 C120 745 120 66 120 66 C120 66 90 13 90 13 C90 13 90 0 90 0 C90 0 120 0 120 0 C120 0 148 0 148 0 C148 0 175 0 175 0 C175 0 176 0 176 0 C176 0 431 0 431 0 C431 0 431 12 431 12 L431 12 Z " />
<glyph glyph-name="Eacute" unicode="&#xc9;" horiz-adv-x="480" d="M245 891 C245 891 291 891 291 891 C291 891 331 1041 331 1041 C331 1041 265 1041 265 1041 C265 1041 245 891 245 891 L245 891 Z M431 12 C431 12 431 25 431 25 C431 25 431 55 431 55 C431 55 418 55 418 55 C418 55 365 25 365 25 C365 25 176 25 176 25 C176 25 176 389 176 389 C176 389 330 389 330 389 C330 389 383 359 383 359 C383 359 396 359 396 359 C396 359 396 389 396 389 C396 389 396 401 396 401 C396 401 396 412 396 412 C396 412 396 442 396 442 C396 443 395 443 394 442 C388 443 383 443 383 442 C383 442 330 412 330 412 C330 412 176 412 176 412 C176 412 176 786 176 786 C176 786 350 786 350 786 C350 786 403 756 403 756 C403 756 416 756 416 756 C416 756 416 786 416 786 C416 786 416 799 416 799 C416 799 416 811 416 811 C416 811 176 811 176 811 C176 811 175 811 175 811 C175 811 148 811 148 811 C148 811 120 811 120 811 C120 811 90 811 90 811 C90 811 90 798 90 798 C90 798 120 745 120 745 C120 745 120 66 120 66 C120 66 90 13 90 13 C90 13 90 0 90 0 C90 0 120 0 120 0 C120 0 148 0 148 0 C148 0 175 0 175 0 C175 0 176 0 176 0 C176 0 431 0 431 0 C431 0 431 12 431 12 L431 12 Z " />
<glyph glyph-name="Ecircumflex" unicode="&#xca;" horiz-adv-x="480" d="M268 1002 C268 1002 353 891 353 891 C353 891 399 891 399 891 C399 891 293 1041 293 1041 C293 1041 243 1041 243 1041 C243 1041 137 891 137 891 C137 891 183 891 183 891 C183 891 268 1002 268 1002 L268 1002 Z M431 12 C431 12 431 25 431 25 C431 25 431 55 431 55 C431 55 418 55 418 55 C418 55 365 25 365 25 C365 25 176 25 176 25 C176 25 176 389 176 389 C176 389 330 389 330 389 C330 389 383 359 383 359 C383 359 396 359 396 359 C396 359 396 389 396 389 C396 389 396 401 396 401 C396 401 396 412 396 412 C396 412 396 442 396 442 C396 443 395 443 394 442 C388 443 383 443 383 442 C383 442 330 412 330 412 C330 412 176 412 176 412 C176 412 176 786 176 786 C176 786 350 786 350 786 C350 786 403 756 403 756 C403 756 416 756 416 756 C416 756 416 786 416 786 C416 786 416 799 416 799 C416 799 416 811 416 811 C416 811 176 811 176 811 C176 811 175 811 175 811 C175 811 148 811 148 811 C148 811 120 811 120 811 C120 811 90 811 90 811 C90 811 90 798 90 798 C90 798 120 745 120 745 C120 745 120 66 120 66 C120 66 90 13 90 13 C90 13 90 0 90 0 C90 0 120 0 120 0 C120 0 148 0 148 0 C148 0 175 0 175 0 C175 0 176 0 176 0 C176 0 431 0 431 0 C431 0 431 12 431 12 L431 12 Z " />
<glyph glyph-name="Edieresis" unicode="&#xcb;" horiz-adv-x="480" d="M301 891 C301 891 361 891 361 891 C361 891 361 951 361 951 C361 951 301 951 301 951 C301 951 301 891 301 891 L301 891 Z M174 891 C174 891 234 891 234 891 C234 891 234 951 234 951 C234 951 174 951 174 951 C174 951 174 891 174 891 L174 891 Z M431 12 C431 12 431 25 431 25 C431 25 431 55 431 55 C431 55 418 55 418 55 C418 55 365 25 365 25 C365 25 176 25 176 25 C176 25 176 389 176 389 C176 389 330 389 330 389 C330 389 383 359 383 359 C383 359 396 359 396 359 C396 359 396 389 396 389 C396 389 396 401 396 401 C396 401 396 412 396 412 C396 412 396 442 396 442 C396 443 395 443 394 442 C388 443 383 443 383 442 C383 442 330 412 330 412 C330 412 176 412 176 412 C176 412 176 786 176 786 C176 786 350 786 350 786 C350 786 403 756 403 756 C403 756 416 756 416 756 C416 756 416 786 416 786 C416 786 416 799 416 799 C416 799 416 811 416 811 C416 811 176 811 176 811 C176 811 175 811 175 811 C175 811 148 811 148 811 C148 811 120 811 120 811 C120 811 90 811 90 811 C90 811 90 798 90 798 C90 798 120 745 120 745 C120 745 120 66 120 66 C120 66 90 13 90 13 C90 13 90 0 90 0 C90 0 120 0 120 0 C120 0 148 0 148 0 C148 0 175 0 175 0 C175 0 176 0 176 0 C176 0 431 0 431 0 C431 0 431 12 431 12 L431 12 Z " />
<glyph glyph-name="Igrave" unicode="&#xcc;" horiz-adv-x="256" d="M106 891 C106 891 152 891 152 891 C152 891 132 1041 132 1041 C132 1041 67 1041 67 1041 C67 1041 106 891 106 891 L106 891 Z M129 0 C129 0 157 0 157 0 C157 0 187 0 187 0 C187 0 187 13 187 13 C187 13 157 66 157 66 C157 66 157 745 157 745 C157 745 187 798 187 798 C187 798 187 811 187 811 C187 811 157 811 157 811 C157 811 129 811 129 811 C129 811 101 811 101 811 C101 811 71 811 71 811 C71 811 71 798 71 798 C71 798 101 745 101 745 C101 745 101 66 101 66 C101 66 71 13 71 13 C71 13 71 0 71 0 C71 0 101 0 101 0 C101 0 129 0 129 0 L129 0 Z " />
<glyph glyph-name="Iacute" unicode="&#xcd;" horiz-adv-x="256" d="M106 891 C106 891 152 891 152 891 C152 891 192 1041 192 1041 C192 1041 127 1041 127 1041 C127 1041 106 891 106 891 L106 891 Z M129 0 C129 0 157 0 157 0 C157 0 187 0 187 0 C187 0 187 13 187 13 C187 13 157 66 157 66 C157 66 157 745 157 745 C157 745 187 798 187 798 C187 798 187 811 187 811 C187 811 157 811 157 811 C157 811 129 811 129 811 C129 811 101 811 101 811 C101 811 71 811 71 811 C71 811 71 798 71 798 C71 798 101 745 101 745 C101 745 101 66 101 66 C101 66 71 13 71 13 C71 13 71 0 71 0 C71 0 101 0 101 0 C101 0 129 0 129 0 L129 0 Z " />
<glyph glyph-name="Icircumflex" unicode="&#xce;" horiz-adv-x="256" d="M129 1002 C129 1002 214 891 214 891 C214 891 260 891 260 891 C260 891 154 1041 154 1041 C154 1041 104 1041 104 1041 C104 1041 -2 891 -2 891 C-2 891 44 891 44 891 C44 891 129 1002 129 1002 L129 1002 Z M129 0 C129 0 157 0 157 0 C157 0 187 0 187 0 C187 0 187 13 187 13 C187 13 157 66 157 66 C157 66 157 745 157 745 C157 745 187 798 187 798 C187 798 187 811 187 811 C187 811 157 811 157 811 C157 811 129 811 129 811 C129 811 101 811 101 811 C101 811 71 811 71 811 C71 811 71 798 71 798 C71 798 101 745 101 745 C101 745 101 66 101 66 C101 66 71 13 71 13 C71 13 71 0 71 0 C71 0 101 0 101 0 C101 0 129 0 129 0 L129 0 Z " />
<glyph glyph-name="Idieresis" unicode="&#xcf;" horiz-adv-x="256" d="M163 891 C163 891 223 891 223 891 C223 891 223 951 223 951 C223 951 163 951 163 951 C163 951 163 891 163 891 L163 891 Z M36 891 C36 891 96 891 96 891 C96 891 96 951 96 951 C96 951 36 951 36 951 C36 951 36 891 36 891 L36 891 Z M129 0 C129 0 157 0 157 0 C157 0 187 0 187 0 C187 0 187 13 187 13 C187 13 157 66 157 66 C157 66 157 745 157 745 C157 745 187 798 187 798 C187 798 187 811 187 811 C187 811 157 811 157 811 C157 811 129 811 129 811 C129 811 101 811 101 811 C101 811 71 811 71 811 C71 811 71 798 71 798 C71 798 101 745 101 745 C101 745 101 66 101 66 C101 66 71 13 71 13 C71 13 71 0 71 0 C71 0 101 0 101 0 C101 0 129 0 129 0 L129 0 Z " />
<glyph glyph-name="Ntilde" unicode="&#xd1;" horiz-adv-x="533" d="M248 891 C248 927 255 956 264 956 C274 956 279 953 281 948 C285 969 294 995 260 995 C233 995 211 949 211 891 C211 891 248 891 248 891 L248 891 Z M300 881 C327 881 349 927 349 985 C349 985 312 985 312 985 C312 949 305 920 297 920 C287 920 282 923 280 929 C276 907 266 881 300 881 L300 881 Z M280 929 C279 934 279 940 281 948 C282 943 282 936 280 929 L280 929 Z M404 745 C404 745 404 65 404 65 C404 65 176 811 176 811 C176 811 157 811 157 811 C157 811 142 811 142 811 C142 811 126 811 126 811 C126 811 96 811 96 811 C96 811 96 798 96 798 C96 798 126 745 126 745 C126 745 126 66 126 66 C126 66 96 13 96 13 C96 13 96 0 96 0 C96 0 126 0 126 0 C126 0 142 0 142 0 C142 0 157 0 157 0 C157 0 187 0 187 0 C187 0 187 13 187 13 C187 13 157 66 157 66 C157 66 157 710 157 710 C157 710 374 0 374 0 C374 0 404 0 404 0 C404 0 424 0 424 0 C424 0 434 0 434 0 C434 0 434 745 434 745 C434 745 464 798 464 798 C464 798 464 811 464 811 C464 811 434 811 434 811 C434 811 419 811 419 811 C419 811 404 811 404 811 C404 811 374 811 374 811 C374 811 374 798 374 798 C374 798 404 745 404 745 L404 745 Z " />
<glyph glyph-name="Ograve" unicode="&#xd2;" horiz-adv-x="694" d="M335 891 C335 891 380 891 380 891 C380 891 360 1041 360 1041 C360 1041 295 1041 295 1041 C295 1041 335 891 335 891 L335 891 Z M358 15 C234 15 136 189 136 406 C136 612 241 796 358 796 C474 796 579 612 579 406 C579 189 481 15 358 15 L358 15 Z M76 406 C76 175 201 -10 358 -10 C514 -10 639 175 639 406 C639 625 506 821 358 821 C209 821 76 625 76 406 L76 406 Z " />
<glyph glyph-name="Oacute" unicode="&#xd3;" horiz-adv-x="694" d="M335 891 C335 891 380 891 380 891 C380 891 420 1041 420 1041 C420 1041 355 1041 355 1041 C355 1041 335 891 335 891 L335 891 Z M358 15 C234 15 136 189 136 406 C136 612 241 796 358 796 C474 796 579 612 579 406 C579 189 481 15 358 15 L358 15 Z M76 406 C76 175 201 -10 358 -10 C514 -10 639 175 639 406 C639 625 506 821 358 821 C209 821 76 625 76 406 L76 406 Z " />
<glyph glyph-name="Ocircumflex" unicode="&#xd4;" horiz-adv-x="694" d="M358 1002 C358 1002 443 891 443 891 C443 891 489 891 489 891 C489 891 383 1041 383 1041 C383 1041 332 1041 332 1041 C332 1041 227 891 227 891 C227 891 272 891 272 891 C272 891 358 1002 358 1002 L358 1002 Z M358 15 C234 15 136 189 136 406 C136 612 241 796 358 796 C474 796 579 612 579 406 C579 189 481 15 358 15 L358 15 Z M76 406 C76 175 201 -10 358 -10 C514 -10 639 175 639 406 C639 625 506 821 358 821 C209 821 76 625 76 406 L76 406 Z " />
<glyph glyph-name="Otilde" unicode="&#xd5;" horiz-adv-x="694" d="M326 891 C326 927 333 956 341 956 C351 956 356 953 358 948 C362 969 371 995 337 995 C311 995 289 949 289 891 C289 891 326 891 326 891 L326 891 Z M358 15 C234 15 136 189 136 406 C136 612 241 796 358 796 C474 796 579 612 579 406 C579 189 481 15 358 15 L358 15 Z M76 406 C76 175 201 -10 358 -10 C514 -10 639 175 639 406 C639 625 506 821 358 821 C209 821 76 625 76 406 L76 406 Z M378 881 C404 881 426 927 426 985 C426 985 390 985 390 985 C390 949 383 920 374 920 C364 920 359 923 357 928 C353 907 344 881 378 881 L378 881 Z M357 928 C355 933 356 940 358 948 C360 943 359 936 357 928 C357 928 357 928 357 928 L357 928 Z " />
<glyph glyph-name="Odieresis" unicode="&#xd6;" horiz-adv-x="694" d="M391 891 C391 891 451 891 451 891 C451 891 451 951 451 951 C451 951 391 951 391 951 C391 951 391 891 391 891 L391 891 Z M264 891 C264 891 324 891 324 891 C324 891 324 951 324 951 C324 951 264 951 264 951 C264 951 264 891 264 891 L264 891 Z M358 15 C234 15 136 189 136 406 C136 612 241 796 358 796 C474 796 579 612 579 406 C579 189 481 15 358 15 L358 15 Z M76 406 C76 175 201 -10 358 -10 C514 -10 639 175 639 406 C639 625 506 821 358 821 C209 821 76 625 76 406 L76 406 Z " />
<glyph glyph-name="Oslash" unicode="&#xd8;" horiz-adv-x="694" d="M358 15 C295 15 239 60 198 133 C198 133 528 647 528 647 C559 580 579 495 579 406 C579 189 481 15 358 15 C358 15 358 15 358 15 L358 15 Z M76 406 C76 292 106 190 156 115 C156 115 76 -10 76 -10 C76 -10 107 -10 107 -10 C107 -10 172 92 172 92 C222 28 287 -10 358 -10 C514 -10 639 175 639 406 C639 514 607 616 556 692 C556 692 639 821 639 821 C639 821 608 821 608 821 C608 821 540 715 540 715 C490 780 426 821 358 821 C209 821 76 625 76 406 L76 406 Z M185 160 C154 227 136 313 136 406 C136 612 241 796 358 796 C417 796 473 748 514 674 C514 674 185 160 185 160 L185 160 Z " />
<glyph glyph-name="Ugrave" unicode="&#xd9;" horiz-adv-x="562" d="M267 881 C267 881 313 881 313 881 C313 881 293 1031 293 1031 C293 1031 228 1031 228 1031 C228 1031 267 881 267 881 L267 881 Z M113 745 C113 745 113 317 113 317 C113 117 182 -10 290 -10 C398 -10 467 117 467 318 C467 318 467 745 467 745 C467 745 497 798 497 798 C498 798 498 803 497 810 C498 811 498 811 497 811 C497 811 467 811 467 811 C467 811 452 811 452 811 C452 811 437 811 437 811 C437 811 407 811 407 811 C407 811 407 798 407 798 C407 798 437 745 437 745 C437 745 437 323 437 323 C437 137 380 18 290 18 C216 18 169 138 169 326 C169 326 169 745 169 745 C169 745 199 798 199 798 C199 798 199 811 199 811 C199 811 169 811 169 811 C169 811 141 811 141 811 C141 811 113 811 113 811 C113 811 83 811 83 811 C83 811 83 798 83 798 C83 798 113 745 113 745 L113 745 Z " />
<glyph glyph-name="Uacute" unicode="&#xda;" horiz-adv-x="562" d="M267 881 C267 881 313 881 313 881 C313 881 353 1031 353 1031 C353 1031 288 1031 288 1031 C288 1031 267 881 267 881 L267 881 Z M113 745 C113 745 113 317 113 317 C113 117 182 -10 290 -10 C398 -10 467 117 467 318 C467 318 467 745 467 745 C467 745 497 798 497 798 C498 798 498 803 497 810 C498 811 498 811 497 811 C497 811 467 811 467 811 C467 811 452 811 452 811 C452 811 437 811 437 811 C437 811 407 811 407 811 C407 811 407 798 407 798 C407 798 437 745 437 745 C437 745 437 323 437 323 C437 137 380 18 290 18 C216 18 169 138 169 326 C169 326 169 745 169 745 C169 745 199 798 199 798 C199 798 199 811 199 811 C199 811 169 811 169 811 C169 811 141 811 141 811 C141 811 113 811 113 811 C113 811 83 811 83 811 C83 811 83 798 83 798 C83 798 113 745 113 745 L113 745 Z " />
<glyph glyph-name="Ucircumflex" unicode="&#xdb;" horiz-adv-x="562" d="M290 992 C290 992 376 881 376 881 C376 881 421 881 421 881 C421 881 315 1031 315 1031 C315 1031 265 1031 265 1031 C265 1031 159 881 159 881 C159 881 205 881 205 881 C205 881 290 992 290 992 L290 992 Z M113 745 C113 745 113 317 113 317 C113 117 182 -10 290 -10 C398 -10 467 117 467 318 C467 318 467 745 467 745 C467 745 497 798 497 798 C498 798 498 803 497 810 C498 811 498 811 497 811 C497 811 467 811 467 811 C467 811 452 811 452 811 C452 811 437 811 437 811 C437 811 407 811 407 811 C407 811 407 798 407 798 C407 798 437 745 437 745 C437 745 437 323 437 323 C437 137 380 18 290 18 C216 18 169 138 169 326 C169 326 169 745 169 745 C169 745 199 798 199 798 C199 798 199 811 199 811 C199 811 169 811 169 811 C169 811 141 811 141 811 C141 811 113 811 113 811 C113 811 83 811 83 811 C83 811 83 798 83 798 C83 798 113 745 113 745 L113 745 Z " />
<glyph glyph-name="Udieresis" unicode="&#xdc;" horiz-adv-x="562" d="M324 881 C324 881 384 881 384 881 C384 881 384 941 384 941 C384 941 324 941 324 941 C324 941 324 881 324 881 L324 881 Z M197 881 C197 881 257 881 257 881 C257 881 257 941 257 941 C257 941 197 941 197 941 C197 941 197 881 197 881 L197 881 Z M113 745 C113 745 113 317 113 317 C113 117 182 -10 290 -10 C398 -10 467 117 467 318 C467 318 467 745 467 745 C467 745 497 798 497 798 C498 798 498 803 497 810 C498 811 498 811 497 811 C497 811 467 811 467 811 C467 811 452 811 452 811 C452 811 437 811 437 811 C437 811 407 811 407 811 C407 811 407 798 407 798 C407 798 437 745 437 745 C437 745 437 323 437 323 C437 137 380 18 290 18 C216 18 169 138 169 326 C169 326 169 745 169 745 C169 745 199 798 199 798 C199 798 199 811 199 811 C199 811 169 811 169 811 C169 811 141 811 141 811 C141 811 113 811 113 811 C113 811 83 811 83 811 C83 811 83 798 83 798 C83 798 113 745 113 745 L113 745 Z " />
<glyph glyph-name="Yacute" unicode="&#xdd;" horiz-adv-x="512" d="M246 891 C246 891 292 891 292 891 C292 891 332 1041 332 1041 C332 1041 266 1041 266 1041 C266 1041 246 891 246 891 L246 891 Z M244 66 C244 66 214 13 214 13 C214 13 214 0 214 0 C214 0 244 0 244 0 C244 0 272 0 272 0 C272 0 300 0 300 0 C300 0 330 0 330 0 C330 0 330 13 330 13 C330 13 300 66 300 66 C300 66 300 377 300 377 C300 377 459 745 459 745 C459 745 459 745 459 745 C459 745 512 798 512 798 C512 798 512 811 512 811 C512 811 487 811 487 811 C487 811 473 811 473 811 C473 811 458 811 458 811 C458 811 428 811 428 811 C428 811 428 798 428 798 C428 798 430 746 430 746 C430 746 282 401 282 401 C282 401 133 745 133 745 C133 745 133 745 133 745 C133 745 134 798 134 798 C134 798 134 811 134 811 C134 811 104 811 104 811 C104 811 77 811 77 811 C77 811 50 811 50 811 C50 811 26 811 26 811 C26 811 26 798 26 798 C26 798 79 745 79 745 C79 745 244 369 244 369 C244 369 244 66 244 66 L244 66 Z " />
<glyph glyph-name="Thorn" unicode="&#xde;" horiz-adv-x="518" d="M148 0 C148 0 176 0 176 0 C176 0 206 0 206 0 C206 0 206 13 206 13 C206 13 176 66 176 66 C176 66 176 162 176 162 C176 162 293 162 293 162 C410 162 484 257 484 406 C484 554 410 649 293 649 C293 649 176 649 176 649 C176 649 176 745 176 745 C176 745 206 798 206 798 C206 798 206 811 206 811 C206 811 176 811 176 811 C176 811 148 811 148 811 C148 811 120 811 120 811 C120 811 90 811 90 811 C90 811 90 798 90 798 C90 798 120 745 120 745 C120 745 120 66 120 66 C120 66 90 13 90 13 C90 13 90 0 90 0 C90 0 120 0 120 0 C120 0 148 0 148 0 L148 0 Z M176 186 C176 186 176 625 176 625 C176 625 292 625 292 625 C375 625 428 540 428 406 C428 271 376 186 294 186 C294 186 176 186 176 186 L176 186 Z " />
<glyph glyph-name="agrave" unicode="&#xe0;" horiz-adv-x="430" d="M192 661 C192 661 238 661 238 661 C238 661 218 811 218 811 C218 811 152 811 152 811 C152 811 192 661 192 661 L192 661 Z M75 445 C75 445 100 437 100 437 C100 510 151 569 215 569 C265 569 305 521 305 426 C305 426 305 407 305 407 C305 302 250 262 182 262 C113 262 57 193 57 107 C57 42 100 -10 187 -10 C240 -10 286 20 305 93 C305 93 305 45 305 45 C305 5 316 0 400 0 C400 0 400 37 400 37 C360 37 355 38 355 45 C355 45 355 404 355 404 C355 529 293 591 215 591 C137 591 75 526 75 445 L75 445 Z M305 316 C305 316 305 174 305 174 C305 55 256 9 195 9 C136 9 106 53 106 108 C106 184 147 245 198 245 C244 245 285 266 305 316 L305 316 Z " />
<glyph glyph-name="aacute" unicode="&#xe1;" horiz-adv-x="430" d="M192 661 C192 661 238 661 238 661 C238 661 278 811 278 811 C278 811 212 811 212 811 C212 811 192 661 192 661 L192 661 Z M75 445 C75 445 100 437 100 437 C100 510 151 569 215 569 C265 569 305 521 305 426 C305 426 305 407 305 407 C305 302 250 262 182 262 C113 262 57 193 57 107 C57 42 100 -10 187 -10 C240 -10 286 20 305 93 C305 93 305 45 305 45 C305 5 316 0 400 0 C400 0 400 37 400 37 C360 37 355 38 355 45 C355 45 355 404 355 404 C355 529 293 591 215 591 C137 591 75 526 75 445 L75 445 Z M305 316 C305 316 305 174 305 174 C305 55 256 9 195 9 C136 9 106 53 106 108 C106 184 147 245 198 245 C244 245 285 266 305 316 L305 316 Z " />
<glyph glyph-name="acircumflex" unicode="&#xe2;" horiz-adv-x="430" d="M215 772 C215 772 300 661 300 661 C300 661 346 661 346 661 C346 661 240 811 240 811 C240 811 190 811 190 811 C190 811 84 661 84 661 C84 661 130 661 130 661 C130 661 215 772 215 772 L215 772 Z M75 445 C75 445 100 437 100 437 C100 510 151 569 215 569 C265 569 305 521 305 426 C305 426 305 407 305 407 C305 302 250 262 182 262 C113 262 57 193 57 107 C57 42 100 -10 187 -10 C240 -10 286 20 305 93 C305 93 305 45 305 45 C305 5 316 0 400 0 C400 0 400 37 400 37 C360 37 355 38 355 45 C355 45 355 404 355 404 C355 529 293 591 215 591 C137 591 75 526 75 445 L75 445 Z M305 316 C305 316 305 174 305 174 C305 55 256 9 195 9 C136 9 106 53 106 108 C106 184 147 245 198 245 C244 245 285 266 305 316 L305 316 Z " />
<glyph glyph-name="atilde" unicode="&#xe3;" horiz-adv-x="511" d="M222 661 C222 697 229 726 238 726 C248 726 253 723 255 718 C259 739 268 765 234 765 C208 765 186 719 186 661 C186 661 222 661 222 661 L222 661 Z M67 291 C67 124 149 -10 252 -10 C316 -10 370 67 392 177 C392 177 392 0 392 0 C392 0 442 0 442 0 C442 0 442 581 442 581 C442 581 392 581 392 581 C392 581 392 404 392 404 C370 514 316 591 252 591 C149 591 67 457 67 291 C67 291 67 291 67 291 L67 291 Z M275 651 C301 651 323 697 323 755 C323 755 286 755 286 755 C286 719 279 690 271 690 C261 690 256 693 254 698 C250 677 241 651 275 651 L275 651 Z M254 698 C252 703 253 710 255 718 C257 713 256 706 254 698 C254 698 254 698 254 698 L254 698 Z M392 291 C392 136 334 12 261 12 C184 12 122 136 122 291 C122 445 184 569 261 569 C334 569 392 445 392 291 L392 291 Z " />
<glyph glyph-name="adieresis" unicode="&#xe4;" horiz-adv-x="430" d="M262 661 C262 661 322 661 322 661 C322 661 322 721 322 721 C322 721 262 721 262 721 C262 721 262 661 262 661 L262 661 Z M107 661 C107 661 167 661 167 661 C167 661 167 721 167 721 C167 721 107 721 107 721 C107 721 107 661 107 661 L107 661 Z M75 445 C75 445 100 437 100 437 C100 510 151 569 215 569 C265 569 305 521 305 426 C305 426 305 407 305 407 C305 302 250 262 182 262 C113 262 57 193 57 107 C57 42 100 -10 187 -10 C240 -10 286 20 305 93 C305 93 305 45 305 45 C305 5 316 0 400 0 C400 0 400 37 400 37 C360 37 355 38 355 45 C355 45 355 404 355 404 C355 529 293 591 215 591 C137 591 75 526 75 445 L75 445 Z M305 316 C305 316 305 174 305 174 C305 55 256 9 195 9 C136 9 106 53 106 108 C106 184 147 245 198 245 C244 245 285 266 305 316 L305 316 Z " />
<glyph glyph-name="aring" unicode="&#xe5;" horiz-adv-x="430" d="M215 684 C181 684 159 708 159 746 C159 782 182 808 215 808 C248 808 271 782 271 746 C271 708 249 684 215 684 L215 684 Z M134 746 C134 694 165 661 215 661 C264 661 296 694 296 746 C296 796 262 831 215 831 C168 831 134 796 134 746 L134 746 Z M75 445 C75 445 100 437 100 437 C100 510 151 569 215 569 C265 569 305 521 305 426 C305 426 305 407 305 407 C305 302 250 262 182 262 C113 262 57 193 57 107 C57 42 100 -10 187 -10 C240 -10 286 20 305 93 C305 93 305 45 305 45 C305 5 316 0 400 0 C400 0 400 37 400 37 C360 37 355 38 355 45 C355 45 355 404 355 404 C355 529 293 591 215 591 C137 591 75 526 75 445 L75 445 Z M305 316 C305 316 305 174 305 174 C305 55 256 9 195 9 C136 9 106 53 106 108 C106 184 147 245 198 245 C244 245 285 266 305 316 L305 316 Z " />
<glyph glyph-name="ccedilla" unicode="&#xe7;" horiz-adv-x="431" d="M377 144 C377 71 320 12 249 12 C179 12 122 113 122 291 C122 469 179 570 249 570 C335 570 378 504 378 420 C378 420 401 432 401 432 C401 520 350 591 249 591 C148 591 67 482 67 291 C67 113 137 6 228 -8 C228 -8 199 -104 199 -104 C199 -104 207 -109 207 -109 C210 -100 216 -93 221 -93 C230 -93 237 -116 237 -146 C237 -175 230 -198 220 -198 C214 -198 207 -184 204 -168 C204 -168 194 -176 194 -176 C198 -201 210 -222 221 -222 C246 -222 265 -188 265 -146 C265 -109 247 -80 224 -80 C219 -80 215 -86 212 -94 C212 -94 237 -9 237 -9 C241 -10 245 -10 249 -10 C334 -10 402 53 402 132 C402 132 377 144 377 144 L377 144 Z " />
<glyph glyph-name="egrave" unicode="&#xe8;" horiz-adv-x="437" d="M218 661 C218 661 264 661 264 661 C264 661 244 811 244 811 C244 811 179 811 179 811 C179 811 218 661 218 661 L218 661 Z M382 142 C382 70 318 12 238 12 C176 12 127 104 122 267 C122 267 415 267 415 267 C415 447 357 591 241 591 C144 591 67 482 67 291 C67 99 143 -10 238 -10 C332 -10 408 53 408 133 C408 133 382 142 382 142 L382 142 Z M122 286 C122 288 122 289 122 291 C122 469 175 570 241 570 C321 570 362 445 365 286 C365 286 122 286 122 286 L122 286 Z " />
<glyph glyph-name="eacute" unicode="&#xe9;" horiz-adv-x="437" d="M218 661 C218 661 264 661 264 661 C264 661 304 811 304 811 C304 811 239 811 239 811 C239 811 218 661 218 661 L218 661 Z M382 142 C382 70 318 12 238 12 C176 12 127 104 122 267 C122 267 415 267 415 267 C415 447 357 591 241 591 C144 591 67 482 67 291 C67 99 143 -10 238 -10 C332 -10 408 53 408 133 C408 133 382 142 382 142 L382 142 Z M122 286 C122 288 122 289 122 291 C122 469 175 570 241 570 C321 570 362 445 365 286 C365 286 122 286 122 286 L122 286 Z " />
<glyph glyph-name="ecircumflex" unicode="&#xea;" horiz-adv-x="437" d="M241 772 C241 772 326 661 326 661 C326 661 372 661 372 661 C372 661 266 811 266 811 C266 811 216 811 216 811 C216 811 110 661 110 661 C110 661 156 661 156 661 C156 661 241 772 241 772 L241 772 Z M382 142 C382 70 318 12 238 12 C176 12 127 104 122 267 C122 267 415 267 415 267 C415 447 357 591 241 591 C144 591 67 482 67 291 C67 99 143 -10 238 -10 C332 -10 408 53 408 133 C408 133 382 142 382 142 L382 142 Z M122 286 C122 288 122 289 122 291 C122 469 175 570 241 570 C321 570 362 445 365 286 C365 286 122 286 122 286 L122 286 Z " />
<glyph glyph-name="edieresis" unicode="&#xeb;" horiz-adv-x="437" d="M275 661 C275 661 335 661 335 661 C335 661 335 721 335 721 C335 721 275 721 275 721 C275 721 275 661 275 661 L275 661 Z M148 661 C148 661 208 661 208 661 C208 661 208 721 208 721 C208 721 148 721 148 721 C148 721 148 661 148 661 L148 661 Z M382 142 C382 70 318 12 238 12 C176 12 127 104 122 267 C122 267 415 267 415 267 C415 447 357 591 241 591 C144 591 67 482 67 291 C67 99 143 -10 238 -10 C332 -10 408 53 408 133 C408 133 382 142 382 142 L382 142 Z M122 286 C122 288 122 289 122 291 C122 469 175 570 241 570 C321 570 362 445 365 286 C365 286 122 286 122 286 L122 286 Z " />
<glyph glyph-name="igrave" unicode="&#xec;" horiz-adv-x="194" d="M62 661 C62 661 108 661 108 661 C108 661 88 811 88 811 C88 811 22 811 22 811 C22 811 62 661 62 661 L62 661 Z M85 581 C85 581 60 581 60 581 C60 581 30 581 30 581 C30 581 30 568 30 568 C30 568 60 515 60 515 C60 515 60 66 60 66 C60 66 30 13 30 13 C30 13 30 0 30 0 C30 0 60 0 60 0 C60 0 85 0 85 0 C85 0 110 0 110 0 C110 0 140 0 140 0 C140 0 140 13 140 13 C140 13 110 66 110 66 C110 66 110 581 110 581 C110 581 85 581 85 581 L85 581 Z " />
<glyph glyph-name="iacute" unicode="&#xed;" horiz-adv-x="194" d="M62 661 C62 661 108 661 108 661 C108 661 148 811 148 811 C148 811 82 811 82 811 C82 811 62 661 62 661 L62 661 Z M85 581 C85 581 60 581 60 581 C60 581 30 581 30 581 C30 581 30 568 30 568 C30 568 60 515 60 515 C60 515 60 66 60 66 C60 66 30 13 30 13 C30 13 30 0 30 0 C30 0 60 0 60 0 C60 0 85 0 85 0 C85 0 110 0 110 0 C110 0 140 0 140 0 C140 0 140 13 140 13 C140 13 110 66 110 66 C110 66 110 581 110 581 C110 581 85 581 85 581 L85 581 Z " />
<glyph glyph-name="icircumflex" unicode="&#xee;" horiz-adv-x="194" d="M85 772 C85 772 170 661 170 661 C170 661 216 661 216 661 C216 661 110 811 110 811 C110 811 60 811 60 811 C60 811 -46 661 -46 661 C-46 661 0 661 0 661 C0 661 85 772 85 772 L85 772 Z M85 581 C85 581 60 581 60 581 C60 581 30 581 30 581 C30 581 30 568 30 568 C30 568 60 515 60 515 C60 515 60 66 60 66 C60 66 30 13 30 13 C30 13 30 0 30 0 C30 0 60 0 60 0 C60 0 85 0 85 0 C85 0 110 0 110 0 C110 0 140 0 140 0 C140 0 140 13 140 13 C140 13 110 66 110 66 C110 66 110 581 110 581 C110 581 85 581 85 581 L85 581 Z " />
<glyph glyph-name="idieresis" unicode="&#xef;" horiz-adv-x="194" d="M132 661 C132 661 192 661 192 661 C192 661 192 721 192 721 C192 721 132 721 132 721 C132 721 132 661 132 661 L132 661 Z M-23 661 C-23 661 37 661 37 661 C37 661 37 721 37 721 C37 721 -23 721 -23 721 C-23 721 -23 661 -23 661 L-23 661 Z M85 581 C85 581 60 581 60 581 C60 581 30 581 30 581 C30 581 30 568 30 568 C30 568 60 515 60 515 C60 515 60 66 60 66 C60 66 30 13 30 13 C30 13 30 0 30 0 C30 0 60 0 60 0 C60 0 85 0 85 0 C85 0 110 0 110 0 C110 0 140 0 140 0 C140 0 140 13 140 13 C140 13 110 66 110 66 C110 66 110 581 110 581 C110 581 85 581 85 581 L85 581 Z " />
<glyph glyph-name="ntilde" unicode="&#xf1;" horiz-adv-x="428" d="M193 661 C193 697 200 726 208 726 C219 726 223 722 225 716 C229 738 239 765 205 765 C178 765 156 719 156 661 C156 661 193 661 193 661 L193 661 Z M245 651 C272 651 294 697 294 755 C294 755 257 755 257 755 C257 719 250 690 242 690 C231 690 227 694 225 700 C221 678 211 651 245 651 L245 651 Z M225 700 C224 704 224 710 225 716 C226 712 226 706 225 700 C225 700 225 700 225 700 L225 700 Z M324 0 C324 0 349 0 349 0 C349 0 378 0 378 0 C378 0 378 13 378 13 C378 13 349 66 349 66 C349 66 349 376 349 376 C349 504 308 586 256 586 C209 586 168 542 151 478 C151 478 151 571 151 571 C151 571 151 581 151 581 C151 581 126 581 126 581 C126 581 114 581 114 581 C114 581 101 581 101 581 C101 581 72 581 72 581 C72 581 72 568 72 568 C72 568 101 515 101 515 C101 515 101 66 101 66 C101 66 72 13 72 13 C72 13 72 0 72 0 C72 0 101 0 101 0 C101 0 126 0 126 0 C126 0 151 0 151 0 C151 0 181 0 181 0 C181 0 181 13 181 13 C181 13 151 66 151 66 C151 66 151 409 151 409 C151 494 193 562 245 562 C275 562 299 490 299 376 C299 376 299 66 299 66 C299 66 269 13 269 13 C269 13 269 0 269 0 C269 0 299 0 299 0 C299 0 324 0 324 0 L324 0 Z " />
<glyph glyph-name="ograve" unicode="&#xf2;" horiz-adv-x="470" d="M221 661 C221 661 267 661 267 661 C267 661 246 811 246 811 C246 811 181 811 181 811 C181 811 221 661 221 661 L221 661 Z M244 10 C166 10 122 135 122 291 C122 470 176 571 244 571 C322 571 366 446 366 291 C366 111 312 10 244 10 L244 10 Z M67 291 C67 124 131 -10 244 -10 C342 -10 420 99 420 291 C420 457 356 591 244 591 C146 591 67 482 67 291 L67 291 Z " />
<glyph glyph-name="oacute" unicode="&#xf3;" horiz-adv-x="470" d="M221 661 C221 661 267 661 267 661 C267 661 306 811 306 811 C306 811 241 811 241 811 C241 811 221 661 221 661 L221 661 Z M244 10 C166 10 122 135 122 291 C122 470 176 571 244 571 C322 571 366 446 366 291 C366 111 312 10 244 10 L244 10 Z M67 291 C67 124 131 -10 244 -10 C342 -10 420 99 420 291 C420 457 356 591 244 591 C146 591 67 482 67 291 L67 291 Z " />
<glyph glyph-name="ocircumflex" unicode="&#xf4;" horiz-adv-x="470" d="M244 772 C244 772 329 661 329 661 C329 661 375 661 375 661 C375 661 269 811 269 811 C269 811 218 811 218 811 C218 811 113 661 113 661 C113 661 158 661 158 661 C158 661 244 772 244 772 L244 772 Z M244 10 C166 10 122 135 122 291 C122 470 176 571 244 571 C322 571 366 446 366 291 C366 111 312 10 244 10 L244 10 Z M67 291 C67 124 131 -10 244 -10 C342 -10 420 99 420 291 C420 457 356 591 244 591 C146 591 67 482 67 291 L67 291 Z " />
<glyph glyph-name="otilde" unicode="&#xf5;" horiz-adv-x="470" d="M212 661 C212 697 219 726 227 726 C237 726 242 723 244 717 C248 739 258 765 224 765 C197 765 175 719 175 661 C175 661 212 661 212 661 L212 661 Z M244 10 C166 10 122 135 122 291 C122 470 176 571 244 571 C322 571 366 446 366 291 C366 111 312 10 244 10 L244 10 Z M67 291 C67 124 131 -10 244 -10 C342 -10 420 99 420 291 C420 457 356 591 244 591 C146 591 67 482 67 291 L67 291 Z M264 651 C291 651 313 697 313 755 C313 755 276 755 276 755 C276 719 269 690 260 690 C250 690 245 693 243 698 C239 677 230 651 264 651 L264 651 Z M243 698 C242 703 242 710 244 717 C245 712 245 706 243 698 C243 698 243 698 243 698 L243 698 Z " />
<glyph glyph-name="odieresis" unicode="&#xf6;" horiz-adv-x="470" d="M277 661 C277 661 337 661 337 661 C337 661 337 721 337 721 C337 721 277 721 277 721 C277 721 277 661 277 661 L277 661 Z M150 661 C150 661 210 661 210 661 C210 661 210 721 210 721 C210 721 150 721 150 721 C150 721 150 661 150 661 L150 661 Z M244 10 C166 10 122 135 122 291 C122 470 176 571 244 571 C322 571 366 446 366 291 C366 111 312 10 244 10 L244 10 Z M67 291 C67 124 131 -10 244 -10 C342 -10 420 99 420 291 C420 457 356 591 244 591 C146 591 67 482 67 291 L67 291 Z " />
<glyph glyph-name="oslash" unicode="&#xf8;" horiz-adv-x="470" d="M244 10 C203 10 171 45 150 101 C150 101 346 456 346 456 C359 410 366 353 366 291 C366 111 312 10 244 10 C244 10 244 10 244 10 L244 10 Z M67 291 C67 206 83 130 114 76 C114 76 67 -10 67 -10 C67 -10 89 -10 89 -10 C89 -10 126 57 126 57 C155 15 195 -10 244 -10 C342 -10 420 99 420 291 C420 375 404 451 373 505 C373 505 420 591 420 591 C420 591 398 591 398 591 C398 591 361 524 361 524 C332 566 292 591 244 591 C146 591 67 482 67 291 C67 291 67 291 67 291 L67 291 Z M142 126 C129 172 122 229 122 291 C122 470 176 571 244 571 C285 571 317 536 337 481 C337 481 142 126 142 126 L142 126 Z " />
<glyph glyph-name="ugrave" unicode="&#xf9;" horiz-adv-x="427" d="M197 661 C197 661 243 661 243 661 C243 661 222 811 222 811 C222 811 157 811 157 811 C157 811 197 661 197 661 L197 661 Z M343 66 C343 66 343 581 343 581 C343 581 318 581 318 581 C318 581 293 581 293 581 C293 581 263 581 263 581 C263 581 263 568 263 568 C263 568 293 515 293 515 C293 515 293 147 293 147 C293 74 257 15 211 15 C164 15 146 76 146 172 C146 172 146 581 146 581 C146 581 121 581 121 581 C121 581 96 581 96 581 C96 581 67 581 67 581 C67 581 67 568 67 568 C67 568 96 515 96 515 C96 515 96 172 96 172 C96 61 126 -10 203 -10 C244 -10 279 30 293 88 C293 88 293 10 293 10 C293 10 293 0 293 0 C293 0 318 0 318 0 C318 0 343 0 343 0 C343 0 373 0 373 0 C373 0 373 13 373 13 C373 13 343 66 343 66 L343 66 Z " />
<glyph glyph-name="uacute" unicode="&#xfa;" horiz-adv-x="427" d="M197 661 C197 661 243 661 243 661 C243 661 282 811 282 811 C282 811 217 811 217 811 C217 811 197 661 197 661 L197 661 Z M343 66 C343 66 343 581 343 581 C343 581 318 581 318 581 C318 581 293 581 293 581 C293 581 263 581 263 581 C263 581 263 568 263 568 C263 568 293 515 293 515 C293 515 293 147 293 147 C293 74 257 15 211 15 C164 15 146 76 146 172 C146 172 146 581 146 581 C146 581 121 581 121 581 C121 581 96 581 96 581 C96 581 67 581 67 581 C67 581 67 568 67 568 C67 568 96 515 96 515 C96 515 96 172 96 172 C96 61 126 -10 203 -10 C244 -10 279 30 293 88 C293 88 293 10 293 10 C293 10 293 0 293 0 C293 0 318 0 318 0 C318 0 343 0 343 0 C343 0 373 0 373 0 C373 0 373 13 373 13 C373 13 343 66 343 66 L343 66 Z " />
<glyph glyph-name="ucircumflex" unicode="&#xfb;" horiz-adv-x="427" d="M220 772 C220 772 305 661 305 661 C305 661 351 661 351 661 C351 661 245 811 245 811 C245 811 195 811 195 811 C195 811 89 661 89 661 C89 661 134 661 134 661 C134 661 220 772 220 772 L220 772 Z M343 66 C343 66 343 581 343 581 C343 581 318 581 318 581 C318 581 293 581 293 581 C293 581 263 581 263 581 C263 581 263 568 263 568 C263 568 293 515 293 515 C293 515 293 147 293 147 C293 74 257 15 211 15 C164 15 146 76 146 172 C146 172 146 581 146 581 C146 581 121 581 121 581 C121 581 96 581 96 581 C96 581 67 581 67 581 C67 581 67 568 67 568 C67 568 96 515 96 515 C96 515 96 172 96 172 C96 61 126 -10 203 -10 C244 -10 279 30 293 88 C293 88 293 10 293 10 C293 10 293 0 293 0 C293 0 318 0 318 0 C318 0 343 0 343 0 C343 0 373 0 373 0 C373 0 373 13 373 13 C373 13 343 66 343 66 L343 66 Z " />
<glyph glyph-name="udieresis" unicode="&#xfc;" horiz-adv-x="427" d="M253 661 C253 661 313 661 313 661 C313 661 313 721 313 721 C313 721 253 721 253 721 C253 721 253 661 253 661 L253 661 Z M126 661 C126 661 186 661 186 661 C186 661 186 721 186 721 C186 721 126 721 126 721 C126 721 126 661 126 661 L126 661 Z M343 66 C343 66 343 581 343 581 C343 581 318 581 318 581 C318 581 293 581 293 581 C293 581 263 581 263 581 C263 581 263 568 263 568 C263 568 293 515 293 515 C293 515 293 147 293 147 C293 74 257 15 211 15 C164 15 146 76 146 172 C146 172 146 581 146 581 C146 581 121 581 121 581 C121 581 96 581 96 581 C96 581 67 581 67 581 C67 581 67 568 67 568 C67 568 96 515 96 515 C96 515 96 172 96 172 C96 61 126 -10 203 -10 C244 -10 279 30 293 88 C293 88 293 10 293 10 C293 10 293 0 293 0 C293 0 318 0 318 0 C318 0 343 0 343 0 C343 0 373 0 373 0 C373 0 373 13 373 13 C373 13 343 66 343 66 L343 66 Z " />
<glyph glyph-name="yacute" unicode="&#xfd;" horiz-adv-x="377" d="M167 661 C167 661 213 661 213 661 C213 661 253 811 253 811 C253 811 188 811 188 811 C188 811 167 661 167 661 L167 661 Z M306 515 C306 515 306 515 306 515 C306 515 199 71 199 71 C199 71 99 515 99 515 C99 515 99 515 99 515 C99 515 114 568 114 568 C115 568 115 573 114 580 C115 581 115 581 114 581 C114 581 84 581 84 581 C84 581 56 581 56 581 C56 581 28 581 28 581 C28 581 1 581 1 581 C2 581 2 580 1 579 C2 573 2 568 1 568 C1 568 45 515 45 515 C45 515 45 515 45 515 C45 515 181 -6 181 -6 C181 -6 178 -17 178 -17 C150 -132 132 -176 113 -176 C113 -176 63 -176 63 -176 C63 -176 63 -200 63 -200 C63 -200 113 -200 113 -200 C145 -200 169 -152 199 -28 C199 -28 336 516 336 516 C336 516 379 568 379 568 C379 568 379 581 379 581 C379 581 353 581 353 581 C353 581 337 581 337 581 C337 581 322 581 322 581 C322 581 292 581 292 581 C292 581 292 568 292 568 C292 568 306 515 306 515 L306 515 Z " />
<glyph glyph-name="thorn" unicode="&#xfe;" horiz-adv-x="478" d="M266 16 C194 16 137 115 137 291 C137 468 195 569 267 569 C326 569 374 445 374 291 C374 138 326 16 266 16 L266 16 Z M112 811 C112 811 87 811 87 811 C87 811 57 811 57 811 C57 811 57 798 57 798 C57 798 87 745 87 745 C87 745 87 -184 87 -184 C87 -184 57 -237 57 -237 C57 -237 57 -250 57 -250 C57 -250 87 -250 87 -250 C87 -250 112 -250 112 -250 C112 -250 137 -250 137 -250 C137 -250 166 -250 166 -250 C166 -250 166 -237 166 -237 C166 -237 137 -184 137 -184 C137 -184 137 162 137 162 C160 51 213 -10 276 -10 C360 -10 428 124 428 291 C428 457 360 591 276 591 C213 591 160 530 137 420 C137 420 137 811 137 811 C137 811 112 811 112 811 L112 811 Z " />
<glyph glyph-name="ydieresis" unicode="&#xff;" horiz-adv-x="377" d="M224 661 C224 661 284 661 284 661 C284 661 284 721 284 721 C284 721 224 721 224 721 C224 721 224 661 224 661 L224 661 Z M97 661 C97 661 157 661 157 661 C157 661 157 721 157 721 C157 721 97 721 97 721 C97 721 97 661 97 661 L97 661 Z M306 515 C306 515 306 515 306 515 C306 515 199 71 199 71 C199 71 99 515 99 515 C99 515 99 515 99 515 C99 515 114 568 114 568 C115 568 115 573 114 580 C115 581 115 581 114 581 C114 581 84 581 84 581 C84 581 56 581 56 581 C56 581 28 581 28 581 C28 581 1 581 1 581 C2 581 2 580 1 579 C2 573 2 568 1 568 C1 568 45 515 45 515 C45 515 45 515 45 515 C45 515 181 -6 181 -6 C181 -6 178 -17 178 -17 C150 -132 132 -176 113 -176 C113 -176 63 -176 63 -176 C63 -176 63 -200 63 -200 C63 -200 113 -200 113 -200 C145 -200 169 -152 199 -28 C199 -28 336 516 336 516 C336 516 379 568 379 568 C379 568 379 581 379 581 C379 581 353 581 353 581 C353 581 337 581 337 581 C337 581 322 581 322 581 C322 581 292 581 292 581 C292 581 292 568 292 568 C292 568 306 515 306 515 L306 515 Z " />
<glyph glyph-name="Amacron" unicode="&#x100;" horiz-adv-x="641" d="M279 891 C279 891 391 891 391 891 C391 891 391 926 391 926 C391 926 279 926 279 926 C279 926 279 891 279 891 L279 891 Z M596 66 C596 66 595 66 595 66 C595 66 362 811 362 811 C362 811 333 811 333 811 C333 811 318 811 318 811 C318 811 308 811 308 811 C308 811 304 811 304 811 C304 811 274 811 274 811 C273 811 273 811 274 810 C273 803 273 798 274 798 C274 798 283 745 283 745 C283 745 283 745 283 745 C283 745 71 65 71 65 C71 65 26 13 26 13 C26 13 26 0 26 0 C26 0 51 0 51 0 C51 0 67 0 67 0 C67 0 82 0 82 0 C82 0 112 0 112 0 C112 0 112 13 112 13 C112 13 102 65 102 65 C102 65 158 246 158 246 C158 246 484 246 484 246 C484 246 477 269 477 269 C477 269 165 269 165 269 C165 269 321 771 321 771 C321 771 540 66 540 66 C540 66 540 66 540 66 C540 66 531 13 531 13 C531 13 531 0 531 0 C531 0 561 0 561 0 C561 0 589 0 589 0 C589 0 616 0 616 0 C616 0 642 0 642 0 C642 0 642 13 642 13 C642 13 596 66 596 66 L596 66 Z " />
<glyph glyph-name="amacron" unicode="&#x101;" horiz-adv-x="430" d="M159 661 C159 661 271 661 271 661 C271 661 271 696 271 696 C271 696 159 696 159 696 C159 696 159 661 159 661 L159 661 Z M75 445 C75 445 100 437 100 437 C100 510 151 569 215 569 C265 569 305 521 305 426 C305 426 305 407 305 407 C305 302 250 262 182 262 C113 262 57 193 57 107 C57 42 100 -10 187 -10 C240 -10 286 20 305 93 C305 93 305 45 305 45 C305 5 316 0 400 0 C400 0 400 37 400 37 C360 37 355 38 355 45 C355 45 355 404 355 404 C355 529 293 591 215 591 C137 591 75 526 75 445 L75 445 Z M305 316 C305 316 305 174 305 174 C305 55 256 9 195 9 C136 9 106 53 106 108 C106 184 147 245 198 245 C244 245 285 266 305 316 L305 316 Z " />
<glyph glyph-name="Abreve" unicode="&#x102;" horiz-adv-x="641" d="M274 1006 C274 937 301 881 335 881 C369 881 396 937 396 1006 C396 1006 359 1006 359 1006 C359 956 348 916 335 916 C322 916 311 956 311 1006 C311 1006 274 1006 274 1006 L274 1006 Z M596 66 C596 66 595 66 595 66 C595 66 362 811 362 811 C362 811 333 811 333 811 C333 811 318 811 318 811 C318 811 308 811 308 811 C308 811 304 811 304 811 C304 811 274 811 274 811 C273 811 273 811 274 810 C273 803 273 798 274 798 C274 798 283 745 283 745 C283 745 283 745 283 745 C283 745 71 65 71 65 C71 65 26 13 26 13 C26 13 26 0 26 0 C26 0 51 0 51 0 C51 0 67 0 67 0 C67 0 82 0 82 0 C82 0 112 0 112 0 C112 0 112 13 112 13 C112 13 102 65 102 65 C102 65 158 246 158 246 C158 246 484 246 484 246 C484 246 477 269 477 269 C477 269 165 269 165 269 C165 269 321 771 321 771 C321 771 540 66 540 66 C540 66 540 66 540 66 C540 66 531 13 531 13 C531 13 531 0 531 0 C531 0 561 0 561 0 C561 0 589 0 589 0 C589 0 616 0 616 0 C616 0 642 0 642 0 C642 0 642 13 642 13 C642 13 596 66 596 66 L596 66 Z " />
<glyph glyph-name="abreve" unicode="&#x103;" horiz-adv-x="430" d="M154 776 C154 707 181 651 215 651 C249 651 276 707 276 776 C276 776 239 776 239 776 C239 726 228 686 215 686 C202 686 191 726 191 776 C191 776 154 776 154 776 L154 776 Z M75 445 C75 445 100 437 100 437 C100 510 151 569 215 569 C265 569 305 521 305 426 C305 426 305 407 305 407 C305 302 250 262 182 262 C113 262 57 193 57 107 C57 42 100 -10 187 -10 C240 -10 286 20 305 93 C305 93 305 45 305 45 C305 5 316 0 400 0 C400 0 400 37 400 37 C360 37 355 38 355 45 C355 45 355 404 355 404 C355 529 293 591 215 591 C137 591 75 526 75 445 L75 445 Z M305 316 C305 316 305 174 305 174 C305 55 256 9 195 9 C136 9 106 53 106 108 C106 184 147 245 198 245 C244 245 285 266 305 316 L305 316 Z " />
<glyph glyph-name="Aogonek" unicode="&#x104;" horiz-adv-x="641" d="M596 66 C596 66 595 66 595 66 C595 66 362 811 362 811 C362 811 333 811 333 811 C333 811 318 811 318 811 C318 811 308 811 308 811 C308 811 304 811 304 811 C304 811 274 811 274 811 C273 811 273 811 274 810 C273 803 273 798 274 798 C274 798 283 745 283 745 C283 745 283 745 283 745 C283 745 71 65 71 65 C71 65 26 13 26 13 C26 13 26 0 26 0 C26 0 51 0 51 0 C51 0 67 0 67 0 C67 0 82 0 82 0 C82 0 112 0 112 0 C112 0 112 13 112 13 C112 13 102 65 102 65 C102 65 158 246 158 246 C158 246 484 246 484 246 C484 246 477 269 477 269 C477 269 165 269 165 269 C165 269 321 771 321 771 C321 771 540 66 540 66 C540 66 540 66 540 66 C540 66 531 13 531 13 C531 13 531 0 531 0 C531 0 561 0 561 0 C561 0 589 0 589 0 C589 0 600 0 600 0 C572 -23 525 -74 525 -102 C525 -158 571 -203 628 -203 C658 -203 693 -190 706 -175 C706 -175 703 -160 703 -160 C691 -175 658 -187 629 -187 C587 -187 553 -147 553 -97 C553 -63 599 -10 616 0 C616 0 642 0 642 0 C642 0 642 13 642 13 C642 13 596 66 596 66 L596 66 Z " />
<glyph glyph-name="aogonek" unicode="&#x105;" horiz-adv-x="480" d="M67 291 C67 124 142 -10 235 -10 C292 -10 340 62 361 167 C361 167 361 0 361 0 C361 0 386 0 386 0 C386 0 398 0 398 0 C368 -23 320 -74 320 -102 C320 -158 366 -203 423 -203 C453 -203 487 -190 501 -175 C501 -175 498 -160 498 -160 C485 -175 452 -187 424 -187 C382 -187 348 -147 348 -97 C348 -63 393 -10 411 0 C411 0 441 0 441 0 C441 0 441 13 441 13 C441 13 411 66 411 66 C411 66 411 515 411 515 C411 515 441 568 441 568 C441 568 441 581 441 581 C441 581 411 581 411 581 C411 581 386 581 386 581 C386 581 361 581 361 581 C361 581 361 414 361 414 C340 519 292 591 235 591 C142 591 67 457 67 291 C67 291 67 291 67 291 L67 291 Z M361 291 C361 136 309 12 244 12 C176 12 122 136 122 291 C122 445 176 569 244 569 C309 569 361 445 361 291 L361 291 Z " />
<glyph glyph-name="Cacute" unicode="&#x106;" horiz-adv-x="595" d="M300 891 C300 891 346 891 346 891 C346 891 386 1041 386 1041 C386 1041 321 1041 321 1041 C321 1041 300 891 300 891 L300 891 Z M553 187 C553 91 459 15 342 15 C225 15 131 210 131 406 C131 601 225 796 342 796 C419 796 486 763 523 713 C523 713 546 667 546 667 C551 654 553 639 553 624 C553 624 564 633 564 633 C564 633 564 633 564 633 C564 633 576 643 576 643 C576 643 576 673 576 673 C576 673 573 673 573 673 C554 757 459 821 342 821 C192 821 71 613 71 406 C71 198 192 -10 342 -10 C472 -10 576 69 576 168 C576 168 553 187 553 187 L553 187 Z " />
<glyph glyph-name="cacute" unicode="&#x107;" horiz-adv-x="431" d="M227 661 C227 661 272 661 272 661 C272 661 312 811 312 811 C312 811 247 811 247 811 C247 811 227 661 227 661 L227 661 Z M377 144 C377 71 320 12 249 12 C179 12 122 113 122 291 C122 469 179 570 249 570 C335 570 378 504 378 420 C378 420 401 432 401 432 C401 520 350 591 249 591 C148 591 67 482 67 291 C67 99 148 -10 249 -10 C334 -10 402 53 402 132 C402 132 377 144 377 144 L377 144 Z " />
<glyph glyph-name="Ccircumflex" unicode="&#x108;" horiz-adv-x="595" d="M323 1002 C323 1002 409 891 409 891 C409 891 454 891 454 891 C454 891 349 1041 349 1041 C349 1041 298 1041 298 1041 C298 1041 192 891 192 891 C192 891 238 891 238 891 C238 891 323 1002 323 1002 L323 1002 Z M553 187 C553 91 459 15 342 15 C225 15 131 210 131 406 C131 601 225 796 342 796 C419 796 486 763 523 713 C523 713 546 667 546 667 C551 654 553 639 553 624 C553 624 564 633 564 633 C564 633 564 633 564 633 C564 633 576 643 576 643 C576 643 576 673 576 673 C576 673 573 673 573 673 C554 757 459 821 342 821 C192 821 71 613 71 406 C71 198 192 -10 342 -10 C472 -10 576 69 576 168 C576 168 553 187 553 187 L553 187 Z " />
<glyph glyph-name="Cdotaccent" unicode="&#x10a;" horiz-adv-x="595" d="M293 891 C293 891 353 891 353 891 C353 891 353 951 353 951 C353 951 293 951 293 951 C293 951 293 891 293 891 L293 891 Z M553 187 C553 91 459 15 342 15 C225 15 131 210 131 406 C131 601 225 796 342 796 C419 796 486 763 523 713 C523 713 546 667 546 667 C551 654 553 639 553 624 C553 624 564 633 564 633 C564 633 564 633 564 633 C564 633 576 643 576 643 C576 643 576 673 576 673 C576 673 573 673 573 673 C554 757 459 821 342 821 C192 821 71 613 71 406 C71 198 192 -10 342 -10 C472 -10 576 69 576 168 C576 168 553 187 553 187 L553 187 Z " />
<glyph glyph-name="cdotaccent" unicode="&#x10b;" horiz-adv-x="431" d="M219 661 C219 661 279 661 279 661 C279 661 279 721 279 721 C279 721 219 721 219 721 C219 721 219 661 219 661 L219 661 Z M377 144 C377 71 320 12 249 12 C179 12 122 113 122 291 C122 469 179 570 249 570 C335 570 378 504 378 420 C378 420 401 432 401 432 C401 520 350 591 249 591 C148 591 67 482 67 291 C67 99 148 -10 249 -10 C334 -10 402 53 402 132 C402 132 377 144 377 144 L377 144 Z " />
<glyph glyph-name="Ccaron" unicode="&#x10c;" horiz-adv-x="595" d="M323 930 C323 930 409 1041 409 1041 C409 1041 454 1041 454 1041 C454 1041 349 891 349 891 C349 891 298 891 298 891 C298 891 192 1041 192 1041 C192 1041 238 1041 238 1041 C238 1041 323 930 323 930 L323 930 Z M553 187 C553 91 459 15 342 15 C225 15 131 210 131 406 C131 601 225 796 342 796 C419 796 486 763 523 713 C523 713 546 667 546 667 C551 654 553 639 553 624 C553 624 564 633 564 633 C564 633 564 633 564 633 C564 633 576 643 576 643 C576 643 576 673 576 673 C576 673 573 673 573 673 C554 757 459 821 342 821 C192 821 71 613 71 406 C71 198 192 -10 342 -10 C472 -10 576 69 576 168 C576 168 553 187 553 187 L553 187 Z " />
<glyph glyph-name="ccaron" unicode="&#x10d;" horiz-adv-x="431" d="M249 700 C249 700 335 811 335 811 C335 811 380 811 380 811 C380 811 275 661 275 661 C275 661 224 661 224 661 C224 661 118 811 118 811 C118 811 164 811 164 811 C164 811 249 700 249 700 L249 700 Z M377 144 C377 71 320 12 249 12 C179 12 122 113 122 291 C122 469 179 570 249 570 C335 570 378 504 378 420 C378 420 401 432 401 432 C401 520 350 591 249 591 C148 591 67 482 67 291 C67 99 148 -10 249 -10 C334 -10 402 53 402 132 C402 132 377 144 377 144 L377 144 Z " />
<glyph glyph-name="Dcaron" unicode="&#x10e;" horiz-adv-x="659" d="M332 930 C332 930 417 1041 417 1041 C417 1041 463 1041 463 1041 C463 1041 357 891 357 891 C357 891 307 891 307 891 C307 891 201 1041 201 1041 C201 1041 247 1041 247 1041 C247 1041 332 930 332 930 L332 930 Z M148 0 C148 0 176 0 176 0 C176 0 304 0 304 0 C492 0 604 151 604 406 C604 653 476 811 274 811 C274 811 176 811 176 811 C176 811 148 811 148 811 C148 811 120 811 120 811 C120 811 90 811 90 811 C90 811 90 798 90 798 C90 798 120 745 120 745 C120 745 120 66 120 66 C120 66 90 13 90 13 C90 13 90 0 90 0 C90 0 120 0 120 0 C120 0 148 0 148 0 L148 0 Z M176 24 C176 24 176 788 176 788 C176 788 275 788 275 788 C439 788 544 639 544 406 C544 165 454 23 302 23 C267 23 211 24 176 24 L176 24 Z " />
<glyph glyph-name="dcaron" unicode="&#x10f;" horiz-adv-x="461" d="M442 821 C442 821 442 671 442 671 C442 671 479 671 479 671 C479 671 496 821 496 821 C496 821 442 821 442 821 L442 821 Z M67 291 C67 124 131 -10 210 -10 C270 -10 321 66 342 174 C342 174 342 10 342 10 C342 10 342 0 342 0 C342 0 367 0 367 0 C367 0 392 0 392 0 C392 0 422 0 422 0 C421 0 421 1 422 1 C421 8 421 13 422 13 C422 13 392 66 392 66 C392 66 392 801 392 801 C392 801 392 811 392 811 C392 811 367 811 367 811 C367 811 342 811 342 811 C342 811 312 811 312 811 C312 811 312 798 312 798 C312 798 342 745 342 745 C342 745 342 407 342 407 C321 515 270 591 210 591 C131 591 67 457 67 291 L67 291 Z M342 291 C342 136 288 12 219 12 C165 12 122 136 122 291 C122 445 165 569 219 569 C288 569 342 445 342 291 L342 291 Z " />
<glyph glyph-name="Dcroat" unicode="&#x110;" horiz-adv-x="659" d="M40 396 C40 396 120 396 120 396 C120 396 120 66 120 66 C120 66 90 13 90 13 C90 13 90 0 90 0 C90 0 120 0 120 0 C120 0 148 0 148 0 C148 0 176 0 176 0 C176 0 304 0 304 0 C492 0 604 151 604 406 C604 653 476 811 274 811 C274 811 176 811 176 811 C176 811 148 811 148 811 C148 811 120 811 120 811 C120 811 90 811 90 811 C90 811 90 798 90 798 C90 798 120 745 120 745 C120 745 120 415 120 415 C120 415 40 415 40 415 C40 415 40 396 40 396 L40 396 Z M176 24 C176 24 176 396 176 396 C176 396 332 396 332 396 C332 396 332 415 332 415 C332 415 176 415 176 415 C176 415 176 788 176 788 C176 788 275 788 275 788 C439 788 544 639 544 406 C544 165 454 23 302 23 C267 23 211 24 176 24 L176 24 Z " />
<glyph glyph-name="dcroat" unicode="&#x111;" horiz-adv-x="461" d="M210 692 C210 692 342 692 342 692 C342 692 342 407 342 407 C321 515 270 591 210 591 C131 591 67 457 67 291 C67 124 131 -10 210 -10 C270 -10 321 66 342 174 C342 174 342 10 342 10 C342 10 342 0 342 0 C342 0 367 0 367 0 C367 0 392 0 392 0 C392 0 422 0 422 0 C421 0 421 1 422 1 C421 8 421 13 422 13 C422 13 392 66 392 66 C392 66 392 692 392 692 C392 692 469 692 469 692 C469 692 469 711 469 711 C469 711 392 711 392 711 C392 711 392 801 392 801 C392 801 392 811 392 811 C392 811 367 811 367 811 C367 811 342 811 342 811 C342 811 312 811 312 811 C312 811 312 798 312 798 C312 798 342 745 342 745 C342 745 342 711 342 711 C342 711 210 711 210 711 C210 711 210 692 210 692 L210 692 Z M342 291 C342 136 288 12 219 12 C165 12 122 136 122 291 C122 445 165 569 219 569 C288 569 342 445 342 291 L342 291 Z " />
<glyph glyph-name="Emacron" unicode="&#x112;" horiz-adv-x="480" d="M212 891 C212 891 324 891 324 891 C324 891 324 926 324 926 C324 926 212 926 212 926 C212 926 212 891 212 891 L212 891 Z M431 12 C431 12 431 25 431 25 C431 25 431 55 431 55 C431 55 418 55 418 55 C418 55 365 25 365 25 C365 25 176 25 176 25 C176 25 176 389 176 389 C176 389 330 389 330 389 C330 389 383 359 383 359 C383 359 396 359 396 359 C396 359 396 389 396 389 C396 389 396 401 396 401 C396 401 396 412 396 412 C396 412 396 442 396 442 C396 443 395 443 394 442 C388 443 383 443 383 442 C383 442 330 412 330 412 C330 412 176 412 176 412 C176 412 176 786 176 786 C176 786 350 786 350 786 C350 786 403 756 403 756 C403 756 416 756 416 756 C416 756 416 786 416 786 C416 786 416 799 416 799 C416 799 416 811 416 811 C416 811 176 811 176 811 C176 811 175 811 175 811 C175 811 148 811 148 811 C148 811 120 811 120 811 C120 811 90 811 90 811 C90 811 90 798 90 798 C90 798 120 745 120 745 C120 745 120 66 120 66 C120 66 90 13 90 13 C90 13 90 0 90 0 C90 0 120 0 120 0 C120 0 148 0 148 0 C148 0 175 0 175 0 C175 0 176 0 176 0 C176 0 431 0 431 0 C431 0 431 12 431 12 L431 12 Z " />
<glyph glyph-name="emacron" unicode="&#x113;" horiz-adv-x="437" d="M185 661 C185 661 297 661 297 661 C297 661 297 696 297 696 C297 696 185 696 185 696 C185 696 185 661 185 661 L185 661 Z M382 142 C382 70 318 12 238 12 C176 12 127 104 122 267 C122 267 415 267 415 267 C415 447 357 591 241 591 C144 591 67 482 67 291 C67 99 143 -10 238 -10 C332 -10 408 53 408 133 C408 133 382 142 382 142 L382 142 Z M122 286 C122 288 122 289 122 291 C122 469 175 570 241 570 C321 570 362 445 365 286 C365 286 122 286 122 286 L122 286 Z " />
<glyph glyph-name="Ebreve" unicode="&#x114;" horiz-adv-x="480" d="M207 1006 C207 937 234 881 268 881 C302 881 329 937 329 1006 C329 1006 292 1006 292 1006 C292 956 281 916 268 916 C255 916 244 956 244 1006 C244 1006 207 1006 207 1006 L207 1006 Z M431 12 C431 12 431 25 431 25 C431 25 431 55 431 55 C431 55 418 55 418 55 C418 55 365 25 365 25 C365 25 176 25 176 25 C176 25 176 389 176 389 C176 389 330 389 330 389 C330 389 383 359 383 359 C383 359 396 359 396 359 C396 359 396 389 396 389 C396 389 396 401 396 401 C396 401 396 412 396 412 C396 412 396 442 396 442 C396 443 395 443 394 442 C388 443 383 443 383 442 C383 442 330 412 330 412 C330 412 176 412 176 412 C176 412 176 786 176 786 C176 786 350 786 350 786 C350 786 403 756 403 756 C403 756 416 756 416 756 C416 756 416 786 416 786 C416 786 416 799 416 799 C416 799 416 811 416 811 C416 811 176 811 176 811 C176 811 175 811 175 811 C175 811 148 811 148 811 C148 811 120 811 120 811 C120 811 90 811 90 811 C90 811 90 798 90 798 C90 798 120 745 120 745 C120 745 120 66 120 66 C120 66 90 13 90 13 C90 13 90 0 90 0 C90 0 120 0 120 0 C120 0 148 0 148 0 C148 0 175 0 175 0 C175 0 176 0 176 0 C176 0 431 0 431 0 C431 0 431 12 431 12 L431 12 Z " />
<glyph glyph-name="ebreve" unicode="&#x115;" horiz-adv-x="437" d="M180 776 C180 707 207 651 241 651 C275 651 302 707 302 776 C302 776 265 776 265 776 C265 726 254 686 241 686 C228 686 217 726 217 776 C217 776 180 776 180 776 L180 776 Z M382 142 C382 70 318 12 238 12 C176 12 127 104 122 267 C122 267 415 267 415 267 C415 447 357 591 241 591 C144 591 67 482 67 291 C67 99 143 -10 238 -10 C332 -10 408 53 408 133 C408 133 382 142 382 142 L382 142 Z M122 286 C122 288 122 289 122 291 C122 469 175 570 241 570 C321 570 362 445 365 286 C365 286 122 286 122 286 L122 286 Z " />
<glyph glyph-name="Edotaccent" unicode="&#x116;" horiz-adv-x="480" d="M238 891 C238 891 298 891 298 891 C298 891 298 951 298 951 C298 951 238 951 238 951 C238 951 238 891 238 891 L238 891 Z M431 12 C431 12 431 25 431 25 C431 25 431 55 431 55 C431 55 418 55 418 55 C418 55 365 25 365 25 C365 25 176 25 176 25 C176 25 176 389 176 389 C176 389 330 389 330 389 C330 389 383 359 383 359 C383 359 396 359 396 359 C396 359 396 389 396 389 C396 389 396 401 396 401 C396 401 396 412 396 412 C396 412 396 442 396 442 C396 443 395 443 394 442 C388 443 383 443 383 442 C383 442 330 412 330 412 C330 412 176 412 176 412 C176 412 176 786 176 786 C176 786 350 786 350 786 C350 786 403 756 403 756 C403 756 416 756 416 756 C416 756 416 786 416 786 C416 786 416 799 416 799 C416 799 416 811 416 811 C416 811 176 811 176 811 C176 811 175 811 175 811 C175 811 148 811 148 811 C148 811 120 811 120 811 C120 811 90 811 90 811 C90 811 90 798 90 798 C90 798 120 745 120 745 C120 745 120 66 120 66 C120 66 90 13 90 13 C90 13 90 0 90 0 C90 0 120 0 120 0 C120 0 148 0 148 0 C148 0 175 0 175 0 C175 0 176 0 176 0 C176 0 431 0 431 0 C431 0 431 12 431 12 L431 12 Z " />
<glyph glyph-name="edotaccent" unicode="&#x117;" horiz-adv-x="437" d="M211 661 C211 661 271 661 271 661 C271 661 271 721 271 721 C271 721 211 721 211 721 C211 721 211 661 211 661 L211 661 Z M382 142 C382 70 318 12 238 12 C176 12 127 104 122 267 C122 267 415 267 415 267 C415 447 357 591 241 591 C144 591 67 482 67 291 C67 99 143 -10 238 -10 C332 -10 408 53 408 133 C408 133 382 142 382 142 L382 142 Z M122 286 C122 288 122 289 122 291 C122 469 175 570 241 570 C321 570 362 445 365 286 C365 286 122 286 122 286 L122 286 Z " />
<glyph glyph-name="Eogonek" unicode="&#x118;" horiz-adv-x="480" d="M269 0 C240 -23 192 -74 192 -102 C192 -158 237 -203 294 -203 C324 -203 359 -190 372 -175 C372 -175 369 -160 369 -160 C357 -175 324 -187 296 -187 C253 -187 219 -147 219 -97 C219 -63 265 -10 282 0 C282 0 431 0 431 0 C431 0 431 12 431 12 C431 12 431 25 431 25 C431 25 431 55 431 55 C431 55 418 55 418 55 C418 55 365 25 365 25 C365 25 176 25 176 25 C176 25 176 389 176 389 C176 389 330 389 330 389 C330 389 383 359 383 359 C383 359 396 359 396 359 C396 359 396 389 396 389 C396 389 396 401 396 401 C396 401 396 412 396 412 C396 412 396 442 396 442 C396 443 395 443 394 442 C388 443 383 443 383 442 C383 442 330 412 330 412 C330 412 176 412 176 412 C176 412 176 786 176 786 C176 786 350 786 350 786 C350 786 403 756 403 756 C403 756 416 756 416 756 C416 756 416 786 416 786 C416 786 416 799 416 799 C416 799 416 811 416 811 C416 811 176 811 176 811 C176 811 175 811 175 811 C175 811 148 811 148 811 C148 811 120 811 120 811 C120 811 90 811 90 811 C90 811 90 798 90 798 C90 798 120 745 120 745 C120 745 120 66 120 66 C120 66 90 13 90 13 C90 13 90 0 90 0 C90 0 120 0 120 0 C120 0 148 0 148 0 C148 0 175 0 175 0 C175 0 176 0 176 0 C176 0 269 0 269 0 L269 0 Z " />
<glyph glyph-name="eogonek" unicode="&#x119;" horiz-adv-x="437" d="M382 142 C382 70 318 12 238 12 C176 12 127 104 122 267 C122 267 415 267 415 267 C415 447 357 591 241 591 C144 591 67 482 67 291 C67 99 143 -10 238 -10 C263 -10 287 -6 308 2 C280 -25 247 -67 247 -94 C247 -154 292 -203 349 -203 C379 -203 414 -190 427 -175 C427 -175 424 -160 424 -160 C412 -175 379 -187 351 -187 C308 -187 274 -143 274 -89 C274 -54 313 -2 333 14 C378 39 408 83 408 133 C408 133 382 142 382 142 L382 142 Z M122 286 C122 288 122 289 122 291 C122 469 175 570 241 570 C321 570 362 445 365 286 C365 286 122 286 122 286 L122 286 Z " />
<glyph glyph-name="Ecaron" unicode="&#x11a;" horiz-adv-x="480" d="M268 930 C268 930 353 1041 353 1041 C353 1041 399 1041 399 1041 C399 1041 293 891 293 891 C293 891 243 891 243 891 C243 891 137 1041 137 1041 C137 1041 183 1041 183 1041 C183 1041 268 930 268 930 L268 930 Z M431 12 C431 12 431 25 431 25 C431 25 431 55 431 55 C431 55 418 55 418 55 C418 55 365 25 365 25 C365 25 176 25 176 25 C176 25 176 389 176 389 C176 389 330 389 330 389 C330 389 383 359 383 359 C383 359 396 359 396 359 C396 359 396 389 396 389 C396 389 396 401 396 401 C396 401 396 412 396 412 C396 412 396 442 396 442 C396 443 395 443 394 442 C388 443 383 443 383 442 C383 442 330 412 330 412 C330 412 176 412 176 412 C176 412 176 786 176 786 C176 786 350 786 350 786 C350 786 403 756 403 756 C403 756 416 756 416 756 C416 756 416 786 416 786 C416 786 416 799 416 799 C416 799 416 811 416 811 C416 811 176 811 176 811 C176 811 175 811 175 811 C175 811 148 811 148 811 C148 811 120 811 120 811 C120 811 90 811 90 811 C90 811 90 798 90 798 C90 798 120 745 120 745 C120 745 120 66 120 66 C120 66 90 13 90 13 C90 13 90 0 90 0 C90 0 120 0 120 0 C120 0 148 0 148 0 C148 0 175 0 175 0 C175 0 176 0 176 0 C176 0 431 0 431 0 C431 0 431 12 431 12 L431 12 Z " />
<glyph glyph-name="ecaron" unicode="&#x11b;" horiz-adv-x="437" d="M241 700 C241 700 326 811 326 811 C326 811 372 811 372 811 C372 811 266 661 266 661 C266 661 216 661 216 661 C216 661 110 811 110 811 C110 811 156 811 156 811 C156 811 241 700 241 700 L241 700 Z M382 142 C382 70 318 12 238 12 C176 12 127 104 122 267 C122 267 415 267 415 267 C415 447 357 591 241 591 C144 591 67 482 67 291 C67 99 143 -10 238 -10 C332 -10 408 53 408 133 C408 133 382 142 382 142 L382 142 Z M122 286 C122 288 122 289 122 291 C122 469 175 570 241 570 C321 570 362 445 365 286 C365 286 122 286 122 286 L122 286 Z " />
<glyph glyph-name="Gcircumflex" unicode="&#x11c;" horiz-adv-x="647" d="M367 1002 C367 1002 452 891 452 891 C452 891 498 891 498 891 C498 891 392 1041 392 1041 C392 1041 342 1041 342 1041 C342 1041 236 891 236 891 C236 891 281 891 281 891 C281 891 367 1002 367 1002 L367 1002 Z M403 400 C403 400 573 400 573 400 C573 400 573 117 573 117 C505 60 418 15 367 15 C236 15 131 189 131 406 C131 622 236 796 367 796 C433 796 492 767 526 722 C526 722 554 666 554 666 C558 653 560 639 560 624 C560 624 571 633 571 633 C571 633 571 633 571 633 C571 633 582 643 582 643 C582 643 582 673 582 673 C582 673 579 673 579 673 C562 757 474 821 367 821 C202 821 71 636 71 406 C71 175 202 -10 367 -10 C429 -10 528 40 602 102 C602 102 602 425 602 425 C602 425 403 425 403 425 C403 425 403 400 403 400 L403 400 Z " />
<glyph glyph-name="Gbreve" unicode="&#x11e;" horiz-adv-x="647" d="M306 1006 C306 937 333 881 367 881 C401 881 428 937 428 1006 C428 1006 391 1006 391 1006 C391 956 380 916 367 916 C354 916 343 956 343 1006 C343 1006 306 1006 306 1006 L306 1006 Z M403 400 C403 400 573 400 573 400 C573 400 573 117 573 117 C505 60 418 15 367 15 C236 15 131 189 131 406 C131 622 236 796 367 796 C433 796 492 767 526 722 C526 722 554 666 554 666 C558 653 560 639 560 624 C560 624 571 633 571 633 C571 633 571 633 571 633 C571 633 582 643 582 643 C582 643 582 673 582 673 C582 673 579 673 579 673 C562 757 474 821 367 821 C202 821 71 636 71 406 C71 175 202 -10 367 -10 C429 -10 528 40 602 102 C602 102 602 425 602 425 C602 425 403 425 403 425 C403 425 403 400 403 400 L403 400 Z " />
<glyph glyph-name="gbreve" unicode="&#x11f;" horiz-adv-x="451" d="M163 776 C163 707 190 651 224 651 C259 651 286 707 286 776 C286 776 249 776 249 776 C249 726 238 686 224 686 C211 686 200 726 200 776 C200 776 163 776 163 776 L163 776 Z M74 -84 C74 -139 142 -166 227 -166 C330 -166 382 -83 382 21 C382 21 382 515 382 515 C382 515 412 568 412 568 C411 568 411 573 412 580 C411 581 411 581 412 581 C412 581 382 581 382 581 C382 581 357 581 357 581 C357 581 332 581 332 581 C332 581 332 409 332 409 C311 516 263 591 205 591 C129 591 67 491 67 291 C67 97 129 0 205 0 C263 0 311 72 332 176 C332 176 332 0 332 0 C332 -80 296 -144 225 -144 C157 -144 103 -124 103 -84 C103 -84 74 -84 74 -84 L74 -84 Z M214 569 C280 569 332 445 332 291 C332 141 280 22 214 22 C163 22 122 112 122 291 C122 476 163 569 214 569 L214 569 Z " />
<glyph glyph-name="Gdotaccent" unicode="&#x120;" horiz-adv-x="647" d="M337 891 C337 891 397 891 397 891 C397 891 397 951 397 951 C397 951 337 951 337 951 C337 951 337 891 337 891 L337 891 Z M403 400 C403 400 573 400 573 400 C573 400 573 117 573 117 C505 60 418 15 367 15 C236 15 131 189 131 406 C131 622 236 796 367 796 C433 796 492 767 526 722 C526 722 554 666 554 666 C558 653 560 639 560 624 C560 624 571 633 571 633 C571 633 571 633 571 633 C571 633 582 643 582 643 C582 643 582 673 582 673 C582 673 579 673 579 673 C562 757 474 821 367 821 C202 821 71 636 71 406 C71 175 202 -10 367 -10 C429 -10 528 40 602 102 C602 102 602 425 602 425 C602 425 403 425 403 425 C403 425 403 400 403 400 L403 400 Z " />
<glyph glyph-name="gdotaccent" unicode="&#x121;" horiz-adv-x="451" d="M194 661 C194 661 254 661 254 661 C254 661 254 721 254 721 C254 721 194 721 194 721 C194 721 194 661 194 661 L194 661 Z M74 -84 C74 -139 142 -166 227 -166 C330 -166 382 -83 382 21 C382 21 382 515 382 515 C382 515 412 568 412 568 C411 568 411 573 412 580 C411 581 411 581 412 581 C412 581 382 581 382 581 C382 581 357 581 357 581 C357 581 332 581 332 581 C332 581 332 409 332 409 C311 516 263 591 205 591 C129 591 67 491 67 291 C67 97 129 0 205 0 C263 0 311 72 332 176 C332 176 332 0 332 0 C332 -80 296 -144 225 -144 C157 -144 103 -124 103 -84 C103 -84 74 -84 74 -84 L74 -84 Z M214 569 C280 569 332 445 332 291 C332 141 280 22 214 22 C163 22 122 112 122 291 C122 476 163 569 214 569 L214 569 Z " />
<glyph glyph-name="Hcircumflex" unicode="&#x124;" horiz-adv-x="588" d="M304 1002 C304 1002 390 891 390 891 C390 891 435 891 435 891 C435 891 330 1041 330 1041 C330 1041 279 1041 279 1041 C279 1041 173 891 173 891 C173 891 219 891 219 891 C219 891 304 1002 304 1002 L304 1002 Z M461 0 C461 0 489 0 489 0 C489 0 519 0 519 0 C519 0 519 13 519 13 C519 13 489 66 489 66 C489 66 489 745 489 745 C489 745 519 798 519 798 C519 798 519 811 519 811 C519 811 489 811 489 811 C489 811 461 811 461 811 C461 811 433 811 433 811 C433 811 403 811 403 811 C403 811 403 798 403 798 C403 798 433 745 433 745 C433 745 433 423 433 423 C433 423 176 423 176 423 C176 423 176 745 176 745 C176 745 206 798 206 798 C206 798 206 811 206 811 C206 811 176 811 176 811 C176 811 148 811 148 811 C148 811 120 811 120 811 C120 811 90 811 90 811 C90 811 90 798 90 798 C90 798 120 745 120 745 C120 745 120 66 120 66 C120 66 90 13 90 13 C90 13 90 0 90 0 C90 0 120 0 120 0 C120 0 148 0 148 0 C148 0 176 0 176 0 C176 0 206 0 206 0 C206 0 206 13 206 13 C206 13 176 66 176 66 C176 66 176 398 176 398 C176 398 433 398 433 398 C433 398 433 66 433 66 C433 66 403 13 403 13 C403 13 403 0 403 0 C403 0 433 0 433 0 C433 0 461 0 461 0 L461 0 Z " />
<glyph glyph-name="Itilde" unicode="&#x128;" horiz-adv-x="256" d="M97 891 C97 927 104 956 112 956 C123 956 127 952 129 946 C133 968 143 995 109 995 C82 995 60 949 60 891 C60 891 97 891 97 891 L97 891 Z M149 881 C176 881 198 927 198 985 C198 985 161 985 161 985 C161 949 154 920 146 920 C135 920 131 924 129 930 C125 908 115 881 149 881 L149 881 Z M129 930 C128 934 128 940 129 946 C130 942 130 936 129 930 C129 930 129 930 129 930 L129 930 Z M129 0 C129 0 157 0 157 0 C157 0 187 0 187 0 C187 0 187 13 187 13 C187 13 157 66 157 66 C157 66 157 745 157 745 C157 745 187 798 187 798 C187 798 187 811 187 811 C187 811 157 811 157 811 C157 811 129 811 129 811 C129 811 101 811 101 811 C101 811 71 811 71 811 C71 811 71 798 71 798 C71 798 101 745 101 745 C101 745 101 66 101 66 C101 66 71 13 71 13 C71 13 71 0 71 0 C71 0 101 0 101 0 C101 0 129 0 129 0 L129 0 Z " />
<glyph glyph-name="itilde" unicode="&#x129;" horiz-adv-x="194" d="M53 661 C53 697 60 726 68 726 C79 726 83 722 85 716 C89 738 99 765 65 765 C38 765 16 719 16 661 C16 661 53 661 53 661 L53 661 Z M105 651 C132 651 154 697 154 755 C154 755 117 755 117 755 C117 719 110 690 102 690 C102 690 105 651 105 651 L105 651 Z M85 700 C84 704 84 710 85 716 C86 712 86 706 85 700 C85 700 85 700 85 700 L85 700 Z M60 581 C60 581 85 581 85 581 C85 581 60 581 60 581 L60 581 Z M60 581 C60 581 30 581 30 581 C30 581 30 568 30 568 C30 568 60 515 60 515 C60 515 60 0 60 0 C60 0 110 0 110 0 C110 0 110 581 110 581 C110 581 60 581 60 581 L60 581 Z " />
<glyph glyph-name="Imacron" unicode="&#x12a;" horiz-adv-x="256" d="M73 891 C73 891 185 891 185 891 C185 891 185 926 185 926 C185 926 73 926 73 926 C73 926 73 891 73 891 L73 891 Z M129 0 C129 0 157 0 157 0 C157 0 187 0 187 0 C187 0 187 13 187 13 C187 13 157 66 157 66 C157 66 157 745 157 745 C157 745 187 798 187 798 C187 798 187 811 187 811 C187 811 157 811 157 811 C157 811 129 811 129 811 C129 811 101 811 101 811 C101 811 71 811 71 811 C71 811 71 798 71 798 C71 798 101 745 101 745 C101 745 101 66 101 66 C101 66 71 13 71 13 C71 13 71 0 71 0 C71 0 101 0 101 0 C101 0 129 0 129 0 L129 0 Z " />
<glyph glyph-name="imacron" unicode="&#x12b;" horiz-adv-x="194" d="M29 661 C29 661 141 661 141 661 C141 661 141 696 141 696 C141 696 29 696 29 696 C29 696 29 661 29 661 L29 661 Z M85 581 C85 581 60 581 60 581 C60 581 30 581 30 581 C30 581 30 568 30 568 C30 568 60 515 60 515 C60 515 60 66 60 66 C60 66 30 13 30 13 C30 13 30 0 30 0 C30 0 60 0 60 0 C60 0 85 0 85 0 C85 0 110 0 110 0 C110 0 140 0 140 0 C140 0 140 13 140 13 C140 13 110 66 110 66 C110 66 110 581 110 581 C110 581 85 581 85 581 L85 581 Z " />
<glyph glyph-name="Ibreve" unicode="&#x12c;" horiz-adv-x="256" d="M68 1006 C68 937 95 881 129 881 C163 881 190 937 190 1006 C190 1006 153 1006 153 1006 C153 956 142 916 129 916 C116 916 105 956 105 1006 C105 1006 68 1006 68 1006 L68 1006 Z M129 0 C129 0 157 0 157 0 C157 0 187 0 187 0 C187 0 187 13 187 13 C187 13 157 66 157 66 C157 66 157 745 157 745 C157 745 187 798 187 798 C187 798 187 811 187 811 C187 811 157 811 157 811 C157 811 129 811 129 811 C129 811 101 811 101 811 C101 811 71 811 71 811 C71 811 71 798 71 798 C71 798 101 745 101 745 C101 745 101 66 101 66 C101 66 71 13 71 13 C71 13 71 0 71 0 C71 0 101 0 101 0 C101 0 129 0 129 0 L129 0 Z " />
<glyph glyph-name="ibreve" unicode="&#x12d;" horiz-adv-x="194" d="M24 776 C24 707 51 651 85 651 C119 651 146 707 146 776 C146 776 109 776 109 776 C109 726 98 686 85 686 C72 686 61 726 61 776 C61 776 24 776 24 776 L24 776 Z M85 581 C85 581 60 581 60 581 C60 581 30 581 30 581 C30 581 30 568 30 568 C30 568 60 515 60 515 C60 515 60 66 60 66 C60 66 30 13 30 13 C30 13 30 0 30 0 C30 0 60 0 60 0 C60 0 85 0 85 0 C85 0 110 0 110 0 C110 0 140 0 140 0 C140 0 140 13 140 13 C140 13 110 66 110 66 C110 66 110 581 110 581 C110 581 85 581 85 581 L85 581 Z " />
<glyph glyph-name="Idotaccent" unicode="&#x130;" horiz-adv-x="256" d="M99 891 C99 891 159 891 159 891 C159 891 159 951 159 951 C159 951 99 951 99 951 C99 951 99 891 99 891 L99 891 Z M129 0 C129 0 157 0 157 0 C157 0 187 0 187 0 C187 0 187 13 187 13 C187 13 157 66 157 66 C157 66 157 745 157 745 C157 745 187 798 187 798 C187 798 187 811 187 811 C187 811 157 811 157 811 C157 811 129 811 129 811 C129 811 101 811 101 811 C101 811 71 811 71 811 C71 811 71 798 71 798 C71 798 101 745 101 745 C101 745 101 66 101 66 C101 66 71 13 71 13 C71 13 71 0 71 0 C71 0 101 0 101 0 C101 0 129 0 129 0 L129 0 Z " />
<glyph glyph-name="dotlessi" unicode="&#x131;" horiz-adv-x="262" d="M142 0 C142 0 192 0 192 0 C192 0 192 581 192 581 C192 581 142 581 142 581 C142 581 142 0 142 0 L142 0 Z " />
<glyph glyph-name="Jcircumflex" unicode="&#x134;" horiz-adv-x="372" d="M260 1002 C260 1002 345 891 345 891 C345 891 391 891 391 891 C391 891 285 1041 285 1041 C285 1041 235 1041 235 1041 C235 1041 129 891 129 891 C129 891 175 891 175 891 C175 891 260 1002 260 1002 L260 1002 Z M67 283 C67 283 67 221 67 221 C67 73 107 -10 177 -10 C245 -10 288 100 288 238 C288 238 288 745 288 745 C288 745 318 798 318 798 C318 798 318 811 318 811 C318 811 288 811 288 811 C288 811 260 811 260 811 C260 811 232 811 232 811 C232 811 202 811 202 811 C202 811 202 798 202 798 C202 798 232 745 232 745 C232 745 232 238 232 238 C232 116 211 18 177 18 C143 18 123 97 123 237 C123 237 123 292 123 292 C123 292 67 283 67 283 L67 283 Z " />
<glyph glyph-name="Lacute" unicode="&#x139;" horiz-adv-x="406" d="M106 891 C106 891 152 891 152 891 C152 891 192 1041 192 1041 C192 1041 127 1041 127 1041 C127 1041 106 891 106 891 L106 891 Z M362 12 C362 12 362 25 362 25 C362 25 362 55 362 55 C362 55 349 55 349 55 C349 55 296 25 296 25 C296 25 157 25 157 25 C157 25 157 745 157 745 C157 745 187 798 187 798 C187 798 187 811 187 811 C187 811 157 811 157 811 C157 811 129 811 129 811 C129 811 101 811 101 811 C101 811 71 811 71 811 C71 811 71 798 71 798 C71 798 101 745 101 745 C101 745 101 66 101 66 C101 66 71 13 71 13 C71 13 71 0 71 0 C71 0 101 0 101 0 C101 0 129 0 129 0 C129 0 157 0 157 0 C157 0 362 0 362 0 C362 0 362 12 362 12 L362 12 Z " />
<glyph glyph-name="lacute" unicode="&#x13a;" horiz-adv-x="281" d="M122 851 C122 851 167 851 167 851 C167 851 207 1001 207 1001 C207 1001 142 1001 142 1001 C142 1001 122 851 122 851 L122 851 Z M157 0 C157 0 182 0 182 0 C182 0 212 0 212 0 C212 0 212 13 212 13 C212 13 182 66 182 66 C182 66 182 801 182 801 C182 801 182 811 182 811 C182 811 157 811 157 811 C157 811 132 811 132 811 C132 811 102 811 102 811 C102 811 102 798 102 798 C102 798 132 745 132 745 C132 745 132 66 132 66 C132 66 102 13 102 13 C102 13 102 0 102 0 C102 0 132 0 132 0 C132 0 157 0 157 0 L157 0 Z " />
<glyph glyph-name="Lcaron" unicode="&#x13d;" horiz-adv-x="406" d="M262 821 C262 821 263 671 263 671 C263 671 300 671 300 671 C300 671 317 821 317 821 C317 821 262 821 262 821 L262 821 Z M362 12 C362 12 362 25 362 25 C362 25 362 55 362 55 C362 55 349 55 349 55 C349 55 296 25 296 25 C296 25 157 25 157 25 C157 25 157 745 157 745 C157 745 187 798 187 798 C187 798 187 811 187 811 C187 811 157 811 157 811 C157 811 129 811 129 811 C129 811 101 811 101 811 C101 811 71 811 71 811 C71 811 71 798 71 798 C71 798 101 745 101 745 C101 745 101 66 101 66 C101 66 71 13 71 13 C71 13 71 0 71 0 C71 0 101 0 101 0 C101 0 129 0 129 0 C129 0 157 0 157 0 C157 0 362 0 362 0 C362 0 362 12 362 12 L362 12 Z " />
<glyph glyph-name="lcaron" unicode="&#x13e;" horiz-adv-x="281" d="M232 821 C232 821 233 671 233 671 C233 671 270 671 270 671 C270 671 286 821 286 821 C286 821 232 821 232 821 L232 821 Z M157 0 C157 0 182 0 182 0 C182 0 212 0 212 0 C212 0 212 13 212 13 C212 13 182 66 182 66 C182 66 182 801 182 801 C182 801 182 811 182 811 C182 811 157 811 157 811 C157 811 132 811 132 811 C132 811 102 811 102 811 C102 811 102 798 102 798 C102 798 132 745 132 745 C132 745 132 66 132 66 C132 66 102 13 102 13 C102 13 102 0 102 0 C102 0 132 0 132 0 C132 0 157 0 157 0 L157 0 Z " />
<glyph glyph-name="Lslash" unicode="&#x141;" horiz-adv-x="406" d="M21 346 C21 346 101 380 101 380 C101 380 101 66 101 66 C101 66 71 13 71 13 C71 13 71 0 71 0 C71 0 101 0 101 0 C101 0 129 0 129 0 C129 0 157 0 157 0 C157 0 362 0 362 0 C362 0 362 12 362 12 C362 12 362 25 362 25 C362 25 362 55 362 55 C362 55 349 55 349 55 C349 55 296 25 296 25 C296 25 157 25 157 25 C157 25 157 403 157 403 C157 403 259 446 259 446 C259 446 259 466 259 466 C259 466 157 423 157 423 C157 423 157 745 157 745 C157 745 187 798 187 798 C187 798 187 811 187 811 C187 811 157 811 157 811 C157 811 129 811 129 811 C129 811 101 811 101 811 C101 811 71 811 71 811 C71 811 71 798 71 798 C71 798 101 745 101 745 C101 745 101 400 101 400 C101 400 21 366 21 366 C21 366 21 346 21 346 L21 346 Z " />
<glyph glyph-name="lslash" unicode="&#x142;" horiz-adv-x="281" d="M52 346 C52 346 132 384 132 384 C132 384 132 66 132 66 C132 66 102 13 102 13 C102 13 102 0 102 0 C102 0 132 0 132 0 C132 0 157 0 157 0 C157 0 182 0 182 0 C182 0 212 0 212 0 C212 0 212 13 212 13 C212 13 182 66 182 66 C182 66 182 408 182 408 C182 408 262 446 262 446 C262 446 262 466 262 466 C262 466 182 428 182 428 C182 428 182 801 182 801 C182 801 182 811 182 811 C182 811 157 811 157 811 C157 811 132 811 132 811 C132 811 102 811 102 811 C102 811 102 798 102 798 C102 798 132 745 132 745 C132 745 132 404 132 404 C132 404 52 366 52 366 C52 366 52 346 52 346 L52 346 Z " />
<glyph glyph-name="Nacute" unicode="&#x143;" horiz-adv-x="533" d="M157 891 C157 891 203 891 203 891 C203 891 243 1041 243 1041 C243 1041 178 1041 178 1041 C178 1041 157 891 157 891 L157 891 Z M404 745 C404 745 404 65 404 65 C404 65 176 811 176 811 C176 811 157 811 157 811 C157 811 142 811 142 811 C142 811 126 811 126 811 C126 811 96 811 96 811 C96 811 96 798 96 798 C96 798 126 745 126 745 C126 745 126 66 126 66 C126 66 96 13 96 13 C96 13 96 0 96 0 C96 0 126 0 126 0 C126 0 142 0 142 0 C142 0 157 0 157 0 C157 0 187 0 187 0 C187 0 187 13 187 13 C187 13 157 66 157 66 C157 66 157 710 157 710 C157 710 374 0 374 0 C374 0 404 0 404 0 C404 0 424 0 424 0 C424 0 434 0 434 0 C434 0 434 745 434 745 C434 745 464 798 464 798 C464 798 464 811 464 811 C464 811 434 811 434 811 C434 811 419 811 419 811 C419 811 404 811 404 811 C404 811 374 811 374 811 C374 811 374 798 374 798 C374 798 404 745 404 745 L404 745 Z " />
<glyph glyph-name="nacute" unicode="&#x144;" horiz-adv-x="428" d="M202 661 C202 661 248 661 248 661 C248 661 288 811 288 811 C288 811 222 811 222 811 C222 811 202 661 202 661 L202 661 Z M324 0 C324 0 349 0 349 0 C349 0 378 0 378 0 C378 0 378 13 378 13 C378 13 349 66 349 66 C349 66 349 376 349 376 C349 504 308 586 256 586 C209 586 168 542 151 478 C151 478 151 571 151 571 C151 571 151 581 151 581 C151 581 126 581 126 581 C126 581 114 581 114 581 C114 581 101 581 101 581 C101 581 72 581 72 581 C72 581 72 568 72 568 C72 568 101 515 101 515 C101 515 101 66 101 66 C101 66 72 13 72 13 C72 13 72 0 72 0 C72 0 101 0 101 0 C101 0 126 0 126 0 C126 0 151 0 151 0 C151 0 181 0 181 0 C181 0 181 13 181 13 C181 13 151 66 151 66 C151 66 151 409 151 409 C151 494 193 562 245 562 C275 562 299 490 299 376 C299 376 299 66 299 66 C299 66 269 13 269 13 C269 13 269 0 269 0 C269 0 299 0 299 0 C299 0 324 0 324 0 L324 0 Z " />
<glyph glyph-name="Ncaron" unicode="&#x147;" horiz-adv-x="533" d="M280 930 C280 930 366 1041 366 1041 C366 1041 411 1041 411 1041 C411 1041 305 891 305 891 C305 891 255 891 255 891 C255 891 149 1041 149 1041 C149 1041 195 1041 195 1041 C195 1041 280 930 280 930 L280 930 Z M404 745 C404 745 404 65 404 65 C404 65 176 811 176 811 C176 811 157 811 157 811 C157 811 142 811 142 811 C142 811 126 811 126 811 C126 811 96 811 96 811 C96 811 96 798 96 798 C96 798 126 745 126 745 C126 745 126 66 126 66 C126 66 96 13 96 13 C96 13 96 0 96 0 C96 0 126 0 126 0 C126 0 142 0 142 0 C142 0 157 0 157 0 C157 0 187 0 187 0 C187 0 187 13 187 13 C187 13 157 66 157 66 C157 66 157 710 157 710 C157 710 374 0 374 0 C374 0 404 0 404 0 C404 0 424 0 424 0 C424 0 434 0 434 0 C434 0 434 745 434 745 C434 745 464 798 464 798 C464 798 464 811 464 811 C464 811 434 811 434 811 C434 811 419 811 419 811 C419 811 404 811 404 811 C404 811 374 811 374 811 C374 811 374 798 374 798 C374 798 404 745 404 745 L404 745 Z " />
<glyph glyph-name="ncaron" unicode="&#x148;" horiz-adv-x="428" d="M225 700 C225 700 310 811 310 811 C310 811 356 811 356 811 C356 811 250 661 250 661 C250 661 200 661 200 661 C200 661 94 811 94 811 C94 811 140 811 140 811 C140 811 225 700 225 700 L225 700 Z M324 0 C324 0 349 0 349 0 C349 0 378 0 378 0 C378 0 378 13 378 13 C378 13 349 66 349 66 C349 66 349 376 349 376 C349 504 308 586 256 586 C209 586 168 542 151 478 C151 478 151 571 151 571 C151 571 151 581 151 581 C151 581 126 581 126 581 C126 581 114 581 114 581 C114 581 101 581 101 581 C101 581 72 581 72 581 C72 581 72 568 72 568 C72 568 101 515 101 515 C101 515 101 66 101 66 C101 66 72 13 72 13 C72 13 72 0 72 0 C72 0 101 0 101 0 C101 0 126 0 126 0 C126 0 151 0 151 0 C151 0 181 0 181 0 C181 0 181 13 181 13 C181 13 151 66 151 66 C151 66 151 409 151 409 C151 494 193 562 245 562 C275 562 299 490 299 376 C299 376 299 66 299 66 C299 66 269 13 269 13 C269 13 269 0 269 0 C269 0 299 0 299 0 C299 0 324 0 324 0 L324 0 Z " />
<glyph glyph-name="Omacron" unicode="&#x14c;" horiz-adv-x="694" d="M302 891 C302 891 414 891 414 891 C414 891 414 926 414 926 C414 926 302 926 302 926 C302 926 302 891 302 891 L302 891 Z M358 15 C234 15 136 189 136 406 C136 612 241 796 358 796 C474 796 579 612 579 406 C579 189 481 15 358 15 L358 15 Z M76 406 C76 175 201 -10 358 -10 C514 -10 639 175 639 406 C639 625 506 821 358 821 C209 821 76 625 76 406 L76 406 Z " />
<glyph glyph-name="omacron" unicode="&#x14d;" horiz-adv-x="470" d="M188 661 C188 661 300 661 300 661 C300 661 300 696 300 696 C300 696 188 696 188 696 C188 696 188 661 188 661 L188 661 Z M244 10 C166 10 122 135 122 291 C122 470 176 571 244 571 C322 571 366 446 366 291 C366 111 312 10 244 10 L244 10 Z M67 291 C67 124 131 -10 244 -10 C342 -10 420 99 420 291 C420 457 356 591 244 591 C146 591 67 482 67 291 L67 291 Z " />
<glyph glyph-name="Obreve" unicode="&#x14e;" horiz-adv-x="694" d="M296 1006 C296 937 323 881 358 881 C392 881 419 937 419 1006 C419 1006 382 1006 382 1006 C382 956 371 916 358 916 C344 916 333 956 333 1006 C333 1006 296 1006 296 1006 L296 1006 Z M358 15 C234 15 136 189 136 406 C136 612 241 796 358 796 C474 796 579 612 579 406 C579 189 481 15 358 15 L358 15 Z M76 406 C76 175 201 -10 358 -10 C514 -10 639 175 639 406 C639 625 506 821 358 821 C209 821 76 625 76 406 L76 406 Z " />
<glyph glyph-name="obreve" unicode="&#x14f;" horiz-adv-x="470" d="M182 776 C182 707 209 651 244 651 C278 651 305 707 305 776 C305 776 268 776 268 776 C268 726 257 686 244 686 C230 686 219 726 219 776 C219 776 182 776 182 776 L182 776 Z M244 10 C166 10 122 135 122 291 C122 470 176 571 244 571 C322 571 366 446 366 291 C366 111 312 10 244 10 L244 10 Z M67 291 C67 124 131 -10 244 -10 C342 -10 420 99 420 291 C420 457 356 591 244 591 C146 591 67 482 67 291 L67 291 Z " />
<glyph glyph-name="Racute" unicode="&#x154;" horiz-adv-x="533" d="M279 891 C279 891 325 891 325 891 C325 891 365 1041 365 1041 C365 1041 299 1041 299 1041 C299 1041 279 891 279 891 L279 891 Z M466 66 C466 66 466 66 466 66 C466 66 331 351 331 351 C331 351 293 351 293 351 C410 351 484 435 484 568 C484 716 410 811 293 811 C293 811 176 811 176 811 C176 811 148 811 148 811 C148 811 134 811 134 811 C134 811 120 811 120 811 C120 811 90 811 90 811 C90 811 90 798 90 798 C90 798 120 745 120 745 C120 745 120 66 120 66 C120 66 90 13 90 13 C90 13 90 0 90 0 C90 0 120 0 120 0 C120 0 148 0 148 0 C148 0 176 0 176 0 C176 0 206 0 206 0 C206 0 206 13 206 13 C206 13 176 66 176 66 C176 66 176 351 176 351 C176 351 267 351 267 351 C267 351 433 0 433 0 C433 0 465 0 465 0 C465 0 497 0 497 0 C497 0 521 0 521 0 C521 0 521 13 521 13 C521 13 466 66 466 66 L466 66 Z M176 375 C176 375 176 788 176 788 C176 788 292 788 292 788 C375 788 428 702 428 568 C428 450 376 375 294 375 C294 375 176 375 176 375 L176 375 Z " />
<glyph glyph-name="racute" unicode="&#x155;" horiz-adv-x="244" d="M140 661 C140 661 186 661 186 661 C186 661 225 811 225 811 C225 811 160 811 160 811 C160 811 140 661 140 661 L140 661 Z M224 552 C224 552 224 581 224 581 C224 581 220 581 220 581 C186 581 163 530 151 454 C151 454 151 571 151 571 C151 571 151 581 151 581 C151 581 126 581 126 581 C126 581 114 581 114 581 C114 581 101 581 101 581 C101 581 72 581 72 581 C72 581 72 568 72 568 C72 568 101 515 101 515 C101 515 101 66 101 66 C101 66 72 13 72 13 C72 13 72 0 72 0 C72 0 101 0 101 0 C101 0 126 0 126 0 C126 0 151 0 151 0 C151 0 181 0 181 0 C181 0 181 13 181 13 C181 13 151 66 151 66 C151 66 151 319 151 319 C151 449 173 552 217 552 C217 552 224 552 224 552 L224 552 Z " />
<glyph glyph-name="Rcaron" unicode="&#x158;" horiz-adv-x="533" d="M302 930 C302 930 387 1041 387 1041 C387 1041 433 1041 433 1041 C433 1041 327 891 327 891 C327 891 277 891 277 891 C277 891 171 1041 171 1041 C171 1041 217 1041 217 1041 C217 1041 302 930 302 930 L302 930 Z M466 66 C466 66 466 66 466 66 C466 66 331 351 331 351 C331 351 293 351 293 351 C410 351 484 435 484 568 C484 716 410 811 293 811 C293 811 176 811 176 811 C176 811 148 811 148 811 C148 811 134 811 134 811 C134 811 120 811 120 811 C120 811 90 811 90 811 C90 811 90 798 90 798 C90 798 120 745 120 745 C120 745 120 66 120 66 C120 66 90 13 90 13 C90 13 90 0 90 0 C90 0 120 0 120 0 C120 0 148 0 148 0 C148 0 176 0 176 0 C176 0 206 0 206 0 C206 0 206 13 206 13 C206 13 176 66 176 66 C176 66 176 351 176 351 C176 351 267 351 267 351 C267 351 433 0 433 0 C433 0 465 0 465 0 C465 0 497 0 497 0 C497 0 521 0 521 0 C521 0 521 13 521 13 C521 13 466 66 466 66 L466 66 Z M176 375 C176 375 176 788 176 788 C176 788 292 788 292 788 C375 788 428 702 428 568 C428 450 376 375 294 375 C294 375 176 375 176 375 L176 375 Z " />
<glyph glyph-name="rcaron" unicode="&#x159;" horiz-adv-x="244" d="M163 700 C163 700 248 811 248 811 C248 811 294 811 294 811 C294 811 188 661 188 661 C188 661 138 661 138 661 C138 661 32 811 32 811 C32 811 77 811 77 811 C77 811 163 700 163 700 L163 700 Z M224 552 C224 552 224 581 224 581 C224 581 220 581 220 581 C186 581 163 530 151 454 C151 454 151 571 151 571 C151 571 151 581 151 581 C151 581 126 581 126 581 C126 581 114 581 114 581 C114 581 101 581 101 581 C101 581 72 581 72 581 C72 581 72 568 72 568 C72 568 101 515 101 515 C101 515 101 66 101 66 C101 66 72 13 72 13 C72 13 72 0 72 0 C72 0 101 0 101 0 C101 0 126 0 126 0 C126 0 151 0 151 0 C151 0 181 0 181 0 C181 0 181 13 181 13 C181 13 151 66 151 66 C151 66 151 319 151 319 C151 449 173 552 217 552 C217 552 224 552 224 552 L224 552 Z " />
<glyph glyph-name="Sacute" unicode="&#x15a;" horiz-adv-x="431" d="M183 891 C183 891 229 891 229 891 C229 891 269 1041 269 1041 C269 1041 203 1041 203 1041 C203 1041 183 891 183 891 L183 891 Z M60 146 C66 97 89 57 123 30 C123 29 123 29 123 29 C123 29 123 29 123 29 C155 4 195 -10 240 -10 C335 -10 396 95 396 227 C396 317 330 402 226 446 C157 475 113 534 113 598 C113 707 149 794 193 794 C235 794 273 778 298 750 C298 750 328 693 328 693 C331 682 333 669 333 655 C333 655 344 665 344 665 C344 665 344 664 344 664 C344 664 354 674 354 674 C354 674 354 704 354 704 C354 704 351 704 351 704 C344 743 321 774 289 794 C289 795 289 795 289 795 C289 795 289 795 289 795 C262 812 229 821 193 821 C117 821 56 719 56 592 C56 508 116 429 211 389 C290 356 340 292 340 225 C340 109 301 17 240 17 C189 17 144 41 116 82 C116 82 89 142 89 142 C85 158 83 176 83 194 C83 194 70 184 70 184 C70 184 70 185 70 185 C70 185 58 175 58 175 C58 175 58 146 58 146 C58 146 60 146 60 146 L60 146 Z " />
<glyph glyph-name="sacute" unicode="&#x15b;" horiz-adv-x="385" d="M183 661 C183 661 229 661 229 661 C229 661 269 811 269 811 C269 811 204 811 204 811 C204 811 183 661 183 661 L183 661 Z M50 108 C66 43 129 -5 207 -5 C289 -5 355 67 355 158 C355 216 300 282 213 313 C157 332 122 381 122 428 C122 505 159 566 206 566 C233 566 258 554 277 534 C277 534 313 464 313 464 C315 454 316 442 316 431 C316 431 327 436 327 436 C327 436 338 441 338 441 C338 441 338 471 338 471 C338 471 335 471 335 471 C328 511 305 545 274 565 C273 566 273 567 273 567 C273 567 273 566 273 566 C253 579 230 586 206 586 C133 586 74 514 74 424 C74 362 123 295 201 268 C264 246 305 197 305 153 C305 77 262 16 207 16 C165 16 128 34 104 62 C104 62 78 108 78 108 C74 120 72 133 72 147 C72 147 47 138 47 138 C47 138 47 108 47 108 C47 108 50 108 50 108 L50 108 Z " />
<glyph glyph-name="Scircumflex" unicode="&#x15c;" horiz-adv-x="431" d="M206 1002 C206 1002 291 891 291 891 C291 891 337 891 337 891 C337 891 231 1041 231 1041 C231 1041 181 1041 181 1041 C181 1041 75 891 75 891 C75 891 121 891 121 891 C121 891 206 1002 206 1002 L206 1002 Z M60 146 C66 97 89 57 123 30 C123 29 123 29 123 29 C123 29 123 29 123 29 C155 4 195 -10 240 -10 C335 -10 396 95 396 227 C396 317 330 402 226 446 C157 475 113 534 113 598 C113 707 149 794 193 794 C235 794 273 778 298 750 C298 750 328 693 328 693 C331 682 333 669 333 655 C333 655 344 665 344 665 C344 665 344 664 344 664 C344 664 354 674 354 674 C354 674 354 704 354 704 C354 704 351 704 351 704 C344 743 321 774 289 794 C289 795 289 795 289 795 C289 795 289 795 289 795 C262 812 229 821 193 821 C117 821 56 719 56 592 C56 508 116 429 211 389 C290 356 340 292 340 225 C340 109 301 17 240 17 C189 17 144 41 116 82 C116 82 89 142 89 142 C85 158 83 176 83 194 C83 194 70 184 70 184 C70 184 70 185 70 185 C70 185 58 175 58 175 C58 175 58 146 58 146 C58 146 60 146 60 146 L60 146 Z " />
<glyph glyph-name="Scedilla" unicode="&#x15e;" horiz-adv-x="431" d="M214 -107 C216 -99 222 -93 227 -93 C236 -93 243 -116 243 -146 C243 -175 235 -198 226 -198 C220 -198 213 -184 210 -168 C210 -168 200 -176 200 -176 C204 -201 216 -222 227 -222 C252 -222 271 -188 271 -146 C271 -109 253 -80 230 -80 C224 -80 220 -86 217 -94 C217 -94 241 -10 241 -10 C335 -10 396 95 396 227 C396 317 330 402 226 446 C157 475 113 534 113 598 C113 707 149 794 193 794 C235 794 273 778 298 750 C298 750 328 693 328 693 C331 682 333 669 333 655 C333 655 344 665 344 665 C344 665 344 664 344 664 C344 664 354 674 354 674 C354 674 354 704 354 704 C354 704 351 704 351 704 C344 743 321 774 289 794 C289 795 289 795 289 795 C289 795 289 795 289 795 C262 812 229 821 193 821 C117 821 56 719 56 592 C56 508 116 429 211 389 C290 356 340 292 340 225 C340 109 301 17 240 17 C189 17 144 41 116 82 C116 82 89 142 89 142 C85 158 83 176 83 194 C83 194 70 184 70 184 C70 184 70 185 70 185 C70 185 58 175 58 175 C58 175 58 146 58 146 C58 146 60 146 60 146 C66 97 89 57 123 30 C123 29 123 29 123 29 C123 29 123 29 123 29 C153 6 190 -8 232 -10 C232 -10 205 -104 205 -104 C205 -104 213 -109 213 -109 C213 -109 214 -107 214 -107 L214 -107 Z " />
<glyph glyph-name="scedilla" unicode="&#x15f;" horiz-adv-x="385" d="M181 -107 C183 -99 189 -93 194 -93 C203 -93 210 -116 210 -146 C210 -175 202 -198 193 -198 C187 -198 180 -184 177 -168 C177 -168 166 -176 166 -176 C170 -201 182 -222 194 -222 C219 -222 238 -188 238 -146 C238 -109 220 -80 197 -80 C191 -80 187 -87 184 -95 C184 -95 208 -5 208 -5 C290 -4 355 68 355 158 C355 216 300 282 213 313 C157 332 122 381 122 428 C122 505 159 566 206 566 C233 566 258 554 277 534 C277 534 313 464 313 464 C315 454 316 442 316 431 C316 431 327 436 327 436 C327 436 338 441 338 441 C338 441 338 471 338 471 C338 471 335 471 335 471 C328 511 305 545 274 565 C273 566 273 567 273 567 C273 567 273 566 273 566 C253 579 230 586 206 586 C133 586 74 514 74 424 C74 362 123 295 201 268 C264 246 305 197 305 153 C305 77 262 16 207 16 C165 16 128 34 104 62 C104 62 78 108 78 108 C74 120 72 133 72 147 C72 147 47 138 47 138 C47 138 47 108 47 108 C47 108 50 108 50 108 C65 45 125 -1 199 -5 C199 -5 172 -104 172 -104 C172 -104 180 -109 180 -109 C180 -109 181 -107 181 -107 L181 -107 Z " />
<glyph glyph-name="Scaron" unicode="&#x160;" horiz-adv-x="431" d="M206 930 C206 930 291 1041 291 1041 C291 1041 337 1041 337 1041 C337 1041 231 891 231 891 C231 891 181 891 181 891 C181 891 75 1041 75 1041 C75 1041 121 1041 121 1041 C121 1041 206 930 206 930 L206 930 Z M60 146 C66 97 89 57 123 30 C123 29 123 29 123 29 C123 29 123 29 123 29 C155 4 195 -10 240 -10 C335 -10 396 95 396 227 C396 317 330 402 226 446 C157 475 113 534 113 598 C113 707 149 794 193 794 C235 794 273 778 298 750 C298 750 328 693 328 693 C331 682 333 669 333 655 C333 655 344 665 344 665 C344 665 344 664 344 664 C344 664 354 674 354 674 C354 674 354 704 354 704 C354 704 351 704 351 704 C344 743 321 774 289 794 C289 795 289 795 289 795 C289 795 289 795 289 795 C262 812 229 821 193 821 C117 821 56 719 56 592 C56 508 116 429 211 389 C290 356 340 292 340 225 C340 109 301 17 240 17 C189 17 144 41 116 82 C116 82 89 142 89 142 C85 158 83 176 83 194 C83 194 70 184 70 184 C70 184 70 185 70 185 C70 185 58 175 58 175 C58 175 58 146 58 146 C58 146 60 146 60 146 L60 146 Z " />
<glyph glyph-name="scaron" unicode="&#x161;" horiz-adv-x="385" d="M206 700 C206 700 292 811 292 811 C292 811 337 811 337 811 C337 811 231 661 231 661 C231 661 181 661 181 661 C181 661 75 811 75 811 C75 811 121 811 121 811 C121 811 206 700 206 700 L206 700 Z M50 108 C66 43 129 -5 207 -5 C289 -5 355 67 355 158 C355 216 300 282 213 313 C157 332 122 381 122 428 C122 505 159 566 206 566 C233 566 258 554 277 534 C277 534 313 464 313 464 C315 454 316 442 316 431 C316 431 327 436 327 436 C327 436 338 441 338 441 C338 441 338 471 338 471 C338 471 335 471 335 471 C328 511 305 545 274 565 C273 566 273 567 273 567 C273 567 273 566 273 566 C253 579 230 586 206 586 C133 586 74 514 74 424 C74 362 123 295 201 268 C264 246 305 197 305 153 C305 77 262 16 207 16 C165 16 128 34 104 62 C104 62 78 108 78 108 C74 120 72 133 72 147 C72 147 47 138 47 138 C47 138 47 108 47 108 C47 108 50 108 50 108 L50 108 Z " />
<glyph glyph-name="Tcaron" unicode="&#x164;" horiz-adv-x="475" d="M238 930 C238 930 323 1041 323 1041 C323 1041 369 1041 369 1041 C369 1041 263 891 263 891 C263 891 212 891 212 891 C212 891 107 1041 107 1041 C107 1041 152 1041 152 1041 C152 1041 238 930 238 930 L238 930 Z M238 0 C238 0 265 0 265 0 C265 0 295 0 295 0 C296 0 296 1 295 1 C296 8 296 13 295 13 C295 13 265 66 265 66 C265 66 265 786 265 786 C265 786 399 786 399 786 C399 786 452 756 452 756 C452 756 465 756 465 756 C465 756 465 786 465 786 C465 786 465 799 465 799 C465 799 465 811 465 811 C465 811 265 811 265 811 C265 811 210 811 210 811 C210 811 10 811 10 811 C10 811 10 799 10 799 C10 799 10 786 10 786 C10 786 10 756 10 756 C10 756 23 756 23 756 C23 756 76 786 76 786 C76 786 210 786 210 786 C210 786 210 66 210 66 C210 66 180 13 180 13 C180 13 180 0 180 0 C180 0 210 0 210 0 C210 0 237 0 237 0 C237 0 238 0 238 0 L238 0 Z " />
<glyph glyph-name="tcaron" unicode="&#x165;" horiz-adv-x="225" d="M168 821 C168 821 169 671 169 671 C169 671 206 671 206 671 C206 671 223 821 223 821 C223 821 168 821 168 821 L168 821 Z M195 581 C195 581 118 581 118 581 C118 581 118 774 118 774 C118 774 68 732 68 732 C68 732 68 581 68 581 C68 581 10 581 10 581 C10 581 10 560 10 560 C10 560 68 560 68 560 C68 560 68 137 68 137 C68 42 75 0 132 0 C132 0 195 0 195 0 C195 0 195 22 195 22 C195 22 144 22 144 22 C121 22 118 57 118 137 C118 137 118 560 118 560 C118 560 195 560 195 560 C195 560 195 581 195 581 L195 581 Z " />
<glyph glyph-name="Utilde" unicode="&#x168;" horiz-adv-x="562" d="M258 881 C258 917 265 946 274 946 C284 946 289 943 291 938 C295 959 304 985 270 985 C243 985 221 939 221 881 C221 881 258 881 258 881 L258 881 Z M310 871 C337 871 359 917 359 975 C359 975 322 975 322 975 C322 939 315 910 307 910 C297 910 292 913 290 919 C286 897 276 871 310 871 L310 871 Z M290 919 C289 924 289 930 291 938 C292 933 292 926 290 919 L290 919 Z M113 745 C113 745 113 317 113 317 C113 117 182 -10 290 -10 C398 -10 467 117 467 318 C467 318 467 745 467 745 C467 745 497 798 497 798 C498 798 498 803 497 810 C498 811 498 811 497 811 C497 811 467 811 467 811 C467 811 452 811 452 811 C452 811 437 811 437 811 C437 811 407 811 407 811 C407 811 407 798 407 798 C407 798 437 745 437 745 C437 745 437 323 437 323 C437 137 380 18 290 18 C216 18 169 138 169 326 C169 326 169 745 169 745 C169 745 199 798 199 798 C199 798 199 811 199 811 C199 811 169 811 169 811 C169 811 141 811 141 811 C141 811 113 811 113 811 C113 811 83 811 83 811 C83 811 83 798 83 798 C83 798 113 745 113 745 L113 745 Z " />
<glyph glyph-name="utilde" unicode="&#x169;" horiz-adv-x="427" d="M188 661 C188 697 195 726 203 726 C213 726 218 723 220 717 C224 739 234 765 200 765 C173 765 151 719 151 661 C151 661 188 661 188 661 L188 661 Z M240 651 C267 651 289 697 289 755 C289 755 252 755 252 755 C252 719 245 690 236 690 C226 690 221 693 219 698 C215 677 206 651 240 651 L240 651 Z M219 698 C218 703 218 710 220 717 C221 712 221 706 219 698 C219 698 219 698 219 698 L219 698 Z M343 66 C343 66 343 581 343 581 C343 581 318 581 318 581 C318 581 293 581 293 581 C293 581 263 581 263 581 C263 581 263 568 263 568 C263 568 293 515 293 515 C293 515 293 147 293 147 C293 74 257 15 211 15 C164 15 146 76 146 172 C146 172 146 581 146 581 C146 581 121 581 121 581 C121 581 96 581 96 581 C96 581 67 581 67 581 C67 581 67 568 67 568 C67 568 96 515 96 515 C96 515 96 172 96 172 C96 61 126 -10 203 -10 C244 -10 279 30 293 88 C293 88 293 10 293 10 C293 10 293 0 293 0 C293 0 318 0 318 0 C318 0 343 0 343 0 C343 0 373 0 373 0 C373 0 373 13 373 13 C373 13 343 66 343 66 L343 66 Z " />
<glyph glyph-name="Umacron" unicode="&#x16a;" horiz-adv-x="562" d="M234 881 C234 881 346 881 346 881 C346 881 346 916 346 916 C346 916 234 916 234 916 C234 916 234 881 234 881 L234 881 Z M113 745 C113 745 113 317 113 317 C113 117 182 -10 290 -10 C398 -10 467 117 467 318 C467 318 467 745 467 745 C467 745 497 798 497 798 C498 798 498 803 497 810 C498 811 498 811 497 811 C497 811 467 811 467 811 C467 811 452 811 452 811 C452 811 437 811 437 811 C437 811 407 811 407 811 C407 811 407 798 407 798 C407 798 437 745 437 745 C437 745 437 323 437 323 C437 137 380 18 290 18 C216 18 169 138 169 326 C169 326 169 745 169 745 C169 745 199 798 199 798 C199 798 199 811 199 811 C199 811 169 811 169 811 C169 811 141 811 141 811 C141 811 113 811 113 811 C113 811 83 811 83 811 C83 811 83 798 83 798 C83 798 113 745 113 745 L113 745 Z " />
<glyph glyph-name="umacron" unicode="&#x16b;" horiz-adv-x="427" d="M164 661 C164 661 276 661 276 661 C276 661 276 696 276 696 C276 696 164 696 164 696 C164 696 164 661 164 661 L164 661 Z M343 66 C343 66 343 581 343 581 C343 581 318 581 318 581 C318 581 293 581 293 581 C293 581 263 581 263 581 C263 581 263 568 263 568 C263 568 293 515 293 515 C293 515 293 147 293 147 C293 74 257 15 211 15 C164 15 146 76 146 172 C146 172 146 581 146 581 C146 581 121 581 121 581 C121 581 96 581 96 581 C96 581 67 581 67 581 C67 581 67 568 67 568 C67 568 96 515 96 515 C96 515 96 172 96 172 C96 61 126 -10 203 -10 C244 -10 279 30 293 88 C293 88 293 10 293 10 C293 10 293 0 293 0 C293 0 318 0 318 0 C318 0 343 0 343 0 C343 0 373 0 373 0 C373 0 373 13 373 13 C373 13 343 66 343 66 L343 66 Z " />
<glyph glyph-name="Ubreve" unicode="&#x16c;" horiz-adv-x="562" d="M229 996 C229 927 256 871 290 871 C324 871 351 927 351 996 C351 996 314 996 314 996 C314 946 303 906 290 906 C277 906 266 946 266 996 C266 996 229 996 229 996 L229 996 Z M113 745 C113 745 113 317 113 317 C113 117 182 -10 290 -10 C398 -10 467 117 467 318 C467 318 467 745 467 745 C467 745 497 798 497 798 C498 798 498 803 497 810 C498 811 498 811 497 811 C497 811 467 811 467 811 C467 811 452 811 452 811 C452 811 437 811 437 811 C437 811 407 811 407 811 C407 811 407 798 407 798 C407 798 437 745 437 745 C437 745 437 323 437 323 C437 137 380 18 290 18 C216 18 169 138 169 326 C169 326 169 745 169 745 C169 745 199 798 199 798 C199 798 199 811 199 811 C199 811 169 811 169 811 C169 811 141 811 141 811 C141 811 113 811 113 811 C113 811 83 811 83 811 C83 811 83 798 83 798 C83 798 113 745 113 745 L113 745 Z " />
<glyph glyph-name="ubreve" unicode="&#x16d;" horiz-adv-x="427" d="M158 776 C158 707 185 651 220 651 C254 651 281 707 281 776 C281 776 244 776 244 776 C244 726 233 686 220 686 C206 686 195 726 195 776 C195 776 158 776 158 776 L158 776 Z M343 66 C343 66 343 581 343 581 C343 581 318 581 318 581 C318 581 293 581 293 581 C293 581 263 581 263 581 C263 581 263 568 263 568 C263 568 293 515 293 515 C293 515 293 147 293 147 C293 74 257 15 211 15 C164 15 146 76 146 172 C146 172 146 581 146 581 C146 581 121 581 121 581 C121 581 96 581 96 581 C96 581 67 581 67 581 C67 581 67 568 67 568 C67 568 96 515 96 515 C96 515 96 172 96 172 C96 61 126 -10 203 -10 C244 -10 279 30 293 88 C293 88 293 10 293 10 C293 10 293 0 293 0 C293 0 318 0 318 0 C318 0 343 0 343 0 C343 0 373 0 373 0 C373 0 373 13 373 13 C373 13 343 66 343 66 L343 66 Z " />
<glyph glyph-name="Uring" unicode="&#x16e;" horiz-adv-x="562" d="M290 904 C256 904 234 928 234 966 C234 1002 257 1028 290 1028 C323 1028 346 1002 346 966 C346 928 324 904 290 904 L290 904 Z M209 966 C209 914 241 881 290 881 C340 881 371 914 371 966 C371 1016 337 1051 290 1051 C243 1051 209 1016 209 966 L209 966 Z M113 745 C113 745 113 317 113 317 C113 117 182 -10 290 -10 C398 -10 467 117 467 318 C467 318 467 745 467 745 C467 745 497 798 497 798 C498 798 498 803 497 810 C498 811 498 811 497 811 C497 811 467 811 467 811 C467 811 452 811 452 811 C452 811 437 811 437 811 C437 811 407 811 407 811 C407 811 407 798 407 798 C407 798 437 745 437 745 C437 745 437 323 437 323 C437 137 380 18 290 18 C216 18 169 138 169 326 C169 326 169 745 169 745 C169 745 199 798 199 798 C199 798 199 811 199 811 C199 811 169 811 169 811 C169 811 141 811 141 811 C141 811 113 811 113 811 C113 811 83 811 83 811 C83 811 83 798 83 798 C83 798 113 745 113 745 L113 745 Z " />
<glyph glyph-name="uring" unicode="&#x16f;" horiz-adv-x="427" d="M220 684 C186 684 164 708 164 746 C164 782 187 808 220 808 C253 808 276 782 276 746 C276 708 254 684 220 684 L220 684 Z M139 746 C139 694 170 661 220 661 C269 661 301 694 301 746 C301 796 267 831 220 831 C173 831 139 796 139 746 L139 746 Z M343 66 C343 66 343 581 343 581 C343 581 318 581 318 581 C318 581 293 581 293 581 C293 581 263 581 263 581 C263 581 263 568 263 568 C263 568 293 515 293 515 C293 515 293 147 293 147 C293 74 257 15 211 15 C164 15 146 76 146 172 C146 172 146 581 146 581 C146 581 121 581 121 581 C121 581 96 581 96 581 C96 581 67 581 67 581 C67 581 67 568 67 568 C67 568 96 515 96 515 C96 515 96 172 96 172 C96 61 126 -10 203 -10 C244 -10 279 30 293 88 C293 88 293 10 293 10 C293 10 293 0 293 0 C293 0 318 0 318 0 C318 0 343 0 343 0 C343 0 373 0 373 0 C373 0 373 13 373 13 C373 13 343 66 343 66 L343 66 Z " />
<glyph glyph-name="Wcircumflex" unicode="&#x174;" horiz-adv-x="677" d="M350 1002 C350 1002 435 891 435 891 C435 891 481 891 481 891 C481 891 375 1041 375 1041 C375 1041 324 1041 324 1041 C324 1041 219 891 219 891 C219 891 264 891 264 891 C264 891 350 1002 350 1002 L350 1002 Z M628 745 C628 745 666 798 666 798 C666 798 666 811 666 811 C666 811 638 811 638 811 C638 811 622 811 622 811 C622 811 605 811 605 811 C605 811 575 811 575 811 C576 811 576 811 575 810 C576 803 576 798 575 798 C575 798 596 746 596 746 C596 746 502 90 502 90 C502 90 389 811 389 811 C389 811 364 811 364 811 C364 811 335 811 335 811 C335 811 223 91 223 91 C223 91 130 746 130 746 C130 746 151 798 151 798 C151 798 151 811 151 811 C151 811 121 811 121 811 C121 811 91 811 91 811 C91 811 61 811 61 811 C61 811 33 811 33 811 C33 811 33 798 33 798 C33 798 71 745 71 745 C71 745 182 0 182 0 C182 0 209 0 209 0 C209 0 236 0 236 0 C236 0 349 719 349 719 C349 719 462 0 462 0 C462 0 489 0 489 0 C489 0 516 0 516 0 C516 0 628 745 628 745 L628 745 Z " />
<glyph glyph-name="Ycircumflex" unicode="&#x176;" horiz-adv-x="512" d="M269 1002 C269 1002 354 891 354 891 C354 891 400 891 400 891 C400 891 294 1041 294 1041 C294 1041 244 1041 244 1041 C244 1041 138 891 138 891 C138 891 184 891 184 891 C184 891 269 1002 269 1002 L269 1002 Z M244 66 C244 66 214 13 214 13 C214 13 214 0 214 0 C214 0 244 0 244 0 C244 0 272 0 272 0 C272 0 300 0 300 0 C300 0 330 0 330 0 C330 0 330 13 330 13 C330 13 300 66 300 66 C300 66 300 377 300 377 C300 377 459 745 459 745 C459 745 459 745 459 745 C459 745 512 798 512 798 C512 798 512 811 512 811 C512 811 487 811 487 811 C487 811 473 811 473 811 C473 811 458 811 458 811 C458 811 428 811 428 811 C428 811 428 798 428 798 C428 798 430 746 430 746 C430 746 282 401 282 401 C282 401 133 745 133 745 C133 745 133 745 133 745 C133 745 134 798 134 798 C134 798 134 811 134 811 C134 811 104 811 104 811 C104 811 77 811 77 811 C77 811 50 811 50 811 C50 811 26 811 26 811 C26 811 26 798 26 798 C26 798 79 745 79 745 C79 745 244 369 244 369 C244 369 244 66 244 66 L244 66 Z " />
<glyph glyph-name="Ydieresis" unicode="&#x178;" horiz-adv-x="512" d="M302 891 C302 891 362 891 362 891 C362 891 362 951 362 951 C362 951 302 951 302 951 C302 951 302 891 302 891 L302 891 Z M175 891 C175 891 235 891 235 891 C235 891 235 951 235 951 C235 951 175 951 175 951 C175 951 175 891 175 891 L175 891 Z M244 66 C244 66 214 13 214 13 C214 13 214 0 214 0 C214 0 244 0 244 0 C244 0 272 0 272 0 C272 0 300 0 300 0 C300 0 330 0 330 0 C330 0 330 13 330 13 C330 13 300 66 300 66 C300 66 300 377 300 377 C300 377 459 745 459 745 C459 745 459 745 459 745 C459 745 512 798 512 798 C512 798 512 811 512 811 C512 811 487 811 487 811 C487 811 473 811 473 811 C473 811 458 811 458 811 C458 811 428 811 428 811 C428 811 428 798 428 798 C428 798 430 746 430 746 C430 746 282 401 282 401 C282 401 133 745 133 745 C133 745 133 745 133 745 C133 745 134 798 134 798 C134 798 134 811 134 811 C134 811 104 811 104 811 C104 811 77 811 77 811 C77 811 50 811 50 811 C50 811 26 811 26 811 C26 811 26 798 26 798 C26 798 79 745 79 745 C79 745 244 369 244 369 C244 369 244 66 244 66 L244 66 Z " />
<glyph glyph-name="Zacute" unicode="&#x179;" horiz-adv-x="535" d="M252 891 C252 891 298 891 298 891 C298 891 338 1041 338 1041 C338 1041 272 1041 272 1041 C272 1041 252 891 252 891 L252 891 Z M490 12 C490 12 490 25 490 25 C490 25 490 55 490 55 C490 55 477 55 477 55 C477 55 424 25 424 25 C424 25 103 25 103 25 C103 25 490 786 490 786 C490 786 490 811 490 811 C490 811 60 811 60 811 C60 811 60 799 60 799 C60 799 60 786 60 786 C60 786 60 756 60 756 C60 756 73 756 73 756 C73 756 126 786 126 786 C126 786 432 786 432 786 C432 786 45 25 45 25 C45 25 45 0 45 0 C45 0 490 0 490 0 C490 0 490 12 490 12 L490 12 Z " />
<glyph glyph-name="zacute" unicode="&#x17a;" horiz-adv-x="340" d="M160 661 C160 661 205 661 205 661 C205 661 245 811 245 811 C245 811 180 811 180 811 C180 811 160 661 160 661 L160 661 Z M45 581 C45 581 45 570 45 570 C45 570 45 560 45 560 C45 560 45 530 45 530 C45 530 58 530 58 530 C58 530 111 560 111 560 C111 560 245 560 245 560 C245 560 30 17 30 17 C30 17 30 0 30 0 C30 0 320 0 320 0 C320 0 320 11 320 11 C320 11 320 21 320 21 C320 21 320 51 320 51 C320 51 307 51 307 51 C307 51 254 21 254 21 C254 21 85 21 85 21 C85 21 88 22 88 22 C88 22 304 565 304 565 C304 565 304 581 304 581 C304 581 45 581 45 581 L45 581 Z " />
<glyph glyph-name="Zdotaccent" unicode="&#x17b;" horiz-adv-x="535" d="M245 891 C245 891 305 891 305 891 C305 891 305 951 305 951 C305 951 245 951 245 951 C245 951 245 891 245 891 L245 891 Z M490 12 C490 12 490 25 490 25 C490 25 490 55 490 55 C490 55 477 55 477 55 C477 55 424 25 424 25 C424 25 103 25 103 25 C103 25 490 786 490 786 C490 786 490 811 490 811 C490 811 60 811 60 811 C60 811 60 799 60 799 C60 799 60 786 60 786 C60 786 60 756 60 756 C60 756 73 756 73 756 C73 756 126 786 126 786 C126 786 432 786 432 786 C432 786 45 25 45 25 C45 25 45 0 45 0 C45 0 490 0 490 0 C490 0 490 12 490 12 L490 12 Z " />
<glyph glyph-name="zdotaccent" unicode="&#x17c;" horiz-adv-x="340" d="M153 661 C153 661 213 661 213 661 C213 661 213 721 213 721 C213 721 153 721 153 721 C153 721 153 661 153 661 L153 661 Z M45 581 C45 581 45 570 45 570 C45 570 45 560 45 560 C45 560 45 530 45 530 C45 530 58 530 58 530 C58 530 111 560 111 560 C111 560 245 560 245 560 C245 560 30 17 30 17 C30 17 30 0 30 0 C30 0 320 0 320 0 C320 0 320 11 320 11 C320 11 320 21 320 21 C320 21 320 51 320 51 C320 51 307 51 307 51 C307 51 254 21 254 21 C254 21 85 21 85 21 C85 21 88 22 88 22 C88 22 304 565 304 565 C304 565 304 581 304 581 C304 581 45 581 45 581 L45 581 Z " />
<glyph glyph-name="Zcaron" unicode="&#x17d;" horiz-adv-x="535" d="M275 930 C275 930 360 1041 360 1041 C360 1041 406 1041 406 1041 C406 1041 300 891 300 891 C300 891 250 891 250 891 C250 891 144 1041 144 1041 C144 1041 190 1041 190 1041 C190 1041 275 930 275 930 L275 930 Z M490 12 C490 12 490 25 490 25 C490 25 490 55 490 55 C490 55 477 55 477 55 C477 55 424 25 424 25 C424 25 103 25 103 25 C103 25 490 786 490 786 C490 786 490 811 490 811 C490 811 60 811 60 811 C60 811 60 799 60 799 C60 799 60 786 60 786 C60 786 60 756 60 756 C60 756 73 756 73 756 C73 756 126 786 126 786 C126 786 432 786 432 786 C432 786 45 25 45 25 C45 25 45 0 45 0 C45 0 490 0 490 0 C490 0 490 12 490 12 L490 12 Z " />
<glyph glyph-name="zcaron" unicode="&#x17e;" horiz-adv-x="340" d="M183 700 C183 700 268 811 268 811 C268 811 314 811 314 811 C314 811 208 661 208 661 C208 661 157 661 157 661 C157 661 52 811 52 811 C52 811 97 811 97 811 C97 811 183 700 183 700 L183 700 Z M45 581 C45 581 45 570 45 570 C45 570 45 560 45 560 C45 560 45 530 45 530 C45 530 58 530 58 530 C58 530 111 560 111 560 C111 560 245 560 245 560 C245 560 30 17 30 17 C30 17 30 0 30 0 C30 0 320 0 320 0 C320 0 320 11 320 11 C320 11 320 21 320 21 C320 21 320 51 320 51 C320 51 307 51 307 51 C307 51 254 21 254 21 C254 21 85 21 85 21 C85 21 88 22 88 22 C88 22 304 565 304 565 C304 565 304 581 304 581 C304 581 45 581 45 581 L45 581 Z " />
<glyph glyph-name="SmallLetterOwithogon" unicode="&#x1eb;" horiz-adv-x="670" d="M78 329 C78 141 197 -10 346 -10 C376 -10 405 -4 432 8 C432 8 556 -90 556 -90 C556 -90 583 -59 583 -59 C583 -59 461 22 461 22 C553 76 615 193 615 329 C615 508 488 668 346 668 C205 668 78 508 78 329 L78 329 Z M409 26 C389 17 368 12 346 12 C227 12 131 153 131 329 C131 496 233 646 346 646 C460 646 561 496 561 329 C561 200 510 89 435 40 C435 40 381 76 381 76 C381 76 367 59 367 59 C367 59 409 26 409 26 L409 26 Z " />
<glyph glyph-name="CapitalLetterAwithdo" unicode="&#x226;" horiz-adv-x="641" d="M305 891 C305 891 365 891 365 891 C365 891 365 951 365 951 C365 951 305 951 305 951 C305 951 305 891 305 891 L305 891 Z M596 66 C596 66 595 66 595 66 C595 66 362 811 362 811 C362 811 333 811 333 811 C333 811 318 811 318 811 C318 811 308 811 308 811 C308 811 304 811 304 811 C304 811 274 811 274 811 C273 811 273 811 274 810 C273 803 273 798 274 798 C274 798 283 745 283 745 C283 745 283 745 283 745 C283 745 71 65 71 65 C71 65 26 13 26 13 C26 13 26 0 26 0 C26 0 51 0 51 0 C51 0 67 0 67 0 C67 0 82 0 82 0 C82 0 112 0 112 0 C112 0 112 13 112 13 C112 13 102 65 102 65 C102 65 158 246 158 246 C158 246 484 246 484 246 C484 246 477 269 477 269 C477 269 165 269 165 269 C165 269 321 771 321 771 C321 771 540 66 540 66 C540 66 540 66 540 66 C540 66 531 13 531 13 C531 13 531 0 531 0 C531 0 561 0 561 0 C561 0 589 0 589 0 C589 0 616 0 616 0 C616 0 642 0 642 0 C642 0 642 13 642 13 C642 13 596 66 596 66 L596 66 Z " />
<glyph glyph-name="LETTERSMALLCAPITALG" unicode="&#x262;" horiz-adv-x="624" d="M395 338 C395 338 553 338 553 338 C553 338 553 116 553 116 C484 58 400 12 353 12 C227 12 126 153 126 329 C126 505 227 646 353 646 C413 646 467 620 501 578 C501 578 535 510 535 510 C537 498 539 485 539 472 C539 472 559 489 559 489 C559 489 559 519 559 519 C559 519 556 519 556 519 C549 559 526 594 493 621 C493 621 493 621 493 621 C493 621 493 621 493 621 C456 650 407 668 353 668 C198 668 73 517 73 329 C73 141 198 -10 353 -10 C409 -10 505 40 579 103 C579 103 579 360 579 360 C579 360 395 360 395 360 C395 360 395 338 395 338 L395 338 Z " />
<glyph glyph-name="LETTERSMALLCAPITALI" unicode="&#x26a;" horiz-adv-x="254" d="M129 0 C129 0 154 0 154 0 C154 0 184 0 184 0 C184 0 184 13 184 13 C184 13 154 66 154 66 C154 66 154 592 154 592 C154 592 184 645 184 645 C184 645 184 658 184 658 C184 658 154 658 154 658 C154 658 129 658 129 658 C129 658 104 658 104 658 C104 658 74 658 74 658 C74 658 74 645 74 645 C74 645 104 592 104 592 C104 592 104 66 104 66 C104 66 74 13 74 13 C74 13 74 0 74 0 C74 0 104 0 104 0 C104 0 129 0 129 0 L129 0 Z " />
<glyph glyph-name="LETTERSMALLCAPITALN" unicode="&#x274;" horiz-adv-x="498" d="M372 592 C372 592 372 54 372 54 C372 54 169 658 169 658 C169 658 154 658 154 658 C154 658 141 658 141 658 C141 658 127 658 127 658 C127 658 97 658 97 658 C97 658 97 645 97 645 C97 645 127 592 127 592 C127 592 127 66 127 66 C127 66 97 13 97 13 C97 13 97 0 97 0 C97 0 127 0 127 0 C127 0 141 0 141 0 C141 0 154 0 154 0 C154 0 184 0 184 0 C185 0 185 1 184 1 C185 8 185 13 184 13 C184 13 154 66 154 66 C154 66 154 578 154 578 C154 578 349 0 349 0 C349 0 372 0 372 0 C372 0 390 0 390 0 C390 0 399 0 399 0 C399 0 399 592 399 592 C399 592 429 645 429 645 C429 645 429 658 429 658 C429 658 399 658 399 658 C399 658 385 658 385 658 C385 658 372 658 372 658 C372 658 342 658 342 658 C342 658 342 645 342 645 C342 645 372 592 372 592 L372 592 Z " />
<glyph glyph-name="LETTERSMALLCAPITALR" unicode="&#x280;" horiz-adv-x="509" d="M494 13 C494 13 435 65 435 65 C435 65 308 289 308 289 C308 289 275 289 275 289 C388 289 460 356 460 460 C460 581 388 658 275 658 C275 658 172 658 172 658 C172 658 147 658 147 658 C147 658 134 658 134 658 C134 658 121 658 121 658 C121 658 91 658 91 658 C91 658 91 645 91 645 C91 645 121 592 121 592 C121 592 121 66 121 66 C121 66 91 13 91 13 C91 13 91 0 91 0 C91 0 121 0 121 0 C121 0 147 0 147 0 C147 0 172 0 172 0 C172 0 202 0 202 0 C201 0 201 1 202 1 C201 8 201 13 202 13 C202 13 172 66 172 66 C172 66 172 289 172 289 C172 289 250 289 250 289 C250 289 414 0 414 0 C414 0 443 0 443 0 C443 0 472 0 472 0 C472 0 494 0 494 0 C494 0 494 13 494 13 L494 13 Z M172 311 C172 311 172 637 172 637 C172 637 274 637 274 637 C357 637 410 568 410 460 C410 369 358 311 276 311 C276 311 172 311 172 311 L172 311 Z " />
<glyph glyph-name="LETTERSMALLCAPITALY" unicode="&#x28f;" horiz-adv-x="488" d="M29 645 C29 645 93 592 93 592 C93 592 93 592 93 592 C93 592 235 369 235 369 C235 369 235 66 235 66 C235 66 205 13 205 13 C205 13 205 0 205 0 C205 0 235 0 235 0 C235 0 260 0 260 0 C260 0 285 0 285 0 C285 0 315 0 315 0 C315 0 315 13 315 13 C315 13 285 66 285 66 C285 66 285 379 285 379 C285 379 421 592 421 592 C421 592 421 592 421 592 C421 592 485 645 485 645 C484 645 484 649 485 655 C484 656 484 658 485 658 C485 658 463 658 463 658 C463 658 449 658 449 658 C449 658 435 658 435 658 C435 658 405 658 405 658 C404 658 404 657 405 656 C404 650 404 645 405 645 C405 645 393 592 393 592 C393 592 269 397 269 397 C269 397 145 591 145 591 C145 591 154 547 154 547 C154 547 144 592 144 592 C144 592 145 592 145 592 C145 592 144 593 144 593 C144 593 133 645 133 645 C133 645 133 658 133 658 C133 658 103 658 103 658 C103 658 77 658 77 658 C77 658 51 658 51 658 C51 658 29 658 29 658 C29 658 29 645 29 645 L29 645 Z M145 592 C145 592 145 592 145 592 C145 592 145 591 145 591 C145 591 145 592 145 592 L145 592 Z " />
<glyph glyph-name="LETTERSMALLCAPITALB" unicode="&#x299;" horiz-adv-x="594" d="M363 353 C437 370 490 422 490 483 C490 600 422 658 287 658 C287 658 172 658 172 658 C172 658 147 658 147 658 C147 658 121 658 121 658 C121 658 91 658 91 658 C91 658 91 645 91 645 C91 645 121 592 121 592 C121 592 121 66 121 66 C121 66 91 13 91 13 C91 13 91 0 91 0 C91 0 121 0 121 0 C121 0 147 0 147 0 C147 0 172 0 172 0 C172 0 357 0 357 0 C492 0 560 64 560 192 C560 281 483 353 387 353 C387 353 363 353 363 353 L363 353 Z M172 358 C172 358 172 637 172 637 C172 637 289 637 289 637 C388 637 438 585 438 480 C438 412 376 358 298 358 C298 358 172 358 172 358 L172 358 Z M172 21 C172 21 172 337 172 337 C172 337 369 337 369 337 C445 337 506 275 506 197 C506 80 454 21 349 21 C349 21 172 21 172 21 L172 21 Z " />
<glyph glyph-name="LETTERSMALLCAPITALH" unicode="&#x29c;" horiz-adv-x="553" d="M429 0 C429 0 454 0 454 0 C454 0 484 0 484 0 C484 0 484 13 484 13 C484 13 454 66 454 66 C454 66 454 592 454 592 C454 592 484 645 484 645 C484 645 484 658 484 658 C484 658 454 658 454 658 C454 658 429 658 429 658 C429 658 404 658 404 658 C404 658 374 658 374 658 C374 658 374 645 374 645 C374 645 404 592 404 592 C404 592 404 334 404 334 C404 334 172 334 172 334 C172 334 172 592 172 592 C172 592 202 645 202 645 C201 645 201 650 202 656 C201 657 201 658 202 658 C202 658 172 658 172 658 C172 658 147 658 147 658 C147 658 121 658 121 658 C121 658 91 658 91 658 C91 658 91 645 91 645 C91 645 121 592 121 592 C121 592 121 66 121 66 C121 66 91 13 91 13 C91 13 91 0 91 0 C91 0 121 0 121 0 C121 0 147 0 147 0 C147 0 172 0 172 0 C172 0 202 0 202 0 C201 0 201 1 202 1 C201 8 201 13 202 13 C202 13 172 66 172 66 C172 66 172 312 172 312 C172 312 404 312 404 312 C404 312 404 66 404 66 C404 66 374 13 374 13 C374 13 374 0 374 0 C374 0 404 0 404 0 C404 0 429 0 429 0 L429 0 Z " />
<glyph glyph-name="LETTERSMALLCAPITALL" unicode="&#x29f;" horiz-adv-x="380" d="M335 11 C335 11 335 22 335 22 C335 22 335 52 335 52 C335 52 322 52 322 52 C322 52 269 22 269 22 C269 22 154 22 154 22 C154 22 154 592 154 592 C154 592 184 645 184 645 C184 645 184 658 184 658 C184 658 154 658 154 658 C154 658 129 658 129 658 C129 658 104 658 104 658 C104 658 74 658 74 658 C74 658 74 645 74 645 C74 645 104 592 104 592 C104 592 104 66 104 66 C104 66 74 13 74 13 C74 13 74 0 74 0 C74 0 104 0 104 0 C104 0 129 0 129 0 C129 0 154 0 154 0 C154 0 335 0 335 0 C335 0 335 11 335 11 L335 11 Z " />
<glyph glyph-name="LETTERSMALLCAPITALA" unicode="&#x1d00;" horiz-adv-x="616" d="M270 592 C270 592 271 592 271 592 C271 592 76 65 76 65 C76 65 27 13 27 13 C27 13 27 0 27 0 C27 0 52 0 52 0 C52 0 66 0 66 0 C66 0 79 0 79 0 C79 0 109 0 109 0 C109 0 109 13 109 13 C109 13 103 66 103 66 C103 66 151 197 151 197 C151 197 470 197 470 197 C470 197 519 65 519 65 C519 65 513 13 513 13 C513 13 513 0 513 0 C513 0 543 0 543 0 C543 0 567 0 567 0 C567 0 592 0 592 0 C592 0 617 0 617 0 C617 0 617 13 617 13 C617 13 568 65 568 65 C568 65 347 658 347 658 C347 658 320 658 320 658 C320 658 307 658 307 658 C307 658 299 658 299 658 C299 658 295 658 295 658 C295 658 265 658 265 658 C264 658 264 657 265 656 C264 650 264 645 265 645 C265 645 270 592 270 592 L270 592 Z M155 207 C155 207 310 630 310 630 C310 630 468 202 468 202 C468 202 462 218 462 218 C462 218 159 218 159 218 C159 218 155 207 155 207 L155 207 Z " />
<glyph glyph-name="LETTERSMALLCAPITALC" unicode="&#x1d04;" horiz-adv-x="572" d="M533 186 C533 89 443 12 329 12 C216 12 126 170 126 329 C126 487 216 646 329 646 C399 646 459 617 496 573 C496 573 528 510 528 510 C531 498 533 485 533 472 C533 472 553 489 553 489 C553 489 553 519 553 519 C553 519 550 519 550 519 C532 604 441 668 329 668 C187 668 73 498 73 329 C73 159 187 -10 329 -10 C454 -10 553 69 553 169 C553 169 533 186 533 186 L533 186 Z " />
<glyph glyph-name="LETTERSMALLCAPITALD" unicode="&#x1d05;" horiz-adv-x="634" d="M147 0 C147 0 172 0 172 0 C172 0 292 0 292 0 C473 0 580 122 580 329 C580 530 456 658 262 658 C262 658 172 658 172 658 C172 658 147 658 147 658 C147 658 121 658 121 658 C121 658 91 658 91 658 C91 658 91 645 91 645 C91 645 121 592 121 592 C121 592 121 66 121 66 C121 66 91 13 91 13 C91 13 91 0 91 0 C91 0 121 0 121 0 C121 0 147 0 147 0 L147 0 Z M172 21 C172 21 172 637 172 637 C172 637 263 637 263 637 C424 637 526 517 526 329 C526 136 438 21 290 21 C290 21 172 21 172 21 L172 21 Z " />
<glyph glyph-name="LETTERSMALLCAPITALE" unicode="&#x1d07;" horiz-adv-x="452" d="M403 11 C403 11 403 22 403 22 C403 22 403 52 403 52 C403 52 389 52 389 52 C389 52 337 22 337 22 C337 22 172 22 172 22 C172 22 172 314 172 314 C172 314 302 314 302 314 C302 314 354 284 354 284 C354 284 368 284 368 284 C368 284 368 314 368 314 C368 314 368 325 368 325 C368 325 368 335 368 335 C368 335 368 365 368 365 C368 366 367 366 366 365 C359 366 354 366 354 365 C354 365 302 335 302 335 C302 335 172 335 172 335 C172 335 172 636 172 636 C172 636 322 636 322 636 C322 636 374 606 374 606 C374 606 388 606 388 606 C388 606 388 636 388 636 C388 636 388 647 388 647 C388 647 388 658 388 658 C388 658 172 658 172 658 C172 658 171 658 171 658 C171 658 147 658 147 658 C147 658 121 658 121 658 C121 658 91 658 91 658 C91 658 91 645 91 645 C91 645 121 592 121 592 C121 592 121 66 121 66 C121 66 91 13 91 13 C91 13 91 0 91 0 C91 0 121 0 121 0 C121 0 147 0 147 0 C147 0 171 0 171 0 C171 0 172 0 172 0 C172 0 403 0 403 0 C403 0 403 11 403 11 L403 11 Z " />
<glyph glyph-name="LETTERSMALLCAPITALJ" unicode="&#x1d0a;" horiz-adv-x="343" d="M68 283 C68 283 68 221 68 221 C68 74 102 -10 163 -10 C221 -10 258 80 258 193 C258 193 258 592 258 592 C258 592 288 645 288 645 C288 645 288 658 288 658 C288 658 258 658 258 658 C258 658 233 658 233 658 C233 658 208 658 208 658 C208 658 178 658 178 658 C178 658 178 645 178 645 C178 645 208 592 208 592 C208 592 208 193 208 193 C208 94 191 15 163 15 C135 15 119 95 119 236 C119 236 119 292 119 292 C119 292 68 283 68 283 L68 283 Z " />
<glyph glyph-name="LETTERSMALLCAPITALK" unicode="&#x1d0b;" horiz-adv-x="455" d="M414 658 C414 658 392 658 392 658 C392 658 377 658 377 658 C377 658 363 658 363 658 C363 658 333 658 333 658 C333 658 333 645 333 645 C333 645 325 592 325 592 C325 592 157 295 157 295 C157 295 157 592 157 592 C157 592 187 645 187 645 C186 645 186 650 187 656 C186 657 186 658 187 658 C187 658 157 658 157 658 C157 658 132 658 132 658 C132 658 106 658 106 658 C106 658 76 658 76 658 C76 658 76 645 76 645 C76 645 106 592 106 592 C106 592 106 66 106 66 C106 66 76 13 76 13 C76 13 76 0 76 0 C76 0 106 0 106 0 C106 0 132 0 132 0 C132 0 157 0 157 0 C157 0 187 0 187 0 C186 0 186 1 187 1 C186 8 186 13 187 13 C187 13 157 66 157 66 C157 66 157 249 157 249 C157 249 222 362 222 362 C222 362 363 65 363 65 C363 65 364 13 364 13 C364 13 364 0 364 0 C364 0 394 0 394 0 C394 0 420 0 420 0 C420 0 446 0 446 0 C446 0 469 0 469 0 C469 0 469 13 469 13 C469 13 414 66 414 66 C414 66 249 409 249 409 C249 409 354 592 354 592 C354 592 414 645 414 645 C414 645 414 658 414 658 L414 658 Z " />
<glyph glyph-name="LETTERSMALLCAPITALM" unicode="&#x1d0d;" horiz-adv-x="697" d="M574 0 C574 0 598 0 598 0 C598 0 628 0 628 0 C628 0 628 13 628 13 C628 13 598 66 598 66 C598 66 598 592 598 592 C598 592 628 645 628 645 C628 645 628 658 628 658 C628 658 598 658 598 658 C598 658 574 658 574 658 C574 658 558 658 558 658 C558 658 549 658 549 658 C549 658 533 658 533 658 C533 658 362 43 362 43 C362 43 190 658 190 658 C190 658 154 658 154 658 C154 658 144 658 144 658 C144 658 141 658 141 658 C141 658 127 658 127 658 C127 658 97 658 97 658 C97 658 97 645 97 645 C97 645 127 592 127 592 C127 592 127 66 127 66 C127 66 97 13 97 13 C97 13 97 0 97 0 C97 0 127 0 127 0 C127 0 141 0 141 0 C141 0 154 0 154 0 C154 0 184 0 184 0 C184 0 184 13 184 13 C184 13 154 66 154 66 C154 66 154 622 154 622 C154 622 329 0 329 0 C329 0 350 0 350 0 C350 0 374 0 374 0 C374 0 549 626 549 626 C549 626 549 66 549 66 C549 66 519 13 519 13 C519 13 519 0 519 0 C519 0 549 0 549 0 C549 0 574 0 574 0 L574 0 Z " />
<glyph glyph-name="LETTERSMALLCAPITALO" unicode="&#x1d0f;" horiz-adv-x="670" d="M346 12 C227 12 131 153 131 329 C131 496 233 646 346 646 C460 646 561 496 561 329 C561 153 466 12 346 12 L346 12 Z M78 329 C78 141 197 -10 346 -10 C496 -10 615 141 615 329 C615 508 488 668 346 668 C205 668 78 508 78 329 L78 329 Z " />
<glyph glyph-name="LETTERSMALLCAPITALP" unicode="&#x1d18;" horiz-adv-x="494" d="M147 0 C147 0 172 0 172 0 C172 0 202 0 202 0 C201 0 201 1 202 1 C201 8 201 13 202 13 C202 13 172 66 172 66 C172 66 172 273 172 273 C172 273 275 273 275 273 C388 273 460 346 460 460 C460 581 388 658 275 658 C275 658 172 658 172 658 C172 658 147 658 147 658 C147 658 134 658 134 658 C134 658 121 658 121 658 C121 658 91 658 91 658 C91 658 91 645 91 645 C91 645 121 592 121 592 C121 592 121 66 121 66 C121 66 91 13 91 13 C91 13 91 0 91 0 C91 0 121 0 121 0 C121 0 147 0 147 0 L147 0 Z M172 294 C172 294 172 637 172 637 C172 637 274 637 274 637 C357 637 410 568 410 460 C410 359 358 294 276 294 C276 294 172 294 172 294 L172 294 Z " />
<glyph glyph-name="LETTERSMALLCAPITALT" unicode="&#x1d1b;" horiz-adv-x="451" d="M226 0 C226 0 251 0 251 0 C251 0 281 0 281 0 C280 0 280 1 281 1 C280 8 280 13 281 13 C281 13 251 66 251 66 C251 66 251 636 251 636 C251 636 375 636 375 636 C375 636 428 606 428 606 C428 606 441 606 441 606 C441 606 441 636 441 636 C441 636 441 647 441 647 C441 647 441 658 441 658 C441 658 251 658 251 658 C251 658 200 658 200 658 C200 658 10 658 10 658 C10 658 10 647 10 647 C10 647 10 636 10 636 C10 636 10 606 10 606 C10 606 23 606 23 606 C23 606 76 636 76 636 C76 636 200 636 200 636 C200 636 200 66 200 66 C200 66 170 13 170 13 C170 13 170 0 170 0 C170 0 200 0 200 0 C200 0 226 0 226 0 L226 0 Z " />
<glyph glyph-name="LETTERSMALLCAPITALU" unicode="&#x1d1c;" horiz-adv-x="533" d="M114 592 C114 592 114 257 114 257 C114 94 177 -10 276 -10 C375 -10 438 94 438 258 C438 258 438 592 438 592 C438 592 468 645 468 645 C469 645 469 650 468 656 C469 657 469 658 468 658 C468 658 438 658 438 658 C438 658 425 658 425 658 C425 658 411 658 411 658 C411 658 381 658 381 658 C381 658 381 645 381 645 C381 645 411 592 411 592 C411 592 411 262 411 262 C411 111 359 15 276 15 C208 15 165 112 165 265 C165 265 165 592 165 592 C165 592 195 645 195 645 C194 645 194 650 195 656 C194 657 194 658 195 658 C195 658 165 658 165 658 C165 658 140 658 140 658 C140 658 114 658 114 658 C114 658 84 658 84 658 C84 658 84 645 84 645 C84 645 114 592 114 592 L114 592 Z " />
<glyph glyph-name="LETTERSMALLCAPITALV" unicode="&#x1d20;" horiz-adv-x="458" d="M374 592 C374 592 374 592 374 592 C374 592 252 53 252 53 C252 53 131 592 131 592 C131 592 131 592 131 592 C131 592 146 645 146 645 C147 645 147 650 146 656 C147 657 147 658 146 658 C146 658 116 658 116 658 C116 658 89 658 89 658 C89 658 62 658 62 658 C62 658 36 658 36 658 C36 658 36 645 36 645 C36 645 77 593 77 593 C77 593 217 0 217 0 C217 0 240 0 240 0 C240 0 264 0 264 0 C264 0 265 0 265 0 C265 0 404 593 404 593 C404 593 446 645 446 645 C446 645 446 658 446 658 C446 658 419 658 419 658 C419 658 404 658 404 658 C404 658 389 658 389 658 C389 658 359 658 359 658 C360 658 360 657 359 656 C360 650 360 645 359 645 C359 645 374 592 374 592 L374 592 Z " />
<glyph glyph-name="LETTERSMALLCAPITALW" unicode="&#x1d21;" horiz-adv-x="648" d="M597 592 C597 592 636 645 636 645 C636 645 636 658 636 658 C636 658 609 658 609 658 C609 658 594 658 594 658 C594 658 579 658 579 658 C579 658 549 658 549 658 C550 658 550 657 549 656 C550 650 550 645 549 645 C549 645 568 592 568 592 C568 592 479 68 479 68 C479 68 371 658 371 658 C371 658 349 658 349 658 C349 658 322 658 322 658 C322 658 215 71 215 71 C215 71 127 592 127 592 C127 592 146 645 146 645 C147 645 147 650 146 656 C147 657 147 658 146 658 C146 658 116 658 116 658 C116 658 89 658 89 658 C89 658 62 658 62 658 C62 658 35 658 35 658 C35 658 35 645 35 645 C35 645 74 593 74 593 C74 593 178 0 178 0 C178 0 202 0 202 0 C202 0 227 0 227 0 C227 0 335 585 335 585 C335 585 443 0 443 0 C443 0 468 0 468 0 C468 0 492 0 492 0 C492 0 597 592 597 592 L597 592 Z " />
<glyph glyph-name="LETTERSMALLCAPITALZ" unicode="&#x1d22;" horiz-adv-x="511" d="M466 11 C466 11 466 22 466 22 C466 22 466 52 466 52 C466 52 453 52 453 52 C453 52 400 22 400 22 C400 22 95 22 95 22 C95 22 466 636 466 636 C466 636 466 658 466 658 C466 658 60 658 60 658 C60 658 60 647 60 647 C60 647 60 636 60 636 C60 636 60 606 60 606 C60 606 73 606 73 606 C73 606 126 636 126 636 C126 636 416 636 416 636 C416 636 45 22 45 22 C45 22 45 0 45 0 C45 0 466 0 466 0 C466 0 466 11 466 11 L466 11 Z " />
<glyph glyph-name="Wgrave" unicode="&#x1e80;" horiz-adv-x="677" d="M327 891 C327 891 372 891 372 891 C372 891 352 1041 352 1041 C352 1041 287 1041 287 1041 C287 1041 327 891 327 891 L327 891 Z M628 745 C628 745 666 798 666 798 C666 798 666 811 666 811 C666 811 638 811 638 811 C638 811 622 811 622 811 C622 811 605 811 605 811 C605 811 575 811 575 811 C576 811 576 811 575 810 C576 803 576 798 575 798 C575 798 596 746 596 746 C596 746 502 90 502 90 C502 90 389 811 389 811 C389 811 364 811 364 811 C364 811 335 811 335 811 C335 811 223 91 223 91 C223 91 130 746 130 746 C130 746 151 798 151 798 C151 798 151 811 151 811 C151 811 121 811 121 811 C121 811 91 811 91 811 C91 811 61 811 61 811 C61 811 33 811 33 811 C33 811 33 798 33 798 C33 798 71 745 71 745 C71 745 182 0 182 0 C182 0 209 0 209 0 C209 0 236 0 236 0 C236 0 349 719 349 719 C349 719 462 0 462 0 C462 0 489 0 489 0 C489 0 516 0 516 0 C516 0 628 745 628 745 L628 745 Z " />
<glyph glyph-name="Wacute" unicode="&#x1e82;" horiz-adv-x="677" d="M327 891 C327 891 372 891 372 891 C372 891 412 1041 412 1041 C412 1041 347 1041 347 1041 C347 1041 327 891 327 891 L327 891 Z M628 745 C628 745 666 798 666 798 C666 798 666 811 666 811 C666 811 638 811 638 811 C638 811 622 811 622 811 C622 811 605 811 605 811 C605 811 575 811 575 811 C576 811 576 811 575 810 C576 803 576 798 575 798 C575 798 596 746 596 746 C596 746 502 90 502 90 C502 90 389 811 389 811 C389 811 364 811 364 811 C364 811 335 811 335 811 C335 811 223 91 223 91 C223 91 130 746 130 746 C130 746 151 798 151 798 C151 798 151 811 151 811 C151 811 121 811 121 811 C121 811 91 811 91 811 C91 811 61 811 61 811 C61 811 33 811 33 811 C33 811 33 798 33 798 C33 798 71 745 71 745 C71 745 182 0 182 0 C182 0 209 0 209 0 C209 0 236 0 236 0 C236 0 349 719 349 719 C349 719 462 0 462 0 C462 0 489 0 489 0 C489 0 516 0 516 0 C516 0 628 745 628 745 L628 745 Z " />
<glyph glyph-name="Wdieresis" unicode="&#x1e84;" horiz-adv-x="677" d="M383 891 C383 891 443 891 443 891 C443 891 443 951 443 951 C443 951 383 951 383 951 C383 951 383 891 383 891 L383 891 Z M256 891 C256 891 316 891 316 891 C316 891 316 951 316 951 C316 951 256 951 256 951 C256 951 256 891 256 891 L256 891 Z M628 745 C628 745 666 798 666 798 C666 798 666 811 666 811 C666 811 638 811 638 811 C638 811 622 811 622 811 C622 811 605 811 605 811 C605 811 575 811 575 811 C576 811 576 811 575 810 C576 803 576 798 575 798 C575 798 596 746 596 746 C596 746 502 90 502 90 C502 90 389 811 389 811 C389 811 364 811 364 811 C364 811 335 811 335 811 C335 811 223 91 223 91 C223 91 130 746 130 746 C130 746 151 798 151 798 C151 798 151 811 151 811 C151 811 121 811 121 811 C121 811 91 811 91 811 C91 811 61 811 61 811 C61 811 33 811 33 811 C33 811 33 798 33 798 C33 798 71 745 71 745 C71 745 182 0 182 0 C182 0 209 0 209 0 C209 0 236 0 236 0 C236 0 349 719 349 719 C349 719 462 0 462 0 C462 0 489 0 489 0 C489 0 516 0 516 0 C516 0 628 745 628 745 L628 745 Z " />
<glyph glyph-name="CapitalLetterEWITHTI" unicode="&#x1ebc;" horiz-adv-x="480" d="M236 891 C236 927 243 956 251 956 C262 956 266 952 268 946 C272 968 282 995 248 995 C221 995 199 949 199 891 C199 891 236 891 236 891 L236 891 Z M288 881 C315 881 337 927 337 985 C337 985 300 985 300 985 C300 949 293 920 285 920 C274 920 270 924 268 930 C264 908 254 881 288 881 L288 881 Z M268 930 C267 934 267 940 268 946 C269 942 269 936 268 930 C268 930 268 930 268 930 L268 930 Z M431 12 C431 12 431 25 431 25 C431 25 431 55 431 55 C431 55 418 55 418 55 C418 55 365 25 365 25 C365 25 176 25 176 25 C176 25 176 389 176 389 C176 389 330 389 330 389 C330 389 383 359 383 359 C383 359 396 359 396 359 C396 359 396 389 396 389 C396 389 396 401 396 401 C396 401 396 412 396 412 C396 412 396 442 396 442 C396 443 395 443 394 442 C388 443 383 443 383 442 C383 442 330 412 330 412 C330 412 176 412 176 412 C176 412 176 786 176 786 C176 786 350 786 350 786 C350 786 403 756 403 756 C403 756 416 756 416 756 C416 756 416 786 416 786 C416 786 416 799 416 799 C416 799 416 811 416 811 C416 811 176 811 176 811 C176 811 175 811 175 811 C175 811 148 811 148 811 C148 811 120 811 120 811 C120 811 90 811 90 811 C90 811 90 798 90 798 C90 798 120 745 120 745 C120 745 120 66 120 66 C120 66 90 13 90 13 C90 13 90 0 90 0 C90 0 120 0 120 0 C120 0 148 0 148 0 C148 0 175 0 175 0 C175 0 176 0 176 0 C176 0 431 0 431 0 C431 0 431 12 431 12 L431 12 Z " />
<glyph glyph-name="Ygrave" unicode="&#x1ef2;" horiz-adv-x="512" d="M246 891 C246 891 292 891 292 891 C292 891 272 1041 272 1041 C272 1041 206 1041 206 1041 C206 1041 246 891 246 891 L246 891 Z M244 66 C244 66 214 13 214 13 C214 13 214 0 214 0 C214 0 244 0 244 0 C244 0 272 0 272 0 C272 0 300 0 300 0 C300 0 330 0 330 0 C330 0 330 13 330 13 C330 13 300 66 300 66 C300 66 300 377 300 377 C300 377 459 745 459 745 C459 745 459 745 459 745 C459 745 512 798 512 798 C512 798 512 811 512 811 C512 811 487 811 487 811 C487 811 473 811 473 811 C473 811 458 811 458 811 C458 811 428 811 428 811 C428 811 428 798 428 798 C428 798 430 746 430 746 C430 746 282 401 282 401 C282 401 133 745 133 745 C133 745 133 745 133 745 C133 745 134 798 134 798 C134 798 134 811 134 811 C134 811 104 811 104 811 C104 811 77 811 77 811 C77 811 50 811 50 811 C50 811 26 811 26 811 C26 811 26 798 26 798 C26 798 79 745 79 745 C79 745 244 369 244 369 C244 369 244 66 244 66 L244 66 Z " />
<glyph glyph-name="endash" unicode="&#x2013;" horiz-adv-x="290" d="M5 264 C5 264 285 264 285 264 C285 264 285 305 285 305 C285 305 5 305 5 305 C5 305 5 264 5 264 L5 264 Z " />
<glyph glyph-name="emdash" unicode="&#x2014;" horiz-adv-x="580" d="M50 264 C50 264 530 264 530 264 C530 264 530 305 530 305 C530 305 50 305 50 305 C50 305 50 264 50 264 L50 264 Z " />
<glyph glyph-name="quoteleft" unicode="&#x2018;" horiz-adv-x="160" d="M110 821 C70 821 50 783 50 735 C50 735 50 675 50 675 C50 675 110 675 110 675 C110 675 110 735 110 735 C110 735 83 735 83 735 C83 768 92 795 110 795 C110 795 110 821 110 821 L110 821 Z " />
<glyph glyph-name="quoteright" unicode="&#x2019;" horiz-adv-x="160" d="M80 821 C80 821 80 761 80 761 C80 761 107 761 107 761 C107 721 98 701 80 701 C80 701 80 675 80 675 C120 675 140 704 140 761 C140 761 140 821 140 821 C140 821 80 821 80 821 L80 821 Z " />
<glyph glyph-name="quotedblleft" unicode="&#x201c;" horiz-adv-x="280" d="M230 821 C190 821 170 783 170 735 C170 735 170 675 170 675 C170 675 230 675 230 675 C230 675 230 735 230 735 C230 735 203 735 203 735 C203 768 212 795 230 795 C230 795 230 821 230 821 L230 821 Z M140 821 C100 821 80 783 80 735 C80 735 80 675 80 675 C80 675 140 675 140 675 C140 675 140 735 140 735 C140 735 113 735 113 735 C113 768 122 795 140 795 C140 795 140 821 140 821 L140 821 Z " />
<glyph glyph-name="quotedblright" unicode="&#x201d;" horiz-adv-x="280" d="M170 821 C170 821 170 761 170 761 C170 761 197 761 197 761 C197 721 188 701 170 701 C170 701 170 675 170 675 C210 675 230 704 230 761 C230 761 230 821 230 821 C230 821 170 821 170 821 L170 821 Z M80 821 C80 821 80 761 80 761 C80 761 107 761 107 761 C107 721 98 701 80 701 C80 701 80 675 80 675 C120 675 140 704 140 761 C140 761 140 821 140 821 C140 821 80 821 80 821 L80 821 Z " />
<glyph glyph-name="dagger" unicode="&#x2020;" horiz-adv-x="510" d="M450 641 C450 641 280 641 280 641 C280 641 280 811 280 811 C280 811 230 811 230 811 C230 811 230 641 230 641 C230 641 60 641 60 641 C60 641 60 598 60 598 C60 598 230 598 230 598 C230 598 230 -50 230 -50 C230 -50 280 -50 280 -50 C280 -50 280 598 280 598 C280 598 450 598 450 598 C450 598 450 641 450 641 L450 641 Z " />
<glyph glyph-name="daggerdbl" unicode="&#x2021;" horiz-adv-x="510" d="M60 120 C60 120 230 120 230 120 C230 120 230 -50 230 -50 C230 -50 280 -50 280 -50 C280 -50 280 120 280 120 C280 120 450 120 450 120 C450 120 450 163 450 163 C450 163 280 163 280 163 C280 163 280 598 280 598 C280 598 450 598 450 598 C450 598 450 641 450 641 C450 641 280 641 280 641 C280 641 280 811 280 811 C280 811 230 811 230 811 C230 811 230 641 230 641 C230 641 60 641 60 641 C60 641 60 598 60 598 C60 598 230 598 230 598 C230 598 230 163 230 163 C230 163 60 163 60 163 C60 163 60 120 60 120 L60 120 Z " />
<glyph glyph-name="bullet" unicode="&#x2022;" horiz-adv-x="160" d="M43 261 C43 261 118 261 118 261 C118 261 118 336 118 336 C118 336 43 336 43 336 C43 336 43 261 43 261 L43 261 Z " />
<glyph glyph-name="ellipsis" unicode="&#x2026;" horiz-adv-x="430" d="M320 0 C320 0 380 0 380 0 C380 0 380 60 380 60 C380 60 320 60 320 60 C320 60 320 0 320 0 L320 0 Z M185 0 C185 0 245 0 245 0 C245 0 245 60 245 60 C245 60 185 60 185 60 C185 60 185 0 185 0 L185 0 Z M50 0 C50 0 110 0 110 0 C110 0 110 60 110 60 C110 60 50 60 50 60 C50 60 50 0 50 0 L50 0 Z " />
<glyph glyph-name="perthousand" unicode="&#x2030;" horiz-adv-x="506" d="M553 140 C553 64 539 4 518 4 C497 4 483 64 483 140 C483 216 497 276 518 276 C539 276 553 216 553 140 L553 140 Z M518 -10 C556 -10 581 57 581 140 C581 223 556 290 518 290 C479 290 455 223 455 140 C455 57 479 -10 518 -10 L518 -10 Z M424 140 C424 64 411 4 390 4 C368 4 355 64 355 140 C355 216 368 276 390 276 C411 276 424 216 424 140 L424 140 Z M390 -10 C428 -10 453 57 453 140 C453 223 428 290 390 290 C351 290 327 223 327 140 C327 57 351 -10 390 -10 L390 -10 Z M82 671 C82 747 96 807 117 807 C139 807 152 747 152 671 C152 596 139 535 117 535 C96 535 82 596 82 671 L82 671 Z M117 821 C79 821 54 754 54 671 C54 588 79 521 117 521 C156 521 180 588 180 671 C180 754 156 821 117 821 L117 821 Z M106 0 C106 0 123 0 123 0 C123 0 401 811 401 811 C401 811 383 811 383 811 C383 811 106 0 106 0 L106 0 Z " />
<glyph glyph-name="guilsinglleft" unicode="&#x2039;" horiz-adv-x="181" d="M120 525 C120 525 64 291 64 291 C64 291 120 56 120 56 C120 56 164 56 164 56 C164 56 108 291 108 291 C108 291 164 525 164 525 C164 525 120 525 120 525 L120 525 Z " />
<glyph glyph-name="guilsinglright" unicode="&#x203a;" horiz-adv-x="181" d="M92 525 C92 525 148 291 148 291 C148 291 92 56 92 56 C92 56 136 56 136 56 C136 56 192 291 192 291 C192 291 136 525 136 525 C136 525 92 525 92 525 L92 525 Z " />
<glyph glyph-name="fraction" unicode="&#x2044;" horiz-adv-x="534" d="M60 0 C60 0 77 0 77 0 C77 0 475 811 475 811 C475 811 457 811 457 811 C457 811 60 0 60 0 L60 0 Z " />
<glyph glyph-name="Euro" unicode="&#x20ac;" horiz-adv-x="595" d="M17 348 C17 348 74 348 74 348 C94 161 206 -10 342 -10 C472 -10 576 69 576 168 C576 168 553 187 553 187 C553 91 459 15 342 15 C237 15 150 173 134 348 C134 348 380 348 380 348 C380 348 384 376 384 376 C384 376 132 376 132 376 C131 386 131 396 131 406 C131 416 131 426 132 436 C132 436 384 436 384 436 C384 436 388 464 388 464 C388 464 134 464 134 464 C150 638 237 796 342 796 C459 796 553 720 553 624 C553 624 576 643 576 643 C576 742 472 821 342 821 C206 821 94 650 74 464 C74 464 25 464 25 464 C25 464 21 436 21 436 C21 436 72 436 72 436 C71 426 71 416 71 406 C71 396 71 386 72 376 C72 376 21 376 21 376 C21 376 17 348 17 348 L17 348 Z " />
<glyph glyph-name="minus" unicode="&#x2212;" horiz-adv-x="495" d="M50 269 C50 269 445 269 445 269 C445 269 445 300 445 300 C445 300 50 300 50 300 C50 300 50 269 50 269 L50 269 Z " />
<glyph glyph-name="DIVISIONSLASH" unicode="&#x2215;" horiz-adv-x="414" d="M0 0 C0 0 17 0 17 0 C17 0 415 811 415 811 C415 811 397 811 397 811 C397 811 0 0 0 0 L0 0 Z " />
<glyph glyph-name="BULLETOPERATOR" unicode="&#x2219;" horiz-adv-x="160" d="M50 261 C50 261 110 261 110 261 C110 261 110 321 110 321 C110 321 50 321 50 321 C50 321 50 261 50 261 L50 261 Z " />
<glyph glyph-name="LETTERSMALLCAPITALF" unicode="&#xa730;" horiz-adv-x="417" d="M292 314 C292 314 344 284 344 284 C344 284 358 284 358 284 C358 284 358 314 358 314 C358 314 358 325 358 325 C358 325 358 335 358 335 C358 335 358 365 358 365 C358 366 357 366 356 365 C349 366 344 366 344 365 C344 365 292 335 292 335 C292 335 172 335 172 335 C172 335 172 636 172 636 C172 636 322 636 322 636 C322 636 374 606 374 606 C374 606 388 606 388 606 C388 606 388 636 388 636 C388 636 388 647 388 647 C388 647 388 658 388 658 C388 658 172 658 172 658 C172 658 171 658 171 658 C171 658 147 658 147 658 C147 658 121 658 121 658 C121 658 91 658 91 658 C91 658 91 645 91 645 C91 645 121 592 121 592 C121 592 121 66 121 66 C121 66 91 13 91 13 C91 13 91 0 91 0 C91 0 121 0 121 0 C121 0 147 0 147 0 C147 0 172 0 172 0 C172 0 202 0 202 0 C201 0 201 1 202 1 C201 8 201 13 202 13 C202 13 172 66 172 66 C172 66 172 314 172 314 C172 314 292 314 292 314 L292 314 Z " />
<glyph glyph-name="LETTERSMALLCAPITALS" unicode="&#xa731;" horiz-adv-x="401" d="M60 146 C66 93 90 51 124 24 C124 24 124 24 124 24 C124 24 124 24 124 24 C152 2 187 -10 225 -10 C311 -10 366 76 366 184 C366 260 306 330 211 364 C149 386 109 433 109 486 C109 574 141 644 180 644 C213 644 243 632 265 609 C265 609 302 537 302 537 C304 526 305 515 305 503 C305 503 315 512 315 512 C315 512 315 511 315 511 C315 511 324 520 324 520 C324 520 324 550 324 550 C324 550 321 550 321 550 C309 623 251 668 180 668 C112 668 57 585 57 481 C57 409 112 344 197 313 C270 287 316 236 316 182 C316 89 280 14 225 14 C183 14 146 33 120 66 C120 66 84 150 84 150 C82 163 81 177 81 192 C81 192 58 176 58 176 C58 176 58 146 58 146 C58 146 60 146 60 146 L60 146 Z " />
</font>
</svg>
