<?xml version="1.0" encoding="UTF-8"?>
<svg xmlns="http://www.w3.org/2000/svg" xmlns:xlink="http://www.w3.org/1999/xlink" version="1.2" >
<font id="Montrell Outline">
<font-face  font-family="Montrell" units-per-em="1024" ascent="1054" descent="-300" font-style="normal" font-weight="600" font-stretch="normal" cap-height="811" x-height="581" underline-position="0" underline-thickness="0" />
<missing-glyph  horiz-adv-x="472" d="M-6.656 700 L-6.656 706.656 L0 706.656 L432 706.656 L438.656 706.656 L438.656 700 L438.656 0 L438.656 -6.656 L432 -6.656 L0 -6.656 L-6.656 -6.656 L-6.656 0 L-6.656 700 L-6.656 700 Z M6.656 693.344 L6.656 6.656 L425.344 6.656 L425.344 693.344 L6.656 693.344 L6.656 693.344 Z M56.656 56.656 L375.344 56.656 L375.344 643.344 L56.656 643.344 L56.656 56.656 L56.656 56.656 Z M50 43.344 L43.344 43.344 L43.344 50 L43.344 650 L43.344 656.656 L50 656.656 L382 656.656 L388.656 656.656 L388.656 650 L388.656 50 L388.656 43.344 L382 43.344 L50 43.344 L50 43.344 Z " />
<glyph glyph-name="NULL" d="" />
<glyph glyph-name="CR" unicode="&#xd;" horiz-adv-x="256" d="" />
<glyph glyph-name="space" unicode="&#x20;" horiz-adv-x="100" d="" />
<glyph glyph-name="exclam" unicode="&#x21;" horiz-adv-x="225" d="M50 -6.656 L43.344 -6.656 L43.344 0 L43.344 125 L43.344 131.656 L50 131.656 L175 131.656 L181.656 131.656 L181.656 125 L181.656 0 L181.656 -6.656 L175 -6.656 L50 -6.656 L50 -6.656 Z M56.656 6.656 L168.344 6.656 L168.344 118.344 L56.656 118.344 L56.656 6.656 L56.656 6.656 Z M38.344 811 L38.344 817.656 L45 817.656 L180 817.656 L186.656 817.656 L186.656 811 L186.656 476 L186.656 475.38 L186.541 474.77 L136.541 208.77 L135.521 203.344 L130 203.344 L95 203.344 L89.4786 203.344 L88.4586 208.77 L38.4586 474.77 L38.344 475.38 L38.344 476 L38.344 811 L38.344 811 Z M51.656 804.344 L51.656 476.62 L100.521 216.656 L124.479 216.656 L173.344 476.62 L173.344 804.344 L51.656 804.344 L51.656 804.344 Z " />
<glyph glyph-name="quotedbl" unicode="&#x22;" horiz-adv-x="465" d="M261.344 811 L261.344 817.656 L268 817.656 L383 817.656 L389.656 817.656 L389.656 811 L389.656 691 L389.656 690.109 L389.421 689.249 L359.421 579.249 L358.084 574.344 L353 574.344 L298 574.344 L292.916 574.344 L291.579 579.249 L261.579 689.249 L261.344 690.109 L261.344 691 L261.344 811 L261.344 811 Z M274.656 804.344 L274.656 691.891 L303.084 587.656 L347.916 587.656 L376.344 691.891 L376.344 804.344 L274.656 804.344 L274.656 804.344 Z M73.344 811 L73.344 817.656 L80 817.656 L195 817.656 L201.656 817.656 L201.656 811 L201.656 691 L201.656 690.109 L201.421 689.249 L171.421 579.249 L170.084 574.344 L165 574.344 L110 574.344 L104.916 574.344 L103.579 579.249 L73.5785 689.249 L73.344 690.109 L73.344 691 L73.344 811 L73.344 811 Z M86.656 804.344 L86.656 691.891 L115.084 587.656 L159.916 587.656 L188.344 691.891 L188.344 804.344 L86.656 804.344 L86.656 804.344 Z " />
<glyph glyph-name="numbersign" unicode="&#x23;" horiz-adv-x="511" d="M355.401 811.866 L356.16 817.656 L362 817.656 L422 817.656 L429.586 817.656 L428.599 810.134 L405.586 634.656 L492 634.656 L499.64 634.656 L498.593 627.088 L485.593 533.088 L484.799 527.344 L479 527.344 L390.833 527.344 L358.595 283.656 L436 283.656 L443.64 283.656 L442.593 276.088 L429.593 182.088 L428.799 176.344 L423 176.344 L343.84 176.344 L320.599 -0.865507 L319.84 -6.656 L314 -6.656 L254 -6.656 L246.414 -6.656 L247.401 0.865507 L270.414 176.344 L175.84 176.344 L152.599 -0.865507 L151.84 -6.656 L146 -6.656 L86 -6.656 L78.4141 -6.656 L79.4005 0.865507 L102.414 176.344 L15 176.344 L7.27926 176.344 L8.41662 183.981 L22.4166 277.981 L23.2619 283.656 L29 283.656 L117.167 283.656 L149.405 527.344 L71 527.344 L63.2793 527.344 L64.4166 534.981 L78.4166 628.981 L79.2619 634.656 L85 634.656 L164.16 634.656 L187.401 811.866 L188.16 817.656 L194 817.656 L254 817.656 L261.586 817.656 L260.599 810.134 L237.586 634.656 L332.16 634.656 L355.401 811.866 L355.401 811.866 Z M367.84 804.344 L344.599 627.134 L343.84 621.344 L338 621.344 L230 621.344 L222.414 621.344 L223.401 628.866 L246.414 804.344 L199.84 804.344 L176.599 627.134 L175.84 621.344 L170 621.344 L90.738 621.344 L78.721 540.656 L157 540.656 L164.595 540.656 L163.599 533.127 L129.599 276.127 L128.833 270.344 L123 270.344 L34.738 270.344 L22.721 189.656 L110 189.656 L117.586 189.656 L116.599 182.134 L93.586 6.656 L140.16 6.656 L163.401 183.866 L164.16 189.656 L170 189.656 L278 189.656 L285.586 189.656 L284.599 182.134 L261.586 6.656 L308.16 6.656 L331.401 183.866 L332.16 189.656 L338 189.656 L417.201 189.656 L428.36 270.344 L351 270.344 L343.405 270.344 L344.401 277.873 L378.401 534.873 L379.167 540.656 L385 540.656 L473.201 540.656 L484.36 621.344 L398 621.344 L390.414 621.344 L391.401 628.866 L414.414 804.344 L367.84 804.344 L367.84 804.344 Z M222.833 527.344 L190.595 283.656 L285.167 283.656 L317.405 527.344 L222.833 527.344 L222.833 527.344 Z M210.401 534.873 L211.167 540.656 L217 540.656 L325 540.656 L332.595 540.656 L331.599 533.127 L297.599 276.127 L296.833 270.344 L291 270.344 L183 270.344 L175.405 270.344 L176.401 277.873 L210.401 534.873 L210.401 534.873 Z " />
<glyph glyph-name="dollar" unicode="&#x24;" horiz-adv-x="505" d="M260.344 887 L260.344 893.656 L267 893.656 L342 893.656 L348.656 893.656 L348.656 887 L348.656 804.123 C357.187 799.899 365.187 796.038 373.232 791.568 L373.288 791.538 L373.342 791.506 C405.252 772.978 430.948 744.338 440.375 712.913 L440.591 712.193 L440.641 711.443 L442.641 681.443 L442.859 678.17 L440.397 676.003 L415.397 654.003 L390.397 632.003 L379.344 622.276 L379.344 637 C379.344 666.177 368.102 689.634 348.656 708.448 L348.656 448.516 C428.127 393.721 476.656 312.825 476.656 228 C476.656 122.17 428.395 31.8569 348.656 -1.494 L348.656 -74 L348.656 -80.656 L342 -80.656 L267 -80.656 L260.344 -80.656 L260.344 -74 L260.344 -15.272 C248.065 -14.5269 235.659 -13.6408 223.656 -11.86 L223.656 -74 L223.656 -80.656 L217 -80.656 L142 -80.656 L135.344 -80.656 L135.344 -74 L135.344 18.952 C126.402 23.7419 118.181 29.2945 111.006 34.6752 L110.994 34.6848 L110.981 34.6946 C77.147 60.3262 51.1904 97.407 43.9389 139.88 L43.8721 140.271 L43.8523 140.668 L42.3523 170.668 L42.1678 174.358 L45.2017 176.466 L104.202 217.466 L114.656 224.731 L114.656 212 C114.656 181.513 122.204 155.258 135.344 132.683 L135.344 400.712 C69.8561 451.336 30.344 520.15 30.344 591 C30.344 684.023 73.4829 765.905 135.344 803.78 L135.344 887 L135.344 893.656 L142 893.656 L217 893.656 L223.504 893.656 L223.654 887.154 L225.005 828.602 C236.727 828.41 249.03 827.708 260.344 826.499 L260.344 887 L260.344 887 Z M273.656 880.344 L273.656 819 L273.656 811.398 L266.12 812.402 C251.369 814.369 234.31 815.344 218.5 815.344 L211.996 815.344 L211.846 821.846 L210.496 880.344 L148.656 880.344 L148.656 800 L148.656 796.168 L145.342 794.244 C84.971 759.19 43.656 682.325 43.656 591 C43.656 522.796 81.0818 458.5 146.019 409.305 L148.656 407.308 L148.656 404 L148.656 111 L148.656 91.6008 L136.746 106.914 C117.339 131.866 104.235 163.507 101.767 199.563 L55.832 167.642 L57.128 141.733 C63.9586 102.388 86.9455 69.6118 118.994 45.3248 L119.019 45.3054 C126.864 39.4233 135.358 33.7627 144.977 28.9533 L148.656 27.1136 L148.656 23 L148.656 -67.344 L210.344 -67.344 L210.344 -4 L210.344 4.01999 L218.227 2.542 C233.812 -0.380258 250.391 -1.35549 267.391 -2.35549 L273.656 -2.72402 L273.656 -9 L273.656 -67.344 L335.344 -67.344 L335.344 3 L335.344 7.55905 L339.595 9.20633 C417.323 39.326 463.344 123.697 463.344 228 C463.344 310.136 417.068 386.298 338.276 439.483 L335.344 441.462 L335.344 445 L335.344 723 L335.344 736.609 L346.086 728.254 C370.573 709.209 387.839 682.615 391.794 650.965 L406.603 663.997 L429.141 683.83 L427.41 709.794 C418.689 738.055 396.527 762.636 366.712 779.962 C357.922 784.842 349.069 789.024 339.023 794.047 L335.344 795.886 L335.344 800 L335.344 880.344 L273.656 880.344 L273.656 880.344 Z M223.675 515.087 C234.382 506.29 246.617 498.757 260.344 492.259 L260.344 749.154 C249.032 750.585 236.819 751.863 225.115 752.235 L223.675 515.087 L223.675 515.087 Z M212.668 506.946 L210.325 508.955 L210.344 512.04 L211.844 759.04 L211.884 765.656 L218.5 765.656 C234.879 765.656 252.818 763.606 267.88 761.598 L273.656 760.827 L273.656 755 L273.656 482 L273.656 471.976 L264.417 475.866 C245.008 484.038 227.116 494.562 212.668 506.946 L212.668 506.946 Z M223.656 349.487 L223.656 64.951 C235.557 61.5273 247.367 59.2837 260.344 58.147 L260.344 332.444 C251.544 338.06 241.285 342.337 230.485 346.837 C228.444 347.652 226.103 348.512 223.656 349.487 L223.656 349.487 Z M210.344 360 L210.344 371.756 L220.424 365.707 C224.798 363.083 230.29 361.253 235.472 359.18 L235.516 359.162 L235.56 359.144 C247.56 354.144 260.226 348.867 270.817 341.453 L273.656 339.465 L273.656 336 L273.656 51 L273.656 43.964 L266.631 44.3542 C248.199 45.3783 231.388 48.5302 215.015 53.647 L210.344 55.1066 L210.344 60 L210.344 360 L210.344 360 Z " />
<glyph glyph-name="percent" unicode="&#x25;" horiz-adv-x="552" d="M420 -16.656 C371.568 -16.656 341.344 55.6651 341.344 140 C341.344 224.335 371.568 296.656 420 296.656 C469.432 296.656 499.656 224.335 499.656 140 C499.656 55.6651 469.432 -16.656 420 -16.656 L420 -16.656 Z M420 -3.344 C460.568 -3.344 486.344 58.3349 486.344 140 C486.344 221.665 460.568 283.344 420 283.344 C380.432 283.344 354.656 221.665 354.656 140 C354.656 58.3349 380.432 -3.344 420 -3.344 L420 -3.344 Z M421.344 140 C421.344 160.467 421.047 179.586 420.484 196.185 C419.952 179.58 419.656 160.46 419.656 140 C419.656 119.54 419.952 100.42 420.484 83.815 C421.047 100.414 421.344 119.533 421.344 140 L421.344 140 Z M434.656 140 C434.656 107.415 433.9 77.9484 432.517 56.6927 C431.822 46.0186 430.945 37.1542 429.924 31.0436 C428.848 24.6013 425.989 16.344 420 16.344 C415.719 16.344 412.877 21.111 412.176 23.448 C411.616 25.313 411.076 28.0862 410.63 31.1969 C409.76 37.2674 408.986 46.0744 408.356 56.7318 C407.099 77.968 406.344 107.415 406.344 140 C406.344 172.585 407.099 202.032 408.356 223.268 C408.986 233.926 409.76 242.733 410.63 248.803 C411.076 251.914 411.616 254.687 412.176 256.552 C412.877 258.889 415.719 263.656 420 263.656 C425.989 263.656 428.848 255.399 429.924 248.956 C430.945 242.846 431.822 233.981 432.517 223.307 C433.9 202.052 434.656 172.585 434.656 140 L434.656 140 Z M132 827.656 C180.432 827.656 210.656 755.335 210.656 671 C210.656 586.665 180.432 514.344 132 514.344 C82.5678 514.344 52.344 586.665 52.344 671 C52.344 755.335 82.5678 827.656 132 827.656 L132 827.656 Z M132 814.344 C91.4322 814.344 65.656 752.665 65.656 671 C65.656 589.335 91.4322 527.656 132 527.656 C171.568 527.656 197.344 589.335 197.344 671 C197.344 752.665 171.568 814.344 132 814.344 L132 814.344 Z M130.656 671 C130.656 650.533 130.953 631.414 131.516 614.815 C132.048 631.42 132.344 650.54 132.344 671 C132.344 691.46 132.048 710.58 131.516 727.185 C130.953 710.586 130.656 691.467 130.656 671 L130.656 671 Z M117.344 671 C117.344 703.585 118.1 733.052 119.483 754.307 C120.178 764.981 121.055 773.846 122.076 779.956 C123.152 786.399 126.011 794.656 132 794.656 C136.281 794.656 139.123 789.889 139.824 787.552 C140.384 785.687 140.924 782.914 141.37 779.803 C142.24 773.733 143.014 764.926 143.644 754.268 C144.901 733.032 145.656 703.585 145.656 671 C145.656 638.415 144.901 608.968 143.644 587.732 C143.014 577.074 142.24 568.267 141.37 562.197 C140.924 559.086 140.384 556.313 139.824 554.448 C139.123 552.111 136.281 547.344 132 547.344 C126.011 547.344 123.152 555.601 122.076 562.044 C121.055 568.154 120.178 577.019 119.483 587.693 C118.1 608.948 117.344 638.415 117.344 671 L117.344 671 Z M106 -6.656 L96.4411 -6.656 L99.7574 2.30922 L399.757 813.309 L401.365 817.656 L406 817.656 L446 817.656 L455.559 817.656 L452.243 808.691 L152.243 -2.30922 L150.635 -6.656 L146 -6.656 L106 -6.656 L106 -6.656 Z M115.559 6.656 L141.365 6.656 L436.441 804.344 L410.635 804.344 L115.559 6.656 L115.559 6.656 Z " />
<glyph glyph-name="ampersand" unicode="&#x26;" horiz-adv-x="553" d="M41.656 214.17 C47.2169 222.799 54.5308 234.717 63.2818 249.407 C84.2509 284.605 113.196 335.259 145.172 393.215 L145.863 394.467 L146.706 395.1 C132.374 428.641 121.344 500.269 121.344 571 C121.344 672.889 174.287 758.656 241 758.656 C302.619 758.656 351.656 682.968 351.656 591 C351.656 555.877 326.094 482.258 293.804 424.742 L292.971 423.258 L291.528 422.356 L280.99 415.77 C300.393 382.19 329.291 329.58 361.732 269.182 C367.459 306.016 370.191 346.59 369.345 388.867 L369.175 397.383 L377.48 395.489 L434.48 382.489 L439.586 381.325 L439.655 376.089 C440.647 301.683 430.806 231.592 412.177 172.597 C429.666 138.539 444.764 108.039 454.47 85.925 C459.464 74.5469 463.168 65.041 464.992 58.4673 C465.313 57.3098 465.594 56.1489 465.821 55.028 C470.407 56.2605 476.178 58.3014 482.246 61.0594 L490.266 64.7052 L491.581 55.9934 L499.581 2.99343 L500.343 -2.05252 L495.668 -4.09794 C479.236 -11.287 459.907 -16.656 453 -16.656 C409.523 -16.656 372.713 5.36966 342.059 39.752 C306.04 -1.60427 260.516 -26.656 213 -26.656 C110.857 -26.656 28.344 73.6134 28.344 195 L28.344 228.28 L41.656 228.28 L41.656 214.17 L41.656 214.17 Z M485.646 6.124 L479.685 45.615 C470.859 42.3311 462.521 40.344 458 40.344 L424.72 40.344 L424.72 53.656 L452.501 53.656 C452.402 54.0385 452.29 54.4544 452.164 54.9077 C450.52 60.834 447.161 69.4531 442.28 80.575 C432.468 102.932 417.059 133.999 399.081 168.956 L397.818 171.412 L398.664 174.04 C417.049 231.13 426.871 298.201 426.397 370.679 L382.777 380.627 C383.191 333.314 379.149 287.709 371.538 247.755 L368.016 229.26 L359.132 245.859 C321.148 316.829 287.206 378.722 266.251 414.646 L262.998 420.223 L268.472 423.644 L283.024 432.739 C314.331 488.967 338.344 558.409 338.344 591 C338.344 679.032 295.381 745.344 241 745.344 C181.713 745.344 134.656 669.111 134.656 571 C134.656 497.536 146.408 425.068 160.953 395.977 L163.438 391.008 L158.994 387.675 L156.137 385.533 C124.386 328.01 95.5977 277.641 74.7182 242.593 C64.1903 224.922 55.6043 211.033 49.6691 202.098 C46.6697 197.583 44.1703 194.082 42.454 192.041 C42.22 191.763 41.9595 191.469 41.683 191.176 C43.3123 76.3873 118.193 -13.344 213 -13.344 C259.215 -13.344 301.618 11.1553 336.849 54.2148 L341.939 60.4367 L347.102 54.2746 C377.445 18.0584 410.945 -3.344 453 -3.344 C457.584 -3.344 471.549 0.407504 485.646 6.124 L485.646 6.124 Z M254.648 459.332 L256.31 426.094 L251.748 425.269 L241.657 456.982 C234.448 479.639 229.344 529.661 229.344 580 C229.344 613.555 229.846 643.69 230.724 665.394 C231.165 676.274 231.708 685.194 232.331 691.343 C232.648 694.474 233.024 697.175 233.418 698.999 C233.899 701.22 236.258 706.656 241 706.656 C245.675 706.656 248.079 701.324 248.57 699.148 C248.968 697.378 249.348 694.757 249.666 691.746 C250.29 685.843 250.835 677.29 251.275 666.907 C252.154 646.199 252.656 617.558 252.656 586 C252.656 528.068 253.653 479.234 254.648 459.332 L254.648 459.332 Z M180.084 326.726 C169.068 291.702 161.656 246.901 161.656 210 C161.656 117.242 188.563 47.656 221 47.656 C250.833 47.656 276.357 64.5306 299.944 97.143 C288.851 114.292 279.341 132.368 269.104 151.912 L269.09 151.938 L269.077 151.964 C232.544 223.248 200.749 285.054 180.084 326.726 L180.084 326.726 Z M172.775 346.356 L178.227 360.766 L184.982 346.918 C204.946 305.991 239.905 238.071 280.896 158.088 L280.923 158.036 C291.909 137.063 301.739 118.39 313.538 100.692 L316.05 96.9236 L313.467 93.2034 C287.776 56.2084 256.073 34.344 221 34.344 C179.437 34.344 148.344 114.758 148.344 210 C148.344 253.611 158.564 308.798 172.775 346.356 L172.775 346.356 Z " />
<glyph glyph-name="quotesingle" unicode="&#x27;" horiz-adv-x="245" d="M73.344 811 L73.344 817.656 L80 817.656 L195 817.656 L201.656 817.656 L201.656 811 L201.656 691 L201.656 690.109 L201.421 689.249 L171.421 579.249 L170.084 574.344 L165 574.344 L110 574.344 L104.916 574.344 L103.579 579.249 L73.5785 689.249 L73.344 690.109 L73.344 691 L73.344 811 L73.344 811 Z M86.656 804.344 L86.656 691.891 L115.084 587.656 L159.916 587.656 L188.344 691.891 L188.344 804.344 L86.656 804.344 L86.656 804.344 Z " />
<glyph glyph-name="parenleft" unicode="&#x28;" horiz-adv-x="330" d="M265.729 861.105 L270.628 865.204 L274.925 860.477 L314.925 816.477 L319.544 811.396 L314.321 806.938 C233.805 738.204 181.656 566.014 181.656 362 C181.656 168.025 233.766 2.84736 314.285 -64.9071 L319.518 -69.3104 L314.975 -74.422 L274.975 -119.422 L270.684 -124.25 L265.729 -120.105 C160.335 -31.9389 93.344 156.854 93.344 362 C93.344 578.112 160.308 772.916 265.729 861.105 L265.729 861.105 Z M269.424 846.739 C169.648 759.083 106.656 572.499 106.656 362 C106.656 162.397 169.598 -18.1846 269.367 -105.694 L300.564 -70.597 C220.025 2.24295 168.344 170.037 168.344 362 C168.344 563.73 219.993 738.436 300.542 812.509 L269.424 846.739 L269.424 846.739 Z " />
<glyph glyph-name="parenright" unicode="&#x29;" horiz-adv-x="290" d="M64.2707 -120.105 L59.3165 -124.25 L55.0252 -119.422 L15.0252 -74.422 L10.4544 -69.2798 L15.745 -64.8817 C97.1942 2.82907 148.344 174.968 148.344 379 C148.344 572.993 97.2182 738.169 15.7089 806.912 L10.428 811.366 L15.075 816.477 L55.075 860.477 L59.3716 865.204 L64.2707 861.105 C169.665 772.939 236.656 584.146 236.656 379 C236.656 163.893 169.696 -31.9125 64.2707 -120.105 L64.2707 -120.105 Z M60.63 -105.691 C160.371 -17.9879 223.344 169.517 223.344 379 C223.344 578.64 160.379 759.25 60.578 846.741 L29.489 812.543 C110.945 738.759 161.656 570.956 161.656 379 C161.656 177.29 110.968 2.5367 29.458 -70.622 L60.63 -105.691 L60.63 -105.691 Z " />
<glyph glyph-name="asterisk" unicode="&#x2a;" horiz-adv-x="406" d="M336.708 761.785 L343.776 765.806 L346.321 758.084 L376.321 667.084 L378.886 659.304 L370.746 658.386 L252.358 645.034 L340.477 564.925 L346.513 559.438 L339.927 554.626 L261.927 497.626 L255.304 492.786 L251.932 500.264 L203 608.805 L154.068 500.264 L150.696 492.786 L144.073 497.626 L66.0728 554.626 L59.4874 559.438 L65.5227 564.925 L153.642 645.034 L35.2541 658.386 L27.1138 659.304 L29.6787 667.084 L59.6787 758.084 L62.2244 765.806 L69.2916 761.785 L172.513 703.056 L148.481 819.656 L146.832 827.656 L155 827.656 L251 827.656 L259.168 827.656 L257.519 819.656 L233.487 703.056 L336.708 761.785 L336.708 761.785 Z M336.224 746.194 L227.292 684.215 L214.513 676.944 L217.481 691.344 L242.832 814.344 L163.168 814.344 L188.519 691.344 L191.487 676.944 L178.708 684.215 L69.776 746.194 L44.886 670.696 L169.746 656.614 L184.358 654.966 L173.477 645.075 L80.513 560.562 L145.304 513.214 L196.932 627.736 L203 641.195 L209.068 627.736 L260.696 513.214 L325.487 560.562 L232.523 645.075 L221.642 654.966 L236.254 656.614 L361.114 670.696 L336.224 746.194 L336.224 746.194 Z " />
<glyph glyph-name="plus" unicode="&#x2b;" horiz-adv-x="651" d="M281.344 253.344 L25 253.344 L18.344 253.344 L18.344 260 L18.344 330 L18.344 336.656 L25 336.656 L281.344 336.656 L281.344 581 L281.344 587.656 L288 587.656 L363 587.656 L369.656 587.656 L369.656 581 L369.656 336.656 L626 336.656 L632.656 336.656 L632.656 330 L632.656 260 L632.656 253.344 L626 253.344 L369.656 253.344 L369.656 0 L369.656 -6.656 L363 -6.656 L288 -6.656 L281.344 -6.656 L281.344 0 L281.344 253.344 L281.344 253.344 Z M288 266.656 L294.656 266.656 L294.656 260 L294.656 6.656 L356.344 6.656 L356.344 260 L356.344 266.656 L363 266.656 L619.344 266.656 L619.344 323.344 L363 323.344 L356.344 323.344 L356.344 330 L356.344 574.344 L294.656 574.344 L294.656 330 L294.656 323.344 L288 323.344 L31.656 323.344 L31.656 266.656 L288 266.656 L288 266.656 Z " />
<glyph glyph-name="comma" unicode="&#x2c;" horiz-adv-x="225" d="M43.344 125 L43.344 131.656 L50 131.656 L175 131.656 L181.656 131.656 L181.656 125 L181.656 0 C181.656 -82.8526 135.662 -126.656 50 -126.656 L43.344 -126.656 L43.344 -120 L43.344 -60 L43.344 -53.344 L50 -53.344 C78.0895 -53.344 91.6379 -39.4283 93.192 -6.656 L50 -6.656 L43.344 -6.656 L43.344 0 L43.344 125 L43.344 125 Z M56.656 118.344 L56.656 6.656 L100 6.656 L106.656 6.656 L106.656 0 C106.656 -39.7629 88.5979 -63.5216 56.656 -66.367 L56.656 -113.259 C132.438 -111.283 168.344 -74.985 168.344 0 L168.344 118.344 L56.656 118.344 L56.656 118.344 Z " />
<glyph glyph-name="hyphen" unicode="&#x2d;" horiz-adv-x="245" d="M50 230.344 L43.344 230.344 L43.344 237 L43.344 332 L43.344 338.656 L50 338.656 L195 338.656 L201.656 338.656 L201.656 332 L201.656 237 L201.656 230.344 L195 230.344 L50 230.344 L50 230.344 Z M56.656 243.656 L188.344 243.656 L188.344 325.344 L56.656 325.344 L56.656 243.656 L56.656 243.656 Z " />
<glyph glyph-name="period" unicode="&#x2e;" horiz-adv-x="225" d="M50 -6.656 L43.344 -6.656 L43.344 0 L43.344 125 L43.344 131.656 L50 131.656 L175 131.656 L181.656 131.656 L181.656 125 L181.656 0 L181.656 -6.656 L175 -6.656 L50 -6.656 L50 -6.656 Z M56.656 6.656 L168.344 6.656 L168.344 118.344 L56.656 118.344 L56.656 6.656 L56.656 6.656 Z " />
<glyph glyph-name="slash" unicode="&#x2f;" horiz-adv-x="320" d="M0 -6.656 L-9.23111 -6.656 L-6.31521 2.10248 L263.685 813.102 L265.201 817.656 L270 817.656 L320 817.656 L329.231 817.656 L326.315 808.898 L56.3152 -2.10248 L54.7992 -6.656 L50 -6.656 L0 -6.656 L0 -6.656 Z M9.231 6.656 L45.201 6.656 L310.769 804.344 L274.799 804.344 L9.231 6.656 L9.231 6.656 Z " />
<glyph glyph-name="zero" unicode="0" horiz-adv-x="580" d="M45.344 406 C45.344 649.77 147.14 827.656 288 827.656 C429.86 827.656 531.656 649.77 531.656 406 C531.656 150.242 436.874 -16.656 288 -16.656 C140.126 -16.656 45.344 150.242 45.344 406 L45.344 406 Z M58.656 406 C58.656 153.758 147.874 -3.344 288 -3.344 C429.126 -3.344 518.344 153.758 518.344 406 C518.344 646.23 422.14 814.344 288 814.344 C154.86 814.344 58.656 646.23 58.656 406 L58.656 406 Z M288 53.656 C316.667 53.656 339.943 84.7653 357.606 145.849 C375.448 207.552 385.344 296.37 385.344 406 C385.344 510.102 374.706 598.668 356.482 661.521 C338.413 723.841 315.029 757.344 288 757.344 C261.49 757.344 238.345 723.861 220.396 661.533 C202.295 598.674 191.656 510.102 191.656 406 C191.656 296.37 201.553 207.546 219.272 145.837 C236.815 84.7449 259.852 53.656 288 53.656 L288 53.656 Z M288 40.344 C253.148 40.344 224.685 78.7551 206.478 142.163 C188.447 204.954 178.344 295.63 178.344 406 C178.344 510.898 189.205 601.326 207.604 665.217 C226.155 729.639 254.51 770.656 288 770.656 C321.971 770.656 350.587 729.659 369.268 665.229 C387.794 601.332 398.656 510.898 398.656 406 C398.656 295.63 388.552 204.948 370.394 142.151 C352.057 78.7347 323.333 40.344 288 40.344 L288 40.344 Z " />
<glyph glyph-name="one" unicode="1" horiz-adv-x="370" d="M206 -6.656 L142 -6.656 L112 -6.656 L105.344 -6.656 L105.344 0 L105.344 13 L105.344 14.7531 L106.208 16.2787 L135.344 67.753 L135.344 656.207 L55.7611 518.667 L43.344 497.207 L43.344 522 L43.344 608 L43.344 609.82 L44.2702 611.387 L164.27 814.387 L166.203 817.656 L170 817.656 L270 817.656 L276.656 817.656 L276.656 811 L276.656 67.753 L305.792 16.2787 L306.656 14.7531 L306.656 13 L306.656 0 L306.656 -6.656 L300 -6.656 L270 -6.656 L206 -6.656 L206 -6.656 Z M206 6.656 L270 6.656 L293.344 6.656 L293.344 11.247 L264.208 62.7213 L263.344 64.2469 L263.344 66 L263.344 804.344 L173.797 804.344 L56.656 606.18 L56.656 546.793 L136.239 684.333 L148.656 705.793 L148.656 681 L148.656 66 L148.656 64.2469 L147.792 62.7213 L118.656 11.247 L118.656 6.656 L142 6.656 L206 6.656 L206 6.656 Z " />
<glyph glyph-name="two" unicode="2" horiz-adv-x="477" d="M60 -6.656 L53.344 -6.656 L53.344 0 C53.344 185.454 93.5928 273.176 171.785 337.151 L171.791 337.156 L171.797 337.161 C240.872 393.408 295.344 485.816 295.344 544 C295.344 641.555 261.719 715.344 220 715.344 C183.057 715.344 152.656 656.385 152.656 579 C152.656 538.005 169 485.127 189.254 459.086 L194.239 452.678 L186.977 449.047 L124.977 418.047 L120.262 415.689 L116.887 419.739 C90.9651 450.845 71.344 522.1 71.344 579 C71.344 715.152 152.597 827.656 253 827.656 C353.483 827.656 433.656 712.083 433.656 571 C433.656 513.83 350.881 400.397 248.231 315.862 L248.218 315.851 L248.204 315.84 C196.516 273.723 165.095 222.524 150.725 130.656 L375.269 130.656 L425.758 158.813 L427.269 159.656 L429 159.656 L442 159.656 L448.656 159.656 L448.656 153 L448.656 124 L448.656 62 L448.656 0 L448.656 -6.656 L442 -6.656 L135 -6.656 L60 -6.656 L60 -6.656 Z M66.673 6.656 L135 6.656 L435.344 6.656 L435.344 62 L435.344 124 L435.344 146.344 L430.731 146.344 L380.242 118.187 L378.731 117.344 L377 117.344 L143 117.344 L135.326 117.344 L136.411 124.941 C150.599 224.256 184.881 281.405 239.769 326.138 L239.796 326.16 C341.133 409.622 420.344 518.175 420.344 571 C420.344 707.917 346.517 814.344 253 814.344 C159.403 814.344 84.656 710.848 84.656 579 C84.656 526.381 101.418 463.142 123.897 432.39 L174.063 457.473 C154.521 487.122 139.344 539.128 139.344 579 C139.344 659.615 174.943 728.656 220 728.656 C270.281 728.656 308.656 644.445 308.656 544 C308.656 482.188 251.135 384.603 180.215 326.849 L180.203 326.839 C105.331 265.574 67.5855 184.546 66.673 6.656 L66.673 6.656 Z " />
<glyph glyph-name="three" unicode="3" horiz-adv-x="479" d="M39.344 265 L39.344 271.656 L46 271.656 L179 271.656 L185.656 271.656 L185.656 265 C185.656 206.42 192.289 154.091 203.15 116.079 C213.881 78.5213 226.636 58.656 240 58.656 C267.125 58.656 290.344 132.028 290.344 231 C290.344 311.303 257.049 372.344 215 372.344 L155 372.344 L148.344 372.344 L148.344 379 L148.344 428 L148.344 448 L148.344 477 L148.344 483.656 L155 483.656 L235 483.656 C258.494 483.656 278.344 533.282 278.344 600 C278.344 690.019 258.054 757.344 236 757.344 C230.853 757.344 224.141 742.002 217.907 710.219 C211.599 678.062 207.656 633.705 207.656 584 L207.656 577.344 L201 577.344 L73 577.344 L66.344 577.344 L66.344 584 C66.344 718.086 142.521 827.656 238 827.656 C333.237 827.656 409.656 730.3 409.656 611 C409.656 541.24 386.644 469.954 354.371 437.474 C404.53 396.888 440.656 309.791 440.656 226 C440.656 92.6221 351.152 -16.656 240 -16.656 C128.548 -16.656 39.344 109.89 39.344 265 L39.344 265 Z M52.71 258.344 C55.1038 110.67 136.994 -3.344 240 -3.344 C344.848 -3.344 427.344 97.3779 427.344 226 C427.344 310.624 390.626 395.655 340.141 431.577 L333.061 436.614 L339.769 442.138 C372.314 468.94 396.344 539.108 396.344 611 C396.344 725.7 326.763 814.344 238 814.344 C150.997 814.344 82.0555 717.328 79.717 590.656 L194.368 590.656 C194.708 638.314 198.687 681.393 204.843 712.781 C211.359 745.998 222.147 770.656 236 770.656 C267.946 770.656 291.656 691.981 291.656 600 C291.656 530.718 267.506 470.344 235 470.344 L161.656 470.344 L161.656 448 L161.656 428 L161.656 385.656 L215 385.656 C264.951 385.656 303.656 314.697 303.656 231 C303.656 129.972 276.875 45.344 240 45.344 C219.364 45.344 201.619 72.9787 190.35 112.421 C179.628 149.949 172.865 201.542 172.373 258.344 L52.71 258.344 L52.71 258.344 Z " />
<glyph glyph-name="four" unicode="4" horiz-adv-x="475" d="M18.344 284 L18.344 285.731 L19.1873 287.243 L313.187 814.243 L315.092 817.656 L319 817.656 L418 817.656 L424.656 817.656 L424.656 811 L424.656 298.656 L455 298.656 L461.656 298.656 L461.656 292 L461.656 230 L461.656 223.344 L455 223.344 L424.656 223.344 L424.656 67.753 L453.792 16.2787 L454.656 14.7531 L454.656 13 L454.656 0 L454.656 -6.656 L448 -6.656 L418 -6.656 L354 -6.656 L290 -6.656 L260 -6.656 L253.344 -6.656 L253.344 0 L253.344 13 L253.344 14.7531 L254.208 16.2787 L283.344 67.753 L283.344 223.344 L25 223.344 L18.344 223.344 L18.344 230 L18.344 284 L18.344 284 Z M31.656 282.269 L31.656 236.656 L290 236.656 L296.656 236.656 L296.656 230 L296.656 66 L296.656 64.2469 L295.792 62.7213 L266.656 11.247 L266.656 6.656 L290 6.656 L354 6.656 L418 6.656 L441.344 6.656 L441.344 11.247 L412.208 62.7213 L411.344 64.2469 L411.344 66 L411.344 230 L411.344 236.656 L418 236.656 L448.344 236.656 L448.344 285.344 L418 285.344 L411.344 285.344 L411.344 292 L411.344 804.344 L322.908 804.344 L31.656 282.269 L31.656 282.269 Z M102.318 298.656 L283.344 298.656 L283.344 598 L283.344 598.439 L283.402 598.873 L287.811 632.186 L102.318 298.656 L102.318 298.656 Z M91 285.344 L79.6822 285.344 L85.1831 295.235 L293.183 669.235 L309.358 698.32 L309.965 698.119 L305.598 665.127 L296.656 597.561 L296.656 292 L296.656 285.344 L290 285.344 L91 285.344 L91 285.344 Z " />
<glyph glyph-name="five" unicode="5" horiz-adv-x="475" d="M86.5458 368.505 L81.6426 369.603 L81.3549 374.619 L56.3549 810.619 L55.9514 817.656 L63 817.656 L401 817.656 L408.142 817.656 L407.639 810.531 L401.639 725.531 L401.636 725.477 L401.631 725.423 C399.634 702.456 397.643 676.57 396.647 657.65 L396.315 651.344 L390 651.344 L377 651.344 L375.168 651.344 L373.593 652.282 L328.273 679.281 L132.276 672.589 L149.372 487.229 C180.406 514.97 217.633 534.656 239 534.656 C351.429 534.656 441.656 408.13 441.656 254 C441.656 104.817 352.368 -16.656 241 -16.656 C129.548 -16.656 40.344 109.89 40.344 265 L40.344 271.656 L47 271.656 L180 271.656 L186.656 271.656 L186.656 265 C186.656 206.42 193.289 154.091 204.15 116.079 C214.881 78.5213 227.636 58.656 241 58.656 C252.802 58.656 264.342 77.2027 274.211 112.779 C284.205 148.805 290.344 198.41 290.344 254 C290.344 345.951 257.198 415.536 215.724 416.337 C216.949 416.291 216.599 415.945 213.953 413.337 C210.793 410.223 206.438 405.714 201.088 400.053 C190.367 388.71 175.905 373 159.912 355.509 L157.31 352.662 L153.546 353.505 L86.5458 368.505 L86.5458 368.505 Z M94.357 380.397 L152.691 367.338 C167.669 383.708 181.22 398.412 191.412 409.197 C196.812 414.911 201.332 419.59 204.609 422.819 C207.969 426.129 211.999 429.656 215 429.656 C265.188 429.656 303.656 349.515 303.656 254 C303.656 197.59 297.295 146.195 287.039 109.221 C276.658 71.7973 260.198 45.344 241 45.344 C220.364 45.344 202.619 72.9787 191.35 112.421 C180.628 149.949 173.865 201.542 173.373 258.344 L53.71 258.344 C56.1038 110.67 137.994 -3.344 241 -3.344 C345.632 -3.344 428.344 109.183 428.344 254 C428.344 403.87 344.571 521.344 239 521.344 C218.739 521.344 180.057 499.644 148.707 468.293 L138.675 458.262 L137.372 472.389 L118.372 678.389 L117.724 685.411 L124.773 685.652 L329.773 692.652 L331.727 692.719 L333.407 691.718 L378.832 664.656 L383.706 664.656 C384.783 682.927 386.575 705.95 388.364 726.523 L393.858 804.344 L70.049 804.344 L94.357 380.397 L94.357 380.397 Z " />
<glyph glyph-name="six" unicode="6" horiz-adv-x="473" d="M430.114 681.631 L432.357 676.42 L427.566 673.38 L375.566 640.38 L368.987 636.205 L365.892 643.356 C337.357 709.281 289.131 760.344 258 760.344 C241.306 760.344 226.139 726.604 214.286 665.115 C203.711 610.259 197.245 536.851 195.913 454.547 C219.974 509.826 229.643 533.656 268 533.656 C378.374 533.656 466.656 413.178 466.656 265 C466.656 109.83 374.383 -16.656 260 -16.656 C130.875 -16.656 49.344 147.438 49.344 400 C49.344 635.348 130.586 827.656 258 827.656 C318.45 827.656 395.499 762.06 430.114 681.631 L430.114 681.631 Z M196.656 350.089 C199.152 256.381 206.833 181.322 218.737 129.49 C230.521 78.1828 244.384 53.656 260 53.656 C273.355 53.656 286.368 74.0145 297.35 112.454 C308.462 151.346 315.344 204.926 315.344 265 C315.344 377.931 287.186 463.344 255 463.344 C199.359 463.344 196.659 409.887 196.656 350.089 L196.656 350.089 Z M183.346 349.823 L183.344 349.912 L183.344 350 C183.344 366.046 183.58 382.542 185.223 398.107 L182.344 391.772 L182.344 422.5 C182.344 518.26 189.144 605.018 201.214 667.635 C213.361 730.646 232.694 773.656 258 773.656 C293.58 773.656 344.903 720.632 374.93 655.743 L415.591 681.547 C381.336 756.612 312.308 814.344 258 814.344 C139.414 814.344 62.656 632.652 62.656 400 C62.656 150.562 139.125 -3.344 260 -3.344 C367.617 -3.344 453.344 114.17 453.344 265 C453.344 408.822 371.626 520.344 268 520.344 C242.38 520.344 233.948 506.937 215.519 465.714 C225.371 472.65 238.227 476.656 255 476.656 C296.814 476.656 328.656 380.069 328.656 265 C328.656 204.074 321.538 148.654 310.15 108.796 C298.632 68.4855 280.645 40.344 260 40.344 C236.616 40.344 217.979 73.3172 205.763 126.51 C193.671 179.162 185.853 255.572 183.346 349.823 L183.346 349.823 Z " />
<glyph glyph-name="seven" unicode="7" horiz-adv-x="370" d="M23.344 811 L23.344 817.656 L30 817.656 L360 817.656 L366.656 817.656 L366.656 811 L366.656 688 L366.656 686.226 L365.773 684.687 C265.277 509.565 214.656 282.268 214.656 0 L214.656 -6.656 L208 -6.656 L65 -6.656 L58.344 -6.656 L58.344 0 C58.344 181.883 136 410.171 291.487 681.344 L97.753 681.344 L46.2787 652.208 L44.7531 651.344 L43 651.344 L30 651.344 L23.344 651.344 L23.344 658 L23.344 688 L23.344 749 L23.344 811 L23.344 811 Z M36.656 804.344 L36.656 749 L36.656 688 L36.656 664.656 L41.247 664.656 L92.7213 693.792 L94.2469 694.656 L96 694.656 L303 694.656 L314.537 694.656 L308.762 684.668 C152.015 413.565 73.5755 187.449 71.691 6.656 L201.353 6.656 C202.149 286.521 253.218 514.483 353.344 689.771 L353.344 804.344 L36.656 804.344 L36.656 804.344 Z " />
<glyph glyph-name="eight" unicode="8" horiz-adv-x="508" d="M79.344 611 C79.344 741.585 158.068 827.656 255 827.656 C362.459 827.656 431.656 729.103 431.656 611 C431.656 524.409 393.257 463.017 336.612 433.716 C416.333 400.777 460.656 315.588 460.656 219 C460.656 70.1283 368.644 -16.656 255 -16.656 C125.551 -16.656 50.344 89.8875 50.344 219 C50.344 327.536 101.456 403.159 173.404 433.57 C112.69 464.728 79.344 533.591 79.344 611 L79.344 611 Z M92.656 611 C92.656 530.651 127.715 464.323 193.377 439.217 L211.083 432.447 L193.032 426.662 C117.059 402.312 63.656 330.789 63.656 219 C63.656 94.1125 132.449 -3.344 255 -3.344 C363.356 -3.344 447.344 75.8717 447.344 219 C447.344 318.268 401.485 400.432 317.027 426.643 L299.019 432.232 L316.545 439.187 C377.702 463.455 418.344 521.11 418.344 611 C418.344 724.897 355.541 814.344 255 814.344 C163.932 814.344 92.656 736.415 92.656 611 L92.656 611 Z M255 470.656 C279.771 470.656 300.344 514.484 300.344 600 C300.344 690.105 281.922 757.344 255 757.344 C244.246 757.344 234.485 744.849 225.847 717.496 C217.02 689.545 211.656 649.556 211.656 600 C211.656 525.962 227.976 470.656 255 470.656 L255 470.656 Z M255 457.344 C218.024 457.344 198.344 524.038 198.344 600 C198.344 650.444 203.98 692.455 213.153 721.504 C222.515 751.151 237.754 770.656 255 770.656 C292.078 770.656 313.656 691.895 313.656 600 C313.656 511.516 288.229 457.344 255 457.344 L255 457.344 Z M255 53.656 C285.531 53.656 310.344 114.309 310.344 231 C310.344 325.056 289.997 395.344 255 395.344 C225.389 395.344 200.656 337.634 200.656 229 C200.656 128.888 221.089 53.656 255 53.656 L255 53.656 Z M255 40.344 C210.911 40.344 187.344 127.112 187.344 229 C187.344 340.366 216.611 408.656 255 408.656 C300.003 408.656 323.656 326.944 323.656 231 C323.656 111.691 294.469 40.344 255 40.344 L255 40.344 Z " />
<glyph glyph-name="nine" unicode="9" horiz-adv-x="473" d="M80.8583 129.434 L78.7145 134.567 L83.3841 137.588 L134.384 170.588 L140.985 174.859 L144.108 167.644 C172.643 101.719 220.869 50.656 252 50.656 C268.694 50.656 283.864 84.4024 295.842 145.898 C306.54 200.822 313.217 274.35 314.933 356.782 C290.384 301.329 281.475 277.344 242 277.344 C131.608 277.344 43.344 398.837 43.344 546 C43.344 701.17 135.617 827.656 251 827.656 C379.125 827.656 460.656 663.562 460.656 411 C460.656 175.667 380.436 -16.656 252 -16.656 C191.55 -16.656 114.472 48.9646 80.8583 129.434 L80.8583 129.434 Z M313.344 477.868 C309.851 566.068 301.925 636.879 290.275 685.834 C278.745 734.285 265.629 757.344 251 757.344 C237.114 757.344 223.87 736.953 212.77 698.528 C201.537 659.644 194.656 606.074 194.656 546 C194.656 433.069 222.814 347.656 255 347.656 C316.02 347.656 313.348 412.773 313.344 477.868 L313.344 477.868 Z M326.651 478.263 L326.656 478.132 L326.656 478 C326.656 455.542 327.049 431.413 324.453 409.463 L328.815 418.791 L328.656 388.465 C328.155 292.713 321.104 205.966 308.908 143.352 C296.636 80.3476 277.306 37.344 252 37.344 C216.432 37.344 165.13 90.3348 135.099 155.195 L95.338 129.467 C128.645 54.4044 197.673 -3.344 252 -3.344 C371.564 -3.344 447.344 178.333 447.344 411 C447.344 660.438 370.875 814.344 251 814.344 C142.383 814.344 56.656 696.83 56.656 546 C56.656 403.163 138.392 290.656 242 290.656 C268.308 290.656 276.359 304.099 295.193 345.654 C285.253 338.487 272.183 334.344 255 334.344 C213.186 334.344 181.344 430.931 181.344 546 C181.344 606.926 188.463 662.356 199.98 702.222 C211.63 742.547 229.886 770.656 251 770.656 C273.371 770.656 291.255 739.215 303.225 688.916 C315.069 639.145 323.141 567.002 326.651 478.263 L326.651 478.263 Z " />
<glyph glyph-name="colon" unicode="&#x3a;" horiz-adv-x="225" d="M50 449.344 L43.344 449.344 L43.344 456 L43.344 581 L43.344 587.656 L50 587.656 L175 587.656 L181.656 587.656 L181.656 581 L181.656 456 L181.656 449.344 L175 449.344 L50 449.344 L50 449.344 Z M56.656 462.656 L168.344 462.656 L168.344 574.344 L56.656 574.344 L56.656 462.656 L56.656 462.656 Z M50 -6.656 L43.344 -6.656 L43.344 0 L43.344 125 L43.344 131.656 L50 131.656 L175 131.656 L181.656 131.656 L181.656 125 L181.656 0 L181.656 -6.656 L175 -6.656 L50 -6.656 L50 -6.656 Z M56.656 6.656 L168.344 6.656 L168.344 118.344 L56.656 118.344 L56.656 6.656 L56.656 6.656 Z " />
<glyph glyph-name="semicolon" unicode="&#x3b;" horiz-adv-x="225" d="M50 449.344 L43.344 449.344 L43.344 456 L43.344 581 L43.344 587.656 L50 587.656 L175 587.656 L181.656 587.656 L181.656 581 L181.656 456 L181.656 449.344 L175 449.344 L50 449.344 L50 449.344 Z M56.656 462.656 L168.344 462.656 L168.344 574.344 L56.656 574.344 L56.656 462.656 L56.656 462.656 Z M43.344 125 L43.344 131.656 L50 131.656 L175 131.656 L181.656 131.656 L181.656 125 L181.656 0 C181.656 -82.8526 135.662 -126.656 50 -126.656 L43.344 -126.656 L43.344 -120 L43.344 -60 L43.344 -53.344 L50 -53.344 C78.0895 -53.344 91.6379 -39.4283 93.192 -6.656 L50 -6.656 L43.344 -6.656 L43.344 0 L43.344 125 L43.344 125 Z M56.656 118.344 L56.656 6.656 L100 6.656 L106.656 6.656 L106.656 0 C106.656 -39.7629 88.5979 -63.5216 56.656 -66.367 L56.656 -113.259 C132.438 -111.283 168.344 -74.985 168.344 0 L168.344 118.344 L56.656 118.344 L56.656 118.344 Z " />
<glyph glyph-name="less" unicode="&#x3c;" horiz-adv-x="285" d="M219.887 553.261 L231.656 567.384 L231.656 549 L231.656 454 L231.656 451.494 L230.003 449.61 L90.843 290.987 L230.017 131.374 L231.656 129.494 L231.656 127 L231.656 32 L231.656 13.6158 L219.887 27.7389 L39.8867 243.739 L38.344 245.59 L38.344 248 L38.344 333 L38.344 335.41 L39.8867 337.261 L219.887 553.261 L219.887 553.261 Z M218.344 530.616 L51.656 330.59 L51.656 250.41 L218.344 50.384 L218.344 124.506 L76.9833 286.626 L73.1574 291.013 L76.9966 295.39 L218.344 456.506 L218.344 530.616 L218.344 530.616 Z " />
<glyph glyph-name="equal" unicode="&#x3d;" horiz-adv-x="484" d="M32.344 224 L32.344 230.656 L39 230.656 L434 230.656 L440.656 230.656 L440.656 224 L440.656 154 L440.656 147.344 L434 147.344 L39 147.344 L32.344 147.344 L32.344 154 L32.344 224 L32.344 224 Z M45.656 217.344 L45.656 160.656 L427.344 160.656 L427.344 217.344 L45.656 217.344 L45.656 217.344 Z M32.344 447 L32.344 453.656 L39 453.656 L434 453.656 L440.656 453.656 L440.656 447 L440.656 377 L440.656 370.344 L434 370.344 L39 370.344 L32.344 370.344 L32.344 377 L32.344 447 L32.344 447 Z M45.656 440.344 L45.656 383.656 L427.344 383.656 L427.344 440.344 L45.656 440.344 L45.656 440.344 Z " />
<glyph glyph-name="greater" unicode="&#x3e;" horiz-adv-x="285" d="M194.157 290.987 L54.9966 449.61 L53.344 451.494 L53.344 454 L53.344 549 L53.344 567.384 L65.1133 553.261 L245.113 337.261 L246.656 335.41 L246.656 333 L246.656 248 L246.656 245.59 L245.113 243.739 L65.1133 27.7389 L53.344 13.6158 L53.344 32 L53.344 127 L53.344 129.494 L54.9833 131.374 L194.157 290.987 L194.157 290.987 Z M208.003 295.39 L211.843 291.013 L208.017 286.626 L66.656 124.506 L66.656 50.384 L233.344 250.41 L233.344 330.59 L66.656 530.616 L66.656 456.506 L208.003 295.39 L208.003 295.39 Z " />
<glyph glyph-name="question" unicode="&#x3f;" horiz-adv-x="445" d="M142 -6.656 L135.344 -6.656 L135.344 0 L135.344 125 L135.344 131.656 L142 131.656 L267 131.656 L273.656 131.656 L273.656 125 L273.656 0 L273.656 -6.656 L267 -6.656 L142 -6.656 L142 -6.656 Z M148.656 6.656 L260.344 6.656 L260.344 118.344 L148.656 118.344 L148.656 6.656 L148.656 6.656 Z M13.877 598.439 L7.8099 599.478 L8.37179 605.608 C19.5748 727.822 110.049 827.656 213 827.656 C317.134 827.656 401.656 725.395 401.656 601 C401.656 518.378 366.169 450.522 295.889 400.598 L295.854 400.573 C273.12 384.168 266.656 344.391 266.656 210 L266.656 203.344 L260 203.344 L150 203.344 L143.344 203.344 L143.344 210 C143.344 387.754 158.084 451.979 207.175 486.447 L207.183 486.453 L207.192 486.459 C248.861 515.53 268.344 552.641 268.344 601 C268.344 671.477 242.822 724.344 213 724.344 C174.789 724.344 139.5 664.911 132.631 585.427 L132.008 578.219 L124.877 579.439 L13.877 598.439 L13.877 598.439 Z M22.257 610.511 L120.079 593.766 C128.882 673.036 168.549 737.656 213 737.656 C251.178 737.656 281.656 674.523 281.656 601 C281.656 549.365 259.145 506.48 214.825 475.553 L214.808 475.541 C170.483 444.407 156.997 387.687 156.662 216.656 L253.35 216.656 C253.598 347.062 261.324 392.115 288.111 411.402 L288.128 411.414 L288.146 411.427 C355.843 459.501 388.344 521.636 388.344 601 C388.344 720.605 310.866 814.344 213 814.344 C117.637 814.344 35.3331 725.354 22.257 610.511 L22.257 610.511 Z " />
<glyph glyph-name="at" unicode="&#x40;" horiz-adv-x="1116" d="M915.221 -117.521 L920.746 -113.71 L924.511 -119.267 L945.511 -150.267 L949.182 -155.686 L943.825 -159.447 C849.028 -226.007 688.08 -279.656 582 -279.656 C288.065 -279.656 52.344 -21.5822 52.344 300 C52.344 620.582 288.065 878.656 582 878.656 C850.72 878.656 1068.66 664.794 1068.66 399 C1068.66 170.022 947.606 -15.656 796 -15.656 C717.723 -15.656 655.07 37.5154 629.116 115.072 C600.696 46.7473 554.907 -0.656 509 -0.656 C384.333 -0.656 299.135 134.407 317.382 300.711 L317.384 300.726 C333.614 451.809 441.984 575.656 560 575.656 C596.75 575.656 627.181 545.36 644.612 488.777 L652.385 558.735 L653.043 564.656 L659 564.656 L764 564.656 L771.409 564.656 L770.618 557.289 L735.619 231.303 L735.618 231.289 C723.801 118.988 759.436 33.656 815 33.656 C900.642 33.656 970.344 193.389 970.344 399 C970.344 636.411 798.072 824.344 582 824.344 C341.145 824.344 150.656 592.615 150.656 300 C150.656 6.39407 342.134 -225.344 582 -225.344 C681.934 -225.344 829.01 -176.977 915.221 -117.521 L915.221 -117.521 Z M917.221 -132.242 C828.734 -191.066 681.944 -238.656 582 -238.656 C335.866 -238.656 137.344 1.60593 137.344 300 C137.344 597.385 334.855 837.656 582 837.656 C803.928 837.656 983.656 641.589 983.656 399 C983.656 190.611 909.358 20.344 815 20.344 C750.566 20.344 710.202 117.005 722.381 232.697 L722.381 232.704 L722.382 232.711 L756.591 551.344 L664.957 551.344 L653.615 449.265 L649.94 416.189 L646.253 416.069 L640.446 448.839 C626.742 526.167 597.801 562.344 560 562.344 C448.02 562.344 346.393 446.199 330.618 299.289 L330.617 299.282 L330.616 299.274 C312.87 137.585 391.671 12.656 509 12.656 C553.006 12.656 597.152 62.4372 623.719 138.202 L631.143 159.376 L636.466 137.579 C656.996 53.5038 716.63 -2.344 796 -2.344 C940.394 -2.344 1055.34 173.978 1055.34 399 C1055.34 659.206 845.28 865.344 582 865.344 C293.935 865.344 65.656 615.418 65.656 300 C65.656 -16.4178 293.935 -266.344 582 -266.344 C683.944 -266.344 837.018 -215.965 930.79 -152.271 L917.221 -132.242 L917.221 -132.242 Z M617.381 232.697 L617.381 232.7 C627.327 326.687 623.888 396.188 611.084 442.605 C598.53 488.11 579.158 508.344 554 508.344 C507.004 508.344 458.485 417.02 445.619 299.303 L445.617 299.277 C431.767 167.655 462.902 67.656 515 67.656 C561.372 67.656 607.547 139.274 617.381 232.697 L617.381 232.697 Z M630.619 231.3 C620.452 134.724 568.627 54.344 515 54.344 C453.101 54.344 418.237 166.332 432.381 300.697 L432.382 300.71 L432.383 300.723 C445.522 420.994 498.999 521.656 554 521.656 C584.842 521.656 610.47 494.89 623.916 446.145 C637.111 398.313 640.673 326.315 630.619 231.303 L630.619 231.3 L630.619 231.3 Z " />
<glyph glyph-name="A" unicode="A" horiz-adv-x="649" d="M192.478 275.656 L414.256 275.656 L302.075 681.733 L192.478 275.656 L192.478 275.656 Z M612.018 69.195 L656.074 17.308 L657.656 15.4445 L657.656 13 L657.656 0 L657.656 -6.656 L651 -6.656 L624 -6.656 L561 -6.656 L497 -6.656 L467 -6.656 L460.344 -6.656 L460.344 0 L460.344 13 L460.344 13.7441 L460.508 14.4698 L472.139 65.837 L432.937 207.344 L174.041 207.344 L135.856 65.86 L147.492 14.4698 L147.656 13.7441 L147.656 13 L147.656 0 L147.656 -6.656 L141 -6.656 L111 -6.656 L76 -6.656 L42 -6.656 L15 -6.656 L8.344 -6.656 L8.344 0 L8.344 13 L8.344 15.4445 L9.92617 17.308 L53.967 69.179 L238.142 745.149 L226.508 796.53 L226.344 797.256 L226.344 798 L226.344 810.5 L226.344 817.046 L232.889 817.155 L262.889 817.655 L262.945 817.656 L263 817.656 L273 817.656 L297 817.656 L330 817.656 L398 817.656 L403.052 817.656 L404.411 812.79 L612.018 69.195 L612.018 69.195 Z M600.926 61.692 L599.982 62.8045 L599.589 64.2101 L392.948 804.344 L330 804.344 L297 804.344 L273 804.344 L263.055 804.344 L239.656 803.954 L239.656 798.744 L251.492 746.47 L251.858 744.851 L251.422 743.25 L66.4219 64.2503 L66.0325 62.8212 L65.0738 61.692 L21.656 10.555 L21.656 6.656 L42 6.656 L76 6.656 L111 6.656 L134.344 6.656 L134.344 12.256 L122.508 64.5302 L122.144 66.1404 L122.574 67.7343 L295.574 708.734 L301.925 732.267 L308.416 708.772 L429.416 270.772 L431.744 262.344 L423 262.344 L189.084 262.344 L177.714 220.656 L438 220.656 L443.063 220.656 L444.414 215.777 L485.414 67.777 L485.861 66.1633 L485.492 64.5302 L473.656 12.256 L473.656 6.656 L497 6.656 L561 6.656 L624 6.656 L644.344 6.656 L644.344 10.555 L600.926 61.692 L600.926 61.692 Z " />
<glyph glyph-name="B" unicode="B" horiz-adv-x="587" d="M417.943 435.05 C499.873 412.207 559.656 333.695 559.656 241 C559.656 77.4459 483.964 -6.656 338 -6.656 L230 -6.656 L166 -6.656 L102 -6.656 L72 -6.656 L65.344 -6.656 L65.344 0 L65.344 13 L65.344 14.7531 L66.2076 16.2787 L95.344 67.753 L95.344 743.247 L66.2076 794.721 L65.344 796.247 L65.344 798 L65.344 811 L65.344 817.656 L72 817.656 L102 817.656 L166 817.656 L230 817.656 L300 817.656 C445.73 817.656 521.656 742.784 521.656 597 C521.656 527.009 479.331 465.147 417.943 435.05 L417.943 435.05 Z M394.977 426.423 L369.076 430.452 L393.761 439.268 C461.91 463.607 508.344 524.255 508.344 597 C508.344 737.216 440.27 804.344 300 804.344 L230 804.344 L166 804.344 L102 804.344 L78.656 804.344 L78.656 799.753 L107.792 748.279 L108.656 746.753 L108.656 745 L108.656 66 L108.656 64.2469 L107.792 62.7213 L78.656 11.247 L78.656 6.656 L102 6.656 L166 6.656 L230 6.656 L338 6.656 C478.036 6.656 546.344 82.5541 546.344 241 C546.344 336.581 482.504 412.808 394.977 426.423 L394.977 426.423 Z M236.656 455.656 L297 455.656 C340.273 455.656 375.344 512.877 375.344 588 C375.344 699.53 351.752 750.344 303 750.344 L236.656 750.344 L236.656 455.656 L236.656 455.656 Z M230 442.344 L223.344 442.344 L223.344 449 L223.344 757 L223.344 763.656 L230 763.656 L303 763.656 C360.248 763.656 388.656 702.47 388.656 588 C388.656 509.123 347.727 442.344 297 442.344 L230 442.344 L230 442.344 Z M236.656 60.656 L318 60.656 C378.803 60.656 408.344 122.508 408.344 256 C408.344 331.985 369.438 390.344 321 390.344 L236.656 390.344 L236.656 60.656 L236.656 60.656 Z M230 47.344 L223.344 47.344 L223.344 54 L223.344 397 L223.344 403.656 L230 403.656 L321 403.656 C376.562 403.656 421.656 336.015 421.656 256 C421.656 119.492 387.197 47.344 318 47.344 L230 47.344 L230 47.344 Z " />
<glyph glyph-name="C" unicode="C" horiz-adv-x="583" d="M505.344 205 L505.344 219.318 L516.29 210.089 L567.29 167.089 L569.656 165.094 L569.656 162 C569.656 63.8482 471.378 -16.656 351 -16.656 C181.356 -16.656 45.344 196.054 45.344 406 C45.344 614.946 181.356 827.656 351 827.656 C409.129 827.656 463.445 808.684 502.288 779.041 L502.359 778.987 L502.428 778.931 C534.13 753.366 559.702 717.776 567.998 680.444 L568.12 679.894 L568.148 679.332 L569.648 649.332 L569.81 646.078 L567.34 643.954 L542.34 622.454 L542.291 622.412 L542.242 622.371 L516.242 600.871 L505.344 591.859 L505.344 606 C505.344 691.188 437.298 757.344 351 757.344 C265.497 757.344 195.656 583.712 195.656 406 C195.656 227.288 265.497 53.656 351 53.656 C437.298 53.656 505.344 119.812 505.344 205 L505.344 205 Z M518.066 191.18 C510.83 106.814 438.003 40.344 351 40.344 C256.503 40.344 182.344 224.712 182.344 406 C182.344 586.288 256.503 770.656 351 770.656 C438.057 770.656 510.92 704.105 518.079 619.664 L533.709 632.588 L556.19 651.922 L554.881 678.098 C547.065 712.53 524.248 744.213 494.141 768.513 C456.991 796.838 406.835 814.344 351 814.344 C188.644 814.344 58.656 611.054 58.656 406 C58.656 199.946 188.644 -3.344 351 -3.344 C465.332 -3.344 554.34 68.5217 556.311 158.934 L518.066 191.18 L518.066 191.18 Z " />
<glyph glyph-name="D" unicode="D" horiz-adv-x="660" d="M166 -6.656 L102 -6.656 L72 -6.656 L65.344 -6.656 L65.344 0 L65.344 13 L65.344 14.7531 L66.2076 16.2787 L95.344 67.753 L95.344 743.247 L66.2076 794.721 L65.344 796.247 L65.344 798 L65.344 811 L65.344 817.656 L72 817.656 L102 817.656 L166 817.656 L230 817.656 L275 817.656 C480.174 817.656 611.656 655.358 611.656 406 C611.656 148.801 496.35 -6.656 305 -6.656 L230 -6.656 L166 -6.656 L166 -6.656 Z M166 6.656 L230 6.656 L305 6.656 C489.65 6.656 598.344 153.199 598.344 406 C598.344 650.642 473.826 804.344 275 804.344 L230 804.344 L166 804.344 L102 804.344 L78.656 804.344 L78.656 799.753 L107.792 748.279 L108.656 746.753 L108.656 745 L108.656 66 L108.656 64.2469 L107.792 62.7213 L78.656 11.247 L78.656 6.656 L102 6.656 L166 6.656 L166 6.656 Z M236.656 60.656 L301 60.656 C401.786 60.656 461.344 186.496 461.344 406 C461.344 618.317 390.03 750.344 278 750.344 L236.656 750.344 L236.656 60.656 L236.656 60.656 Z M230 47.344 L223.344 47.344 L223.344 54 L223.344 757 L223.344 763.656 L230 763.656 L278 763.656 C397.97 763.656 474.656 621.683 474.656 406 C474.656 183.504 410.214 47.344 301 47.344 L230 47.344 L230 47.344 Z " />
<glyph glyph-name="E" unicode="E" horiz-adv-x="535" d="M491.656 28 L491.656 0 L491.656 -6.656 L485 -6.656 L229.5 -6.656 L166 -6.656 L102 -6.656 L72 -6.656 L65.344 -6.656 L65.344 0 L65.344 13 L65.344 14.7531 L66.2076 16.2787 L95.344 67.753 L95.344 743.247 L66.2076 794.721 L65.344 796.247 L65.344 798 L65.344 811 L65.344 817.656 L72 817.656 L102 817.656 L166 817.656 L229.5 817.656 L470 817.656 L476.656 817.656 L476.656 811 L476.656 783 L476.656 754 L476.656 724 L476.656 717.344 L470 717.344 L457 717.344 L455.247 717.344 L453.721 718.208 L402.247 747.344 L236.656 747.344 L236.656 434.656 L382.247 434.656 L433.721 463.792 L435.247 464.656 L437 464.656 L450 464.656 L456.656 464.656 L456.656 458 L456.656 428 L456.656 401 L456.656 373 L456.656 343 L456.656 336.344 L450 336.344 L437 336.344 L435.247 336.344 L433.721 337.208 L382.247 366.344 L236.656 366.344 L236.656 63.656 L417.247 63.656 L468.721 92.7924 L470.247 93.656 L472 93.656 L485 93.656 L491.656 93.656 L491.656 87 L491.656 57 L491.656 28 L491.656 28 Z M478.344 28 L478.344 57 L478.344 80.344 L473.753 80.344 L422.279 51.2076 L420.753 50.344 L419 50.344 L230 50.344 L223.344 50.344 L223.344 57 L223.344 373 L223.344 379.656 L230 379.656 L384 379.656 L385.753 379.656 L387.279 378.792 L438.753 349.656 L443.344 349.656 L443.344 373 L443.344 401 L443.344 428 L443.344 451.344 L438.753 451.344 L387.279 422.208 L385.753 421.344 L384 421.344 L230 421.344 L223.344 421.344 L223.344 428 L223.344 754 L223.344 760.656 L230 760.656 L404 760.656 L405.753 760.656 L407.279 759.792 L458.753 730.656 L463.344 730.656 L463.344 754 L463.344 783 L463.344 804.344 L229.5 804.344 L166 804.344 L102 804.344 L78.656 804.344 L78.656 799.753 L107.792 748.279 L108.656 746.753 L108.656 745 L108.656 66 L108.656 64.2469 L107.792 62.7213 L78.656 11.247 L78.656 6.656 L102 6.656 L166 6.656 L229.5 6.656 L478.344 6.656 L478.344 28 L478.344 28 Z " />
<glyph glyph-name="F" unicode="F" horiz-adv-x="500" d="M372.247 366.344 L236.656 366.344 L236.656 67.753 L265.792 16.2787 L266.656 14.7531 L266.656 13 L266.656 0 L266.656 -6.656 L260 -6.656 L230 -6.656 L166 -6.656 L102 -6.656 L72 -6.656 L65.344 -6.656 L65.344 0 L65.344 13 L65.344 14.7531 L66.2076 16.2787 L95.344 67.753 L95.344 743.247 L66.2076 794.721 L65.344 796.247 L65.344 798 L65.344 811 L65.344 817.656 L72 817.656 L102 817.656 L166 817.656 L229.5 817.656 L470 817.656 L476.656 817.656 L476.656 811 L476.656 783 L476.656 754 L476.656 724 L476.656 717.344 L470 717.344 L457 717.344 L455.247 717.344 L453.721 718.208 L402.247 747.344 L236.656 747.344 L236.656 434.656 L372.247 434.656 L423.721 463.792 L425.247 464.656 L427 464.656 L440 464.656 L446.656 464.656 L446.656 458 L446.656 428 L446.656 401 L446.656 373 L446.656 343 L446.656 336.344 L440 336.344 L427 336.344 L425.247 336.344 L423.721 337.208 L372.247 366.344 L372.247 366.344 Z M374 379.656 L375.753 379.656 L377.279 378.792 L428.753 349.656 L433.344 349.656 L433.344 373 L433.344 401 L433.344 428 L433.344 451.344 L428.753 451.344 L377.279 422.208 L375.753 421.344 L374 421.344 L230 421.344 L223.344 421.344 L223.344 428 L223.344 754 L223.344 760.656 L230 760.656 L404 760.656 L405.753 760.656 L407.279 759.792 L458.753 730.656 L463.344 730.656 L463.344 754 L463.344 783 L463.344 804.344 L229.5 804.344 L166 804.344 L102 804.344 L78.656 804.344 L78.656 799.753 L107.792 748.279 L108.656 746.753 L108.656 745 L108.656 66 L108.656 64.2469 L107.792 62.7213 L78.656 11.247 L78.656 6.656 L102 6.656 L166 6.656 L230 6.656 L253.344 6.656 L253.344 11.247 L224.208 62.7213 L223.344 64.2469 L223.344 66 L223.344 373 L223.344 379.656 L230 379.656 L374 379.656 L374 379.656 Z " />
<glyph glyph-name="G" unicode="G" horiz-adv-x="637" d="M355 369.344 L348.344 369.344 L348.344 376 L348.344 433 L348.344 439.656 L355 439.656 L592 439.656 L598.656 439.656 L598.656 433 L598.656 97 L598.656 93.8769 L596.254 91.8808 C524.697 32.4177 429.616 -16.656 372 -16.656 C190.718 -16.656 45.344 172.74 45.344 406 C45.344 638.26 190.718 827.656 372 827.656 C425.167 827.656 474.199 809.921 510.994 782.325 L511.057 782.277 L511.119 782.228 C544.906 755.608 569.737 719.682 578.013 680.371 L578.121 679.857 L578.148 679.332 L579.648 649.332 L579.812 646.045 L577.299 643.919 L551.299 621.919 L551.29 621.911 L551.281 621.903 L526.281 600.903 L515.344 591.716 L515.344 606 C515.344 691.328 452.157 757.344 372 757.344 C274.079 757.344 195.656 603.402 195.656 406 C195.656 207.598 274.079 53.656 372 53.656 C401.791 53.656 464.333 89.4212 518.344 135.078 L518.344 369.344 L355 369.344 L355 369.344 Z M361.656 382.656 L525 382.656 L531.656 382.656 L531.656 376 L531.656 132 L531.656 128.933 L529.324 126.94 C473.855 79.5394 405.779 40.344 372 40.344 C265.921 40.344 182.344 204.402 182.344 406 C182.344 606.598 265.921 770.656 372 770.656 C453.437 770.656 521.348 704.071 528.104 619.82 L542.701 632.081 L542.719 632.097 L566.188 651.955 L564.879 678.137 C557.063 714.59 534.974 746.468 502.943 771.723 C467.748 798.098 422.802 814.344 372 814.344 C197.282 814.344 58.656 633.74 58.656 406 C58.656 177.26 197.282 -3.344 372 -3.344 C425.767 -3.344 515.248 42.5249 585.344 100.134 L585.344 426.344 L361.656 426.344 L361.656 382.656 L361.656 382.656 Z " />
<glyph glyph-name="H" unicode="H" horiz-adv-x="661" d="M497 -6.656 L433 -6.656 L403 -6.656 L396.344 -6.656 L396.344 0 L396.344 13 L396.344 14.7531 L397.208 16.2787 L426.344 67.753 L426.344 375.344 L236.656 375.344 L236.656 67.753 L265.792 16.2787 L266.656 14.7531 L266.656 13 L266.656 0 L266.656 -6.656 L260 -6.656 L230 -6.656 L166 -6.656 L102 -6.656 L72 -6.656 L65.344 -6.656 L65.344 0 L65.344 13 L65.344 14.7531 L66.2076 16.2787 L95.344 67.753 L95.344 743.247 L66.2076 794.721 L65.344 796.247 L65.344 798 L65.344 811 L65.344 817.656 L72 817.656 L102 817.656 L166 817.656 L230 817.656 L260 817.656 L266.656 817.656 L266.656 811 L266.656 798 L266.656 796.247 L265.792 794.721 L236.656 743.247 L236.656 445.656 L426.344 445.656 L426.344 743.247 L397.208 794.721 L396.344 796.247 L396.344 798 L396.344 811 L396.344 817.656 L403 817.656 L433 817.656 L497 817.656 L561 817.656 L591 817.656 L597.656 817.656 L597.656 811 L597.656 798 L597.656 796.247 L596.792 794.721 L567.656 743.247 L567.656 67.753 L596.792 16.2787 L597.656 14.7531 L597.656 13 L597.656 0 L597.656 -6.656 L591 -6.656 L561 -6.656 L497 -6.656 L497 -6.656 Z M497 6.656 L561 6.656 L584.344 6.656 L584.344 11.247 L555.208 62.7213 L554.344 64.2469 L554.344 66 L554.344 745 L554.344 746.753 L555.208 748.279 L584.344 799.753 L584.344 804.344 L561 804.344 L497 804.344 L433 804.344 L409.656 804.344 L409.656 799.753 L438.792 748.279 L439.656 746.753 L439.656 745 L439.656 439 L439.656 432.344 L433 432.344 L230 432.344 L223.344 432.344 L223.344 439 L223.344 745 L223.344 746.753 L224.208 748.279 L253.344 799.753 L253.344 804.344 L230 804.344 L166 804.344 L102 804.344 L78.656 804.344 L78.656 799.753 L107.792 748.279 L108.656 746.753 L108.656 745 L108.656 66 L108.656 64.2469 L107.792 62.7213 L78.656 11.247 L78.656 6.656 L102 6.656 L166 6.656 L230 6.656 L253.344 6.656 L253.344 11.247 L224.208 62.7213 L223.344 64.2469 L223.344 66 L223.344 382 L223.344 388.656 L230 388.656 L433 388.656 L439.656 388.656 L439.656 382 L439.656 66 L439.656 64.2469 L438.792 62.7213 L409.656 11.247 L409.656 6.656 L433 6.656 L497 6.656 L497 6.656 Z " />
<glyph glyph-name="I" unicode="I" horiz-adv-x="331" d="M167 -6.656 L103 -6.656 L73 -6.656 L66.344 -6.656 L66.344 0 L66.344 13 L66.344 14.7531 L67.2076 16.2787 L96.344 67.753 L96.344 743.247 L67.2076 794.721 L66.344 796.247 L66.344 798 L66.344 811 L66.344 817.656 L73 817.656 L103 817.656 L167 817.656 L231 817.656 L261 817.656 L267.656 817.656 L267.656 811 L267.656 798 L267.656 796.247 L266.792 794.721 L237.656 743.247 L237.656 67.753 L266.792 16.2787 L267.656 14.7531 L267.656 13 L267.656 0 L267.656 -6.656 L261 -6.656 L231 -6.656 L167 -6.656 L167 -6.656 Z M167 6.656 L231 6.656 L254.344 6.656 L254.344 11.247 L225.208 62.7213 L224.344 64.2469 L224.344 66 L224.344 745 L224.344 746.753 L225.208 748.279 L254.344 799.753 L254.344 804.344 L231 804.344 L167 804.344 L103 804.344 L79.656 804.344 L79.656 799.753 L108.792 748.279 L109.656 746.753 L109.656 745 L109.656 66 L109.656 64.2469 L108.792 62.7213 L79.656 11.247 L79.656 6.656 L103 6.656 L167 6.656 L167 6.656 Z " />
<glyph glyph-name="J" unicode="J" horiz-adv-x="445" d="M42.344 279 L42.344 284.567 L47.8229 285.551 L175.823 308.551 L183.656 309.959 L183.656 302 L183.656 252 C183.656 189.169 186.132 140.387 190.84 107.184 C195.48 74.4616 200.53 61.656 205 61.656 C208.203 61.656 213.247 76.7888 217.912 109.198 C222.623 141.925 225.344 187.2 225.344 238 L225.344 743.247 L196.208 794.721 L195.344 796.247 L195.344 798 L195.344 811 L195.344 817.656 L202 817.656 L232 817.656 L296 817.656 L360 817.656 L390 817.656 L396.656 817.656 L396.656 811 L396.656 798 L396.656 796.247 L395.792 794.721 L366.656 743.247 L366.656 238 C366.656 98.3028 303.951 -16.656 205 -16.656 C101.486 -16.656 42.344 69.9441 42.344 216 L42.344 279 L42.344 279 Z M55.656 273.433 L55.656 216 C55.656 74.0559 108.514 -3.344 205 -3.344 C296.049 -3.344 353.344 101.697 353.344 238 L353.344 745 L353.344 746.753 L354.208 748.279 L383.344 799.753 L383.344 804.344 L360 804.344 L296 804.344 L232 804.344 L208.656 804.344 L208.656 799.753 L237.792 748.279 L238.656 746.753 L238.656 745 L238.656 238 C238.656 186.8 235.877 140.575 231.088 107.302 C226.253 73.7112 217.797 48.344 205 48.344 C191.47 48.344 182.52 71.0384 177.66 105.316 C172.868 139.113 170.344 188.831 170.344 252 L170.344 294.041 L55.656 273.433 L55.656 273.433 Z " />
<glyph glyph-name="K" unicode="K" horiz-adv-x="559" d="M529 817.656 L535.656 817.656 L535.656 811 L535.656 798 L535.656 794.982 L533.386 792.993 L473.69 740.698 L348.205 527.869 L528.71 69.666 L578.796 17.6151 L580.656 15.6823 L580.656 13 L580.656 0 L580.656 -6.656 L574 -6.656 L549 -6.656 L481 -6.656 L413 -6.656 L383 -6.656 L376.344 -6.656 L376.344 0 L376.344 13 L376.344 13.4376 L376.401 13.8715 L383.195 65.308 L269.456 393.144 L221.656 311.201 L221.656 67.753 L250.792 16.2787 L251.656 14.7531 L251.656 13 L251.656 0 L251.656 -6.656 L245 -6.656 L215 -6.656 L151 -6.656 L87 -6.656 L57 -6.656 L50.344 -6.656 L50.344 0 L50.344 13 L50.344 14.7531 L51.2076 16.2787 L80.344 67.753 L80.344 743.247 L51.2076 794.721 L50.344 796.247 L50.344 798 L50.344 811 L50.344 817.656 L57 817.656 L87 817.656 L151 817.656 L215 817.656 L245 817.656 L251.656 817.656 L251.656 811 L251.656 798 L251.656 796.247 L250.792 794.721 L221.656 743.247 L221.656 459.029 L386.604 747.225 L394.344 798.5 L394.344 810.5 L394.344 817.046 L400.889 817.155 L430.889 817.655 L430.945 817.656 L431 817.656 L469 817.656 L507 817.656 L529 817.656 L529 817.656 Z M522.344 804.344 L507 804.344 L469 804.344 L431.055 804.344 L407.656 803.954 L407.656 798 L407.656 797.5 L407.581 797.007 L399.581 744.007 L399.396 742.775 L398.777 741.694 L220.777 430.694 L208.344 408.971 L208.344 434 L208.344 745 L208.344 746.753 L209.208 748.279 L238.344 799.753 L238.344 804.344 L215 804.344 L151 804.344 L87 804.344 L63.656 804.344 L63.656 799.753 L92.7924 748.279 L93.656 746.753 L93.656 745 L93.656 66 L93.656 64.2469 L92.7924 62.7213 L63.656 11.247 L63.656 6.656 L87 6.656 L151 6.656 L215 6.656 L238.344 6.656 L238.344 11.247 L209.208 62.7213 L208.344 64.2469 L208.344 66 L208.344 313 L208.344 314.799 L209.251 316.354 L265.251 412.354 L272.544 424.857 L277.288 411.182 L396.288 68.1817 L396.805 66.6918 L396.599 65.1285 L389.656 12.562 L389.656 6.656 L413 6.656 L481 6.656 L549 6.656 L567.344 6.656 L567.344 10.318 L518.204 61.3849 L517.29 62.3344 L516.807 63.5604 L339.773 512.955 L309.734 462.619 L309.716 462.589 L292.661 434.011 L281.364 440.713 L298.266 469.381 L298.284 469.411 L462.766 748.381 L463.31 749.302 L464.114 750.007 L522.344 801.018 L522.344 804.344 L522.344 804.344 Z " />
<glyph glyph-name="L" unicode="L" horiz-adv-x="481" d="M442.656 28 L442.656 0 L442.656 -6.656 L436 -6.656 L231 -6.656 L167 -6.656 L103 -6.656 L73 -6.656 L66.344 -6.656 L66.344 0 L66.344 13 L66.344 14.7531 L67.2076 16.2787 L96.344 67.753 L96.344 743.247 L67.2076 794.721 L66.344 796.247 L66.344 798 L66.344 811 L66.344 817.656 L73 817.656 L103 817.656 L167 817.656 L231 817.656 L261 817.656 L267.656 817.656 L267.656 811 L267.656 798 L267.656 796.247 L266.792 794.721 L237.656 743.247 L237.656 63.656 L368.247 63.656 L419.721 92.7924 L421.247 93.656 L423 93.656 L436 93.656 L442.656 93.656 L442.656 87 L442.656 57 L442.656 28 L442.656 28 Z M429.344 28 L429.344 57 L429.344 80.344 L424.753 80.344 L373.279 51.2076 L371.753 50.344 L370 50.344 L231 50.344 L224.344 50.344 L224.344 57 L224.344 745 L224.344 746.753 L225.208 748.279 L254.344 799.753 L254.344 804.344 L231 804.344 L167 804.344 L103 804.344 L79.656 804.344 L79.656 799.753 L108.792 748.279 L109.656 746.753 L109.656 745 L109.656 66 L109.656 64.2469 L108.792 62.7213 L79.656 11.247 L79.656 6.656 L103 6.656 L167 6.656 L231 6.656 L429.344 6.656 L429.344 28 L429.344 28 Z " />
<glyph glyph-name="M" unicode="M" horiz-adv-x="771" d="M609 -6.656 L548 -6.656 L518 -6.656 L511.344 -6.656 L511.344 0 L511.344 13 L511.344 14.7531 L512.208 16.2787 L541.344 67.753 L541.344 713.532 L430.249 410.708 L428.648 406.344 L424 406.344 L363 406.344 L309 406.344 L304.394 406.344 L302.771 410.655 L190.656 708.432 L190.656 67.753 L219.792 16.2787 L220.656 14.7531 L220.656 13 L220.656 0.5 L220.656 -6.04599 L214.111 -6.15508 L184.111 -6.65508 L184.055 -6.656 L184 -6.656 L151 -6.656 L117 -6.656 L87 -6.656 L80.344 -6.656 L80.344 0 L80.344 13 L80.344 14.7531 L81.2076 16.2787 L110.344 67.753 L110.344 743.247 L81.2076 794.721 L80.344 796.247 L80.344 798 L80.344 811 L80.344 817.656 L87 817.656 L117 817.656 L151 817.656 L159 817.656 L184 817.656 L277 817.656 L281.642 817.656 L283.246 813.3 L392.918 515.484 L499.735 813.247 L501.316 817.656 L506 817.656 L548 817.656 L570 817.656 L609 817.656 L671 817.656 L701 817.656 L707.656 817.656 L707.656 811 L707.656 798 L707.656 796.247 L706.792 794.721 L677.656 743.247 L677.656 67.753 L706.792 16.2787 L707.656 14.7531 L707.656 13 L707.656 0 L707.656 -6.656 L701 -6.656 L671 -6.656 L609 -6.656 L609 -6.656 Z M609 6.656 L671 6.656 L694.344 6.656 L694.344 11.247 L665.208 62.7213 L664.344 64.2469 L664.344 66 L664.344 745 L664.344 746.753 L665.208 748.279 L694.344 799.753 L694.344 804.344 L671 804.344 L609 804.344 L570 804.344 L548 804.344 L510.684 804.344 L399.265 493.753 L393.082 476.516 L386.754 493.7 L272.358 804.344 L184 804.344 L159 804.344 L151 804.344 L117 804.344 L93.656 804.344 L93.656 799.753 L122.792 748.279 L123.656 746.753 L123.656 745 L123.656 66 L123.656 64.2469 L122.792 62.7213 L93.656 11.247 L93.656 6.656 L117 6.656 L151 6.656 L183.945 6.656 L207.344 7.046 L207.344 11.247 L178.208 62.7213 L177.344 64.2469 L177.344 66 L177.344 745 L177.344 778.28 L178.503 778.491 L190.229 747.345 L313.606 419.656 L363 419.656 L419.352 419.656 L541.751 753.292 L553.213 784.536 L554.656 784.28 L554.656 751 L554.656 66 L554.656 64.2469 L553.792 62.7213 L524.656 11.247 L524.656 6.656 L548 6.656 L609 6.656 L609 6.656 Z " />
<glyph glyph-name="N" unicode="N" horiz-adv-x="576" d="M399.344 743.298 L371.161 794.805 L370.344 796.298 L370.344 798 L370.344 811 L370.344 817.656 L377 817.656 L406 817.656 L441 817.656 L476 817.656 L506 817.656 L512.656 817.656 L512.656 811 L512.656 798 L512.656 796.247 L511.792 794.721 L482.656 743.247 L482.656 0 L482.656 -6.656 L476 -6.656 L454 -6.656 L406 -6.656 L323 -6.656 L317.824 -6.656 L316.549 -1.63965 L192.656 485.794 L192.656 67.753 L221.792 16.2787 L222.656 14.7531 L222.656 13 L222.656 0 L222.656 -6.656 L216 -6.656 L186 -6.656 L151 -6.656 L117 -6.656 L87 -6.656 L80.344 -6.656 L80.344 0 L80.344 13 L80.344 14.7531 L81.2076 16.2787 L110.344 67.753 L110.344 743.247 L81.2076 794.721 L80.344 796.247 L80.344 798 L80.344 811 L80.344 817.656 L87 817.656 L117 817.656 L151 817.656 L186 817.656 L247 817.656 L252.171 817.656 L253.449 812.646 L399.344 240.996 L399.344 743.298 L399.344 743.298 Z M411.839 748.195 L412.656 746.702 L412.656 745 L412.656 188 L412.656 154.72 L407.781 154.108 L399.551 186.354 L241.829 804.344 L186 804.344 L151 804.344 L117 804.344 L93.656 804.344 L93.656 799.753 L122.792 748.279 L123.656 746.753 L123.656 745 L123.656 66 L123.656 64.2469 L122.792 62.7213 L93.656 11.247 L93.656 6.656 L117 6.656 L151 6.656 L186 6.656 L209.344 6.656 L209.344 11.247 L180.208 62.7213 L179.344 64.2469 L179.344 66 L179.344 539 L179.344 572.28 L184.253 572.894 L192.451 540.64 L328.176 6.656 L406 6.656 L454 6.656 L469.344 6.656 L469.344 745 L469.344 746.753 L470.208 748.279 L499.344 799.753 L499.344 804.344 L476 804.344 L441 804.344 L406 804.344 L383.656 804.344 L383.656 799.702 L411.839 748.195 L411.839 748.195 Z " />
<glyph glyph-name="O" unicode="O" horiz-adv-x="694" d="M50.344 406 C50.344 627.096 190.532 827.656 348 827.656 C504.454 827.656 645.656 627.108 645.656 406 C645.656 172.909 513.473 -16.656 348 -16.656 C182.527 -16.656 50.344 172.909 50.344 406 L50.344 406 Z M63.656 406 C63.656 177.091 189.473 -3.344 348 -3.344 C506.527 -3.344 632.344 177.091 632.344 406 C632.344 622.892 497.546 814.344 348 814.344 C197.468 814.344 63.656 622.904 63.656 406 L63.656 406 Z M348 53.656 C428.607 53.656 494.344 207.364 494.344 406 C494.344 593.641 424.601 757.344 348 757.344 C271.375 757.344 200.656 593.624 200.656 406 C200.656 207.364 266.393 53.656 348 53.656 L348 53.656 Z M348 40.344 C257.607 40.344 187.344 204.636 187.344 406 C187.344 596.376 262.625 770.656 348 770.656 C433.399 770.656 507.656 596.359 507.656 406 C507.656 204.636 437.393 40.344 348 40.344 L348 40.344 Z " />
<glyph glyph-name="P" unicode="P" horiz-adv-x="518" d="M166 -6.656 L102 -6.656 L72 -6.656 L65.344 -6.656 L65.344 0 L65.344 13 L65.344 14.7531 L66.2076 16.2787 L95.344 67.753 L95.344 743.247 L66.2076 794.721 L65.344 796.247 L65.344 798 L65.344 811 L65.344 817.656 L72 817.656 L102 817.656 L134 817.656 L166 817.656 L230 817.656 C387.677 817.656 490.656 718.838 490.656 568 C490.656 417.323 390.569 319.149 236.656 316.403 L236.656 67.753 L265.792 16.2787 L266.656 14.7531 L266.656 13 L266.656 0 L266.656 -6.656 L260 -6.656 L230 -6.656 L166 -6.656 L166 -6.656 Z M166 6.656 L230 6.656 L253.344 6.656 L253.344 11.247 L224.208 62.7213 L223.344 64.2469 L223.344 66 L223.344 323 L223.344 329.656 L230 329.656 C382.323 329.656 477.344 420.838 477.344 568 C477.344 713.162 382.323 804.344 230 804.344 L166 804.344 L134 804.344 L102 804.344 L78.656 804.344 L78.656 799.753 L107.792 748.279 L108.656 746.753 L108.656 745 L108.656 66 L108.656 64.2469 L107.792 62.7213 L78.656 11.247 L78.656 6.656 L102 6.656 L166 6.656 L166 6.656 Z M236.656 383.778 C305.169 387.049 349.344 455.811 349.344 568 C349.344 676.467 306.223 744.106 236.656 749.972 L236.656 383.778 L236.656 383.778 Z M230 370.344 L223.344 370.344 L223.344 377 L223.344 757 L223.344 763.831 L230.173 763.654 C310.61 761.564 362.656 684.027 362.656 568 C362.656 448.979 310.056 370.344 231.5 370.344 L230 370.344 L230 370.344 Z " />
<glyph glyph-name="Q" unicode="Q" horiz-adv-x="694" d="M50.344 406 C50.344 627.096 190.532 827.656 348 827.656 C504.454 827.656 645.656 627.108 645.656 406 C645.656 260.498 594.599 132.074 517.053 56.446 L567.151 -4.78517 L570.593 -8.99132 L567.16 -13.2044 L501.16 -94.2044 L494.948 -101.829 L490.179 -93.2275 L437.185 2.351 C409.069 -10.2299 378.655 -16.656 348 -16.656 C182.527 -16.656 50.344 172.909 50.344 406 L50.344 406 Z M63.656 406 C63.656 177.091 189.473 -3.344 348 -3.344 C379.258 -3.344 408.792 3.32492 437.106 16.9941 L442.771 19.7287 L445.821 14.2275 L497.052 -78.172 L553.407 -9.009 L502.849 52.7852 L498.907 57.6025 L503.45 61.8577 C581.383 134.859 632.344 260.3 632.344 406 C632.344 622.892 497.546 814.344 348 814.344 C197.468 814.344 63.656 622.904 63.656 406 L63.656 406 Z M396.538 73.512 L360.186 138.761 L357.983 142.713 L360.849 146.215 L396.849 190.215 L402 196.511 L407.151 190.215 L445.531 143.306 C475.552 208.249 494.344 300.848 494.344 406 C494.344 593.641 424.601 757.344 348 757.344 C271.375 757.344 200.656 593.624 200.656 406 C200.656 207.364 266.393 53.656 348 53.656 C365.059 53.656 380.659 60.4144 396.538 73.512 L396.538 73.512 Z M410.814 75.2395 L413.414 70.5737 L409.422 67.0252 C390.71 50.3925 369.497 40.344 348 40.344 C257.607 40.344 187.344 204.636 187.344 406 C187.344 596.376 262.625 770.656 348 770.656 C433.399 770.656 507.656 596.359 507.656 406 C507.656 294.295 486.331 194.779 452.953 128.023 L448.357 118.831 L441.849 126.785 L402 175.489 L374.017 141.287 L410.814 75.2395 L410.814 75.2395 Z " />
<glyph glyph-name="R" unicode="R" horiz-adv-x="533" d="M541.49 17.9135 L543.656 15.9342 L543.656 13 L543.656 0 L543.656 -6.656 L537 -6.656 L513 -6.656 L440 -6.656 L366 -6.656 L361.963 -6.656 L360.097 -3.07575 L236.656 233.823 L236.656 67.753 L265.792 16.2787 L266.656 14.7531 L266.656 13 L266.656 0 L266.656 -6.656 L260 -6.656 L230 -6.656 L166 -6.656 L102 -6.656 L72 -6.656 L65.344 -6.656 L65.344 0 L65.344 13 L65.344 14.7531 L66.2076 16.2787 L95.344 67.753 L95.344 743.247 L66.2076 794.721 L65.344 796.247 L65.344 798 L65.344 811 L65.344 817.656 L72 817.656 L102 817.656 L134 817.656 L166 817.656 L230 817.656 C387.677 817.656 490.656 718.838 490.656 568 C490.656 463.403 432.51 385.322 337.202 353.5 L484.362 70.116 L541.49 17.9135 L541.49 17.9135 Z M530.344 10.066 L474.51 61.0865 L473.638 61.8837 L473.093 62.9325 L326.956 344.344 L302 344.344 L268.72 344.344 L268.061 350.885 L300.672 357.522 C411.445 380.069 477.344 456.474 477.344 568 C477.344 713.162 382.323 804.344 230 804.344 L166 804.344 L134 804.344 L102 804.344 L78.656 804.344 L78.656 799.753 L107.792 748.279 L108.656 746.753 L108.656 745 L108.656 66 L108.656 64.2469 L107.792 62.7213 L78.656 11.247 L78.656 6.656 L102 6.656 L166 6.656 L230 6.656 L253.344 6.656 L253.344 11.247 L224.208 62.7213 L223.344 64.2469 L223.344 66 L223.344 261 L223.344 288.177 L235.903 264.076 L370.037 6.656 L440 6.656 L513 6.656 L530.344 6.656 L530.344 10.066 L530.344 10.066 Z M236.656 404.782 C306.015 407.909 349.344 468.869 349.344 568 C349.344 676.467 306.223 744.106 236.656 749.972 L236.656 404.782 L236.656 404.782 Z M230 391.344 L223.344 391.344 L223.344 398 L223.344 757 L223.344 763.831 L230.173 763.654 C310.61 761.564 362.656 684.027 362.656 568 C362.656 461.799 310.348 391.344 231 391.344 L230 391.344 L230 391.344 Z " />
<glyph glyph-name="S" unicode="S" horiz-adv-x="505" d="M45.4389 138.88 L45.4 139.108 L45.377 139.338 L42.377 169.338 L41.9876 173.232 L45.2017 175.466 L104.202 216.466 L114.656 223.731 L114.656 211 C114.656 116.134 185.395 57.656 277 57.656 C312.183 57.656 335.344 128.067 335.344 223 C335.344 273.612 295.969 321.425 230.592 346.795 L230.582 346.799 L230.573 346.802 C108.967 394.431 30.344 489.606 30.344 590 C30.344 720.304 114.767 827.656 220 827.656 C278.8 827.656 333.515 813.982 373.342 790.506 L373.381 790.483 C405.303 771.936 430.462 743.29 439.875 711.913 L440.075 711.246 L440.133 710.553 L442.633 680.553 L442.911 677.216 L440.397 675.003 L415.397 653.003 L390.397 631.003 L379.344 621.276 L379.344 636 C379.344 707.384 310.03 752.344 220 752.344 C196.797 752.344 175.656 688.92 175.656 604 C175.656 555.416 212.02 511.578 270.42 488.201 L270.472 488.18 C395.109 439.521 476.656 337.315 476.656 227 C476.656 92.867 398.425 -16.656 277 -16.656 C211.974 -16.656 152.901 1.99857 110.986 33.6908 L110.981 33.6946 C77.067 59.3867 52.6732 96.5078 45.4389 138.88 L45.4389 138.88 Z M58.6 140.895 C65.4088 101.37 86.9914 68.5706 119.014 44.3092 L119.019 44.3054 C159.103 14.0001 214.029 -3.344 277 -3.344 C391.575 -3.344 463.344 97.133 463.344 227 C463.344 332.67 386.913 428.45 265.58 475.799 L265.554 475.81 L265.528 475.82 C203.958 500.448 162.344 550.598 162.344 604 C162.344 691.08 187.203 765.656 220 765.656 C308.279 765.656 383.069 720.611 391.804 649.974 L406.603 662.997 L429.089 682.784 L426.926 708.742 C418.208 737.076 396.488 761.673 366.658 778.994 L366.638 779.005 L366.619 779.017 C328.45 801.527 277.181 814.344 220 814.344 C121.233 814.344 43.656 715.696 43.656 590 C43.656 494.399 117.025 405.578 235.408 359.205 L235.427 359.198 C304.039 332.565 348.656 278.383 348.656 223 C348.656 125.933 321.817 44.344 277 44.344 C184.619 44.344 107.975 104.523 101.752 198.553 L56.012 166.768 L58.6 140.895 L58.6 140.895 Z " />
<glyph glyph-name="T" unicode="T" horiz-adv-x="513" d="M257 -6.656 L192 -6.656 L162 -6.656 L155.344 -6.656 L155.344 0 L155.344 13 L155.344 14.7531 L156.208 16.2787 L185.344 67.753 L185.344 747.344 L96.753 747.344 L45.2787 718.208 L43.7531 717.344 L42 717.344 L29 717.344 L22.344 717.344 L22.344 724 L22.344 754 L22.344 783 L22.344 811 L22.344 817.656 L29 817.656 L192 817.656 L321 817.656 L484 817.656 L490.656 817.656 L490.656 811 L490.656 783 L490.656 754 L490.656 724 L490.656 717.344 L484 717.344 L471 717.344 L469.247 717.344 L467.721 718.208 L416.247 747.344 L327.656 747.344 L327.656 67.753 L356.792 16.2787 L357.656 14.7531 L357.656 13 L357.656 0.5 L357.656 -6.04599 L351.111 -6.15508 L321.111 -6.65508 L321.055 -6.656 L321 -6.656 L257 -6.656 L257 -6.656 Z M257 6.656 L320.945 6.656 L344.344 7.046 L344.344 11.247 L315.208 62.7213 L314.344 64.2469 L314.344 66 L314.344 754 L314.344 760.656 L321 760.656 L418 760.656 L419.753 760.656 L421.279 759.792 L472.753 730.656 L477.344 730.656 L477.344 754 L477.344 783 L477.344 804.344 L321 804.344 L192 804.344 L35.656 804.344 L35.656 783 L35.656 754 L35.656 730.656 L40.247 730.656 L91.7213 759.792 L93.2469 760.656 L95 760.656 L192 760.656 L198.656 760.656 L198.656 754 L198.656 66 L198.656 64.2469 L197.792 62.7213 L168.656 11.247 L168.656 6.656 L192 6.656 L257 6.656 L257 6.656 Z " />
<glyph glyph-name="U" unicode="U" horiz-adv-x="626" d="M88.344 743.247 L59.2076 794.721 L58.344 796.247 L58.344 798 L58.344 811 L58.344 817.656 L65 817.656 L95 817.656 L159 817.656 L223 817.656 L253 817.656 L259.656 817.656 L259.656 811 L259.656 798 L259.656 796.247 L258.792 794.721 L229.656 743.247 L229.656 336 C229.656 165.042 262.853 61.656 313 61.656 C400.055 61.656 455.344 162.702 455.344 328 L455.344 743.247 L426.208 794.721 L425.344 796.247 L425.344 798 L425.344 811 L425.344 817.656 L432 817.656 L462 817.656 L497 817.656 L532 817.656 L532.055 817.656 L532.111 817.655 L562.111 817.155 L568.656 817.046 L568.656 810.5 L568.656 798 L568.656 796.247 L567.792 794.721 L538.656 743.247 L538.656 316 C538.656 114.978 450.554 -16.656 313 -16.656 C176.461 -16.656 88.344 113.965 88.344 313 L88.344 743.247 L88.344 743.247 Z M100.792 748.279 L101.656 746.753 L101.656 745 L101.656 313 C101.656 118.035 183.539 -3.344 313 -3.344 C443.446 -3.344 525.344 119.022 525.344 316 L525.344 745 L525.344 746.753 L526.208 748.279 L555.344 799.753 L555.344 803.954 L531.945 804.344 L497 804.344 L462 804.344 L438.656 804.344 L438.656 799.753 L467.792 748.279 L468.656 746.753 L468.656 745 L468.656 328 C468.656 159.298 407.945 48.344 313 48.344 C253.147 48.344 216.344 162.958 216.344 336 L216.344 745 L216.344 746.753 L217.208 748.279 L246.344 799.753 L246.344 804.344 L223 804.344 L159 804.344 L95 804.344 L71.656 804.344 L71.656 799.753 L100.792 748.279 L100.792 748.279 Z " />
<glyph glyph-name="V" unicode="V" horiz-adv-x="581" d="M49.83 742.069 L8.78339 793.866 L7.344 795.682 L7.344 798 L7.344 811 L7.344 817.656 L14 817.656 L42 817.656 L110 817.656 L179 817.656 L209 817.656 L215.656 817.656 L215.656 811 L215.656 798 L215.656 796.959 L215.338 795.967 L198.862 744.601 L308.132 188.83 L422.126 745.608 L405.674 795.932 L405.344 796.94 L405.344 798 L405.344 811 L405.344 817.656 L412 817.656 L442 817.656 L480 817.656 L517 817.656 L544 817.656 L550.656 817.656 L550.656 811 L550.656 798 L550.656 795.726 L549.265 793.927 L509.182 742.113 L346.502 -1.42263 L345.357 -6.656 L340 -6.656 L277 -6.656 L220 -6.656 L214.65 -6.656 L213.5 -1.43095 L49.83 742.069 L49.83 742.069 Z M61.2166 749.134 L62.1703 747.931 L62.5004 746.431 L225.35 6.656 L277 6.656 L334.643 6.656 L496.498 746.423 L496.818 747.887 L497.735 749.073 L537.344 800.274 L537.344 804.344 L517 804.344 L480 804.344 L442 804.344 L418.656 804.344 L418.656 799.06 L435.326 748.068 L435.874 746.392 L435.521 744.665 L314.521 153.665 L307.868 121.17 L301.469 153.716 L185.469 743.716 L185.138 745.399 L185.662 747.033 L202.344 799.041 L202.344 804.344 L179 804.344 L110 804.344 L42 804.344 L20.656 804.344 L20.656 800.318 L61.2166 749.134 L61.2166 749.134 Z " />
<glyph glyph-name="W" unicode="W" horiz-adv-x="780" d="M61.635 742.455 L24.5907 794.122 L23.344 795.86 L23.344 798 L23.344 811 L23.344 817.656 L30 817.656 L59 817.656 L127 817.656 L196 817.656 L226 817.656 L232.656 817.656 L232.656 811 L232.656 798 L232.656 796.673 L232.147 795.448 L210.821 744.072 L285.552 139.523 L351.868 296.589 L353.585 300.656 L358 300.656 L425 300.656 L481 300.656 L485.376 300.656 L487.111 296.638 L556.474 135.961 L634.17 745.061 L612.87 795.407 L612.344 796.65 L612.344 798 L612.344 811 L612.344 817.656 L619 817.656 L649 817.656 L687 817.656 L724 817.656 L752 817.656 L758.656 817.656 L758.656 811 L758.656 798 L758.656 795.907 L757.458 794.19 L721.363 742.487 L614.588 -0.946253 L613.768 -6.656 L608 -6.656 L546 -6.656 L484 -6.656 L479.611 -6.656 L477.882 -2.62193 L390.935 200.255 L302.097 -2.66932 L300.352 -6.656 L296 -6.656 L234 -6.656 L172 -6.656 L166.209 -6.656 L165.408 -0.920236 L61.635 742.455 L61.635 742.455 Z M73.4093 748.878 L74.3653 747.545 L74.5921 745.92 L177.791 6.656 L234 6.656 L291.648 6.656 L384.903 219.669 L391.065 233.745 L397.118 219.622 L488.389 6.656 L546 6.656 L602.232 6.656 L708.412 745.946 L708.637 747.513 L709.542 748.81 L745.344 800.093 L745.344 804.344 L724 804.344 L687 804.344 L649 804.344 L625.656 804.344 L625.656 799.35 L647.13 748.593 L647.83 746.939 L647.603 745.158 L566.603 110.158 L563.526 86.0387 L553.889 108.362 L476.624 287.344 L425 287.344 L362.415 287.344 L288.132 111.411 L278.448 88.4765 L275.394 113.183 L197.394 744.183 L197.179 745.928 L197.853 747.552 L219.344 799.327 L219.344 804.344 L196 804.344 L127 804.344 L59 804.344 L36.656 804.344 L36.656 800.14 L73.4093 748.878 L73.4093 748.878 Z " />
<glyph glyph-name="X" unicode="X" horiz-adv-x="600" d="M510.747 69.608 L559.842 17.5675 L561.656 15.6441 L561.656 13 L561.656 0 L561.656 -6.656 L555 -6.656 L530 -6.656 L469 -6.656 L407 -6.656 L377 -6.656 L370.344 -6.656 L370.344 0 L370.344 13 L370.344 13.3133 L370.373 13.6251 L375.227 65.076 L290.126 287.648 L175.564 63.22 L172.656 12.808 L172.656 0 L172.656 -6.656 L166 -6.656 L136 -6.656 L100 -6.656 L64 -6.656 L41 -6.656 L34.344 -6.656 L34.344 0 L34.344 13 L34.344 15.8824 L36.4463 17.8545 L92.097 70.058 L252.725 385.383 L116.256 741.389 L67.1585 793.433 L65.344 795.356 L65.344 798 L65.344 811 L65.344 817.656 L72 817.656 L97 817.656 L159 817.656 L220 817.656 L250 817.656 L256.656 817.656 L256.656 811 L256.656 798 L256.656 797.687 L256.627 797.375 L251.773 745.925 L330.848 539.399 L436.435 747.77 L439.344 798.192 L439.344 811 L439.344 817.656 L446 817.656 L476 817.656 L512 817.656 L548 817.656 L572 817.656 L578.656 817.656 L578.656 811 L578.656 798 L578.656 795.083 L576.511 793.106 L519.891 740.917 L368.272 442.616 L510.747 69.608 L510.747 69.608 Z M500.158 61.4325 L499.253 62.3923 L498.782 63.625 L354.782 440.625 L353.728 443.384 L355.066 446.016 L508.566 748.016 L509.109 749.083 L509.989 749.894 L565.344 800.917 L565.344 804.344 L548 804.344 L512 804.344 L476 804.344 L452.656 804.344 L452.656 798 L452.656 797.808 L452.645 797.617 L449.645 745.617 L449.565 744.23 L448.937 742.991 L335.937 519.991 L329.152 506.601 L323.784 520.62 L238.784 742.62 L238.227 744.075 L238.373 745.625 L243.344 798.313 L243.344 804.344 L220 804.344 L159 804.344 L97 804.344 L78.656 804.344 L78.656 800.644 L126.842 749.567 L127.744 748.611 L128.215 747.382 L266.215 387.382 L267.275 384.617 L265.931 381.979 L103.431 62.9788 L102.903 61.9418 L102.054 61.1455 L47.656 10.118 L47.656 6.656 L64 6.656 L100 6.656 L136 6.656 L159.344 6.656 L159.344 13 L159.344 13.1918 L159.355 13.3834 L162.355 65.3834 L162.436 66.7801 L163.072 68.0262 L285.072 307.026 L291.874 320.352 L297.217 306.377 L388.217 68.3771 L388.773 66.9238 L388.627 65.3749 L383.656 12.687 L383.656 6.656 L407 6.656 L469 6.656 L530 6.656 L548.344 6.656 L548.344 10.356 L500.158 61.4325 L500.158 61.4325 Z " />
<glyph glyph-name="Y" unicode="Y" horiz-adv-x="571" d="M424.333 744.8 L419.373 797.375 L419.344 797.687 L419.344 798 L419.344 810.5 L419.344 817.046 L425.889 817.155 L455.889 817.655 L455.945 817.656 L456 817.656 L489 817.656 L521 817.656 L521.133 817.656 L521.266 817.651 L546.266 816.651 L552.656 816.395 L552.656 810 L552.656 798 L552.656 795.375 L550.864 793.457 L502.267 741.423 L367.656 382.792 L367.656 67.753 L396.792 16.2787 L397.656 14.7531 L397.656 13 L397.656 0 L397.656 -6.656 L391 -6.656 L361 -6.656 L297 -6.656 L233 -6.656 L203 -6.656 L196.344 -6.656 L196.344 0 L196.344 13 L196.344 14.7531 L197.208 16.2787 L226.344 67.753 L226.344 367.737 L79.29 741.335 L29.2039 793.385 L27.344 795.318 L27.344 798 L27.344 811 L27.344 817.656 L34 817.656 L59 817.656 L119 817.656 L180 817.656 L180.055 817.656 L180.111 817.655 L210.111 817.155 L216.656 817.046 L216.656 810.5 L216.656 798 L216.656 797.681 L216.625 797.363 L211.776 746.927 L320.859 463.875 L424.333 744.8 L424.333 744.8 Z M437.058 751.656 L441.045 751.656 L437.746 742.699 L327.246 442.699 L321.141 426.125 L314.789 442.606 L198.789 743.606 L198.224 745.073 L198.375 746.637 L203.344 798.319 L203.344 803.954 L179.945 804.344 L119 804.344 L59 804.344 L40.656 804.344 L40.656 800.682 L89.7961 749.615 L90.7105 748.665 L91.1935 747.438 L239.193 371.438 L239.656 370.263 L239.656 369 L239.656 66 L239.656 64.2469 L238.792 62.7213 L209.656 11.247 L209.656 6.656 L233 6.656 L297 6.656 L361 6.656 L384.344 6.656 L384.344 11.247 L355.208 62.7213 L354.344 64.2469 L354.344 66 L354.344 384 L354.344 385.208 L354.769 386.339 L490.269 747.339 L490.733 748.577 L491.636 749.543 L539.344 800.625 L539.344 803.605 L520.867 804.344 L489 804.344 L456.055 804.344 L432.656 803.954 L432.656 798.313 L437.058 751.656 L437.058 751.656 Z " />
<glyph glyph-name="Z" unicode="Z" horiz-adv-x="535" d="M496.656 28 L496.656 0 L496.656 -6.656 L490 -6.656 L45 -6.656 L38.344 -6.656 L38.344 0 L38.344 57 L38.344 58.4134 L38.9184 59.7049 L344.755 747.344 L127.753 747.344 L76.2787 718.208 L74.7531 717.344 L73 717.344 L60 717.344 L53.344 717.344 L53.344 724 L53.344 754 L53.344 783 L53.344 811 L53.344 817.656 L60 817.656 L490 817.656 L496.656 817.656 L496.656 811 L496.656 754 L496.656 752.582 L496.078 751.288 L189.258 63.656 L422.247 63.656 L473.721 92.7924 L475.247 93.656 L477 93.656 L490 93.656 L496.656 93.656 L496.656 87 L496.656 57 L496.656 28 L496.656 28 Z M483.344 28 L483.344 57 L483.344 80.344 L478.753 80.344 L427.279 51.2076 L425.753 50.344 L424 50.344 L179 50.344 L168.742 50.344 L172.922 59.7122 L483.344 755.418 L483.344 804.344 L66.656 804.344 L66.656 783 L66.656 754 L66.656 730.656 L71.247 730.656 L122.721 759.792 L124.247 760.656 L126 760.656 L355 760.656 L365.245 760.656 L361.082 751.295 L51.656 55.587 L51.656 6.656 L483.344 6.656 L483.344 28 L483.344 28 Z " />
<glyph glyph-name="bracketleft" unicode="&#x5b;" horiz-adv-x="282" d="M206.656 739.344 L206.656 -43.344 L252 -43.344 L258.656 -43.344 L258.656 -50 L258.656 -115 L258.656 -121.656 L252 -121.656 L200 -121.656 L125 -121.656 L118.344 -121.656 L118.344 -115 L118.344 811 L118.344 817.656 L125 817.656 L200 817.656 L252 817.656 L258.656 817.656 L258.656 811 L258.656 746 L258.656 739.344 L252 739.344 L206.656 739.344 L206.656 739.344 Z M193.344 746 L193.344 752.656 L200 752.656 L245.344 752.656 L245.344 804.344 L200 804.344 L131.656 804.344 L131.656 -108.344 L200 -108.344 L245.344 -108.344 L245.344 -56.656 L200 -56.656 L193.344 -56.656 L193.344 -50 L193.344 746 L193.344 746 Z " />
<glyph glyph-name="backslash" unicode="&#x5c;" horiz-adv-x="340" d="M290 -6.656 L285.311 -6.656 L283.733 -2.2411 L-6.26736 808.759 L-9.44881 817.656 L0 817.656 L50 817.656 L54.6887 817.656 L56.2674 813.241 L346.267 2.2411 L349.449 -6.656 L340 -6.656 L290 -6.656 L290 -6.656 Z M294.689 6.656 L330.551 6.656 L45.311 804.344 L9.449 804.344 L294.689 6.656 L294.689 6.656 Z " />
<glyph glyph-name="bracketright" unicode="&#x5d;" horiz-adv-x="282" d="M75.344 739.344 L30 739.344 L23.344 739.344 L23.344 746 L23.344 811 L23.344 817.656 L30 817.656 L82 817.656 L157 817.656 L163.656 817.656 L163.656 811 L163.656 -115 L163.656 -121.656 L157 -121.656 L82 -121.656 L30 -121.656 L23.344 -121.656 L23.344 -115 L23.344 -50 L23.344 -43.344 L30 -43.344 L75.344 -43.344 L75.344 739.344 L75.344 739.344 Z M82 752.656 L88.656 752.656 L88.656 746 L88.656 -50 L88.656 -56.656 L82 -56.656 L36.656 -56.656 L36.656 -108.344 L82 -108.344 L150.344 -108.344 L150.344 804.344 L82 804.344 L36.656 804.344 L36.656 752.656 L82 752.656 L82 752.656 Z " />
<glyph glyph-name="underscore" unicode="&#x5f;" horiz-adv-x="560" d="M50 -141.656 L43.344 -141.656 L43.344 -135 L43.344 -65 L43.344 -58.344 L50 -58.344 L510 -58.344 L516.656 -58.344 L516.656 -65 L516.656 -135 L516.656 -141.656 L510 -141.656 L50 -141.656 L50 -141.656 Z M56.656 -128.344 L503.344 -128.344 L503.344 -71.656 L56.656 -71.656 L56.656 -128.344 L56.656 -128.344 Z " />
<glyph glyph-name="a" unicode="a" horiz-adv-x="430" d="M64.8952 441.686 L60.344 443.203 L60.344 448 C60.344 529.757 128.243 597.656 211 597.656 C293.933 597.656 361.656 523.584 361.656 380 L361.656 95 C361.656 92.0713 360.783 93.818 363.93 93.1255 C369.546 91.8899 380.074 91.656 400 91.656 L406.656 91.656 L406.656 85 L406.656 0 L406.656 -6.656 L400 -6.656 C289.422 -6.656 249.918 1.43492 237.999 46.678 C215.717 3.33122 182.643 -16.656 146 -16.656 C71.2094 -16.656 33.344 47.1743 33.344 123 C33.344 206.015 82.1565 279.234 142.189 286.606 L142.287 286.618 L142.386 286.628 C194.174 291.423 233.344 326.949 233.344 411 L233.344 429 C233.344 465.108 230.203 491.687 225.1 509.546 C220.208 526.669 215.76 532.344 211 532.344 C166.209 532.344 130.656 487.675 130.656 429 L130.656 419.765 L121.895 422.686 L64.8952 441.686 L64.8952 441.686 Z M73.735 452.771 L117.64 438.136 C121.481 497.372 162.274 545.656 211 545.656 C222.24 545.656 232.292 532.831 237.9 513.204 C243.297 494.313 246.656 465.892 246.656 429 L246.656 411 C246.656 321.105 199.883 278.629 143.716 273.382 C89.7927 266.69 46.656 201.938 46.656 123 C46.656 50.8257 78.7906 -3.344 146 -3.344 C183.887 -3.344 214.487 18.2559 234.768 72.3371 L245.205 100.171 L247.634 70.5438 C252.187 14.9952 274.229 6.93542 393.344 6.663 L393.344 78.356 C377.22 78.4222 367.156 78.7855 361.07 80.1245 C351.717 82.182 348.344 88.9287 348.344 95 L348.344 380 C348.344 518.416 288.067 584.344 211 584.344 C135.376 584.344 76.1825 526.735 73.735 452.771 L73.735 452.771 Z M233.344 256.856 C218.166 242.963 199.754 235.091 180.823 233.391 C177.36 232.707 173.034 223.591 168.749 204.19 C164.335 184.2 161.656 157.171 161.656 127 C161.656 101.106 162.396 77.9233 164.001 61.1333 C164.796 52.8109 165.746 46.4797 166.916 42.0887 C167.266 40.7734 167.404 40.0676 167.351 39.71 C201.006 41.2635 227.579 76.6193 233.344 170.204 L233.344 256.856 L233.344 256.856 Z M234.706 278.034 L246.656 293.719 L246.656 274 L246.656 170 L246.656 169.796 L246.644 169.593 C240.515 69.5 206.212 26.344 165 26.344 C159.387 26.344 155.541 33.0746 154.053 38.6613 C152.691 43.7703 151.579 51.1891 150.749 59.8667 C149.104 77.0767 148.344 100.894 148.344 127 C148.344 157.829 151.165 186.3 155.751 207.06 C160.417 228.189 168.541 245.087 179.059 246.589 L179.24 246.615 L179.423 246.631 C201.094 248.515 219.602 258.21 234.706 278.034 L234.706 278.034 Z " />
<glyph glyph-name="b" unicode="b" horiz-adv-x="479" d="M128 -6.656 L70 -6.656 L40 -6.656 L33.344 -6.656 L33.344 0 L33.344 13 L33.344 14.7531 L34.2076 16.2787 L63.344 67.753 L63.344 743.247 L34.2076 794.721 L33.344 796.247 L33.344 798 L33.344 811 L33.344 817.656 L40 817.656 L70 817.656 L128 817.656 L185 817.656 L191.656 817.656 L191.656 811 L191.656 801 L191.656 513.993 C216.946 567.878 253.843 597.656 294 597.656 C373.283 597.656 436.656 458.444 436.656 291 C436.656 122.556 373.283 -16.656 294 -16.656 C253.843 -16.656 216.946 13.122 191.656 67.007 L191.656 0 L191.656 -6.656 L185 -6.656 L128 -6.656 L128 -6.656 Z M128 6.656 L178.344 6.656 L178.344 102 L178.344 135.28 L180.929 135.694 L191.323 104.079 C214.814 32.6276 251.708 -3.344 294 -3.344 C364.717 -3.344 423.344 125.444 423.344 291 C423.344 455.556 364.717 584.344 294 584.344 C251.708 584.344 214.814 548.372 191.323 476.921 L180.929 445.306 L178.344 445.72 L178.344 479 L178.344 801 L178.344 804.344 L128 804.344 L70 804.344 L46.656 804.344 L46.656 799.753 L75.7924 748.279 L76.656 746.753 L76.656 745 L76.656 66 L76.656 64.2469 L75.7924 62.7213 L46.656 11.247 L46.656 6.656 L70 6.656 L128 6.656 L128 6.656 Z M269 56.656 C274.217 56.656 281.504 78.3152 287.917 121.234 C294.377 164.463 298.344 224.221 298.344 291 C298.344 359.813 294.868 421.641 289.148 466.406 C286.298 488.709 282.965 506.341 279.229 518.553 C275.633 530.307 273.772 533.344 273 533.344 C228.37 533.344 191.656 448.62 191.656 291 C191.656 138.39 227.356 56.656 269 56.656 L269 56.656 Z M269 43.344 C218.644 43.344 178.344 135.61 178.344 291 C178.344 451.38 219.63 546.656 273 546.656 C281.228 546.656 287.867 535.818 291.958 522.447 C295.91 509.534 299.452 490.791 302.352 468.094 C308.132 422.859 311.656 360.187 311.656 291 C311.656 223.779 307.623 163.037 301.083 119.266 C294.496 75.1848 283.783 43.344 269 43.344 L269 43.344 Z " />
<glyph glyph-name="c" unicode="c" horiz-adv-x="421" d="M329.344 156 L329.344 166.77 L338.977 161.953 L394.977 133.953 L398.656 132.114 L398.656 128 C398.656 48.243 333.757 -16.656 255 -16.656 C137.886 -16.656 43.344 96.5868 43.344 291 C43.344 484.413 137.886 597.656 255 597.656 C283.951 597.656 309.637 590.164 329.335 578.76 L329.403 578.721 L329.471 578.679 C366.947 555.777 390.433 514.144 396.6 466.861 L396.642 466.543 L396.652 466.222 L397.652 436.222 L397.792 432.024 L394.064 430.091 L367.064 416.091 L366.976 416.046 L366.887 416.003 L339.887 403.003 L330.344 398.408 L330.344 409 C330.344 481.549 305.726 535.344 255 535.344 C236.011 535.344 218.876 515.853 204.803 474.362 C190.501 432.195 181.656 370.525 181.656 291 C181.656 133.282 215.506 48.656 255 48.656 C296.591 48.656 329.344 94.1469 329.344 156 L329.344 156 Z M342.318 145.399 C338.394 84.1282 300.797 35.344 255 35.344 C206.494 35.344 168.344 130.718 168.344 291 C168.344 371.475 177.499 435.305 192.197 478.638 C207.124 522.647 229.989 548.656 255 548.656 C311.504 548.656 340.844 490.311 343.463 419.499 L361.024 427.954 L384.208 439.976 L383.358 465.455 C377.474 509.999 356.998 546.225 322.596 567.279 C304.306 577.852 282.015 584.344 255 584.344 C144.114 584.344 56.656 479.587 56.656 291 C56.656 101.413 144.114 -3.344 255 -3.344 C326.894 -3.344 383.235 51.6726 385.286 123.915 L342.318 145.399 L342.318 145.399 Z " />
<glyph glyph-name="d" unicode="d" horiz-adv-x="497" d="M43.344 291 C43.344 458.508 109.803 597.656 195 597.656 C238.443 597.656 278.183 560.459 305.344 502.258 L305.344 743.247 L276.208 794.721 L275.344 796.247 L275.344 798 L275.344 811 L275.344 817.656 L282 817.656 L312 817.656 L370 817.656 L427 817.656 L433.656 817.656 L433.656 811 L433.656 801 L433.656 67.753 L462.792 16.2787 L463.656 14.7531 L463.656 13 L463.656 0.5 L463.656 -6.04599 L457.111 -6.15508 L427.111 -6.65508 L427.055 -6.656 L427 -6.656 L370 -6.656 L312 -6.656 L305.344 -6.656 L305.344 0 L305.344 10 L305.344 78.742 C278.183 20.5408 238.443 -16.656 195 -16.656 C109.803 -16.656 43.344 122.492 43.344 291 L43.344 291 Z M56.656 291 C56.656 125.508 118.197 -3.344 195 -3.344 C240.026 -3.344 280.149 41.4445 305.711 115.18 L316.612 146.624 L318.656 146.28 L318.656 113 L318.656 10 L318.656 6.656 L370 6.656 L426.945 6.656 L450.344 7.046 L450.344 11.247 L421.208 62.7213 L420.344 64.2469 L420.344 66 L420.344 801 L420.344 804.344 L370 804.344 L312 804.344 L288.656 804.344 L288.656 799.753 L317.792 748.279 L318.656 746.753 L318.656 745 L318.656 468 L318.656 434.72 L316.612 434.376 L305.711 465.82 C280.149 539.556 240.026 584.344 195 584.344 C118.197 584.344 56.656 455.492 56.656 291 L56.656 291 Z M305.344 291 C305.344 427.756 264.44 533.344 215 533.344 C208.676 533.344 200.472 510.578 193.321 466.191 C186.118 421.479 181.656 359.76 181.656 291 C181.656 221.739 186.118 159.768 193.322 114.931 C200.473 70.4207 208.676 47.656 215 47.656 C264.44 47.656 305.344 153.244 305.344 291 L305.344 291 Z M318.656 291 C318.656 150.756 273.56 34.344 215 34.344 C199.324 34.344 187.527 67.0793 180.178 112.819 C172.882 158.232 168.344 221.261 168.344 291 C168.344 360.24 172.882 423.021 180.179 468.309 C187.528 513.922 199.324 546.656 215 546.656 C273.56 546.656 318.656 430.244 318.656 291 L318.656 291 Z " />
<glyph glyph-name="e" unicode="e" horiz-adv-x="428" d="M333.344 152 L333.344 161.8 L342.454 158.187 L400.454 135.187 L404.656 133.521 L404.656 129 C404.656 48.8139 323.347 -16.656 224 -16.656 C123.553 -16.656 43.344 96.8861 43.344 291 C43.344 484.202 127.654 597.656 232 597.656 C358.409 597.656 421.656 448.352 421.656 267 L421.656 260.344 L415 260.344 L300 260.344 L181.764 260.344 C183.013 191.893 188.603 138.639 196.988 101.984 C205.513 64.7178 214.833 48.656 224 48.656 C285.358 48.656 333.344 93.8735 333.344 152 L333.344 152 Z M346.229 142.369 C340.945 82.9062 287.261 35.344 224 35.344 C207.167 35.344 192.987 59.7822 184.012 99.0157 C175.17 137.665 169.349 194.615 168.345 266.908 L168.251 273.656 L175 273.656 L300 273.656 L408.317 273.656 C406.872 449.082 348.126 584.344 232 584.344 C134.346 584.344 56.656 479.798 56.656 291 C56.656 101.114 130.447 -3.344 224 -3.344 C316.728 -3.344 388.377 52.8293 391.254 124.515 L346.229 142.369 L346.229 142.369 Z M292.123 317.656 C287.637 445.401 267.037 535.344 232 535.344 C220.074 535.344 208.916 518.505 199.07 480.337 C189.37 442.733 183.048 388.066 181.762 317.656 L292.123 317.656 L292.123 317.656 Z M305.653 311.202 L305.861 304.344 L299 304.344 L175 304.344 L168.253 304.344 L168.345 311.09 C169.349 385.418 175.938 443.959 186.18 483.663 C196.584 523.995 212.926 548.656 232 548.656 C278.339 548.656 301.634 443.83 305.653 311.202 L305.653 311.202 Z " />
<glyph glyph-name="f" unicode="f" horiz-adv-x="356" d="M120 -6.656 L62 -6.656 L32 -6.656 L25.344 -6.656 L25.344 0 L25.344 13 L25.344 14.7531 L26.2076 16.2787 L55.344 67.753 L55.344 525.344 L30 525.344 L23.344 525.344 L23.344 532 L23.344 581 L23.344 587.656 L30 587.656 L55.344 587.656 L55.344 654 C55.344 761.48 103.958 817.656 197 817.656 L287 817.656 L293.656 817.656 L293.656 811 L293.656 785 L293.656 759 L293.656 729 L293.656 722.344 L287 722.344 L274 722.344 L272.222 722.344 L270.68 723.231 L219.003 752.97 L213.779 753.343 C193.681 753.129 183.656 723.636 183.656 654 L183.656 587.656 L287 587.656 L293.656 587.656 L293.656 581 L293.656 532 L293.656 525.344 L287 525.344 L183.656 525.344 L183.656 67.753 L212.792 16.2787 L213.656 14.7531 L213.656 13 L213.656 0 L213.656 -6.656 L207 -6.656 L177 -6.656 L120 -6.656 L120 -6.656 Z M120 6.656 L177 6.656 L200.344 6.656 L200.344 11.247 L171.208 62.7213 L170.344 64.2469 L170.344 66 L170.344 532 L170.344 538.656 L177 538.656 L280.344 538.656 L280.344 574.344 L177 574.344 L170.344 574.344 L170.344 581 L170.344 654 C170.344 726.109 184.246 766.656 214 766.656 L214.237 766.656 L214.474 766.639 L221.474 766.139 L222.997 766.03 L224.32 765.269 L275.778 735.656 L280.344 735.656 L280.344 759 L280.344 785 L280.344 804.344 L197 804.344 C110.042 804.344 68.656 756.52 68.656 654 L68.656 581 L68.656 574.344 L62 574.344 L36.656 574.344 L36.656 538.656 L62 538.656 L68.656 538.656 L68.656 532 L68.656 66 L68.656 64.2469 L67.7924 62.7213 L38.656 11.247 L38.656 6.656 L62 6.656 L120 6.656 L120 6.656 Z " />
<glyph glyph-name="g" unicode="g" horiz-adv-x="487" d="M57.344 -69 L57.344 -62.344 L64 -62.344 L132 -62.344 L138.656 -62.344 L138.656 -69 C138.656 -104.636 179.384 -122.344 236 -122.344 C275.434 -122.344 295.344 -70.7601 295.344 0 L295.344 81.773 C269.277 27.8975 231.454 -6.656 190 -6.656 C108.355 -6.656 43.344 95.0546 43.344 291 C43.344 492.896 108.295 597.656 190 597.656 C231.51 597.656 269.301 561.63 295.344 506.141 L295.344 581 L295.344 587.656 L302 587.656 L360 587.656 L417 587.656 L417.055 587.656 L417.111 587.655 L447.111 587.155 L453.656 587.046 L453.656 580.5 L453.656 568 L453.656 566.247 L452.792 564.721 L423.656 513.247 L423.656 49 C423.656 -80.7601 362.872 -187.656 242 -187.656 C141.519 -187.656 57.344 -148.232 57.344 -69 L57.344 -69 Z M70.879 -75.656 C75.3855 -141.936 147.589 -174.344 242 -174.344 C355.128 -174.344 410.344 -77.2399 410.344 49 L410.344 515 L410.344 516.753 L411.208 518.279 L440.344 569.753 L440.344 573.954 L416.945 574.344 L360 574.344 L308.656 574.344 L308.656 472 L308.656 438.72 L306.628 438.378 L295.712 469.817 C271.136 540.597 232.974 584.344 190 584.344 C115.705 584.344 56.656 489.104 56.656 291 C56.656 98.9454 115.645 6.656 190 6.656 C233.06 6.656 271.181 48.4959 295.732 117.239 L306.925 148.58 L308.656 148.28 L308.656 115 L308.656 0 C308.656 -73.2399 284.566 -135.656 236 -135.656 C179.663 -135.656 130.628 -115.593 125.743 -75.656 L70.879 -75.656 L70.879 -75.656 Z M210 533.344 C204.917 533.344 198.204 517.424 191.954 476.739 C185.623 435.53 181.656 373.786 181.656 291 C181.656 211.222 185.621 151.747 191.948 112.048 C198.189 72.8881 204.853 57.656 210 57.656 C256.438 57.656 295.344 158.242 295.344 291 C295.344 427.81 256.363 533.344 210 533.344 L210 533.344 Z M210 546.656 C265.637 546.656 308.656 430.19 308.656 291 C308.656 155.758 265.562 44.344 210 44.344 C196.147 44.344 185.311 69.1119 178.802 109.952 C172.379 150.253 168.344 210.778 168.344 291 C168.344 374.214 172.377 436.97 178.796 478.761 C185.296 521.076 196.083 546.656 210 546.656 L210 546.656 Z " />
<glyph glyph-name="h" unicode="h" horiz-adv-x="464" d="M232.5 22.095 L258.344 67.753 L258.344 376 C258.344 422.763 255.632 460.724 251.306 487.176 C247.049 513.206 242.994 523.344 241 523.344 C233.201 523.344 225.413 510.808 218.294 484.864 C211.049 458.463 206.656 422.099 206.656 381 L206.656 67.753 L232.5 22.095 L232.5 22.095 Z M322 -6.656 L265 -6.656 L236.656 -6.656 L235 -6.656 L230 -6.656 L228.344 -6.656 L200 -6.656 L143 -6.656 L85 -6.656 L55 -6.656 L48.344 -6.656 L48.344 0 L48.344 13 L48.344 14.7531 L49.2076 16.2787 L78.344 67.753 L78.344 743.247 L49.2076 794.721 L48.344 796.247 L48.344 798 L48.344 811 L48.344 817.656 L55 817.656 L85 817.656 L114 817.656 L143 817.656 L200 817.656 L206.656 817.656 L206.656 811 L206.656 801 L206.656 546.643 C222.334 574.853 242.69 592.656 265 592.656 C332.699 592.656 386.656 505.901 386.656 376 L386.656 67.753 L415.792 16.2787 L416.656 14.7531 L416.656 13 L416.656 0 L416.656 -6.656 L410 -6.656 L380 -6.656 L322 -6.656 L322 -6.656 Z M322 6.656 L380 6.656 L403.344 6.656 L403.344 11.247 L374.208 62.7213 L373.344 64.2469 L373.344 66 L373.344 376 C373.344 502.099 325.301 579.344 265 579.344 C242.074 579.344 221.829 555.578 206.238 513.679 L194.632 482.488 L193.344 482.72 L193.344 516 L193.344 801 L193.344 804.344 L143 804.344 L114 804.344 L85 804.344 L61.656 804.344 L61.656 799.753 L90.7924 748.279 L91.656 746.753 L91.656 745 L91.656 66 L91.656 64.2469 L90.7924 62.7213 L61.656 11.247 L61.656 6.656 L85 6.656 L143 6.656 L200 6.656 L223.344 6.656 L223.344 11.247 L194.208 62.7213 L193.344 64.2469 L193.344 66 L193.344 381 C193.344 422.901 197.951 461.037 205.456 488.386 C213.087 516.192 225.799 536.656 241 536.656 C252.006 536.656 259.951 516.794 264.444 489.324 C268.868 462.276 271.656 423.237 271.656 376 L271.656 66 L271.656 64.2469 L270.792 62.7213 L241.656 11.247 L241.656 6.656 L265 6.656 L322 6.656 L322 6.656 Z " />
<glyph glyph-name="i" unicode="i" horiz-adv-x="284" d="M79 654.344 L72.344 654.344 L72.344 661 L72.344 786 L72.344 792.656 L79 792.656 L204 792.656 L210.656 792.656 L210.656 786 L210.656 661 L210.656 654.344 L204 654.344 L79 654.344 L79 654.344 Z M85.656 667.656 L197.344 667.656 L197.344 779.344 L85.656 779.344 L85.656 667.656 L85.656 667.656 Z M142 -6.656 L84 -6.656 L55 -6.656 L48.344 -6.656 L48.344 0 L48.344 13 L48.344 14.7019 L49.1609 16.195 L77.344 67.702 L77.344 513.298 L49.1609 564.805 L48.344 566.298 L48.344 568 L48.344 581 L48.344 587.656 L55 587.656 L84 587.656 L142 587.656 L199 587.656 L205.656 587.656 L205.656 581 L205.656 571 L205.656 67.753 L234.792 16.2787 L235.656 14.7531 L235.656 13 L235.656 0 L235.656 -6.656 L229 -6.656 L199 -6.656 L142 -6.656 L142 -6.656 Z M142 6.656 L199 6.656 L222.344 6.656 L222.344 11.247 L193.208 62.7213 L192.344 64.2469 L192.344 66 L192.344 571 L192.344 574.344 L142 574.344 L84 574.344 L61.656 574.344 L61.656 569.702 L89.8391 518.195 L90.656 516.702 L90.656 515 L90.656 66 L90.656 64.2981 L89.8391 62.805 L61.656 11.298 L61.656 6.656 L84 6.656 L142 6.656 L142 6.656 Z " />
<glyph glyph-name="j" unicode="j" horiz-adv-x="179" d="M-11 654.344 L-17.656 654.344 L-17.656 661 L-17.656 786 L-17.656 792.656 L-11 792.656 L114 792.656 L120.656 792.656 L120.656 786 L120.656 661 L120.656 654.344 L114 654.344 L-11 654.344 L-11 654.344 Z M-4.344 667.656 L107.344 667.656 L107.344 779.344 L-4.344 779.344 L-4.344 667.656 L-4.344 667.656 Z M-33.315 -77.967 L-32.908 -120.301 C66.6394 -118.978 102.344 -87.0123 102.344 0 L102.344 571 L102.344 574.344 L52 574.344 L-6 574.344 L-28.344 574.344 L-28.344 569.702 L-0.160943 518.195 L0.656 516.702 L0.656 515 L0.656 0 C0.656 -43.8295 -9.80933 -69.0627 -33.315 -77.967 L-33.315 -77.967 Z M-56 -68.344 C-23.5622 -68.344 -12.656 -51.9847 -12.656 0 L-12.656 513.298 L-40.8391 564.805 L-41.656 566.298 L-41.656 568 L-41.656 581 L-41.656 587.656 L-35 587.656 L-6 587.656 L52 587.656 L109 587.656 L115.656 587.656 L115.656 581 L115.656 571 L115.656 0 C115.656 -95.0936 69.932 -133.656 -39.5 -133.656 L-46.0923 -133.656 L-46.1557 -127.064 L-46.592 -81.656 L-56 -81.656 L-89.28 -81.656 L-89.28 -68.344 L-56 -68.344 L-56 -68.344 Z " />
<glyph glyph-name="k" unicode="k" horiz-adv-x="396" d="M370.877 69.404 L416.98 17.4162 L418.656 15.5261 L418.656 13 L418.656 0 L418.656 -6.656 L412 -6.656 L387 -6.656 L324 -6.656 L261 -6.656 L255.636 -6.656 L254.496 -1.41488 L196.358 265.833 L191.656 256.429 L191.656 67.753 L220.792 16.2787 L221.656 14.7531 L221.656 13 L221.656 0 L221.656 -6.656 L215 -6.656 L185 -6.656 L128 -6.656 L70 -6.656 L40 -6.656 L33.344 -6.656 L33.344 0 L33.344 13 L33.344 14.7531 L34.2076 16.2787 L63.344 67.753 L63.344 743.247 L34.2076 794.721 L33.344 796.247 L33.344 798 L33.344 811 L33.344 817.656 L40 817.656 L70 817.656 L99 817.656 L128 817.656 L185 817.656 L191.656 817.656 L191.656 811 L191.656 801 L191.656 363.479 L267.431 516.732 L270.344 568.188 L270.344 580.5 L270.344 587.046 L276.889 587.155 L306.889 587.655 L306.945 587.656 L307 587.656 L327 587.656 L347 587.656 L370 587.656 L376.656 587.656 L376.656 581 L376.656 568 L376.656 565.135 L374.575 563.166 L319.42 510.965 L261.195 395.486 L370.877 69.404 L370.877 69.404 Z M360.02 61.5838 L359.123 62.5959 L358.691 63.878 L247.691 393.878 L246.805 396.514 L248.057 398.997 L308.057 517.997 L308.58 519.035 L309.425 519.834 L363.344 570.865 L363.344 574.344 L347 574.344 L327 574.344 L307.055 574.344 L283.656 573.954 L283.656 568 L283.656 567.812 L283.645 567.624 L280.645 514.624 L280.569 513.268 L279.967 512.05 L190.967 332.05 L178.344 306.521 L178.344 335 L178.344 801 L178.344 804.344 L128 804.344 L99 804.344 L70 804.344 L46.656 804.344 L46.656 799.753 L75.7924 748.279 L76.656 746.753 L76.656 745 L76.656 66 L76.656 64.2469 L75.7924 62.7213 L46.656 11.247 L46.656 6.656 L70 6.656 L128 6.656 L185 6.656 L208.344 6.656 L208.344 11.247 L179.208 62.7213 L178.344 64.2469 L178.344 66 L178.344 258 L178.344 259.571 L179.047 260.977 L226.029 354.941 L226.047 354.977 L240.93 384.743 L252.676 378.914 L237.971 349.059 L237.953 349.023 L205.998 284.144 L266.364 6.656 L324 6.656 L387 6.656 L405.344 6.656 L405.344 10.474 L360.02 61.5838 L360.02 61.5838 Z " />
<glyph glyph-name="l" unicode="l" horiz-adv-x="314" d="M157 -6.656 L99 -6.656 L98.9445 -6.656 L98.8891 -6.65508 L68.8891 -6.15508 L62.344 -6.04599 L62.344 0.5 L62.344 13 L62.344 14.7531 L63.2076 16.2787 L92.344 67.753 L92.344 743.247 L63.2076 794.721 L62.344 796.247 L62.344 798 L62.344 810.5 L62.344 817.046 L68.8891 817.155 L98.8891 817.655 L98.9445 817.656 L99 817.656 L157 817.656 L214 817.656 L220.656 817.656 L220.656 811 L220.656 801 L220.656 67.753 L249.792 16.2787 L250.656 14.7531 L250.656 13 L250.656 0 L250.656 -6.656 L244 -6.656 L214 -6.656 L157 -6.656 L157 -6.656 Z M157 6.656 L214 6.656 L237.344 6.656 L237.344 11.247 L208.208 62.7213 L207.344 64.2469 L207.344 66 L207.344 801 L207.344 804.344 L157 804.344 L99.055 804.344 L75.656 803.954 L75.656 799.753 L104.792 748.279 L105.656 746.753 L105.656 745 L105.656 66 L105.656 64.2469 L104.792 62.7213 L75.656 11.247 L75.656 7.046 L99.055 6.656 L157 6.656 L157 6.656 Z " />
<glyph glyph-name="m" unicode="m" horiz-adv-x="628" d="M404 -6.656 L374 -6.656 L316 -6.656 L259 -6.656 L229.5 -6.656 L200 -6.656 L143 -6.656 L85 -6.656 L55 -6.656 L48.344 -6.656 L48.344 0 L48.344 13 L48.344 14.7531 L49.2076 16.2787 L78.344 67.753 L78.344 513.247 L49.2076 564.721 L48.344 566.247 L48.344 568 L48.344 581 L48.344 587.656 L55 587.656 L85 587.656 L114 587.656 L143 587.656 L200 587.656 L206.656 587.656 L206.656 581 L206.656 571 L206.656 552.259 C220.631 577.088 238.901 592.656 259 592.656 C301.453 592.656 339.4 557.801 360.998 499.928 C375.955 554.671 402.459 592.656 433 592.656 C500.699 592.656 554.656 505.901 554.656 376 L554.656 67.753 L583.792 16.2787 L584.656 14.7531 L584.656 13 L584.656 0 L584.656 -6.656 L578 -6.656 L548 -6.656 L491 -6.656 L433 -6.656 L404 -6.656 L404 -6.656 Z M403.901 26.686 L426.344 67.702 L426.344 376 C426.344 422.784 423.878 460.761 419.676 487.206 C415.543 513.22 411.494 523.344 409 523.344 C403.504 523.344 397.03 511.135 390.851 485.089 C384.573 458.622 380.656 422.144 380.656 381 L380.656 376 L380.656 67.753 L403.901 26.686 L403.901 26.686 Z M229.902 27.489 L252.344 67.731 L252.344 376 C252.344 422.763 249.632 460.724 245.306 487.176 C241.049 513.206 236.994 523.344 235 523.344 C229.004 523.344 222.537 511.148 216.483 485.117 C210.33 458.658 206.656 422.166 206.656 381 L206.656 67.782 L229.902 27.489 L229.902 27.489 Z M235.813 10.7581 L233.525 6.656 L259 6.656 L316 6.656 L374 6.656 L399.943 6.656 L398.208 9.72127 L368.208 62.7213 L367.344 64.2469 L367.344 66 L367.344 376 L367.344 381 C367.344 422.856 371.427 460.878 377.899 488.161 C384.47 515.865 395.496 536.656 409 536.656 C420.506 536.656 428.457 516.78 432.824 489.294 C437.122 462.239 439.656 423.216 439.656 376 L439.656 66 L439.656 64.2981 L438.839 62.805 L409.839 9.80504 L408.116 6.656 L433 6.656 L491 6.656 L548 6.656 L571.344 6.656 L571.344 11.247 L542.208 62.7213 L541.344 64.2469 L541.344 66 L541.344 376 C541.344 502.099 493.301 579.344 433 579.344 C405.769 579.344 381.306 538.573 368.531 473.714 L363.031 445.793 L355.576 473.256 C337.017 541.632 301.145 579.344 259 579.344 C238.102 579.344 219.88 557.652 206.282 518.801 L195.288 487.39 L193.344 487.72 L193.344 521 L193.344 571 L193.344 574.344 L143 574.344 L114 574.344 L85 574.344 L61.656 574.344 L61.656 569.753 L90.7924 518.279 L91.656 516.753 L91.656 515 L91.656 66 L91.656 64.2469 L90.7924 62.7213 L61.656 11.247 L61.656 6.656 L85 6.656 L143 6.656 L200 6.656 L226.553 6.656 L224.235 10.6738 L194.235 62.6738 L193.344 64.2177 L193.344 66 L193.344 381 C193.344 422.834 197.17 460.842 203.517 488.133 C209.963 515.852 220.996 536.656 235 536.656 C246.006 536.656 253.951 516.794 258.444 489.324 C262.868 462.276 265.656 423.237 265.656 376 L265.656 66 L265.656 64.2695 L264.813 62.7581 L235.813 10.7581 L235.813 10.7581 Z " />
<glyph glyph-name="n" unicode="n" horiz-adv-x="446" d="M219.5 22.095 L245.344 67.753 L245.344 376 C245.344 422.763 242.632 460.724 238.306 487.176 C234.049 513.206 229.994 523.344 228 523.344 C220.201 523.344 212.413 510.808 205.294 484.864 C198.049 458.463 193.656 422.099 193.656 381 L193.656 67.753 L219.5 22.095 L219.5 22.095 Z M309 -6.656 L252 -6.656 L223.656 -6.656 L222 -6.656 L217 -6.656 L215.344 -6.656 L187 -6.656 L130 -6.656 L72 -6.656 L42 -6.656 L35.344 -6.656 L35.344 0 L35.344 13 L35.344 14.7531 L36.2076 16.2787 L65.344 67.753 L65.344 513.247 L36.2076 564.721 L35.344 566.247 L35.344 568 L35.344 581 L35.344 587.656 L42 587.656 L72 587.656 L101 587.656 L130 587.656 L187 587.656 L193.656 587.656 L193.656 581 L193.656 571 L193.656 546.643 C209.334 574.853 229.69 592.656 252 592.656 C319.699 592.656 373.656 505.901 373.656 376 L373.656 67.753 L402.792 16.2787 L403.656 14.7531 L403.656 13 L403.656 0 L403.656 -6.656 L397 -6.656 L367 -6.656 L309 -6.656 L309 -6.656 Z M309 6.656 L367 6.656 L390.344 6.656 L390.344 11.247 L361.208 62.7213 L360.344 64.2469 L360.344 66 L360.344 376 C360.344 502.099 312.301 579.344 252 579.344 C229.074 579.344 208.829 555.578 193.238 513.679 L181.632 482.488 L180.344 482.72 L180.344 516 L180.344 571 L180.344 574.344 L130 574.344 L101 574.344 L72 574.344 L48.656 574.344 L48.656 569.753 L77.7924 518.279 L78.656 516.753 L78.656 515 L78.656 66 L78.656 64.2469 L77.7924 62.7213 L48.656 11.247 L48.656 6.656 L72 6.656 L130 6.656 L187 6.656 L210.344 6.656 L210.344 11.247 L181.208 62.7213 L180.344 64.2469 L180.344 66 L180.344 381 C180.344 422.901 184.951 461.037 192.456 488.386 C200.087 516.192 212.799 536.656 228 536.656 C239.006 536.656 246.951 516.794 251.444 489.324 C255.868 462.276 258.656 423.237 258.656 376 L258.656 66 L258.656 64.2469 L257.792 62.7213 L228.656 11.247 L228.656 6.656 L252 6.656 L309 6.656 L309 6.656 Z " />
<glyph glyph-name="o" unicode="o" horiz-adv-x="457" d="M30.344 291 C30.344 484.224 115.678 597.656 222 597.656 C344.114 597.656 413.656 458.571 413.656 291 C413.656 96.7759 328.322 -16.656 222 -16.656 C99.8864 -16.656 30.344 122.429 30.344 291 L30.344 291 Z M43.656 291 C43.656 125.571 108.114 -3.344 222 -3.344 C321.678 -3.344 400.344 101.224 400.344 291 C400.344 455.429 335.886 584.344 222 584.344 C122.322 584.344 43.656 479.776 43.656 291 L43.656 291 Z M222 42.656 C234.894 42.656 247.315 61.7012 257.919 103.994 C268.68 146.915 275.344 209.851 275.344 291 C275.344 361.212 269.907 423.983 259.754 469.424 C249.7 514.422 236.998 538.344 222 538.344 C209.106 538.344 196.683 519.297 186.08 477.127 C175.319 434.331 168.656 371.647 168.656 291 C168.656 220.287 174.093 157.264 184.247 111.698 C194.301 66.5763 207.002 42.656 222 42.656 L222 42.656 Z M222 29.344 C198.998 29.344 181.699 61.9237 171.253 108.802 C160.907 155.236 155.344 219.713 155.344 291 C155.344 372.353 162.181 436.669 173.17 480.373 C184.317 524.703 201.894 551.656 222 551.656 C245.002 551.656 262.3 519.078 272.746 472.326 C283.093 426.017 288.656 361.788 288.656 291 C288.656 209.149 281.82 144.585 270.831 100.756 C259.685 56.2988 242.106 29.344 222 29.344 L222 29.344 Z " />
<glyph glyph-name="p" unicode="p" horiz-adv-x="481" d="M130 -161.656 L72 -161.656 L42 -161.656 L35.344 -161.656 L35.344 -155 L35.344 -142 L35.344 -140.247 L36.2076 -138.721 L65.344 -87.247 L65.344 513.247 L36.2076 564.721 L35.344 566.247 L35.344 568 L35.344 581 L35.344 587.656 L42 587.656 L72 587.656 L101 587.656 L130 587.656 L187 587.656 L193.656 587.656 L193.656 581 L193.656 571 L193.656 513.993 C218.946 567.878 255.843 597.656 296 597.656 C375.312 597.656 437.656 458.422 437.656 291 C437.656 122.578 375.312 -16.656 296 -16.656 C255.843 -16.656 218.946 13.122 193.656 67.007 L193.656 -87.247 L222.792 -138.721 L223.656 -140.247 L223.656 -142 L223.656 -155 L223.656 -161.656 L217 -161.656 L187 -161.656 L130 -161.656 L130 -161.656 Z M130 -148.344 L187 -148.344 L210.344 -148.344 L210.344 -143.753 L181.208 -92.2787 L180.344 -90.7531 L180.344 -89 L180.344 102 L180.344 135.28 L182.929 135.694 L193.323 104.079 C216.814 32.6276 253.708 -3.344 296 -3.344 C366.688 -3.344 424.344 125.422 424.344 291 C424.344 455.578 366.688 584.344 296 584.344 C253.708 584.344 216.814 548.372 193.323 476.921 L182.929 445.306 L180.344 445.72 L180.344 479 L180.344 571 L180.344 574.344 L130 574.344 L101 574.344 L72 574.344 L48.656 574.344 L48.656 569.753 L77.7924 518.279 L78.656 516.753 L78.656 515 L78.656 -89 L78.656 -90.7531 L77.7924 -92.2787 L48.656 -143.753 L48.656 -148.344 L72 -148.344 L130 -148.344 L130 -148.344 Z M275 47.656 C275.434 47.656 277.157 50.5983 280.631 62.3954 C284.235 74.6387 287.481 92.3258 290.27 114.698 C295.867 159.598 299.344 221.686 299.344 291 C299.344 359.813 295.867 421.65 290.27 466.424 C287.482 488.735 284.236 506.391 280.631 518.618 C277.158 530.401 275.434 533.344 275 533.344 C230.37 533.344 193.656 448.62 193.656 291 C193.656 132.38 230.37 47.656 275 47.656 L275 47.656 Z M275 34.344 C221.63 34.344 180.344 129.62 180.344 291 C180.344 451.38 221.63 546.656 275 546.656 C283.066 546.656 289.467 535.724 293.4 522.382 C297.202 509.484 300.643 490.765 303.48 468.076 C309.133 422.85 312.656 360.187 312.656 291 C312.656 221.314 309.133 158.402 303.48 113.052 C300.644 90.2992 297.202 71.5488 293.401 58.6358 C289.468 45.2767 283.066 34.344 275 34.344 L275 34.344 Z " />
<glyph glyph-name="q" unicode="q" horiz-adv-x="512" d="M43.344 291 C43.344 458.508 109.803 597.656 195 597.656 C238.443 597.656 278.183 560.459 305.344 502.258 L305.344 581 L305.344 587.656 L312 587.656 L370 587.656 L427 587.656 L427.055 587.656 L427.111 587.655 L457.111 587.155 L463.656 587.046 L463.656 580.5 L463.656 568 L463.656 566.247 L462.792 564.721 L433.656 513.247 L433.656 -87.247 L462.792 -138.721 L463.656 -140.247 L463.656 -142 L463.656 -154.5 L463.656 -161.046 L457.111 -161.155 L427.111 -161.655 L427.055 -161.656 L427 -161.656 L370 -161.656 L312 -161.656 L282 -161.656 L275.344 -161.656 L275.344 -155 L275.344 -142 L275.344 -140.247 L276.208 -138.721 L305.344 -87.247 L305.344 78.742 C278.183 20.5408 238.443 -16.656 195 -16.656 C109.803 -16.656 43.344 122.492 43.344 291 L43.344 291 Z M56.656 291 C56.656 125.508 118.197 -3.344 195 -3.344 C240.026 -3.344 280.149 41.4445 305.711 115.18 L316.612 146.624 L318.656 146.28 L318.656 113 L318.656 -89 L318.656 -90.7531 L317.792 -92.2787 L288.656 -143.753 L288.656 -148.344 L312 -148.344 L370 -148.344 L426.945 -148.344 L450.344 -147.954 L450.344 -143.753 L421.208 -92.2787 L420.344 -90.7531 L420.344 -89 L420.344 515 L420.344 516.753 L421.208 518.279 L450.344 569.753 L450.344 573.954 L426.945 574.344 L370 574.344 L318.656 574.344 L318.656 468 L318.656 434.72 L316.612 434.376 L305.711 465.82 C280.149 539.556 240.026 584.344 195 584.344 C118.197 584.344 56.656 455.492 56.656 291 L56.656 291 Z M305.344 291 C305.344 427.756 264.44 533.344 215 533.344 C208.676 533.344 200.472 510.578 193.321 466.191 C186.118 421.479 181.656 359.76 181.656 291 C181.656 221.739 186.118 159.768 193.322 114.931 C200.473 70.4207 208.676 47.656 215 47.656 C264.44 47.656 305.344 153.244 305.344 291 L305.344 291 Z M318.656 291 C318.656 150.756 273.56 34.344 215 34.344 C199.324 34.344 187.527 67.0793 180.178 112.819 C172.882 158.232 168.344 221.261 168.344 291 C168.344 360.24 172.882 423.021 180.179 468.309 C187.528 513.922 199.324 546.656 215 546.656 C273.56 546.656 318.656 430.244 318.656 291 L318.656 291 Z " />
<glyph glyph-name="r" unicode="r" horiz-adv-x="286" d="M272.653 513.196 L272.855 506.344 L266 506.344 L256 506.344 C241.382 506.344 229.764 485.805 220.606 446.611 C211.341 406.954 206.656 352.216 206.656 291 L206.656 67.753 L235.792 16.2787 L236.656 14.7531 L236.656 13 L236.656 0 L236.656 -6.656 L230 -6.656 L200 -6.656 L143 -6.656 L85 -6.656 L55 -6.656 L48.344 -6.656 L48.344 0 L48.344 13 L48.344 14.7531 L49.2076 16.2787 L78.344 67.753 L78.344 513.247 L49.2076 564.721 L48.344 566.247 L48.344 568 L48.344 581 L48.344 587.656 L55 587.656 L85 587.656 L114 587.656 L143 587.656 L200 587.656 L206.656 587.656 L206.656 581 L206.656 571 L206.656 535.752 C221.321 567.83 241.354 587.656 264 587.656 L270.463 587.656 L270.653 581.196 L272.653 513.196 L272.653 513.196 Z M259.145 519.656 L257.558 573.627 C236.723 568.94 218.849 541.41 206.427 495.27 L197.775 463.134 L193.344 463.72 L193.344 497 L193.344 571 L193.344 574.344 L143 574.344 L114 574.344 L85 574.344 L61.656 574.344 L61.656 569.753 L90.7924 518.279 L91.656 516.753 L91.656 515 L91.656 66 L91.656 64.2469 L90.7924 62.7213 L61.656 11.247 L61.656 6.656 L85 6.656 L143 6.656 L200 6.656 L223.344 6.656 L223.344 11.247 L194.208 62.7213 L193.344 64.2469 L193.344 66 L193.344 291 C193.344 352.784 198.159 409.046 207.644 449.639 C217.236 490.695 233.618 519.656 256 519.656 L259.145 519.656 L259.145 519.656 Z " />
<glyph glyph-name="s" unicode="s" horiz-adv-x="393" d="M36.5488 103.362 L36.4535 103.737 L36.4024 104.12 L32.4024 134.12 L31.698 139.403 L36.699 141.246 L93.699 162.246 L102.656 165.546 L102.656 156 C102.656 96.757 148.757 50.656 208 50.656 C226.422 50.656 242.344 92.231 242.344 149 C242.344 182.184 221.349 217.783 187.297 232.918 L187.251 232.938 L187.206 232.959 C105.474 270.76 52.344 352.017 52.344 422 C52.344 515.445 117.92 592.656 198 592.656 C226.001 592.656 253.776 584.11 275.503 570.659 L275.516 570.652 L275.528 570.644 C308.682 549.923 333.234 514.696 341.513 475.371 L341.587 475.02 L341.623 474.662 L344.623 444.662 L345.095 439.944 L340.789 437.957 L314.789 425.957 L314.692 425.912 L314.593 425.87 L288.593 414.87 L279.344 410.957 L279.344 421 C279.344 484.815 243.634 533.344 198 533.344 C193.189 533.344 188.159 525.295 183.042 506.731 C177.799 487.711 174.656 461.601 174.656 432 C174.656 395.535 191.905 360.128 219.646 348.107 L219.716 348.077 L219.785 348.045 C310.354 306.322 369.656 225.173 369.656 159 C369.656 65.3522 296.867 -11.656 208 -11.656 C123.898 -11.656 53.1565 37.9688 36.5488 103.362 L36.5488 103.362 Z M49.546 106.269 C65.1012 45.8512 128.264 1.656 208 1.656 C291.133 1.656 356.344 70.6478 356.344 159 C356.344 220.812 301.673 295.64 214.281 335.924 C182.063 349.935 161.344 392.495 161.344 432 C161.344 462.399 164.701 490.289 170.208 510.269 C175.841 530.705 185.811 546.656 198 546.656 C247.806 546.656 288.498 494.666 292.357 430.916 L309.308 438.088 L330.905 448.056 L328.413 472.976 C320.632 509.489 299.232 540.122 268.497 559.341 L268.472 559.356 C248.205 571.896 223.989 579.344 198 579.344 C124.08 579.344 65.656 510.555 65.656 422 C65.656 355.995 114.508 281.269 192.75 245.062 C230.671 228.182 255.656 185.801 255.656 149 C255.656 89.769 235.578 37.344 208 37.344 C146.406 37.344 94.635 86.1071 89.725 146.595 L46.302 130.597 L49.546 106.269 L49.546 106.269 Z " />
<glyph glyph-name="t" unicode="t" horiz-adv-x="225" d="M195 587.656 L201.656 587.656 L201.656 581 L201.656 532 L201.656 525.344 L195 525.344 L157.656 525.344 L157.656 145 C157.656 112.465 157.403 88.7215 156.263 73.1393 C155.808 66.9152 155.167 61.658 154.324 57.656 L195 57.656 L201.656 57.656 L201.656 51 L201.656 0 L201.656 -6.656 L195 -6.656 L115 -6.656 C39.5676 -6.656 29.344 43.3262 29.344 145 L29.344 525.344 L10 525.344 L3.344 525.344 L3.344 532 L3.344 581 L3.344 587.656 L10 587.656 L29.344 587.656 L29.344 732 L29.344 735.114 L31.7346 737.11 L146.735 833.11 L157.656 842.227 L157.656 828 L157.656 587.656 L195 587.656 L195 587.656 Z M188.344 574.344 L151 574.344 L144.344 574.344 L144.344 581 L144.344 813.773 L42.656 728.886 L42.656 581 L42.656 574.344 L36 574.344 L16.656 574.344 L16.656 538.656 L36 538.656 L42.656 538.656 L42.656 532 L42.656 145 C42.656 44.6738 50.4324 6.656 115 6.656 L188.344 6.656 L188.344 44.344 L143 44.344 L109.72 44.344 L109.72 57.656 L140.632 57.656 C140.663 57.8464 140.72 58.0886 140.808 58.3931 C141.753 61.6669 142.44 66.6364 142.987 74.1107 C144.097 89.2785 144.344 112.535 144.344 145 L144.344 532 L144.344 538.656 L151 538.656 L188.344 538.656 L188.344 574.344 L188.344 574.344 Z " />
<glyph glyph-name="u" unicode="u" horiz-adv-x="462" d="M384.656 67.753 L413.792 16.2787 L414.656 14.7531 L414.656 13 L414.656 0 L414.656 -6.656 L408 -6.656 L378 -6.656 L320 -6.656 L263 -6.656 L256.344 -6.656 L256.344 0 L256.344 10 L256.344 33.748 C236.922 3.07167 209.103 -16.656 179 -16.656 C102.184 -16.656 73.344 70.9324 73.344 200 L73.344 513.247 L44.2076 564.721 L43.344 566.247 L43.344 568 L43.344 581 L43.344 587.656 L50 587.656 L80 587.656 L138 587.656 L195 587.656 L201.656 587.656 L201.656 581 L201.656 200 C201.656 153.522 201.906 115.334 202.405 88.75 C202.654 75.4749 202.963 65.1823 203.334 58.1803 C203.418 56.607 203.501 55.2353 203.587 54.05 C233.344 58.2788 256.344 96.0794 256.344 146 L256.344 513.247 L227.208 564.721 L226.344 566.247 L226.344 568 L226.344 581 L226.344 587.656 L233 587.656 L263 587.656 L320 587.656 L378 587.656 L384.656 587.656 L384.656 581 L384.656 67.753 L384.656 67.753 Z M372.208 62.7213 L371.344 64.2469 L371.344 66 L371.344 574.344 L320 574.344 L263 574.344 L239.656 574.344 L239.656 569.753 L268.792 518.279 L269.656 516.753 L269.656 515 L269.656 146 C269.656 89.0038 237.585 40.344 198 40.344 C193.822 40.344 191.49 44.8579 191.185 46.0606 C190.998 46.799 190.815 47.9123 190.688 48.9665 C190.452 50.936 190.232 53.8639 190.041 57.476 C189.662 64.6302 189.346 75.1501 189.095 88.5 C188.594 115.166 188.344 153.478 188.344 200 L188.344 574.344 L138 574.344 L80 574.344 L56.656 574.344 L56.656 569.753 L85.7924 518.279 L86.656 516.753 L86.656 515 L86.656 200 C86.656 73.0676 111.816 -3.344 179 -3.344 C211.439 -3.344 239.435 21.9423 256.86 63.5701 L269.656 94.1378 L269.656 61 L269.656 10 L269.656 6.656 L320 6.656 L378 6.656 L401.344 6.656 L401.344 11.247 L372.208 62.7213 L372.208 62.7213 Z " />
<glyph glyph-name="v" unicode="v" horiz-adv-x="421" d="M353.236 512.184 L254.536 -1.2565 L253.498 -6.656 L248 -6.656 L234 -6.656 L193 -6.656 L134 -6.656 L128.489 -6.656 L127.461 -1.24192 L29.749 513.241 L-8.3248 564.006 L-9.656 565.781 L-9.656 568 L-9.656 581 L-9.656 587.656 L-3 587.656 L24 587.656 L89 587.656 L154 587.656 L184 587.656 L190.656 587.656 L190.656 581 L190.656 568 L190.656 566.729 L190.188 565.548 L169.831 514.172 L215.612 179.617 L271.145 516.336 L252.763 565.676 L252.344 566.8 L252.344 568 L252.344 580.5 L252.344 587.046 L258.889 587.155 L288.889 587.655 L288.945 587.656 L289 587.656 L325 587.656 L360 587.656 L360.119 587.656 L360.238 587.652 L388.238 586.652 L394.656 586.423 L394.656 580 L394.656 568 L394.656 565.726 L393.265 563.927 L353.236 512.184 L353.236 512.184 Z M340.464 516.256 L340.764 517.816 L341.735 519.073 L381.344 570.274 L381.344 573.577 L359.881 574.344 L325 574.344 L289.055 574.344 L265.656 573.954 L265.656 569.2 L284.237 519.324 L284.855 517.664 L284.567 515.917 L221.567 133.917 L216.152 101.08 L212.918 101.125 L208.405 134.098 L156.405 514.098 L156.169 515.828 L156.812 517.452 L177.344 569.271 L177.344 574.344 L154 574.344 L89 574.344 L24 574.344 L3.656 574.344 L3.656 570.219 L41.3248 519.994 L42.2511 518.759 L42.5391 517.242 L139.511 6.656 L193 6.656 L234 6.656 L242.502 6.656 L340.464 516.256 L340.464 516.256 Z " />
<glyph glyph-name="w" unicode="w" horiz-adv-x="683" d="M537.512 513.374 L518.734 565.754 L518.344 566.843 L518.344 568 L518.344 581 L518.344 587.656 L525 587.656 L555 587.656 L588 587.656 L621 587.656 L621.119 587.656 L621.238 587.652 L649.238 586.652 L655.656 586.423 L655.656 580 L655.656 568 L655.656 565.77 L654.313 563.99 L615.256 512.241 L519.543 -1.21972 L518.53 -6.656 L513 -6.656 L499 -6.656 L464 -6.656 L409 -6.656 L404.076 -6.656 L402.635 -1.94691 L331.083 231.974 L261.379 -1.90111 L259.962 -6.656 L255 -6.656 L242 -6.656 L206 -6.656 L152 -6.656 L146.428 -6.656 L145.448 -1.1705 L53.72 512.304 L15.639 564.055 L14.344 565.815 L14.344 568 L14.344 581 L14.344 587.656 L21 587.656 L48 587.656 L109 587.656 L170 587.656 L200 587.656 L206.656 587.656 L206.656 581 L206.656 568 L206.656 566.701 L206.168 565.498 L185.317 514.099 L233.58 122.479 L296.097 342.817 L297.47 347.656 L302.5 347.656 L356 347.656 L404 347.656 L409.05 347.656 L410.41 342.793 L475.134 111.382 L537.512 513.374 L537.512 513.374 Z M548.685 521.656 L552.268 521.656 L551.077 513.979 L483.577 78.9794 L478.866 48.6177 L470.59 78.2072 L398.95 334.344 L356 334.344 L307.53 334.344 L237.403 87.1832 L228.42 55.5206 L224.394 88.1859 L171.894 514.186 L171.683 515.901 L172.332 517.502 L193.344 569.299 L193.344 574.344 L170 574.344 L109 574.344 L48 574.344 L27.656 574.344 L27.656 570.185 L65.361 518.945 L66.2797 517.696 L66.5523 516.171 L157.572 6.656 L206 6.656 L242 6.656 L250.038 6.656 L324.621 256.901 L330.917 278.026 L337.365 256.947 L413.924 6.656 L464 6.656 L499 6.656 L507.47 6.656 L602.457 516.22 L602.744 517.759 L603.687 519.01 L642.344 570.23 L642.344 573.577 L620.881 574.344 L588 574.344 L555 574.344 L531.656 574.344 L531.656 569.157 L548.685 521.656 L548.685 521.656 Z " />
<glyph glyph-name="x" unicode="x" horiz-adv-x="441" d="M254.371 516.508 L255.344 568.063 L255.344 580.5 L255.344 587.046 L261.889 587.155 L291.889 587.655 L291.945 587.656 L292 587.656 L325 587.656 L359 587.656 L383 587.656 L389.656 587.656 L389.656 581 L389.656 568 L389.656 565.188 L387.64 563.228 L334.012 511.076 L262.273 357.836 L381.655 69.74 L432.751 17.6615 L434.656 15.7199 L434.656 13 L434.656 0 L434.656 -6.656 L428 -6.656 L403 -6.656 L341 -6.656 L279 -6.656 L249 -6.656 L242.344 -6.656 L242.344 0 L242.344 13 L242.344 13.1918 L242.355 13.3834 L245.267 63.861 L188.659 200.439 L125.628 64.473 L124.656 12.937 L124.656 0 L124.656 -6.656 L118 -6.656 L88 -6.656 L55 -6.656 L21 -6.656 L-3 -6.656 L-9.656 -6.656 L-9.656 0 L-9.656 13 L-9.656 15.8116 L-7.64038 17.7717 L45.99 69.926 L150.726 293.167 L60.345 511.26 L9.24889 563.339 L7.344 565.28 L7.344 568 L7.344 580 L7.344 586.395 L13.734 586.651 L38.734 587.651 L38.8669 587.656 L39 587.656 L101 587.656 L163 587.656 L193 587.656 L199.656 587.656 L199.656 581 L199.656 568 L199.656 567.808 L199.645 567.617 L196.733 517.14 L224.295 450.666 L254.371 516.508 L254.371 516.508 Z M267.655 514.874 L267.629 513.492 L267.054 512.234 L230.054 431.234 L223.705 417.334 L217.852 431.451 L183.852 513.451 L183.267 514.86 L183.355 516.383 L186.344 568.192 L186.344 574.344 L163 574.344 L101 574.344 L39.133 574.344 L20.656 573.605 L20.656 570.72 L70.7511 519.661 L71.6549 518.74 L72.1489 517.548 L164.149 295.548 L165.274 292.833 L164.026 290.173 L57.5258 63.1729 L57.0104 62.0743 L56.1404 61.2283 L3.656 10.188 L3.656 6.656 L21 6.656 L55 6.656 L88 6.656 L111.344 6.656 L111.344 13 L111.344 13.0628 L111.345 13.1256 L112.345 66.1256 L112.372 67.5274 L112.961 68.7994 L182.961 219.799 L189.341 233.561 L195.149 219.549 L258.149 67.5485 L258.733 66.1394 L258.645 64.6166 L255.656 12.808 L255.656 6.656 L279 6.656 L341 6.656 L403 6.656 L421.344 6.656 L421.344 10.28 L371.249 61.3385 L370.345 62.2597 L369.851 63.452 L248.851 355.452 L247.727 358.164 L248.972 360.822 L322.472 517.822 L322.988 518.924 L323.86 519.772 L376.344 570.812 L376.344 574.344 L359 574.344 L325 574.344 L292.055 574.344 L268.656 573.954 L268.656 568 L268.656 567.937 L268.655 567.874 L267.655 514.874 L267.655 514.874 Z " />
<glyph glyph-name="y" unicode="y" horiz-adv-x="412" d="M44.586 511.115 L2.78339 563.866 L1.344 565.682 L1.344 568 L1.344 581 L1.344 587.656 L8 587.656 L35 587.656 L100 587.656 L165 587.656 L194 587.656 L200.656 587.656 L200.656 581 L200.656 568 L200.656 566.707 L200.172 565.508 L179.82 515.113 L218.4 208.224 L278.145 516.614 L262.649 566.008 L262.344 566.98 L262.344 568 L262.344 581 L262.344 587.656 L269 587.656 L298 587.656 L334 587.656 L369 587.656 L396 587.656 L402.656 587.656 L402.656 581 L402.656 568 L402.656 565.704 L401.241 563.897 L360.672 512.086 L229.503 -80.4201 L229.499 -80.4387 C210.142 -169.055 178.067 -206.656 120 -206.656 L70 -206.656 L63.344 -206.656 L63.344 -200 L63.344 -146 L63.344 -139.344 L70 -139.344 L120 -139.344 C141.228 -139.344 153.716 -118.537 167.482 -53.6515 L167.489 -53.6189 L173.181 -26.105 L44.586 511.115 L44.586 511.115 Z M53.218 521.656 L55.7508 521.656 L56.9731 516.549 L186.473 -24.4505 L186.819 -25.8945 L186.518 -27.3485 L180.518 -56.3485 L180.515 -56.3649 L180.511 -56.3811 C166.28 -123.47 148.769 -152.656 120 -152.656 L76.656 -152.656 L76.656 -193.344 L120 -193.344 C171.929 -193.344 197.853 -162.95 216.497 -77.5799 L216.499 -77.5706 L216.501 -77.5613 L348.001 516.439 L348.328 517.914 L349.259 519.103 L389.344 570.296 L389.344 574.344 L369 574.344 L334 574.344 L298 574.344 L275.656 574.344 L275.656 569.02 L291.351 518.992 L291.855 517.386 L291.535 515.734 L223.535 164.734 L217.205 132.062 L214.547 132.15 L210.396 165.17 L166.396 515.17 L166.18 516.887 L166.828 518.492 L187.344 569.293 L187.344 574.344 L165 574.344 L100 574.344 L35 574.344 L14.656 574.344 L14.656 570.318 L53.218 521.656 L53.218 521.656 Z " />
<glyph glyph-name="z" unicode="z" horiz-adv-x="340" d="M38.344 581 L38.344 587.656 L45 587.656 L304 587.656 L310.656 587.656 L310.656 581 L310.656 543 L310.656 542.065 L310.398 541.165 L171.319 56.108 L252.264 55.666 L303.721 84.7924 L305.247 85.656 L307 85.656 L320 85.656 L326.656 85.656 L326.656 79 L326.656 49 L326.656 24 L326.656 0 L326.656 -6.656 L320 -6.656 L30 -6.656 L23.344 -6.656 L23.344 0 L23.344 38 L23.344 38.8995 L23.5827 39.7667 L157.264 525.344 L112.753 525.344 L61.2787 496.208 L59.7531 495.344 L58 495.344 L45 495.344 L38.344 495.344 L38.344 502 L38.344 532 L38.344 557 L38.344 581 L38.344 581 Z M51.656 574.344 L51.656 557 L51.656 532 L51.656 508.656 L56.247 508.656 L107.721 537.792 L109.247 538.656 L111 538.656 L166 538.656 L174.736 538.656 L172.417 530.233 L36.656 37.101 L36.656 6.656 L313.344 6.656 L313.344 24 L313.344 49 L313.344 72.344 L308.753 72.344 L257.279 43.2076 L255.736 42.3344 L253.964 42.3441 L162.464 42.8441 L153.681 42.8921 L156.102 51.3345 L297.344 543.935 L297.344 574.344 L51.656 574.344 L51.656 574.344 Z " />
<glyph glyph-name="braceleft" unicode="&#x7b;" horiz-adv-x="263" d="M234 817.656 L240.656 817.656 L240.656 811 L240.656 746 L240.656 739.344 L234 739.344 L208.283 739.344 C208.331 739.016 208.241 738.4 207.998 737.306 C207.098 733.258 206.656 727.734 206.656 721 L206.656 451 C206.656 410.867 181.792 367.978 148.747 348 C181.792 328.022 206.656 285.133 206.656 245 L206.656 -25 C206.656 -31.7342 207.098 -37.2579 207.998 -41.3061 C208.241 -42.4005 208.331 -43.0164 208.283 -43.344 L234 -43.344 L240.656 -43.344 L240.656 -50 L240.656 -115 L240.656 -121.656 L234 -121.656 L206 -121.656 C158.036 -121.656 118.344 -77.5541 118.344 -25 L118.344 259 C118.344 290.971 91.5078 314.344 57 314.344 L50.344 314.344 L50.344 321 L50.344 376 L50.344 382.656 L57 382.656 C91.5078 382.656 118.344 406.029 118.344 437 L118.344 721 C118.344 773.554 158.036 817.656 206 817.656 L234 817.656 L234 817.656 Z M227.344 804.344 L206 804.344 C163.964 804.344 131.656 768.446 131.656 721 L131.656 437 C131.656 402.066 100.359 372.83 63.656 369.634 L63.656 327.366 C100.359 324.167 131.656 294.878 131.656 259 L131.656 -25 C131.656 -72.4459 163.964 -108.344 206 -108.344 L227.344 -108.344 L227.344 -56.656 L206 -56.656 C200.049 -56.656 196.206 -49.6118 195.002 -44.1939 C193.902 -39.2421 193.344 -32.2658 193.344 -25 L193.344 245 C193.344 286.041 166.547 327.623 131.499 341.832 L116.284 348 L131.499 354.168 C166.547 368.377 193.344 409.959 193.344 451 L193.344 721 C193.344 728.266 193.902 735.242 195.002 740.194 C196.206 745.612 200.049 752.656 206 752.656 L227.344 752.656 L227.344 804.344 L227.344 804.344 Z " />
<glyph glyph-name="bar" unicode="&#x7c;" horiz-adv-x="165" d="M38.344 861 L38.344 867.656 L45 867.656 L120 867.656 L126.656 867.656 L126.656 861 L126.656 -250 L126.656 -256.656 L120 -256.656 L45 -256.656 L38.344 -256.656 L38.344 -250 L38.344 861 L38.344 861 Z M51.656 854.344 L51.656 -243.344 L113.344 -243.344 L113.344 854.344 L51.656 854.344 L51.656 854.344 Z " />
<glyph glyph-name="braceright" unicode="&#x7d;" horiz-adv-x="263" d="M23.344 811 L23.344 817.656 L30 817.656 L58 817.656 C106.02 817.656 144.656 773.501 144.656 721 L144.656 437 C144.656 406.093 172.433 382.656 207 382.656 L213.656 382.656 L213.656 376 L213.656 321 L213.656 314.344 L207 314.344 C172.433 314.344 144.656 290.907 144.656 259 L144.656 -25 C144.656 -77.5009 106.02 -121.656 58 -121.656 L30 -121.656 L23.344 -121.656 L23.344 -115 L23.344 -50 L23.344 -43.344 L30 -43.344 L54.848 -43.344 C54.8271 -42.9943 54.9101 -42.4116 55.0914 -41.4796 C55.895 -37.3466 56.344 -31.7342 56.344 -25 L56.344 -24.9877 L56.344 -24.9753 L57.344 245 L57.344 245.025 C57.354 285.089 81.376 327.998 115 348 C81.3846 367.997 57.3665 410.889 57.3442 450.944 L57.344 451 C57.3195 453.939 56.344 571.869 56.344 721 C56.344 727.734 55.895 733.347 55.0914 737.48 C54.9101 738.412 54.8271 738.994 54.848 739.344 L30 739.344 L23.344 739.344 L23.344 746 L23.344 811 L23.344 811 Z M36.656 804.344 L36.656 752.656 L58 752.656 C63.7859 752.656 67.1339 745.29 68.1586 740.02 C69.105 735.153 69.656 728.266 69.656 721 C69.656 570.028 70.6558 451.056 70.6558 451.056 L70.656 451.028 L70.656 451 C70.656 409.902 96.4895 368.384 132.444 354.191 L148.128 348 L132.444 341.809 C96.4895 327.616 70.656 286.098 70.656 245 L70.656 244.988 L70.656 244.975 L69.656 -25 L69.656 -25.0247 C69.6547 -32.2812 69.1039 -39.1591 68.1586 -44.0204 C67.1339 -49.2903 63.7859 -56.656 58 -56.656 L36.656 -56.656 L36.656 -108.344 L58 -108.344 C99.9797 -108.344 131.344 -72.4991 131.344 -25 L131.344 259 C131.344 294.938 163.584 324.174 200.344 327.367 L200.344 369.633 C163.584 372.823 131.344 402.006 131.344 437 L131.344 721 C131.344 768.499 99.9797 804.344 58 804.344 L36.656 804.344 L36.656 804.344 Z " />
<glyph glyph-name="[namenotfound]" unicode="&#xa0;" horiz-adv-x="88" d="" />
<glyph glyph-name="exclamdown" unicode="&#xa1;" horiz-adv-x="225" d="M175 587.656 L181.656 587.656 L181.656 581 L181.656 456 L181.656 449.344 L175 449.344 L50 449.344 L43.344 449.344 L43.344 456 L43.344 581 L43.344 587.656 L50 587.656 L175 587.656 L175 587.656 Z M168.344 574.344 L56.656 574.344 L56.656 462.656 L168.344 462.656 L168.344 574.344 L168.344 574.344 Z M186.656 -230 L186.656 -236.656 L180 -236.656 L45 -236.656 L38.344 -236.656 L38.344 -230 L38.344 105 L38.344 105.62 L38.4586 106.23 L88.4586 372.23 L89.4786 377.656 L95 377.656 L130 377.656 L135.521 377.656 L136.541 372.23 L186.541 106.23 L186.656 105.62 L186.656 105 L186.656 -230 L186.656 -230 Z M173.344 -223.344 L173.344 104.38 L124.479 364.344 L100.521 364.344 L51.656 104.38 L51.656 -223.344 L173.344 -223.344 L173.344 -223.344 Z " />
<glyph glyph-name="cent" unicode="&#xa2;" horiz-adv-x="417" d="M209.344 656 L209.344 662.656 L216 662.656 L291 662.656 L297.656 662.656 L297.656 656 L297.656 587.285 C346.59 563.768 380.691 500.287 393.542 427.227 C402.951 380.02 382.094 338.344 347 338.344 C328.418 338.344 311.018 346.563 297.656 359.497 L297.656 71.185 C314.951 90.4462 325.344 120.234 325.344 156 L325.344 166.77 L334.977 161.953 L390.977 133.953 L394.656 132.114 L394.656 128 C394.656 64.5089 353.319 9.33975 297.656 -9.839 L297.656 -75 L297.656 -81.656 L291 -81.656 L216 -81.656 L209.344 -81.656 L209.344 -75 L209.344 -11.256 C114.359 12.9942 43.344 121.059 43.344 291 C43.344 459.958 114.359 568.006 209.344 592.256 L209.344 656 L209.344 656 Z M222.656 649.344 L222.656 587 L222.656 581.655 L217.437 580.501 C125.027 560.074 56.656 458.961 56.656 291 C56.656 122.039 125.027 20.9264 217.437 0.499107 L222.656 -0.654646 L222.656 -6 L222.656 -68.344 L284.344 -68.344 L284.344 -5 L284.344 -0.0646355 L289.067 1.369 C341.82 17.3833 379.611 65.0604 381.286 123.915 L338.339 145.389 C335.884 104.467 319.338 69.1771 295.027 50.7007 L284.344 42.5813 L284.344 56 L284.344 378 L284.344 400.453 L296.581 381.627 C308.811 362.811 325.973 351.656 347 351.656 C373.886 351.656 389.025 381.934 380.473 424.695 L380.458 424.771 L380.444 424.848 C367.635 497.764 335.268 556.787 288.378 576.882 L284.344 578.611 L284.344 583 L284.344 649.344 L222.656 649.344 L222.656 649.344 Z M209.344 95.589 L209.344 488.227 C192.656 446.986 181.656 379.991 181.656 291 C181.656 202.018 192.651 136.346 209.344 95.589 L209.344 95.589 Z M222.656 68 L222.656 45.5077 L210.416 64.3779 C185.765 102.381 168.344 180.265 168.344 291 C168.344 401.717 185.755 481.604 210.416 519.622 L222.656 538.492 L222.656 516 L222.656 68 L222.656 68 Z M284.344 516 L284.344 537.983 L296.538 519.692 C300.538 513.692 304.877 507.184 308.118 499.622 L309.673 495.993 L307.234 492.888 L296.234 478.888 L284.344 463.755 L284.344 483 L284.344 516 L284.344 516 Z " />
<glyph glyph-name="guillemotleft" unicode="&#xab;" horiz-adv-x="397" d="M232.251 518.344 L177.843 290.997 L232.256 62.656 L318.572 62.656 L264.525 289.457 L264.157 291.003 L264.527 292.549 L318.563 518.344 L232.251 518.344 L232.251 518.344 Z M119.527 526.549 L120.749 531.656 L126 531.656 L221.749 531.656 L226 531.656 L227 531.656 L234.437 531.656 L327 531.656 L335.437 531.656 L333.473 523.451 L277.843 290.997 L333.475 57.5429 L335.428 49.344 L327 49.344 L234.428 49.344 L227 49.344 L226 49.344 L221.744 49.344 L126 49.344 L120.744 49.344 L119.525 54.4571 L63.5253 289.457 L63.1568 291.003 L63.5268 292.549 L119.527 526.549 L119.527 526.549 Z M131.251 518.344 L76.843 290.997 L131.256 62.656 L217.572 62.656 L163.525 289.457 L163.157 291.003 L163.527 292.549 L217.563 518.344 L131.251 518.344 L131.251 518.344 Z " />
<glyph glyph-name="logicalnot" unicode="&#xac;" horiz-adv-x="342" d="M299.656 109 L299.656 102.344 L293 102.344 L230 102.344 L223.344 102.344 L223.344 109 L223.344 252.344 L50 252.344 L43.344 252.344 L43.344 259 L43.344 310 L43.344 316.656 L50 316.656 L230 316.656 L293 316.656 L299.656 316.656 L299.656 310 L299.656 259 L299.656 109 L299.656 109 Z M286.344 115.656 L286.344 259 L286.344 303.344 L230 303.344 L56.656 303.344 L56.656 265.656 L230 265.656 L236.656 265.656 L236.656 259 L236.656 115.656 L286.344 115.656 L286.344 115.656 Z " />
<glyph glyph-name="periodcentered" unicode="&#xb7;" horiz-adv-x="225" d="M50 221.344 L43.344 221.344 L43.344 228 L43.344 353 L43.344 359.656 L50 359.656 L175 359.656 L181.656 359.656 L181.656 353 L181.656 228 L181.656 221.344 L175 221.344 L50 221.344 L50 221.344 Z M56.656 234.656 L168.344 234.656 L168.344 346.344 L56.656 346.344 L56.656 234.656 L56.656 234.656 Z " />
<glyph glyph-name="guillemotright" unicode="&#xbb;" horiz-adv-x="379" d="M161.437 518.344 L215.473 292.549 L215.843 291.003 L215.475 289.457 L161.428 62.656 L247.744 62.656 L302.157 290.997 L247.749 518.344 L161.437 518.344 L161.437 518.344 Z M45.5268 523.451 L43.5632 531.656 L52 531.656 L144.563 531.656 L152 531.656 L153 531.656 L157.251 531.656 L253 531.656 L258.251 531.656 L259.473 526.549 L315.473 292.549 L315.843 291.003 L315.475 289.457 L259.475 54.4571 L258.256 49.344 L253 49.344 L157.256 49.344 L153 49.344 L152 49.344 L144.572 49.344 L52 49.344 L43.5715 49.344 L45.5253 57.5429 L101.157 290.997 L45.5268 523.451 L45.5268 523.451 Z M60.437 518.344 L114.473 292.549 L114.843 291.003 L114.475 289.457 L60.428 62.656 L146.744 62.656 L201.157 290.997 L146.749 518.344 L60.437 518.344 L60.437 518.344 Z " />
<glyph glyph-name="questiondown" unicode="&#xbf;" horiz-adv-x="430" d="M288 587.656 L294.656 587.656 L294.656 581 L294.656 456 L294.656 449.344 L288 449.344 L163 449.344 L156.344 449.344 L156.344 456 L156.344 581 L156.344 587.656 L163 587.656 L288 587.656 L288 587.656 Z M281.344 574.344 L169.656 574.344 L169.656 462.656 L281.344 462.656 L281.344 574.344 L281.344 574.344 Z M416.133 -17.4411 L422.139 -18.4786 L421.633 -24.5528 C411.444 -146.82 319.928 -246.656 218 -246.656 C113.891 -246.656 28.344 -144.417 28.344 -20 C28.344 63.6719 64.8708 130.493 135.073 180.375 C156.933 196.842 164.344 237.735 164.344 371 L164.344 377.656 L171 377.656 L281 377.656 L287.656 377.656 L287.656 371 C287.656 193.259 272.913 130.046 222.869 94.5838 L222.847 94.5685 C182.095 65.4517 161.656 28.2817 161.656 -20 C161.656 -90.4774 187.178 -143.344 218 -143.344 C255.231 -143.344 291.503 -82.8913 298.369 -4.41982 L299 2.79088 L306.133 1.55888 L416.133 -17.4411 L416.133 -17.4411 Z M407.794 -29.51 L310.908 -12.775 C302.028 -91.1583 261.446 -156.656 218 -156.656 C178.822 -156.656 148.344 -93.5226 148.344 -20 C148.344 31.7096 171.898 74.5354 215.131 105.416 L215.142 105.424 L215.153 105.431 C260.509 137.559 274.003 193.328 274.338 364.344 L177.649 364.344 C177.366 234.836 168.647 188.915 142.994 169.675 L142.924 169.623 L142.854 169.573 C75.104 121.461 41.656 60.2989 41.656 -20 C41.656 -139.583 120.109 -233.344 218 -233.344 C312.417 -233.344 395.641 -144.329 407.794 -29.51 L407.794 -29.51 Z " />
<glyph glyph-name="Agrave" unicode="&#xc0;" horiz-adv-x="649" d="M283 884.344 L278.263 884.344 L276.711 888.82 L224.711 1038.82 L221.648 1047.66 L231 1047.66 L381 1047.66 L387.353 1047.66 L387.649 1041.31 L394.649 891.31 L394.974 884.344 L388 884.344 L283 884.344 L283 884.344 Z M287.737 897.656 L381.026 897.656 L374.647 1034.34 L240.352 1034.34 L287.737 897.656 L287.737 897.656 Z M192.478 275.656 L414.256 275.656 L302.075 681.733 L192.478 275.656 L192.478 275.656 Z M612.018 69.195 L656.074 17.308 L657.656 15.4445 L657.656 13 L657.656 0 L657.656 -6.656 L651 -6.656 L624 -6.656 L561 -6.656 L497 -6.656 L467 -6.656 L460.344 -6.656 L460.344 0 L460.344 13 L460.344 13.7441 L460.508 14.4698 L472.139 65.837 L432.937 207.344 L174.041 207.344 L135.856 65.86 L147.492 14.4698 L147.656 13.7441 L147.656 13 L147.656 0 L147.656 -6.656 L141 -6.656 L111 -6.656 L76 -6.656 L42 -6.656 L15 -6.656 L8.344 -6.656 L8.344 0 L8.344 13 L8.344 15.4445 L9.92617 17.308 L53.967 69.179 L238.142 745.149 L226.508 796.53 L226.344 797.256 L226.344 798 L226.344 810.5 L226.344 817.046 L232.889 817.155 L262.889 817.655 L262.945 817.656 L263 817.656 L273 817.656 L297 817.656 L330 817.656 L398 817.656 L403.052 817.656 L404.411 812.79 L612.018 69.195 L612.018 69.195 Z M600.926 61.692 L599.982 62.8045 L599.589 64.2101 L392.948 804.344 L330 804.344 L297 804.344 L273 804.344 L263.055 804.344 L239.656 803.954 L239.656 798.744 L251.492 746.47 L251.858 744.851 L251.422 743.25 L66.4219 64.2503 L66.0325 62.8212 L65.0738 61.692 L21.656 10.555 L21.656 6.656 L42 6.656 L76 6.656 L111 6.656 L134.344 6.656 L134.344 12.256 L122.508 64.5302 L122.144 66.1404 L122.574 67.7343 L295.574 708.734 L301.925 732.267 L308.416 708.772 L429.416 270.772 L431.744 262.344 L423 262.344 L189.084 262.344 L177.714 220.656 L438 220.656 L443.063 220.656 L444.414 215.777 L485.414 67.777 L485.861 66.1633 L485.492 64.5302 L473.656 12.256 L473.656 6.656 L497 6.656 L561 6.656 L624 6.656 L644.344 6.656 L644.344 10.555 L600.926 61.692 L600.926 61.692 Z " />
<glyph glyph-name="Aacute" unicode="&#xc1;" horiz-adv-x="649" d="M283 884.344 L275.98 884.344 L276.353 891.354 L284.353 1041.35 L284.69 1047.66 L291 1047.66 L441 1047.66 L450.411 1047.66 L447.276 1038.78 L394.276 888.783 L392.707 884.344 L388 884.344 L283 884.344 L283 884.344 Z M290.02 897.656 L383.293 897.656 L431.589 1034.34 L297.31 1034.34 L290.02 897.656 L290.02 897.656 Z M192.478 275.656 L414.256 275.656 L302.075 681.733 L192.478 275.656 L192.478 275.656 Z M612.018 69.195 L656.074 17.308 L657.656 15.4445 L657.656 13 L657.656 0 L657.656 -6.656 L651 -6.656 L624 -6.656 L561 -6.656 L497 -6.656 L467 -6.656 L460.344 -6.656 L460.344 0 L460.344 13 L460.344 13.7441 L460.508 14.4698 L472.139 65.837 L432.937 207.344 L174.041 207.344 L135.856 65.86 L147.492 14.4698 L147.656 13.7441 L147.656 13 L147.656 0 L147.656 -6.656 L141 -6.656 L111 -6.656 L76 -6.656 L42 -6.656 L15 -6.656 L8.344 -6.656 L8.344 0 L8.344 13 L8.344 15.4445 L9.92617 17.308 L53.967 69.179 L238.142 745.149 L226.508 796.53 L226.344 797.256 L226.344 798 L226.344 810.5 L226.344 817.046 L232.889 817.155 L262.889 817.655 L262.945 817.656 L263 817.656 L273 817.656 L297 817.656 L330 817.656 L398 817.656 L403.052 817.656 L404.411 812.79 L612.018 69.195 L612.018 69.195 Z M600.926 61.692 L599.982 62.8045 L599.589 64.2101 L392.948 804.344 L330 804.344 L297 804.344 L273 804.344 L263.055 804.344 L239.656 803.954 L239.656 798.744 L251.492 746.47 L251.858 744.851 L251.422 743.25 L66.4219 64.2503 L66.0325 62.8212 L65.0738 61.692 L21.656 10.555 L21.656 6.656 L42 6.656 L76 6.656 L111 6.656 L134.344 6.656 L134.344 12.256 L122.508 64.5302 L122.144 66.1404 L122.574 67.7343 L295.574 708.734 L301.925 732.267 L308.416 708.772 L429.416 270.772 L431.744 262.344 L423 262.344 L189.084 262.344 L177.714 220.656 L438 220.656 L443.063 220.656 L444.414 215.777 L485.414 67.777 L485.861 66.1633 L485.492 64.5302 L473.656 12.256 L473.656 6.656 L497 6.656 L561 6.656 L624 6.656 L644.344 6.656 L644.344 10.555 L600.926 61.692 L600.926 61.692 Z " />
<glyph glyph-name="Acircumflex" unicode="&#xc2;" horiz-adv-x="649" d="M336 934.26 L316.107 888.354 L314.37 884.344 L310 884.344 L205 884.344 L194.358 884.344 L199.015 893.913 L272.015 1043.91 L273.837 1047.66 L278 1047.66 L394 1047.66 L398.163 1047.66 L399.985 1043.91 L472.985 893.913 L477.642 884.344 L467 884.344 L362 884.344 L357.63 884.344 L355.893 888.354 L336 934.26 L336 934.26 Z M329.893 953.646 L336 967.74 L342.107 953.646 L366.37 897.656 L456.358 897.656 L389.837 1034.34 L282.163 1034.34 L215.642 897.656 L305.63 897.656 L329.893 953.646 L329.893 953.646 Z M192.478 275.656 L414.256 275.656 L302.075 681.733 L192.478 275.656 L192.478 275.656 Z M612.018 69.195 L656.074 17.308 L657.656 15.4445 L657.656 13 L657.656 0 L657.656 -6.656 L651 -6.656 L624 -6.656 L561 -6.656 L497 -6.656 L467 -6.656 L460.344 -6.656 L460.344 0 L460.344 13 L460.344 13.7441 L460.508 14.4698 L472.139 65.837 L432.937 207.344 L174.041 207.344 L135.856 65.86 L147.492 14.4698 L147.656 13.7441 L147.656 13 L147.656 0 L147.656 -6.656 L141 -6.656 L111 -6.656 L76 -6.656 L42 -6.656 L15 -6.656 L8.344 -6.656 L8.344 0 L8.344 13 L8.344 15.4445 L9.92617 17.308 L53.967 69.179 L238.142 745.149 L226.508 796.53 L226.344 797.256 L226.344 798 L226.344 810.5 L226.344 817.046 L232.889 817.155 L262.889 817.655 L262.945 817.656 L263 817.656 L273 817.656 L297 817.656 L330 817.656 L398 817.656 L403.052 817.656 L404.411 812.79 L612.018 69.195 L612.018 69.195 Z M600.926 61.692 L599.982 62.8045 L599.589 64.2101 L392.948 804.344 L330 804.344 L297 804.344 L273 804.344 L263.055 804.344 L239.656 803.954 L239.656 798.744 L251.492 746.47 L251.858 744.851 L251.422 743.25 L66.4219 64.2503 L66.0325 62.8212 L65.0738 61.692 L21.656 10.555 L21.656 6.656 L42 6.656 L76 6.656 L111 6.656 L134.344 6.656 L134.344 12.256 L122.508 64.5302 L122.144 66.1404 L122.574 67.7343 L295.574 708.734 L301.925 732.267 L308.416 708.772 L429.416 270.772 L431.744 262.344 L423 262.344 L189.084 262.344 L177.714 220.656 L438 220.656 L443.063 220.656 L444.414 215.777 L485.414 67.777 L485.861 66.1633 L485.492 64.5302 L473.656 12.256 L473.656 6.656 L497 6.656 L561 6.656 L624 6.656 L644.344 6.656 L644.344 10.555 L600.926 61.692 L600.926 61.692 Z " />
<glyph glyph-name="Atilde" unicode="&#xc3;" horiz-adv-x="649" d="M310.656 891 L310.656 884.344 L304 884.344 L219 884.344 L212.344 884.344 L212.344 891 C212.344 981.746 255.11 1057.66 309 1057.66 C328.964 1057.66 341.236 1050.89 346.228 1041.67 C351.253 1032.39 350.102 1020.11 348.306 1009.85 C346.512 999.598 344.185 990.517 344.867 984.217 C345.462 978.725 346.358 977.656 355 977.656 C354.074 977.656 355.339 980.674 357.584 992.606 C359.897 1004.9 361.344 1021.78 361.344 1041 L361.344 1047.66 L368 1047.66 L453 1047.66 L459.656 1047.66 L459.656 1041 C459.656 950.254 416.89 874.344 363 874.344 C343.046 874.344 330.732 881.091 325.657 890.283 C320.542 899.549 321.578 911.835 323.312 922.108 C325.044 932.373 327.353 941.494 326.707 947.824 C326.143 953.346 325.332 954.344 317 954.344 C317.926 954.344 316.661 951.326 314.416 939.394 C312.103 927.098 310.656 910.215 310.656 891 L310.656 891 Z M297.403 897.656 C297.707 914.824 299.173 930.37 301.334 941.856 C303.839 955.174 309.074 967.656 317 967.656 C331.668 967.656 338.982 958.654 339.95 949.176 C340.835 940.506 338.081 929.627 336.438 919.892 C334.797 910.165 334.146 902.451 337.311 896.717 C340.518 890.909 346.454 887.656 363 887.656 C407.93 887.656 444.432 950.407 446.271 1034.34 L374.597 1034.34 C374.293 1017.18 372.827 1001.63 370.666 990.144 C368.161 976.826 362.926 964.344 355 964.344 C340.142 964.344 332.663 973.275 331.633 982.783 C330.69 991.483 333.488 1002.4 335.194 1012.15 C336.898 1021.89 337.622 1029.61 334.522 1035.33 C331.389 1041.11 325.536 1044.34 309 1044.34 C264.07 1044.34 227.568 981.593 225.729 897.656 L297.403 897.656 L297.403 897.656 Z M192.478 275.656 L414.256 275.656 L302.075 681.733 L192.478 275.656 L192.478 275.656 Z M612.018 69.195 L656.074 17.308 L657.656 15.4445 L657.656 13 L657.656 0 L657.656 -6.656 L651 -6.656 L624 -6.656 L561 -6.656 L497 -6.656 L467 -6.656 L460.344 -6.656 L460.344 0 L460.344 13 L460.344 13.7441 L460.508 14.4698 L472.139 65.837 L432.937 207.344 L174.041 207.344 L135.856 65.86 L147.492 14.4698 L147.656 13.7441 L147.656 13 L147.656 0 L147.656 -6.656 L141 -6.656 L111 -6.656 L76 -6.656 L42 -6.656 L15 -6.656 L8.344 -6.656 L8.344 0 L8.344 13 L8.344 15.4445 L9.92617 17.308 L53.967 69.179 L238.142 745.149 L226.508 796.53 L226.344 797.256 L226.344 798 L226.344 810.5 L226.344 817.046 L232.889 817.155 L262.889 817.655 L262.945 817.656 L263 817.656 L273 817.656 L297 817.656 L330 817.656 L398 817.656 L403.052 817.656 L404.411 812.79 L612.018 69.195 L612.018 69.195 Z M600.926 61.692 L599.982 62.8045 L599.589 64.2101 L392.948 804.344 L330 804.344 L297 804.344 L273 804.344 L263.055 804.344 L239.656 803.954 L239.656 798.744 L251.492 746.47 L251.858 744.851 L251.422 743.25 L66.4219 64.2503 L66.0325 62.8212 L65.0738 61.692 L21.656 10.555 L21.656 6.656 L42 6.656 L76 6.656 L111 6.656 L134.344 6.656 L134.344 12.256 L122.508 64.5302 L122.144 66.1404 L122.574 67.7343 L295.574 708.734 L301.925 732.267 L308.416 708.772 L429.416 270.772 L431.744 262.344 L423 262.344 L189.084 262.344 L177.714 220.656 L438 220.656 L443.063 220.656 L444.414 215.777 L485.414 67.777 L485.861 66.1633 L485.492 64.5302 L473.656 12.256 L473.656 6.656 L497 6.656 L561 6.656 L624 6.656 L644.344 6.656 L644.344 10.555 L600.926 61.692 L600.926 61.692 Z " />
<glyph glyph-name="Adieresis" unicode="&#xc4;" horiz-adv-x="649" d="M348.656 897.656 L460.344 897.656 L460.344 1009.34 L348.656 1009.34 L348.656 897.656 L348.656 897.656 Z M205 884.344 L198.344 884.344 L198.344 891 L198.344 1016 L198.344 1022.66 L205 1022.66 L330 1022.66 L335.344 1022.66 L336.656 1022.66 L342 1022.66 L467 1022.66 L473.656 1022.66 L473.656 1016 L473.656 891 L473.656 884.344 L467 884.344 L342 884.344 L336.656 884.344 L335.344 884.344 L330 884.344 L205 884.344 L205 884.344 Z M211.656 897.656 L323.344 897.656 L323.344 1009.34 L211.656 1009.34 L211.656 897.656 L211.656 897.656 Z M192.478 275.656 L414.256 275.656 L302.075 681.733 L192.478 275.656 L192.478 275.656 Z M612.018 69.195 L656.074 17.308 L657.656 15.4445 L657.656 13 L657.656 0 L657.656 -6.656 L651 -6.656 L624 -6.656 L561 -6.656 L497 -6.656 L467 -6.656 L460.344 -6.656 L460.344 0 L460.344 13 L460.344 13.7441 L460.508 14.4698 L472.139 65.837 L432.937 207.344 L174.041 207.344 L135.856 65.86 L147.492 14.4698 L147.656 13.7441 L147.656 13 L147.656 0 L147.656 -6.656 L141 -6.656 L111 -6.656 L76 -6.656 L42 -6.656 L15 -6.656 L8.344 -6.656 L8.344 0 L8.344 13 L8.344 15.4445 L9.92617 17.308 L53.967 69.179 L238.142 745.149 L226.508 796.53 L226.344 797.256 L226.344 798 L226.344 810.5 L226.344 817.046 L232.889 817.155 L262.889 817.655 L262.945 817.656 L263 817.656 L273 817.656 L297 817.656 L330 817.656 L398 817.656 L403.052 817.656 L404.411 812.79 L612.018 69.195 L612.018 69.195 Z M600.926 61.692 L599.982 62.8045 L599.589 64.2101 L392.948 804.344 L330 804.344 L297 804.344 L273 804.344 L263.055 804.344 L239.656 803.954 L239.656 798.744 L251.492 746.47 L251.858 744.851 L251.422 743.25 L66.4219 64.2503 L66.0325 62.8212 L65.0738 61.692 L21.656 10.555 L21.656 6.656 L42 6.656 L76 6.656 L111 6.656 L134.344 6.656 L134.344 12.256 L122.508 64.5302 L122.144 66.1404 L122.574 67.7343 L295.574 708.734 L301.925 732.267 L308.416 708.772 L429.416 270.772 L431.744 262.344 L423 262.344 L189.084 262.344 L177.714 220.656 L438 220.656 L443.063 220.656 L444.414 215.777 L485.414 67.777 L485.861 66.1633 L485.492 64.5302 L473.656 12.256 L473.656 6.656 L497 6.656 L561 6.656 L624 6.656 L644.344 6.656 L644.344 10.555 L600.926 61.692 L600.926 61.692 Z " />
<glyph glyph-name="Aring" unicode="&#xc5;" horiz-adv-x="649" d="M243.344 976 C243.344 1028.81 283.298 1067.66 336 1067.66 C388.702 1067.66 428.656 1028.81 428.656 976 C428.656 921.243 391.757 884.344 336 884.344 C280.243 884.344 243.344 921.243 243.344 976 L243.344 976 Z M256.656 976 C256.656 926.757 285.757 897.656 336 897.656 C386.243 897.656 415.344 926.757 415.344 976 C415.344 1023.19 383.298 1054.34 336 1054.34 C288.702 1054.34 256.656 1023.19 256.656 976 L256.656 976 Z M336 950.656 C351.072 950.656 358.344 958.589 358.344 976 C358.344 992.398 350.086 1001.34 336 1001.34 C321.914 1001.34 313.656 992.398 313.656 976 C313.656 958.589 320.928 950.656 336 950.656 L336 950.656 Z M336 937.344 C315.072 937.344 300.344 953.411 300.344 976 C300.344 997.602 316.086 1014.66 336 1014.66 C355.914 1014.66 371.656 997.602 371.656 976 C371.656 953.411 356.928 937.344 336 937.344 L336 937.344 Z M192.478 275.656 L414.256 275.656 L302.075 681.733 L192.478 275.656 L192.478 275.656 Z M612.018 69.195 L656.074 17.308 L657.656 15.4445 L657.656 13 L657.656 0 L657.656 -6.656 L651 -6.656 L624 -6.656 L561 -6.656 L497 -6.656 L467 -6.656 L460.344 -6.656 L460.344 0 L460.344 13 L460.344 13.7441 L460.508 14.4698 L472.139 65.837 L432.937 207.344 L174.041 207.344 L135.856 65.86 L147.492 14.4698 L147.656 13.7441 L147.656 13 L147.656 0 L147.656 -6.656 L141 -6.656 L111 -6.656 L76 -6.656 L42 -6.656 L15 -6.656 L8.344 -6.656 L8.344 0 L8.344 13 L8.344 15.4445 L9.92617 17.308 L53.967 69.179 L238.142 745.149 L226.508 796.53 L226.344 797.256 L226.344 798 L226.344 810.5 L226.344 817.046 L232.889 817.155 L262.889 817.655 L262.945 817.656 L263 817.656 L273 817.656 L297 817.656 L330 817.656 L398 817.656 L403.052 817.656 L404.411 812.79 L612.018 69.195 L612.018 69.195 Z M600.926 61.692 L599.982 62.8045 L599.589 64.2101 L392.948 804.344 L330 804.344 L297 804.344 L273 804.344 L263.055 804.344 L239.656 803.954 L239.656 798.744 L251.492 746.47 L251.858 744.851 L251.422 743.25 L66.4219 64.2503 L66.0325 62.8212 L65.0738 61.692 L21.656 10.555 L21.656 6.656 L42 6.656 L76 6.656 L111 6.656 L134.344 6.656 L134.344 12.256 L122.508 64.5302 L122.144 66.1404 L122.574 67.7343 L295.574 708.734 L301.925 732.267 L308.416 708.772 L429.416 270.772 L431.744 262.344 L423 262.344 L189.084 262.344 L177.714 220.656 L438 220.656 L443.063 220.656 L444.414 215.777 L485.414 67.777 L485.861 66.1633 L485.492 64.5302 L473.656 12.256 L473.656 6.656 L497 6.656 L561 6.656 L624 6.656 L644.344 6.656 L644.344 10.555 L600.926 61.692 L600.926 61.692 Z " />
<glyph glyph-name="Ccedilla" unicode="&#xc7;" horiz-adv-x="583" d="M259.908 -216.639 C255.724 -206.467 251.217 -194.734 246.735 -182.249 L245.12 -177.749 L248.869 -174.781 L272.869 -155.781 L280.027 -150.115 L282.235 -156.004 C282.306 -152.825 282.344 -149.482 282.344 -146 C282.344 -135.965 282.066 -126.845 281.659 -119.336 L280.665 -118.76 L261.665 -107.76 L257.211 -105.182 L258.586 -100.222 L284.866 -5.425 C147.421 39.935 45.344 223.998 45.344 406 C45.344 614.946 181.356 827.656 351 827.656 C409.129 827.656 463.445 808.684 502.288 779.041 L502.359 778.987 L502.428 778.931 C534.13 753.366 559.702 717.776 567.998 680.444 L568.12 679.894 L568.148 679.332 L569.648 649.332 L569.81 646.078 L567.34 643.954 L542.34 622.454 L542.291 622.412 L542.242 622.371 L516.242 600.871 L505.344 591.859 L505.344 606 C505.344 691.188 437.298 757.344 351 757.344 C265.497 757.344 195.656 583.712 195.656 406 C195.656 227.288 265.497 53.656 351 53.656 C437.298 53.656 505.344 119.812 505.344 205 L505.344 219.318 L516.29 210.089 L567.29 167.089 L569.656 165.094 L569.656 162 C569.656 63.8482 471.378 -16.656 351 -16.656 C339.951 -16.656 328.514 -15.918 317.748 -13.856 L304.325 -62.808 C336.455 -71.0389 360.656 -105.843 360.656 -146 C360.656 -206.033 326.541 -256.656 285 -256.656 C280.895 -256.656 276.931 -251.929 274.563 -247.953 C272.348 -244.234 269.621 -238.814 266.693 -232.384 C264.973 -228.607 263.14 -224.394 261.229 -219.825 L259.001 -217.999 L259.908 -216.639 L259.908 -216.639 Z M268.85 -203.226 L277.462 -190.308 C277.932 -189.603 277.05 -182.619 273.762 -172.053 L260.89 -182.243 C263.589 -189.643 266.265 -196.689 268.85 -203.226 L268.85 -203.226 Z M290.081 -73.987 L293.605 -102.174 C294.63 -110.379 295.656 -126.792 295.656 -146 C295.656 -170.332 293.387 -193.026 287.707 -198.707 L272.983 -213.43 C275.024 -218.343 276.979 -222.851 278.807 -226.866 C281.629 -233.061 284.027 -237.829 286 -241.141 C286.785 -242.46 287.099 -243.05 287.032 -243.296 C320.549 -241.706 347.344 -200.862 347.344 -146 C347.344 -107.237 325.398 -78.2681 295.199 -74.6076 L290.081 -73.987 L290.081 -73.987 Z M518.066 191.18 C510.83 106.814 438.003 40.344 351 40.344 C256.503 40.344 182.344 224.712 182.344 406 C182.344 586.288 256.503 770.656 351 770.656 C438.057 770.656 510.92 704.105 518.079 619.664 L533.709 632.588 L556.19 651.922 L554.881 678.098 C547.065 712.53 524.248 744.213 494.141 768.513 C456.991 796.838 406.835 814.344 351 814.344 C188.644 814.344 58.656 611.054 58.656 406 C58.656 224.744 159.479 45.6129 294.896 5.38036 L301.16 3.51923 L299.414 -2.77816 L272.789 -98.818 L280.045 -103.019 L280.625 -101.087 L288.801 -73.832 L287.541 -73.6794 L289.581 -66.2399 L306.581 -4.23993 L308.302 2.03545 L314.614 0.457268 C326.07 -2.40664 338.256 -3.344 351 -3.344 C465.332 -3.344 554.34 68.5217 556.311 158.934 L518.066 191.18 L518.066 191.18 Z " />
<glyph glyph-name="Egrave" unicode="&#xc8;" horiz-adv-x="535" d="M234 884.344 L229.293 884.344 L227.724 888.783 L174.724 1038.78 L171.589 1047.66 L181 1047.66 L331 1047.66 L337.31 1047.66 L337.647 1041.35 L345.647 891.354 L346.02 884.344 L339 884.344 L234 884.344 L234 884.344 Z M238.707 897.656 L331.98 897.656 L324.69 1034.34 L190.411 1034.34 L238.707 897.656 L238.707 897.656 Z M491.656 28 L491.656 0 L491.656 -6.656 L485 -6.656 L229.5 -6.656 L166 -6.656 L102 -6.656 L72 -6.656 L65.344 -6.656 L65.344 0 L65.344 13 L65.344 14.7531 L66.2076 16.2787 L95.344 67.753 L95.344 743.247 L66.2076 794.721 L65.344 796.247 L65.344 798 L65.344 811 L65.344 817.656 L72 817.656 L102 817.656 L166 817.656 L229.5 817.656 L470 817.656 L476.656 817.656 L476.656 811 L476.656 783 L476.656 754 L476.656 724 L476.656 717.344 L470 717.344 L457 717.344 L455.247 717.344 L453.721 718.208 L402.247 747.344 L236.656 747.344 L236.656 434.656 L382.247 434.656 L433.721 463.792 L435.247 464.656 L437 464.656 L450 464.656 L456.656 464.656 L456.656 458 L456.656 428 L456.656 401 L456.656 373 L456.656 343 L456.656 336.344 L450 336.344 L437 336.344 L435.247 336.344 L433.721 337.208 L382.247 366.344 L236.656 366.344 L236.656 63.656 L417.247 63.656 L468.721 92.7924 L470.247 93.656 L472 93.656 L485 93.656 L491.656 93.656 L491.656 87 L491.656 57 L491.656 28 L491.656 28 Z M478.344 28 L478.344 57 L478.344 80.344 L473.753 80.344 L422.279 51.2076 L420.753 50.344 L419 50.344 L230 50.344 L223.344 50.344 L223.344 57 L223.344 373 L223.344 379.656 L230 379.656 L384 379.656 L385.753 379.656 L387.279 378.792 L438.753 349.656 L443.344 349.656 L443.344 373 L443.344 401 L443.344 428 L443.344 451.344 L438.753 451.344 L387.279 422.208 L385.753 421.344 L384 421.344 L230 421.344 L223.344 421.344 L223.344 428 L223.344 754 L223.344 760.656 L230 760.656 L404 760.656 L405.753 760.656 L407.279 759.792 L458.753 730.656 L463.344 730.656 L463.344 754 L463.344 783 L463.344 804.344 L229.5 804.344 L166 804.344 L102 804.344 L78.656 804.344 L78.656 799.753 L107.792 748.279 L108.656 746.753 L108.656 745 L108.656 66 L108.656 64.2469 L107.792 62.7213 L78.656 11.247 L78.656 6.656 L102 6.656 L166 6.656 L229.5 6.656 L478.344 6.656 L478.344 28 L478.344 28 Z " />
<glyph glyph-name="Eacute" unicode="&#xc9;" horiz-adv-x="535" d="M234 884.344 L227.026 884.344 L227.351 891.31 L234.351 1041.31 L234.647 1047.66 L241 1047.66 L391 1047.66 L400.352 1047.66 L397.289 1038.82 L345.289 888.82 L343.737 884.344 L339 884.344 L234 884.344 L234 884.344 Z M240.974 897.656 L334.263 897.656 L381.648 1034.34 L247.353 1034.34 L240.974 897.656 L240.974 897.656 Z M491.656 28 L491.656 0 L491.656 -6.656 L485 -6.656 L229.5 -6.656 L166 -6.656 L102 -6.656 L72 -6.656 L65.344 -6.656 L65.344 0 L65.344 13 L65.344 14.7531 L66.2076 16.2787 L95.344 67.753 L95.344 743.247 L66.2076 794.721 L65.344 796.247 L65.344 798 L65.344 811 L65.344 817.656 L72 817.656 L102 817.656 L166 817.656 L229.5 817.656 L470 817.656 L476.656 817.656 L476.656 811 L476.656 783 L476.656 754 L476.656 724 L476.656 717.344 L470 717.344 L457 717.344 L455.247 717.344 L453.721 718.208 L402.247 747.344 L236.656 747.344 L236.656 434.656 L382.247 434.656 L433.721 463.792 L435.247 464.656 L437 464.656 L450 464.656 L456.656 464.656 L456.656 458 L456.656 428 L456.656 401 L456.656 373 L456.656 343 L456.656 336.344 L450 336.344 L437 336.344 L435.247 336.344 L433.721 337.208 L382.247 366.344 L236.656 366.344 L236.656 63.656 L417.247 63.656 L468.721 92.7924 L470.247 93.656 L472 93.656 L485 93.656 L491.656 93.656 L491.656 87 L491.656 57 L491.656 28 L491.656 28 Z M478.344 28 L478.344 57 L478.344 80.344 L473.753 80.344 L422.279 51.2076 L420.753 50.344 L419 50.344 L230 50.344 L223.344 50.344 L223.344 57 L223.344 373 L223.344 379.656 L230 379.656 L384 379.656 L385.753 379.656 L387.279 378.792 L438.753 349.656 L443.344 349.656 L443.344 373 L443.344 401 L443.344 428 L443.344 451.344 L438.753 451.344 L387.279 422.208 L385.753 421.344 L384 421.344 L230 421.344 L223.344 421.344 L223.344 428 L223.344 754 L223.344 760.656 L230 760.656 L404 760.656 L405.753 760.656 L407.279 759.792 L458.753 730.656 L463.344 730.656 L463.344 754 L463.344 783 L463.344 804.344 L229.5 804.344 L166 804.344 L102 804.344 L78.656 804.344 L78.656 799.753 L107.792 748.279 L108.656 746.753 L108.656 745 L108.656 66 L108.656 64.2469 L107.792 62.7213 L78.656 11.247 L78.656 6.656 L102 6.656 L166 6.656 L229.5 6.656 L478.344 6.656 L478.344 28 L478.344 28 Z " />
<glyph glyph-name="Ecircumflex" unicode="&#xca;" horiz-adv-x="535" d="M286 934.26 L266.107 888.354 L264.37 884.344 L260 884.344 L155 884.344 L144.358 884.344 L149.015 893.913 L222.015 1043.91 L223.837 1047.66 L228 1047.66 L344 1047.66 L348.163 1047.66 L349.985 1043.91 L422.985 893.913 L427.642 884.344 L417 884.344 L312 884.344 L307.63 884.344 L305.893 888.354 L286 934.26 L286 934.26 Z M279.893 953.646 L286 967.74 L292.107 953.646 L316.37 897.656 L406.358 897.656 L339.837 1034.34 L232.163 1034.34 L165.642 897.656 L255.63 897.656 L279.893 953.646 L279.893 953.646 Z M491.656 28 L491.656 0 L491.656 -6.656 L485 -6.656 L229.5 -6.656 L166 -6.656 L102 -6.656 L72 -6.656 L65.344 -6.656 L65.344 0 L65.344 13 L65.344 14.7531 L66.2076 16.2787 L95.344 67.753 L95.344 743.247 L66.2076 794.721 L65.344 796.247 L65.344 798 L65.344 811 L65.344 817.656 L72 817.656 L102 817.656 L166 817.656 L229.5 817.656 L470 817.656 L476.656 817.656 L476.656 811 L476.656 783 L476.656 754 L476.656 724 L476.656 717.344 L470 717.344 L457 717.344 L455.247 717.344 L453.721 718.208 L402.247 747.344 L236.656 747.344 L236.656 434.656 L382.247 434.656 L433.721 463.792 L435.247 464.656 L437 464.656 L450 464.656 L456.656 464.656 L456.656 458 L456.656 428 L456.656 401 L456.656 373 L456.656 343 L456.656 336.344 L450 336.344 L437 336.344 L435.247 336.344 L433.721 337.208 L382.247 366.344 L236.656 366.344 L236.656 63.656 L417.247 63.656 L468.721 92.7924 L470.247 93.656 L472 93.656 L485 93.656 L491.656 93.656 L491.656 87 L491.656 57 L491.656 28 L491.656 28 Z M478.344 28 L478.344 57 L478.344 80.344 L473.753 80.344 L422.279 51.2076 L420.753 50.344 L419 50.344 L230 50.344 L223.344 50.344 L223.344 57 L223.344 373 L223.344 379.656 L230 379.656 L384 379.656 L385.753 379.656 L387.279 378.792 L438.753 349.656 L443.344 349.656 L443.344 373 L443.344 401 L443.344 428 L443.344 451.344 L438.753 451.344 L387.279 422.208 L385.753 421.344 L384 421.344 L230 421.344 L223.344 421.344 L223.344 428 L223.344 754 L223.344 760.656 L230 760.656 L404 760.656 L405.753 760.656 L407.279 759.792 L458.753 730.656 L463.344 730.656 L463.344 754 L463.344 783 L463.344 804.344 L229.5 804.344 L166 804.344 L102 804.344 L78.656 804.344 L78.656 799.753 L107.792 748.279 L108.656 746.753 L108.656 745 L108.656 66 L108.656 64.2469 L107.792 62.7213 L78.656 11.247 L78.656 6.656 L102 6.656 L166 6.656 L229.5 6.656 L478.344 6.656 L478.344 28 L478.344 28 Z " />
<glyph glyph-name="Edieresis" unicode="&#xcb;" horiz-adv-x="535" d="M298.656 897.656 L410.344 897.656 L410.344 1009.34 L298.656 1009.34 L298.656 897.656 L298.656 897.656 Z M155 884.344 L148.344 884.344 L148.344 891 L148.344 1016 L148.344 1022.66 L155 1022.66 L280 1022.66 L285.344 1022.66 L286.656 1022.66 L292 1022.66 L417 1022.66 L423.656 1022.66 L423.656 1016 L423.656 891 L423.656 884.344 L417 884.344 L292 884.344 L286.656 884.344 L285.344 884.344 L280 884.344 L155 884.344 L155 884.344 Z M161.656 897.656 L273.344 897.656 L273.344 1009.34 L161.656 1009.34 L161.656 897.656 L161.656 897.656 Z M491.656 28 L491.656 0 L491.656 -6.656 L485 -6.656 L229.5 -6.656 L166 -6.656 L102 -6.656 L72 -6.656 L65.344 -6.656 L65.344 0 L65.344 13 L65.344 14.7531 L66.2076 16.2787 L95.344 67.753 L95.344 743.247 L66.2076 794.721 L65.344 796.247 L65.344 798 L65.344 811 L65.344 817.656 L72 817.656 L102 817.656 L166 817.656 L229.5 817.656 L470 817.656 L476.656 817.656 L476.656 811 L476.656 783 L476.656 754 L476.656 724 L476.656 717.344 L470 717.344 L457 717.344 L455.247 717.344 L453.721 718.208 L402.247 747.344 L236.656 747.344 L236.656 434.656 L382.247 434.656 L433.721 463.792 L435.247 464.656 L437 464.656 L450 464.656 L456.656 464.656 L456.656 458 L456.656 428 L456.656 401 L456.656 373 L456.656 343 L456.656 336.344 L450 336.344 L437 336.344 L435.247 336.344 L433.721 337.208 L382.247 366.344 L236.656 366.344 L236.656 63.656 L417.247 63.656 L468.721 92.7924 L470.247 93.656 L472 93.656 L485 93.656 L491.656 93.656 L491.656 87 L491.656 57 L491.656 28 L491.656 28 Z M478.344 28 L478.344 57 L478.344 80.344 L473.753 80.344 L422.279 51.2076 L420.753 50.344 L419 50.344 L230 50.344 L223.344 50.344 L223.344 57 L223.344 373 L223.344 379.656 L230 379.656 L384 379.656 L385.753 379.656 L387.279 378.792 L438.753 349.656 L443.344 349.656 L443.344 373 L443.344 401 L443.344 428 L443.344 451.344 L438.753 451.344 L387.279 422.208 L385.753 421.344 L384 421.344 L230 421.344 L223.344 421.344 L223.344 428 L223.344 754 L223.344 760.656 L230 760.656 L404 760.656 L405.753 760.656 L407.279 759.792 L458.753 730.656 L463.344 730.656 L463.344 754 L463.344 783 L463.344 804.344 L229.5 804.344 L166 804.344 L102 804.344 L78.656 804.344 L78.656 799.753 L107.792 748.279 L108.656 746.753 L108.656 745 L108.656 66 L108.656 64.2469 L107.792 62.7213 L78.656 11.247 L78.656 6.656 L102 6.656 L166 6.656 L229.5 6.656 L478.344 6.656 L478.344 28 L478.344 28 Z " />
<glyph glyph-name="Igrave" unicode="&#xcc;" horiz-adv-x="331" d="M114 884.344 L109.263 884.344 L107.711 888.82 L55.7112 1038.82 L52.648 1047.66 L62 1047.66 L212 1047.66 L218.353 1047.66 L218.649 1041.31 L225.649 891.31 L225.974 884.344 L219 884.344 L114 884.344 L114 884.344 Z M118.737 897.656 L212.026 897.656 L205.647 1034.34 L71.352 1034.34 L118.737 897.656 L118.737 897.656 Z M167 -6.656 L103 -6.656 L73 -6.656 L66.344 -6.656 L66.344 0 L66.344 13 L66.344 14.7531 L67.2076 16.2787 L96.344 67.753 L96.344 743.247 L67.2076 794.721 L66.344 796.247 L66.344 798 L66.344 811 L66.344 817.656 L73 817.656 L103 817.656 L167 817.656 L231 817.656 L261 817.656 L267.656 817.656 L267.656 811 L267.656 798 L267.656 796.247 L266.792 794.721 L237.656 743.247 L237.656 67.753 L266.792 16.2787 L267.656 14.7531 L267.656 13 L267.656 0 L267.656 -6.656 L261 -6.656 L231 -6.656 L167 -6.656 L167 -6.656 Z M167 6.656 L231 6.656 L254.344 6.656 L254.344 11.247 L225.208 62.7213 L224.344 64.2469 L224.344 66 L224.344 745 L224.344 746.753 L225.208 748.279 L254.344 799.753 L254.344 804.344 L231 804.344 L167 804.344 L103 804.344 L79.656 804.344 L79.656 799.753 L108.792 748.279 L109.656 746.753 L109.656 745 L109.656 66 L109.656 64.2469 L108.792 62.7213 L79.656 11.247 L79.656 6.656 L103 6.656 L167 6.656 L167 6.656 Z " />
<glyph glyph-name="Iacute" unicode="&#xcd;" horiz-adv-x="331" d="M114 884.344 L106.98 884.344 L107.353 891.354 L115.353 1041.35 L115.69 1047.66 L122 1047.66 L272 1047.66 L281.411 1047.66 L278.276 1038.78 L225.276 888.783 L223.707 884.344 L219 884.344 L114 884.344 L114 884.344 Z M121.02 897.656 L214.293 897.656 L262.589 1034.34 L128.31 1034.34 L121.02 897.656 L121.02 897.656 Z M167 -6.656 L103 -6.656 L73 -6.656 L66.344 -6.656 L66.344 0 L66.344 13 L66.344 14.7531 L67.2076 16.2787 L96.344 67.753 L96.344 743.247 L67.2076 794.721 L66.344 796.247 L66.344 798 L66.344 811 L66.344 817.656 L73 817.656 L103 817.656 L167 817.656 L231 817.656 L261 817.656 L267.656 817.656 L267.656 811 L267.656 798 L267.656 796.247 L266.792 794.721 L237.656 743.247 L237.656 67.753 L266.792 16.2787 L267.656 14.7531 L267.656 13 L267.656 0 L267.656 -6.656 L261 -6.656 L231 -6.656 L167 -6.656 L167 -6.656 Z M167 6.656 L231 6.656 L254.344 6.656 L254.344 11.247 L225.208 62.7213 L224.344 64.2469 L224.344 66 L224.344 745 L224.344 746.753 L225.208 748.279 L254.344 799.753 L254.344 804.344 L231 804.344 L167 804.344 L103 804.344 L79.656 804.344 L79.656 799.753 L108.792 748.279 L109.656 746.753 L109.656 745 L109.656 66 L109.656 64.2469 L108.792 62.7213 L79.656 11.247 L79.656 6.656 L103 6.656 L167 6.656 L167 6.656 Z " />
<glyph glyph-name="Icircumflex" unicode="&#xce;" horiz-adv-x="331" d="M167 934.26 L147.107 888.354 L145.37 884.344 L141 884.344 L36 884.344 L25.3584 884.344 L30.0151 893.913 L103.015 1043.91 L104.837 1047.66 L109 1047.66 L225 1047.66 L229.163 1047.66 L230.985 1043.91 L303.985 893.913 L308.642 884.344 L298 884.344 L193 884.344 L188.63 884.344 L186.893 888.354 L167 934.26 L167 934.26 Z M160.893 953.646 L167 967.74 L173.107 953.646 L197.37 897.656 L287.358 897.656 L220.837 1034.34 L113.163 1034.34 L46.642 897.656 L136.63 897.656 L160.893 953.646 L160.893 953.646 Z M167 -6.656 L103 -6.656 L73 -6.656 L66.344 -6.656 L66.344 0 L66.344 13 L66.344 14.7531 L67.2076 16.2787 L96.344 67.753 L96.344 743.247 L67.2076 794.721 L66.344 796.247 L66.344 798 L66.344 811 L66.344 817.656 L73 817.656 L103 817.656 L167 817.656 L231 817.656 L261 817.656 L267.656 817.656 L267.656 811 L267.656 798 L267.656 796.247 L266.792 794.721 L237.656 743.247 L237.656 67.753 L266.792 16.2787 L267.656 14.7531 L267.656 13 L267.656 0 L267.656 -6.656 L261 -6.656 L231 -6.656 L167 -6.656 L167 -6.656 Z M167 6.656 L231 6.656 L254.344 6.656 L254.344 11.247 L225.208 62.7213 L224.344 64.2469 L224.344 66 L224.344 745 L224.344 746.753 L225.208 748.279 L254.344 799.753 L254.344 804.344 L231 804.344 L167 804.344 L103 804.344 L79.656 804.344 L79.656 799.753 L108.792 748.279 L109.656 746.753 L109.656 745 L109.656 66 L109.656 64.2469 L108.792 62.7213 L79.656 11.247 L79.656 6.656 L103 6.656 L167 6.656 L167 6.656 Z " />
<glyph glyph-name="Idieresis" unicode="&#xcf;" horiz-adv-x="331" d="M179.656 897.656 L291.344 897.656 L291.344 1009.34 L179.656 1009.34 L179.656 897.656 L179.656 897.656 Z M36 884.344 L29.344 884.344 L29.344 891 L29.344 1016 L29.344 1022.66 L36 1022.66 L161 1022.66 L166.344 1022.66 L167.656 1022.66 L173 1022.66 L298 1022.66 L304.656 1022.66 L304.656 1016 L304.656 891 L304.656 884.344 L298 884.344 L173 884.344 L167.656 884.344 L166.344 884.344 L161 884.344 L36 884.344 L36 884.344 Z M42.656 897.656 L154.344 897.656 L154.344 1009.34 L42.656 1009.34 L42.656 897.656 L42.656 897.656 Z M167 -6.656 L103 -6.656 L73 -6.656 L66.344 -6.656 L66.344 0 L66.344 13 L66.344 14.7531 L67.2076 16.2787 L96.344 67.753 L96.344 743.247 L67.2076 794.721 L66.344 796.247 L66.344 798 L66.344 811 L66.344 817.656 L73 817.656 L103 817.656 L167 817.656 L231 817.656 L261 817.656 L267.656 817.656 L267.656 811 L267.656 798 L267.656 796.247 L266.792 794.721 L237.656 743.247 L237.656 67.753 L266.792 16.2787 L267.656 14.7531 L267.656 13 L267.656 0 L267.656 -6.656 L261 -6.656 L231 -6.656 L167 -6.656 L167 -6.656 Z M167 6.656 L231 6.656 L254.344 6.656 L254.344 11.247 L225.208 62.7213 L224.344 64.2469 L224.344 66 L224.344 745 L224.344 746.753 L225.208 748.279 L254.344 799.753 L254.344 804.344 L231 804.344 L167 804.344 L103 804.344 L79.656 804.344 L79.656 799.753 L108.792 748.279 L109.656 746.753 L109.656 745 L109.656 66 L109.656 64.2469 L108.792 62.7213 L79.656 11.247 L79.656 6.656 L103 6.656 L167 6.656 L167 6.656 Z " />
<glyph glyph-name="Ntilde" unicode="&#xd1;" horiz-adv-x="576" d="M270.656 891 L270.656 884.344 L264 884.344 L179 884.344 L172.344 884.344 L172.344 891 C172.344 981.746 215.11 1057.66 270 1057.66 C289.735 1057.66 301.891 1050.86 306.81 1041.63 C311.751 1032.37 310.602 1020.11 308.806 1009.85 C307.012 999.598 304.678 990.49 305.31 984.162 C305.862 978.648 306.668 977.656 315 977.656 C314.074 977.656 315.339 980.674 317.584 992.606 C319.897 1004.9 321.344 1021.78 321.344 1041 L321.344 1047.66 L328 1047.66 L413 1047.66 L419.656 1047.66 L419.656 1041 C419.656 950.254 376.89 874.344 323 874.344 C303.265 874.344 291.114 881.142 286.179 890.358 C281.223 899.616 282.332 911.855 284.062 922.108 C285.791 932.353 288.029 941.419 287.281 947.715 C286.627 953.22 285.672 954.344 277 954.344 C277.926 954.344 276.661 951.326 274.416 939.394 C272.103 927.098 270.656 910.215 270.656 891 L270.656 891 Z M257.403 897.656 C257.707 914.824 259.173 930.37 261.334 941.856 C263.839 955.174 269.074 967.656 277 967.656 C291.828 967.656 299.373 958.78 300.5 949.285 C301.534 940.581 298.834 929.647 297.188 919.892 C295.543 910.145 294.84 902.384 297.915 896.642 C301.011 890.858 306.735 887.656 323 887.656 C367.93 887.656 404.432 950.407 406.271 1034.34 L334.597 1034.34 C334.293 1017.18 332.827 1001.63 330.666 990.144 C328.161 976.826 322.926 964.344 315 964.344 C300.332 964.344 293.013 973.352 292.065 982.838 C291.197 991.51 293.988 1002.4 295.694 1012.15 C297.398 1021.89 298.124 1029.63 295.065 1035.37 C291.984 1041.14 286.265 1044.34 270 1044.34 C224.095 1044.34 187.568 981.593 185.729 897.656 L257.403 897.656 L257.403 897.656 Z M399.344 743.298 L371.161 794.805 L370.344 796.298 L370.344 798 L370.344 811 L370.344 817.656 L377 817.656 L406 817.656 L441 817.656 L476 817.656 L506 817.656 L512.656 817.656 L512.656 811 L512.656 798 L512.656 796.247 L511.792 794.721 L482.656 743.247 L482.656 0 L482.656 -6.656 L476 -6.656 L454 -6.656 L406 -6.656 L323 -6.656 L317.824 -6.656 L316.549 -1.63965 L192.656 485.794 L192.656 67.753 L221.792 16.2787 L222.656 14.7531 L222.656 13 L222.656 0 L222.656 -6.656 L216 -6.656 L186 -6.656 L151 -6.656 L117 -6.656 L87 -6.656 L80.344 -6.656 L80.344 0 L80.344 13 L80.344 14.7531 L81.2076 16.2787 L110.344 67.753 L110.344 743.247 L81.2076 794.721 L80.344 796.247 L80.344 798 L80.344 811 L80.344 817.656 L87 817.656 L117 817.656 L151 817.656 L186 817.656 L247 817.656 L252.171 817.656 L253.449 812.646 L399.344 240.996 L399.344 743.298 L399.344 743.298 Z M411.839 748.195 L412.656 746.702 L412.656 745 L412.656 188 L412.656 154.72 L407.781 154.108 L399.551 186.354 L241.829 804.344 L186 804.344 L151 804.344 L117 804.344 L93.656 804.344 L93.656 799.753 L122.792 748.279 L123.656 746.753 L123.656 745 L123.656 66 L123.656 64.2469 L122.792 62.7213 L93.656 11.247 L93.656 6.656 L117 6.656 L151 6.656 L186 6.656 L209.344 6.656 L209.344 11.247 L180.208 62.7213 L179.344 64.2469 L179.344 66 L179.344 539 L179.344 572.28 L184.253 572.894 L192.451 540.64 L328.176 6.656 L406 6.656 L454 6.656 L469.344 6.656 L469.344 745 L469.344 746.753 L470.208 748.279 L499.344 799.753 L499.344 804.344 L476 804.344 L441 804.344 L406 804.344 L383.656 804.344 L383.656 799.702 L411.839 748.195 L411.839 748.195 Z " />
<glyph glyph-name="Ograve" unicode="&#xd2;" horiz-adv-x="694" d="M295 884.344 L290.263 884.344 L288.711 888.82 L236.711 1038.82 L233.648 1047.66 L243 1047.66 L393 1047.66 L399.353 1047.66 L399.649 1041.31 L406.649 891.31 L406.974 884.344 L400 884.344 L295 884.344 L295 884.344 Z M299.737 897.656 L393.026 897.656 L386.647 1034.34 L252.352 1034.34 L299.737 897.656 L299.737 897.656 Z M50.344 406 C50.344 627.096 190.532 827.656 348 827.656 C504.454 827.656 645.656 627.108 645.656 406 C645.656 172.909 513.473 -16.656 348 -16.656 C182.527 -16.656 50.344 172.909 50.344 406 L50.344 406 Z M63.656 406 C63.656 177.091 189.473 -3.344 348 -3.344 C506.527 -3.344 632.344 177.091 632.344 406 C632.344 622.892 497.546 814.344 348 814.344 C197.468 814.344 63.656 622.904 63.656 406 L63.656 406 Z M348 53.656 C428.607 53.656 494.344 207.364 494.344 406 C494.344 593.641 424.601 757.344 348 757.344 C271.375 757.344 200.656 593.624 200.656 406 C200.656 207.364 266.393 53.656 348 53.656 L348 53.656 Z M348 40.344 C257.607 40.344 187.344 204.636 187.344 406 C187.344 596.376 262.625 770.656 348 770.656 C433.399 770.656 507.656 596.359 507.656 406 C507.656 204.636 437.393 40.344 348 40.344 L348 40.344 Z " />
<glyph glyph-name="Oacute" unicode="&#xd3;" horiz-adv-x="694" d="M295 884.344 L287.98 884.344 L288.353 891.354 L296.353 1041.35 L296.69 1047.66 L303 1047.66 L453 1047.66 L462.411 1047.66 L459.276 1038.78 L406.276 888.783 L404.707 884.344 L400 884.344 L295 884.344 L295 884.344 Z M302.02 897.656 L395.293 897.656 L443.589 1034.34 L309.31 1034.34 L302.02 897.656 L302.02 897.656 Z M50.344 406 C50.344 627.096 190.532 827.656 348 827.656 C504.454 827.656 645.656 627.108 645.656 406 C645.656 172.909 513.473 -16.656 348 -16.656 C182.527 -16.656 50.344 172.909 50.344 406 L50.344 406 Z M63.656 406 C63.656 177.091 189.473 -3.344 348 -3.344 C506.527 -3.344 632.344 177.091 632.344 406 C632.344 622.892 497.546 814.344 348 814.344 C197.468 814.344 63.656 622.904 63.656 406 L63.656 406 Z M348 53.656 C428.607 53.656 494.344 207.364 494.344 406 C494.344 593.641 424.601 757.344 348 757.344 C271.375 757.344 200.656 593.624 200.656 406 C200.656 207.364 266.393 53.656 348 53.656 L348 53.656 Z M348 40.344 C257.607 40.344 187.344 204.636 187.344 406 C187.344 596.376 262.625 770.656 348 770.656 C433.399 770.656 507.656 596.359 507.656 406 C507.656 204.636 437.393 40.344 348 40.344 L348 40.344 Z " />
<glyph glyph-name="Ocircumflex" unicode="&#xd4;" horiz-adv-x="694" d="M348 934.26 L328.107 888.354 L326.37 884.344 L322 884.344 L217 884.344 L206.358 884.344 L211.015 893.913 L284.015 1043.91 L285.837 1047.66 L290 1047.66 L406 1047.66 L410.163 1047.66 L411.985 1043.91 L484.985 893.913 L489.642 884.344 L479 884.344 L374 884.344 L369.63 884.344 L367.893 888.354 L348 934.26 L348 934.26 Z M341.893 953.646 L348 967.74 L354.107 953.646 L378.37 897.656 L468.358 897.656 L401.837 1034.34 L294.163 1034.34 L227.642 897.656 L317.63 897.656 L341.893 953.646 L341.893 953.646 Z M50.344 406 C50.344 627.096 190.532 827.656 348 827.656 C504.454 827.656 645.656 627.108 645.656 406 C645.656 172.909 513.473 -16.656 348 -16.656 C182.527 -16.656 50.344 172.909 50.344 406 L50.344 406 Z M63.656 406 C63.656 177.091 189.473 -3.344 348 -3.344 C506.527 -3.344 632.344 177.091 632.344 406 C632.344 622.892 497.546 814.344 348 814.344 C197.468 814.344 63.656 622.904 63.656 406 L63.656 406 Z M348 53.656 C428.607 53.656 494.344 207.364 494.344 406 C494.344 593.641 424.601 757.344 348 757.344 C271.375 757.344 200.656 593.624 200.656 406 C200.656 207.364 266.393 53.656 348 53.656 L348 53.656 Z M348 40.344 C257.607 40.344 187.344 204.636 187.344 406 C187.344 596.376 262.625 770.656 348 770.656 C433.399 770.656 507.656 596.359 507.656 406 C507.656 204.636 437.393 40.344 348 40.344 L348 40.344 Z " />
<glyph glyph-name="Otilde" unicode="&#xd5;" horiz-adv-x="694" d="M322.656 891 L322.656 884.344 L316 884.344 L231 884.344 L224.344 884.344 L224.344 891 C224.344 981.746 267.11 1057.66 321 1057.66 C340.735 1057.66 352.886 1050.86 357.821 1041.64 C362.777 1032.38 361.668 1020.14 359.938 1009.89 C358.209 999.647 355.971 990.581 356.719 984.285 C357.373 978.78 358.328 977.656 367 977.656 C366.074 977.656 367.339 980.674 369.584 992.606 C371.897 1004.9 373.344 1021.78 373.344 1041 L373.344 1047.66 L380 1047.66 L465 1047.66 L471.656 1047.66 L471.656 1041 C471.656 950.254 428.89 874.344 375 874.344 C355.046 874.344 342.732 881.091 337.657 890.283 C332.542 899.549 333.578 911.835 335.312 922.108 C337.044 932.373 339.353 941.494 338.707 947.824 C338.143 953.346 337.332 954.344 329 954.344 C329.926 954.344 328.661 951.326 326.416 939.394 C324.103 927.098 322.656 910.215 322.656 891 L322.656 891 Z M309.403 897.656 C309.707 914.824 311.173 930.37 313.334 941.856 C315.839 955.174 321.074 967.656 329 967.656 C343.668 967.656 350.982 958.654 351.95 949.176 C352.835 940.506 350.081 929.627 348.438 919.892 C346.797 910.165 346.146 902.451 349.311 896.717 C352.518 890.909 358.454 887.656 375 887.656 C419.93 887.656 456.432 950.407 458.271 1034.34 L386.597 1034.34 C386.293 1017.18 384.827 1001.63 382.666 990.144 C380.161 976.826 374.926 964.344 367 964.344 C352.172 964.344 344.627 973.22 343.5 982.715 C342.466 991.419 345.166 1002.35 346.812 1012.11 C348.457 1021.86 349.16 1029.62 346.085 1035.36 C342.989 1041.14 337.265 1044.34 321 1044.34 C276.07 1044.34 239.568 981.593 237.729 897.656 L309.403 897.656 L309.403 897.656 Z M50.344 406 C50.344 627.096 190.532 827.656 348 827.656 C504.454 827.656 645.656 627.108 645.656 406 C645.656 172.909 513.473 -16.656 348 -16.656 C182.527 -16.656 50.344 172.909 50.344 406 L50.344 406 Z M63.656 406 C63.656 177.091 189.473 -3.344 348 -3.344 C506.527 -3.344 632.344 177.091 632.344 406 C632.344 622.892 497.546 814.344 348 814.344 C197.468 814.344 63.656 622.904 63.656 406 L63.656 406 Z M348 53.656 C428.607 53.656 494.344 207.364 494.344 406 C494.344 593.641 424.601 757.344 348 757.344 C271.375 757.344 200.656 593.624 200.656 406 C200.656 207.364 266.393 53.656 348 53.656 L348 53.656 Z M348 40.344 C257.607 40.344 187.344 204.636 187.344 406 C187.344 596.376 262.625 770.656 348 770.656 C433.399 770.656 507.656 596.359 507.656 406 C507.656 204.636 437.393 40.344 348 40.344 L348 40.344 Z " />
<glyph glyph-name="Odieresis" unicode="&#xd6;" horiz-adv-x="694" d="M359.656 897.656 L471.344 897.656 L471.344 1009.34 L359.656 1009.34 L359.656 897.656 L359.656 897.656 Z M217 884.344 L210.344 884.344 L210.344 891 L210.344 1016 L210.344 1022.66 L217 1022.66 L342 1022.66 L346.344 1022.66 L348.656 1022.66 L353 1022.66 L478 1022.66 L484.656 1022.66 L484.656 1016 L484.656 891 L484.656 884.344 L478 884.344 L353 884.344 L348.656 884.344 L346.344 884.344 L342 884.344 L217 884.344 L217 884.344 Z M223.656 897.656 L335.344 897.656 L335.344 1009.34 L223.656 1009.34 L223.656 897.656 L223.656 897.656 Z M50.344 406 C50.344 627.096 190.532 827.656 348 827.656 C504.454 827.656 645.656 627.108 645.656 406 C645.656 172.909 513.473 -16.656 348 -16.656 C182.527 -16.656 50.344 172.909 50.344 406 L50.344 406 Z M63.656 406 C63.656 177.091 189.473 -3.344 348 -3.344 C506.527 -3.344 632.344 177.091 632.344 406 C632.344 622.892 497.546 814.344 348 814.344 C197.468 814.344 63.656 622.904 63.656 406 L63.656 406 Z M348 53.656 C428.607 53.656 494.344 207.364 494.344 406 C494.344 593.641 424.601 757.344 348 757.344 C271.375 757.344 200.656 593.624 200.656 406 C200.656 207.364 266.393 53.656 348 53.656 L348 53.656 Z M348 40.344 C257.607 40.344 187.344 204.636 187.344 406 C187.344 596.376 262.625 770.656 348 770.656 C433.399 770.656 507.656 596.359 507.656 406 C507.656 204.636 437.393 40.344 348 40.344 L348 40.344 Z " />
<glyph glyph-name="Oslash" unicode="&#xd8;" horiz-adv-x="694" d="M50.344 406 C50.344 627.096 190.532 827.656 348 827.656 C408.139 827.656 467.168 797.903 515.822 748.797 L562.329 824.485 L564.278 827.656 L568 827.656 L639 827.656 L650.876 827.656 L644.677 817.526 L564.885 687.133 C614.068 611.704 645.656 510.378 645.656 406 C645.656 172.909 513.473 -16.656 348 -16.656 C285.184 -16.656 225.164 11.0986 178.157 58.237 L133.656 -13.5083 L131.704 -16.656 L128 -16.656 L57 -16.656 L45.1189 -16.656 L51.3238 -6.52389 L128.137 118.905 C79.9607 194.327 50.344 294.775 50.344 406 L50.344 406 Z M63.656 406 C63.656 294.977 93.0987 196.835 141.572 122.64 L143.875 119.115 L141.676 115.524 L68.881 -3.344 L124.296 -3.344 L171.344 72.5083 L175.913 79.8747 L181.85 73.5588 C228.006 24.4565 285.524 -3.344 348 -3.344 C506.527 -3.344 632.344 177.091 632.344 406 C632.344 509.971 600.939 609.092 551.462 683.308 L549.103 686.847 L551.323 690.474 L627.124 814.344 L571.722 814.344 L522.671 734.515 L518.119 727.107 L512.156 733.435 C463.919 784.625 407.358 814.344 348 814.344 C197.468 814.344 63.656 622.904 63.656 406 L63.656 406 Z M348 53.656 C428.607 53.656 494.344 207.364 494.344 406 C494.344 456.386 488.866 504.942 479.946 549.359 L241.412 162.34 C268.851 93.4196 306.508 53.656 348 53.656 L348 53.656 Z M348 40.344 C300.104 40.344 256.26 87.397 227.797 160.588 L226.596 163.674 L228.334 166.492 L477.334 570.492 L485.913 584.412 L489.494 568.458 C500.563 519.152 507.656 463.422 507.656 406 C507.656 204.636 437.393 40.344 348 40.344 L348 40.344 Z M214.123 257.788 L452.564 645.614 C424.137 714.784 387.34 757.344 348 757.344 C271.375 757.344 200.656 593.624 200.656 406 C200.656 352.828 205.363 303.122 214.123 257.788 L214.123 257.788 Z M216.67 236.514 L208.04 222.477 L204.499 238.57 C193.421 288.927 187.344 345.644 187.344 406 C187.344 596.376 262.625 770.656 348 770.656 C394.076 770.656 436.77 720.49 466.174 647.487 L467.428 644.373 L465.67 641.514 L216.67 236.514 L216.67 236.514 Z " />
<glyph glyph-name="Ugrave" unicode="&#xd9;" horiz-adv-x="626" d="M261 874.344 L256.293 874.344 L254.724 878.783 L201.724 1028.78 L198.589 1037.66 L208 1037.66 L358 1037.66 L364.31 1037.66 L364.647 1031.35 L372.647 881.354 L373.02 874.344 L366 874.344 L261 874.344 L261 874.344 Z M265.707 887.656 L358.98 887.656 L351.69 1024.34 L217.411 1024.34 L265.707 887.656 L265.707 887.656 Z M88.344 743.247 L59.2076 794.721 L58.344 796.247 L58.344 798 L58.344 811 L58.344 817.656 L65 817.656 L95 817.656 L159 817.656 L223 817.656 L253 817.656 L259.656 817.656 L259.656 811 L259.656 798 L259.656 796.247 L258.792 794.721 L229.656 743.247 L229.656 336 C229.656 165.042 262.853 61.656 313 61.656 C400.055 61.656 455.344 162.702 455.344 328 L455.344 743.247 L426.208 794.721 L425.344 796.247 L425.344 798 L425.344 811 L425.344 817.656 L432 817.656 L462 817.656 L497 817.656 L532 817.656 L532.055 817.656 L532.111 817.655 L562.111 817.155 L568.656 817.046 L568.656 810.5 L568.656 798 L568.656 796.247 L567.792 794.721 L538.656 743.247 L538.656 316 C538.656 114.978 450.554 -16.656 313 -16.656 C176.461 -16.656 88.344 113.965 88.344 313 L88.344 743.247 L88.344 743.247 Z M100.792 748.279 L101.656 746.753 L101.656 745 L101.656 313 C101.656 118.035 183.539 -3.344 313 -3.344 C443.446 -3.344 525.344 119.022 525.344 316 L525.344 745 L525.344 746.753 L526.208 748.279 L555.344 799.753 L555.344 803.954 L531.945 804.344 L497 804.344 L462 804.344 L438.656 804.344 L438.656 799.753 L467.792 748.279 L468.656 746.753 L468.656 745 L468.656 328 C468.656 159.298 407.945 48.344 313 48.344 C253.147 48.344 216.344 162.958 216.344 336 L216.344 745 L216.344 746.753 L217.208 748.279 L246.344 799.753 L246.344 804.344 L223 804.344 L159 804.344 L95 804.344 L71.656 804.344 L71.656 799.753 L100.792 748.279 L100.792 748.279 Z " />
<glyph glyph-name="Uacute" unicode="&#xda;" horiz-adv-x="626" d="M261 874.344 L254.026 874.344 L254.351 881.31 L261.351 1031.31 L261.647 1037.66 L268 1037.66 L418 1037.66 L427.352 1037.66 L424.289 1028.82 L372.289 878.82 L370.737 874.344 L366 874.344 L261 874.344 L261 874.344 Z M267.974 887.656 L361.263 887.656 L408.648 1024.34 L274.353 1024.34 L267.974 887.656 L267.974 887.656 Z M88.344 743.247 L59.2076 794.721 L58.344 796.247 L58.344 798 L58.344 811 L58.344 817.656 L65 817.656 L95 817.656 L159 817.656 L223 817.656 L253 817.656 L259.656 817.656 L259.656 811 L259.656 798 L259.656 796.247 L258.792 794.721 L229.656 743.247 L229.656 336 C229.656 165.042 262.853 61.656 313 61.656 C400.055 61.656 455.344 162.702 455.344 328 L455.344 743.247 L426.208 794.721 L425.344 796.247 L425.344 798 L425.344 811 L425.344 817.656 L432 817.656 L462 817.656 L497 817.656 L532 817.656 L532.055 817.656 L532.111 817.655 L562.111 817.155 L568.656 817.046 L568.656 810.5 L568.656 798 L568.656 796.247 L567.792 794.721 L538.656 743.247 L538.656 316 C538.656 114.978 450.554 -16.656 313 -16.656 C176.461 -16.656 88.344 113.965 88.344 313 L88.344 743.247 L88.344 743.247 Z M100.792 748.279 L101.656 746.753 L101.656 745 L101.656 313 C101.656 118.035 183.539 -3.344 313 -3.344 C443.446 -3.344 525.344 119.022 525.344 316 L525.344 745 L525.344 746.753 L526.208 748.279 L555.344 799.753 L555.344 803.954 L531.945 804.344 L497 804.344 L462 804.344 L438.656 804.344 L438.656 799.753 L467.792 748.279 L468.656 746.753 L468.656 745 L468.656 328 C468.656 159.298 407.945 48.344 313 48.344 C253.147 48.344 216.344 162.958 216.344 336 L216.344 745 L216.344 746.753 L217.208 748.279 L246.344 799.753 L246.344 804.344 L223 804.344 L159 804.344 L95 804.344 L71.656 804.344 L71.656 799.753 L100.792 748.279 L100.792 748.279 Z " />
<glyph glyph-name="Ucircumflex" unicode="&#xdb;" horiz-adv-x="626" d="M313 924.26 L293.107 878.354 L291.37 874.344 L287 874.344 L182 874.344 L171.358 874.344 L176.015 883.913 L249.015 1033.91 L250.837 1037.66 L255 1037.66 L371 1037.66 L375.163 1037.66 L376.985 1033.91 L449.985 883.913 L454.642 874.344 L444 874.344 L339 874.344 L334.63 874.344 L332.893 878.354 L313 924.26 L313 924.26 Z M306.893 943.646 L313 957.74 L319.107 943.646 L343.37 887.656 L433.358 887.656 L366.837 1024.34 L259.163 1024.34 L192.642 887.656 L282.63 887.656 L306.893 943.646 L306.893 943.646 Z M88.344 743.247 L59.2076 794.721 L58.344 796.247 L58.344 798 L58.344 811 L58.344 817.656 L65 817.656 L95 817.656 L159 817.656 L223 817.656 L253 817.656 L259.656 817.656 L259.656 811 L259.656 798 L259.656 796.247 L258.792 794.721 L229.656 743.247 L229.656 336 C229.656 165.042 262.853 61.656 313 61.656 C400.055 61.656 455.344 162.702 455.344 328 L455.344 743.247 L426.208 794.721 L425.344 796.247 L425.344 798 L425.344 811 L425.344 817.656 L432 817.656 L462 817.656 L497 817.656 L532 817.656 L532.055 817.656 L532.111 817.655 L562.111 817.155 L568.656 817.046 L568.656 810.5 L568.656 798 L568.656 796.247 L567.792 794.721 L538.656 743.247 L538.656 316 C538.656 114.978 450.554 -16.656 313 -16.656 C176.461 -16.656 88.344 113.965 88.344 313 L88.344 743.247 L88.344 743.247 Z M100.792 748.279 L101.656 746.753 L101.656 745 L101.656 313 C101.656 118.035 183.539 -3.344 313 -3.344 C443.446 -3.344 525.344 119.022 525.344 316 L525.344 745 L525.344 746.753 L526.208 748.279 L555.344 799.753 L555.344 803.954 L531.945 804.344 L497 804.344 L462 804.344 L438.656 804.344 L438.656 799.753 L467.792 748.279 L468.656 746.753 L468.656 745 L468.656 328 C468.656 159.298 407.945 48.344 313 48.344 C253.147 48.344 216.344 162.958 216.344 336 L216.344 745 L216.344 746.753 L217.208 748.279 L246.344 799.753 L246.344 804.344 L223 804.344 L159 804.344 L95 804.344 L71.656 804.344 L71.656 799.753 L100.792 748.279 L100.792 748.279 Z " />
<glyph glyph-name="Udieresis" unicode="&#xdc;" horiz-adv-x="626" d="M325.656 887.656 L437.344 887.656 L437.344 999.344 L325.656 999.344 L325.656 887.656 L325.656 887.656 Z M183 874.344 L176.344 874.344 L176.344 881 L176.344 1006 L176.344 1012.66 L183 1012.66 L308 1012.66 L312.344 1012.66 L314.656 1012.66 L319 1012.66 L444 1012.66 L450.656 1012.66 L450.656 1006 L450.656 881 L450.656 874.344 L444 874.344 L319 874.344 L314.656 874.344 L312.344 874.344 L308 874.344 L183 874.344 L183 874.344 Z M189.656 887.656 L301.344 887.656 L301.344 999.344 L189.656 999.344 L189.656 887.656 L189.656 887.656 Z M88.344 743.247 L59.2076 794.721 L58.344 796.247 L58.344 798 L58.344 811 L58.344 817.656 L65 817.656 L95 817.656 L159 817.656 L223 817.656 L253 817.656 L259.656 817.656 L259.656 811 L259.656 798 L259.656 796.247 L258.792 794.721 L229.656 743.247 L229.656 336 C229.656 165.042 262.853 61.656 313 61.656 C400.055 61.656 455.344 162.702 455.344 328 L455.344 743.247 L426.208 794.721 L425.344 796.247 L425.344 798 L425.344 811 L425.344 817.656 L432 817.656 L462 817.656 L497 817.656 L532 817.656 L532.055 817.656 L532.111 817.655 L562.111 817.155 L568.656 817.046 L568.656 810.5 L568.656 798 L568.656 796.247 L567.792 794.721 L538.656 743.247 L538.656 316 C538.656 114.978 450.554 -16.656 313 -16.656 C176.461 -16.656 88.344 113.965 88.344 313 L88.344 743.247 L88.344 743.247 Z M100.792 748.279 L101.656 746.753 L101.656 745 L101.656 313 C101.656 118.035 183.539 -3.344 313 -3.344 C443.446 -3.344 525.344 119.022 525.344 316 L525.344 745 L525.344 746.753 L526.208 748.279 L555.344 799.753 L555.344 803.954 L531.945 804.344 L497 804.344 L462 804.344 L438.656 804.344 L438.656 799.753 L467.792 748.279 L468.656 746.753 L468.656 745 L468.656 328 C468.656 159.298 407.945 48.344 313 48.344 C253.147 48.344 216.344 162.958 216.344 336 L216.344 745 L216.344 746.753 L217.208 748.279 L246.344 799.753 L246.344 804.344 L223 804.344 L159 804.344 L95 804.344 L71.656 804.344 L71.656 799.753 L100.792 748.279 L100.792 748.279 Z " />
<glyph glyph-name="Yacute" unicode="&#xdd;" horiz-adv-x="521" d="M213 884.344 L206.026 884.344 L206.351 891.31 L213.351 1041.31 L213.647 1047.66 L220 1047.66 L370 1047.66 L379.352 1047.66 L376.289 1038.82 L324.289 888.82 L322.737 884.344 L318 884.344 L213 884.344 L213 884.344 Z M219.974 897.656 L313.263 897.656 L360.648 1034.34 L226.353 1034.34 L219.974 897.656 L219.974 897.656 Z M399.333 744.8 L394.373 797.375 L394.344 797.687 L394.344 798 L394.344 810.5 L394.344 817.046 L400.889 817.155 L430.889 817.655 L430.945 817.656 L431 817.656 L464 817.656 L496 817.656 L496.133 817.656 L496.266 817.651 L521.266 816.651 L527.656 816.395 L527.656 810 L527.656 798 L527.656 795.375 L525.864 793.457 L477.267 741.423 L342.656 382.792 L342.656 67.753 L371.792 16.2787 L372.656 14.7531 L372.656 13 L372.656 0 L372.656 -6.656 L366 -6.656 L336 -6.656 L272 -6.656 L208 -6.656 L178 -6.656 L171.344 -6.656 L171.344 0 L171.344 13 L171.344 14.7531 L172.208 16.2787 L201.344 67.753 L201.344 367.737 L54.29 741.335 L4.20387 793.385 L2.344 795.318 L2.344 798 L2.344 811 L2.344 817.656 L9 817.656 L34 817.656 L94 817.656 L155 817.656 L155.055 817.656 L155.111 817.655 L185.111 817.155 L191.656 817.046 L191.656 810.5 L191.656 798 L191.656 797.681 L191.625 797.363 L186.776 746.927 L295.859 463.875 L399.333 744.8 L399.333 744.8 Z M412.058 751.656 L416.045 751.656 L412.746 742.699 L302.246 442.699 L296.141 426.125 L289.789 442.606 L173.789 743.606 L173.224 745.073 L173.375 746.637 L178.344 798.319 L178.344 803.954 L154.945 804.344 L94 804.344 L34 804.344 L15.656 804.344 L15.656 800.682 L64.7961 749.615 L65.7105 748.665 L66.1935 747.438 L214.193 371.438 L214.656 370.263 L214.656 369 L214.656 66 L214.656 64.2469 L213.792 62.7213 L184.656 11.247 L184.656 6.656 L208 6.656 L272 6.656 L336 6.656 L359.344 6.656 L359.344 11.247 L330.208 62.7213 L329.344 64.2469 L329.344 66 L329.344 384 L329.344 385.208 L329.769 386.339 L465.269 747.339 L465.733 748.577 L466.636 749.543 L514.344 800.625 L514.344 803.605 L495.867 804.344 L464 804.344 L431.055 804.344 L407.656 803.954 L407.656 798.313 L412.058 751.656 L412.058 751.656 Z " />
<glyph glyph-name="Thorn" unicode="&#xde;" horiz-adv-x="518" d="M166 -6.656 L102 -6.656 L72 -6.656 L65.344 -6.656 L65.344 0 L65.344 13 L65.344 14.7531 L66.2076 16.2787 L95.344 67.753 L95.344 743.247 L66.2076 794.721 L65.344 796.247 L65.344 798 L65.344 811 L65.344 817.656 L72 817.656 L102 817.656 L166 817.656 L230 817.656 L260 817.656 L266.656 817.656 L266.656 811 L266.656 798 L266.656 796.247 L265.792 794.721 L236.656 743.247 L236.656 655.597 C390.569 652.851 490.656 554.705 490.656 406 C490.656 256.309 390.569 158.149 236.656 155.403 L236.656 67.753 L265.792 16.2787 L266.656 14.7531 L266.656 13 L266.656 0 L266.656 -6.656 L260 -6.656 L230 -6.656 L166 -6.656 L166 -6.656 Z M166 6.656 L230 6.656 L253.344 6.656 L253.344 11.247 L224.208 62.7213 L223.344 64.2469 L223.344 66 L223.344 162 L223.344 168.656 L230 168.656 C382.323 168.656 477.344 259.838 477.344 406 C477.344 551.162 382.323 642.344 230 642.344 L223.344 642.344 L223.344 649 L223.344 745 L223.344 746.753 L224.208 748.279 L253.344 799.753 L253.344 804.344 L230 804.344 L166 804.344 L102 804.344 L78.656 804.344 L78.656 799.753 L107.792 748.279 L108.656 746.753 L108.656 745 L108.656 66 L108.656 64.2469 L107.792 62.7213 L78.656 11.247 L78.656 6.656 L102 6.656 L166 6.656 L166 6.656 Z M236.656 222.778 C305.169 226.048 349.344 294.786 349.344 406 C349.344 514.467 306.223 582.106 236.656 587.972 L236.656 222.778 L236.656 222.778 Z M230 209.344 L223.344 209.344 L223.344 216 L223.344 595 L223.344 601.831 L230.173 601.654 C310.61 599.564 362.656 522.027 362.656 406 C362.656 287.979 310.056 209.344 231.5 209.344 L230 209.344 L230 209.344 Z " />
</font>
</svg>
