<?xml version="1.0" encoding="UTF-8"?>
<svg xmlns="http://www.w3.org/2000/svg" xmlns:xlink="http://www.w3.org/1999/xlink" version="1.2" >
<font id="Montrell Regular">
<font-face  font-family="Montrell" units-per-em="1024" ascent="1054" descent="-300" font-style="normal" font-weight="400" font-stretch="normal" cap-height="811" x-height="581" underline-position="0" underline-thickness="0" />
<missing-glyph  horiz-adv-x="472" d="M0 700 C0 700 432 700 432 700 C432 700 432 0 432 0 C432 0 0 0 0 0 C0 0 0 700 0 700 L0 700 Z M50 50 C50 50 382 50 382 50 C382 50 382 650 382 650 C382 650 50 650 50 650 C50 650 50 50 50 50 L50 50 Z " />
<glyph glyph-name="NULL" d="" />
<glyph glyph-name="CR" unicode="&#xd;" horiz-adv-x="256" d="" />
<glyph glyph-name="space" unicode="&#x20;" horiz-adv-x="100" d="" />
<glyph glyph-name="exclam" unicode="&#x21;" horiz-adv-x="195" d="M49 0 C49 0 147 0 147 0 C147 0 147 98 147 98 C147 98 49 98 49 98 C49 98 49 0 49 0 L49 0 Z M45 811 C45 811 45 476 45 476 C45 476 84 201 84 201 C84 201 111 201 111 201 C111 201 151 476 151 476 C151 476 151 811 151 811 C151 811 45 811 45 811 L45 811 Z " />
<glyph glyph-name="quotedbl" unicode="&#x22;" horiz-adv-x="383" d="M226 811 C226 811 226 718 226 718 C226 718 249 636 249 636 C249 636 292 636 292 636 C292 636 315 718 315 718 C315 718 315 811 315 811 C315 811 226 811 226 811 L226 811 Z M79 811 C79 811 79 718 79 718 C79 718 102 636 102 636 C102 636 145 636 145 636 C145 636 169 718 169 718 C169 718 169 811 169 811 C169 811 79 811 79 811 L79 811 Z " />
<glyph glyph-name="numbersign" unicode="&#x23;" horiz-adv-x="503" d="M373 811 C373 811 348 618 348 618 C348 618 223 618 223 618 C223 618 248 811 248 811 C248 811 201 811 201 811 C201 811 176 618 176 618 C176 618 82 618 82 618 C82 618 71 544 71 544 C71 544 166 544 166 544 C166 544 129 267 129 267 C129 267 27 267 27 267 C27 267 17 193 17 193 C17 193 119 193 119 193 C119 193 94 0 94 0 C94 0 141 0 141 0 C141 0 166 193 166 193 C166 193 292 193 292 193 C292 193 267 0 267 0 C267 0 313 0 313 0 C313 0 338 193 338 193 C338 193 419 193 419 193 C419 193 429 267 429 267 C429 267 348 267 348 267 C348 267 385 544 385 544 C385 544 474 544 474 544 C474 544 484 618 484 618 C484 618 395 618 395 618 C395 618 420 811 420 811 C420 811 373 811 373 811 L373 811 Z M213 544 C213 544 338 544 338 544 C338 544 302 267 302 267 C302 267 176 267 176 267 C176 267 213 544 213 544 L213 544 Z " />
<glyph glyph-name="dollar" unicode="&#x24;" horiz-adv-x="476" d="M262 886 C262 886 262 816 262 816 C245 819 228 821 210 821 C205 821 200 821 195 820 C195 820 195 886 195 886 C195 886 137 886 137 886 C137 886 137 798 137 798 C82 761 45 683 45 591 C45 526 78 464 137 417 C137 417 137 94 137 94 C113 122 99 159 99 204 C99 204 52 172 52 172 C52 172 54 142 54 142 C54 142 54 142 54 142 C63 90 93 49 137 23 C137 23 137 -75 137 -75 C137 -75 195 -75 195 -75 C195 -75 195 -1 195 -1 C216 -7 239 -10 262 -10 C262 -10 262 -75 262 -75 C262 -75 320 -75 320 -75 C320 -75 320 1 320 1 C396 30 442 120 442 227 C442 307 396 382 320 433 C320 433 320 738 320 738 C348 715 366 683 366 643 C366 643 385 660 385 660 C385 660 385 660 385 660 C385 660 404 678 404 678 C404 678 400 708 400 708 C400 708 400 708 400 708 C392 741 370 768 339 788 C339 788 339 788 339 788 C339 788 339 788 339 788 C333 792 327 795 320 798 C320 798 320 886 320 886 C320 886 262 886 262 886 L262 886 Z M262 464 C259 465 255 467 252 468 C230 477 211 489 195 503 C195 503 195 768 195 768 C200 771 205 773 210 773 C228 773 246 771 262 766 C262 766 262 464 262 464 L262 464 Z M195 380 C205 376 215 371 225 367 C238 362 251 355 262 348 C262 348 262 38 262 38 C238 38 215 43 195 51 C195 51 195 380 195 380 L195 380 Z M320 292 C334 270 341 247 341 223 C341 171 333 125 320 92 C320 92 320 292 320 292 L320 292 Z M149 527 C136 561 128 607 128 658 C128 682 136 706 149 727 C149 727 149 527 149 527 L149 527 Z " />
<glyph glyph-name="percent" unicode="&#x25;" horiz-adv-x="534" d="M426 140 C426 71 419 16 409 16 C398 16 391 71 391 140 C391 209 398 264 409 264 C419 264 426 209 426 140 L426 140 Z M409 -10 C450 -10 477 57 477 140 C477 223 450 290 409 290 C367 290 340 223 340 140 C340 57 367 -10 409 -10 L409 -10 Z M108 671 C108 740 115 795 126 796 C137 797 144 740 144 671 C144 602 137 546 126 547 C115 548 108 602 108 671 L108 671 Z M126 821 C84 821 57 754 57 671 C57 588 84 521 126 521 C168 521 195 588 195 671 C195 754 168 821 126 821 L126 821 Z M106 0 C106 0 137 0 137 0 C137 0 429 811 429 811 C429 811 397 811 397 811 C397 811 106 0 106 0 L106 0 Z " />
<glyph glyph-name="ampersand" unicode="&#x26;" horiz-adv-x="556" d="M497 2 C497 2 490 43 490 43 C478 38 465 34 461 34 C461 34 436 84 402 150 C426 214 439 292 437 377 C437 377 392 387 392 387 C393 322 386 260 373 208 C327 297 284 375 261 414 C261 414 274 422 274 422 C317 499 352 573 352 588 C352 679 307 752 251 752 C189 752 140 672 140 571 C140 499 153 424 170 394 C170 394 167 392 167 392 C98 267 42 180 42 196 C42 76 123 -20 224 -20 C272 -20 317 8 352 55 C383 16 417 -10 457 -10 C462 -10 480 -5 497 2 L497 2 Z M244 441 C234 459 225 519 225 579 C225 652 237 711 251 711 C264 711 275 654 275 584 C275 535 262 473 244 441 C244 441 244 441 244 441 L244 441 Z M188 357 C208 318 246 243 291 156 C302 134 314 113 326 93 C299 52 266 28 230 28 C177 28 135 108 135 207 C135 235 158 300 188 357 C188 357 188 357 188 357 L188 357 Z " />
<glyph glyph-name="quotesingle" unicode="&#x27;" horiz-adv-x="217" d="M79 811 C79 811 79 718 79 718 C79 718 102 636 102 636 C102 636 145 636 145 636 C145 636 169 718 169 718 C169 718 169 811 169 811 C169 811 79 811 79 811 L79 811 Z " />
<glyph glyph-name="parenleft" unicode="&#x28;" horiz-adv-x="325" d="M274 856 C170 769 104 577 104 362 C104 158 170 -28 274 -115 C274 -115 306 -80 306 -80 C219 -7 163 165 163 362 C163 569 219 748 306 821 C306 821 274 856 274 856 L274 856 Z " />
<glyph glyph-name="parenright" unicode="&#x29;" horiz-adv-x="294" d="M51 -115 C155 -28 222 165 221 379 C222 583 155 769 51 856 C51 856 20 821 20 821 C107 748 163 576 163 379 C163 172 107 -7 20 -80 C20 -80 51 -115 51 -115 L51 -115 Z " />
<glyph glyph-name="asterisk" unicode="&#x2a;" horiz-adv-x="385" d="M333 746 C333 746 207 681 207 681 C207 681 230 821 230 821 C230 821 155 821 155 821 C155 821 178 681 178 681 C178 681 52 746 52 746 C52 746 29 675 29 675 C29 675 168 653 168 653 C168 653 68 554 68 554 C68 554 129 510 129 510 C129 510 193 635 193 635 C193 635 256 510 256 510 C256 510 317 554 317 554 C317 554 217 653 217 653 C217 653 356 675 356 675 C356 675 333 746 333 746 L333 746 Z " />
<glyph glyph-name="plus" unicode="&#x2b;" horiz-adv-x="651" d="M296 267 C296 267 296 0 296 0 C296 0 355 0 355 0 C355 0 355 267 355 267 C355 267 626 267 626 267 C626 267 626 322 626 322 C626 322 355 322 355 322 C355 322 355 581 355 581 C355 581 296 581 296 581 C296 581 296 322 296 322 C296 322 25 322 25 322 C25 322 25 267 25 267 C25 267 296 267 296 267 L296 267 Z " />
<glyph glyph-name="comma" unicode="&#x2c;" horiz-adv-x="197" d="M50 98 C50 98 50 0 50 0 C50 0 89 0 89 0 C89 -40 76 -60 50 -60 C50 -60 50 -107 50 -107 C115 -107 148 -71 148 0 C148 0 148 98 148 98 C148 98 50 98 50 98 L50 98 Z " />
<glyph glyph-name="hyphen" unicode="&#x2d;" horiz-adv-x="245" d="M50 247 C50 247 195 247 195 247 C195 247 195 321 195 321 C195 321 50 321 50 321 C50 321 50 247 50 247 L50 247 Z " />
<glyph glyph-name="period" unicode="&#x2e;" horiz-adv-x="197" d="M50 0 C50 0 148 0 148 0 C148 0 148 98 148 98 C148 98 50 98 50 98 C50 98 50 0 50 0 L50 0 Z " />
<glyph glyph-name="slash" unicode="&#x2f;" horiz-adv-x="298" d="M0 0 C0 0 39 0 39 0 C39 0 298 811 298 811 C298 811 259 811 259 811 C259 811 0 0 0 0 L0 0 Z " />
<glyph glyph-name="zero" unicode="0" horiz-adv-x="579" d="M292 34 C213 34 163 179 163 406 C163 622 217 777 292 777 C367 777 421 622 421 406 C421 179 371 34 292 34 L292 34 Z M59 406 C59 152 150 -10 292 -10 C434 -10 525 152 525 406 C525 648 428 821 292 821 C156 821 59 648 59 406 L59 406 Z " />
<glyph glyph-name="one" unicode="1" horiz-adv-x="349" d="M199 0 C199 0 249 0 249 0 C249 0 279 0 279 0 C279 0 279 13 279 13 C279 13 249 66 249 66 C249 66 249 811 249 811 C249 811 171 811 171 811 C171 811 50 603 50 603 C50 603 50 536 50 536 C50 536 149 710 149 710 C149 710 149 66 149 66 C149 66 119 13 119 13 C119 13 119 0 119 0 C119 0 149 0 149 0 C149 0 199 0 199 0 L199 0 Z " />
<glyph glyph-name="two" unicode="2" horiz-adv-x="470" d="M64 0 C64 0 123 0 123 0 C123 0 436 0 436 0 C436 0 436 48 436 48 C436 48 436 97 436 97 C436 97 436 127 436 127 C436 126 435 126 434 127 C427 126 422 126 422 127 C422 127 370 97 370 97 C370 97 129 97 129 97 C142 203 182 267 246 323 C343 407 421 516 421 570 C421 709 346 821 253 821 C160 821 86 713 86 579 C86 524 105 456 129 425 C129 425 178 450 178 450 C156 477 139 534 139 579 C139 670 178 743 228 743 C280 743 322 657 322 549 C322 491 265 394 193 331 C107 257 64 171 64 0 C64 0 64 0 64 0 L64 0 Z " />
<glyph glyph-name="three" unicode="3" horiz-adv-x="478" d="M53 265 C53 112 138 -10 243 -10 C349 -10 434 95 434 226 C434 311 387 399 326 436 C370 462 404 535 404 610 C404 727 334 821 246 821 C157 821 87 716 87 584 C87 584 187 584 187 584 C187 691 212 777 244 777 C282 777 312 699 312 602 C312 528 279 469 238 469 C238 469 158 469 158 469 C158 469 158 446 158 446 C158 446 158 430 158 430 C158 430 158 392 158 392 C158 392 218 392 218 392 C278 392 326 320 326 230 C326 123 289 38 243 38 C195 38 157 139 157 265 C157 265 53 265 53 265 L53 265 Z " />
<glyph glyph-name="four" unicode="4" horiz-adv-x="475" d="M25 284 C25 284 25 242 25 242 C25 242 311 242 311 242 C311 242 311 66 311 66 C311 66 281 13 281 13 C281 13 281 0 281 0 C281 0 311 0 311 0 C311 0 361 0 361 0 C361 0 411 0 411 0 C411 0 441 0 441 0 C441 0 441 13 441 13 C441 13 411 66 411 66 C411 66 411 242 411 242 C411 242 455 242 455 242 C455 242 455 290 455 290 C455 290 411 290 411 290 C411 290 411 811 411 811 C411 811 333 811 333 811 C333 811 25 284 25 284 L25 284 Z M78 290 C78 290 323 710 323 710 C323 710 311 598 311 598 C311 598 311 290 311 290 C311 290 78 290 78 290 L78 290 Z " />
<glyph glyph-name="five" unicode="5" horiz-adv-x="474" d="M99 375 C99 375 151 362 151 362 C191 406 227 441 234 441 C286 441 327 358 327 254 C327 134 290 38 244 38 C196 38 158 139 158 265 C158 265 54 265 54 265 C54 112 139 -10 244 -10 C350 -10 435 107 435 254 C435 403 354 522 253 522 C229 522 182 491 144 450 C144 450 125 708 125 708 C125 708 339 713 339 713 C339 713 386 685 386 685 C386 685 399 685 399 685 C401 707 403 741 405 763 C405 763 405 763 405 763 C405 763 408 811 408 811 C408 811 77 811 77 811 C77 811 99 375 99 375 L99 375 Z " />
<glyph glyph-name="six" unicode="6" horiz-adv-x="478" d="M428 677 C394 757 321 821 264 821 C141 821 63 634 63 401 C63 150 142 -10 265 -10 C373 -10 460 112 460 265 C460 409 378 524 275 524 C245 524 196 473 167 409 C167 412 167 416 167 419 C167 619 205 779 264 779 C302 779 357 722 388 651 C388 651 428 677 428 677 L428 677 Z M168 342 C196 419 239 479 265 479 C313 479 352 384 352 265 C352 137 313 34 265 34 C212 34 176 152 168 342 C168 342 168 342 168 342 L168 342 Z " />
<glyph glyph-name="seven" unicode="7" horiz-adv-x="370" d="M30 811 C30 811 30 763 30 763 C30 763 30 715 30 715 C30 715 30 685 30 685 C30 685 43 685 43 685 C43 685 96 715 96 715 C96 715 316 715 316 715 C164 452 88 214 88 0 C88 0 200 0 200 0 C200 291 253 530 360 715 C360 715 360 811 360 811 C360 811 30 811 30 811 L30 811 Z " />
<glyph glyph-name="eight" unicode="8" horiz-adv-x="508" d="M259 457 C212 457 185 521 185 602 C185 709 218 777 259 777 C304 777 332 699 332 602 C332 509 300 457 259 457 L259 457 Z M93 610 C93 527 132 457 204 433 C123 411 64 336 64 220 C64 92 134 -10 259 -10 C367 -10 454 73 454 219 C454 322 404 409 314 434 C379 456 425 517 425 610 C425 727 360 821 259 821 C167 821 93 739 93 610 L93 610 Z M259 34 C203 34 172 120 172 227 C172 343 211 408 259 408 C315 408 347 328 347 229 C347 104 308 34 259 34 L259 34 Z " />
<glyph glyph-name="nine" unicode="9" horiz-adv-x="478" d="M82 134 C116 54 189 -10 246 -10 C369 -10 447 177 447 410 C447 661 368 821 245 821 C137 821 50 699 50 546 C50 402 132 287 235 287 C265 287 314 338 343 402 C343 399 343 395 343 392 C343 192 305 32 246 32 C208 32 153 89 122 160 C122 160 82 134 82 134 L82 134 Z M342 469 C314 393 271 332 245 332 C197 332 158 427 158 546 C158 674 197 777 245 777 C298 777 334 659 342 469 C342 469 342 469 342 469 L342 469 Z " />
<glyph glyph-name="colon" unicode="&#x3a;" horiz-adv-x="197" d="M50 483 C50 483 148 483 148 483 C148 483 148 581 148 581 C148 581 50 581 50 581 C50 581 50 483 50 483 L50 483 Z M50 0 C50 0 148 0 148 0 C148 0 148 98 148 98 C148 98 50 98 50 98 C50 98 50 0 50 0 L50 0 Z " />
<glyph glyph-name="semicolon" unicode="&#x3b;" horiz-adv-x="197" d="M50 483 C50 483 148 483 148 483 C148 483 148 581 148 581 C148 581 50 581 50 581 C50 581 50 483 50 483 L50 483 Z M50 98 C50 98 50 0 50 0 C50 0 89 0 89 0 C89 -40 76 -60 50 -60 C50 -60 50 -107 50 -107 C115 -107 148 -71 148 0 C148 0 148 98 148 98 C148 98 50 98 50 98 L50 98 Z " />
<glyph glyph-name="less" unicode="&#x3c;" horiz-adv-x="285" d="M225 544 C225 544 45 324 45 324 C45 324 45 257 45 257 C45 257 225 37 225 37 C225 37 225 112 225 112 C225 112 73 291 73 291 C73 291 225 470 225 470 C225 470 225 544 225 544 L225 544 Z " />
<glyph glyph-name="equal" unicode="&#x3d;" horiz-adv-x="484" d="M39 216 C39 216 39 161 39 161 C39 161 434 161 434 161 C434 161 434 216 434 216 C434 216 39 216 39 216 L39 216 Z M39 439 C39 439 39 385 39 385 C39 385 434 385 434 385 C434 385 434 439 434 439 C434 439 39 439 39 439 L39 439 Z " />
<glyph glyph-name="greater" unicode="&#x3e;" horiz-adv-x="285" d="M212 291 C212 291 60 112 60 112 C60 112 60 37 60 37 C60 37 240 257 240 257 C240 257 240 324 240 324 C240 324 60 544 60 544 C60 544 60 470 60 470 C60 470 212 291 212 291 L212 291 Z " />
<glyph glyph-name="question" unicode="&#x3f;" horiz-adv-x="444" d="M165 0 C165 0 262 0 262 0 C262 0 262 98 262 98 C262 98 165 98 165 98 C165 98 165 0 165 0 L165 0 Z M21 604 C21 604 108 589 108 589 C116 679 165 751 220 751 C265 751 301 684 301 601 C301 534 281 489 240 466 C186 436 171 377 171 201 C171 201 257 201 257 201 C257 342 267 388 303 408 C364 443 395 507 395 601 C395 723 317 821 220 821 C120 821 32 725 21 604 L21 604 Z " />
<glyph glyph-name="at" unicode="&#x40;" horiz-adv-x="1088" d="M900 -122 C812 -184 661 -234 561 -234 C319 -234 125 3 125 300 C125 596 320 833 563 833 C788 833 968 640 968 399 C968 189 895 21 803 21 C732 21 685 115 698 232 C698 232 733 558 733 558 C733 558 651 558 651 558 C651 558 637 427 637 427 C625 522 591 569 546 569 C438 569 338 449 322 300 C304 138 382 9 496 9 C545 9 593 66 619 147 C638 56 703 -7 788 -7 C925 -7 1034 173 1034 399 C1034 658 824 865 563 865 C282 865 58 614 58 300 C58 -15 281 -266 561 -266 C664 -266 823 -213 917 -147 C917 -147 900 -122 900 -122 L900 -122 Z M616 232 C605 132 554 52 501 52 C436 52 397 162 412 300 C425 426 483 527 542 527 C600 527 637 429 616 232 L616 232 Z " />
<glyph glyph-name="A" unicode="A" horiz-adv-x="646" d="M602 66 C602 66 602 66 602 66 C602 66 384 811 384 811 C384 811 331 811 331 811 C331 811 305 811 305 811 C305 811 287 811 287 811 C287 811 279 811 279 811 C279 811 249 811 249 811 C249 811 249 798 249 798 C249 798 260 745 260 745 C260 745 64 66 64 66 C64 66 64 66 64 66 C64 66 19 13 19 13 C19 13 19 0 19 0 C19 0 45 0 45 0 C45 0 73 0 73 0 C73 0 100 0 100 0 C100 0 130 0 130 0 C130 0 130 13 130 13 C130 13 118 64 118 64 C118 64 164 226 164 226 C164 226 456 226 456 226 C456 226 444 269 444 269 C444 269 177 269 177 269 C177 269 309 734 309 734 C309 734 503 66 503 66 C503 66 492 13 492 13 C492 13 492 0 492 0 C492 0 522 0 522 0 C522 0 572 0 572 0 C572 0 621 0 621 0 C621 0 647 0 647 0 C647 0 647 13 647 13 C647 13 602 66 602 66 L602 66 Z " />
<glyph glyph-name="B" unicode="B" horiz-adv-x="586" d="M389 433 C463 456 515 520 515 597 C515 740 443 811 300 811 C300 811 209 811 209 811 C209 811 159 811 159 811 C159 811 109 811 109 811 C109 811 79 811 79 811 C79 811 79 798 79 798 C79 798 109 745 109 745 C109 745 109 66 109 66 C109 66 79 13 79 13 C79 13 79 0 79 0 C79 0 109 0 109 0 C109 0 159 0 159 0 C159 0 209 0 209 0 C209 0 337 0 337 0 C480 0 552 81 552 242 C552 341 481 422 389 433 C389 433 389 433 389 433 L389 433 Z M209 444 C209 444 209 769 209 769 C209 769 302 769 302 769 C375 769 411 709 411 589 C411 509 362 444 302 444 C302 444 209 444 209 444 L209 444 Z M209 42 C209 42 209 404 209 404 C209 404 331 403 331 403 C394 403 444 336 444 253 C444 113 403 43 322 43 C290 43 240 42 209 42 L209 42 Z " />
<glyph glyph-name="C" unicode="C" horiz-adv-x="588" d="M528 198 C528 107 448 34 347 34 C247 34 167 220 167 406 C167 591 247 777 347 777 C448 777 528 704 528 613 C528 613 568 646 568 646 C568 646 565 676 565 676 C565 676 565 676 565 676 C547 759 457 821 347 821 C187 821 59 613 59 406 C59 198 187 -10 347 -10 C470 -10 568 68 568 165 C568 165 528 198 528 198 L528 198 Z " />
<glyph glyph-name="D" unicode="D" horiz-adv-x="659" d="M159 0 C159 0 209 0 209 0 C209 0 305 0 305 0 C493 0 605 151 605 406 C605 653 477 811 275 811 C275 811 209 811 209 811 C209 811 159 811 159 811 C159 811 109 811 109 811 C109 811 79 811 79 811 C79 811 79 798 79 798 C79 798 109 745 109 745 C109 745 109 66 109 66 C109 66 79 13 79 13 C79 13 79 0 79 0 C79 0 109 0 109 0 C109 0 159 0 159 0 L159 0 Z M209 42 C209 42 209 769 209 769 C209 769 277 769 277 769 C411 769 497 628 497 406 C497 177 424 42 301 42 C301 42 209 42 209 42 L209 42 Z " />
<glyph glyph-name="E" unicode="E" horiz-adv-x="514" d="M464 22 C464 22 464 44 464 44 C464 44 464 74 464 74 C464 75 464 75 463 74 C456 75 451 75 451 74 C451 74 398 44 398 44 C398 44 209 44 209 44 C209 44 209 379 209 379 C209 379 363 379 363 379 C363 379 416 349 416 349 C416 349 429 349 429 349 C429 349 429 379 429 379 C429 379 429 401 429 401 C429 401 429 422 429 422 C429 422 429 452 429 452 C429 452 416 452 416 452 C416 452 363 422 363 422 C363 422 209 422 209 422 C209 422 209 767 209 767 C209 767 383 767 383 767 C383 767 436 737 436 737 C436 737 449 737 449 737 C449 737 449 767 449 767 C449 767 449 789 449 789 C449 789 449 811 449 811 C449 811 209 811 209 811 C209 811 208 811 208 811 C208 811 159 811 159 811 C159 811 109 811 109 811 C109 811 79 811 79 811 C79 811 79 798 79 798 C79 798 109 745 109 745 C109 745 109 66 109 66 C109 66 79 13 79 13 C79 13 79 0 79 0 C79 0 109 0 109 0 C109 0 159 0 159 0 C159 0 208 0 208 0 C208 0 209 0 209 0 C209 0 464 0 464 0 C464 0 464 22 464 22 L464 22 Z " />
<glyph glyph-name="F" unicode="F" horiz-adv-x="479" d="M353 379 C353 379 406 349 406 349 C406 349 419 349 419 349 C419 349 419 379 419 379 C419 379 419 401 419 401 C419 401 419 422 419 422 C419 422 419 452 419 452 C419 452 406 452 406 452 C406 452 353 422 353 422 C353 422 209 422 209 422 C209 422 209 767 209 767 C209 767 383 767 383 767 C383 767 436 737 436 737 C436 737 449 737 449 737 C449 737 449 767 449 767 C449 767 449 789 449 789 C449 789 449 811 449 811 C449 811 209 811 209 811 C209 811 208 811 208 811 C208 811 159 811 159 811 C159 811 109 811 109 811 C109 811 79 811 79 811 C79 811 79 798 79 798 C79 798 109 745 109 745 C109 745 109 66 109 66 C109 66 79 13 79 13 C79 13 79 0 79 0 C79 0 109 0 109 0 C109 0 159 0 159 0 C159 0 209 0 209 0 C209 0 239 0 239 0 C239 0 239 13 239 13 C239 13 209 66 209 66 C209 66 209 379 209 379 C209 379 353 379 353 379 L353 379 Z " />
<glyph glyph-name="G" unicode="G" horiz-adv-x="641" d="M374 385 C374 385 544 385 544 385 C544 385 544 126 544 126 C483 75 410 34 370 34 C257 34 167 199 167 406 C167 612 257 777 370 777 C463 777 537 704 537 613 C537 613 577 646 577 646 C577 646 577 676 577 676 C577 676 574 676 574 676 C566 715 544 749 511 774 C511 775 511 775 511 775 C511 775 511 775 511 775 C474 803 425 821 370 821 C197 821 59 636 59 406 C59 175 197 -10 370 -10 C429 -10 524 39 596 99 C596 99 596 430 596 430 C596 430 374 430 374 430 C374 430 374 385 374 385 L374 385 Z " />
<glyph glyph-name="H" unicode="H" horiz-adv-x="633" d="M483 0 C483 0 533 0 533 0 C533 0 563 0 563 0 C563 0 563 13 563 13 C563 13 533 66 533 66 C533 66 533 745 533 745 C533 745 563 798 563 798 C563 798 563 811 563 811 C563 811 533 811 533 811 C533 811 483 811 483 811 C483 811 433 811 433 811 C433 811 403 811 403 811 C403 811 403 798 403 798 C403 798 433 745 433 745 C433 745 433 433 433 433 C433 433 209 433 209 433 C209 433 209 745 209 745 C209 745 239 798 239 798 C239 798 239 811 239 811 C239 811 209 811 209 811 C209 811 159 811 159 811 C159 811 109 811 109 811 C109 811 79 811 79 811 C79 811 79 798 79 798 C79 798 109 745 109 745 C109 745 109 66 109 66 C109 66 79 13 79 13 C79 13 79 0 79 0 C79 0 109 0 109 0 C109 0 159 0 159 0 C159 0 209 0 209 0 C209 0 239 0 239 0 C239 0 239 13 239 13 C239 13 209 66 209 66 C209 66 209 389 209 389 C209 389 433 389 433 389 C433 389 433 66 433 66 C433 66 403 13 403 13 C403 13 403 0 403 0 C403 0 433 0 433 0 C433 0 483 0 483 0 L483 0 Z " />
<glyph glyph-name="I" unicode="I" horiz-adv-x="302" d="M152 0 C152 0 203 0 203 0 C203 0 232 0 232 0 C232 0 232 13 232 13 C232 13 203 66 203 66 C203 66 203 745 203 745 C203 745 232 798 232 798 C232 798 232 811 232 811 C232 811 203 811 203 811 C203 811 152 811 152 811 C152 811 102 811 102 811 C102 811 72 811 72 811 C72 811 72 798 72 798 C72 798 102 745 102 745 C102 745 102 66 102 66 C102 66 72 13 72 13 C72 13 72 0 72 0 C72 0 102 0 102 0 C102 0 152 0 152 0 L152 0 Z " />
<glyph glyph-name="J" unicode="J" horiz-adv-x="417" d="M56 281 C56 281 56 218 56 218 C56 72 106 -10 194 -10 C278 -10 332 100 332 238 C332 238 332 745 332 745 C332 745 362 798 362 798 C362 798 362 811 362 811 C362 811 332 811 332 811 C332 811 282 811 282 811 C282 811 232 811 232 811 C232 811 202 811 202 811 C202 811 202 798 202 798 C202 798 232 745 232 745 C232 745 232 238 232 238 C232 129 217 41 194 41 C170 41 156 115 156 246 C156 246 156 298 156 298 C156 298 56 281 56 281 L56 281 Z " />
<glyph glyph-name="K" unicode="K" horiz-adv-x="530" d="M497 811 C497 811 475 811 475 811 C475 811 445 811 445 811 C445 811 415 811 415 811 C415 811 385 811 385 811 C386 811 386 811 385 810 C386 803 386 798 385 798 C385 798 379 745 379 745 C379 745 194 408 194 408 C194 408 194 745 194 745 C194 745 224 798 224 798 C224 798 224 811 224 811 C224 811 194 811 194 811 C194 811 144 811 144 811 C144 811 94 811 94 811 C94 811 64 811 64 811 C64 811 64 798 64 798 C64 798 94 745 94 745 C94 745 94 66 94 66 C94 66 64 13 64 13 C64 13 64 0 64 0 C64 0 94 0 94 0 C94 0 144 0 144 0 C144 0 194 0 194 0 C194 0 224 0 224 0 C224 0 224 13 224 13 C224 13 194 66 194 66 C194 66 194 310 194 310 C194 310 288 478 288 478 C288 478 260 427 260 427 C260 427 390 66 390 66 C390 66 390 66 390 66 C390 66 384 13 384 13 C384 13 384 0 384 0 C384 0 414 0 414 0 C414 0 468 0 468 0 C468 0 521 0 521 0 C521 0 546 0 546 0 C546 0 546 13 546 13 C546 13 495 66 495 66 C495 66 495 66 495 66 C495 66 312 521 312 521 C312 521 438 745 438 745 C438 745 438 745 438 745 C438 745 497 798 497 798 C497 798 497 811 497 811 L497 811 Z " />
<glyph glyph-name="L" unicode="L" horiz-adv-x="452" d="M408 22 C408 22 408 44 408 44 C408 44 408 74 408 74 C408 75 407 75 406 74 C399 75 394 75 394 74 C394 74 342 44 342 44 C342 44 203 44 203 44 C203 44 203 745 203 745 C203 745 232 798 232 798 C232 798 232 811 232 811 C232 811 203 811 203 811 C203 811 152 811 152 811 C152 811 102 811 102 811 C102 811 72 811 72 811 C72 811 72 798 72 798 C72 798 102 745 102 745 C102 745 102 66 102 66 C102 66 72 13 72 13 C72 13 72 0 72 0 C72 0 102 0 102 0 C102 0 152 0 152 0 C152 0 203 0 203 0 C203 0 408 0 408 0 C408 0 408 22 408 22 L408 22 Z " />
<glyph glyph-name="M" unicode="M" horiz-adv-x="753" d="M605 0 C605 0 654 0 654 0 C654 0 683 0 683 0 C683 0 683 13 683 13 C683 13 654 66 654 66 C654 66 654 745 654 745 C654 745 683 798 683 798 C683 798 683 811 683 811 C683 811 654 811 654 811 C654 811 605 811 605 811 C605 811 575 811 575 811 C575 811 557 811 557 811 C557 811 524 811 524 811 C524 811 386 471 386 471 C386 471 246 811 246 811 C246 811 173 811 173 811 C173 811 153 811 153 811 C153 811 147 811 147 811 C147 811 121 811 121 811 C121 811 91 811 91 811 C91 811 91 798 91 798 C91 798 121 745 121 745 C121 745 121 66 121 66 C121 66 91 13 91 13 C91 13 91 0 91 0 C91 0 121 0 121 0 C121 0 147 0 147 0 C147 0 173 0 173 0 C173 0 203 0 203 0 C204 0 204 1 203 1 C204 8 204 13 203 13 C203 13 173 66 173 66 C173 66 173 764 173 764 C173 764 321 413 321 413 C321 413 363 413 363 413 C363 413 410 413 410 413 C410 413 412 413 412 413 C412 413 557 767 557 767 C557 767 557 66 557 66 C557 66 527 13 527 13 C527 13 527 0 527 0 C527 0 557 0 557 0 C557 0 605 0 605 0 L605 0 Z " />
<glyph glyph-name="N" unicode="N" horiz-adv-x="559" d="M405 745 C405 745 405 135 405 135 C405 135 220 811 220 811 C220 811 175 811 175 811 C175 811 148 811 148 811 C148 811 120 811 120 811 C120 811 90 811 90 811 C90 811 90 798 90 798 C90 798 120 745 120 745 C120 745 120 66 120 66 C120 66 90 13 90 13 C90 13 90 0 90 0 C90 0 120 0 120 0 C120 0 148 0 148 0 C148 0 175 0 175 0 C175 0 205 0 205 0 C205 0 205 13 205 13 C205 13 175 66 175 66 C175 66 175 611 175 611 C175 611 343 0 343 0 C343 0 405 0 405 0 C405 0 442 0 442 0 C442 0 460 0 460 0 C460 0 460 745 460 745 C460 745 490 798 490 798 C490 798 490 811 490 811 C490 811 460 811 460 811 C460 811 433 811 433 811 C433 811 405 811 405 811 C405 811 375 811 375 811 C375 811 375 798 375 798 C375 798 405 745 405 745 L405 745 Z " />
<glyph glyph-name="O" unicode="O" horiz-adv-x="694" d="M352 34 C252 34 172 199 172 406 C172 602 257 777 352 777 C446 777 531 602 531 406 C531 199 451 34 352 34 L352 34 Z M64 406 C64 175 192 -10 352 -10 C511 -10 639 175 639 406 C639 625 503 821 352 821 C200 821 64 625 64 406 L64 406 Z " />
<glyph glyph-name="P" unicode="P" horiz-adv-x="518" d="M159 0 C159 0 209 0 209 0 C209 0 239 0 239 0 C239 0 239 13 239 13 C239 13 209 66 209 66 C209 66 209 326 209 326 C209 326 249 326 249 326 C392 326 484 420 484 568 C484 716 392 811 249 811 C249 811 209 811 209 811 C209 811 159 811 159 811 C159 811 134 811 134 811 C134 811 109 811 109 811 C109 811 79 811 79 811 C79 811 79 798 79 798 C79 798 109 745 109 745 C109 745 109 66 109 66 C109 66 79 13 79 13 C79 13 79 0 79 0 C79 0 109 0 109 0 C109 0 159 0 159 0 L159 0 Z M209 368 C209 368 209 769 209 769 C209 769 246 769 246 769 C331 769 384 691 384 568 C384 446 332 368 251 368 C251 368 209 368 209 368 L209 368 Z " />
<glyph glyph-name="Q" unicode="Q" horiz-adv-x="694" d="M64 406 C64 175 192 -10 352 -10 C385 -10 417 -2 447 13 C447 13 526 -90 526 -90 C526 -90 576 -25 576 -25 C576 -25 500 49 500 49 C583 121 639 254 639 406 C639 625 503 821 352 821 C200 821 64 625 64 406 C64 406 64 406 64 406 L64 406 Z M414 56 C394 42 374 34 352 34 C252 34 172 199 172 406 C172 602 257 777 352 777 C446 777 531 602 531 406 C531 276 499 162 451 96 C451 96 398 147 398 147 C398 147 371 112 371 112 C371 112 414 56 414 56 L414 56 Z " />
<glyph glyph-name="R" unicode="R" horiz-adv-x="533" d="M530 13 C530 13 473 66 473 66 C473 66 473 66 473 66 C473 66 325 351 325 351 C325 351 300 351 300 351 C414 369 484 450 484 568 C484 716 392 811 249 811 C249 811 209 811 209 811 C209 811 159 811 159 811 C159 811 134 811 134 811 C134 811 109 811 109 811 C109 811 79 811 79 811 C79 811 79 798 79 798 C79 798 109 745 109 745 C109 745 109 66 109 66 C109 66 79 13 79 13 C79 13 79 0 79 0 C79 0 109 0 109 0 C109 0 159 0 159 0 C159 0 209 0 209 0 C209 0 239 0 239 0 C239 0 239 13 239 13 C239 13 209 66 209 66 C209 66 209 347 209 347 C209 347 212 347 212 347 C212 347 392 0 392 0 C392 0 449 0 449 0 C449 0 507 0 507 0 C507 0 530 0 530 0 C530 0 530 13 530 13 L530 13 Z M209 389 C209 389 209 769 209 769 C209 769 246 769 246 769 C331 769 384 691 384 568 C384 459 332 389 250 389 C250 389 209 389 209 389 L209 389 Z " />
<glyph glyph-name="S" unicode="S" horiz-adv-x="476" d="M54 142 C70 48 157 -10 263 -10 C372 -10 442 95 442 227 C442 328 368 422 252 468 C188 494 148 546 148 602 C148 697 175 773 210 773 C297 773 366 722 366 643 C366 643 385 660 385 660 C385 660 385 660 385 660 C385 660 404 678 404 678 C404 678 400 708 400 708 C400 708 400 708 400 708 C392 741 370 768 339 788 C339 788 339 788 339 788 C339 788 339 788 339 788 C305 809 260 821 210 821 C118 821 44 719 44 591 C44 498 114 411 225 367 C296 338 341 282 341 223 C341 120 311 38 263 38 C172 38 99 103 99 204 C99 204 52 172 52 172 C52 172 52 142 52 142 C52 142 54 142 54 142 L54 142 Z " />
<glyph glyph-name="T" unicode="T" horiz-adv-x="513" d="M257 0 C257 0 307 0 307 0 C307 0 337 0 337 0 C336 0 336 1 337 1 C336 8 336 13 337 13 C337 13 307 66 307 66 C307 66 307 767 307 767 C307 767 418 767 418 767 C418 767 471 737 471 737 C471 737 484 737 484 737 C484 737 484 767 484 767 C484 767 484 789 484 789 C484 789 484 811 484 811 C484 811 307 811 307 811 C307 811 206 811 206 811 C206 811 29 811 29 811 C29 811 29 789 29 789 C29 789 29 767 29 767 C29 767 29 737 29 737 C29 737 42 737 42 737 C42 737 95 767 95 767 C95 767 206 767 206 767 C206 767 206 66 206 66 C206 66 176 13 176 13 C176 13 176 0 176 0 C176 0 206 0 206 0 C206 0 256 0 256 0 C256 0 257 0 257 0 L257 0 Z " />
<glyph glyph-name="U" unicode="U" horiz-adv-x="601" d="M102 745 C102 745 102 315 102 315 C102 116 181 -10 304 -10 C428 -10 507 117 507 317 C507 317 507 745 507 745 C507 745 537 798 537 798 C537 798 537 811 537 811 C537 811 507 811 507 811 C507 811 480 811 480 811 C480 811 452 811 452 811 C452 811 422 811 422 811 C422 811 422 798 422 798 C422 798 452 745 452 745 C452 745 452 326 452 326 C452 152 395 41 304 41 C242 41 202 154 202 332 C202 332 202 745 202 745 C202 745 232 798 232 798 C232 798 232 811 232 811 C232 811 202 811 202 811 C202 811 152 811 152 811 C152 811 102 811 102 811 C102 811 72 811 72 811 C72 811 72 798 72 798 C72 798 102 745 102 745 L102 745 Z " />
<glyph glyph-name="V" unicode="V" horiz-adv-x="555" d="M63 745 C63 745 63 745 63 745 C63 745 223 0 223 0 C223 0 268 0 268 0 C268 0 316 0 316 0 C316 0 318 0 318 0 C318 0 476 745 476 745 C476 745 518 798 518 798 C518 798 518 811 518 811 C518 811 490 811 490 811 C490 811 461 811 461 811 C461 811 432 811 432 811 C432 811 402 811 402 811 C402 811 402 798 402 798 C402 798 419 746 419 746 C419 746 292 121 292 121 C292 121 170 745 170 745 C170 745 170 745 170 745 C170 745 187 798 187 798 C187 798 187 811 187 811 C187 811 157 811 157 811 C157 811 103 811 103 811 C103 811 49 811 49 811 C49 811 22 811 22 811 C22 811 22 798 22 798 C22 798 63 745 63 745 L63 745 Z " />
<glyph glyph-name="W" unicode="W" horiz-adv-x="754" d="M630 745 C630 745 630 745 630 745 C630 745 542 87 542 87 C542 87 452 294 452 294 C452 294 408 294 408 294 C408 294 355 294 355 294 C355 294 268 87 268 87 C268 87 182 746 182 746 C182 746 204 798 204 798 C204 798 204 811 204 811 C204 811 174 811 174 811 C174 811 120 811 120 811 C120 811 66 811 66 811 C66 811 38 811 38 811 C38 811 38 798 38 798 C38 798 75 745 75 745 C75 745 76 745 76 745 C76 745 183 0 183 0 C183 0 231 0 231 0 C231 0 279 0 279 0 C279 0 381 233 381 233 C381 233 482 0 482 0 C482 0 530 0 530 0 C530 0 579 0 579 0 C579 0 687 745 687 745 C687 745 688 745 688 745 C688 745 725 798 725 798 C726 798 726 803 725 809 C726 810 726 811 725 811 C725 811 697 811 697 811 C697 811 668 811 668 811 C668 811 639 811 639 811 C639 811 609 811 609 811 C609 811 609 798 609 798 C609 798 630 745 630 745 L630 745 Z " />
<glyph glyph-name="X" unicode="X" horiz-adv-x="584" d="M440 745 C440 745 440 745 440 745 C440 745 321 506 321 506 C321 506 229 746 229 746 C229 746 234 798 234 798 C234 798 234 811 234 811 C234 811 204 811 204 811 C204 811 156 811 156 811 C156 811 108 811 108 811 C108 811 83 811 83 811 C83 811 83 798 83 798 C83 798 133 745 133 745 C133 745 133 745 133 745 C133 745 266 397 266 397 C266 397 101 66 101 66 C101 66 45 13 45 13 C45 13 45 0 45 0 C45 0 68 0 68 0 C68 0 96 0 96 0 C96 0 124 0 124 0 C124 0 154 0 154 0 C154 0 154 13 154 13 C154 13 157 66 157 66 C157 66 157 66 157 66 C157 66 291 333 291 333 C291 333 393 66 393 66 C393 66 388 13 388 13 C388 13 388 0 388 0 C388 0 418 0 418 0 C418 0 466 0 466 0 C466 0 515 0 515 0 C515 0 539 0 539 0 C539 0 539 13 539 13 C539 13 490 65 490 65 C490 65 345 443 345 443 C345 443 496 745 496 745 C496 745 552 798 552 798 C552 798 552 811 552 811 C552 811 529 811 529 811 C529 811 501 811 501 811 C501 811 473 811 473 811 C473 811 443 811 443 811 C443 811 443 798 443 798 C443 798 440 745 440 745 L440 745 Z " />
<glyph glyph-name="Y" unicode="Y" horiz-adv-x="567" d="M440 745 C440 745 440 745 440 745 C440 745 315 426 315 426 C315 426 187 746 187 746 C187 746 191 798 191 798 C190 798 190 803 191 810 C190 811 190 811 191 811 C191 811 161 811 161 811 C161 811 113 811 113 811 C113 811 65 811 65 811 C65 811 41 811 41 811 C40 811 40 810 41 809 C40 803 40 798 41 798 C41 798 92 745 92 745 C92 745 92 745 92 745 C92 745 247 369 247 369 C247 369 247 66 247 66 C247 66 217 13 217 13 C217 13 217 0 217 0 C217 0 247 0 247 0 C247 0 297 0 297 0 C297 0 347 0 347 0 C347 0 377 0 377 0 C377 0 377 13 377 13 C377 13 347 66 347 66 C347 66 347 382 347 382 C347 382 492 745 492 745 C492 745 492 745 492 745 C492 745 543 798 543 798 C543 798 543 811 543 811 C543 811 518 811 518 811 C518 811 492 811 492 811 C492 811 466 811 466 811 C466 811 436 811 436 811 C436 811 436 798 436 798 C436 798 440 745 440 745 L440 745 Z " />
<glyph glyph-name="Z" unicode="Z" horiz-adv-x="535" d="M490 22 C490 22 490 44 490 44 C490 44 490 74 490 74 C490 75 489 75 489 74 C482 75 477 75 477 74 C477 74 424 44 424 44 C424 44 148 44 148 44 C148 44 490 767 490 767 C490 767 490 811 490 811 C490 811 60 811 60 811 C60 811 60 789 60 789 C60 789 60 767 60 767 C60 767 60 737 60 737 C60 737 73 737 73 737 C73 737 126 767 126 767 C126 767 386 767 386 767 C386 767 45 44 45 44 C45 44 45 0 45 0 C45 0 490 0 490 0 C490 0 490 22 490 22 L490 22 Z " />
<glyph glyph-name="bracketleft" unicode="&#x5b;" horiz-adv-x="269" d="M188 760 C188 760 240 760 240 760 C240 760 240 811 240 811 C240 811 188 811 188 811 C188 811 129 811 129 811 C129 811 129 -115 129 -115 C129 -115 188 -115 188 -115 C188 -115 240 -115 240 -115 C240 -115 240 -64 240 -64 C240 -64 188 -64 188 -64 C188 -64 188 760 188 760 L188 760 Z " />
<glyph glyph-name="backslash" unicode="&#x5c;" horiz-adv-x="329" d="M290 0 C290 0 329 0 329 0 C329 0 39 811 39 811 C39 811 0 811 0 811 C0 811 290 0 290 0 L290 0 Z " />
<glyph glyph-name="bracketright" unicode="&#x5d;" horiz-adv-x="265" d="M82 760 C82 760 82 -64 82 -64 C82 -64 30 -64 30 -64 C30 -64 30 -115 30 -115 C30 -115 82 -115 82 -115 C82 -115 141 -115 141 -115 C141 -115 141 811 141 811 C141 811 82 811 82 811 C82 811 30 811 30 811 C30 811 30 760 30 760 C30 760 82 760 82 760 L82 760 Z " />
<glyph glyph-name="underscore" unicode="&#x5f;" horiz-adv-x="560" d="M50 -127 C50 -127 510 -127 510 -127 C510 -127 510 -73 510 -73 C510 -73 50 -73 50 -73 C50 -73 50 -127 50 -127 L50 -127 Z " />
<glyph glyph-name="a" unicode="a" horiz-adv-x="430" d="M70 447 C70 447 114 432 114 432 C114 498 158 551 212 551 C242 551 265 510 265 428 C265 428 265 409 265 409 C265 315 218 276 158 273 C96 269 47 200 47 117 C47 46 85 -10 162 -10 C206 -10 244 15 265 76 C265 76 265 74 265 74 C265 8 280 0 400 0 C400 0 400 66 400 66 C360 66 355 67 355 74 C355 74 355 390 355 390 C355 524 292 591 212 591 C133 591 70 527 70 447 L70 447 Z M265 288 C265 288 265 161 265 161 C259 63 221 24 177 24 C150 24 136 67 136 120 C136 186 159 240 187 242 C218 244 246 258 265 288 L265 288 Z " />
<glyph glyph-name="b" unicode="b" horiz-adv-x="478" d="M268 37 C211 37 166 129 166 291 C166 457 213 551 271 551 C304 551 331 435 331 291 C331 150 303 37 268 37 L268 37 Z M121 0 C121 0 166 0 166 0 C166 0 166 125 166 125 C191 37 236 -10 287 -10 C366 -10 429 124 429 291 C429 457 366 591 287 591 C236 591 191 544 166 456 C166 456 166 801 166 801 C166 801 166 811 166 811 C166 811 121 811 121 811 C121 811 77 811 77 811 C77 811 47 811 47 811 C47 811 47 798 47 798 C47 798 77 745 77 745 C77 745 77 66 77 66 C77 66 47 13 47 13 C47 13 47 0 47 0 C47 0 77 0 77 0 C77 0 121 0 121 0 L121 0 Z " />
<glyph glyph-name="c" unicode="c" horiz-adv-x="425" d="M352 151 C352 84 308 30 253 30 C198 30 154 124 154 291 C154 458 198 553 253 553 C319 553 352 491 352 413 C352 413 395 434 395 434 C395 434 393 464 393 464 C393 464 393 464 393 464 C387 510 366 549 330 571 C330 571 330 571 330 571 C330 571 330 571 330 571 C309 584 284 591 253 591 C144 591 57 482 57 291 C57 99 144 -10 253 -10 C332 -10 396 52 396 130 C396 130 352 151 352 151 L352 151 Z " />
<glyph glyph-name="d" unicode="d" horiz-adv-x="483" d="M57 291 C57 124 121 -10 201 -10 C253 -10 299 47 324 134 C324 134 324 10 324 10 C324 10 324 0 324 0 C324 0 369 0 369 0 C369 0 414 0 414 0 C414 0 444 0 444 0 C443 0 443 1 444 1 C443 8 443 13 444 13 C444 13 414 66 414 66 C414 66 414 801 414 801 C414 801 414 811 414 811 C414 811 369 811 369 811 C369 811 324 811 324 811 C324 811 294 811 294 811 C294 811 294 798 294 798 C294 798 324 745 324 745 C324 745 324 448 324 448 C299 534 253 591 201 591 C121 591 57 457 57 291 C57 291 57 291 57 291 L57 291 Z M324 291 C324 146 276 30 217 30 C182 30 154 146 154 291 C154 435 182 551 217 551 C276 551 324 435 324 291 L324 291 Z " />
<glyph glyph-name="e" unicode="e" horiz-adv-x="431" d="M356 148 C356 83 300 30 229 30 C189 30 157 115 154 267 C154 267 415 267 415 267 C415 447 355 591 236 591 C136 591 57 482 57 291 C57 99 134 -10 229 -10 C325 -10 402 53 402 131 C402 131 356 148 356 148 L356 148 Z M154 301 C155 462 191 553 236 553 C291 553 321 444 325 301 C325 301 154 301 154 301 L154 301 Z " />
<glyph glyph-name="f" unicode="f" horiz-adv-x="338" d="M113 0 C113 0 158 0 158 0 C158 0 188 0 188 0 C189 0 189 1 188 1 C189 8 189 13 188 13 C188 13 158 66 158 66 C158 66 158 543 158 543 C158 543 268 543 268 543 C268 543 268 581 268 581 C268 581 158 581 158 581 C158 581 158 679 158 679 C158 740 169 771 191 771 C191 771 202 771 202 771 C202 771 255 741 255 741 C255 741 268 741 268 741 C268 741 268 771 268 771 C268 771 268 791 268 791 C268 791 268 811 268 811 C268 811 178 811 178 811 C105 811 69 767 69 679 C69 679 69 581 69 581 C69 581 30 581 30 581 C30 581 30 543 30 543 C30 543 69 543 69 543 C69 543 69 66 69 66 C69 66 39 13 39 13 C39 13 39 0 39 0 C39 0 69 0 69 0 C69 0 113 0 113 0 L113 0 Z " />
<glyph glyph-name="g" unicode="g" horiz-adv-x="473" d="M68 -75 C68 -142 143 -175 236 -175 C348 -175 404 -80 404 38 C404 38 404 515 404 515 C404 515 434 568 434 568 C433 568 433 573 434 580 C433 581 433 581 434 581 C434 581 404 581 404 581 C404 581 359 581 359 581 C359 581 314 581 314 581 C314 581 314 450 314 450 C289 535 246 591 196 591 C119 591 57 491 57 291 C57 97 119 0 196 0 C246 0 289 54 314 136 C314 136 314 0 314 0 C314 -75 287 -135 232 -135 C170 -135 121 -115 121 -75 C121 -75 68 -75 68 -75 L68 -75 Z M212 551 C269 551 314 435 314 291 C314 151 269 40 212 40 C180 40 154 124 154 291 C154 464 180 551 212 551 L212 551 Z " />
<glyph glyph-name="h" unicode="h" horiz-adv-x="443" d="M314 0 C314 0 358 0 358 0 C358 0 388 0 388 0 C388 0 388 13 388 13 C388 13 358 66 358 66 C358 66 358 376 358 376 C358 504 318 586 269 586 C232 586 199 550 181 496 C181 496 181 801 181 801 C181 801 181 811 181 811 C181 811 136 811 136 811 C136 811 114 811 114 811 C114 811 92 811 92 811 C92 811 62 811 62 811 C62 811 62 798 62 798 C62 798 92 745 92 745 C92 745 92 66 92 66 C92 66 62 13 62 13 C62 13 62 0 62 0 C62 0 92 0 92 0 C92 0 136 0 136 0 C136 0 181 0 181 0 C181 0 211 0 211 0 C212 0 212 1 211 1 C212 8 212 13 211 13 C211 13 181 66 181 66 C181 66 181 392 181 392 C181 475 212 542 250 542 C260 542 269 477 269 376 C269 376 269 66 269 66 C269 66 239 13 239 13 C239 13 239 0 239 0 C239 0 269 0 269 0 C269 0 314 0 314 0 L314 0 Z " />
<glyph glyph-name="i" unicode="i" horiz-adv-x="271" d="M93 661 C93 661 191 661 191 661 C191 661 191 759 191 759 C191 759 93 759 93 759 C93 759 93 661 93 661 L93 661 Z M142 0 C142 0 187 0 187 0 C187 0 217 0 217 0 C217 0 217 13 217 13 C217 13 187 66 187 66 C187 66 187 571 187 571 C187 571 187 581 187 581 C187 581 142 581 142 581 C142 581 97 581 97 581 C97 581 67 581 67 581 C67 581 67 568 67 568 C67 568 97 515 97 515 C97 515 97 66 97 66 C97 66 67 13 67 13 C67 13 67 0 67 0 C67 0 97 0 97 0 C97 0 142 0 142 0 L142 0 Z " />
<glyph glyph-name="j" unicode="j" horiz-adv-x="166" d="M3 661 C3 661 101 661 101 661 C101 661 101 759 101 759 C101 759 3 759 3 759 C3 759 3 661 3 661 L3 661 Z M-27 -75 C-27 -75 -27 -115 -27 -115 C63 -114 97 -82 97 0 C97 0 97 571 97 571 C97 571 97 581 97 581 C97 581 52 581 52 581 C52 581 7 581 7 581 C7 581 -23 581 -23 581 C-23 581 -23 568 -23 568 C-23 568 7 515 7 515 C7 515 7 0 7 0 C7 -54 -7 -75 -43 -75 C-43 -75 -27 -75 -27 -75 L-27 -75 Z " />
<glyph glyph-name="k" unicode="k" horiz-adv-x="396" d="M362 66 C362 66 362 66 362 66 C362 66 242 390 242 390 C242 390 309 515 309 515 C309 515 309 515 309 515 C309 515 367 568 367 568 C367 568 367 581 367 581 C367 581 344 581 344 581 C344 581 328 581 328 581 C328 581 313 581 313 581 C313 581 283 581 283 581 C282 581 282 581 283 580 C282 573 282 568 283 568 C283 568 278 516 278 516 C278 516 166 307 166 307 C166 307 166 801 166 801 C166 801 166 811 166 811 C166 811 121 811 121 811 C121 811 99 811 99 811 C99 811 77 811 77 811 C77 811 47 811 47 811 C47 811 47 798 47 798 C47 798 77 745 77 745 C77 745 77 66 77 66 C77 66 47 13 47 13 C47 13 47 0 47 0 C47 0 77 0 77 0 C77 0 121 0 121 0 C121 0 166 0 166 0 C166 0 196 0 196 0 C197 0 197 1 196 1 C197 8 197 13 196 13 C196 13 166 66 166 66 C166 66 166 247 166 247 C166 247 196 304 196 304 C196 304 288 0 288 0 C288 0 337 0 337 0 C337 0 386 0 386 0 C386 0 411 0 411 0 C411 0 411 13 411 13 C411 13 362 66 362 66 L362 66 Z " />
<glyph glyph-name="l" unicode="l" horiz-adv-x="301" d="M157 0 C157 0 202 0 202 0 C202 0 232 0 232 0 C232 0 232 13 232 13 C232 13 202 66 202 66 C202 66 202 801 202 801 C202 801 202 811 202 811 C202 811 157 811 157 811 C157 811 112 811 112 811 C112 811 82 811 82 811 C82 811 82 798 82 798 C82 798 112 745 112 745 C112 745 112 66 112 66 C112 66 82 13 82 13 C82 13 82 0 82 0 C82 0 112 0 112 0 C112 0 157 0 157 0 L157 0 Z " />
<glyph glyph-name="m" unicode="m" horiz-adv-x="594" d="M469 0 C469 0 514 0 514 0 C514 0 544 0 544 0 C545 0 545 1 544 1 C545 8 545 13 544 13 C544 13 514 66 514 66 C514 66 514 376 514 376 C514 504 474 586 425 586 C386 586 352 538 338 470 C324 543 292 586 256 586 C225 586 197 553 181 503 C181 503 181 571 181 571 C181 571 181 581 181 581 C181 581 136 581 136 581 C136 581 114 581 114 581 C114 581 92 581 92 581 C92 581 62 581 62 581 C62 581 62 568 62 568 C62 568 92 515 92 515 C92 515 92 66 92 66 C92 66 62 13 62 13 C62 13 62 0 62 0 C62 0 92 0 92 0 C92 0 136 0 136 0 C136 0 181 0 181 0 C181 0 211 0 211 0 C212 0 212 1 211 1 C212 8 212 13 211 13 C211 13 181 66 181 66 C181 66 181 392 181 392 C181 475 206 542 237 542 C248 542 256 477 256 376 C256 376 256 66 256 66 C256 66 226 13 226 13 C226 13 226 0 226 0 C226 0 256 0 256 0 C256 0 301 0 301 0 C301 0 346 0 346 0 C346 0 376 0 376 0 C376 0 376 13 376 13 C376 13 346 66 346 66 C346 66 346 376 346 376 C346 381 346 387 346 392 C346 392 346 392 346 392 C346 475 373 542 406 542 C416 542 425 477 425 376 C425 376 425 66 425 66 C425 66 395 13 395 13 C395 13 395 0 395 0 C395 0 425 0 425 0 C425 0 469 0 469 0 L469 0 Z " />
<glyph glyph-name="n" unicode="n" horiz-adv-x="438" d="M314 0 C314 0 358 0 358 0 C358 0 388 0 388 0 C388 0 388 13 388 13 C388 13 358 66 358 66 C358 66 358 376 358 376 C358 504 317 586 266 586 C224 586 188 548 168 492 C168 492 168 571 168 571 C168 571 168 581 168 581 C168 581 123 581 123 581 C123 581 101 581 101 581 C101 581 79 581 79 581 C79 581 49 581 49 581 C49 581 49 568 49 568 C49 568 79 515 79 515 C79 515 79 66 79 66 C79 66 49 13 49 13 C49 13 49 0 49 0 C49 0 79 0 79 0 C79 0 123 0 123 0 C123 0 168 0 168 0 C168 0 198 0 198 0 C199 0 199 1 198 1 C199 8 199 13 198 13 C198 13 168 66 168 66 C168 66 168 392 168 392 C168 475 203 542 247 542 C259 542 269 477 269 376 C269 376 269 66 269 66 C269 66 239 13 239 13 C239 13 239 0 239 0 C239 0 269 0 269 0 C269 0 314 0 314 0 L314 0 Z " />
<glyph glyph-name="o" unicode="o" horiz-adv-x="457" d="M225 26 C171 26 141 144 141 291 C141 459 178 555 225 555 C279 555 309 437 309 291 C309 122 272 26 225 26 L225 26 Z M44 291 C44 124 109 -10 225 -10 C326 -10 407 99 407 291 C407 457 341 591 225 591 C125 591 44 482 44 291 L44 291 Z " />
<glyph glyph-name="p" unicode="p" horiz-adv-x="480" d="M273 30 C215 30 168 124 168 291 C168 457 215 551 273 551 C306 551 333 435 333 291 C333 146 306 30 273 30 L273 30 Z M123 -155 C123 -155 168 -155 168 -155 C168 -155 198 -155 198 -155 C199 -155 199 -154 198 -154 C199 -147 199 -142 198 -142 C198 -142 168 -89 168 -89 C168 -89 168 125 168 125 C193 37 238 -10 289 -10 C368 -10 431 124 431 291 C431 457 368 591 289 591 C238 591 193 544 168 456 C168 456 168 571 168 571 C168 571 168 581 168 581 C168 581 123 581 123 581 C123 581 101 581 101 581 C101 581 79 581 79 581 C79 581 49 581 49 581 C49 581 49 568 49 568 C49 568 79 515 79 515 C79 515 79 -89 79 -89 C79 -89 49 -142 49 -142 C49 -142 49 -155 49 -155 C49 -155 79 -155 79 -155 C79 -155 123 -155 123 -155 L123 -155 Z " />
<glyph glyph-name="q" unicode="q" horiz-adv-x="498" d="M57 291 C57 124 121 -10 201 -10 C253 -10 299 47 324 134 C324 134 324 -89 324 -89 C324 -89 294 -142 294 -142 C294 -142 294 -155 294 -155 C294 -155 324 -155 324 -155 C324 -155 369 -155 369 -155 C369 -155 414 -155 414 -155 C414 -155 444 -155 444 -155 C443 -155 443 -154 444 -154 C443 -147 443 -142 444 -142 C444 -142 414 -89 414 -89 C414 -89 414 515 414 515 C414 515 444 568 444 568 C443 568 443 573 444 580 C443 581 443 581 444 581 C444 581 414 581 414 581 C414 581 369 581 369 581 C369 581 324 581 324 581 C324 581 324 448 324 448 C299 534 253 591 201 591 C121 591 57 457 57 291 C57 291 57 291 57 291 L57 291 Z M324 291 C324 146 276 30 217 30 C182 30 154 146 154 291 C154 435 182 551 217 551 C276 551 324 435 324 291 L324 291 Z " />
<glyph glyph-name="r" unicode="r" horiz-adv-x="267" d="M247 528 C247 528 247 581 247 581 C247 581 243 581 243 581 C215 581 194 544 181 485 C181 485 181 571 181 571 C181 571 181 581 181 581 C181 581 136 581 136 581 C136 581 114 581 114 581 C114 581 92 581 92 581 C92 581 62 581 62 581 C62 581 62 568 62 568 C62 568 92 515 92 515 C92 515 92 66 92 66 C92 66 62 13 62 13 C62 13 62 0 62 0 C62 0 92 0 92 0 C92 0 136 0 136 0 C136 0 181 0 181 0 C181 0 211 0 211 0 C212 0 212 1 211 1 C212 8 212 13 211 13 C211 13 181 66 181 66 C181 66 181 302 181 302 C181 428 200 528 239 528 C239 528 247 528 247 528 L247 528 Z " />
<glyph glyph-name="s" unicode="s" horiz-adv-x="390" d="M46 106 C55 73 77 43 108 23 C108 23 108 23 108 23 C108 23 108 23 108 23 C136 5 170 -5 207 -5 C292 -5 360 68 360 158 C360 221 304 294 215 331 C175 347 150 390 150 430 C150 497 173 550 201 550 C255 550 298 494 298 425 C298 425 318 434 318 434 C318 434 338 443 338 443 C338 443 335 473 335 473 C335 473 335 473 335 473 C327 512 304 545 272 565 C272 566 272 566 272 566 C272 566 272 566 272 566 C251 579 227 586 201 586 C126 586 65 513 65 423 C65 357 115 283 194 251 C241 231 271 189 271 151 C271 85 243 33 207 33 C140 33 86 86 86 153 C86 153 42 136 42 136 C42 136 46 106 46 106 C46 106 46 106 46 106 L46 106 Z " />
<glyph glyph-name="t" unicode="t" horiz-adv-x="225" d="M195 581 C195 581 138 581 138 581 C138 581 138 807 138 807 C138 807 48 732 48 732 C48 732 48 581 48 581 C48 581 10 581 10 581 C10 581 10 543 10 543 C10 543 48 543 48 543 C48 543 48 142 48 142 C48 43 56 0 122 0 C122 0 195 0 195 0 C195 0 195 40 195 40 C195 40 143 40 143 40 C139 40 138 71 138 142 C138 142 138 543 138 543 C138 543 195 543 195 543 C195 543 195 581 195 581 L195 581 Z " />
<glyph glyph-name="u" unicode="u" horiz-adv-x="447" d="M363 66 C363 66 363 581 363 581 C363 581 318 581 318 581 C318 581 273 581 273 581 C273 581 243 581 243 581 C243 581 243 568 243 568 C243 568 273 515 273 515 C273 515 273 144 273 144 C273 83 242 34 202 34 C183 34 176 94 176 189 C176 189 176 581 176 581 C176 581 131 581 131 581 C131 581 87 581 87 581 C87 581 57 581 57 581 C57 581 57 568 57 568 C57 568 87 515 87 515 C87 515 87 189 87 189 C87 67 115 -10 187 -10 C224 -10 256 21 273 67 C273 67 273 10 273 10 C273 10 273 0 273 0 C273 0 318 0 318 0 C318 0 363 0 363 0 C363 0 393 0 393 0 C393 0 393 13 393 13 C393 13 363 66 363 66 L363 66 Z " />
<glyph glyph-name="v" unicode="v" horiz-adv-x="424" d="M45 515 C45 515 46 515 46 515 C46 515 152 0 152 0 C152 0 198 0 198 0 C198 0 230 0 230 0 C230 0 241 0 241 0 C241 0 349 515 349 515 C349 515 350 515 350 515 C350 515 391 568 391 568 C391 568 391 581 391 581 C391 581 363 581 363 581 C363 581 336 581 336 581 C336 581 308 581 308 581 C308 581 278 581 278 581 C278 581 278 568 278 568 C278 568 296 516 296 516 C296 516 215 90 215 90 C215 90 144 515 144 515 C144 515 163 568 163 568 C163 568 163 581 163 581 C163 581 133 581 133 581 C133 581 82 581 82 581 C82 581 32 581 32 581 C32 581 4 581 4 581 C4 581 4 568 4 568 C4 568 45 515 45 515 L45 515 Z " />
<glyph glyph-name="w" unicode="w" horiz-adv-x="686" d="M611 515 C611 515 611 515 611 515 C611 515 651 568 651 568 C651 568 651 581 651 581 C651 581 624 581 624 581 C624 581 598 581 598 581 C598 581 572 581 572 581 C572 581 542 581 542 581 C542 581 542 568 542 568 C542 568 561 516 561 516 C561 516 481 56 481 56 C481 56 393 341 393 341 C393 341 355 341 355 341 C355 341 315 341 315 341 C315 341 312 341 312 341 C312 341 227 62 227 62 C227 62 160 516 160 516 C160 516 180 568 180 568 C180 568 180 581 180 581 C180 581 151 581 151 581 C151 581 103 581 103 581 C103 581 55 581 55 581 C55 581 28 581 28 581 C27 581 27 580 28 579 C27 573 27 568 28 568 C28 568 67 516 67 516 C67 516 166 0 166 0 C166 0 208 0 208 0 C208 0 236 0 236 0 C236 0 247 0 247 0 C247 0 335 279 335 279 C335 279 428 0 428 0 C428 0 471 0 471 0 C471 0 498 0 498 0 C498 0 509 0 509 0 C509 0 611 515 611 515 L611 515 Z " />
<glyph glyph-name="x" unicode="x" horiz-adv-x="428" d="M272 515 C272 515 272 515 272 515 C272 515 219 402 219 402 C219 402 171 515 171 515 C171 515 173 568 173 568 C173 568 173 581 173 581 C173 581 143 581 143 581 C143 581 94 581 94 581 C94 581 46 581 46 581 C46 581 21 581 21 581 C21 581 21 568 21 568 C21 568 74 515 74 515 C74 515 74 515 74 515 C74 515 168 293 168 293 C168 293 62 66 62 66 C62 66 7 13 7 13 C7 13 7 0 7 0 C7 0 31 0 31 0 C31 0 58 0 58 0 C58 0 84 0 84 0 C84 0 114 0 114 0 C114 0 114 13 114 13 C114 13 115 66 115 66 C115 66 115 66 115 66 C115 66 194 234 194 234 C194 234 265 66 265 66 C265 66 263 13 263 13 C263 13 263 0 263 0 C263 0 293 0 293 0 C293 0 342 0 342 0 C342 0 391 0 391 0 C391 0 415 0 415 0 C415 0 415 13 415 13 C415 13 363 66 363 66 C363 66 363 66 363 66 C363 66 245 343 245 343 C245 343 325 515 325 515 C325 515 326 515 326 515 C326 515 380 568 380 568 C380 568 380 581 380 581 C380 581 356 581 356 581 C356 581 330 581 330 581 C330 581 303 581 303 581 C303 581 273 581 273 581 C273 581 273 568 273 568 C273 568 272 515 272 515 L272 515 Z " />
<glyph glyph-name="y" unicode="y" horiz-adv-x="415" d="M58 515 C58 515 58 515 58 515 C58 515 190 -18 190 -18 C190 -18 185 -40 185 -40 C166 -125 150 -157 127 -157 C127 -157 77 -157 77 -157 C77 -157 77 -200 77 -200 C77 -200 127 -200 127 -200 C173 -200 200 -161 224 -59 C224 -59 357 515 357 515 C357 515 357 515 357 515 C357 515 399 568 399 568 C399 568 399 581 399 581 C399 581 372 581 372 581 C372 581 345 581 345 581 C345 581 317 581 317 581 C317 581 287 581 287 581 C287 581 287 568 287 568 C287 568 303 515 303 515 C303 515 220 125 220 125 C220 125 154 515 154 515 C154 515 173 568 173 568 C173 568 173 581 173 581 C173 581 143 581 143 581 C143 581 92 581 92 581 C92 581 42 581 42 581 C42 581 15 581 15 581 C15 581 15 568 15 568 C15 568 58 515 58 515 L58 515 Z " />
<glyph glyph-name="z" unicode="z" horiz-adv-x="340" d="M45 581 C45 581 45 562 45 562 C45 562 45 543 45 543 C45 543 45 513 45 513 C45 513 58 513 58 513 C58 513 111 543 111 543 C111 543 196 543 196 543 C196 543 30 30 30 30 C30 30 30 0 30 0 C30 0 320 0 320 0 C320 0 320 19 320 19 C320 19 320 38 320 38 C320 38 320 68 320 68 C320 68 307 68 307 68 C307 68 254 38 254 38 C254 38 132 38 132 38 C132 38 135 39 135 39 C135 39 304 551 304 551 C304 551 304 581 304 581 C304 581 45 581 45 581 L45 581 Z " />
<glyph glyph-name="braceleft" unicode="&#x7b;" horiz-adv-x="255" d="M225 811 C225 811 197 811 197 811 C159 811 129 777 129 734 C129 734 129 432 129 432 C129 397 98 370 59 370 C59 370 55 370 55 370 C55 370 55 327 55 327 C55 327 59 327 59 327 C98 327 129 299 129 264 C129 264 129 -38 129 -38 C129 -81 159 -115 197 -115 C197 -115 225 -115 225 -115 C225 -115 225 -64 225 -64 C225 -64 197 -64 197 -64 C192 -64 188 -52 188 -38 C188 -38 188 253 188 253 C188 291 158 332 119 348 C158 364 188 405 188 443 C188 443 188 734 188 734 C188 748 192 760 197 760 C197 760 225 760 225 760 C225 760 225 811 225 811 L225 811 Z " />
<glyph glyph-name="bar" unicode="&#x7c;" horiz-adv-x="148" d="M45 861 C45 861 45 -250 45 -250 C45 -250 104 -250 104 -250 C104 -250 104 861 104 861 C104 861 45 861 45 861 L45 861 Z " />
<glyph glyph-name="braceright" unicode="&#x7d;" horiz-adv-x="255" d="M30 811 C30 811 58 811 58 811 C96 811 126 777 126 734 C126 734 126 432 126 432 C126 397 157 370 196 370 C196 370 200 370 200 370 C200 370 200 327 200 327 C200 327 196 327 196 327 C157 327 126 299 126 264 C126 264 126 -38 126 -38 C126 -81 96 -115 58 -115 C58 -115 30 -115 30 -115 C30 -115 30 -64 30 -64 C30 -64 58 -64 58 -64 C63 -64 67 -52 67 -38 C67 -38 68 253 68 253 C67 291 97 332 137 348 C97 364 67 405 68 443 C67 442 67 572 67 734 C67 748 63 760 58 760 C58 760 30 760 30 760 C30 760 30 811 30 811 L30 811 Z " />
<glyph glyph-name="[namenotfound]" unicode="&#xa0;" horiz-adv-x="88" d="" />
<glyph glyph-name="exclamdown" unicode="&#xa1;" horiz-adv-x="195" d="M147 581 C147 581 49 581 49 581 C49 581 49 483 49 483 C49 483 147 483 147 483 C147 483 147 581 147 581 L147 581 Z M151 -230 C151 -230 151 105 151 105 C151 105 111 380 111 380 C111 380 84 380 84 380 C84 380 45 105 45 105 C45 105 45 -230 45 -230 C45 -230 151 -230 151 -230 L151 -230 Z " />
<glyph glyph-name="cent" unicode="&#xa2;" horiz-adv-x="421" d="M222 656 C222 656 222 588 222 588 C128 570 57 465 57 291 C57 117 128 11 222 -7 C222 -7 222 -75 222 -75 C222 -75 280 -75 280 -75 C280 -75 280 -7 280 -7 C344 6 392 62 392 130 C392 130 348 151 348 151 C348 97 320 51 280 35 C280 35 280 544 280 544 C298 532 313 510 326 482 C313 470 305 450 305 426 C305 390 329 361 360 361 C384 361 398 389 391 424 C376 504 337 570 280 587 C280 587 280 656 280 656 C280 656 222 656 222 656 L222 656 Z M222 40 C182 68 154 155 154 291 C154 427 182 515 222 543 C222 543 222 40 222 40 L222 40 Z " />
<glyph glyph-name="guillemotleft" unicode="&#xab;" horiz-adv-x="365" d="M223 525 C223 525 167 291 167 291 C167 291 223 56 223 56 C223 56 301 56 301 56 C301 56 245 291 245 291 C245 291 301 525 301 525 C301 525 223 525 223 525 L223 525 Z M131 525 C131 525 75 291 75 291 C75 291 131 56 131 56 C131 56 210 56 210 56 C210 56 154 291 154 291 C154 291 210 525 210 525 C210 525 131 525 131 525 L131 525 Z " />
<glyph glyph-name="logicalnot" unicode="&#xac;" horiz-adv-x="328" d="M279 114 C279 114 279 264 279 264 C279 264 279 305 279 305 C279 305 230 305 230 305 C230 305 50 305 50 305 C50 305 50 264 50 264 C50 264 230 264 230 264 C230 264 230 114 230 114 C230 114 279 114 279 114 L279 114 Z " />
<glyph glyph-name="periodcentered" unicode="&#xb7;" horiz-adv-x="197" d="M50 242 C50 242 148 242 148 242 C148 242 148 339 148 339 C148 339 50 339 50 339 C50 339 50 242 50 242 L50 242 Z " />
<glyph glyph-name="guillemotright" unicode="&#xbb;" horiz-adv-x="347" d="M160 525 C160 525 216 291 216 291 C216 291 160 56 160 56 C160 56 238 56 238 56 C238 56 294 291 294 291 C294 291 238 525 238 525 C238 525 160 525 160 525 L160 525 Z M68 525 C68 525 124 291 124 291 C124 291 68 56 68 56 C68 56 147 56 147 56 C147 56 203 291 203 291 C203 291 147 525 147 525 C147 525 68 525 68 525 L68 525 Z " />
<glyph glyph-name="questiondown" unicode="&#xbf;" horiz-adv-x="429" d="M265 581 C265 581 167 581 167 581 C167 581 167 483 167 483 C167 483 265 483 265 483 C265 483 265 581 265 581 L265 581 Z M408 -23 C408 -23 322 -8 322 -8 C314 -98 264 -170 210 -170 C165 -170 129 -103 129 -20 C129 47 149 92 190 115 C244 145 259 204 259 380 C259 380 173 380 173 380 C173 239 163 193 127 173 C66 139 35 74 35 -20 C35 -142 113 -240 210 -240 C310 -240 398 -144 408 -23 L408 -23 Z " />
<glyph glyph-name="Agrave" unicode="&#xc0;" horiz-adv-x="646" d="M295 891 C295 891 377 891 377 891 C377 891 364 1041 364 1041 C364 1041 247 1041 247 1041 C247 1041 295 891 295 891 L295 891 Z M602 66 C602 66 602 66 602 66 C602 66 384 811 384 811 C384 811 331 811 331 811 C331 811 305 811 305 811 C305 811 287 811 287 811 C287 811 279 811 279 811 C279 811 249 811 249 811 C249 811 249 798 249 798 C249 798 260 745 260 745 C260 745 64 66 64 66 C64 66 64 66 64 66 C64 66 19 13 19 13 C19 13 19 0 19 0 C19 0 45 0 45 0 C45 0 73 0 73 0 C73 0 100 0 100 0 C100 0 130 0 130 0 C130 0 130 13 130 13 C130 13 118 64 118 64 C118 64 164 226 164 226 C164 226 456 226 456 226 C456 226 444 269 444 269 C444 269 177 269 177 269 C177 269 309 734 309 734 C309 734 503 66 503 66 C503 66 492 13 492 13 C492 13 492 0 492 0 C492 0 522 0 522 0 C522 0 572 0 572 0 C572 0 621 0 621 0 C621 0 647 0 647 0 C647 0 647 13 647 13 C647 13 602 66 602 66 L602 66 Z " />
<glyph glyph-name="Aacute" unicode="&#xc1;" horiz-adv-x="646" d="M295 891 C295 891 377 891 377 891 C377 891 424 1041 424 1041 C424 1041 307 1041 307 1041 C307 1041 295 891 295 891 L295 891 Z M602 66 C602 66 602 66 602 66 C602 66 384 811 384 811 C384 811 331 811 331 811 C331 811 305 811 305 811 C305 811 287 811 287 811 C287 811 279 811 279 811 C279 811 249 811 249 811 C249 811 249 798 249 798 C249 798 260 745 260 745 C260 745 64 66 64 66 C64 66 64 66 64 66 C64 66 19 13 19 13 C19 13 19 0 19 0 C19 0 45 0 45 0 C45 0 73 0 73 0 C73 0 100 0 100 0 C100 0 130 0 130 0 C130 0 130 13 130 13 C130 13 118 64 118 64 C118 64 164 226 164 226 C164 226 456 226 456 226 C456 226 444 269 444 269 C444 269 177 269 177 269 C177 269 309 734 309 734 C309 734 503 66 503 66 C503 66 492 13 492 13 C492 13 492 0 492 0 C492 0 522 0 522 0 C522 0 572 0 572 0 C572 0 621 0 621 0 C621 0 647 0 647 0 C647 0 647 13 647 13 C647 13 602 66 602 66 L602 66 Z " />
<glyph glyph-name="Acircumflex" unicode="&#xc2;" horiz-adv-x="646" d="M336 971 C336 971 384 891 384 891 C384 891 467 891 467 891 C467 891 381 1041 381 1041 C381 1041 290 1041 290 1041 C290 1041 205 891 205 891 C205 891 287 891 287 891 C287 891 336 971 336 971 L336 971 Z M602 66 C602 66 602 66 602 66 C602 66 384 811 384 811 C384 811 331 811 331 811 C331 811 305 811 305 811 C305 811 287 811 287 811 C287 811 279 811 279 811 C279 811 249 811 249 811 C249 811 249 798 249 798 C249 798 260 745 260 745 C260 745 64 66 64 66 C64 66 64 66 64 66 C64 66 19 13 19 13 C19 13 19 0 19 0 C19 0 45 0 45 0 C45 0 73 0 73 0 C73 0 100 0 100 0 C100 0 130 0 130 0 C130 0 130 13 130 13 C130 13 118 64 118 64 C118 64 164 226 164 226 C164 226 456 226 456 226 C456 226 444 269 444 269 C444 269 177 269 177 269 C177 269 309 734 309 734 C309 734 503 66 503 66 C503 66 492 13 492 13 C492 13 492 0 492 0 C492 0 522 0 522 0 C522 0 572 0 572 0 C572 0 621 0 621 0 C621 0 647 0 647 0 C647 0 647 13 647 13 C647 13 602 66 602 66 L602 66 Z " />
<glyph glyph-name="Atilde" unicode="&#xc3;" horiz-adv-x="646" d="M304 891 C304 929 309 959 316 959 C362 959 305 881 361 881 C402 881 434 942 434 1019 C434 1019 368 1019 368 1019 C368 981 362 951 355 951 C309 951 366 1029 310 1029 C270 1029 237 968 237 891 C237 891 304 891 304 891 L304 891 Z M602 66 C602 66 602 66 602 66 C602 66 384 811 384 811 C384 811 331 811 331 811 C331 811 305 811 305 811 C305 811 287 811 287 811 C287 811 279 811 279 811 C279 811 249 811 249 811 C249 811 249 798 249 798 C249 798 260 745 260 745 C260 745 64 66 64 66 C64 66 64 66 64 66 C64 66 19 13 19 13 C19 13 19 0 19 0 C19 0 45 0 45 0 C45 0 73 0 73 0 C73 0 100 0 100 0 C100 0 130 0 130 0 C130 0 130 13 130 13 C130 13 118 64 118 64 C118 64 164 226 164 226 C164 226 456 226 456 226 C456 226 444 269 444 269 C444 269 177 269 177 269 C177 269 309 734 309 734 C309 734 503 66 503 66 C503 66 492 13 492 13 C492 13 492 0 492 0 C492 0 522 0 522 0 C522 0 572 0 572 0 C572 0 621 0 621 0 C621 0 647 0 647 0 C647 0 647 13 647 13 C647 13 602 66 602 66 L602 66 Z " />
<glyph glyph-name="Adieresis" unicode="&#xc4;" horiz-adv-x="646" d="M353 891 C353 891 451 891 451 891 C451 891 451 989 451 989 C451 989 353 989 353 989 C353 989 353 891 353 891 L353 891 Z M220 891 C220 891 318 891 318 891 C318 891 318 989 318 989 C318 989 220 989 220 989 C220 989 220 891 220 891 L220 891 Z M602 66 C602 66 602 66 602 66 C602 66 384 811 384 811 C384 811 331 811 331 811 C331 811 305 811 305 811 C305 811 287 811 287 811 C287 811 279 811 279 811 C279 811 249 811 249 811 C249 811 249 798 249 798 C249 798 260 745 260 745 C260 745 64 66 64 66 C64 66 64 66 64 66 C64 66 19 13 19 13 C19 13 19 0 19 0 C19 0 45 0 45 0 C45 0 73 0 73 0 C73 0 100 0 100 0 C100 0 130 0 130 0 C130 0 130 13 130 13 C130 13 118 64 118 64 C118 64 164 226 164 226 C164 226 456 226 456 226 C456 226 444 269 444 269 C444 269 177 269 177 269 C177 269 309 734 309 734 C309 734 503 66 503 66 C503 66 492 13 492 13 C492 13 492 0 492 0 C492 0 522 0 522 0 C522 0 572 0 572 0 C572 0 621 0 621 0 C621 0 647 0 647 0 C647 0 647 13 647 13 C647 13 602 66 602 66 L602 66 Z " />
<glyph glyph-name="Aring" unicode="&#xc5;" horiz-adv-x="646" d="M336 933 C311 933 296 950 296 976 C296 1002 312 1020 336 1020 C359 1020 375 1002 375 976 C375 950 360 933 336 933 L336 933 Z M252 976 C252 924 285 891 336 891 C387 891 420 924 420 976 C420 1026 385 1061 336 1061 C287 1061 252 1026 252 976 L252 976 Z M602 66 C602 66 602 66 602 66 C602 66 384 811 384 811 C384 811 331 811 331 811 C331 811 305 811 305 811 C305 811 287 811 287 811 C287 811 279 811 279 811 C279 811 249 811 249 811 C249 811 249 798 249 798 C249 798 260 745 260 745 C260 745 64 66 64 66 C64 66 64 66 64 66 C64 66 19 13 19 13 C19 13 19 0 19 0 C19 0 45 0 45 0 C45 0 73 0 73 0 C73 0 100 0 100 0 C100 0 130 0 130 0 C130 0 130 13 130 13 C130 13 118 64 118 64 C118 64 164 226 164 226 C164 226 456 226 456 226 C456 226 444 269 444 269 C444 269 177 269 177 269 C177 269 309 734 309 734 C309 734 503 66 503 66 C503 66 492 13 492 13 C492 13 492 0 492 0 C492 0 522 0 522 0 C522 0 572 0 572 0 C572 0 621 0 621 0 C621 0 647 0 647 0 C647 0 647 13 647 13 C647 13 602 66 602 66 L602 66 Z " />
<glyph glyph-name="Ccedilla" unicode="&#xc7;" horiz-adv-x="588" d="M528 198 C528 107 448 34 347 34 C247 34 167 220 167 406 C167 591 247 777 347 777 C448 777 528 704 528 613 C528 613 568 646 568 646 C568 646 568 676 568 676 C568 676 565 676 565 676 C547 759 457 821 347 821 C187 821 59 613 59 406 C59 218 163 30 302 -4 C302 -4 274 -103 274 -103 C274 -103 288 -111 288 -111 C291 -103 294 -96 295 -96 C299 -96 303 -118 303 -146 C303 -174 298 -196 292 -196 C292 -196 288 -182 283 -164 C283 -164 264 -179 264 -179 C273 -212 287 -239 295 -239 C328 -239 354 -198 354 -146 C354 -105 329 -72 299 -72 C299 -72 318 -8 318 -8 C327 -9 337 -10 347 -10 C470 -10 568 68 568 165 C568 165 528 198 528 198 L528 198 Z " />
<glyph glyph-name="Egrave" unicode="&#xc8;" horiz-adv-x="514" d="M238 891 C238 891 320 891 320 891 C320 891 308 1041 308 1041 C308 1041 190 1041 190 1041 C190 1041 238 891 238 891 L238 891 Z M464 22 C464 22 464 44 464 44 C464 44 464 74 464 74 C464 75 464 75 463 74 C456 75 451 75 451 74 C451 74 398 44 398 44 C398 44 209 44 209 44 C209 44 209 379 209 379 C209 379 363 379 363 379 C363 379 416 349 416 349 C416 349 429 349 429 349 C429 349 429 379 429 379 C429 379 429 401 429 401 C429 401 429 422 429 422 C429 422 429 452 429 452 C429 452 416 452 416 452 C416 452 363 422 363 422 C363 422 209 422 209 422 C209 422 209 767 209 767 C209 767 383 767 383 767 C383 767 436 737 436 737 C436 737 449 737 449 737 C449 737 449 767 449 767 C449 767 449 789 449 789 C449 789 449 811 449 811 C449 811 209 811 209 811 C209 811 208 811 208 811 C208 811 159 811 159 811 C159 811 109 811 109 811 C109 811 79 811 79 811 C79 811 79 798 79 798 C79 798 109 745 109 745 C109 745 109 66 109 66 C109 66 79 13 79 13 C79 13 79 0 79 0 C79 0 109 0 109 0 C109 0 159 0 159 0 C159 0 208 0 208 0 C208 0 209 0 209 0 C209 0 464 0 464 0 C464 0 464 22 464 22 L464 22 Z " />
<glyph glyph-name="Eacute" unicode="&#xc9;" horiz-adv-x="514" d="M238 891 C238 891 320 891 320 891 C320 891 368 1041 368 1041 C368 1041 250 1041 250 1041 C250 1041 238 891 238 891 L238 891 Z M464 22 C464 22 464 44 464 44 C464 44 464 74 464 74 C464 75 464 75 463 74 C456 75 451 75 451 74 C451 74 398 44 398 44 C398 44 209 44 209 44 C209 44 209 379 209 379 C209 379 363 379 363 379 C363 379 416 349 416 349 C416 349 429 349 429 349 C429 349 429 379 429 379 C429 379 429 401 429 401 C429 401 429 422 429 422 C429 422 429 452 429 452 C429 452 416 452 416 452 C416 452 363 422 363 422 C363 422 209 422 209 422 C209 422 209 767 209 767 C209 767 383 767 383 767 C383 767 436 737 436 737 C436 737 449 737 449 737 C449 737 449 767 449 767 C449 767 449 789 449 789 C449 789 449 811 449 811 C449 811 209 811 209 811 C209 811 208 811 208 811 C208 811 159 811 159 811 C159 811 109 811 109 811 C109 811 79 811 79 811 C79 811 79 798 79 798 C79 798 109 745 109 745 C109 745 109 66 109 66 C109 66 79 13 79 13 C79 13 79 0 79 0 C79 0 109 0 109 0 C109 0 159 0 159 0 C159 0 208 0 208 0 C208 0 209 0 209 0 C209 0 464 0 464 0 C464 0 464 22 464 22 L464 22 Z " />
<glyph glyph-name="Ecircumflex" unicode="&#xca;" horiz-adv-x="514" d="M279 971 C279 971 328 891 328 891 C328 891 410 891 410 891 C410 891 324 1041 324 1041 C324 1041 234 1041 234 1041 C234 1041 148 891 148 891 C148 891 230 891 230 891 C230 891 279 971 279 971 L279 971 Z M464 22 C464 22 464 44 464 44 C464 44 464 74 464 74 C464 75 464 75 463 74 C456 75 451 75 451 74 C451 74 398 44 398 44 C398 44 209 44 209 44 C209 44 209 379 209 379 C209 379 363 379 363 379 C363 379 416 349 416 349 C416 349 429 349 429 349 C429 349 429 379 429 379 C429 379 429 401 429 401 C429 401 429 422 429 422 C429 422 429 452 429 452 C429 452 416 452 416 452 C416 452 363 422 363 422 C363 422 209 422 209 422 C209 422 209 767 209 767 C209 767 383 767 383 767 C383 767 436 737 436 737 C436 737 449 737 449 737 C449 737 449 767 449 767 C449 767 449 789 449 789 C449 789 449 811 449 811 C449 811 209 811 209 811 C209 811 208 811 208 811 C208 811 159 811 159 811 C159 811 109 811 109 811 C109 811 79 811 79 811 C79 811 79 798 79 798 C79 798 109 745 109 745 C109 745 109 66 109 66 C109 66 79 13 79 13 C79 13 79 0 79 0 C79 0 109 0 109 0 C109 0 159 0 159 0 C159 0 208 0 208 0 C208 0 209 0 209 0 C209 0 464 0 464 0 C464 0 464 22 464 22 L464 22 Z " />
<glyph glyph-name="Edieresis" unicode="&#xcb;" horiz-adv-x="514" d="M297 891 C297 891 394 891 394 891 C394 891 394 989 394 989 C394 989 297 989 297 989 C297 989 297 891 297 891 L297 891 Z M164 891 C164 891 262 891 262 891 C262 891 262 989 262 989 C262 989 164 989 164 989 C164 989 164 891 164 891 L164 891 Z M464 22 C464 22 464 44 464 44 C464 44 464 74 464 74 C464 75 464 75 463 74 C456 75 451 75 451 74 C451 74 398 44 398 44 C398 44 209 44 209 44 C209 44 209 379 209 379 C209 379 363 379 363 379 C363 379 416 349 416 349 C416 349 429 349 429 349 C429 349 429 379 429 379 C429 379 429 401 429 401 C429 401 429 422 429 422 C429 422 429 452 429 452 C429 452 416 452 416 452 C416 452 363 422 363 422 C363 422 209 422 209 422 C209 422 209 767 209 767 C209 767 383 767 383 767 C383 767 436 737 436 737 C436 737 449 737 449 737 C449 737 449 767 449 767 C449 767 449 789 449 789 C449 789 449 811 449 811 C449 811 209 811 209 811 C209 811 208 811 208 811 C208 811 159 811 159 811 C159 811 109 811 109 811 C109 811 79 811 79 811 C79 811 79 798 79 798 C79 798 109 745 109 745 C109 745 109 66 109 66 C109 66 79 13 79 13 C79 13 79 0 79 0 C79 0 109 0 109 0 C109 0 159 0 159 0 C159 0 208 0 208 0 C208 0 209 0 209 0 C209 0 464 0 464 0 C464 0 464 22 464 22 L464 22 Z " />
<glyph glyph-name="Igrave" unicode="&#xcc;" horiz-adv-x="302" d="M111 891 C111 891 193 891 193 891 C193 891 181 1041 181 1041 C181 1041 64 1041 64 1041 C64 1041 111 891 111 891 L111 891 Z M152 0 C152 0 203 0 203 0 C203 0 232 0 232 0 C232 0 232 13 232 13 C232 13 203 66 203 66 C203 66 203 745 203 745 C203 745 232 798 232 798 C232 798 232 811 232 811 C232 811 203 811 203 811 C203 811 152 811 152 811 C152 811 102 811 102 811 C102 811 72 811 72 811 C72 811 72 798 72 798 C72 798 102 745 102 745 C102 745 102 66 102 66 C102 66 72 13 72 13 C72 13 72 0 72 0 C72 0 102 0 102 0 C102 0 152 0 152 0 L152 0 Z " />
<glyph glyph-name="Iacute" unicode="&#xcd;" horiz-adv-x="302" d="M111 891 C111 891 193 891 193 891 C193 891 241 1041 241 1041 C241 1041 124 1041 124 1041 C124 1041 111 891 111 891 L111 891 Z M152 0 C152 0 203 0 203 0 C203 0 232 0 232 0 C232 0 232 13 232 13 C232 13 203 66 203 66 C203 66 203 745 203 745 C203 745 232 798 232 798 C232 798 232 811 232 811 C232 811 203 811 203 811 C203 811 152 811 152 811 C152 811 102 811 102 811 C102 811 72 811 72 811 C72 811 72 798 72 798 C72 798 102 745 102 745 C102 745 102 66 102 66 C102 66 72 13 72 13 C72 13 72 0 72 0 C72 0 102 0 102 0 C102 0 152 0 152 0 L152 0 Z " />
<glyph glyph-name="Icircumflex" unicode="&#xce;" horiz-adv-x="302" d="M152 971 C152 971 201 891 201 891 C201 891 283 891 283 891 C283 891 198 1041 198 1041 C198 1041 107 1041 107 1041 C107 1041 21 891 21 891 C21 891 103 891 103 891 C103 891 152 971 152 971 L152 971 Z M152 0 C152 0 203 0 203 0 C203 0 232 0 232 0 C232 0 232 13 232 13 C232 13 203 66 203 66 C203 66 203 745 203 745 C203 745 232 798 232 798 C232 798 232 811 232 811 C232 811 203 811 203 811 C203 811 152 811 152 811 C152 811 102 811 102 811 C102 811 72 811 72 811 C72 811 72 798 72 798 C72 798 102 745 102 745 C102 745 102 66 102 66 C102 66 72 13 72 13 C72 13 72 0 72 0 C72 0 102 0 102 0 C102 0 152 0 152 0 L152 0 Z " />
<glyph glyph-name="Idieresis" unicode="&#xcf;" horiz-adv-x="302" d="M170 891 C170 891 268 891 268 891 C268 891 268 989 268 989 C268 989 170 989 170 989 C170 989 170 891 170 891 L170 891 Z M37 891 C37 891 135 891 135 891 C135 891 135 989 135 989 C135 989 37 989 37 989 C37 989 37 891 37 891 L37 891 Z M152 0 C152 0 203 0 203 0 C203 0 232 0 232 0 C232 0 232 13 232 13 C232 13 203 66 203 66 C203 66 203 745 203 745 C203 745 232 798 232 798 C232 798 232 811 232 811 C232 811 203 811 203 811 C203 811 152 811 152 811 C152 811 102 811 102 811 C102 811 72 811 72 811 C72 811 72 798 72 798 C72 798 102 745 102 745 C102 745 102 66 102 66 C102 66 72 13 72 13 C72 13 72 0 72 0 C72 0 102 0 102 0 C102 0 152 0 152 0 L152 0 Z " />
<glyph glyph-name="Ntilde" unicode="&#xd1;" horiz-adv-x="559" d="M258 891 C258 929 264 959 271 959 C316 959 260 881 315 881 C356 881 389 942 389 1019 C389 1019 322 1019 322 1019 C322 981 316 951 309 951 C264 951 320 1029 265 1029 C224 1029 192 968 192 891 C192 891 258 891 258 891 L258 891 Z M405 745 C405 745 405 135 405 135 C405 135 220 811 220 811 C220 811 175 811 175 811 C175 811 148 811 148 811 C148 811 120 811 120 811 C120 811 90 811 90 811 C90 811 90 798 90 798 C90 798 120 745 120 745 C120 745 120 66 120 66 C120 66 90 13 90 13 C90 13 90 0 90 0 C90 0 120 0 120 0 C120 0 148 0 148 0 C148 0 175 0 175 0 C175 0 205 0 205 0 C205 0 205 13 205 13 C205 13 175 66 175 66 C175 66 175 611 175 611 C175 611 343 0 343 0 C343 0 405 0 405 0 C405 0 442 0 442 0 C442 0 460 0 460 0 C460 0 460 745 460 745 C460 745 490 798 490 798 C490 798 490 811 490 811 C490 811 460 811 460 811 C460 811 433 811 433 811 C433 811 405 811 405 811 C405 811 375 811 375 811 C375 811 375 798 375 798 C375 798 405 745 405 745 L405 745 Z " />
<glyph glyph-name="Ograve" unicode="&#xd2;" horiz-adv-x="694" d="M310 891 C310 891 393 891 393 891 C393 891 380 1041 380 1041 C380 1041 263 1041 263 1041 C263 1041 310 891 310 891 L310 891 Z M352 34 C252 34 172 199 172 406 C172 602 257 777 352 777 C446 777 531 602 531 406 C531 199 451 34 352 34 L352 34 Z M64 406 C64 175 192 -10 352 -10 C511 -10 639 175 639 406 C639 625 503 821 352 821 C200 821 64 625 64 406 L64 406 Z " />
<glyph glyph-name="Oacute" unicode="&#xd3;" horiz-adv-x="694" d="M310 891 C310 891 393 891 393 891 C393 891 440 1041 440 1041 C440 1041 323 1041 323 1041 C323 1041 310 891 310 891 L310 891 Z M352 34 C252 34 172 199 172 406 C172 602 257 777 352 777 C446 777 531 602 531 406 C531 199 451 34 352 34 L352 34 Z M64 406 C64 175 192 -10 352 -10 C511 -10 639 175 639 406 C639 625 503 821 352 821 C200 821 64 625 64 406 L64 406 Z " />
<glyph glyph-name="Ocircumflex" unicode="&#xd4;" horiz-adv-x="694" d="M352 971 C352 971 400 891 400 891 C400 891 483 891 483 891 C483 891 397 1041 397 1041 C397 1041 306 1041 306 1041 C306 1041 221 891 221 891 C221 891 303 891 303 891 C303 891 352 971 352 971 L352 971 Z M352 34 C252 34 172 199 172 406 C172 602 257 777 352 777 C446 777 531 602 531 406 C531 199 451 34 352 34 L352 34 Z M64 406 C64 175 192 -10 352 -10 C511 -10 639 175 639 406 C639 625 503 821 352 821 C200 821 64 625 64 406 L64 406 Z " />
<glyph glyph-name="Otilde" unicode="&#xd5;" horiz-adv-x="694" d="M320 891 C320 929 325 959 332 959 C378 959 321 881 377 881 C418 881 450 942 450 1019 C450 1019 384 1019 384 1019 C384 981 378 951 371 951 C325 951 382 1029 326 1029 C286 1029 253 968 253 891 C253 891 320 891 320 891 L320 891 Z M352 34 C252 34 172 199 172 406 C172 602 257 777 352 777 C446 777 531 602 531 406 C531 199 451 34 352 34 L352 34 Z M64 406 C64 175 192 -10 352 -10 C511 -10 639 175 639 406 C639 625 503 821 352 821 C200 821 64 625 64 406 L64 406 Z " />
<glyph glyph-name="Odieresis" unicode="&#xd6;" horiz-adv-x="694" d="M369 891 C369 891 467 891 467 891 C467 891 467 989 467 989 C467 989 369 989 369 989 C369 989 369 891 369 891 L369 891 Z M236 891 C236 891 334 891 334 891 C334 891 334 989 334 989 C334 989 236 989 236 989 C236 989 236 891 236 891 L236 891 Z M352 34 C252 34 172 199 172 406 C172 602 257 777 352 777 C446 777 531 602 531 406 C531 199 451 34 352 34 L352 34 Z M64 406 C64 175 192 -10 352 -10 C511 -10 639 175 639 406 C639 625 503 821 352 821 C200 821 64 625 64 406 L64 406 Z " />
<glyph glyph-name="Oslash" unicode="&#xd8;" horiz-adv-x="694" d="M352 34 C300 34 253 79 220 151 C220 151 502 601 502 601 C520 544 531 476 531 406 C531 199 451 34 352 34 C352 34 352 34 352 34 L352 34 Z M64 406 C64 294 94 192 144 118 C144 118 64 -10 64 -10 C64 -10 120 -10 120 -10 C120 -10 175 77 175 77 C223 23 285 -10 352 -10 C511 -10 639 175 639 406 C639 512 607 613 557 689 C557 689 639 821 639 821 C639 821 583 821 583 821 C583 821 526 730 526 730 C477 786 416 821 352 821 C200 821 64 625 64 406 C64 406 64 406 64 406 L64 406 Z M200 207 C182 264 172 333 172 406 C172 602 257 777 352 777 C401 777 447 730 481 657 C481 657 200 207 200 207 L200 207 Z " />
<glyph glyph-name="Ugrave" unicode="&#xd9;" horiz-adv-x="601" d="M263 881 C263 881 345 881 345 881 C345 881 333 1031 333 1031 C333 1031 216 1031 216 1031 C216 1031 263 881 263 881 L263 881 Z M102 745 C102 745 102 315 102 315 C102 116 181 -10 304 -10 C428 -10 507 117 507 317 C507 317 507 745 507 745 C507 745 537 798 537 798 C537 798 537 811 537 811 C537 811 507 811 507 811 C507 811 480 811 480 811 C480 811 452 811 452 811 C452 811 422 811 422 811 C422 811 422 798 422 798 C422 798 452 745 452 745 C452 745 452 326 452 326 C452 152 395 41 304 41 C242 41 202 154 202 332 C202 332 202 745 202 745 C202 745 232 798 232 798 C232 798 232 811 232 811 C232 811 202 811 202 811 C202 811 152 811 152 811 C152 811 102 811 102 811 C102 811 72 811 72 811 C72 811 72 798 72 798 C72 798 102 745 102 745 L102 745 Z " />
<glyph glyph-name="Uacute" unicode="&#xda;" horiz-adv-x="601" d="M263 881 C263 881 345 881 345 881 C345 881 393 1031 393 1031 C393 1031 276 1031 276 1031 C276 1031 263 881 263 881 L263 881 Z M102 745 C102 745 102 315 102 315 C102 116 181 -10 304 -10 C428 -10 507 117 507 317 C507 317 507 745 507 745 C507 745 537 798 537 798 C537 798 537 811 537 811 C537 811 507 811 507 811 C507 811 480 811 480 811 C480 811 452 811 452 811 C452 811 422 811 422 811 C422 811 422 798 422 798 C422 798 452 745 452 745 C452 745 452 326 452 326 C452 152 395 41 304 41 C242 41 202 154 202 332 C202 332 202 745 202 745 C202 745 232 798 232 798 C232 798 232 811 232 811 C232 811 202 811 202 811 C202 811 152 811 152 811 C152 811 102 811 102 811 C102 811 72 811 72 811 C72 811 72 798 72 798 C72 798 102 745 102 745 L102 745 Z " />
<glyph glyph-name="Ucircumflex" unicode="&#xdb;" horiz-adv-x="601" d="M304 961 C304 961 353 881 353 881 C353 881 435 881 435 881 C435 881 350 1031 350 1031 C350 1031 259 1031 259 1031 C259 1031 173 881 173 881 C173 881 255 881 255 881 C255 881 304 961 304 961 L304 961 Z M102 745 C102 745 102 315 102 315 C102 116 181 -10 304 -10 C428 -10 507 117 507 317 C507 317 507 745 507 745 C507 745 537 798 537 798 C537 798 537 811 537 811 C537 811 507 811 507 811 C507 811 480 811 480 811 C480 811 452 811 452 811 C452 811 422 811 422 811 C422 811 422 798 422 798 C422 798 452 745 452 745 C452 745 452 326 452 326 C452 152 395 41 304 41 C242 41 202 154 202 332 C202 332 202 745 202 745 C202 745 232 798 232 798 C232 798 232 811 232 811 C232 811 202 811 202 811 C202 811 152 811 152 811 C152 811 102 811 102 811 C102 811 72 811 72 811 C72 811 72 798 72 798 C72 798 102 745 102 745 L102 745 Z " />
<glyph glyph-name="Udieresis" unicode="&#xdc;" horiz-adv-x="601" d="M322 881 C322 881 420 881 420 881 C420 881 420 979 420 979 C420 979 322 979 322 979 C322 979 322 881 322 881 L322 881 Z M189 881 C189 881 287 881 287 881 C287 881 287 979 287 979 C287 979 189 979 189 979 C189 979 189 881 189 881 L189 881 Z M102 745 C102 745 102 315 102 315 C102 116 181 -10 304 -10 C428 -10 507 117 507 317 C507 317 507 745 507 745 C507 745 537 798 537 798 C537 798 537 811 537 811 C537 811 507 811 507 811 C507 811 480 811 480 811 C480 811 452 811 452 811 C452 811 422 811 422 811 C422 811 422 798 422 798 C422 798 452 745 452 745 C452 745 452 326 452 326 C452 152 395 41 304 41 C242 41 202 154 202 332 C202 332 202 745 202 745 C202 745 232 798 232 798 C232 798 232 811 232 811 C232 811 202 811 202 811 C202 811 152 811 152 811 C152 811 102 811 102 811 C102 811 72 811 72 811 C72 811 72 798 72 798 C72 798 102 745 102 745 L102 745 Z " />
<glyph glyph-name="Yacute" unicode="&#xdd;" horiz-adv-x="517" d="M225 891 C225 891 308 891 308 891 C308 891 355 1041 355 1041 C355 1041 238 1041 238 1041 C238 1041 225 891 225 891 L225 891 Z M415 745 C415 745 415 745 415 745 C415 745 290 426 290 426 C290 426 162 746 162 746 C162 746 166 798 166 798 C165 798 165 803 166 810 C165 811 165 811 166 811 C166 811 136 811 136 811 C136 811 88 811 88 811 C88 811 40 811 40 811 C40 811 16 811 16 811 C15 811 15 810 16 809 C15 803 15 798 16 798 C16 798 67 745 67 745 C67 745 67 745 67 745 C67 745 222 369 222 369 C222 369 222 66 222 66 C222 66 192 13 192 13 C192 13 192 0 192 0 C192 0 222 0 222 0 C222 0 272 0 272 0 C272 0 322 0 322 0 C322 0 352 0 352 0 C352 0 352 13 352 13 C352 13 322 66 322 66 C322 66 322 382 322 382 C322 382 467 745 467 745 C467 745 467 745 467 745 C467 745 518 798 518 798 C518 798 518 811 518 811 C518 811 493 811 493 811 C493 811 467 811 467 811 C467 811 441 811 441 811 C441 811 411 811 411 811 C411 811 411 798 411 798 C411 798 415 745 415 745 L415 745 Z " />
<glyph glyph-name="Thorn" unicode="&#xde;" horiz-adv-x="518" d="M159 0 C159 0 209 0 209 0 C209 0 239 0 239 0 C239 0 239 13 239 13 C239 13 209 66 209 66 C209 66 209 162 209 162 C209 162 249 162 249 162 C392 162 484 257 484 406 C484 554 392 649 249 649 C249 649 209 649 209 649 C209 649 209 745 209 745 C209 745 239 798 239 798 C239 798 239 811 239 811 C239 811 209 811 209 811 C209 811 159 811 159 811 C159 811 109 811 109 811 C109 811 79 811 79 811 C79 811 79 798 79 798 C79 798 109 745 109 745 C109 745 109 66 109 66 C109 66 79 13 79 13 C79 13 79 0 79 0 C79 0 109 0 109 0 C109 0 159 0 159 0 L159 0 Z M209 205 C209 205 209 606 209 606 C209 606 246 607 246 607 C331 607 384 529 384 406 C384 283 332 205 251 205 C251 205 209 205 209 205 L209 205 Z " />
<glyph glyph-name="agrave" unicode="&#xe0;" horiz-adv-x="430" d="M171 661 C171 661 253 661 253 661 C253 661 241 811 241 811 C241 811 124 811 124 811 C124 811 171 661 171 661 L171 661 Z M70 447 C70 447 114 432 114 432 C114 498 158 551 212 551 C242 551 265 510 265 428 C265 428 265 409 265 409 C265 315 218 276 158 273 C96 269 47 200 47 117 C47 46 85 -10 162 -10 C206 -10 244 15 265 76 C265 76 265 74 265 74 C265 8 280 0 400 0 C400 0 400 66 400 66 C360 66 355 67 355 74 C355 74 355 390 355 390 C355 524 292 591 212 591 C133 591 70 527 70 447 L70 447 Z M265 288 C265 288 265 161 265 161 C259 63 221 24 177 24 C150 24 136 67 136 120 C136 186 159 240 187 242 C218 244 246 258 265 288 L265 288 Z " />
<glyph glyph-name="aacute" unicode="&#xe1;" horiz-adv-x="430" d="M171 661 C171 661 253 661 253 661 C253 661 301 811 301 811 C301 811 184 811 184 811 C184 811 171 661 171 661 L171 661 Z M70 447 C70 447 114 432 114 432 C114 498 158 551 212 551 C242 551 265 510 265 428 C265 428 265 409 265 409 C265 315 218 276 158 273 C96 269 47 200 47 117 C47 46 85 -10 162 -10 C206 -10 244 15 265 76 C265 76 265 74 265 74 C265 8 280 0 400 0 C400 0 400 66 400 66 C360 66 355 67 355 74 C355 74 355 390 355 390 C355 524 292 591 212 591 C133 591 70 527 70 447 L70 447 Z M265 288 C265 288 265 161 265 161 C259 63 221 24 177 24 C150 24 136 67 136 120 C136 186 159 240 187 242 C218 244 246 258 265 288 L265 288 Z " />
<glyph glyph-name="acircumflex" unicode="&#xe2;" horiz-adv-x="430" d="M212 741 C212 741 261 661 261 661 C261 661 343 661 343 661 C343 661 258 811 258 811 C258 811 167 811 167 811 C167 811 81 661 81 661 C81 661 164 661 164 661 C164 661 212 741 212 741 L212 741 Z M70 447 C70 447 114 432 114 432 C114 498 158 551 212 551 C242 551 265 510 265 428 C265 428 265 409 265 409 C265 315 218 276 158 273 C96 269 47 200 47 117 C47 46 85 -10 162 -10 C206 -10 244 15 265 76 C265 76 265 74 265 74 C265 8 280 0 400 0 C400 0 400 66 400 66 C360 66 355 67 355 74 C355 74 355 390 355 390 C355 524 292 591 212 591 C133 591 70 527 70 447 L70 447 Z M265 288 C265 288 265 161 265 161 C259 63 221 24 177 24 C150 24 136 67 136 120 C136 186 159 240 187 242 C218 244 246 258 265 288 L265 288 Z " />
<glyph glyph-name="atilde" unicode="&#xe3;" horiz-adv-x="533" d="M228 661 C228 699 234 729 241 729 C286 729 230 651 285 651 C326 651 359 712 359 789 C359 789 292 789 292 789 C292 751 286 721 279 721 C234 721 290 799 235 799 C194 799 162 738 162 661 C162 661 228 661 228 661 L228 661 Z M57 291 C57 124 140 -10 243 -10 C299 -10 348 49 374 138 C374 138 374 0 374 0 C374 0 464 0 464 0 C464 0 464 581 464 581 C464 581 374 581 374 581 C374 581 374 443 374 443 C348 532 299 591 243 591 C140 591 57 457 57 291 L57 291 Z M374 291 C374 146 323 30 259 30 C201 30 154 146 154 291 C154 435 201 551 259 551 C323 551 374 435 374 291 L374 291 Z " />
<glyph glyph-name="adieresis" unicode="&#xe4;" horiz-adv-x="430" d="M260 661 C260 661 358 661 358 661 C358 661 358 759 358 759 C358 759 260 759 260 759 C260 759 260 661 260 661 L260 661 Z M67 661 C67 661 165 661 165 661 C165 661 165 759 165 759 C165 759 67 759 67 759 C67 759 67 661 67 661 L67 661 Z M70 447 C70 447 114 432 114 432 C114 498 158 551 212 551 C242 551 265 510 265 428 C265 428 265 409 265 409 C265 315 218 276 158 273 C96 269 47 200 47 117 C47 46 85 -10 162 -10 C206 -10 244 15 265 76 C265 76 265 74 265 74 C265 8 280 0 400 0 C400 0 400 66 400 66 C360 66 355 67 355 74 C355 74 355 390 355 390 C355 524 292 591 212 591 C133 591 70 527 70 447 L70 447 Z M265 288 C265 288 265 161 265 161 C259 63 221 24 177 24 C150 24 136 67 136 120 C136 186 159 240 187 242 C218 244 246 258 265 288 L265 288 Z " />
<glyph glyph-name="aring" unicode="&#xe5;" horiz-adv-x="430" d="M212 703 C188 703 173 720 173 746 C173 772 189 790 212 790 C236 790 252 772 252 746 C252 720 237 703 212 703 L212 703 Z M128 746 C128 694 161 661 212 661 C264 661 296 694 296 746 C296 796 261 831 212 831 C163 831 128 796 128 746 L128 746 Z M70 447 C70 447 114 432 114 432 C114 498 158 551 212 551 C242 551 265 510 265 428 C265 428 265 409 265 409 C265 315 218 276 158 273 C96 269 47 200 47 117 C47 46 85 -10 162 -10 C206 -10 244 15 265 76 C265 76 265 74 265 74 C265 8 280 0 400 0 C400 0 400 66 400 66 C360 66 355 67 355 74 C355 74 355 390 355 390 C355 524 292 591 212 591 C133 591 70 527 70 447 L70 447 Z M265 288 C265 288 265 161 265 161 C259 63 221 24 177 24 C150 24 136 67 136 120 C136 186 159 240 187 242 C218 244 246 258 265 288 L265 288 Z " />
<glyph glyph-name="ccedilla" unicode="&#xe7;" horiz-adv-x="425" d="M352 151 C352 84 308 30 253 30 C198 30 154 124 154 291 C154 458 198 553 253 553 C319 553 352 491 352 413 C352 413 395 434 395 434 C395 521 348 591 253 591 C144 591 57 482 57 291 C57 122 124 17 215 -5 C215 -5 186 -103 186 -103 C186 -103 201 -111 201 -111 C201 -111 203 -105 203 -105 C205 -100 206 -96 207 -96 C211 -96 215 -118 215 -146 C215 -174 210 -196 205 -196 C205 -196 201 -182 196 -164 C196 -164 177 -179 177 -179 C186 -212 200 -239 207 -239 C240 -239 266 -198 266 -146 C266 -106 243 -73 212 -72 C212 -72 231 -8 231 -8 C238 -9 245 -10 253 -10 C332 -10 396 52 396 130 C396 130 352 151 352 151 L352 151 Z " />
<glyph glyph-name="egrave" unicode="&#xe8;" horiz-adv-x="431" d="M195 661 C195 661 277 661 277 661 C277 661 264 811 264 811 C264 811 147 811 147 811 C147 811 195 661 195 661 L195 661 Z M356 148 C356 83 300 30 229 30 C189 30 157 115 154 267 C154 267 415 267 415 267 C415 447 355 591 236 591 C136 591 57 482 57 291 C57 99 134 -10 229 -10 C325 -10 402 53 402 131 C402 131 356 148 356 148 L356 148 Z M154 301 C155 462 191 553 236 553 C291 553 321 444 325 301 C325 301 154 301 154 301 L154 301 Z " />
<glyph glyph-name="eacute" unicode="&#xe9;" horiz-adv-x="431" d="M195 661 C195 661 277 661 277 661 C277 661 324 811 324 811 C324 811 207 811 207 811 C207 811 195 661 195 661 L195 661 Z M356 148 C356 83 300 30 229 30 C189 30 157 115 154 267 C154 267 415 267 415 267 C415 447 355 591 236 591 C136 591 57 482 57 291 C57 99 134 -10 229 -10 C325 -10 402 53 402 131 C402 131 356 148 356 148 L356 148 Z M154 301 C155 462 191 553 236 553 C291 553 321 444 325 301 C325 301 154 301 154 301 L154 301 Z " />
<glyph glyph-name="ecircumflex" unicode="&#xea;" horiz-adv-x="431" d="M236 741 C236 741 285 661 285 661 C285 661 367 661 367 661 C367 661 281 811 281 811 C281 811 190 811 190 811 C190 811 105 661 105 661 C105 661 187 661 187 661 C187 661 236 741 236 741 L236 741 Z M356 148 C356 83 300 30 229 30 C189 30 157 115 154 267 C154 267 415 267 415 267 C415 447 355 591 236 591 C136 591 57 482 57 291 C57 99 134 -10 229 -10 C325 -10 402 53 402 131 C402 131 356 148 356 148 L356 148 Z M154 301 C155 462 191 553 236 553 C291 553 321 444 325 301 C325 301 154 301 154 301 L154 301 Z " />
<glyph glyph-name="edieresis" unicode="&#xeb;" horiz-adv-x="431" d="M253 661 C253 661 351 661 351 661 C351 661 351 759 351 759 C351 759 253 759 253 759 C253 759 253 661 253 661 L253 661 Z M120 661 C120 661 218 661 218 661 C218 661 218 759 218 759 C218 759 120 759 120 759 C120 759 120 661 120 661 L120 661 Z M356 148 C356 83 300 30 229 30 C189 30 157 115 154 267 C154 267 415 267 415 267 C415 447 355 591 236 591 C136 591 57 482 57 291 C57 99 134 -10 229 -10 C325 -10 402 53 402 131 C402 131 356 148 356 148 L356 148 Z M154 301 C155 462 191 553 236 553 C291 553 321 444 325 301 C325 301 154 301 154 301 L154 301 Z " />
<glyph glyph-name="igrave" unicode="&#xec;" horiz-adv-x="214" d="M44 661 C44 661 126 661 126 661 C126 661 114 811 114 811 C114 811 -4 811 -4 811 C-4 811 44 661 44 661 L44 661 Z M85 0 C85 0 130 0 130 0 C130 0 160 0 160 0 C160 0 160 13 160 13 C160 13 130 66 130 66 C130 66 130 581 130 581 C130 581 85 581 85 581 C85 581 40 581 40 581 C40 581 10 581 10 581 C10 581 10 568 10 568 C10 568 40 515 40 515 C40 515 40 66 40 66 C40 66 10 13 10 13 C10 13 10 0 10 0 C10 0 40 0 40 0 C40 0 85 0 85 0 L85 0 Z " />
<glyph glyph-name="iacute" unicode="&#xed;" horiz-adv-x="214" d="M44 661 C44 661 126 661 126 661 C126 661 174 811 174 811 C174 811 56 811 56 811 C56 811 44 661 44 661 L44 661 Z M85 0 C85 0 130 0 130 0 C130 0 160 0 160 0 C160 0 160 13 160 13 C160 13 130 66 130 66 C130 66 130 581 130 581 C130 581 85 581 85 581 C85 581 40 581 40 581 C40 581 10 581 10 581 C10 581 10 568 10 568 C10 568 40 515 40 515 C40 515 40 66 40 66 C40 66 10 13 10 13 C10 13 10 0 10 0 C10 0 40 0 40 0 C40 0 85 0 85 0 L85 0 Z " />
<glyph glyph-name="icircumflex" unicode="&#xee;" horiz-adv-x="214" d="M85 741 C85 741 134 661 134 661 C134 661 216 661 216 661 C216 661 130 811 130 811 C130 811 40 811 40 811 C40 811 -46 661 -46 661 C-46 661 36 661 36 661 C36 661 85 741 85 741 L85 741 Z M85 0 C85 0 130 0 130 0 C130 0 160 0 160 0 C160 0 160 13 160 13 C160 13 130 66 130 66 C130 66 130 581 130 581 C130 581 85 581 85 581 C85 581 40 581 40 581 C40 581 10 581 10 581 C10 581 10 568 10 568 C10 568 40 515 40 515 C40 515 40 66 40 66 C40 66 10 13 10 13 C10 13 10 0 10 0 C10 0 40 0 40 0 C40 0 85 0 85 0 L85 0 Z " />
<glyph glyph-name="idieresis" unicode="&#xef;" horiz-adv-x="214" d="M132 661 C132 661 230 661 230 661 C230 661 230 759 230 759 C230 759 132 759 132 759 C132 759 132 661 132 661 L132 661 Z M-60 661 C-60 661 37 661 37 661 C37 661 37 759 37 759 C37 759 -60 759 -60 759 C-60 759 -60 661 -60 661 L-60 661 Z M85 0 C85 0 130 0 130 0 C130 0 160 0 160 0 C160 0 160 13 160 13 C160 13 130 66 130 66 C130 66 130 581 130 581 C130 581 85 581 85 581 C85 581 40 581 40 581 C40 581 10 581 10 581 C10 581 10 568 10 568 C10 568 40 515 40 515 C40 515 40 66 40 66 C40 66 10 13 10 13 C10 13 10 0 10 0 C10 0 40 0 40 0 C40 0 85 0 85 0 L85 0 Z " />
<glyph glyph-name="ntilde" unicode="&#xf1;" horiz-adv-x="438" d="M193 661 C193 699 199 729 206 729 C251 729 195 651 250 651 C291 651 323 712 323 789 C323 789 257 789 257 789 C257 751 251 721 244 721 C199 721 255 799 200 799 C159 799 127 738 127 661 C127 661 193 661 193 661 L193 661 Z M314 0 C314 0 358 0 358 0 C358 0 388 0 388 0 C388 0 388 13 388 13 C388 13 358 66 358 66 C358 66 358 376 358 376 C358 504 318 586 269 586 C232 586 199 550 181 496 C181 496 181 571 181 571 C181 571 181 581 181 581 C181 581 136 581 136 581 C136 581 114 581 114 581 C114 581 92 581 92 581 C92 581 62 581 62 581 C62 581 62 568 62 568 C62 568 92 515 92 515 C92 515 92 66 92 66 C92 66 62 13 62 13 C62 13 62 0 62 0 C62 0 92 0 92 0 C92 0 136 0 136 0 C136 0 181 0 181 0 C181 0 211 0 211 0 C212 0 212 1 211 1 C212 8 212 13 211 13 C211 13 181 66 181 66 C181 66 181 392 181 392 C181 475 212 542 250 542 C260 542 269 477 269 376 C269 376 269 66 269 66 C269 66 239 13 239 13 C239 13 239 0 239 0 C239 0 269 0 269 0 C269 0 314 0 314 0 L314 0 Z " />
<glyph glyph-name="ograve" unicode="&#xf2;" horiz-adv-x="470" d="M197 661 C197 661 279 661 279 661 C279 661 267 811 267 811 C267 811 150 811 150 811 C150 811 197 661 197 661 L197 661 Z M238 26 C184 26 154 144 154 291 C154 459 191 555 238 555 C292 555 322 437 322 291 C322 122 285 26 238 26 L238 26 Z M57 291 C57 124 122 -10 238 -10 C339 -10 420 99 420 291 C420 457 354 591 238 591 C138 591 57 482 57 291 L57 291 Z " />
<glyph glyph-name="oacute" unicode="&#xf3;" horiz-adv-x="470" d="M197 661 C197 661 279 661 279 661 C279 661 327 811 327 811 C327 811 210 811 210 811 C210 811 197 661 197 661 L197 661 Z M238 26 C184 26 154 144 154 291 C154 459 191 555 238 555 C292 555 322 437 322 291 C322 122 285 26 238 26 L238 26 Z M57 291 C57 124 122 -10 238 -10 C339 -10 420 99 420 291 C420 457 354 591 238 591 C138 591 57 482 57 291 L57 291 Z " />
<glyph glyph-name="ocircumflex" unicode="&#xf4;" horiz-adv-x="470" d="M238 741 C238 741 287 661 287 661 C287 661 369 661 369 661 C369 661 284 811 284 811 C284 811 193 811 193 811 C193 811 107 661 107 661 C107 661 189 661 189 661 C189 661 238 741 238 741 L238 741 Z M238 26 C184 26 154 144 154 291 C154 459 191 555 238 555 C292 555 322 437 322 291 C322 122 285 26 238 26 L238 26 Z M57 291 C57 124 122 -10 238 -10 C339 -10 420 99 420 291 C420 457 354 591 238 591 C138 591 57 482 57 291 L57 291 Z " />
<glyph glyph-name="otilde" unicode="&#xf5;" horiz-adv-x="470" d="M206 661 C206 699 212 729 219 729 C265 729 208 651 264 651 C304 651 337 712 337 789 C337 789 270 789 270 789 C270 751 264 721 257 721 C212 721 269 799 213 799 C172 799 140 738 140 661 C140 661 206 661 206 661 L206 661 Z M238 26 C184 26 154 144 154 291 C154 459 191 555 238 555 C292 555 322 437 322 291 C322 122 285 26 238 26 L238 26 Z M57 291 C57 124 122 -10 238 -10 C339 -10 420 99 420 291 C420 457 354 591 238 591 C138 591 57 482 57 291 L57 291 Z " />
<glyph glyph-name="odieresis" unicode="&#xf6;" horiz-adv-x="470" d="M256 661 C256 661 354 661 354 661 C354 661 354 759 354 759 C354 759 256 759 256 759 C256 759 256 661 256 661 L256 661 Z M123 661 C123 661 221 661 221 661 C221 661 221 759 221 759 C221 759 123 759 123 759 C123 759 123 661 123 661 L123 661 Z M238 26 C184 26 154 144 154 291 C154 459 191 555 238 555 C292 555 322 437 322 291 C322 122 285 26 238 26 L238 26 Z M57 291 C57 124 122 -10 238 -10 C339 -10 420 99 420 291 C420 457 354 591 238 591 C138 591 57 482 57 291 L57 291 Z " />
<glyph glyph-name="oslash" unicode="&#xf8;" horiz-adv-x="470" d="M238 26 C207 26 184 65 170 127 C170 127 316 398 316 398 C320 365 322 329 322 291 C322 122 285 26 238 26 C238 26 238 26 238 26 L238 26 Z M57 291 C57 207 73 132 104 78 C104 78 57 -10 57 -10 C57 -10 96 -10 96 -10 C96 -10 126 46 126 46 C155 11 193 -10 238 -10 C339 -10 420 99 420 291 C420 374 404 449 373 503 C373 503 420 591 420 591 C420 591 381 591 381 591 C381 591 351 535 351 535 C322 570 284 591 238 591 C138 591 57 482 57 291 C57 291 57 291 57 291 L57 291 Z M160 182 C156 215 154 252 154 291 C154 459 191 555 238 555 C269 555 293 515 307 453 C307 453 160 182 160 182 L160 182 Z " />
<glyph glyph-name="ugrave" unicode="&#xf9;" horiz-adv-x="447" d="M184 661 C184 661 266 661 266 661 C266 661 253 811 253 811 C253 811 136 811 136 811 C136 811 184 661 184 661 L184 661 Z M363 66 C363 66 363 581 363 581 C363 581 318 581 318 581 C318 581 273 581 273 581 C273 581 243 581 243 581 C243 581 243 568 243 568 C243 568 273 515 273 515 C273 515 273 144 273 144 C273 83 242 34 202 34 C183 34 176 94 176 189 C176 189 176 581 176 581 C176 581 131 581 131 581 C131 581 87 581 87 581 C87 581 57 581 57 581 C57 581 57 568 57 568 C57 568 87 515 87 515 C87 515 87 189 87 189 C87 67 115 -10 187 -10 C224 -10 256 21 273 67 C273 67 273 10 273 10 C273 10 273 0 273 0 C273 0 318 0 318 0 C318 0 363 0 363 0 C363 0 393 0 393 0 C393 0 393 13 393 13 C393 13 363 66 363 66 L363 66 Z " />
<glyph glyph-name="uacute" unicode="&#xfa;" horiz-adv-x="447" d="M184 661 C184 661 266 661 266 661 C266 661 313 811 313 811 C313 811 196 811 196 811 C196 811 184 661 184 661 L184 661 Z M363 66 C363 66 363 581 363 581 C363 581 318 581 318 581 C318 581 273 581 273 581 C273 581 243 581 243 581 C243 581 243 568 243 568 C243 568 273 515 273 515 C273 515 273 144 273 144 C273 83 242 34 202 34 C183 34 176 94 176 189 C176 189 176 581 176 581 C176 581 131 581 131 581 C131 581 87 581 87 581 C87 581 57 581 57 581 C57 581 57 568 57 568 C57 568 87 515 87 515 C87 515 87 189 87 189 C87 67 115 -10 187 -10 C224 -10 256 21 273 67 C273 67 273 10 273 10 C273 10 273 0 273 0 C273 0 318 0 318 0 C318 0 363 0 363 0 C363 0 393 0 393 0 C393 0 393 13 393 13 C393 13 363 66 363 66 L363 66 Z " />
<glyph glyph-name="ucircumflex" unicode="&#xfb;" horiz-adv-x="447" d="M225 741 C225 741 274 661 274 661 C274 661 356 661 356 661 C356 661 270 811 270 811 C270 811 179 811 179 811 C179 811 94 661 94 661 C94 661 176 661 176 661 C176 661 225 741 225 741 L225 741 Z M363 66 C363 66 363 581 363 581 C363 581 318 581 318 581 C318 581 273 581 273 581 C273 581 243 581 243 581 C243 581 243 568 243 568 C243 568 273 515 273 515 C273 515 273 144 273 144 C273 83 242 34 202 34 C183 34 176 94 176 189 C176 189 176 581 176 581 C176 581 131 581 131 581 C131 581 87 581 87 581 C87 581 57 581 57 581 C57 581 57 568 57 568 C57 568 87 515 87 515 C87 515 87 189 87 189 C87 67 115 -10 187 -10 C224 -10 256 21 273 67 C273 67 273 10 273 10 C273 10 273 0 273 0 C273 0 318 0 318 0 C318 0 363 0 363 0 C363 0 393 0 393 0 C393 0 393 13 393 13 C393 13 363 66 363 66 L363 66 Z " />
<glyph glyph-name="udieresis" unicode="&#xfc;" horiz-adv-x="447" d="M242 661 C242 661 340 661 340 661 C340 661 340 759 340 759 C340 759 242 759 242 759 C242 759 242 661 242 661 L242 661 Z M110 661 C110 661 207 661 207 661 C207 661 207 759 207 759 C207 759 110 759 110 759 C110 759 110 661 110 661 L110 661 Z M363 66 C363 66 363 581 363 581 C363 581 318 581 318 581 C318 581 273 581 273 581 C273 581 243 581 243 581 C243 581 243 568 243 568 C243 568 273 515 273 515 C273 515 273 144 273 144 C273 83 242 34 202 34 C183 34 176 94 176 189 C176 189 176 581 176 581 C176 581 131 581 131 581 C131 581 87 581 87 581 C87 581 57 581 57 581 C57 581 57 568 57 568 C57 568 87 515 87 515 C87 515 87 189 87 189 C87 67 115 -10 187 -10 C224 -10 256 21 273 67 C273 67 273 10 273 10 C273 10 273 0 273 0 C273 0 318 0 318 0 C318 0 363 0 363 0 C363 0 393 0 393 0 C393 0 393 13 393 13 C393 13 363 66 363 66 L363 66 Z " />
<glyph glyph-name="yacute" unicode="&#xfd;" horiz-adv-x="372" d="M141 661 C141 661 223 661 223 661 C223 661 271 811 271 811 C271 811 153 811 153 811 C153 811 141 661 141 661 L141 661 Z M33 515 C33 515 33 515 33 515 C33 515 165 -18 165 -18 C165 -18 160 -40 160 -40 C141 -125 125 -157 102 -157 C102 -157 52 -157 52 -157 C52 -157 52 -200 52 -200 C52 -200 102 -200 102 -200 C148 -200 175 -161 199 -59 C199 -59 332 515 332 515 C332 515 332 515 332 515 C332 515 374 568 374 568 C374 568 374 581 374 581 C374 581 347 581 347 581 C347 581 320 581 320 581 C320 581 292 581 292 581 C292 581 262 581 262 581 C262 581 262 568 262 568 C262 568 278 515 278 515 C278 515 195 125 195 125 C195 125 129 515 129 515 C129 515 148 568 148 568 C148 568 148 581 148 581 C148 581 118 581 118 581 C118 581 67 581 67 581 C67 581 17 581 17 581 C17 581 -10 581 -10 581 C-10 581 -10 568 -10 568 C-10 568 33 515 33 515 L33 515 Z " />
<glyph glyph-name="thorn" unicode="&#xfe;" horiz-adv-x="478" d="M268 37 C211 37 166 129 166 291 C166 457 213 551 271 551 C304 551 331 435 331 291 C331 150 303 37 268 37 L268 37 Z M121 811 C121 811 77 811 77 811 C77 811 47 811 47 811 C47 811 47 798 47 798 C47 798 77 745 77 745 C77 745 77 -184 77 -184 C77 -184 47 -237 47 -237 C47 -237 47 -250 47 -250 C47 -250 77 -250 77 -250 C77 -250 121 -250 121 -250 C121 -250 166 -250 166 -250 C166 -250 196 -250 196 -250 C197 -250 197 -249 196 -249 C197 -242 197 -237 196 -237 C196 -237 166 -184 166 -184 C166 -184 166 125 166 125 C191 37 236 -10 287 -10 C366 -10 429 124 429 291 C429 457 366 591 287 591 C236 591 191 544 166 456 C166 456 166 811 166 811 C166 811 121 811 121 811 L121 811 Z " />
<glyph glyph-name="ydieresis" unicode="&#xff;" horiz-adv-x="372" d="M199 661 C199 661 297 661 297 661 C297 661 297 759 297 759 C297 759 199 759 199 759 C199 759 199 661 199 661 L199 661 Z M67 661 C67 661 165 661 165 661 C165 661 165 759 165 759 C165 759 67 759 67 759 C67 759 67 661 67 661 L67 661 Z M33 515 C33 515 33 515 33 515 C33 515 165 -18 165 -18 C165 -18 160 -40 160 -40 C141 -125 125 -157 102 -157 C102 -157 52 -157 52 -157 C52 -157 52 -200 52 -200 C52 -200 102 -200 102 -200 C148 -200 175 -161 199 -59 C199 -59 332 515 332 515 C332 515 332 515 332 515 C332 515 374 568 374 568 C374 568 374 581 374 581 C374 581 347 581 347 581 C347 581 320 581 320 581 C320 581 292 581 292 581 C292 581 262 581 262 581 C262 581 262 568 262 568 C262 568 278 515 278 515 C278 515 195 125 195 125 C195 125 129 515 129 515 C129 515 148 568 148 568 C148 568 148 581 148 581 C148 581 118 581 118 581 C118 581 67 581 67 581 C67 581 17 581 17 581 C17 581 -10 581 -10 581 C-10 581 -10 568 -10 568 C-10 568 33 515 33 515 L33 515 Z " />
<glyph glyph-name="Amacron" unicode="&#x100;" horiz-adv-x="646" d="M280 891 C280 891 392 891 392 891 C392 891 392 954 392 954 C392 954 280 954 280 954 C280 954 280 891 280 891 L280 891 Z M602 66 C602 66 602 66 602 66 C602 66 384 811 384 811 C384 811 331 811 331 811 C331 811 305 811 305 811 C305 811 287 811 287 811 C287 811 279 811 279 811 C279 811 249 811 249 811 C249 811 249 798 249 798 C249 798 260 745 260 745 C260 745 64 66 64 66 C64 66 64 66 64 66 C64 66 19 13 19 13 C19 13 19 0 19 0 C19 0 45 0 45 0 C45 0 73 0 73 0 C73 0 100 0 100 0 C100 0 130 0 130 0 C130 0 130 13 130 13 C130 13 118 64 118 64 C118 64 164 226 164 226 C164 226 456 226 456 226 C456 226 444 269 444 269 C444 269 177 269 177 269 C177 269 309 734 309 734 C309 734 503 66 503 66 C503 66 492 13 492 13 C492 13 492 0 492 0 C492 0 522 0 522 0 C522 0 572 0 572 0 C572 0 621 0 621 0 C621 0 647 0 647 0 C647 0 647 13 647 13 C647 13 602 66 602 66 L602 66 Z " />
<glyph glyph-name="amacron" unicode="&#x101;" horiz-adv-x="430" d="M156 661 C156 661 268 661 268 661 C268 661 268 724 268 724 C268 724 156 724 156 724 C156 724 156 661 156 661 L156 661 Z M70 447 C70 447 114 432 114 432 C114 498 158 551 212 551 C242 551 265 510 265 428 C265 428 265 409 265 409 C265 315 218 276 158 273 C96 269 47 200 47 117 C47 46 85 -10 162 -10 C206 -10 244 15 265 76 C265 76 265 74 265 74 C265 8 280 0 400 0 C400 0 400 66 400 66 C360 66 355 67 355 74 C355 74 355 390 355 390 C355 524 292 591 212 591 C133 591 70 527 70 447 L70 447 Z M265 288 C265 288 265 161 265 161 C259 63 221 24 177 24 C150 24 136 67 136 120 C136 186 159 240 187 242 C218 244 246 258 265 288 L265 288 Z " />
<glyph glyph-name="Abreve" unicode="&#x102;" horiz-adv-x="646" d="M267 1018 C267 942 297 881 336 881 C374 881 404 942 404 1018 C404 1018 338 1018 338 1018 C338 977 337 944 336 944 C334 944 333 977 333 1018 C333 1018 267 1018 267 1018 L267 1018 Z M602 66 C602 66 602 66 602 66 C602 66 384 811 384 811 C384 811 331 811 331 811 C331 811 305 811 305 811 C305 811 287 811 287 811 C287 811 279 811 279 811 C279 811 249 811 249 811 C249 811 249 798 249 798 C249 798 260 745 260 745 C260 745 64 66 64 66 C64 66 64 66 64 66 C64 66 19 13 19 13 C19 13 19 0 19 0 C19 0 45 0 45 0 C45 0 73 0 73 0 C73 0 100 0 100 0 C100 0 130 0 130 0 C130 0 130 13 130 13 C130 13 118 64 118 64 C118 64 164 226 164 226 C164 226 456 226 456 226 C456 226 444 269 444 269 C444 269 177 269 177 269 C177 269 309 734 309 734 C309 734 503 66 503 66 C503 66 492 13 492 13 C492 13 492 0 492 0 C492 0 522 0 522 0 C522 0 572 0 572 0 C572 0 621 0 621 0 C621 0 647 0 647 0 C647 0 647 13 647 13 C647 13 602 66 602 66 L602 66 Z " />
<glyph glyph-name="abreve" unicode="&#x103;" horiz-adv-x="430" d="M144 788 C144 712 174 651 212 651 C251 651 281 712 281 788 C281 788 215 788 215 788 C215 747 214 714 212 714 C211 714 210 747 210 788 C210 788 144 788 144 788 L144 788 Z M70 447 C70 447 114 432 114 432 C114 498 158 551 212 551 C242 551 265 510 265 428 C265 428 265 409 265 409 C265 315 218 276 158 273 C96 269 47 200 47 117 C47 46 85 -10 162 -10 C206 -10 244 15 265 76 C265 76 265 74 265 74 C265 8 280 0 400 0 C400 0 400 66 400 66 C360 66 355 67 355 74 C355 74 355 390 355 390 C355 524 292 591 212 591 C133 591 70 527 70 447 L70 447 Z M265 288 C265 288 265 161 265 161 C259 63 221 24 177 24 C150 24 136 67 136 120 C136 186 159 240 187 242 C218 244 246 258 265 288 L265 288 Z " />
<glyph glyph-name="Aogonek" unicode="&#x104;" horiz-adv-x="646" d="M602 66 C602 66 602 66 602 66 C602 66 384 811 384 811 C384 811 331 811 331 811 C331 811 305 811 305 811 C305 811 287 811 287 811 C287 811 279 811 279 811 C279 811 249 811 249 811 C249 811 249 798 249 798 C249 798 260 745 260 745 C260 745 64 66 64 66 C64 66 64 66 64 66 C64 66 19 13 19 13 C19 13 19 0 19 0 C19 0 45 0 45 0 C45 0 73 0 73 0 C73 0 100 0 100 0 C100 0 130 0 130 0 C130 0 130 13 130 13 C130 13 118 64 118 64 C118 64 164 226 164 226 C164 226 456 226 456 226 C456 226 444 269 444 269 C444 269 177 269 177 269 C177 269 309 734 309 734 C309 734 503 66 503 66 C503 66 492 13 492 13 C492 13 492 0 492 0 C492 0 522 0 522 0 C522 0 572 0 572 0 C572 0 593 0 593 0 C560 -27 514 -76 514 -102 C514 -160 569 -206 638 -206 C668 -206 704 -193 717 -178 C717 -178 712 -151 712 -151 C700 -165 668 -176 640 -176 C598 -176 564 -139 564 -93 C564 -60 605 -9 621 0 C621 0 647 0 647 0 C647 0 647 13 647 13 C647 13 602 66 602 66 L602 66 Z " />
<glyph glyph-name="aogonek" unicode="&#x105;" horiz-adv-x="480" d="M57 291 C57 124 126 -10 213 -10 C258 -10 297 44 320 125 C320 125 320 0 320 0 C320 0 365 0 365 0 C365 0 386 0 386 0 C351 -28 303 -77 303 -101 C303 -159 358 -206 426 -206 C457 -206 493 -193 506 -178 C506 -178 501 -151 501 -151 C489 -165 457 -176 429 -176 C387 -176 353 -139 353 -92 C353 -59 394 -9 410 0 C410 0 440 0 440 0 C440 0 440 13 440 13 C440 13 410 66 410 66 C410 66 410 515 410 515 C410 515 440 568 440 568 C440 568 440 581 440 581 C440 581 410 581 410 581 C410 581 365 581 365 581 C365 581 320 581 320 581 C320 581 320 456 320 456 C297 537 258 591 213 591 C126 591 57 457 57 291 C57 291 57 291 57 291 L57 291 Z M320 291 C320 146 280 30 229 30 C188 30 154 146 154 291 C154 435 188 551 229 551 C280 551 320 435 320 291 L320 291 Z " />
<glyph glyph-name="Cacute" unicode="&#x106;" horiz-adv-x="588" d="M273 891 C273 891 355 891 355 891 C355 891 402 1041 402 1041 C402 1041 285 1041 285 1041 C285 1041 273 891 273 891 L273 891 Z M528 198 C528 107 448 34 347 34 C247 34 167 220 167 406 C167 591 247 777 347 777 C448 777 528 704 528 613 C528 613 568 646 568 646 C568 646 568 676 568 676 C568 676 565 676 565 676 C547 759 457 821 347 821 C187 821 59 613 59 406 C59 198 187 -10 347 -10 C470 -10 568 68 568 165 C568 165 528 198 528 198 L528 198 Z " />
<glyph glyph-name="cacute" unicode="&#x107;" horiz-adv-x="425" d="M212 661 C212 661 294 661 294 661 C294 661 342 811 342 811 C342 811 224 811 224 811 C224 811 212 661 212 661 L212 661 Z M352 151 C352 84 308 30 253 30 C198 30 154 124 154 291 C154 458 198 553 253 553 C319 553 352 491 352 413 C352 413 395 434 395 434 C395 521 348 591 253 591 C144 591 57 482 57 291 C57 99 144 -10 253 -10 C332 -10 396 52 396 130 C396 130 352 151 352 151 L352 151 Z " />
<glyph glyph-name="Ccircumflex" unicode="&#x108;" horiz-adv-x="588" d="M314 971 C314 971 362 891 362 891 C362 891 445 891 445 891 C445 891 359 1041 359 1041 C359 1041 268 1041 268 1041 C268 1041 183 891 183 891 C183 891 265 891 265 891 C265 891 314 971 314 971 L314 971 Z M528 198 C528 107 448 34 347 34 C247 34 167 220 167 406 C167 591 247 777 347 777 C448 777 528 704 528 613 C528 613 568 646 568 646 C568 646 568 676 568 676 C568 676 565 676 565 676 C547 759 457 821 347 821 C187 821 59 613 59 406 C59 198 187 -10 347 -10 C470 -10 568 68 568 165 C568 165 528 198 528 198 L528 198 Z " />
<glyph glyph-name="Cdotaccent" unicode="&#x10a;" horiz-adv-x="588" d="M265 891 C265 891 362 891 362 891 C362 891 362 989 362 989 C362 989 265 989 265 989 C265 989 265 891 265 891 L265 891 Z M528 198 C528 107 448 34 347 34 C247 34 167 220 167 406 C167 591 247 777 347 777 C448 777 528 704 528 613 C528 613 568 646 568 646 C568 646 568 676 568 676 C568 676 565 676 565 676 C547 759 457 821 347 821 C187 821 59 613 59 406 C59 198 187 -10 347 -10 C470 -10 568 68 568 165 C568 165 528 198 528 198 L528 198 Z " />
<glyph glyph-name="cdotaccent" unicode="&#x10b;" horiz-adv-x="425" d="M204 661 C204 661 302 661 302 661 C302 661 302 759 302 759 C302 759 204 759 204 759 C204 759 204 661 204 661 L204 661 Z M352 151 C352 84 308 30 253 30 C198 30 154 124 154 291 C154 458 198 553 253 553 C319 553 352 491 352 413 C352 413 395 434 395 434 C395 521 348 591 253 591 C144 591 57 482 57 291 C57 99 144 -10 253 -10 C332 -10 396 52 396 130 C396 130 352 151 352 151 L352 151 Z " />
<glyph glyph-name="Ccaron" unicode="&#x10c;" horiz-adv-x="588" d="M314 961 C314 961 362 1041 362 1041 C362 1041 445 1041 445 1041 C445 1041 359 891 359 891 C359 891 268 891 268 891 C268 891 183 1041 183 1041 C183 1041 265 1041 265 1041 C265 1041 314 961 314 961 L314 961 Z M528 198 C528 107 448 34 347 34 C247 34 167 220 167 406 C167 591 247 777 347 777 C448 777 528 704 528 613 C528 613 568 646 568 646 C568 646 568 676 568 676 C568 676 565 676 565 676 C547 759 457 821 347 821 C187 821 59 613 59 406 C59 198 187 -10 347 -10 C470 -10 568 68 568 165 C568 165 528 198 528 198 L528 198 Z " />
<glyph glyph-name="ccaron" unicode="&#x10d;" horiz-adv-x="425" d="M253 731 C253 731 302 811 302 811 C302 811 384 811 384 811 C384 811 298 661 298 661 C298 661 208 661 208 661 C208 661 122 811 122 811 C122 811 204 811 204 811 C204 811 253 731 253 731 L253 731 Z M352 151 C352 84 308 30 253 30 C198 30 154 124 154 291 C154 458 198 553 253 553 C319 553 352 491 352 413 C352 413 395 434 395 434 C395 521 348 591 253 591 C144 591 57 482 57 291 C57 99 144 -10 253 -10 C332 -10 396 52 396 130 C396 130 352 151 352 151 L352 151 Z " />
<glyph glyph-name="Dcaron" unicode="&#x10e;" horiz-adv-x="659" d="M303 961 C303 961 352 1041 352 1041 C352 1041 434 1041 434 1041 C434 1041 348 891 348 891 C348 891 258 891 258 891 C258 891 172 1041 172 1041 C172 1041 254 1041 254 1041 C254 1041 303 961 303 961 L303 961 Z M159 0 C159 0 209 0 209 0 C209 0 305 0 305 0 C493 0 605 151 605 406 C605 653 477 811 275 811 C275 811 209 811 209 811 C209 811 159 811 159 811 C159 811 109 811 109 811 C109 811 79 811 79 811 C79 811 79 798 79 798 C79 798 109 745 109 745 C109 745 109 66 109 66 C109 66 79 13 79 13 C79 13 79 0 79 0 C79 0 109 0 109 0 C109 0 159 0 159 0 L159 0 Z M209 42 C209 42 209 769 209 769 C209 769 277 769 277 769 C411 769 497 628 497 406 C497 177 424 42 301 42 C301 42 209 42 209 42 L209 42 Z " />
<glyph glyph-name="dcaron" unicode="&#x10f;" horiz-adv-x="483" d="M464 821 C464 821 471 671 471 671 C471 671 538 671 538 671 C538 671 561 821 561 821 C561 821 464 821 464 821 L464 821 Z M57 291 C57 124 121 -10 201 -10 C253 -10 299 47 324 134 C324 134 324 10 324 10 C324 10 324 0 324 0 C324 0 369 0 369 0 C369 0 414 0 414 0 C414 0 444 0 444 0 C443 0 443 1 444 1 C443 8 443 13 444 13 C444 13 414 66 414 66 C414 66 414 801 414 801 C414 801 414 811 414 811 C414 811 369 811 369 811 C369 811 324 811 324 811 C324 811 294 811 294 811 C294 811 294 798 294 798 C294 798 324 745 324 745 C324 745 324 448 324 448 C299 534 253 591 201 591 C121 591 57 457 57 291 C57 291 57 291 57 291 L57 291 Z M324 291 C324 146 276 30 217 30 C182 30 154 146 154 291 C154 435 182 551 217 551 C276 551 324 435 324 291 L324 291 Z " />
<glyph glyph-name="Dcroat" unicode="&#x110;" horiz-adv-x="659" d="M29 389 C29 389 109 389 109 389 C109 389 109 66 109 66 C109 66 79 13 79 13 C79 13 79 0 79 0 C79 0 109 0 109 0 C109 0 159 0 159 0 C159 0 209 0 209 0 C209 0 305 0 305 0 C493 0 605 151 605 406 C605 653 477 811 275 811 C275 811 209 811 209 811 C209 811 159 811 159 811 C159 811 109 811 109 811 C109 811 79 811 79 811 C79 811 79 798 79 798 C79 798 109 745 109 745 C109 745 109 423 109 423 C109 423 29 423 29 423 C29 423 29 389 29 389 L29 389 Z M209 42 C209 42 209 389 209 389 C209 389 303 389 303 389 C303 389 303 423 303 423 C303 423 209 423 209 423 C209 423 209 769 209 769 C209 769 277 769 277 769 C411 769 497 628 497 406 C497 177 424 42 301 42 C301 42 209 42 209 42 L209 42 Z " />
<glyph glyph-name="dcroat" unicode="&#x111;" horiz-adv-x="483" d="M201 684 C201 684 324 684 324 684 C324 684 324 448 324 448 C299 534 253 591 201 591 C121 591 57 457 57 291 C57 124 121 -10 201 -10 C253 -10 299 47 324 134 C324 134 324 10 324 10 C324 10 324 0 324 0 C324 0 369 0 369 0 C369 0 414 0 414 0 C414 0 444 0 444 0 C443 0 443 1 444 1 C443 8 443 13 444 13 C444 13 414 66 414 66 C414 66 414 684 414 684 C414 684 512 684 512 684 C512 684 512 718 512 718 C512 718 414 718 414 718 C414 718 414 801 414 801 C414 801 414 811 414 811 C414 811 369 811 369 811 C369 811 324 811 324 811 C324 811 294 811 294 811 C294 811 294 798 294 798 C294 798 324 745 324 745 C324 745 324 718 324 718 C324 718 201 718 201 718 C201 718 201 684 201 684 L201 684 Z M324 291 C324 146 276 30 217 30 C182 30 154 146 154 291 C154 435 182 551 217 551 C276 551 324 435 324 291 L324 291 Z " />
<glyph glyph-name="Emacron" unicode="&#x112;" horiz-adv-x="514" d="M223 891 C223 891 335 891 335 891 C335 891 335 954 335 954 C335 954 223 954 223 954 C223 954 223 891 223 891 L223 891 Z M464 22 C464 22 464 44 464 44 C464 44 464 74 464 74 C464 75 464 75 463 74 C456 75 451 75 451 74 C451 74 398 44 398 44 C398 44 209 44 209 44 C209 44 209 379 209 379 C209 379 363 379 363 379 C363 379 416 349 416 349 C416 349 429 349 429 349 C429 349 429 379 429 379 C429 379 429 401 429 401 C429 401 429 422 429 422 C429 422 429 452 429 452 C429 452 416 452 416 452 C416 452 363 422 363 422 C363 422 209 422 209 422 C209 422 209 767 209 767 C209 767 383 767 383 767 C383 767 436 737 436 737 C436 737 449 737 449 737 C449 737 449 767 449 767 C449 767 449 789 449 789 C449 789 449 811 449 811 C449 811 209 811 209 811 C209 811 208 811 208 811 C208 811 159 811 159 811 C159 811 109 811 109 811 C109 811 79 811 79 811 C79 811 79 798 79 798 C79 798 109 745 109 745 C109 745 109 66 109 66 C109 66 79 13 79 13 C79 13 79 0 79 0 C79 0 109 0 109 0 C109 0 159 0 159 0 C159 0 208 0 208 0 C208 0 209 0 209 0 C209 0 464 0 464 0 C464 0 464 22 464 22 L464 22 Z " />
<glyph glyph-name="emacron" unicode="&#x113;" horiz-adv-x="431" d="M180 661 C180 661 292 661 292 661 C292 661 292 724 292 724 C292 724 180 724 180 724 C180 724 180 661 180 661 L180 661 Z M356 148 C356 83 300 30 229 30 C189 30 157 115 154 267 C154 267 415 267 415 267 C415 447 355 591 236 591 C136 591 57 482 57 291 C57 99 134 -10 229 -10 C325 -10 402 53 402 131 C402 131 356 148 356 148 L356 148 Z M154 301 C155 462 191 553 236 553 C291 553 321 444 325 301 C325 301 154 301 154 301 L154 301 Z " />
<glyph glyph-name="Ebreve" unicode="&#x114;" horiz-adv-x="514" d="M210 1018 C210 942 241 881 279 881 C317 881 348 942 348 1018 C348 1018 281 1018 281 1018 C281 977 280 944 279 944 C278 944 277 977 277 1018 C277 1018 210 1018 210 1018 L210 1018 Z M464 22 C464 22 464 44 464 44 C464 44 464 74 464 74 C464 75 464 75 463 74 C456 75 451 75 451 74 C451 74 398 44 398 44 C398 44 209 44 209 44 C209 44 209 379 209 379 C209 379 363 379 363 379 C363 379 416 349 416 349 C416 349 429 349 429 349 C429 349 429 379 429 379 C429 379 429 401 429 401 C429 401 429 422 429 422 C429 422 429 452 429 452 C429 452 416 452 416 452 C416 452 363 422 363 422 C363 422 209 422 209 422 C209 422 209 767 209 767 C209 767 383 767 383 767 C383 767 436 737 436 737 C436 737 449 737 449 737 C449 737 449 767 449 767 C449 767 449 789 449 789 C449 789 449 811 449 811 C449 811 209 811 209 811 C209 811 208 811 208 811 C208 811 159 811 159 811 C159 811 109 811 109 811 C109 811 79 811 79 811 C79 811 79 798 79 798 C79 798 109 745 109 745 C109 745 109 66 109 66 C109 66 79 13 79 13 C79 13 79 0 79 0 C79 0 109 0 109 0 C109 0 159 0 159 0 C159 0 208 0 208 0 C208 0 209 0 209 0 C209 0 464 0 464 0 C464 0 464 22 464 22 L464 22 Z " />
<glyph glyph-name="ebreve" unicode="&#x115;" horiz-adv-x="431" d="M167 788 C167 712 198 651 236 651 C274 651 304 712 304 788 C304 788 238 788 238 788 C238 747 237 714 236 714 C234 714 233 747 233 788 C233 788 167 788 167 788 L167 788 Z M356 148 C356 83 300 30 229 30 C189 30 157 115 154 267 C154 267 415 267 415 267 C415 447 355 591 236 591 C136 591 57 482 57 291 C57 99 134 -10 229 -10 C325 -10 402 53 402 131 C402 131 356 148 356 148 L356 148 Z M154 301 C155 462 191 553 236 553 C291 553 321 444 325 301 C325 301 154 301 154 301 L154 301 Z " />
<glyph glyph-name="Edotaccent" unicode="&#x116;" horiz-adv-x="514" d="M230 891 C230 891 328 891 328 891 C328 891 328 989 328 989 C328 989 230 989 230 989 C230 989 230 891 230 891 L230 891 Z M464 22 C464 22 464 44 464 44 C464 44 464 74 464 74 C464 75 464 75 463 74 C456 75 451 75 451 74 C451 74 398 44 398 44 C398 44 209 44 209 44 C209 44 209 379 209 379 C209 379 363 379 363 379 C363 379 416 349 416 349 C416 349 429 349 429 349 C429 349 429 379 429 379 C429 379 429 401 429 401 C429 401 429 422 429 422 C429 422 429 452 429 452 C429 452 416 452 416 452 C416 452 363 422 363 422 C363 422 209 422 209 422 C209 422 209 767 209 767 C209 767 383 767 383 767 C383 767 436 737 436 737 C436 737 449 737 449 737 C449 737 449 767 449 767 C449 767 449 789 449 789 C449 789 449 811 449 811 C449 811 209 811 209 811 C209 811 208 811 208 811 C208 811 159 811 159 811 C159 811 109 811 109 811 C109 811 79 811 79 811 C79 811 79 798 79 798 C79 798 109 745 109 745 C109 745 109 66 109 66 C109 66 79 13 79 13 C79 13 79 0 79 0 C79 0 109 0 109 0 C109 0 159 0 159 0 C159 0 208 0 208 0 C208 0 209 0 209 0 C209 0 464 0 464 0 C464 0 464 22 464 22 L464 22 Z " />
<glyph glyph-name="edotaccent" unicode="&#x117;" horiz-adv-x="431" d="M187 661 C187 661 284 661 284 661 C284 661 284 759 284 759 C284 759 187 759 187 759 C187 759 187 661 187 661 L187 661 Z M356 148 C356 83 300 30 229 30 C189 30 157 115 154 267 C154 267 415 267 415 267 C415 447 355 591 236 591 C136 591 57 482 57 291 C57 99 134 -10 229 -10 C325 -10 402 53 402 131 C402 131 356 148 356 148 L356 148 Z M154 301 C155 462 191 553 236 553 C291 553 321 444 325 301 C325 301 154 301 154 301 L154 301 Z " />
<glyph glyph-name="Eogonek" unicode="&#x118;" horiz-adv-x="514" d="M275 0 C240 -28 192 -77 192 -101 C192 -159 247 -206 315 -206 C346 -206 382 -193 395 -178 C395 -178 390 -151 390 -151 C378 -165 346 -176 318 -176 C276 -176 242 -139 242 -92 C242 -59 283 -9 299 0 C299 0 464 0 464 0 C464 0 464 22 464 22 C464 22 464 44 464 44 C464 44 464 74 464 74 C464 75 464 75 463 74 C456 75 451 75 451 74 C451 74 398 44 398 44 C398 44 209 44 209 44 C209 44 209 379 209 379 C209 379 363 379 363 379 C363 379 416 349 416 349 C416 349 429 349 429 349 C429 349 429 379 429 379 C429 379 429 401 429 401 C429 401 429 422 429 422 C429 422 429 452 429 452 C429 452 416 452 416 452 C416 452 363 422 363 422 C363 422 209 422 209 422 C209 422 209 767 209 767 C209 767 383 767 383 767 C383 767 436 737 436 737 C436 737 449 737 449 737 C449 737 449 767 449 767 C449 767 449 789 449 789 C449 789 449 811 449 811 C449 811 209 811 209 811 C209 811 208 811 208 811 C208 811 159 811 159 811 C159 811 109 811 109 811 C109 811 79 811 79 811 C79 811 79 798 79 798 C79 798 109 745 109 745 C109 745 109 66 109 66 C109 66 79 13 79 13 C79 13 79 0 79 0 C79 0 109 0 109 0 C109 0 159 0 159 0 C159 0 208 0 208 0 C208 0 209 0 209 0 C209 0 275 0 275 0 L275 0 Z " />
<glyph glyph-name="eogonek" unicode="&#x119;" horiz-adv-x="431" d="M318 9 C318 9 318 10 318 10 C368 35 402 80 402 131 C402 131 356 148 356 148 C356 83 300 30 229 30 C189 30 157 115 154 267 C154 267 415 267 415 267 C415 447 355 591 236 591 C136 591 57 482 57 291 C57 99 134 -10 229 -10 C246 -10 263 -8 278 -4 C246 -34 210 -74 210 -96 C210 -157 265 -206 334 -206 C364 -206 400 -193 413 -178 C413 -178 408 -151 408 -151 C397 -165 364 -176 336 -176 C294 -176 260 -137 260 -88 C260 -52 302 0 318 9 L318 9 Z M154 301 C155 462 191 553 236 553 C291 553 321 444 325 301 C325 301 154 301 154 301 L154 301 Z " />
<glyph glyph-name="Ecaron" unicode="&#x11a;" horiz-adv-x="514" d="M279 961 C279 961 328 1041 328 1041 C328 1041 410 1041 410 1041 C410 1041 324 891 324 891 C324 891 234 891 234 891 C234 891 148 1041 148 1041 C148 1041 230 1041 230 1041 C230 1041 279 961 279 961 L279 961 Z M464 22 C464 22 464 44 464 44 C464 44 464 74 464 74 C464 75 464 75 463 74 C456 75 451 75 451 74 C451 74 398 44 398 44 C398 44 209 44 209 44 C209 44 209 379 209 379 C209 379 363 379 363 379 C363 379 416 349 416 349 C416 349 429 349 429 349 C429 349 429 379 429 379 C429 379 429 401 429 401 C429 401 429 422 429 422 C429 422 429 452 429 452 C429 452 416 452 416 452 C416 452 363 422 363 422 C363 422 209 422 209 422 C209 422 209 767 209 767 C209 767 383 767 383 767 C383 767 436 737 436 737 C436 737 449 737 449 737 C449 737 449 767 449 767 C449 767 449 789 449 789 C449 789 449 811 449 811 C449 811 209 811 209 811 C209 811 208 811 208 811 C208 811 159 811 159 811 C159 811 109 811 109 811 C109 811 79 811 79 811 C79 811 79 798 79 798 C79 798 109 745 109 745 C109 745 109 66 109 66 C109 66 79 13 79 13 C79 13 79 0 79 0 C79 0 109 0 109 0 C109 0 159 0 159 0 C159 0 208 0 208 0 C208 0 209 0 209 0 C209 0 464 0 464 0 C464 0 464 22 464 22 L464 22 Z " />
<glyph glyph-name="ecaron" unicode="&#x11b;" horiz-adv-x="431" d="M236 731 C236 731 285 811 285 811 C285 811 367 811 367 811 C367 811 281 661 281 661 C281 661 190 661 190 661 C190 661 105 811 105 811 C105 811 187 811 187 811 C187 811 236 731 236 731 L236 731 Z M356 148 C356 83 300 30 229 30 C189 30 157 115 154 267 C154 267 415 267 415 267 C415 447 355 591 236 591 C136 591 57 482 57 291 C57 99 134 -10 229 -10 C325 -10 402 53 402 131 C402 131 356 148 356 148 L356 148 Z M154 301 C155 462 191 553 236 553 C291 553 321 444 325 301 C325 301 154 301 154 301 L154 301 Z " />
<glyph glyph-name="Gcircumflex" unicode="&#x11c;" horiz-adv-x="641" d="M370 971 C370 971 419 891 419 891 C419 891 501 891 501 891 C501 891 416 1041 416 1041 C416 1041 325 1041 325 1041 C325 1041 239 891 239 891 C239 891 321 891 321 891 C321 891 370 971 370 971 L370 971 Z M374 385 C374 385 544 385 544 385 C544 385 544 126 544 126 C483 75 410 34 370 34 C257 34 167 199 167 406 C167 612 257 777 370 777 C463 777 537 704 537 613 C537 613 577 646 577 646 C577 646 577 676 577 676 C577 676 574 676 574 676 C566 715 544 749 511 774 C511 775 511 775 511 775 C511 775 511 775 511 775 C474 803 425 821 370 821 C197 821 59 636 59 406 C59 175 197 -10 370 -10 C429 -10 524 39 596 99 C596 99 596 430 596 430 C596 430 374 430 374 430 C374 430 374 385 374 385 L374 385 Z " />
<glyph glyph-name="Gbreve" unicode="&#x11e;" horiz-adv-x="641" d="M302 1018 C302 942 332 881 370 881 C408 881 439 942 439 1018 C439 1018 372 1018 372 1018 C372 977 371 944 370 944 C369 944 368 977 368 1018 C368 1018 302 1018 302 1018 L302 1018 Z M374 385 C374 385 544 385 544 385 C544 385 544 126 544 126 C483 75 410 34 370 34 C257 34 167 199 167 406 C167 612 257 777 370 777 C463 777 537 704 537 613 C537 613 577 646 577 646 C577 646 577 676 577 676 C577 676 574 676 574 676 C566 715 544 749 511 774 C511 775 511 775 511 775 C511 775 511 775 511 775 C474 803 425 821 370 821 C197 821 59 636 59 406 C59 175 197 -10 370 -10 C429 -10 524 39 596 99 C596 99 596 430 596 430 C596 430 374 430 374 430 C374 430 374 385 374 385 L374 385 Z " />
<glyph glyph-name="gbreve" unicode="&#x11f;" horiz-adv-x="473" d="M161 788 C161 712 192 651 230 651 C268 651 299 712 299 788 C299 788 232 788 232 788 C232 747 231 714 230 714 C229 714 228 747 228 788 C228 788 161 788 161 788 L161 788 Z M68 -75 C68 -142 143 -175 236 -175 C348 -175 404 -80 404 38 C404 38 404 515 404 515 C404 515 434 568 434 568 C433 568 433 573 434 580 C433 581 433 581 434 581 C434 581 404 581 404 581 C404 581 359 581 359 581 C359 581 314 581 314 581 C314 581 314 450 314 450 C289 535 246 591 196 591 C119 591 57 491 57 291 C57 97 119 0 196 0 C246 0 289 54 314 136 C314 136 314 0 314 0 C314 -75 287 -135 232 -135 C170 -135 121 -115 121 -75 C121 -75 68 -75 68 -75 L68 -75 Z M212 551 C269 551 314 435 314 291 C314 151 269 40 212 40 C180 40 154 124 154 291 C154 464 180 551 212 551 L212 551 Z " />
<glyph glyph-name="Gdotaccent" unicode="&#x120;" horiz-adv-x="641" d="M321 891 C321 891 419 891 419 891 C419 891 419 989 419 989 C419 989 321 989 321 989 C321 989 321 891 321 891 L321 891 Z M374 385 C374 385 544 385 544 385 C544 385 544 126 544 126 C483 75 410 34 370 34 C257 34 167 199 167 406 C167 612 257 777 370 777 C463 777 537 704 537 613 C537 613 577 646 577 646 C577 646 577 676 577 676 C577 676 574 676 574 676 C566 715 544 749 511 774 C511 775 511 775 511 775 C511 775 511 775 511 775 C474 803 425 821 370 821 C197 821 59 636 59 406 C59 175 197 -10 370 -10 C429 -10 524 39 596 99 C596 99 596 430 596 430 C596 430 374 430 374 430 C374 430 374 385 374 385 L374 385 Z " />
<glyph glyph-name="gdotaccent" unicode="&#x121;" horiz-adv-x="473" d="M181 661 C181 661 279 661 279 661 C279 661 279 759 279 759 C279 759 181 759 181 759 C181 759 181 661 181 661 L181 661 Z M68 -75 C68 -142 143 -175 236 -175 C348 -175 404 -80 404 38 C404 38 404 515 404 515 C404 515 434 568 434 568 C433 568 433 573 434 580 C433 581 433 581 434 581 C434 581 404 581 404 581 C404 581 359 581 359 581 C359 581 314 581 314 581 C314 581 314 450 314 450 C289 535 246 591 196 591 C119 591 57 491 57 291 C57 97 119 0 196 0 C246 0 289 54 314 136 C314 136 314 0 314 0 C314 -75 287 -135 232 -135 C170 -135 121 -115 121 -75 C121 -75 68 -75 68 -75 L68 -75 Z M212 551 C269 551 314 435 314 291 C314 151 269 40 212 40 C180 40 154 124 154 291 C154 464 180 551 212 551 L212 551 Z " />
<glyph glyph-name="Hcircumflex" unicode="&#x124;" horiz-adv-x="633" d="M321 971 C321 971 370 891 370 891 C370 891 452 891 452 891 C452 891 366 1041 366 1041 C366 1041 276 1041 276 1041 C276 1041 190 891 190 891 C190 891 272 891 272 891 C272 891 321 971 321 971 L321 971 Z M483 0 C483 0 533 0 533 0 C533 0 563 0 563 0 C563 0 563 13 563 13 C563 13 533 66 533 66 C533 66 533 745 533 745 C533 745 563 798 563 798 C563 798 563 811 563 811 C563 811 533 811 533 811 C533 811 483 811 483 811 C483 811 433 811 433 811 C433 811 403 811 403 811 C403 811 403 798 403 798 C403 798 433 745 433 745 C433 745 433 433 433 433 C433 433 209 433 209 433 C209 433 209 745 209 745 C209 745 239 798 239 798 C239 798 239 811 239 811 C239 811 209 811 209 811 C209 811 159 811 159 811 C159 811 109 811 109 811 C109 811 79 811 79 811 C79 811 79 798 79 798 C79 798 109 745 109 745 C109 745 109 66 109 66 C109 66 79 13 79 13 C79 13 79 0 79 0 C79 0 109 0 109 0 C109 0 159 0 159 0 C159 0 209 0 209 0 C209 0 239 0 239 0 C239 0 239 13 239 13 C239 13 209 66 209 66 C209 66 209 389 209 389 C209 389 433 389 433 389 C433 389 433 66 433 66 C433 66 403 13 403 13 C403 13 403 0 403 0 C403 0 433 0 433 0 C433 0 483 0 483 0 L483 0 Z " />
<glyph glyph-name="Itilde" unicode="&#x128;" horiz-adv-x="302" d="M120 891 C120 929 126 959 133 959 C179 959 122 881 178 881 C218 881 251 942 251 1019 C251 1019 184 1019 184 1019 C184 981 178 951 172 951 C126 951 183 1029 127 1029 C86 1029 54 968 54 891 C54 891 120 891 120 891 L120 891 Z M152 0 C152 0 203 0 203 0 C203 0 232 0 232 0 C232 0 232 13 232 13 C232 13 203 66 203 66 C203 66 203 745 203 745 C203 745 232 798 232 798 C232 798 232 811 232 811 C232 811 203 811 203 811 C203 811 152 811 152 811 C152 811 102 811 102 811 C102 811 72 811 72 811 C72 811 72 798 72 798 C72 798 102 745 102 745 C102 745 102 66 102 66 C102 66 72 13 72 13 C72 13 72 0 72 0 C72 0 102 0 102 0 C102 0 152 0 152 0 L152 0 Z " />
<glyph glyph-name="itilde" unicode="&#x129;" horiz-adv-x="214" d="M53 661 C53 699 59 729 66 729 C111 729 55 651 110 651 C151 651 183 712 183 789 C183 789 117 789 117 789 C117 751 111 721 104 721 C59 721 115 799 60 799 C19 799 -13 738 -13 661 C-13 661 53 661 53 661 L53 661 Z M40 581 C40 581 10 581 10 581 C10 581 10 568 10 568 C10 568 40 515 40 515 C40 515 40 0 40 0 C40 0 130 0 130 0 C130 0 130 581 130 581 C130 581 85 581 85 581 C85 581 40 581 40 581 L40 581 Z " />
<glyph glyph-name="Imacron" unicode="&#x12a;" horiz-adv-x="302" d="M96 891 C96 891 208 891 208 891 C208 891 208 954 208 954 C208 954 96 954 96 954 C96 954 96 891 96 891 L96 891 Z M152 0 C152 0 203 0 203 0 C203 0 232 0 232 0 C232 0 232 13 232 13 C232 13 203 66 203 66 C203 66 203 745 203 745 C203 745 232 798 232 798 C232 798 232 811 232 811 C232 811 203 811 203 811 C203 811 152 811 152 811 C152 811 102 811 102 811 C102 811 72 811 72 811 C72 811 72 798 72 798 C72 798 102 745 102 745 C102 745 102 66 102 66 C102 66 72 13 72 13 C72 13 72 0 72 0 C72 0 102 0 102 0 C102 0 152 0 152 0 L152 0 Z " />
<glyph glyph-name="imacron" unicode="&#x12b;" horiz-adv-x="214" d="M29 661 C29 661 141 661 141 661 C141 661 141 724 141 724 C141 724 29 724 29 724 C29 724 29 661 29 661 L29 661 Z M85 0 C85 0 130 0 130 0 C130 0 160 0 160 0 C160 0 160 13 160 13 C160 13 130 66 130 66 C130 66 130 581 130 581 C130 581 85 581 85 581 C85 581 40 581 40 581 C40 581 10 581 10 581 C10 581 10 568 10 568 C10 568 40 515 40 515 C40 515 40 66 40 66 C40 66 10 13 10 13 C10 13 10 0 10 0 C10 0 40 0 40 0 C40 0 85 0 85 0 L85 0 Z " />
<glyph glyph-name="Ibreve" unicode="&#x12c;" horiz-adv-x="302" d="M84 1018 C84 942 114 881 152 881 C190 881 221 942 221 1018 C221 1018 155 1018 155 1018 C155 977 154 944 152 944 C151 944 150 977 150 1018 C150 1018 84 1018 84 1018 L84 1018 Z M152 0 C152 0 203 0 203 0 C203 0 232 0 232 0 C232 0 232 13 232 13 C232 13 203 66 203 66 C203 66 203 745 203 745 C203 745 232 798 232 798 C232 798 232 811 232 811 C232 811 203 811 203 811 C203 811 152 811 152 811 C152 811 102 811 102 811 C102 811 72 811 72 811 C72 811 72 798 72 798 C72 798 102 745 102 745 C102 745 102 66 102 66 C102 66 72 13 72 13 C72 13 72 0 72 0 C72 0 102 0 102 0 C102 0 152 0 152 0 L152 0 Z " />
<glyph glyph-name="ibreve" unicode="&#x12d;" horiz-adv-x="214" d="M16 788 C16 712 47 651 85 651 C123 651 154 712 154 788 C154 788 87 788 87 788 C87 747 86 714 85 714 C84 714 83 747 83 788 C83 788 16 788 16 788 L16 788 Z M85 0 C85 0 130 0 130 0 C130 0 160 0 160 0 C160 0 160 13 160 13 C160 13 130 66 130 66 C130 66 130 581 130 581 C130 581 85 581 85 581 C85 581 40 581 40 581 C40 581 10 581 10 581 C10 581 10 568 10 568 C10 568 40 515 40 515 C40 515 40 66 40 66 C40 66 10 13 10 13 C10 13 10 0 10 0 C10 0 40 0 40 0 C40 0 85 0 85 0 L85 0 Z " />
<glyph glyph-name="Idotaccent" unicode="&#x130;" horiz-adv-x="302" d="M104 891 C104 891 201 891 201 891 C201 891 201 989 201 989 C201 989 104 989 104 989 C104 989 104 891 104 891 L104 891 Z M152 0 C152 0 203 0 203 0 C203 0 232 0 232 0 C232 0 232 13 232 13 C232 13 203 66 203 66 C203 66 203 745 203 745 C203 745 232 798 232 798 C232 798 232 811 232 811 C232 811 203 811 203 811 C203 811 152 811 152 811 C152 811 102 811 102 811 C102 811 72 811 72 811 C72 811 72 798 72 798 C72 798 102 745 102 745 C102 745 102 66 102 66 C102 66 72 13 72 13 C72 13 72 0 72 0 C72 0 102 0 102 0 C102 0 152 0 152 0 L152 0 Z " />
<glyph glyph-name="dotlessi" unicode="&#x131;" horiz-adv-x="281" d="M122 0 C122 0 212 0 212 0 C212 0 212 581 212 581 C212 581 122 581 122 581 C122 581 122 0 122 0 L122 0 Z " />
<glyph glyph-name="Jcircumflex" unicode="&#x134;" horiz-adv-x="417" d="M282 971 C282 971 331 891 331 891 C331 891 413 891 413 891 C413 891 327 1041 327 1041 C327 1041 237 1041 237 1041 C237 1041 151 891 151 891 C151 891 233 891 233 891 C233 891 282 971 282 971 L282 971 Z M56 281 C56 281 56 218 56 218 C56 72 106 -10 194 -10 C278 -10 332 100 332 238 C332 238 332 745 332 745 C332 745 362 798 362 798 C362 798 362 811 362 811 C362 811 332 811 332 811 C332 811 282 811 282 811 C282 811 232 811 232 811 C232 811 202 811 202 811 C202 811 202 798 202 798 C202 798 232 745 232 745 C232 745 232 238 232 238 C232 129 217 41 194 41 C170 41 156 115 156 246 C156 246 156 298 156 298 C156 298 56 281 56 281 L56 281 Z " />
<glyph glyph-name="Lacute" unicode="&#x139;" horiz-adv-x="452" d="M111 891 C111 891 193 891 193 891 C193 891 241 1041 241 1041 C241 1041 124 1041 124 1041 C124 1041 111 891 111 891 L111 891 Z M408 22 C408 22 408 44 408 44 C408 44 408 74 408 74 C408 75 407 75 406 74 C399 75 394 75 394 74 C394 74 342 44 342 44 C342 44 203 44 203 44 C203 44 203 745 203 745 C203 745 232 798 232 798 C232 798 232 811 232 811 C232 811 203 811 203 811 C203 811 152 811 152 811 C152 811 102 811 102 811 C102 811 72 811 72 811 C72 811 72 798 72 798 C72 798 102 745 102 745 C102 745 102 66 102 66 C102 66 72 13 72 13 C72 13 72 0 72 0 C72 0 102 0 102 0 C102 0 152 0 152 0 C152 0 203 0 203 0 C203 0 408 0 408 0 C408 0 408 22 408 22 L408 22 Z " />
<glyph glyph-name="lacute" unicode="&#x13a;" horiz-adv-x="301" d="M93 851 C93 851 176 851 176 851 C176 851 223 1001 223 1001 C223 1001 106 1001 106 1001 C106 1001 93 851 93 851 L93 851 Z M157 0 C157 0 202 0 202 0 C202 0 232 0 232 0 C232 0 232 13 232 13 C232 13 202 66 202 66 C202 66 202 801 202 801 C202 801 202 811 202 811 C202 811 157 811 157 811 C157 811 112 811 112 811 C112 811 82 811 82 811 C82 811 82 798 82 798 C82 798 112 745 112 745 C112 745 112 66 112 66 C112 66 82 13 82 13 C82 13 82 0 82 0 C82 0 112 0 112 0 C112 0 157 0 157 0 L157 0 Z " />
<glyph glyph-name="Lcaron" unicode="&#x13d;" horiz-adv-x="452" d="M286 821 C286 821 294 671 294 671 C294 671 360 671 360 671 C360 671 384 821 384 821 C384 821 286 821 286 821 L286 821 Z M408 22 C408 22 408 44 408 44 C408 44 408 74 408 74 C408 75 407 75 406 74 C399 75 394 75 394 74 C394 74 342 44 342 44 C342 44 203 44 203 44 C203 44 203 745 203 745 C203 745 232 798 232 798 C232 798 232 811 232 811 C232 811 203 811 203 811 C203 811 152 811 152 811 C152 811 102 811 102 811 C102 811 72 811 72 811 C72 811 72 798 72 798 C72 798 102 745 102 745 C102 745 102 66 102 66 C102 66 72 13 72 13 C72 13 72 0 72 0 C72 0 102 0 102 0 C102 0 152 0 152 0 C152 0 203 0 203 0 C203 0 408 0 408 0 C408 0 408 22 408 22 L408 22 Z " />
<glyph glyph-name="lcaron" unicode="&#x13e;" horiz-adv-x="301" d="M252 821 C252 821 260 671 260 671 C260 671 326 671 326 671 C326 671 350 821 350 821 C350 821 252 821 252 821 L252 821 Z M157 0 C157 0 202 0 202 0 C202 0 232 0 232 0 C232 0 232 13 232 13 C232 13 202 66 202 66 C202 66 202 801 202 801 C202 801 202 811 202 811 C202 811 157 811 157 811 C157 811 112 811 112 811 C112 811 82 811 82 811 C82 811 82 798 82 798 C82 798 112 745 112 745 C112 745 112 66 112 66 C112 66 82 13 82 13 C82 13 82 0 82 0 C82 0 112 0 112 0 C112 0 157 0 157 0 L157 0 Z " />
<glyph glyph-name="Lslash" unicode="&#x141;" horiz-adv-x="452" d="M22 337 C22 337 102 365 102 365 C102 365 102 66 102 66 C102 66 72 13 72 13 C72 13 72 0 72 0 C72 0 102 0 102 0 C102 0 152 0 152 0 C152 0 203 0 203 0 C203 0 408 0 408 0 C408 0 408 22 408 22 C408 22 408 44 408 44 C408 44 408 74 408 74 C408 75 407 75 406 74 C399 75 394 75 394 74 C394 74 342 44 342 44 C342 44 203 44 203 44 C203 44 203 401 203 401 C203 401 305 437 305 437 C305 437 305 474 305 474 C305 474 203 438 203 438 C203 438 203 745 203 745 C203 745 232 798 232 798 C232 798 232 811 232 811 C232 811 203 811 203 811 C203 811 152 811 152 811 C152 811 102 811 102 811 C102 811 72 811 72 811 C72 811 72 798 72 798 C72 798 102 745 102 745 C102 745 102 402 102 402 C102 402 22 374 22 374 C22 374 22 337 22 337 L22 337 Z " />
<glyph glyph-name="lslash" unicode="&#x142;" horiz-adv-x="301" d="M32 337 C32 337 112 369 112 369 C112 369 112 66 112 66 C112 66 82 13 82 13 C82 13 82 0 82 0 C82 0 112 0 112 0 C112 0 157 0 157 0 C157 0 202 0 202 0 C202 0 232 0 232 0 C232 0 232 13 232 13 C232 13 202 66 202 66 C202 66 202 405 202 405 C202 405 282 437 282 437 C282 437 282 474 282 474 C282 474 202 442 202 442 C202 442 202 801 202 801 C202 801 202 811 202 811 C202 811 157 811 157 811 C157 811 112 811 112 811 C112 811 82 811 82 811 C82 811 82 798 82 798 C82 798 112 745 112 745 C112 745 112 406 112 406 C112 406 32 374 32 374 C32 374 32 337 32 337 L32 337 Z " />
<glyph glyph-name="Nacute" unicode="&#x143;" horiz-adv-x="559" d="M149 891 C149 891 231 891 231 891 C231 891 279 1041 279 1041 C279 1041 161 1041 161 1041 C161 1041 149 891 149 891 L149 891 Z M405 745 C405 745 405 135 405 135 C405 135 220 811 220 811 C220 811 175 811 175 811 C175 811 148 811 148 811 C148 811 120 811 120 811 C120 811 90 811 90 811 C90 811 90 798 90 798 C90 798 120 745 120 745 C120 745 120 66 120 66 C120 66 90 13 90 13 C90 13 90 0 90 0 C90 0 120 0 120 0 C120 0 148 0 148 0 C148 0 175 0 175 0 C175 0 205 0 205 0 C205 0 205 13 205 13 C205 13 175 66 175 66 C175 66 175 611 175 611 C175 611 343 0 343 0 C343 0 405 0 405 0 C405 0 442 0 442 0 C442 0 460 0 460 0 C460 0 460 745 460 745 C460 745 490 798 490 798 C490 798 490 811 490 811 C490 811 460 811 460 811 C460 811 433 811 433 811 C433 811 405 811 405 811 C405 811 375 811 375 811 C375 811 375 798 375 798 C375 798 405 745 405 745 L405 745 Z " />
<glyph glyph-name="nacute" unicode="&#x144;" horiz-adv-x="438" d="M184 661 C184 661 266 661 266 661 C266 661 314 811 314 811 C314 811 196 811 196 811 C196 811 184 661 184 661 L184 661 Z M314 0 C314 0 358 0 358 0 C358 0 388 0 388 0 C388 0 388 13 388 13 C388 13 358 66 358 66 C358 66 358 376 358 376 C358 504 318 586 269 586 C232 586 199 550 181 496 C181 496 181 571 181 571 C181 571 181 581 181 581 C181 581 136 581 136 581 C136 581 114 581 114 581 C114 581 92 581 92 581 C92 581 62 581 62 581 C62 581 62 568 62 568 C62 568 92 515 92 515 C92 515 92 66 92 66 C92 66 62 13 62 13 C62 13 62 0 62 0 C62 0 92 0 92 0 C92 0 136 0 136 0 C136 0 181 0 181 0 C181 0 211 0 211 0 C212 0 212 1 211 1 C212 8 212 13 211 13 C211 13 181 66 181 66 C181 66 181 392 181 392 C181 475 212 542 250 542 C260 542 269 477 269 376 C269 376 269 66 269 66 C269 66 239 13 239 13 C239 13 239 0 239 0 C239 0 269 0 269 0 C269 0 314 0 314 0 L314 0 Z " />
<glyph glyph-name="Ncaron" unicode="&#x147;" horiz-adv-x="559" d="M290 961 C290 961 339 1041 339 1041 C339 1041 421 1041 421 1041 C421 1041 335 891 335 891 C335 891 245 891 245 891 C245 891 159 1041 159 1041 C159 1041 241 1041 241 1041 C241 1041 290 961 290 961 L290 961 Z M405 745 C405 745 405 135 405 135 C405 135 220 811 220 811 C220 811 175 811 175 811 C175 811 148 811 148 811 C148 811 120 811 120 811 C120 811 90 811 90 811 C90 811 90 798 90 798 C90 798 120 745 120 745 C120 745 120 66 120 66 C120 66 90 13 90 13 C90 13 90 0 90 0 C90 0 120 0 120 0 C120 0 148 0 148 0 C148 0 175 0 175 0 C175 0 205 0 205 0 C205 0 205 13 205 13 C205 13 175 66 175 66 C175 66 175 611 175 611 C175 611 343 0 343 0 C343 0 405 0 405 0 C405 0 442 0 442 0 C442 0 460 0 460 0 C460 0 460 745 460 745 C460 745 490 798 490 798 C490 798 490 811 490 811 C490 811 460 811 460 811 C460 811 433 811 433 811 C433 811 405 811 405 811 C405 811 375 811 375 811 C375 811 375 798 375 798 C375 798 405 745 405 745 L405 745 Z " />
<glyph glyph-name="ncaron" unicode="&#x148;" horiz-adv-x="438" d="M225 731 C225 731 274 811 274 811 C274 811 356 811 356 811 C356 811 270 661 270 661 C270 661 180 661 180 661 C180 661 94 811 94 811 C94 811 176 811 176 811 C176 811 225 731 225 731 L225 731 Z M314 0 C314 0 358 0 358 0 C358 0 388 0 388 0 C388 0 388 13 388 13 C388 13 358 66 358 66 C358 66 358 376 358 376 C358 504 318 586 269 586 C232 586 199 550 181 496 C181 496 181 571 181 571 C181 571 181 581 181 581 C181 581 136 581 136 581 C136 581 114 581 114 581 C114 581 92 581 92 581 C92 581 62 581 62 581 C62 581 62 568 62 568 C62 568 92 515 92 515 C92 515 92 66 92 66 C92 66 62 13 62 13 C62 13 62 0 62 0 C62 0 92 0 92 0 C92 0 136 0 136 0 C136 0 181 0 181 0 C181 0 211 0 211 0 C212 0 212 1 211 1 C212 8 212 13 211 13 C211 13 181 66 181 66 C181 66 181 392 181 392 C181 475 212 542 250 542 C260 542 269 477 269 376 C269 376 269 66 269 66 C269 66 239 13 239 13 C239 13 239 0 239 0 C239 0 269 0 269 0 C269 0 314 0 314 0 L314 0 Z " />
<glyph glyph-name="Omacron" unicode="&#x14c;" horiz-adv-x="694" d="M296 891 C296 891 408 891 408 891 C408 891 408 954 408 954 C408 954 296 954 296 954 C296 954 296 891 296 891 L296 891 Z M352 34 C252 34 172 199 172 406 C172 602 257 777 352 777 C446 777 531 602 531 406 C531 199 451 34 352 34 L352 34 Z M64 406 C64 175 192 -10 352 -10 C511 -10 639 175 639 406 C639 625 503 821 352 821 C200 821 64 625 64 406 L64 406 Z " />
<glyph glyph-name="omacron" unicode="&#x14d;" horiz-adv-x="470" d="M182 661 C182 661 294 661 294 661 C294 661 294 724 294 724 C294 724 182 724 182 724 C182 724 182 661 182 661 L182 661 Z M238 26 C184 26 154 144 154 291 C154 459 191 555 238 555 C292 555 322 437 322 291 C322 122 285 26 238 26 L238 26 Z M57 291 C57 124 122 -10 238 -10 C339 -10 420 99 420 291 C420 457 354 591 238 591 C138 591 57 482 57 291 L57 291 Z " />
<glyph glyph-name="Obreve" unicode="&#x14e;" horiz-adv-x="694" d="M283 1018 C283 942 313 881 352 881 C390 881 420 942 420 1018 C420 1018 354 1018 354 1018 C354 977 353 944 352 944 C350 944 349 977 349 1018 C349 1018 283 1018 283 1018 L283 1018 Z M352 34 C252 34 172 199 172 406 C172 602 257 777 352 777 C446 777 531 602 531 406 C531 199 451 34 352 34 L352 34 Z M64 406 C64 175 192 -10 352 -10 C511 -10 639 175 639 406 C639 625 503 821 352 821 C200 821 64 625 64 406 L64 406 Z " />
<glyph glyph-name="obreve" unicode="&#x14f;" horiz-adv-x="470" d="M170 788 C170 712 200 651 238 651 C276 651 307 712 307 788 C307 788 240 788 240 788 C240 747 239 714 238 714 C237 714 236 747 236 788 C236 788 170 788 170 788 L170 788 Z M238 26 C184 26 154 144 154 291 C154 459 191 555 238 555 C292 555 322 437 322 291 C322 122 285 26 238 26 L238 26 Z M57 291 C57 124 122 -10 238 -10 C339 -10 420 99 420 291 C420 457 354 591 238 591 C138 591 57 482 57 291 L57 291 Z " />
<glyph glyph-name="Racute" unicode="&#x154;" horiz-adv-x="533" d="M255 891 C255 891 337 891 337 891 C337 891 385 1041 385 1041 C385 1041 268 1041 268 1041 C268 1041 255 891 255 891 L255 891 Z M530 13 C530 13 473 66 473 66 C473 66 473 66 473 66 C473 66 325 351 325 351 C325 351 300 351 300 351 C414 369 484 450 484 568 C484 716 392 811 249 811 C249 811 209 811 209 811 C209 811 159 811 159 811 C159 811 134 811 134 811 C134 811 109 811 109 811 C109 811 79 811 79 811 C79 811 79 798 79 798 C79 798 109 745 109 745 C109 745 109 66 109 66 C109 66 79 13 79 13 C79 13 79 0 79 0 C79 0 109 0 109 0 C109 0 159 0 159 0 C159 0 209 0 209 0 C209 0 239 0 239 0 C239 0 239 13 239 13 C239 13 209 66 209 66 C209 66 209 347 209 347 C209 347 212 347 212 347 C212 347 392 0 392 0 C392 0 449 0 449 0 C449 0 507 0 507 0 C507 0 530 0 530 0 C530 0 530 13 530 13 L530 13 Z M209 389 C209 389 209 769 209 769 C209 769 246 769 246 769 C331 769 384 691 384 568 C384 459 332 389 250 389 C250 389 209 389 209 389 L209 389 Z " />
<glyph glyph-name="racute" unicode="&#x155;" horiz-adv-x="267" d="M128 661 C128 661 211 661 211 661 C211 661 258 811 258 811 C258 811 141 811 141 811 C141 811 128 661 128 661 L128 661 Z M247 528 C247 528 247 581 247 581 C247 581 243 581 243 581 C215 581 194 544 181 485 C181 485 181 571 181 571 C181 571 181 581 181 581 C181 581 136 581 136 581 C136 581 114 581 114 581 C114 581 92 581 92 581 C92 581 62 581 62 581 C62 581 62 568 62 568 C62 568 92 515 92 515 C92 515 92 66 92 66 C92 66 62 13 62 13 C62 13 62 0 62 0 C62 0 92 0 92 0 C92 0 136 0 136 0 C136 0 181 0 181 0 C181 0 211 0 211 0 C212 0 212 1 211 1 C212 8 212 13 211 13 C211 13 181 66 181 66 C181 66 181 302 181 302 C181 428 200 528 239 528 C239 528 247 528 247 528 L247 528 Z " />
<glyph glyph-name="Rcaron" unicode="&#x158;" horiz-adv-x="533" d="M296 961 C296 961 345 1041 345 1041 C345 1041 427 1041 427 1041 C427 1041 342 891 342 891 C342 891 251 891 251 891 C251 891 165 1041 165 1041 C165 1041 248 1041 248 1041 C248 1041 296 961 296 961 L296 961 Z M530 13 C530 13 473 66 473 66 C473 66 473 66 473 66 C473 66 325 351 325 351 C325 351 300 351 300 351 C414 369 484 450 484 568 C484 716 392 811 249 811 C249 811 209 811 209 811 C209 811 159 811 159 811 C159 811 134 811 134 811 C134 811 109 811 109 811 C109 811 79 811 79 811 C79 811 79 798 79 798 C79 798 109 745 109 745 C109 745 109 66 109 66 C109 66 79 13 79 13 C79 13 79 0 79 0 C79 0 109 0 109 0 C109 0 159 0 159 0 C159 0 209 0 209 0 C209 0 239 0 239 0 C239 0 239 13 239 13 C239 13 209 66 209 66 C209 66 209 347 209 347 C209 347 212 347 212 347 C212 347 392 0 392 0 C392 0 449 0 449 0 C449 0 507 0 507 0 C507 0 530 0 530 0 C530 0 530 13 530 13 L530 13 Z M209 389 C209 389 209 769 209 769 C209 769 246 769 246 769 C331 769 384 691 384 568 C384 459 332 389 250 389 C250 389 209 389 209 389 L209 389 Z " />
<glyph glyph-name="rcaron" unicode="&#x159;" horiz-adv-x="267" d="M169 731 C169 731 218 811 218 811 C218 811 300 811 300 811 C300 811 215 661 215 661 C215 661 124 661 124 661 C124 661 38 811 38 811 C38 811 121 811 121 811 C121 811 169 731 169 731 L169 731 Z M247 528 C247 528 247 581 247 581 C247 581 243 581 243 581 C215 581 194 544 181 485 C181 485 181 571 181 571 C181 571 181 581 181 581 C181 581 136 581 136 581 C136 581 114 581 114 581 C114 581 92 581 92 581 C92 581 62 581 62 581 C62 581 62 568 62 568 C62 568 92 515 92 515 C92 515 92 66 92 66 C92 66 62 13 62 13 C62 13 62 0 62 0 C62 0 92 0 92 0 C92 0 136 0 136 0 C136 0 181 0 181 0 C181 0 211 0 211 0 C212 0 212 1 211 1 C212 8 212 13 211 13 C211 13 181 66 181 66 C181 66 181 302 181 302 C181 428 200 528 239 528 C239 528 247 528 247 528 L247 528 Z " />
<glyph glyph-name="Sacute" unicode="&#x15a;" horiz-adv-x="476" d="M187 891 C187 891 269 891 269 891 C269 891 317 1041 317 1041 C317 1041 200 1041 200 1041 C200 1041 187 891 187 891 L187 891 Z M54 142 C70 48 157 -10 263 -10 C372 -10 442 95 442 227 C442 328 368 422 252 468 C188 494 148 546 148 602 C148 697 175 773 210 773 C297 773 366 722 366 643 C366 643 385 660 385 660 C385 660 385 660 385 660 C385 660 404 678 404 678 C404 678 404 708 404 708 C404 708 400 708 400 708 C392 741 370 768 339 788 C339 788 339 788 339 788 C339 788 339 788 339 788 C305 809 260 821 210 821 C118 821 44 719 44 591 C44 498 114 411 225 367 C296 338 341 282 341 223 C341 120 311 38 263 38 C172 38 99 103 99 204 C99 204 52 172 52 172 C52 172 52 142 52 142 C52 142 54 142 54 142 L54 142 Z " />
<glyph glyph-name="sacute" unicode="&#x15b;" horiz-adv-x="390" d="M160 661 C160 661 242 661 242 661 C242 661 290 811 290 811 C290 811 173 811 173 811 C173 811 160 661 160 661 L160 661 Z M46 106 C54 72 77 43 108 23 C108 23 108 23 108 23 C108 23 108 23 108 23 C136 5 170 -5 207 -5 C292 -5 360 68 360 158 C360 221 304 294 215 331 C175 347 150 390 150 430 C150 497 173 550 201 550 C255 550 298 494 298 425 C298 425 318 434 318 434 C318 434 338 443 338 443 C338 443 338 473 338 473 C338 473 335 473 335 473 C327 512 304 545 272 565 C272 566 272 566 272 566 C272 566 272 566 272 566 C251 579 227 586 201 586 C126 586 65 513 65 423 C65 357 115 283 194 251 C241 231 271 189 271 151 C271 85 243 33 207 33 C140 33 86 86 86 153 C86 153 42 136 42 136 C42 136 42 106 42 106 C42 106 46 106 46 106 L46 106 Z " />
<glyph glyph-name="Scircumflex" unicode="&#x15c;" horiz-adv-x="476" d="M228 971 C228 971 277 891 277 891 C277 891 359 891 359 891 C359 891 274 1041 274 1041 C274 1041 183 1041 183 1041 C183 1041 97 891 97 891 C97 891 179 891 179 891 C179 891 228 971 228 971 L228 971 Z M54 142 C70 48 157 -10 263 -10 C372 -10 442 95 442 227 C442 328 368 422 252 468 C188 494 148 546 148 602 C148 697 175 773 210 773 C297 773 366 722 366 643 C366 643 385 660 385 660 C385 660 385 660 385 660 C385 660 404 678 404 678 C404 678 404 708 404 708 C404 708 400 708 400 708 C392 741 370 768 339 788 C339 788 339 788 339 788 C339 788 339 788 339 788 C305 809 260 821 210 821 C118 821 44 719 44 591 C44 498 114 411 225 367 C296 338 341 282 341 223 C341 120 311 38 263 38 C172 38 99 103 99 204 C99 204 52 172 52 172 C52 172 52 142 52 142 C52 142 54 142 54 142 L54 142 Z " />
<glyph glyph-name="Scedilla" unicode="&#x15e;" horiz-adv-x="476" d="M247 -73 C247 -73 263 -10 263 -10 C372 -10 442 95 442 227 C442 328 368 422 252 468 C188 494 148 546 148 602 C148 697 175 773 210 773 C297 773 366 722 366 643 C366 643 385 660 385 660 C385 660 385 660 385 660 C385 660 404 678 404 678 C404 678 404 708 404 708 C404 708 400 708 400 708 C392 741 370 768 339 788 C339 788 339 788 339 788 C339 788 339 788 339 788 C305 809 260 821 210 821 C118 821 44 719 44 591 C44 498 114 411 225 367 C296 338 341 282 341 223 C341 120 311 38 263 38 C172 38 99 103 99 204 C99 204 52 172 52 172 C52 172 52 142 52 142 C52 142 54 142 54 142 C69 53 148 -4 247 -10 C247 -10 223 -103 223 -103 C223 -103 237 -111 237 -111 C237 -111 237 -109 237 -109 C239 -102 242 -96 244 -96 C248 -96 252 -118 252 -146 C252 -174 247 -196 241 -196 C241 -196 237 -182 232 -164 C232 -164 213 -179 213 -179 C222 -212 236 -239 244 -239 C277 -239 303 -198 303 -146 C303 -105 278 -72 248 -72 C248 -72 247 -72 247 -73 C247 -73 247 -73 247 -73 L247 -73 Z " />
<glyph glyph-name="scedilla" unicode="&#x15f;" horiz-adv-x="390" d="M192 -73 C192 -73 210 -5 210 -5 C294 -3 360 69 360 158 C360 221 304 294 215 331 C175 347 150 390 150 430 C150 497 173 550 201 550 C255 550 298 494 298 425 C298 425 318 434 318 434 C318 434 338 443 338 443 C338 443 338 473 338 473 C338 473 335 473 335 473 C327 512 304 545 272 565 C272 566 272 566 272 566 C272 566 272 566 272 566 C251 579 227 586 201 586 C126 586 65 513 65 423 C65 357 115 283 194 251 C241 231 271 189 271 151 C271 85 243 33 207 33 C140 33 86 86 86 153 C86 153 42 136 42 136 C42 136 42 106 42 106 C42 106 46 106 46 106 C54 72 77 43 108 23 C108 23 108 23 108 23 C108 23 108 23 108 23 C132 8 161 -2 193 -5 C193 -5 168 -103 168 -103 C168 -103 182 -111 182 -111 C182 -111 183 -109 183 -109 C185 -102 187 -96 189 -96 C193 -96 197 -118 197 -146 C197 -174 192 -196 186 -196 C186 -196 182 -182 177 -164 C177 -164 158 -179 158 -179 C167 -212 181 -239 189 -239 C222 -239 248 -198 248 -146 C248 -105 223 -72 193 -72 C193 -72 192 -72 192 -73 C192 -73 192 -73 192 -73 L192 -73 Z " />
<glyph glyph-name="Scaron" unicode="&#x160;" horiz-adv-x="476" d="M228 961 C228 961 277 1041 277 1041 C277 1041 359 1041 359 1041 C359 1041 274 891 274 891 C274 891 183 891 183 891 C183 891 97 1041 97 1041 C97 1041 179 1041 179 1041 C179 1041 228 961 228 961 L228 961 Z M54 142 C70 48 157 -10 263 -10 C372 -10 442 95 442 227 C442 328 368 422 252 468 C188 494 148 546 148 602 C148 697 175 773 210 773 C297 773 366 722 366 643 C366 643 385 660 385 660 C385 660 385 660 385 660 C385 660 404 678 404 678 C404 678 404 708 404 708 C404 708 400 708 400 708 C392 741 370 768 339 788 C339 788 339 788 339 788 C339 788 339 788 339 788 C305 809 260 821 210 821 C118 821 44 719 44 591 C44 498 114 411 225 367 C296 338 341 282 341 223 C341 120 311 38 263 38 C172 38 99 103 99 204 C99 204 52 172 52 172 C52 172 52 142 52 142 C52 142 54 142 54 142 L54 142 Z " />
<glyph glyph-name="scaron" unicode="&#x161;" horiz-adv-x="390" d="M201 731 C201 731 250 811 250 811 C250 811 332 811 332 811 C332 811 247 661 247 661 C247 661 156 661 156 661 C156 661 70 811 70 811 C70 811 152 811 152 811 C152 811 201 731 201 731 L201 731 Z M46 106 C54 72 77 43 108 23 C108 23 108 23 108 23 C108 23 108 23 108 23 C136 5 170 -5 207 -5 C292 -5 360 68 360 158 C360 221 304 294 215 331 C175 347 150 390 150 430 C150 497 173 550 201 550 C255 550 298 494 298 425 C298 425 318 434 318 434 C318 434 338 443 338 443 C338 443 338 473 338 473 C338 473 335 473 335 473 C327 512 304 545 272 565 C272 566 272 566 272 566 C272 566 272 566 272 566 C251 579 227 586 201 586 C126 586 65 513 65 423 C65 357 115 283 194 251 C241 231 271 189 271 151 C271 85 243 33 207 33 C140 33 86 86 86 153 C86 153 42 136 42 136 C42 136 42 106 42 106 C42 106 46 106 46 106 L46 106 Z " />
<glyph glyph-name="Tcaron" unicode="&#x164;" horiz-adv-x="475" d="M238 961 C238 961 286 1041 286 1041 C286 1041 369 1041 369 1041 C369 1041 283 891 283 891 C283 891 192 891 192 891 C192 891 107 1041 107 1041 C107 1041 189 1041 189 1041 C189 1041 238 961 238 961 L238 961 Z M238 0 C238 0 288 0 288 0 C288 0 318 0 318 0 C317 0 317 1 318 1 C317 8 317 13 318 13 C318 13 288 66 288 66 C288 66 288 767 288 767 C288 767 399 767 399 767 C399 767 452 737 452 737 C452 737 465 737 465 737 C465 737 465 767 465 767 C465 767 465 789 465 789 C465 789 465 811 465 811 C465 811 288 811 288 811 C288 811 187 811 187 811 C187 811 10 811 10 811 C10 811 10 789 10 789 C10 789 10 767 10 767 C10 767 10 737 10 737 C10 737 23 737 23 737 C23 737 76 767 76 767 C76 767 187 767 187 767 C187 767 187 66 187 66 C187 66 157 13 157 13 C157 13 157 0 157 0 C157 0 187 0 187 0 C187 0 237 0 237 0 C237 0 238 0 238 0 L238 0 Z " />
<glyph glyph-name="tcaron" unicode="&#x165;" horiz-adv-x="225" d="M188 821 C188 821 196 671 196 671 C196 671 262 671 262 671 C262 671 286 821 286 821 C286 821 188 821 188 821 L188 821 Z M195 581 C195 581 138 581 138 581 C138 581 138 807 138 807 C138 807 48 732 48 732 C48 732 48 581 48 581 C48 581 10 581 10 581 C10 581 10 543 10 543 C10 543 48 543 48 543 C48 543 48 142 48 142 C48 43 56 0 122 0 C122 0 195 0 195 0 C195 0 195 40 195 40 C195 40 143 40 143 40 C139 40 138 71 138 142 C138 142 138 543 138 543 C138 543 195 543 195 543 C195 543 195 581 195 581 L195 581 Z " />
<glyph glyph-name="Utilde" unicode="&#x168;" horiz-adv-x="601" d="M272 881 C272 919 278 949 285 949 C331 949 274 871 330 871 C370 871 403 932 403 1009 C403 1009 336 1009 336 1009 C336 971 330 941 324 941 C278 941 335 1019 279 1019 C238 1019 206 958 206 881 C206 881 272 881 272 881 L272 881 Z M102 745 C102 745 102 315 102 315 C102 116 181 -10 304 -10 C428 -10 507 117 507 317 C507 317 507 745 507 745 C507 745 537 798 537 798 C537 798 537 811 537 811 C537 811 507 811 507 811 C507 811 480 811 480 811 C480 811 452 811 452 811 C452 811 422 811 422 811 C422 811 422 798 422 798 C422 798 452 745 452 745 C452 745 452 326 452 326 C452 152 395 41 304 41 C242 41 202 154 202 332 C202 332 202 745 202 745 C202 745 232 798 232 798 C232 798 232 811 232 811 C232 811 202 811 202 811 C202 811 152 811 152 811 C152 811 102 811 102 811 C102 811 72 811 72 811 C72 811 72 798 72 798 C72 798 102 745 102 745 L102 745 Z " />
<glyph glyph-name="utilde" unicode="&#x169;" horiz-adv-x="447" d="M193 661 C193 699 199 729 206 729 C251 729 194 651 250 651 C291 651 323 712 323 789 C323 789 257 789 257 789 C257 751 251 721 244 721 C198 721 255 799 199 799 C159 799 126 738 126 661 C126 661 193 661 193 661 L193 661 Z M363 66 C363 66 363 581 363 581 C363 581 318 581 318 581 C318 581 273 581 273 581 C273 581 243 581 243 581 C243 581 243 568 243 568 C243 568 273 515 273 515 C273 515 273 144 273 144 C273 83 242 34 202 34 C183 34 176 94 176 189 C176 189 176 581 176 581 C176 581 131 581 131 581 C131 581 87 581 87 581 C87 581 57 581 57 581 C57 581 57 568 57 568 C57 568 87 515 87 515 C87 515 87 189 87 189 C87 67 115 -10 187 -10 C224 -10 256 21 273 67 C273 67 273 10 273 10 C273 10 273 0 273 0 C273 0 318 0 318 0 C318 0 363 0 363 0 C363 0 393 0 393 0 C393 0 393 13 393 13 C393 13 363 66 363 66 L363 66 Z " />
<glyph glyph-name="Umacron" unicode="&#x16a;" horiz-adv-x="601" d="M248 881 C248 881 360 881 360 881 C360 881 360 944 360 944 C360 944 248 944 248 944 C248 944 248 881 248 881 L248 881 Z M102 745 C102 745 102 315 102 315 C102 116 181 -10 304 -10 C428 -10 507 117 507 317 C507 317 507 745 507 745 C507 745 537 798 537 798 C537 798 537 811 537 811 C537 811 507 811 507 811 C507 811 480 811 480 811 C480 811 452 811 452 811 C452 811 422 811 422 811 C422 811 422 798 422 798 C422 798 452 745 452 745 C452 745 452 326 452 326 C452 152 395 41 304 41 C242 41 202 154 202 332 C202 332 202 745 202 745 C202 745 232 798 232 798 C232 798 232 811 232 811 C232 811 202 811 202 811 C202 811 152 811 152 811 C152 811 102 811 102 811 C102 811 72 811 72 811 C72 811 72 798 72 798 C72 798 102 745 102 745 L102 745 Z " />
<glyph glyph-name="umacron" unicode="&#x16b;" horiz-adv-x="447" d="M169 661 C169 661 281 661 281 661 C281 661 281 724 281 724 C281 724 169 724 169 724 C169 724 169 661 169 661 L169 661 Z M363 66 C363 66 363 581 363 581 C363 581 318 581 318 581 C318 581 273 581 273 581 C273 581 243 581 243 581 C243 581 243 568 243 568 C243 568 273 515 273 515 C273 515 273 144 273 144 C273 83 242 34 202 34 C183 34 176 94 176 189 C176 189 176 581 176 581 C176 581 131 581 131 581 C131 581 87 581 87 581 C87 581 57 581 57 581 C57 581 57 568 57 568 C57 568 87 515 87 515 C87 515 87 189 87 189 C87 67 115 -10 187 -10 C224 -10 256 21 273 67 C273 67 273 10 273 10 C273 10 273 0 273 0 C273 0 318 0 318 0 C318 0 363 0 363 0 C363 0 393 0 393 0 C393 0 393 13 393 13 C393 13 363 66 363 66 L363 66 Z " />
<glyph glyph-name="Ubreve" unicode="&#x16c;" horiz-adv-x="601" d="M236 1008 C236 932 266 871 304 871 C342 871 373 932 373 1008 C373 1008 307 1008 307 1008 C307 967 306 934 304 934 C303 934 302 967 302 1008 C302 1008 236 1008 236 1008 L236 1008 Z M102 745 C102 745 102 315 102 315 C102 116 181 -10 304 -10 C428 -10 507 117 507 317 C507 317 507 745 507 745 C507 745 537 798 537 798 C537 798 537 811 537 811 C537 811 507 811 507 811 C507 811 480 811 480 811 C480 811 452 811 452 811 C452 811 422 811 422 811 C422 811 422 798 422 798 C422 798 452 745 452 745 C452 745 452 326 452 326 C452 152 395 41 304 41 C242 41 202 154 202 332 C202 332 202 745 202 745 C202 745 232 798 232 798 C232 798 232 811 232 811 C232 811 202 811 202 811 C202 811 152 811 152 811 C152 811 102 811 102 811 C102 811 72 811 72 811 C72 811 72 798 72 798 C72 798 102 745 102 745 L102 745 Z " />
<glyph glyph-name="ubreve" unicode="&#x16d;" horiz-adv-x="447" d="M156 788 C156 712 187 651 225 651 C263 651 293 712 293 788 C293 788 227 788 227 788 C227 747 226 714 225 714 C224 714 223 747 223 788 C223 788 156 788 156 788 L156 788 Z M363 66 C363 66 363 581 363 581 C363 581 318 581 318 581 C318 581 273 581 273 581 C273 581 243 581 243 581 C243 581 243 568 243 568 C243 568 273 515 273 515 C273 515 273 144 273 144 C273 83 242 34 202 34 C183 34 176 94 176 189 C176 189 176 581 176 581 C176 581 131 581 131 581 C131 581 87 581 87 581 C87 581 57 581 57 581 C57 581 57 568 57 568 C57 568 87 515 87 515 C87 515 87 189 87 189 C87 67 115 -10 187 -10 C224 -10 256 21 273 67 C273 67 273 10 273 10 C273 10 273 0 273 0 C273 0 318 0 318 0 C318 0 363 0 363 0 C363 0 393 0 393 0 C393 0 393 13 393 13 C393 13 363 66 363 66 L363 66 Z " />
<glyph glyph-name="Uring" unicode="&#x16e;" horiz-adv-x="601" d="M304 923 C280 923 265 940 265 966 C265 992 281 1010 304 1010 C327 1010 344 992 344 966 C344 940 329 923 304 923 L304 923 Z M220 966 C220 914 253 881 304 881 C355 881 388 914 388 966 C388 1016 353 1051 304 1051 C255 1051 220 1016 220 966 L220 966 Z M102 745 C102 745 102 315 102 315 C102 116 181 -10 304 -10 C428 -10 507 117 507 317 C507 317 507 745 507 745 C507 745 537 798 537 798 C537 798 537 811 537 811 C537 811 507 811 507 811 C507 811 480 811 480 811 C480 811 452 811 452 811 C452 811 422 811 422 811 C422 811 422 798 422 798 C422 798 452 745 452 745 C452 745 452 326 452 326 C452 152 395 41 304 41 C242 41 202 154 202 332 C202 332 202 745 202 745 C202 745 232 798 232 798 C232 798 232 811 232 811 C232 811 202 811 202 811 C202 811 152 811 152 811 C152 811 102 811 102 811 C102 811 72 811 72 811 C72 811 72 798 72 798 C72 798 102 745 102 745 L102 745 Z " />
<glyph glyph-name="uring" unicode="&#x16f;" horiz-adv-x="447" d="M225 703 C200 703 185 720 185 746 C185 772 202 790 225 790 C248 790 264 772 264 746 C264 720 249 703 225 703 L225 703 Z M141 746 C141 694 174 661 225 661 C276 661 309 694 309 746 C309 796 274 831 225 831 C176 831 141 796 141 746 L141 746 Z M363 66 C363 66 363 581 363 581 C363 581 318 581 318 581 C318 581 273 581 273 581 C273 581 243 581 243 581 C243 581 243 568 243 568 C243 568 273 515 273 515 C273 515 273 144 273 144 C273 83 242 34 202 34 C183 34 176 94 176 189 C176 189 176 581 176 581 C176 581 131 581 131 581 C131 581 87 581 87 581 C87 581 57 581 57 581 C57 581 57 568 57 568 C57 568 87 515 87 515 C87 515 87 189 87 189 C87 67 115 -10 187 -10 C224 -10 256 21 273 67 C273 67 273 10 273 10 C273 10 273 0 273 0 C273 0 318 0 318 0 C318 0 363 0 363 0 C363 0 393 0 393 0 C393 0 393 13 393 13 C393 13 363 66 363 66 L363 66 Z " />
<glyph glyph-name="Wcircumflex" unicode="&#x174;" horiz-adv-x="720" d="M365 971 C365 971 414 891 414 891 C414 891 496 891 496 891 C496 891 410 1041 410 1041 C410 1041 319 1041 319 1041 C319 1041 234 891 234 891 C234 891 316 891 316 891 C316 891 365 971 365 971 L365 971 Z M613 745 C613 745 613 745 613 745 C613 745 536 168 536 168 C536 168 435 811 435 811 C435 811 391 811 391 811 C391 811 338 811 338 811 C338 811 240 170 240 170 C240 170 165 746 165 746 C165 746 187 798 187 798 C187 798 187 811 187 811 C187 811 157 811 157 811 C157 811 103 811 103 811 C103 811 49 811 49 811 C49 811 21 811 21 811 C21 811 21 798 21 798 C21 798 58 745 58 745 C58 745 59 745 59 745 C59 745 166 0 166 0 C166 0 214 0 214 0 C214 0 262 0 262 0 C262 0 364 643 364 643 C364 643 465 0 465 0 C465 0 513 0 513 0 C513 0 562 0 562 0 C562 0 670 745 670 745 C670 745 671 745 671 745 C671 745 708 798 708 798 C709 798 709 803 708 809 C709 810 709 811 708 811 C708 811 680 811 680 811 C680 811 651 811 651 811 C651 811 622 811 622 811 C622 811 592 811 592 811 C592 811 592 798 592 798 C592 798 613 745 613 745 L613 745 Z " />
<glyph glyph-name="Ycircumflex" unicode="&#x176;" horiz-adv-x="517" d="M267 971 C267 971 315 891 315 891 C315 891 398 891 398 891 C398 891 312 1041 312 1041 C312 1041 221 1041 221 1041 C221 1041 136 891 136 891 C136 891 218 891 218 891 C218 891 267 971 267 971 L267 971 Z M415 745 C415 745 415 745 415 745 C415 745 290 426 290 426 C290 426 162 746 162 746 C162 746 166 798 166 798 C165 798 165 803 166 810 C165 811 165 811 166 811 C166 811 136 811 136 811 C136 811 88 811 88 811 C88 811 40 811 40 811 C40 811 16 811 16 811 C15 811 15 810 16 809 C15 803 15 798 16 798 C16 798 67 745 67 745 C67 745 67 745 67 745 C67 745 222 369 222 369 C222 369 222 66 222 66 C222 66 192 13 192 13 C192 13 192 0 192 0 C192 0 222 0 222 0 C222 0 272 0 272 0 C272 0 322 0 322 0 C322 0 352 0 352 0 C352 0 352 13 352 13 C352 13 322 66 322 66 C322 66 322 382 322 382 C322 382 467 745 467 745 C467 745 467 745 467 745 C467 745 518 798 518 798 C518 798 518 811 518 811 C518 811 493 811 493 811 C493 811 467 811 467 811 C467 811 441 811 441 811 C441 811 411 811 411 811 C411 811 411 798 411 798 C411 798 415 745 415 745 L415 745 Z " />
<glyph glyph-name="Ydieresis" unicode="&#x178;" horiz-adv-x="517" d="M284 891 C284 891 382 891 382 891 C382 891 382 989 382 989 C382 989 284 989 284 989 C284 989 284 891 284 891 L284 891 Z M151 891 C151 891 249 891 249 891 C249 891 249 989 249 989 C249 989 151 989 151 989 C151 989 151 891 151 891 L151 891 Z M415 745 C415 745 415 745 415 745 C415 745 290 426 290 426 C290 426 162 746 162 746 C162 746 166 798 166 798 C165 798 165 803 166 810 C165 811 165 811 166 811 C166 811 136 811 136 811 C136 811 88 811 88 811 C88 811 40 811 40 811 C40 811 16 811 16 811 C15 811 15 810 16 809 C15 803 15 798 16 798 C16 798 67 745 67 745 C67 745 67 745 67 745 C67 745 222 369 222 369 C222 369 222 66 222 66 C222 66 192 13 192 13 C192 13 192 0 192 0 C192 0 222 0 222 0 C222 0 272 0 272 0 C272 0 322 0 322 0 C322 0 352 0 352 0 C352 0 352 13 352 13 C352 13 322 66 322 66 C322 66 322 382 322 382 C322 382 467 745 467 745 C467 745 467 745 467 745 C467 745 518 798 518 798 C518 798 518 811 518 811 C518 811 493 811 493 811 C493 811 467 811 467 811 C467 811 441 811 441 811 C441 811 411 811 411 811 C411 811 411 798 411 798 C411 798 415 745 415 745 L415 745 Z " />
<glyph glyph-name="Zacute" unicode="&#x179;" horiz-adv-x="535" d="M234 891 C234 891 316 891 316 891 C316 891 364 1041 364 1041 C364 1041 246 1041 246 1041 C246 1041 234 891 234 891 L234 891 Z M490 22 C490 22 490 44 490 44 C490 44 490 74 490 74 C490 75 489 75 489 74 C482 75 477 75 477 74 C477 74 424 44 424 44 C424 44 148 44 148 44 C148 44 490 767 490 767 C490 767 490 811 490 811 C490 811 60 811 60 811 C60 811 60 789 60 789 C60 789 60 767 60 767 C60 767 60 737 60 737 C60 737 73 737 73 737 C73 737 126 767 126 767 C126 767 386 767 386 767 C386 767 45 44 45 44 C45 44 45 0 45 0 C45 0 490 0 490 0 C490 0 490 22 490 22 L490 22 Z " />
<glyph glyph-name="zacute" unicode="&#x17a;" horiz-adv-x="340" d="M141 661 C141 661 224 661 224 661 C224 661 271 811 271 811 C271 811 154 811 154 811 C154 811 141 661 141 661 L141 661 Z M45 581 C45 581 45 562 45 562 C45 562 45 543 45 543 C45 543 45 513 45 513 C45 513 58 513 58 513 C58 513 111 543 111 543 C111 543 196 543 196 543 C196 543 30 30 30 30 C30 30 30 0 30 0 C30 0 320 0 320 0 C320 0 320 19 320 19 C320 19 320 38 320 38 C320 38 320 68 320 68 C320 68 307 68 307 68 C307 68 254 38 254 38 C254 38 132 38 132 38 C132 38 135 39 135 39 C135 39 304 551 304 551 C304 551 304 581 304 581 C304 581 45 581 45 581 L45 581 Z " />
<glyph glyph-name="Zdotaccent" unicode="&#x17b;" horiz-adv-x="535" d="M226 891 C226 891 324 891 324 891 C324 891 324 989 324 989 C324 989 226 989 226 989 C226 989 226 891 226 891 L226 891 Z M490 22 C490 22 490 44 490 44 C490 44 490 74 490 74 C490 75 489 75 489 74 C482 75 477 75 477 74 C477 74 424 44 424 44 C424 44 148 44 148 44 C148 44 490 767 490 767 C490 767 490 811 490 811 C490 811 60 811 60 811 C60 811 60 789 60 789 C60 789 60 767 60 767 C60 767 60 737 60 737 C60 737 73 737 73 737 C73 737 126 767 126 767 C126 767 386 767 386 767 C386 767 45 44 45 44 C45 44 45 0 45 0 C45 0 490 0 490 0 C490 0 490 22 490 22 L490 22 Z " />
<glyph glyph-name="zdotaccent" unicode="&#x17c;" horiz-adv-x="340" d="M134 661 C134 661 231 661 231 661 C231 661 231 759 231 759 C231 759 134 759 134 759 C134 759 134 661 134 661 L134 661 Z M45 581 C45 581 45 562 45 562 C45 562 45 543 45 543 C45 543 45 513 45 513 C45 513 58 513 58 513 C58 513 111 543 111 543 C111 543 196 543 196 543 C196 543 30 30 30 30 C30 30 30 0 30 0 C30 0 320 0 320 0 C320 0 320 19 320 19 C320 19 320 38 320 38 C320 38 320 68 320 68 C320 68 307 68 307 68 C307 68 254 38 254 38 C254 38 132 38 132 38 C132 38 135 39 135 39 C135 39 304 551 304 551 C304 551 304 581 304 581 C304 581 45 581 45 581 L45 581 Z " />
<glyph glyph-name="Zcaron" unicode="&#x17d;" horiz-adv-x="535" d="M275 961 C275 961 324 1041 324 1041 C324 1041 406 1041 406 1041 C406 1041 320 891 320 891 C320 891 230 891 230 891 C230 891 144 1041 144 1041 C144 1041 226 1041 226 1041 C226 1041 275 961 275 961 L275 961 Z M490 22 C490 22 490 44 490 44 C490 44 490 74 490 74 C490 75 489 75 489 74 C482 75 477 75 477 74 C477 74 424 44 424 44 C424 44 148 44 148 44 C148 44 490 767 490 767 C490 767 490 811 490 811 C490 811 60 811 60 811 C60 811 60 789 60 789 C60 789 60 767 60 767 C60 767 60 737 60 737 C60 737 73 737 73 737 C73 737 126 767 126 767 C126 767 386 767 386 767 C386 767 45 44 45 44 C45 44 45 0 45 0 C45 0 490 0 490 0 C490 0 490 22 490 22 L490 22 Z " />
<glyph glyph-name="zcaron" unicode="&#x17e;" horiz-adv-x="340" d="M183 731 C183 731 231 811 231 811 C231 811 314 811 314 811 C314 811 228 661 228 661 C228 661 137 661 137 661 C137 661 52 811 52 811 C52 811 134 811 134 811 C134 811 183 731 183 731 L183 731 Z M45 581 C45 581 45 562 45 562 C45 562 45 543 45 543 C45 543 45 513 45 513 C45 513 58 513 58 513 C58 513 111 543 111 543 C111 543 196 543 196 543 C196 543 30 30 30 30 C30 30 30 0 30 0 C30 0 320 0 320 0 C320 0 320 19 320 19 C320 19 320 38 320 38 C320 38 320 68 320 68 C320 68 307 68 307 68 C307 68 254 38 254 38 C254 38 132 38 132 38 C132 38 135 39 135 39 C135 39 304 551 304 551 C304 551 304 581 304 581 C304 581 45 581 45 581 L45 581 Z " />
<glyph glyph-name="SmallLetterOwithogon" unicode="&#x1eb;" horiz-adv-x="670" d="M67 329 C67 141 189 -10 341 -10 C374 -10 405 -3 434 10 C434 10 513 -90 513 -90 C513 -90 563 -36 563 -36 C563 -36 484 39 484 39 C563 99 615 206 615 329 C615 508 486 668 341 668 C196 668 67 508 67 329 L67 329 Z M403 48 C383 37 363 30 341 30 C243 30 164 163 164 329 C164 487 248 628 341 628 C434 628 518 487 518 329 C518 225 487 134 440 81 C440 81 387 131 387 131 C387 131 360 102 360 102 C360 102 403 48 403 48 L403 48 Z " />
<glyph glyph-name="CapitalLetterAwithdo" unicode="&#x226;" horiz-adv-x="646" d="M287 891 C287 891 384 891 384 891 C384 891 384 989 384 989 C384 989 287 989 287 989 C287 989 287 891 287 891 L287 891 Z M602 66 C602 66 602 66 602 66 C602 66 384 811 384 811 C384 811 331 811 331 811 C331 811 305 811 305 811 C305 811 287 811 287 811 C287 811 279 811 279 811 C279 811 249 811 249 811 C249 811 249 798 249 798 C249 798 260 745 260 745 C260 745 64 66 64 66 C64 66 64 66 64 66 C64 66 19 13 19 13 C19 13 19 0 19 0 C19 0 45 0 45 0 C45 0 73 0 73 0 C73 0 100 0 100 0 C100 0 130 0 130 0 C130 0 130 13 130 13 C130 13 118 64 118 64 C118 64 164 226 164 226 C164 226 456 226 456 226 C456 226 444 269 444 269 C444 269 177 269 177 269 C177 269 309 734 309 734 C309 734 503 66 503 66 C503 66 492 13 492 13 C492 13 492 0 492 0 C492 0 522 0 522 0 C522 0 572 0 572 0 C572 0 621 0 621 0 C621 0 647 0 647 0 C647 0 647 13 647 13 C647 13 602 66 602 66 L602 66 Z " />
<glyph glyph-name="LETTERSMALLCAPITALG" unicode="&#x262;" horiz-adv-x="618" d="M369 325 C369 325 527 325 527 325 C527 325 527 124 527 124 C465 72 392 30 356 30 C247 30 159 163 159 329 C159 495 247 628 356 628 C446 628 518 554 518 462 C518 462 536 477 536 477 C536 477 554 492 554 492 C554 492 554 522 554 522 C554 522 551 522 551 522 C544 562 521 598 488 623 C488 624 488 624 488 624 C488 624 488 624 488 624 C453 651 407 668 356 668 C193 668 62 517 62 329 C62 141 193 -10 356 -10 C409 -10 500 39 574 100 C574 100 574 365 574 365 C574 365 369 365 369 365 C369 365 369 325 369 325 L369 325 Z " />
<glyph glyph-name="LETTERSMALLCAPITALI" unicode="&#x26a;" horiz-adv-x="297" d="M152 0 C152 0 197 0 197 0 C197 0 227 0 227 0 C227 0 227 13 227 13 C227 13 197 66 197 66 C197 66 197 592 197 592 C197 592 227 645 227 645 C227 645 227 658 227 658 C227 658 197 658 197 658 C197 658 152 658 152 658 C152 658 107 658 107 658 C107 658 77 658 77 658 C77 658 77 645 77 645 C77 645 107 592 107 592 C107 592 107 66 107 66 C107 66 77 13 77 13 C77 13 77 0 77 0 C77 0 107 0 107 0 C107 0 152 0 152 0 L152 0 Z " />
<glyph glyph-name="LETTERSMALLCAPITALN" unicode="&#x274;" horiz-adv-x="522" d="M373 592 C373 592 373 112 373 112 C373 112 208 658 208 658 C208 658 171 658 171 658 C171 658 146 658 146 658 C146 658 122 658 122 658 C122 658 92 658 92 658 C92 658 92 645 92 645 C92 645 122 592 122 592 C122 592 122 66 122 66 C122 66 92 13 92 13 C92 13 92 0 92 0 C92 0 122 0 122 0 C122 0 146 0 146 0 C146 0 171 0 171 0 C171 0 201 0 201 0 C201 0 201 13 201 13 C201 13 171 66 171 66 C171 66 171 496 171 496 C171 496 321 0 321 0 C321 0 373 0 373 0 C373 0 407 0 407 0 C407 0 422 0 422 0 C422 0 422 592 422 592 C422 592 452 645 452 645 C452 645 452 658 452 658 C452 658 422 658 422 658 C422 658 398 658 398 658 C398 658 373 658 373 658 C373 658 343 658 343 658 C343 658 343 645 343 645 C343 645 373 592 373 592 L373 592 Z " />
<glyph glyph-name="LETTERSMALLCAPITALR" unicode="&#x280;" horiz-adv-x="509" d="M503 13 C503 13 440 66 440 66 C440 66 302 289 302 289 C302 289 289 289 289 289 C395 305 460 368 460 460 C460 581 372 658 235 658 C235 658 202 658 202 658 C202 658 157 658 157 658 C157 658 134 658 134 658 C134 658 111 658 111 658 C111 658 81 658 81 658 C81 658 81 645 81 645 C81 645 111 592 111 592 C111 592 111 66 111 66 C111 66 81 13 81 13 C81 13 81 0 81 0 C81 0 111 0 111 0 C111 0 157 0 157 0 C157 0 202 0 202 0 C202 0 232 0 232 0 C231 0 231 1 232 1 C231 8 231 13 232 13 C232 13 202 66 202 66 C202 66 202 284 202 284 C202 284 377 0 377 0 C377 0 429 0 429 0 C429 0 481 0 481 0 C481 0 503 0 503 0 C503 0 503 13 503 13 L503 13 Z M202 323 C202 323 202 620 202 620 C202 620 233 620 233 620 C317 620 370 558 370 460 C370 376 318 323 236 323 C236 323 202 323 202 323 L202 323 Z " />
<glyph glyph-name="LETTERSMALLCAPITALY" unicode="&#x28f;" horiz-adv-x="493" d="M19 645 C19 645 80 592 80 592 C80 592 215 369 215 369 C215 369 215 66 215 66 C215 66 185 13 185 13 C185 13 185 0 185 0 C185 0 215 0 215 0 C215 0 260 0 260 0 C260 0 305 0 305 0 C305 0 335 0 335 0 C335 0 335 13 335 13 C335 13 305 66 305 66 C305 66 305 385 305 385 C305 385 429 592 429 592 C429 592 429 592 429 592 C429 592 490 645 490 645 C491 645 491 649 490 655 C491 656 491 658 490 658 C490 658 468 658 468 658 C468 658 444 658 444 658 C444 658 419 658 419 658 C419 658 389 658 389 658 C389 658 389 645 389 645 C389 645 380 592 380 592 C380 592 276 416 276 416 C276 416 172 590 172 590 C173 585 176 568 179 547 C179 547 171 592 171 592 C171 592 171 592 171 592 C171 592 171 592 171 592 C171 592 162 645 162 645 C163 645 163 650 162 656 C163 657 163 658 162 658 C162 658 132 658 132 658 C132 658 87 658 87 658 C87 658 41 658 41 658 C41 658 19 658 19 658 C19 658 19 645 19 645 L19 645 Z M171 592 C171 592 172 592 172 592 C172 592 172 591 172 590 C172 590 171 592 171 592 L171 592 Z " />
<glyph glyph-name="LETTERSMALLCAPITALB" unicode="&#x299;" horiz-adv-x="595" d="M380 355 C445 376 491 425 491 484 C491 600 423 658 288 658 C288 658 202 658 202 658 C202 658 157 658 157 658 C157 658 111 658 111 658 C111 658 81 658 81 658 C81 658 81 645 81 645 C81 645 111 592 111 592 C111 592 111 66 111 66 C111 66 81 13 81 13 C81 13 81 0 81 0 C81 0 111 0 111 0 C111 0 157 0 157 0 C157 0 202 0 202 0 C202 0 358 0 358 0 C493 0 561 63 561 190 C561 282 484 355 388 355 C388 355 380 355 380 355 L380 355 Z M202 365 C202 365 202 620 202 620 C202 620 290 620 290 620 C361 620 397 572 397 477 C397 415 350 365 291 365 C291 365 202 365 202 365 L202 365 Z M202 38 C202 38 202 328 202 328 C202 328 355 328 355 328 C416 328 464 271 464 201 C464 92 424 38 344 38 C344 38 202 38 202 38 L202 38 Z " />
<glyph glyph-name="LETTERSMALLCAPITALH" unicode="&#x29c;" horiz-adv-x="593" d="M449 0 C449 0 494 0 494 0 C494 0 524 0 524 0 C524 0 524 13 524 13 C524 13 494 66 494 66 C494 66 494 592 494 592 C494 592 524 645 524 645 C524 645 524 658 524 658 C524 658 494 658 494 658 C494 658 449 658 449 658 C449 658 404 658 404 658 C404 658 374 658 374 658 C374 658 374 645 374 645 C374 645 404 592 404 592 C404 592 404 343 404 343 C404 343 202 343 202 343 C202 343 202 592 202 592 C202 592 232 645 232 645 C231 645 231 650 232 656 C231 657 231 658 232 658 C232 658 202 658 202 658 C202 658 157 658 157 658 C157 658 111 658 111 658 C111 658 81 658 81 658 C81 658 81 645 81 645 C81 645 111 592 111 592 C111 592 111 66 111 66 C111 66 81 13 81 13 C81 13 81 0 81 0 C81 0 111 0 111 0 C111 0 157 0 157 0 C157 0 202 0 202 0 C202 0 232 0 232 0 C231 0 231 1 232 1 C231 8 231 13 232 13 C232 13 202 66 202 66 C202 66 202 303 202 303 C202 303 404 303 404 303 C404 303 404 66 404 66 C404 66 374 13 374 13 C374 13 374 0 374 0 C374 0 404 0 404 0 C404 0 449 0 449 0 L449 0 Z " />
<glyph glyph-name="LETTERSMALLCAPITALL" unicode="&#x29f;" horiz-adv-x="423" d="M378 20 C378 20 378 40 378 40 C378 40 378 70 378 70 C378 70 365 70 365 70 C365 70 313 40 313 40 C313 40 197 40 197 40 C197 40 197 592 197 592 C197 592 227 645 227 645 C227 645 227 658 227 658 C227 658 197 658 197 658 C197 658 152 658 152 658 C152 658 107 658 107 658 C107 658 77 658 77 658 C77 658 77 645 77 645 C77 645 107 592 107 592 C107 592 107 66 107 66 C107 66 77 13 77 13 C77 13 77 0 77 0 C77 0 107 0 107 0 C107 0 152 0 152 0 C152 0 197 0 197 0 C197 0 378 0 378 0 C378 0 378 20 378 20 L378 20 Z " />
<glyph glyph-name="LETTERSMALLCAPITALA" unicode="&#x1d00;" horiz-adv-x="620" d="M573 66 C573 66 573 66 573 66 C573 66 366 658 366 658 C366 658 318 658 318 658 C318 658 295 658 295 658 C295 658 280 658 280 658 C280 658 272 658 272 658 C272 658 242 658 242 658 C243 658 243 657 242 656 C243 650 243 645 242 645 C242 645 250 593 250 593 C250 593 69 65 69 65 C69 65 22 13 22 13 C22 13 22 0 22 0 C22 0 47 0 47 0 C47 0 71 0 71 0 C71 0 95 0 95 0 C95 0 125 0 125 0 C125 0 125 13 125 13 C125 13 117 65 117 65 C117 65 156 180 156 180 C156 180 446 180 446 180 C446 180 486 64 486 64 C486 64 478 13 478 13 C478 13 478 0 478 0 C478 0 508 0 508 0 C508 0 552 0 552 0 C552 0 596 0 596 0 C596 0 621 0 621 0 C621 0 621 13 621 13 C621 13 573 66 573 66 L573 66 Z M156 181 C156 181 299 603 299 603 C299 603 432 218 432 218 C432 218 169 218 169 218 C169 218 156 181 156 181 L156 181 Z " />
<glyph glyph-name="LETTERSMALLCAPITALC" unicode="&#x1d04;" horiz-adv-x="565" d="M510 196 C510 104 432 30 334 30 C237 30 159 179 159 329 C159 478 237 628 334 628 C432 628 510 554 510 462 C510 462 528 477 528 477 C528 477 546 492 546 492 C546 492 546 522 546 522 C546 522 543 522 543 522 C526 605 440 668 334 668 C183 668 62 498 62 329 C62 159 183 -10 334 -10 C452 -10 546 68 546 165 C546 165 510 196 510 196 L510 196 Z " />
<glyph glyph-name="LETTERSMALLCAPITALD" unicode="&#x1d05;" horiz-adv-x="635" d="M157 0 C157 0 202 0 202 0 C202 0 293 0 293 0 C474 0 581 122 581 329 C581 530 457 658 263 658 C263 658 202 658 202 658 C202 658 157 658 157 658 C157 658 111 658 111 658 C111 658 81 658 81 658 C81 658 81 645 81 645 C81 645 111 592 111 592 C111 592 111 66 111 66 C111 66 81 13 81 13 C81 13 81 0 81 0 C81 0 111 0 111 0 C111 0 157 0 157 0 L157 0 Z M202 38 C202 38 202 620 202 620 C202 620 265 620 265 620 C399 620 484 507 484 329 C484 146 412 38 289 38 C289 38 202 38 202 38 L202 38 Z " />
<glyph glyph-name="LETTERSMALLCAPITALE" unicode="&#x1d07;" horiz-adv-x="482" d="M433 20 C433 20 433 40 433 40 C433 40 433 70 433 70 C433 70 420 70 420 70 C420 70 367 40 367 40 C367 40 202 40 202 40 C202 40 202 306 202 306 C202 306 332 306 332 306 C332 306 385 276 385 276 C385 276 398 276 398 276 C398 276 398 306 398 306 C398 306 398 325 398 325 C398 325 398 344 398 344 C398 344 398 374 398 374 C398 374 385 374 385 374 C385 374 332 344 332 344 C332 344 202 344 202 344 C202 344 202 618 202 618 C202 618 352 618 352 618 C352 618 405 588 405 588 C405 588 418 588 418 588 C418 588 418 618 418 618 C418 618 418 638 418 638 C418 638 418 658 418 658 C418 658 202 658 202 658 C202 658 201 658 201 658 C201 658 157 658 157 658 C157 658 111 658 111 658 C111 658 81 658 81 658 C81 658 81 645 81 645 C81 645 111 592 111 592 C111 592 111 66 111 66 C111 66 81 13 81 13 C81 13 81 0 81 0 C81 0 111 0 111 0 C111 0 157 0 157 0 C157 0 201 0 201 0 C201 0 202 0 202 0 C202 0 433 0 433 0 C433 0 433 20 433 20 L433 20 Z " />
<glyph glyph-name="LETTERSMALLCAPITALJ" unicode="&#x1d0a;" horiz-adv-x="383" d="M58 281 C58 281 59 219 59 219 C59 73 102 -10 178 -10 C251 -10 298 80 298 193 C298 193 298 592 298 592 C298 592 328 645 328 645 C328 645 328 658 328 658 C328 658 298 658 298 658 C298 658 253 658 253 658 C253 658 208 658 208 658 C208 658 178 658 178 658 C178 658 178 645 178 645 C178 645 208 592 208 592 C208 592 208 193 208 193 C208 105 196 35 178 35 C159 35 148 111 148 244 C148 244 149 297 149 297 C149 297 58 281 58 281 L58 281 Z " />
<glyph glyph-name="LETTERSMALLCAPITALK" unicode="&#x1d0b;" horiz-adv-x="495" d="M460 658 C460 658 438 658 438 658 C438 658 412 658 412 658 C412 658 386 658 386 658 C386 658 356 658 356 658 C357 658 357 657 356 656 C357 650 357 645 356 645 C356 645 346 593 346 593 C346 593 187 333 187 333 C187 333 187 592 187 592 C187 592 217 645 217 645 C217 645 217 658 217 658 C217 658 187 658 187 658 C187 658 142 658 142 658 C142 658 96 658 96 658 C96 658 66 658 66 658 C66 658 66 645 66 645 C66 645 96 592 96 592 C96 592 96 66 96 66 C96 66 66 13 66 13 C66 13 66 0 66 0 C66 0 96 0 96 0 C96 0 142 0 142 0 C142 0 187 0 187 0 C187 0 217 0 217 0 C217 0 217 13 217 13 C217 13 187 66 187 66 C187 66 187 254 187 254 C187 254 238 336 238 336 C238 336 362 66 362 66 C362 66 363 13 363 13 C363 13 363 0 363 0 C363 0 393 0 393 0 C393 0 439 0 439 0 C439 0 486 0 486 0 C486 0 510 0 510 0 C510 0 510 13 510 13 C510 13 455 66 455 66 C455 66 455 66 455 66 C455 66 289 418 289 418 C289 418 397 592 397 592 C397 592 460 645 460 645 C460 645 460 658 460 658 L460 658 Z " />
<glyph glyph-name="LETTERSMALLCAPITALM" unicode="&#x1d0d;" horiz-adv-x="723" d="M580 0 C580 0 623 0 623 0 C623 0 653 0 653 0 C653 0 653 13 653 13 C653 13 623 66 623 66 C623 66 623 592 623 592 C623 592 653 645 653 645 C653 645 653 658 653 658 C653 658 623 658 623 658 C623 658 580 658 580 658 C580 658 552 658 552 658 C552 658 536 658 536 658 C536 658 507 658 507 658 C507 658 371 92 371 92 C371 92 235 658 235 658 C235 658 169 658 169 658 C169 658 151 658 151 658 C151 658 146 658 146 658 C146 658 122 658 122 658 C122 658 92 658 92 658 C92 658 92 645 92 645 C92 645 122 592 122 592 C122 592 122 66 122 66 C122 66 92 13 92 13 C92 13 92 0 92 0 C92 0 122 0 122 0 C122 0 146 0 146 0 C146 0 169 0 169 0 C169 0 199 0 199 0 C200 0 200 1 199 1 C200 8 200 13 199 13 C199 13 169 66 169 66 C169 66 169 585 169 585 C169 585 313 0 313 0 C313 0 349 0 349 0 C349 0 393 0 393 0 C393 0 536 592 536 592 C536 592 536 66 536 66 C536 66 506 13 506 13 C506 13 506 0 506 0 C506 0 536 0 536 0 C536 0 580 0 580 0 L580 0 Z " />
<glyph glyph-name="LETTERSMALLCAPITALO" unicode="&#x1d0f;" horiz-adv-x="670" d="M341 30 C243 30 164 163 164 329 C164 487 248 628 341 628 C434 628 518 487 518 329 C518 163 439 30 341 30 L341 30 Z M67 329 C67 141 189 -10 341 -10 C493 -10 615 141 615 329 C615 508 486 668 341 668 C196 668 67 508 67 329 L67 329 Z " />
<glyph glyph-name="LETTERSMALLCAPITALP" unicode="&#x1d18;" horiz-adv-x="494" d="M157 0 C157 0 202 0 202 0 C202 0 232 0 232 0 C231 0 231 1 232 1 C231 8 231 13 232 13 C232 13 202 66 202 66 C202 66 202 268 202 268 C202 268 235 268 235 268 C372 268 460 343 460 460 C460 581 372 658 235 658 C235 658 202 658 202 658 C202 658 157 658 157 658 C157 658 134 658 134 658 C134 658 111 658 111 658 C111 658 81 658 81 658 C81 658 81 645 81 645 C81 645 111 592 111 592 C111 592 111 66 111 66 C111 66 81 13 81 13 C81 13 81 0 81 0 C81 0 111 0 111 0 C111 0 157 0 157 0 L157 0 Z M202 306 C202 306 202 620 202 620 C202 620 233 620 233 620 C317 620 370 558 370 460 C370 366 318 306 237 306 C237 306 202 306 202 306 L202 306 Z " />
<glyph glyph-name="LETTERSMALLCAPITALT" unicode="&#x1d1b;" horiz-adv-x="451" d="M226 0 C226 0 271 0 271 0 C271 0 301 0 301 0 C300 0 300 1 301 1 C300 8 300 13 301 13 C301 13 271 66 271 66 C271 66 271 618 271 618 C271 618 375 618 375 618 C375 618 428 588 428 588 C428 588 441 588 441 588 C441 588 441 618 441 618 C441 618 441 638 441 638 C441 638 441 658 441 658 C441 658 271 658 271 658 C271 658 180 658 180 658 C180 658 10 658 10 658 C10 658 10 638 10 638 C10 638 10 618 10 618 C10 618 10 588 10 588 C10 588 23 588 23 588 C23 588 76 618 76 618 C76 618 180 618 180 618 C180 618 180 66 180 66 C180 66 150 13 150 13 C150 13 150 0 150 0 C150 0 180 0 180 0 C180 0 226 0 226 0 L226 0 Z " />
<glyph glyph-name="LETTERSMALLCAPITALU" unicode="&#x1d1c;" horiz-adv-x="568" d="M104 592 C104 592 104 255 104 255 C104 93 176 -10 289 -10 C402 -10 474 94 474 257 C474 257 474 592 474 592 C474 592 504 645 504 645 C504 645 504 658 504 658 C504 658 474 658 474 658 C474 658 449 658 449 658 C449 658 425 658 425 658 C425 658 395 658 395 658 C395 658 395 645 395 645 C395 645 425 592 425 592 C425 592 425 265 425 265 C425 125 372 35 289 35 C232 35 195 127 195 271 C195 271 195 592 195 592 C195 592 225 645 225 645 C224 645 224 650 225 656 C224 657 224 658 225 658 C225 658 195 658 195 658 C195 658 150 658 150 658 C150 658 104 658 104 658 C104 658 74 658 74 658 C74 658 74 645 74 645 C74 645 104 592 104 592 L104 592 Z " />
<glyph glyph-name="LETTERSMALLCAPITALV" unicode="&#x1d20;" horiz-adv-x="496" d="M68 592 C68 592 68 592 68 592 C68 592 213 0 213 0 C213 0 252 0 252 0 C252 0 296 0 296 0 C296 0 298 0 298 0 C298 0 441 592 441 592 C441 592 484 645 484 645 C484 645 484 658 484 658 C484 658 457 658 457 658 C457 658 430 658 430 658 C430 658 404 658 404 658 C404 658 374 658 374 658 C374 658 374 645 374 645 C374 645 389 592 389 592 C389 592 274 97 274 97 C274 97 163 593 163 593 C163 593 179 645 179 645 C178 645 178 650 179 656 C178 657 178 658 179 658 C179 658 149 658 149 658 C149 658 100 658 100 658 C100 658 52 658 52 658 C52 658 25 658 25 658 C25 658 25 645 25 645 C25 645 68 592 68 592 L68 592 Z " />
<glyph glyph-name="LETTERSMALLCAPITALW" unicode="&#x1d21;" horiz-adv-x="686" d="M63 592 C63 592 63 592 63 592 C63 592 163 0 163 0 C163 0 207 0 207 0 C207 0 250 0 250 0 C250 0 349 531 349 531 C349 531 446 0 446 0 C446 0 490 0 490 0 C490 0 533 0 533 0 C533 0 636 592 636 592 C636 592 636 592 636 592 C636 592 675 645 675 645 C675 645 675 658 675 658 C675 658 647 658 647 658 C647 658 620 658 620 658 C620 658 594 658 594 658 C594 658 564 658 564 658 C564 658 564 645 564 645 C564 645 584 593 584 593 C584 593 510 126 510 126 C510 126 413 658 413 658 C413 658 373 658 373 658 C373 658 326 658 326 658 C326 658 230 129 230 129 C230 129 159 592 159 592 C159 592 179 645 179 645 C178 645 178 650 179 656 C178 657 178 658 179 658 C179 658 149 658 149 658 C149 658 100 658 100 658 C100 658 52 658 52 658 C52 658 24 658 24 658 C24 658 24 645 24 645 C24 645 63 592 63 592 L63 592 Z " />
<glyph glyph-name="LETTERSMALLCAPITALZ" unicode="&#x1d22;" horiz-adv-x="511" d="M466 20 C466 20 466 40 466 40 C466 40 466 70 466 70 C466 70 453 70 453 70 C453 70 400 40 400 40 C400 40 138 40 138 40 C138 40 466 618 466 618 C466 618 466 658 466 658 C466 658 60 658 60 658 C60 658 60 638 60 638 C60 638 60 618 60 618 C60 618 60 588 60 588 C60 588 73 588 73 588 C73 588 126 618 126 618 C126 618 373 618 373 618 C373 618 45 40 45 40 C45 40 45 0 45 0 C45 0 466 0 466 0 C466 0 466 20 466 20 L466 20 Z " />
<glyph glyph-name="Wgrave" unicode="&#x1e80;" horiz-adv-x="720" d="M324 891 C324 891 406 891 406 891 C406 891 393 1041 393 1041 C393 1041 276 1041 276 1041 C276 1041 324 891 324 891 L324 891 Z M613 745 C613 745 613 745 613 745 C613 745 536 168 536 168 C536 168 435 811 435 811 C435 811 391 811 391 811 C391 811 338 811 338 811 C338 811 240 170 240 170 C240 170 165 746 165 746 C165 746 187 798 187 798 C187 798 187 811 187 811 C187 811 157 811 157 811 C157 811 103 811 103 811 C103 811 49 811 49 811 C49 811 21 811 21 811 C21 811 21 798 21 798 C21 798 58 745 58 745 C58 745 59 745 59 745 C59 745 166 0 166 0 C166 0 214 0 214 0 C214 0 262 0 262 0 C262 0 364 643 364 643 C364 643 465 0 465 0 C465 0 513 0 513 0 C513 0 562 0 562 0 C562 0 670 745 670 745 C670 745 671 745 671 745 C671 745 708 798 708 798 C709 798 709 803 708 809 C709 810 709 811 708 811 C708 811 680 811 680 811 C680 811 651 811 651 811 C651 811 622 811 622 811 C622 811 592 811 592 811 C592 811 592 798 592 798 C592 798 613 745 613 745 L613 745 Z " />
<glyph glyph-name="Wacute" unicode="&#x1e82;" horiz-adv-x="720" d="M324 891 C324 891 406 891 406 891 C406 891 453 1041 453 1041 C453 1041 336 1041 336 1041 C336 1041 324 891 324 891 L324 891 Z M613 745 C613 745 613 745 613 745 C613 745 536 168 536 168 C536 168 435 811 435 811 C435 811 391 811 391 811 C391 811 338 811 338 811 C338 811 240 170 240 170 C240 170 165 746 165 746 C165 746 187 798 187 798 C187 798 187 811 187 811 C187 811 157 811 157 811 C157 811 103 811 103 811 C103 811 49 811 49 811 C49 811 21 811 21 811 C21 811 21 798 21 798 C21 798 58 745 58 745 C58 745 59 745 59 745 C59 745 166 0 166 0 C166 0 214 0 214 0 C214 0 262 0 262 0 C262 0 364 643 364 643 C364 643 465 0 465 0 C465 0 513 0 513 0 C513 0 562 0 562 0 C562 0 670 745 670 745 C670 745 671 745 671 745 C671 745 708 798 708 798 C709 798 709 803 708 809 C709 810 709 811 708 811 C708 811 680 811 680 811 C680 811 651 811 651 811 C651 811 622 811 622 811 C622 811 592 811 592 811 C592 811 592 798 592 798 C592 798 613 745 613 745 L613 745 Z " />
<glyph glyph-name="Wdieresis" unicode="&#x1e84;" horiz-adv-x="720" d="M382 891 C382 891 480 891 480 891 C480 891 480 989 480 989 C480 989 382 989 382 989 C382 989 382 891 382 891 L382 891 Z M249 891 C249 891 347 891 347 891 C347 891 347 989 347 989 C347 989 249 989 249 989 C249 989 249 891 249 891 L249 891 Z M613 745 C613 745 613 745 613 745 C613 745 536 168 536 168 C536 168 435 811 435 811 C435 811 391 811 391 811 C391 811 338 811 338 811 C338 811 240 170 240 170 C240 170 165 746 165 746 C165 746 187 798 187 798 C187 798 187 811 187 811 C187 811 157 811 157 811 C157 811 103 811 103 811 C103 811 49 811 49 811 C49 811 21 811 21 811 C21 811 21 798 21 798 C21 798 58 745 58 745 C58 745 59 745 59 745 C59 745 166 0 166 0 C166 0 214 0 214 0 C214 0 262 0 262 0 C262 0 364 643 364 643 C364 643 465 0 465 0 C465 0 513 0 513 0 C513 0 562 0 562 0 C562 0 670 745 670 745 C670 745 671 745 671 745 C671 745 708 798 708 798 C709 798 709 803 708 809 C709 810 709 811 708 811 C708 811 680 811 680 811 C680 811 651 811 651 811 C651 811 622 811 622 811 C622 811 592 811 592 811 C592 811 592 798 592 798 C592 798 613 745 613 745 L613 745 Z " />
<glyph glyph-name="CapitalLetterEWITHTI" unicode="&#x1ebc;" horiz-adv-x="514" d="M247 891 C247 929 253 959 260 959 C305 959 249 881 304 881 C345 881 378 942 378 1019 C378 1019 311 1019 311 1019 C311 981 305 951 298 951 C253 951 309 1029 254 1029 C213 1029 181 968 181 891 C181 891 247 891 247 891 L247 891 Z M464 22 C464 22 464 44 464 44 C464 44 464 74 464 74 C464 75 464 75 463 74 C456 75 451 75 451 74 C451 74 398 44 398 44 C398 44 209 44 209 44 C209 44 209 379 209 379 C209 379 363 379 363 379 C363 379 416 349 416 349 C416 349 429 349 429 349 C429 349 429 379 429 379 C429 379 429 401 429 401 C429 401 429 422 429 422 C429 422 429 452 429 452 C429 452 416 452 416 452 C416 452 363 422 363 422 C363 422 209 422 209 422 C209 422 209 767 209 767 C209 767 383 767 383 767 C383 767 436 737 436 737 C436 737 449 737 449 737 C449 737 449 767 449 767 C449 767 449 789 449 789 C449 789 449 811 449 811 C449 811 209 811 209 811 C209 811 208 811 208 811 C208 811 159 811 159 811 C159 811 109 811 109 811 C109 811 79 811 79 811 C79 811 79 798 79 798 C79 798 109 745 109 745 C109 745 109 66 109 66 C109 66 79 13 79 13 C79 13 79 0 79 0 C79 0 109 0 109 0 C109 0 159 0 159 0 C159 0 208 0 208 0 C208 0 209 0 209 0 C209 0 464 0 464 0 C464 0 464 22 464 22 L464 22 Z " />
<glyph glyph-name="Ygrave" unicode="&#x1ef2;" horiz-adv-x="517" d="M225 891 C225 891 308 891 308 891 C308 891 295 1041 295 1041 C295 1041 178 1041 178 1041 C178 1041 225 891 225 891 L225 891 Z M415 745 C415 745 415 745 415 745 C415 745 290 426 290 426 C290 426 162 746 162 746 C162 746 166 798 166 798 C165 798 165 803 166 810 C165 811 165 811 166 811 C166 811 136 811 136 811 C136 811 88 811 88 811 C88 811 40 811 40 811 C40 811 16 811 16 811 C15 811 15 810 16 809 C15 803 15 798 16 798 C16 798 67 745 67 745 C67 745 67 745 67 745 C67 745 222 369 222 369 C222 369 222 66 222 66 C222 66 192 13 192 13 C192 13 192 0 192 0 C192 0 222 0 222 0 C222 0 272 0 272 0 C272 0 322 0 322 0 C322 0 352 0 352 0 C352 0 352 13 352 13 C352 13 322 66 322 66 C322 66 322 382 322 382 C322 382 467 745 467 745 C467 745 467 745 467 745 C467 745 518 798 518 798 C518 798 518 811 518 811 C518 811 493 811 493 811 C493 811 467 811 467 811 C467 811 441 811 441 811 C441 811 411 811 411 811 C411 811 411 798 411 798 C411 798 415 745 415 745 L415 745 Z " />
<glyph glyph-name="endash" unicode="&#x2013;" horiz-adv-x="290" d="M5 247 C5 247 285 247 285 247 C285 247 285 321 285 321 C285 321 5 321 5 321 C5 321 5 247 5 247 L5 247 Z " />
<glyph glyph-name="emdash" unicode="&#x2014;" horiz-adv-x="580" d="M50 247 C50 247 530 247 530 247 C530 247 530 321 530 321 C530 321 50 321 50 321 C50 321 50 247 50 247 L50 247 Z " />
<glyph glyph-name="quoteleft" unicode="&#x2018;" horiz-adv-x="197" d="M148 821 C83 821 50 774 50 714 C50 714 50 616 50 616 C50 616 148 616 148 616 C148 616 148 714 148 714 C148 714 109 714 109 714 C109 747 122 774 148 774 C148 774 148 821 148 821 L148 821 Z " />
<glyph glyph-name="quoteright" unicode="&#x2019;" horiz-adv-x="197" d="M99 821 C99 821 99 723 99 723 C99 723 138 723 138 723 C138 683 125 663 99 663 C99 663 99 616 99 616 C164 616 197 652 197 723 C197 723 197 821 197 821 C197 821 99 821 99 821 L99 821 Z " />
<glyph glyph-name="quotedblleft" unicode="&#x201c;" horiz-adv-x="393" d="M343 821 C278 821 245 774 245 714 C245 714 245 616 245 616 C245 616 343 616 343 616 C343 616 343 714 343 714 C343 714 304 714 304 714 C304 747 317 774 343 774 C343 774 343 821 343 821 L343 821 Z M197 821 C132 821 99 774 99 714 C99 714 99 616 99 616 C99 616 197 616 197 616 C197 616 197 714 197 714 C197 714 158 714 158 714 C158 747 171 774 197 774 C197 774 197 821 197 821 L197 821 Z " />
<glyph glyph-name="quotedblright" unicode="&#x201d;" horiz-adv-x="393" d="M245 821 C245 821 245 723 245 723 C245 723 285 723 285 723 C285 683 272 663 245 663 C245 663 245 616 245 616 C310 616 343 652 343 723 C343 723 343 821 343 821 C343 821 245 821 245 821 L245 821 Z M99 821 C99 821 99 723 99 723 C99 723 138 723 138 723 C138 683 125 663 99 663 C99 663 99 616 99 616 C164 616 197 652 197 723 C197 723 197 821 197 821 C197 821 99 821 99 821 L99 821 Z " />
<glyph glyph-name="dagger" unicode="&#x2020;" horiz-adv-x="549" d="M490 641 C490 641 320 641 320 641 C320 641 320 811 320 811 C320 811 230 811 230 811 C230 811 230 641 230 641 C230 641 60 641 60 641 C60 641 60 563 60 563 C60 563 230 563 230 563 C230 563 230 -50 230 -50 C230 -50 320 -50 320 -50 C320 -50 320 563 320 563 C320 563 490 563 490 563 C490 563 490 641 490 641 L490 641 Z " />
<glyph glyph-name="daggerdbl" unicode="&#x2021;" horiz-adv-x="549" d="M60 120 C60 120 230 120 230 120 C230 120 230 -50 230 -50 C230 -50 320 -50 320 -50 C320 -50 320 120 320 120 C320 120 490 120 490 120 C490 120 490 198 490 198 C490 198 320 198 320 198 C320 198 320 563 320 563 C320 563 490 563 490 563 C490 563 490 641 490 641 C490 641 320 641 320 641 C320 641 320 811 320 811 C320 811 230 811 230 811 C230 811 230 641 230 641 C230 641 60 641 60 641 C60 641 60 563 60 563 C60 563 230 563 230 563 C230 563 230 198 230 198 C230 198 60 198 60 198 C60 198 60 120 60 120 L60 120 Z " />
<glyph glyph-name="bullet" unicode="&#x2022;" horiz-adv-x="197" d="M38 242 C38 242 160 242 160 242 C160 242 160 364 160 364 C160 364 38 364 38 364 C38 364 38 242 38 242 L38 242 Z " />
<glyph glyph-name="ellipsis" unicode="&#x2026;" horiz-adv-x="543" d="M395 0 C395 0 493 0 493 0 C493 0 493 98 493 98 C493 98 395 98 395 98 C395 98 395 0 395 0 L395 0 Z M223 0 C223 0 320 0 320 0 C320 0 320 98 320 98 C320 98 223 98 223 98 C223 98 223 0 223 0 L223 0 Z M50 0 C50 0 148 0 148 0 C148 0 148 98 148 98 C148 98 50 98 50 98 C50 98 50 0 50 0 L50 0 Z " />
<glyph glyph-name="perthousand" unicode="&#x2030;" horiz-adv-x="534" d="M577 140 C577 71 570 16 559 16 C549 16 542 71 542 140 C542 209 549 264 559 264 C570 264 577 209 577 140 L577 140 Z M559 -10 C601 -10 628 57 628 140 C628 223 601 290 559 290 C518 290 491 223 491 140 C491 57 518 -10 559 -10 L559 -10 Z M426 140 C426 71 419 16 409 16 C398 16 391 71 391 140 C391 209 398 264 409 264 C419 264 426 209 426 140 L426 140 Z M409 -10 C450 -10 477 57 477 140 C477 223 450 290 409 290 C367 290 340 223 340 140 C340 57 367 -10 409 -10 L409 -10 Z M108 671 C108 740 115 795 126 796 C137 797 144 740 144 671 C144 602 137 546 126 547 C115 548 108 602 108 671 L108 671 Z M126 821 C84 821 57 754 57 671 C57 588 84 521 126 521 C168 521 195 588 195 671 C195 754 168 821 126 821 L126 821 Z M106 0 C106 0 137 0 137 0 C137 0 429 811 429 811 C429 811 397 811 397 811 C397 811 106 0 106 0 L106 0 Z " />
<glyph glyph-name="guilsinglleft" unicode="&#x2039;" horiz-adv-x="181" d="M111 525 C111 525 55 291 55 291 C55 291 111 56 111 56 C111 56 190 56 190 56 C190 56 134 291 134 291 C134 291 190 525 190 525 C190 525 111 525 111 525 L111 525 Z " />
<glyph glyph-name="guilsinglright" unicode="&#x203a;" horiz-adv-x="181" d="M66 525 C66 525 122 291 122 291 C122 291 66 56 66 56 C66 56 145 56 145 56 C145 56 201 291 201 291 C201 291 145 525 145 525 C145 525 66 525 66 525 L66 525 Z " />
<glyph glyph-name="fraction" unicode="&#x2044;" horiz-adv-x="562" d="M60 0 C60 0 91 0 91 0 C91 0 503 811 503 811 C503 811 471 811 471 811 C471 811 60 0 60 0 L60 0 Z " />
<glyph glyph-name="Euro" unicode="&#x20ac;" horiz-adv-x="588" d="M2 325 C2 325 65 325 65 325 C93 147 208 -10 347 -10 C470 -10 568 68 568 165 C568 165 528 198 528 198 C528 107 448 34 347 34 C262 34 191 170 172 325 C172 325 377 325 377 325 C377 325 384 376 384 376 C384 376 168 376 168 376 C167 386 167 396 167 406 C167 416 167 426 168 436 C168 436 384 436 384 436 C384 436 391 486 391 486 C391 486 172 486 172 486 C191 641 262 777 347 777 C448 777 528 704 528 613 C528 613 568 646 568 646 C568 743 470 821 347 821 C208 821 93 663 65 486 C65 486 16 486 16 486 C16 486 9 436 9 436 C9 436 60 436 60 436 C59 426 59 416 59 406 C59 396 59 386 60 376 C60 376 9 376 9 376 C9 376 2 325 2 325 L2 325 Z " />
<glyph glyph-name="minus" unicode="&#x2212;" horiz-adv-x="495" d="M50 257 C50 257 445 257 445 257 C445 257 445 312 445 312 C445 312 50 312 50 312 C50 312 50 257 50 257 L50 257 Z " />
<glyph glyph-name="DIVISIONSLASH" unicode="&#x2215;" horiz-adv-x="442" d="M0 0 C0 0 31 0 31 0 C31 0 443 811 443 811 C443 811 411 811 411 811 C411 811 0 0 0 0 L0 0 Z " />
<glyph glyph-name="BULLETOPERATOR" unicode="&#x2219;" horiz-adv-x="197" d="M50 242 C50 242 148 242 148 242 C148 242 148 339 148 339 C148 339 50 339 50 339 C50 339 50 242 50 242 L50 242 Z " />
<glyph glyph-name="LETTERSMALLCAPITALF" unicode="&#xa730;" horiz-adv-x="447" d="M322 306 C322 306 375 276 375 276 C375 276 388 276 388 276 C388 276 388 306 388 306 C388 306 388 325 388 325 C388 325 388 344 388 344 C388 344 388 374 388 374 C388 374 375 374 375 374 C375 374 322 344 322 344 C322 344 202 344 202 344 C202 344 202 618 202 618 C202 618 352 618 352 618 C352 618 405 588 405 588 C405 588 418 588 418 588 C418 588 418 618 418 618 C418 618 418 638 418 638 C418 638 418 658 418 658 C418 658 202 658 202 658 C202 658 201 658 201 658 C201 658 157 658 157 658 C157 658 111 658 111 658 C111 658 81 658 81 658 C81 658 81 645 81 645 C81 645 111 592 111 592 C111 592 111 66 111 66 C111 66 81 13 81 13 C81 13 81 0 81 0 C81 0 111 0 111 0 C111 0 157 0 157 0 C157 0 202 0 202 0 C202 0 232 0 232 0 C231 0 231 1 232 1 C231 8 231 13 232 13 C232 13 202 66 202 66 C202 66 202 306 202 306 C202 306 322 306 322 306 L322 306 Z " />
<glyph glyph-name="LETTERSMALLCAPITALS" unicode="&#xa731;" horiz-adv-x="442" d="M56 143 C63 96 86 58 119 32 C119 31 119 31 119 31 C119 31 119 31 119 31 C153 5 197 -10 245 -10 C344 -10 407 76 407 184 C407 270 340 348 234 384 C177 404 140 445 140 489 C140 564 164 624 195 624 C272 624 334 573 334 492 C334 492 352 508 352 508 C352 508 352 508 352 508 C352 508 369 524 369 524 C369 524 369 554 369 554 C369 554 366 554 366 554 C350 625 280 668 195 668 C113 668 47 584 47 480 C47 399 110 327 210 293 C275 270 317 227 317 181 C317 99 289 33 245 33 C162 33 95 99 95 202 C95 202 54 173 54 173 C54 173 54 143 54 143 C54 143 56 143 56 143 L56 143 Z " />
<glyph glyph-name="[namenotfound]001" unicode="&#xf078;" horiz-adv-x="531" d="M520 658 C520 658 498 658 498 658 C498 658 472 658 472 658 C472 658 446 658 446 658 C446 658 416 658 416 658 C416 658 416 645 416 645 C416 645 408 592 408 592 C408 592 408 592 408 592 C408 592 306 413 306 413 C306 413 228 592 228 592 C228 592 228 592 228 592 C228 592 229 645 229 645 C229 645 229 658 229 658 C229 658 199 658 199 658 C199 658 155 658 155 658 C155 658 111 658 111 658 C111 658 87 658 87 658 C87 658 87 645 87 645 C87 645 140 592 140 592 C140 592 256 326 256 326 C256 326 107 66 107 66 C107 66 47 13 47 13 C47 13 47 0 47 0 C47 0 69 0 69 0 C69 0 95 0 95 0 C95 0 121 0 121 0 C121 0 151 0 151 0 C151 0 151 13 151 13 C151 13 159 66 159 66 C159 66 159 66 159 66 C159 66 278 274 278 274 C278 274 369 66 369 66 C369 66 369 66 369 66 C369 66 368 13 368 13 C368 13 368 0 368 0 C368 0 398 0 398 0 C398 0 442 0 442 0 C442 0 486 0 486 0 C486 0 510 0 510 0 C510 0 510 13 510 13 C510 13 457 66 457 66 C457 66 328 362 328 362 C328 362 460 592 460 592 C460 592 520 645 520 645 C520 645 520 658 520 658 L520 658 Z " />
</font>
</svg>
