<?xml version="1.0" encoding="UTF-8"?>
<svg xmlns="http://www.w3.org/2000/svg" xmlns:xlink="http://www.w3.org/1999/xlink" version="1.2" >
<font id="Montrell Thin">
<font-face  font-family="Montrell" units-per-em="1024" ascent="1054" descent="-300" font-style="normal" font-weight="100" font-stretch="normal" cap-height="811" x-height="581" underline-position="0" underline-thickness="0" />
<missing-glyph  horiz-adv-x="472" d="M0 700 C0 700 432 700 432 700 C432 700 432 0 432 0 C432 0 0 0 0 0 C0 0 0 700 0 700 L0 700 Z M50 50 C50 50 382 50 382 50 C382 50 382 650 382 650 C382 650 50 650 50 650 C50 650 50 50 50 50 L50 50 Z " />
<glyph glyph-name="NULL" d="" />
<glyph glyph-name="CR" unicode="&#xd;" horiz-adv-x="256" d="" />
<glyph glyph-name="space" unicode="&#x20;" horiz-adv-x="100" d="" />
<glyph glyph-name="exclam" unicode="&#x21;" horiz-adv-x="113" d="M27 0 C27 0 87 0 87 0 C87 0 87 60 87 60 C87 60 27 60 27 60 C27 60 27 0 27 0 L27 0 Z M45 811 C45 811 45 476 45 476 C45 476 54 215 54 215 C54 215 60 215 60 215 C60 215 68 476 68 476 C68 476 68 811 68 811 C68 811 45 811 45 811 L45 811 Z " />
<glyph glyph-name="quotedbl" unicode="&#x22;" horiz-adv-x="270" d="M166 811 C166 811 166 756 166 756 C166 756 190 711 190 711 C190 711 200 711 200 711 C200 711 224 756 224 756 C224 756 224 811 224 811 C224 811 166 811 166 811 L166 811 Z M76 811 C76 811 76 756 76 756 C76 756 100 711 100 711 C100 711 110 711 110 711 C110 711 134 756 134 756 C134 756 134 811 134 811 C134 811 76 811 76 811 L76 811 Z " />
<glyph glyph-name="numbersign" unicode="&#x23;" horiz-adv-x="481" d="M377 811 C377 811 349 589 349 589 C349 589 202 589 202 589 C202 589 230 811 230 811 C230 811 219 811 219 811 C219 811 191 589 191 589 C191 589 74 589 74 589 C74 589 71 573 71 573 C71 573 189 573 189 573 C189 573 147 238 147 238 C147 238 23 238 23 238 C23 238 21 222 21 222 C21 222 145 222 145 222 C145 222 117 0 117 0 C117 0 127 0 127 0 C127 0 155 222 155 222 C155 222 303 222 303 222 C303 222 275 0 275 0 C275 0 285 0 285 0 C285 0 313 222 313 222 C313 222 409 222 409 222 C409 222 411 238 411 238 C411 238 315 238 315 238 C315 238 358 573 358 573 C358 573 459 573 459 573 C459 573 462 589 462 589 C462 589 360 589 360 589 C360 589 388 811 388 811 C388 811 377 811 377 811 L377 811 Z M200 573 C200 573 347 573 347 573 C347 573 305 238 305 238 C305 238 157 238 157 238 C157 238 200 573 200 573 L200 573 Z " />
<glyph glyph-name="dollar" unicode="&#x24;" horiz-adv-x="396" d="M239 886 C239 886 239 808 239 808 C221 817 202 821 181 821 C167 821 153 816 140 807 C140 807 140 886 140 886 C140 886 114 886 114 886 C114 886 114 780 114 780 C84 739 64 671 64 593 C64 547 82 503 114 468 C114 468 114 54 114 54 C114 54 99 73 90 95 C80 117 76 141 76 141 C75 147 72 180 72 185 C72 185 67 182 67 182 C67 182 67 182 67 182 C67 182 61 178 61 178 C61 178 63 148 63 148 C63 148 63 148 63 148 C68 101 87 62 114 35 C114 35 114 -75 114 -75 C114 -75 140 -75 140 -75 C140 -75 140 14 140 14 C164 -2 193 -10 224 -10 C229 -10 234 -10 239 -9 C239 -9 239 -75 239 -75 C239 -75 265 -75 265 -75 C265 -75 265 -1 265 -1 C325 27 362 118 362 226 C362 291 326 353 265 396 C265 396 265 775 265 775 C265 775 283 750 291 727 C296 712 304 702 304 702 C305 697 308 668 308 663 C308 663 313 667 313 667 C313 667 313 667 313 667 C313 667 317 671 317 671 C317 671 315 701 315 701 C315 701 315 701 315 701 C309 740 290 771 265 792 C265 792 265 886 265 886 C265 886 239 886 239 886 L239 886 Z M239 413 C229 419 218 424 207 429 C181 440 158 455 140 474 C140 474 140 789 140 789 C152 802 166 810 181 810 C202 810 222 805 239 795 C239 795 239 413 239 413 L239 413 Z M114 506 C97 533 87 563 87 595 C87 654 97 708 114 746 C114 746 114 506 114 506 L114 506 Z M140 443 C158 428 178 416 201 406 C214 400 227 393 239 386 C239 386 239 3 239 3 C234 2 229 1 224 1 C193 1 164 11 140 29 C140 29 140 443 140 443 L140 443 Z M265 367 C312 329 340 278 340 226 C340 127 312 44 265 13 C265 13 265 367 265 367 L265 367 Z " />
<glyph glyph-name="percent" unicode="&#x25;" horiz-adv-x="485" d="M423 140 C423 60 405 -4 375 -4 C346 -4 328 60 328 140 C328 220 346 284 375 284 C405 284 423 220 423 140 L423 140 Z M375 -10 C411 -10 434 57 434 140 C434 223 411 290 375 290 C340 290 317 223 317 140 C317 57 340 -10 375 -10 L375 -10 Z M63 671 C63 751 81 815 110 815 C139 815 158 751 158 671 C158 591 139 527 110 527 C81 527 63 591 63 671 L63 671 Z M110 821 C75 821 52 754 52 671 C52 588 75 521 110 521 C146 521 169 588 169 671 C169 754 146 821 110 821 L110 821 Z M106 0 C106 0 113 0 113 0 C113 0 380 811 380 811 C380 811 373 811 373 811 C373 811 106 0 106 0 L106 0 Z " />
<glyph glyph-name="ampersand" unicode="&#x26;" horiz-adv-x="566" d="M506 2 C506 2 505 11 505 11 C489 5 473 0 467 0 C451 0 424 39 393 95 C427 167 448 267 446 379 C446 379 436 381 436 381 C438 273 419 176 387 105 C377 123 367 142 357 162 C297 279 246 379 232 403 C232 403 236 405 236 405 C287 496 331 561 354 581 C349 601 295 527 229 409 C229 409 229 409 229 409 C210 436 194 510 194 574 C194 668 231 743 278 743 C319 743 353 671 354 582 C365 591 371 591 371 578 C371 675 330 752 278 752 C221 752 175 672 175 573 C175 505 192 428 212 398 C212 398 212 398 212 398 C156 298 107 225 81 199 C84 175 143 259 216 391 C229 366 276 274 334 159 C348 131 362 105 376 83 C344 25 303 -9 257 -9 C160 -9 82 83 81 199 C68 186 60 185 60 198 C60 77 147 -20 255 -20 C304 -20 348 15 381 73 C412 23 441 -10 466 -10 C472 -10 490 -5 506 2 C506 2 506 2 506 2 L506 2 Z M81 199 C81 200 81 200 81 201 C81 200 81 200 81 199 C81 199 81 199 81 199 C81 199 81 199 81 199 L81 199 Z M354 581 C354 581 354 582 354 582 C354 580 354 579 354 578 C354 579 354 580 354 581 C354 581 354 581 354 581 L354 581 Z " />
<glyph glyph-name="quotesingle" unicode="&#x27;" horiz-adv-x="180" d="M76 811 C76 811 76 756 76 756 C76 756 100 711 100 711 C100 711 110 711 110 711 C110 711 134 756 134 756 C134 756 134 811 134 811 C134 811 76 811 76 811 L76 811 Z " />
<glyph glyph-name="parenleft" unicode="&#x28;" horiz-adv-x="312" d="M286 856 C182 769 116 577 116 362 C116 158 182 -28 286 -115 C286 -115 293 -107 293 -107 C193 -23 129 159 129 362 C129 575 193 764 293 848 C293 848 286 856 286 856 L286 856 Z " />
<glyph glyph-name="parenright" unicode="&#x29;" horiz-adv-x="305" d="M27 -115 C131 -28 197 165 197 379 C197 583 131 769 27 856 C27 856 20 848 20 848 C120 764 184 582 184 379 C184 166 120 -23 20 -107 C20 -107 27 -115 27 -115 L27 -115 Z " />
<glyph glyph-name="asterisk" unicode="&#x2a;" horiz-adv-x="326" d="M313 718 C313 718 166 665 166 665 C166 665 172 821 172 821 C172 821 155 821 155 821 C155 821 161 665 161 665 C161 665 14 718 14 718 C14 718 9 703 9 703 C9 703 159 660 159 660 C159 660 63 537 63 537 C63 537 76 527 76 527 C76 527 163 657 163 657 C163 657 251 527 251 527 C251 527 264 537 264 537 C264 537 167 660 167 660 C167 660 318 703 318 703 C318 703 313 718 313 718 L313 718 Z " />
<glyph glyph-name="plus" unicode="&#x2b;" horiz-adv-x="651" d="M319 289 C319 289 319 0 319 0 C319 0 332 0 332 0 C332 0 332 289 332 289 C332 289 626 289 626 289 C626 289 626 301 626 301 C626 301 332 301 332 301 C332 301 332 581 332 581 C332 581 319 581 319 581 C319 581 319 301 319 301 C319 301 25 301 25 301 C25 301 25 289 25 289 C25 289 319 289 319 289 L319 289 Z " />
<glyph glyph-name="comma" unicode="&#x2c;" horiz-adv-x="160" d="M50 60 C50 60 50 0 50 0 C50 0 97 0 97 0 C97 -40 81 -60 50 -60 C50 -60 50 -70 50 -70 C90 -70 110 -47 110 0 C110 0 110 60 110 60 C110 60 50 60 50 60 L50 60 Z " />
<glyph glyph-name="hyphen" unicode="&#x2d;" horiz-adv-x="245" d="M50 276 C50 276 195 276 195 276 C195 276 195 293 195 293 C195 293 50 293 50 293 C50 293 50 276 50 276 L50 276 Z " />
<glyph glyph-name="period" unicode="&#x2e;" horiz-adv-x="160" d="M50 0 C50 0 110 0 110 0 C110 0 110 60 110 60 C110 60 50 60 50 60 C50 60 50 0 50 0 L50 0 Z " />
<glyph glyph-name="slash" unicode="&#x2f;" horiz-adv-x="237" d="M0 0 C0 0 9 0 9 0 C9 0 237 811 237 811 C237 811 229 811 229 811 C229 811 0 0 0 0 L0 0 Z " />
<glyph glyph-name="zero" unicode="0" horiz-adv-x="579" d="M302 0 C180 0 102 158 102 406 C102 642 185 811 302 811 C419 811 502 642 502 406 C502 158 424 0 302 0 L302 0 Z M79 406 C79 152 166 -10 302 -10 C438 -10 525 152 525 406 C525 648 432 821 302 821 C172 821 79 648 79 406 L79 406 Z " />
<glyph glyph-name="one" unicode="1" horiz-adv-x="290" d="M180 0 C180 0 191 0 191 0 C191 0 221 0 221 0 C221 0 221 13 221 13 C221 13 191 66 191 66 C191 66 191 811 191 811 C191 811 173 811 173 811 C173 811 50 590 50 590 C50 590 50 575 50 575 C50 575 168 787 168 787 C168 787 168 66 168 66 C168 66 138 13 138 13 C138 13 138 0 138 0 C138 0 168 0 168 0 C168 0 180 0 180 0 L180 0 Z " />
<glyph glyph-name="two" unicode="2" horiz-adv-x="451" d="M76 0 C76 0 89 0 89 0 C89 0 416 0 416 0 C416 0 416 11 416 11 C416 11 416 21 416 21 C416 21 416 51 416 51 C416 51 403 51 403 51 C403 51 351 21 351 21 C351 21 89 21 89 21 C93 184 147 264 252 328 C335 380 401 485 401 566 C401 707 336 821 255 821 C173 821 108 713 108 579 C108 526 127 460 150 430 C150 430 161 435 161 435 C138 465 120 528 120 579 C120 704 177 804 249 804 C322 804 380 696 380 561 C380 480 318 378 240 330 C131 262 76 177 76 0 C76 0 76 0 76 0 L76 0 Z " />
<glyph glyph-name="three" unicode="3" horiz-adv-x="478" d="M73 265 C73 112 153 -10 253 -10 C353 -10 433 95 433 227 C433 320 357 411 260 437 C260 437 269 437 269 437 C345 452 406 529 406 609 C406 727 344 821 267 821 C189 821 127 716 127 584 C127 584 149 584 149 584 C149 710 201 811 266 811 C333 811 386 720 386 607 C386 517 325 445 248 445 C248 445 168 445 168 445 C168 445 168 440 168 440 C168 440 168 437 168 437 C168 437 168 428 168 428 C168 428 228 428 228 428 C329 428 409 339 409 228 C409 102 340 1 253 1 C166 1 96 118 96 265 C96 265 73 265 73 265 L73 265 Z " />
<glyph glyph-name="four" unicode="4" horiz-adv-x="475" d="M25 284 C25 284 25 275 25 275 C25 275 369 275 369 275 C369 275 369 66 369 66 C369 66 340 13 340 13 C340 13 340 0 340 0 C340 0 369 0 369 0 C369 0 381 0 381 0 C381 0 392 0 392 0 C392 0 422 0 422 0 C422 0 422 13 422 13 C422 13 392 66 392 66 C392 66 392 275 392 275 C392 275 455 275 455 275 C455 275 455 285 455 285 C455 285 392 285 392 285 C392 285 392 811 392 811 C392 811 374 811 374 811 C374 811 25 284 25 284 L25 284 Z M36 285 C36 285 374 793 374 793 C374 793 369 598 369 598 C369 598 369 285 369 285 C369 285 36 285 36 285 L36 285 Z " />
<glyph glyph-name="five" unicode="5" horiz-adv-x="474" d="M129 372 C129 372 141 369 141 369 C200 435 265 488 286 488 C355 488 410 384 410 254 C410 114 341 1 254 1 C167 1 97 118 97 265 C97 265 74 265 74 265 C74 112 154 -10 254 -10 C354 -10 434 107 434 254 C434 394 370 506 290 506 C266 506 199 453 140 388 C140 388 125 788 125 788 C125 788 362 790 362 790 C362 790 411 760 411 760 C411 760 425 760 425 760 C426 768 426 780 427 790 C427 790 427 790 427 790 C427 790 428 811 428 811 C428 811 114 811 114 811 C114 811 129 372 129 372 L129 372 Z " />
<glyph glyph-name="six" unicode="6" horiz-adv-x="490" d="M440 672 C405 755 334 821 280 821 C160 821 83 636 83 405 C83 151 160 -10 281 -10 C380 -10 459 112 459 265 C459 404 386 515 294 515 C251 515 131 434 104 375 C104 375 100 359 107 363 C156 441 268 505 292 505 C371 505 435 398 435 265 C435 118 366 0 281 0 C174 0 106 159 106 409 C106 633 174 812 280 812 C329 812 397 747 431 666 C431 666 440 672 440 672 L440 672 Z M162 409 C162 409 162 409 162 409 C162 409 162 409 162 409 C162 409 162 409 162 409 L162 409 Z " />
<glyph glyph-name="seven" unicode="7" horiz-adv-x="370" d="M30 811 C30 811 30 800 30 800 C30 800 30 790 30 790 C30 790 30 760 30 760 C30 760 43 760 43 760 C43 760 96 790 96 790 C96 790 350 790 350 790 C219 563 153 299 153 0 C153 0 178 0 178 0 C178 317 239 580 360 790 C360 790 360 811 360 811 C360 811 30 811 30 811 L30 811 Z " />
<glyph glyph-name="eight" unicode="8" horiz-adv-x="508" d="M270 438 C181 438 131 513 131 607 C131 732 193 811 270 811 C352 811 404 720 404 607 C404 499 344 438 270 438 L270 438 Z M111 608 C111 518 159 444 246 433 C154 421 85 346 85 221 C85 93 152 -10 270 -10 C372 -10 454 73 454 221 C454 331 396 421 294 433 C368 443 425 506 425 608 C425 727 365 821 270 821 C181 821 111 738 111 608 L111 608 Z M270 0 C167 0 109 99 109 223 C109 353 180 427 270 427 C372 427 430 336 430 223 C430 81 359 0 270 0 L270 0 Z " />
<glyph glyph-name="nine" unicode="9" horiz-adv-x="490" d="M69 139 C104 56 175 -10 230 -10 C350 -10 426 175 426 407 C426 660 349 821 229 821 C129 821 50 699 50 546 C50 407 123 296 215 296 C258 296 375 378 402 437 C402 437 410 451 404 447 C355 368 241 306 217 306 C138 306 74 413 74 546 C74 693 143 811 229 811 C335 811 403 652 403 402 C403 178 336 -1 230 -1 C180 -1 112 64 78 145 C78 145 69 139 69 139 L69 139 Z M347 402 C347 402 347 402 347 402 C347 402 347 402 347 402 C347 402 347 402 347 402 L347 402 Z " />
<glyph glyph-name="colon" unicode="&#x3a;" horiz-adv-x="160" d="M50 521 C50 521 110 521 110 521 C110 521 110 581 110 581 C110 581 50 581 50 581 C50 581 50 521 50 521 L50 521 Z M50 0 C50 0 110 0 110 0 C110 0 110 60 110 60 C110 60 50 60 50 60 C50 60 50 0 50 0 L50 0 Z " />
<glyph glyph-name="semicolon" unicode="&#x3b;" horiz-adv-x="160" d="M50 521 C50 521 110 521 110 521 C110 521 110 581 110 581 C110 581 50 581 50 581 C50 581 50 521 50 521 L50 521 Z M50 60 C50 60 50 0 50 0 C50 0 97 0 97 0 C97 -40 81 -60 50 -60 C50 -60 50 -70 50 -70 C90 -70 110 -47 110 0 C110 0 110 60 110 60 C110 60 50 60 50 60 L50 60 Z " />
<glyph glyph-name="less" unicode="&#x3c;" horiz-adv-x="285" d="M225 529 C225 529 45 298 45 298 C45 298 45 283 45 283 C45 283 225 52 225 52 C225 52 225 68 225 68 C225 68 51 291 51 291 C51 291 225 513 225 513 C225 513 225 529 225 529 L225 529 Z " />
<glyph glyph-name="equal" unicode="&#x3d;" horiz-adv-x="484" d="M39 195 C39 195 39 182 39 182 C39 182 434 182 434 182 C434 182 434 195 434 195 C434 195 39 195 39 195 L39 195 Z M39 418 C39 418 39 406 39 406 C39 406 434 406 434 406 C434 406 434 418 434 418 C434 418 39 418 39 418 L39 418 Z " />
<glyph glyph-name="greater" unicode="&#x3e;" horiz-adv-x="285" d="M234 291 C234 291 60 68 60 68 C60 68 60 52 60 52 C60 52 240 283 240 283 C240 283 240 298 240 298 C240 298 60 529 60 529 C60 529 60 513 60 513 C60 513 234 291 234 291 L234 291 Z " />
<glyph glyph-name="question" unicode="&#x3f;" horiz-adv-x="443" d="M209 0 C209 0 269 0 269 0 C269 0 269 60 269 60 C269 60 209 60 209 60 C209 60 209 0 209 0 L209 0 Z M38 601 C38 601 57 598 57 598 C68 713 149 805 240 805 C314 805 373 714 373 601 C373 500 355 442 319 425 C249 393 229 346 229 215 C229 215 248 215 248 215 C248 338 267 382 333 412 C373 431 393 494 393 601 C393 723 325 821 240 821 C138 821 49 723 38 601 L38 601 Z " />
<glyph glyph-name="at" unicode="&#x40;" horiz-adv-x="1012" d="M850 -121 C755 -187 600 -240 501 -240 C262 -240 70 0 70 300 C70 599 266 839 510 839 C750 839 942 643 942 399 C942 180 865 5 770 5 C668 5 597 106 610 232 C610 232 645 558 645 558 C645 558 627 558 627 558 C627 558 602 329 602 329 C606 489 565 569 506 569 C416 569 331 449 315 300 C298 143 363 18 461 18 C516 18 569 93 591 193 C594 82 667 -2 766 -2 C872 -2 957 176 957 399 C957 647 758 846 510 846 C258 846 56 603 56 300 C56 -4 254 -247 501 -247 C601 -247 758 -194 853 -127 C853 -127 850 -121 850 -121 L850 -121 Z M592 232 C580 118 522 27 462 27 C375 27 319 148 335 300 C351 444 426 560 505 560 C573 560 615 451 592 232 L592 232 Z " />
<glyph glyph-name="A" unicode="A" horiz-adv-x="637" d="M90 66 C90 66 90 66 90 66 C90 66 153 260 153 260 C153 260 505 260 505 260 C505 260 569 65 569 65 C569 65 560 13 560 13 C560 13 560 0 560 0 C560 0 590 0 590 0 C590 0 601 0 601 0 C601 0 613 0 613 0 C613 0 638 0 638 0 C638 0 638 13 638 13 C638 13 591 66 591 66 C591 66 346 811 346 811 C346 811 334 811 334 811 C334 811 328 811 328 811 C328 811 324 811 324 811 C324 811 322 811 322 811 C322 811 292 811 292 811 C292 811 292 798 292 798 C292 798 301 746 301 746 C301 746 77 65 77 65 C77 65 30 13 30 13 C30 13 30 0 30 0 C30 0 56 0 56 0 C56 0 62 0 62 0 C62 0 68 0 68 0 C68 0 98 0 98 0 C98 0 98 13 98 13 C98 13 90 66 90 66 L90 66 Z M156 269 C156 269 329 796 329 796 C329 796 502 269 502 269 C502 269 156 269 156 269 L156 269 Z " />
<glyph glyph-name="B" unicode="B" horiz-adv-x="585" d="M351 429 C444 441 514 511 514 595 C514 739 442 811 299 811 C299 811 151 811 151 811 C151 811 140 811 140 811 C140 811 128 811 128 811 C128 811 98 811 98 811 C98 811 98 798 98 798 C98 798 128 745 128 745 C128 745 128 66 128 66 C128 66 98 13 98 13 C98 13 98 0 98 0 C98 0 128 0 128 0 C128 0 140 0 140 0 C140 0 151 0 151 0 C151 0 336 0 336 0 C479 0 551 81 551 244 C551 347 469 429 366 429 C366 429 351 429 351 429 L351 429 Z M151 432 C151 432 151 802 151 802 C151 802 300 802 300 802 C427 802 491 733 491 594 C491 504 413 432 315 432 C315 432 151 432 151 432 L151 432 Z M151 9 C151 9 151 423 151 423 C151 423 357 423 357 423 C452 423 527 345 527 247 C527 88 462 9 332 9 C332 9 151 9 151 9 L151 9 Z " />
<glyph glyph-name="C" unicode="C" horiz-adv-x="601" d="M572 179 C572 79 468 0 338 0 C208 0 104 203 104 406 C104 608 208 811 338 811 C411 811 477 786 519 746 C519 746 571 647 571 647 C572 642 572 638 572 633 C572 633 577 637 577 637 C577 637 577 636 577 636 C577 636 581 640 581 640 C581 640 581 670 581 670 C581 670 578 670 578 670 C559 756 459 821 338 821 C195 821 80 613 80 406 C80 198 195 -10 338 -10 C473 -10 581 71 581 171 C581 171 572 179 572 179 L572 179 Z M534 731 C549 714 560 695 566 674 C554 696 542 716 534 731 C534 731 534 731 534 731 L534 731 Z " />
<glyph glyph-name="D" unicode="D" horiz-adv-x="658" d="M140 0 C140 0 151 0 151 0 C151 0 303 0 303 0 C491 0 603 151 603 406 C603 653 475 811 273 811 C273 811 151 811 151 811 C151 811 140 811 140 811 C140 811 128 811 128 811 C128 811 98 811 98 811 C98 811 98 798 98 798 C98 798 128 745 128 745 C128 745 128 66 128 66 C128 66 98 13 98 13 C98 13 98 0 98 0 C98 0 128 0 128 0 C128 0 140 0 140 0 L140 0 Z M151 9 C151 9 151 802 151 802 C151 802 274 802 274 802 C460 802 579 648 579 406 C579 157 476 9 303 9 C303 9 151 9 151 9 L151 9 Z " />
<glyph glyph-name="E" unicode="E" horiz-adv-x="455" d="M406 5 C406 5 406 10 406 10 C406 10 406 40 406 40 C406 40 393 40 393 40 C393 40 340 10 340 10 C340 10 151 10 151 10 C151 10 151 396 151 396 C151 396 305 396 305 396 C305 396 358 366 358 366 C358 366 371 366 371 366 C371 366 371 396 371 396 C371 396 371 401 371 401 C371 401 371 405 371 405 C371 405 371 435 371 435 C371 435 358 435 358 435 C358 435 305 405 305 405 C305 405 151 405 151 405 C151 405 151 801 151 801 C151 801 325 801 325 801 C325 801 378 771 378 771 C378 771 391 771 391 771 C391 771 391 801 391 801 C391 801 391 806 391 806 C391 806 391 811 391 811 C391 811 151 811 151 811 C151 811 150 811 150 811 C150 811 140 811 140 811 C140 811 128 811 128 811 C128 811 98 811 98 811 C98 811 98 798 98 798 C98 798 128 745 128 745 C128 745 128 66 128 66 C128 66 98 13 98 13 C98 13 98 0 98 0 C98 0 128 0 128 0 C128 0 140 0 140 0 C140 0 150 0 150 0 C150 0 151 0 151 0 C151 0 406 0 406 0 C406 0 406 5 406 5 L406 5 Z " />
<glyph glyph-name="F" unicode="F" horiz-adv-x="420" d="M295 396 C295 396 348 366 348 366 C348 366 361 366 361 366 C361 366 361 396 361 396 C361 396 361 401 361 401 C361 401 361 405 361 405 C361 405 361 435 361 435 C361 435 348 435 348 435 C348 435 295 405 295 405 C295 405 151 405 151 405 C151 405 151 801 151 801 C151 801 325 801 325 801 C325 801 378 771 378 771 C378 771 391 771 391 771 C391 771 391 801 391 801 C391 801 391 806 391 806 C391 806 391 811 391 811 C391 811 151 811 151 811 C151 811 150 811 150 811 C150 811 140 811 140 811 C140 811 128 811 128 811 C128 811 98 811 98 811 C98 811 98 798 98 798 C98 798 128 745 128 745 C128 745 128 66 128 66 C128 66 98 13 98 13 C98 13 98 0 98 0 C98 0 128 0 128 0 C128 0 140 0 140 0 C140 0 151 0 151 0 C151 0 181 0 181 0 C181 0 181 13 181 13 C181 13 151 66 151 66 C151 66 151 396 151 396 C151 396 295 396 295 396 L295 396 Z " />
<glyph glyph-name="G" unicode="G" horiz-adv-x="651" d="M425 411 C425 411 595 411 595 411 C595 411 595 110 595 110 C522 49 425 0 364 0 C220 0 104 180 104 406 C104 631 220 811 364 811 C428 811 484 788 523 752 C523 752 576 647 576 647 C577 642 577 638 577 633 C577 633 582 637 582 637 C582 637 582 636 582 636 C582 636 586 640 586 640 C586 640 586 670 586 670 C586 670 583 670 583 670 C566 756 475 821 364 821 C206 821 80 636 80 406 C80 175 206 -10 364 -10 C429 -10 531 41 607 105 C607 105 607 421 607 421 C607 421 425 421 425 421 C425 421 425 411 425 411 L425 411 Z M537 737 C554 718 566 696 572 672 C559 697 547 720 537 737 L537 737 Z " />
<glyph glyph-name="H" unicode="H" horiz-adv-x="555" d="M444 0 C444 0 455 0 455 0 C455 0 485 0 485 0 C485 0 485 13 485 13 C485 13 455 66 455 66 C455 66 455 745 455 745 C455 745 485 798 485 798 C485 798 485 811 485 811 C485 811 455 811 455 811 C455 811 444 811 444 811 C444 811 433 811 433 811 C433 811 403 811 403 811 C403 811 403 798 403 798 C403 798 433 745 433 745 C433 745 433 416 433 416 C433 416 151 416 151 416 C151 416 151 745 151 745 C151 745 181 798 181 798 C181 798 181 811 181 811 C181 811 151 811 151 811 C151 811 140 811 140 811 C140 811 128 811 128 811 C128 811 98 811 98 811 C98 811 98 798 98 798 C98 798 128 745 128 745 C128 745 128 66 128 66 C128 66 98 13 98 13 C98 13 98 0 98 0 C98 0 128 0 128 0 C128 0 140 0 140 0 C140 0 151 0 151 0 C151 0 181 0 181 0 C181 0 181 13 181 13 C181 13 151 66 151 66 C151 66 151 406 151 406 C151 406 433 406 433 406 C433 406 433 66 433 66 C433 66 403 13 403 13 C403 13 403 0 403 0 C403 0 433 0 433 0 C433 0 444 0 444 0 L444 0 Z " />
<glyph glyph-name="I" unicode="I" horiz-adv-x="222" d="M112 0 C112 0 123 0 123 0 C123 0 153 0 153 0 C153 0 153 13 153 13 C153 13 123 66 123 66 C123 66 123 745 123 745 C123 745 153 798 153 798 C153 798 153 811 153 811 C153 811 123 811 123 811 C123 811 112 811 112 811 C112 811 100 811 100 811 C100 811 71 811 71 811 C71 811 71 798 71 798 C71 798 100 745 100 745 C100 745 100 66 100 66 C100 66 71 13 71 13 C71 13 71 0 71 0 C71 0 100 0 100 0 C100 0 112 0 112 0 L112 0 Z " />
<glyph glyph-name="J" unicode="J" horiz-adv-x="339" d="M75 284 C75 284 75 223 75 223 C75 74 107 -10 165 -10 C219 -10 254 100 254 238 C254 238 254 745 254 745 C254 745 284 798 284 798 C284 798 284 811 284 811 C284 811 254 811 254 811 C254 811 243 811 243 811 C243 811 232 811 232 811 C232 811 202 811 202 811 C202 811 202 798 202 798 C202 798 232 745 232 745 C232 745 232 238 232 238 C232 106 206 1 165 1 C122 1 98 84 98 230 C98 230 98 288 98 288 C98 288 75 284 75 284 L75 284 Z " />
<glyph glyph-name="K" unicode="K" horiz-adv-x="451" d="M339 745 C339 745 339 745 339 745 C339 745 136 326 136 326 C136 326 136 745 136 745 C136 745 166 798 166 798 C166 798 166 811 166 811 C166 811 136 811 136 811 C136 811 125 811 125 811 C125 811 113 811 113 811 C113 811 83 811 83 811 C83 811 83 798 83 798 C83 798 113 745 113 745 C113 745 113 66 113 66 C113 66 83 13 83 13 C83 13 83 0 83 0 C83 0 113 0 113 0 C113 0 125 0 125 0 C125 0 136 0 136 0 C136 0 166 0 166 0 C166 0 166 13 166 13 C166 13 136 66 136 66 C136 66 136 300 136 300 C136 300 224 482 224 482 C224 482 391 66 391 66 C391 66 391 66 391 66 C391 66 388 13 388 13 C388 13 388 0 388 0 C388 0 418 0 418 0 C418 0 430 0 430 0 C430 0 442 0 442 0 C442 0 466 0 466 0 C466 0 466 13 466 13 C466 13 415 66 415 66 C415 66 415 66 415 66 C415 66 234 502 234 502 C234 502 352 745 352 745 C352 745 352 745 352 745 C352 745 408 798 408 798 C408 798 408 811 408 811 C408 811 384 811 384 811 C384 811 377 811 377 811 C377 811 371 811 371 811 C371 811 341 811 341 811 C341 811 341 798 341 798 C341 798 339 745 339 745 L339 745 Z " />
<glyph glyph-name="L" unicode="L" horiz-adv-x="372" d="M328 5 C328 5 328 10 328 10 C328 10 328 40 328 40 C328 40 315 40 315 40 C315 40 262 10 262 10 C262 10 123 10 123 10 C123 10 123 745 123 745 C123 745 153 798 153 798 C153 798 153 811 153 811 C153 811 123 811 123 811 C123 811 112 811 112 811 C112 811 100 811 100 811 C100 811 71 811 71 811 C71 811 71 798 71 798 C71 798 100 745 100 745 C100 745 100 66 100 66 C100 66 71 13 71 13 C71 13 71 0 71 0 C71 0 100 0 100 0 C100 0 112 0 112 0 C112 0 123 0 123 0 C123 0 328 0 328 0 C328 0 328 5 328 5 L328 5 Z " />
<glyph glyph-name="M" unicode="M" horiz-adv-x="704" d="M593 0 C593 0 604 0 604 0 C604 0 634 0 634 0 C634 0 634 13 634 13 C634 13 604 66 604 66 C604 66 604 745 604 745 C604 745 634 798 634 798 C634 798 634 811 634 811 C634 811 604 811 604 811 C604 811 593 811 593 811 C593 811 587 811 587 811 C587 811 583 811 583 811 C583 811 575 811 575 811 C575 811 368 421 368 421 C368 421 159 811 159 811 C159 811 143 811 143 811 C143 811 138 811 138 811 C138 811 137 811 137 811 C137 811 131 811 131 811 C131 811 101 811 101 811 C101 811 101 798 101 798 C101 798 131 745 131 745 C131 745 131 66 131 66 C131 66 101 13 101 13 C101 13 101 0 101 0 C101 0 131 0 131 0 C131 0 137 0 137 0 C137 0 143 0 143 0 C143 0 173 0 173 0 C173 0 173 13 173 13 C173 13 143 66 143 66 C143 66 143 802 143 802 C143 802 353 413 353 413 C353 413 364 413 364 413 C364 413 373 413 373 413 C373 413 374 413 374 413 C374 413 583 804 583 804 C583 804 583 66 583 66 C583 66 553 13 553 13 C553 13 553 0 553 0 C553 0 583 0 583 0 C583 0 593 0 593 0 L593 0 Z " />
<glyph glyph-name="N" unicode="N" horiz-adv-x="514" d="M402 745 C402 745 402 27 402 27 C402 27 144 811 144 811 C144 811 143 811 143 811 C143 811 137 811 137 811 C137 811 131 811 131 811 C131 811 101 811 101 811 C101 811 101 798 101 798 C101 798 131 745 131 745 C131 745 131 66 131 66 C131 66 101 13 101 13 C101 13 101 0 101 0 C101 0 131 0 131 0 C131 0 137 0 137 0 C137 0 143 0 143 0 C143 0 173 0 173 0 C173 0 173 13 173 13 C173 13 143 66 143 66 C143 66 143 775 143 775 C143 775 398 0 398 0 C398 0 402 0 402 0 C402 0 411 0 411 0 C411 0 414 0 414 0 C414 0 414 745 414 745 C414 745 444 798 444 798 C444 798 444 811 444 811 C444 811 414 811 414 811 C414 811 408 811 408 811 C408 811 402 811 402 811 C402 811 372 811 372 811 C372 811 372 798 372 798 C372 798 402 745 402 745 L402 745 Z " />
<glyph glyph-name="O" unicode="O" horiz-adv-x="694" d="M362 0 C221 0 109 180 109 406 C109 620 228 811 362 811 C496 811 615 620 615 406 C615 180 503 0 362 0 L362 0 Z M85 406 C85 175 208 -10 362 -10 C516 -10 639 175 639 406 C639 625 508 821 362 821 C216 821 85 625 85 406 L85 406 Z " />
<glyph glyph-name="P" unicode="P" horiz-adv-x="518" d="M140 0 C140 0 151 0 151 0 C151 0 181 0 181 0 C181 0 181 13 181 13 C181 13 151 66 151 66 C151 66 151 334 151 334 C151 334 327 334 327 334 C423 334 484 425 484 568 C484 716 423 811 327 811 C327 811 151 811 151 811 C151 811 140 811 140 811 C140 811 134 811 134 811 C134 811 128 811 128 811 C128 811 98 811 98 811 C98 811 98 798 98 798 C98 798 128 745 128 745 C128 745 128 66 128 66 C128 66 98 13 98 13 C98 13 98 0 98 0 C98 0 128 0 128 0 C128 0 140 0 140 0 L140 0 Z M151 344 C151 344 151 802 151 802 C151 802 326 802 326 802 C409 802 462 711 462 568 C462 431 410 344 327 344 C327 344 151 344 151 344 L151 344 Z " />
<glyph glyph-name="Q" unicode="Q" horiz-adv-x="694" d="M85 406 C85 175 208 -10 362 -10 C386 -10 410 -5 432 3 C432 3 610 -90 610 -90 C610 -90 620 -75 620 -75 C620 -75 447 10 447 10 C559 63 639 220 639 406 C639 625 508 821 362 821 C216 821 85 625 85 406 C85 406 85 406 85 406 L85 406 Z M419 10 C401 3 382 0 362 0 C221 0 109 180 109 406 C109 620 228 811 362 811 C496 811 615 620 615 406 C615 220 539 65 434 16 C434 16 389 38 389 38 C389 38 383 29 383 29 C383 29 419 10 419 10 L419 10 Z " />
<glyph glyph-name="R" unicode="R" horiz-adv-x="533" d="M463 0 C463 0 476 0 476 0 C476 0 489 0 489 0 C489 0 513 0 513 0 C513 0 513 13 513 13 C513 13 460 66 460 66 C460 66 336 351 336 351 C336 351 310 351 310 351 C310 351 463 0 463 0 L463 0 Z M140 0 C140 0 151 0 151 0 C151 0 181 0 181 0 C181 0 181 13 181 13 C181 13 151 66 151 66 C151 66 151 355 151 355 C151 355 327 355 327 355 C423 355 484 438 484 568 C484 716 423 811 327 811 C327 811 151 811 151 811 C151 811 140 811 140 811 C140 811 134 811 134 811 C134 811 128 811 128 811 C128 811 98 811 98 811 C98 811 98 798 98 798 C98 798 128 745 128 745 C128 745 128 66 128 66 C128 66 98 13 98 13 C98 13 98 0 98 0 C98 0 128 0 128 0 C128 0 140 0 140 0 L140 0 Z M151 364 C151 364 151 802 151 802 C151 802 326 802 326 802 C409 802 462 711 462 568 C462 443 410 364 327 364 C327 364 151 364 151 364 L151 364 Z " />
<glyph glyph-name="S" unicode="S" horiz-adv-x="396" d="M63 148 C69 94 93 51 127 23 C127 23 127 23 127 23 C127 23 127 23 127 23 C154 2 188 -10 224 -10 C308 -10 362 95 362 226 C362 309 302 388 207 429 C134 460 87 525 87 595 C87 715 129 810 181 810 C208 810 233 802 253 786 C253 786 279 761 293 733 C306 708 307 678 307 678 C308 673 308 668 308 663 C308 663 313 667 313 667 C313 667 313 667 313 667 C313 667 317 671 317 671 C317 671 315 701 315 701 C315 701 315 701 315 701 C307 747 284 781 251 802 C251 802 251 802 251 802 C251 802 251 802 251 802 C230 814 207 821 181 821 C116 821 64 720 64 593 C64 515 117 442 201 406 C286 369 340 299 340 226 C340 101 295 1 224 1 C186 1 152 15 126 41 C126 41 119 47 113 55 C113 56 101 71 93 89 C85 106 80 126 78 133 C75 145 72 169 72 169 C72 174 72 180 72 185 C72 185 67 182 67 182 C67 182 67 182 67 182 C67 182 61 178 61 178 C61 178 63 148 63 148 C63 148 63 148 63 148 L63 148 Z M304 701 C304 701 298 733 304 701 L304 701 Z " />
<glyph glyph-name="T" unicode="T" horiz-adv-x="513" d="M257 0 C257 0 268 0 268 0 C268 0 298 0 298 0 C297 0 297 1 298 1 C297 8 297 13 298 13 C298 13 268 66 268 66 C268 66 268 801 268 801 C268 801 418 801 418 801 C418 801 471 771 471 771 C471 771 484 771 484 771 C484 771 484 801 484 801 C484 801 484 806 484 806 C484 806 484 811 484 811 C484 811 268 811 268 811 C268 811 245 811 245 811 C245 811 29 811 29 811 C29 811 29 806 29 806 C29 806 29 801 29 801 C29 801 29 771 29 771 C29 771 42 771 42 771 C42 771 95 801 95 801 C95 801 245 801 245 801 C245 801 245 66 245 66 C245 66 215 13 215 13 C215 13 215 0 215 0 C215 0 245 0 245 0 C245 0 256 0 256 0 C256 0 257 0 257 0 L257 0 Z " />
<glyph glyph-name="U" unicode="U" horiz-adv-x="532" d="M121 745 C121 745 121 318 121 318 C121 118 183 -10 280 -10 C376 -10 438 118 438 318 C438 318 438 745 438 745 C438 745 468 798 468 798 C468 798 468 811 468 811 C468 811 438 811 438 811 C438 811 432 811 432 811 C432 811 426 811 426 811 C426 811 396 811 396 811 C396 811 396 798 396 798 C396 798 426 745 426 745 C426 745 426 321 426 321 C426 125 369 1 280 1 C197 1 144 126 144 322 C144 322 144 745 144 745 C144 745 174 798 174 798 C174 798 174 811 174 811 C174 811 144 811 144 811 C144 811 133 811 133 811 C133 811 121 811 121 811 C121 811 91 811 91 811 C91 811 91 798 91 798 C91 798 121 745 121 745 L121 745 Z " />
<glyph glyph-name="V" unicode="V" horiz-adv-x="481" d="M83 745 C83 745 83 745 83 745 C83 745 233 0 233 0 C233 0 243 0 243 0 C243 0 253 0 253 0 C253 0 254 0 254 0 C254 0 403 745 403 745 C403 745 403 745 403 745 C403 745 444 798 444 798 C443 798 443 803 444 809 C443 810 443 811 444 811 C444 811 416 811 416 811 C416 811 410 811 410 811 C410 811 403 811 403 811 C403 811 373 811 373 811 C373 811 373 798 373 798 C373 798 390 745 390 745 C390 745 248 25 248 25 C248 25 107 745 107 745 C107 745 107 745 107 745 C107 745 124 798 124 798 C124 798 124 811 124 811 C124 811 94 811 94 811 C94 811 82 811 82 811 C82 811 70 811 70 811 C70 811 43 811 43 811 C43 811 43 798 43 798 C43 798 83 745 83 745 L83 745 Z " />
<glyph glyph-name="W" unicode="W" horiz-adv-x="680" d="M97 745 C97 745 97 745 97 745 C97 745 212 0 212 0 C212 0 223 0 223 0 C223 0 233 0 233 0 C233 0 355 280 355 280 C355 280 476 0 476 0 C476 0 487 0 487 0 C487 0 498 0 498 0 C498 0 613 745 613 745 C613 745 613 745 613 745 C613 745 651 798 651 798 C651 798 651 811 651 811 C651 811 623 811 623 811 C623 811 617 811 617 811 C617 811 610 811 610 811 C610 811 580 811 580 811 C580 811 580 798 580 798 C580 798 600 745 600 745 C600 745 490 19 490 19 C490 19 371 294 371 294 C371 294 361 294 361 294 C361 294 349 294 349 294 C349 294 230 17 230 17 C230 17 121 745 121 745 C121 745 121 745 121 745 C121 745 141 798 141 798 C141 798 141 811 141 811 C141 811 111 811 111 811 C111 811 99 811 99 811 C99 811 87 811 87 811 C87 811 59 811 59 811 C59 811 59 798 59 798 C59 798 97 745 97 745 L97 745 Z " />
<glyph glyph-name="X" unicode="X" horiz-adv-x="540" d="M163 745 C163 745 163 745 163 745 C163 745 283 432 283 432 C283 432 110 66 110 66 C110 66 110 66 110 66 C110 66 55 13 55 13 C55 13 55 0 55 0 C55 0 79 0 79 0 C79 0 85 0 85 0 C85 0 91 0 91 0 C91 0 121 0 121 0 C121 0 121 13 121 13 C121 13 122 66 122 66 C122 66 289 418 289 418 C289 418 424 65 424 65 C424 65 419 13 419 13 C419 13 419 0 419 0 C419 0 449 0 449 0 C449 0 460 0 460 0 C460 0 471 0 471 0 C471 0 495 0 495 0 C495 0 495 13 495 13 C495 13 446 65 446 65 C446 65 300 443 300 443 C300 443 430 718 430 718 C430 733 430 744 431 745 C431 745 430 719 430 719 C430 719 443 745 443 745 C443 745 443 745 443 745 C443 745 497 798 497 798 C497 798 497 811 497 811 C497 811 474 811 474 811 C474 811 468 811 468 811 C468 811 462 811 462 811 C462 811 432 811 432 811 C431 811 431 811 432 810 C431 803 431 798 432 798 C432 798 431 745 431 745 C431 745 295 457 295 457 C295 457 184 746 184 746 C184 746 189 798 189 798 C189 798 189 811 189 811 C189 811 159 811 159 811 C159 811 148 811 148 811 C148 811 138 811 138 811 C138 811 113 811 113 811 C112 811 112 810 113 809 C112 803 112 798 113 798 C113 798 163 745 163 745 L163 745 Z M430 718 C430 718 430 719 430 719 C430 719 430 701 430 701 C430 707 430 713 430 718 C430 718 430 718 430 718 L430 718 Z " />
<glyph glyph-name="Y" unicode="Y" horiz-adv-x="557" d="M466 745 C466 745 466 745 466 745 C466 745 301 381 301 381 C301 381 135 745 135 745 C135 745 135 798 135 798 C136 798 136 803 135 810 C136 811 136 811 135 811 C135 811 105 811 105 811 C105 811 94 811 94 811 C94 811 84 811 84 811 C84 811 60 811 60 811 C60 811 60 798 60 798 C60 798 114 745 114 745 C114 745 114 745 114 745 C114 745 286 369 286 369 C286 369 286 66 286 66 C286 66 256 13 256 13 C256 13 256 0 256 0 C256 0 286 0 286 0 C286 0 297 0 297 0 C297 0 308 0 308 0 C308 0 338 0 338 0 C338 0 338 13 338 13 C338 13 308 66 308 66 C308 66 308 372 308 372 C308 372 478 745 478 745 C478 745 478 745 478 745 C478 745 532 798 532 798 C532 798 532 811 532 811 C532 811 508 811 508 811 C508 811 502 811 502 811 C502 811 496 811 496 811 C496 811 466 811 466 811 C466 811 466 745 466 745 L466 745 Z " />
<glyph glyph-name="Z" unicode="Z" horiz-adv-x="535" d="M490 5 C490 5 490 10 490 10 C490 10 490 40 490 40 C490 40 477 40 477 40 C477 40 424 10 424 10 C424 10 68 10 68 10 C68 10 490 801 490 801 C490 801 490 811 490 811 C490 811 60 811 60 811 C60 811 60 806 60 806 C60 806 60 801 60 801 C60 801 60 771 60 771 C60 771 73 771 73 771 C73 771 126 801 126 801 C126 801 467 801 467 801 C467 801 45 10 45 10 C45 10 45 0 45 0 C45 0 490 0 490 0 C490 0 490 5 490 5 L490 5 Z " />
<glyph glyph-name="bracketleft" unicode="&#x5b;" horiz-adv-x="235" d="M154 800 C154 800 206 800 206 800 C206 800 206 811 206 811 C206 811 154 811 154 811 C154 811 141 811 141 811 C141 811 141 -115 141 -115 C141 -115 154 -115 154 -115 C154 -115 206 -115 206 -115 C206 -115 206 -104 206 -104 C206 -104 154 -104 154 -104 C154 -104 154 800 154 800 L154 800 Z " />
<glyph glyph-name="backslash" unicode="&#x5c;" horiz-adv-x="298" d="M290 0 C290 0 299 0 299 0 C299 0 9 811 9 811 C9 811 0 811 0 811 C0 811 290 0 290 0 L290 0 Z " />
<glyph glyph-name="bracketright" unicode="&#x5d;" horiz-adv-x="220" d="M82 800 C82 800 82 -104 82 -104 C82 -104 30 -104 30 -104 C30 -104 30 -115 30 -115 C30 -115 82 -115 82 -115 C82 -115 95 -115 95 -115 C95 -115 95 811 95 811 C95 811 82 811 82 811 C82 811 30 811 30 811 C30 811 30 800 30 800 C30 800 82 800 82 800 L82 800 Z " />
<glyph glyph-name="underscore" unicode="&#x5f;" horiz-adv-x="560" d="M50 -106 C50 -106 510 -106 510 -106 C510 -106 510 -94 510 -94 C510 -94 50 -94 50 -94 C50 -94 50 -106 50 -106 L50 -106 Z " />
<glyph glyph-name="a" unicode="a" horiz-adv-x="430" d="M79 444 C79 444 88 441 88 441 C88 519 145 582 217 582 C282 582 335 529 335 424 C335 424 335 406 335 406 C335 296 275 254 200 254 C124 254 64 185 64 99 C64 38 111 -10 205 -10 C269 -10 321 24 335 109 C335 109 335 45 335 45 C335 5 342 0 400 0 C400 0 400 15 400 15 C360 15 355 18 355 45 C355 45 355 415 355 415 C355 532 294 591 217 591 C140 591 79 526 79 444 L79 444 Z M335 351 C335 351 335 160 335 160 C335 43 279 -2 209 -2 C126 -2 84 43 84 99 C84 181 138 247 207 247 C268 247 319 276 335 351 L335 351 Z " />
<glyph glyph-name="b" unicode="b" horiz-adv-x="477" d="M264 0 C181 0 114 105 114 291 C114 477 181 582 264 582 C343 582 406 452 406 291 C406 129 343 0 264 0 L264 0 Z M104 0 C104 0 114 0 114 0 C114 0 114 207 114 207 C132 68 194 -10 268 -10 C356 -10 427 124 427 291 C427 457 356 591 268 591 C194 591 132 513 114 374 C114 374 114 801 114 801 C114 801 114 811 114 811 C114 811 104 811 104 811 C104 811 94 811 94 811 C94 811 64 811 64 811 C64 811 64 798 64 798 C64 798 94 745 94 745 C94 745 94 66 94 66 C94 66 64 13 64 13 C64 13 64 0 64 0 C64 0 94 0 94 0 C94 0 104 0 104 0 L104 0 Z " />
<glyph glyph-name="c" unicode="c" horiz-adv-x="436" d="M396 139 C396 61 330 -1 247 -1 C164 -1 97 104 97 291 C97 477 164 583 247 583 C286 583 317 572 341 554 C341 554 368 529 382 500 C395 472 399 439 399 439 C399 438 401 428 401 428 C401 428 408 431 408 431 C408 431 404 460 404 460 C404 460 404 460 404 460 C393 535 341 591 247 591 C152 591 76 482 76 291 C76 99 152 -10 247 -10 C335 -10 406 54 406 134 C406 134 396 139 396 139 L396 139 Z " />
<glyph glyph-name="d" unicode="d" horiz-adv-x="445" d="M76 291 C76 124 139 -10 218 -10 C284 -10 339 83 355 211 C355 211 355 10 355 10 C355 10 355 0 355 0 C355 0 365 0 365 0 C365 0 375 0 375 0 C375 0 405 0 405 0 C405 0 405 13 405 13 C405 13 375 66 375 66 C375 66 375 801 375 801 C375 801 375 811 375 811 C375 811 365 811 365 811 C365 811 355 811 355 811 C355 811 325 811 325 811 C325 811 325 798 325 798 C325 798 355 745 355 745 C355 745 355 371 355 371 C339 498 284 591 218 591 C139 591 76 457 76 291 L76 291 Z M355 291 C355 129 296 -1 221 -1 C152 -1 97 129 97 291 C97 452 152 582 221 582 C296 582 355 452 355 291 L355 291 Z " />
<glyph glyph-name="e" unicode="e" horiz-adv-x="442" d="M402 138 C402 61 332 -1 244 -1 C166 -1 103 95 97 267 C97 267 415 267 415 267 C415 447 358 591 245 591 C151 591 76 482 76 291 C76 99 151 -10 244 -10 C337 -10 412 54 412 134 C412 134 402 138 402 138 L402 138 Z M97 275 C97 280 97 286 97 291 C97 477 163 583 245 583 C343 583 394 447 395 275 C395 275 97 275 97 275 L97 275 Z " />
<glyph glyph-name="f" unicode="f" horiz-adv-x="285" d="M96 0 C96 0 106 0 106 0 C106 0 136 0 136 0 C136 0 136 13 136 13 C136 13 106 66 106 66 C106 66 106 573 106 573 C106 573 216 573 216 573 C216 573 216 581 216 581 C216 581 106 581 106 581 C106 581 106 749 106 749 C106 784 114 802 129 802 C129 802 150 802 150 802 C150 802 203 772 203 772 C203 772 216 772 216 772 C216 772 216 802 216 802 C216 802 216 807 216 807 C216 807 216 811 216 811 C216 811 126 811 126 811 C99 811 86 790 86 749 C86 749 86 581 86 581 C86 581 30 581 30 581 C30 581 30 573 30 573 C30 573 86 573 86 573 C86 573 86 66 86 66 C86 66 56 13 56 13 C56 13 56 0 56 0 C56 0 86 0 86 0 C86 0 96 0 96 0 L96 0 Z " />
<glyph glyph-name="g" unicode="g" horiz-adv-x="435" d="M78 -91 C78 -136 141 -159 220 -159 C317 -159 365 -85 365 8 C365 8 365 515 365 515 C365 515 395 568 395 568 C395 568 395 581 395 581 C395 581 365 581 365 581 C365 581 355 581 355 581 C355 581 345 581 345 581 C345 581 345 372 345 372 C329 498 276 591 213 591 C137 591 76 491 76 291 C76 97 137 0 213 0 C276 0 329 89 345 212 C345 212 345 0 345 0 C345 -84 303 -151 220 -151 C148 -151 90 -131 90 -91 C90 -91 78 -91 78 -91 L78 -91 Z M216 582 C288 582 345 452 345 291 C345 134 288 9 216 9 C150 9 97 103 97 291 C97 485 150 582 216 582 L216 582 Z " />
<glyph glyph-name="h" unicode="h" horiz-adv-x="425" d="M331 0 C331 0 341 0 341 0 C341 0 371 0 371 0 C371 0 371 13 371 13 C371 13 341 66 341 66 C341 66 341 376 341 376 C341 504 298 586 244 586 C189 586 143 535 129 465 C129 465 129 801 129 801 C129 801 129 811 129 811 C129 811 119 811 119 811 C119 811 114 811 114 811 C114 811 109 811 109 811 C109 811 79 811 79 811 C79 811 79 798 79 798 C79 798 109 745 109 745 C109 745 109 66 109 66 C109 66 79 13 79 13 C79 13 79 0 79 0 C79 0 109 0 109 0 C109 0 119 0 119 0 C119 0 129 0 129 0 C129 0 159 0 159 0 C159 0 159 13 159 13 C159 13 129 66 129 66 C129 66 129 422 129 422 C129 508 178 576 240 576 C285 576 321 498 321 376 C321 376 321 66 321 66 C321 66 291 13 291 13 C291 13 291 0 291 0 C291 0 321 0 321 0 C321 0 331 0 331 0 L331 0 Z " />
<glyph glyph-name="i" unicode="i" horiz-adv-x="236" d="M112 661 C112 661 172 661 172 661 C172 661 172 721 172 721 C172 721 112 721 112 721 C112 721 112 661 112 661 L112 661 Z M142 0 C142 0 152 0 152 0 C152 0 182 0 182 0 C182 0 182 13 182 13 C182 13 152 66 152 66 C152 66 152 571 152 571 C152 571 152 581 152 581 C152 581 142 581 142 581 C142 581 132 581 132 581 C132 581 102 581 102 581 C102 581 102 568 102 568 C102 568 132 515 132 515 C132 515 132 66 132 66 C132 66 102 13 102 13 C102 13 102 0 102 0 C102 0 132 0 132 0 C132 0 142 0 142 0 L142 0 Z " />
<glyph glyph-name="j" unicode="j" horiz-adv-x="131" d="M22 661 C22 661 82 661 82 661 C82 661 82 721 82 721 C82 721 22 721 22 721 C22 721 22 661 22 661 L22 661 Z M8 -75 C8 -75 8 -83 8 -83 C46 -79 62 -55 62 0 C62 0 62 571 62 571 C62 571 62 581 62 581 C62 581 52 581 52 581 C52 581 42 581 42 581 C42 581 12 581 12 581 C12 581 12 568 12 568 C12 568 42 515 42 515 C42 515 42 0 42 0 C42 -54 28 -75 -8 -75 C-8 -75 8 -75 8 -75 L8 -75 Z M8 -83 C8 -83 8 -84 8 -84 C8 -84 -5 -84 -5 -84 C0 -84 4 -84 8 -83 L8 -83 Z " />
<glyph glyph-name="k" unicode="k" horiz-adv-x="394" d="M353 66 C353 66 352 66 352 66 C352 66 205 373 205 373 C205 373 294 515 294 515 C294 515 295 515 295 515 C295 515 358 568 358 568 C358 568 358 581 358 581 C358 581 336 581 336 581 C336 581 333 581 333 581 C333 581 329 581 329 581 C329 581 299 581 299 581 C299 581 299 568 299 568 C299 568 288 517 288 517 C288 517 114 241 114 241 C114 241 114 801 114 801 C114 801 114 811 114 811 C114 811 104 811 104 811 C104 811 99 811 99 811 C99 811 94 811 94 811 C94 811 64 811 64 811 C64 811 64 798 64 798 C64 798 94 745 94 745 C94 745 94 66 94 66 C94 66 64 13 64 13 C64 13 64 0 64 0 C64 0 94 0 94 0 C94 0 104 0 104 0 C104 0 114 0 114 0 C114 0 144 0 144 0 C144 0 144 13 144 13 C144 13 114 66 114 66 C114 66 114 228 114 228 C114 228 203 369 203 369 C203 369 194 354 194 354 C194 354 363 0 363 0 C363 0 374 0 374 0 C374 0 384 0 384 0 C384 0 408 0 408 0 C408 0 408 13 408 13 C408 13 353 66 353 66 L353 66 Z " />
<glyph glyph-name="l" unicode="l" horiz-adv-x="266" d="M157 0 C157 0 167 0 167 0 C167 0 197 0 197 0 C197 0 197 13 197 13 C197 13 167 66 167 66 C167 66 167 801 167 801 C167 801 167 811 167 811 C167 811 157 811 157 811 C157 811 147 811 147 811 C147 811 117 811 117 811 C117 811 117 798 117 798 C117 798 147 745 147 745 C147 745 147 66 147 66 C147 66 117 13 117 13 C117 13 117 0 117 0 C117 0 147 0 147 0 C147 0 157 0 157 0 L157 0 Z " />
<glyph glyph-name="m" unicode="m" horiz-adv-x="541" d="M452 0 C452 0 462 0 462 0 C462 0 492 0 492 0 C492 0 492 13 492 13 C492 13 462 66 462 66 C462 66 462 376 462 376 C462 504 431 586 392 586 C348 586 312 523 308 441 C297 531 266 586 227 586 C181 586 141 536 129 468 C129 468 129 571 129 571 C129 571 129 581 129 581 C129 581 119 581 119 581 C119 581 114 581 114 581 C114 581 109 581 109 581 C109 581 79 581 79 581 C79 581 79 568 79 568 C79 568 109 515 109 515 C109 515 109 66 109 66 C109 66 79 13 79 13 C79 13 79 0 79 0 C79 0 109 0 109 0 C109 0 119 0 119 0 C119 0 129 0 129 0 C129 0 159 0 159 0 C159 0 159 13 159 13 C159 13 129 66 129 66 C129 66 129 422 129 422 C129 508 171 576 223 576 C261 576 291 498 291 376 C291 376 291 66 291 66 C291 66 261 13 261 13 C261 13 261 0 261 0 C261 0 291 0 291 0 C291 0 301 0 301 0 C301 0 311 0 311 0 C311 0 341 0 341 0 C341 0 341 13 341 13 C341 13 311 66 311 66 C311 66 311 376 311 376 C311 392 310 407 309 422 C309 422 311 422 311 422 C311 508 345 576 388 576 C418 576 442 498 442 376 C442 376 442 66 442 66 C442 66 412 13 412 13 C412 13 412 0 412 0 C412 0 442 0 442 0 C442 0 452 0 452 0 L452 0 Z " />
<glyph glyph-name="n" unicode="n" horiz-adv-x="420" d="M331 0 C331 0 341 0 341 0 C341 0 371 0 371 0 C371 0 371 13 371 13 C371 13 341 66 341 66 C341 66 341 376 341 376 C341 504 295 586 238 586 C179 586 130 534 116 463 C116 463 116 571 116 571 C116 571 116 581 116 581 C116 581 106 581 106 581 C106 581 101 581 101 581 C101 581 96 581 96 581 C96 581 66 581 66 581 C66 581 66 568 66 568 C66 568 96 515 96 515 C96 515 96 66 96 66 C96 66 66 13 66 13 C66 13 66 0 66 0 C66 0 96 0 96 0 C96 0 106 0 106 0 C106 0 116 0 116 0 C116 0 146 0 146 0 C146 0 146 13 146 13 C146 13 116 66 116 66 C116 66 116 422 116 422 C116 508 168 576 234 576 C282 576 321 498 321 376 C321 376 321 66 321 66 C321 66 291 13 291 13 C291 13 291 0 291 0 C291 0 321 0 321 0 C321 0 331 0 331 0 L331 0 Z " />
<glyph glyph-name="o" unicode="o" horiz-adv-x="457" d="M235 -2 C138 -2 84 128 84 291 C84 477 151 583 235 583 C331 583 385 453 385 291 C385 104 318 -2 235 -2 L235 -2 Z M63 291 C63 124 125 -10 235 -10 C330 -10 407 99 407 291 C407 457 345 591 235 591 C139 591 63 482 63 291 L63 291 Z " />
<glyph glyph-name="p" unicode="p" horiz-adv-x="479" d="M266 -1 C183 -1 116 104 116 291 C116 477 183 582 266 582 C345 582 408 452 408 291 C408 129 345 -1 266 -1 L266 -1 Z M106 -155 C106 -155 116 -155 116 -155 C116 -155 146 -155 146 -155 C146 -155 146 -142 146 -142 C146 -142 116 -89 116 -89 C116 -89 116 207 116 207 C134 68 196 -10 270 -10 C358 -10 429 124 429 291 C429 457 358 591 270 591 C196 591 134 513 116 374 C116 374 116 571 116 571 C116 571 116 581 116 581 C116 581 106 581 106 581 C106 581 101 581 101 581 C101 581 96 581 96 581 C96 581 66 581 66 581 C66 581 66 568 66 568 C66 568 96 515 96 515 C96 515 96 -89 96 -89 C96 -89 66 -142 66 -142 C66 -142 66 -155 66 -155 C66 -155 96 -155 96 -155 C96 -155 106 -155 106 -155 L106 -155 Z " />
<glyph glyph-name="q" unicode="q" horiz-adv-x="459" d="M76 291 C76 124 139 -10 218 -10 C284 -10 339 83 355 211 C355 211 355 -89 355 -89 C355 -89 325 -142 325 -142 C325 -142 325 -155 325 -155 C325 -155 355 -155 355 -155 C355 -155 365 -155 365 -155 C365 -155 375 -155 375 -155 C375 -155 405 -155 405 -155 C405 -155 405 -142 405 -142 C405 -142 375 -89 375 -89 C375 -89 375 515 375 515 C375 515 405 568 405 568 C405 568 405 581 405 581 C405 581 375 581 375 581 C375 581 365 581 365 581 C365 581 355 581 355 581 C355 581 355 371 355 371 C339 498 284 591 218 591 C139 591 76 457 76 291 L76 291 Z M355 291 C355 129 296 -1 221 -1 C152 -1 97 129 97 291 C97 452 152 582 221 582 C296 582 355 452 355 291 L355 291 Z " />
<glyph glyph-name="r" unicode="r" horiz-adv-x="244" d="M224 569 C224 569 224 581 224 581 C224 581 220 581 220 581 C170 581 139 511 129 413 C129 413 129 571 129 571 C129 571 129 581 129 581 C129 581 119 581 119 581 C119 581 114 581 114 581 C114 581 109 581 109 581 C109 581 79 581 79 581 C79 581 79 568 79 568 C79 568 109 515 109 515 C109 515 109 66 109 66 C109 66 79 13 79 13 C79 13 79 0 79 0 C79 0 109 0 109 0 C109 0 119 0 119 0 C119 0 129 0 129 0 C129 0 159 0 159 0 C159 0 159 13 159 13 C159 13 129 66 129 66 C129 66 129 332 129 332 C129 464 159 569 219 569 C219 569 224 569 224 569 L224 569 Z " />
<glyph glyph-name="s" unicode="s" horiz-adv-x="381" d="M54 109 C69 44 131 -5 207 -5 C288 -5 352 67 352 157 C352 213 297 274 211 299 C143 320 100 374 100 426 C100 510 149 578 210 578 C233 578 255 570 273 557 C273 557 296 541 309 516 C315 505 319 493 322 482 C328 462 329 446 329 446 C330 442 330 439 330 435 C330 435 339 439 339 439 C339 439 339 440 339 440 C339 440 336 469 336 469 C329 512 305 547 273 568 C273 568 273 568 273 568 C273 568 273 568 273 568 C254 579 233 586 210 586 C138 586 81 514 81 424 C81 366 130 305 206 282 C283 258 332 204 332 155 C332 71 276 4 207 4 C172 4 139 16 114 35 C114 35 88 61 74 84 C74 85 74 83 74 84 C61 108 60 131 60 131 C60 135 60 139 60 143 C60 143 55 141 55 141 C55 141 55 141 55 141 C55 141 51 139 51 139 C51 139 54 109 54 109 C54 109 54 109 54 109 L54 109 Z " />
<glyph glyph-name="t" unicode="t" horiz-adv-x="225" d="M195 581 C195 581 103 581 103 581 C103 581 103 749 103 749 C103 749 83 732 83 732 C83 732 83 581 83 581 C83 581 10 581 10 581 C10 581 10 573 10 573 C10 573 83 573 83 573 C83 573 83 133 83 133 C83 41 89 0 139 0 C139 0 195 0 195 0 C195 0 195 9 195 9 C195 9 144 9 144 9 C108 9 103 47 103 133 C103 133 103 573 103 573 C103 573 195 573 195 573 C195 573 195 581 195 581 L195 581 Z " />
<glyph glyph-name="u" unicode="u" horiz-adv-x="412" d="M328 66 C328 66 328 581 328 581 C328 581 318 581 318 581 C318 581 308 581 308 581 C308 581 278 581 278 581 C278 581 278 568 278 568 C278 568 308 515 308 515 C308 515 308 149 308 149 C308 66 268 0 218 0 C150 0 124 62 124 159 C124 159 124 581 124 581 C124 581 114 581 114 581 C114 581 104 581 104 581 C104 581 74 581 74 581 C74 581 74 568 74 568 C74 568 104 515 104 515 C104 515 104 159 104 159 C104 56 135 -10 214 -10 C260 -10 297 41 308 109 C308 109 308 10 308 10 C308 10 308 0 308 0 C308 0 318 0 318 0 C318 0 328 0 328 0 C328 0 358 0 358 0 C358 0 358 13 358 13 C358 13 328 66 328 66 L328 66 Z " />
<glyph glyph-name="v" unicode="v" horiz-adv-x="433" d="M343 515 C343 515 343 515 343 515 C343 515 216 14 216 14 C216 14 90 516 90 516 C90 516 104 568 104 568 C104 568 104 581 104 581 C104 581 74 581 74 581 C74 581 63 581 63 581 C63 581 51 581 51 581 C51 581 25 581 25 581 C25 581 25 568 25 568 C25 568 68 515 68 515 C68 515 68 515 68 515 C68 515 202 0 202 0 C202 0 212 0 212 0 C212 0 219 0 219 0 C219 0 222 0 222 0 C222 0 355 515 355 515 C355 515 355 515 355 515 C355 515 399 568 399 568 C399 568 399 581 399 581 C399 581 372 581 372 581 C372 581 366 581 366 581 C366 581 360 581 360 581 C360 581 330 581 330 581 C330 581 330 568 330 568 C330 568 343 515 343 515 L343 515 Z " />
<glyph glyph-name="w" unicode="w" horiz-adv-x="694" d="M606 515 C606 515 606 515 606 515 C606 515 491 10 491 10 C491 10 362 341 362 341 C362 341 352 341 352 341 C352 341 345 341 345 341 C345 341 342 341 342 341 C342 341 217 12 217 12 C217 12 109 515 109 515 C109 515 125 568 125 568 C125 568 125 581 125 581 C125 581 95 581 95 581 C95 581 84 581 84 581 C84 581 74 581 74 581 C74 581 47 581 47 581 C46 581 46 580 47 579 C46 573 46 568 47 568 C47 568 88 515 88 515 C88 515 89 515 89 515 C89 515 204 0 204 0 C204 0 213 0 213 0 C213 0 220 0 220 0 C220 0 222 0 222 0 C222 0 349 332 349 332 C349 332 480 0 480 0 C480 0 489 0 489 0 C489 0 495 0 495 0 C495 0 498 0 498 0 C498 0 618 516 618 516 C618 516 659 568 659 568 C659 568 659 581 659 581 C659 581 633 581 633 581 C633 581 627 581 627 581 C627 581 621 581 621 581 C621 581 591 581 591 581 C591 581 591 568 591 568 C591 568 606 515 606 515 L606 515 Z " />
<glyph glyph-name="x" unicode="x" horiz-adv-x="393" d="M325 66 C325 66 325 66 325 66 C325 66 216 302 216 302 C216 302 304 488 304 488 C304 503 304 514 305 515 C305 515 304 489 304 489 C304 489 317 515 317 515 C317 515 317 515 317 515 C317 515 371 568 371 568 C371 568 371 581 371 581 C371 581 348 581 348 581 C348 581 342 581 342 581 C342 581 336 581 336 581 C336 581 306 581 306 581 C305 581 305 581 306 580 C305 573 305 568 306 568 C306 568 305 515 305 515 C305 515 210 315 210 315 C210 315 117 516 117 516 C117 516 116 568 116 568 C116 568 116 581 116 581 C116 581 87 581 87 581 C87 581 75 581 75 581 C75 581 64 581 64 581 C64 581 41 581 41 581 C41 581 41 568 41 568 C41 568 94 516 94 516 C94 516 199 290 199 290 C199 290 92 66 92 66 C92 66 92 66 92 66 C92 66 38 13 38 13 C38 13 38 0 38 0 C38 0 61 0 61 0 C61 0 67 0 67 0 C67 0 73 0 73 0 C73 0 103 0 103 0 C103 0 103 13 103 13 C103 13 104 65 104 65 C104 65 204 278 204 278 C204 278 303 65 303 65 C303 65 303 0 303 0 C303 0 333 0 333 0 C333 0 344 0 344 0 C344 0 355 0 355 0 C355 0 379 0 379 0 C379 0 379 13 379 13 C379 13 325 66 325 66 L325 66 Z M304 488 C304 488 304 489 304 489 C304 489 304 471 304 471 C304 477 304 483 304 488 C304 488 304 488 304 488 L304 488 Z " />
<glyph glyph-name="y" unicode="y" horiz-adv-x="424" d="M96 -200 C96 -200 146 -200 146 -200 C166 -200 187 -145 225 -4 C225 -4 363 515 363 515 C363 515 364 515 364 515 C364 515 408 568 408 568 C408 568 408 581 408 581 C408 581 381 581 381 581 C381 581 375 581 375 581 C375 581 369 581 369 581 C369 581 339 581 339 581 C339 581 339 568 339 568 C339 568 352 516 352 516 C352 516 226 34 226 34 C226 34 101 515 101 515 C101 515 114 568 114 568 C114 568 114 581 114 581 C114 581 84 581 84 581 C84 581 73 581 73 581 C73 581 61 581 61 581 C61 581 35 581 35 581 C35 581 35 568 35 568 C35 568 79 515 79 515 C79 515 218 3 218 3 C218 3 217 0 217 0 C180 -138 161 -191 146 -191 C146 -191 96 -191 96 -191 C96 -191 96 -200 96 -200 L96 -200 Z " />
<glyph glyph-name="z" unicode="z" horiz-adv-x="340" d="M45 581 C45 581 45 577 45 577 C45 577 45 573 45 573 C45 573 45 543 45 543 C45 543 58 543 58 543 C58 543 111 573 111 573 C111 573 280 573 280 573 C280 573 30 7 30 7 C30 7 30 0 30 0 C30 0 320 0 320 0 C320 0 320 4 320 4 C320 4 320 9 320 9 C320 9 320 38 320 38 C320 38 307 38 307 38 C307 38 254 9 254 9 C254 9 53 9 53 9 C53 9 304 574 304 574 C304 574 304 581 304 581 C304 581 45 581 45 581 L45 581 Z " />
<glyph glyph-name="braceleft" unicode="&#x7b;" horiz-adv-x="232" d="M203 811 C203 811 175 811 175 811 C156 811 141 793 141 769 C141 769 141 417 141 417 C141 381 105 353 59 353 C59 353 55 353 55 353 C55 353 55 343 55 343 C55 343 59 343 59 343 C105 343 141 315 141 279 C141 279 141 -73 141 -73 C141 -96 156 -115 175 -115 C175 -115 203 -115 203 -115 C203 -115 203 -104 203 -104 C203 -104 175 -104 175 -104 C163 -104 154 -90 154 -73 C154 -73 154 276 154 276 C154 304 117 336 71 348 C117 360 154 392 154 420 C154 420 154 769 154 769 C154 786 163 800 175 800 C175 800 203 800 203 800 C203 800 203 811 203 811 L203 811 Z " />
<glyph glyph-name="bar" unicode="&#x7c;" horiz-adv-x="103" d="M45 861 C45 861 45 -250 45 -250 C45 -250 58 -250 58 -250 C58 -250 58 861 58 861 C58 861 45 861 45 861 L45 861 Z " />
<glyph glyph-name="braceright" unicode="&#x7d;" horiz-adv-x="232" d="M30 811 C30 811 58 811 58 811 C77 811 92 793 92 769 C92 769 92 417 92 417 C92 381 128 353 174 353 C174 353 178 353 178 353 C178 353 178 343 178 343 C178 343 174 343 174 343 C128 343 92 315 92 279 C92 279 92 -73 92 -73 C92 -96 77 -115 58 -115 C58 -115 30 -115 30 -115 C30 -115 30 -104 30 -104 C30 -104 58 -104 58 -104 C69 -104 79 -90 79 -73 C79 -73 79 276 79 276 C79 304 115 336 161 348 C115 360 79 392 79 420 C79 420 79 769 79 769 C79 786 69 800 58 800 C58 800 30 800 30 800 C30 800 30 811 30 811 L30 811 Z " />
<glyph glyph-name="PaddingCharacter" unicode="&#x80;" horiz-adv-x="40" d="" />
<glyph glyph-name="[namenotfound]" unicode="&#xa0;" horiz-adv-x="88" d="" />
<glyph glyph-name="exclamdown" unicode="&#xa1;" horiz-adv-x="113" d="M87 581 C87 581 27 581 27 581 C27 581 27 521 27 521 C27 521 87 521 87 521 C87 521 87 581 87 581 L87 581 Z M68 -230 C68 -230 68 105 68 105 C68 105 60 366 60 366 C60 366 54 366 54 366 C54 366 45 105 45 105 C45 105 45 -230 45 -230 C45 -230 68 -230 68 -230 L68 -230 Z " />
<glyph glyph-name="cent" unicode="&#xa2;" horiz-adv-x="432" d="M232 656 C232 656 232 590 232 590 C144 581 76 473 76 291 C76 108 144 0 232 -9 C232 -9 232 -75 232 -75 C232 -75 258 -75 258 -75 C258 -75 258 -10 258 -10 C339 -4 402 58 402 134 C402 134 392 139 392 139 C392 65 334 6 258 0 C258 0 258 582 258 582 C324 575 370 513 388 434 C385 432 383 427 383 421 C383 413 388 406 395 406 C401 406 404 412 402 420 C385 510 334 583 258 590 C258 590 258 656 258 656 C258 656 232 656 232 656 L232 656 Z M232 0 C156 10 97 114 97 291 C97 467 156 571 232 582 C232 582 232 0 232 0 L232 0 Z " />
<glyph glyph-name="guillemotleft" unicode="&#xab;" horiz-adv-x="277" d="M210 525 C210 525 154 291 154 291 C154 291 210 56 210 56 C210 56 228 56 228 56 C228 56 172 291 172 291 C172 291 228 525 228 525 C228 525 210 525 210 525 L210 525 Z M147 525 C147 525 91 291 91 291 C91 291 147 56 147 56 C147 56 164 56 164 56 C164 56 108 291 108 291 C108 291 164 525 164 525 C164 525 147 525 147 525 L147 525 Z " />
<glyph glyph-name="logicalnot" unicode="&#xac;" horiz-adv-x="290" d="M241 130 C241 130 241 280 241 280 C241 280 241 289 241 289 C241 289 230 289 230 289 C230 289 50 289 50 289 C50 289 50 280 50 280 C50 280 230 280 230 280 C230 280 230 130 230 130 C230 130 241 130 241 130 L241 130 Z " />
<glyph glyph-name="periodcentered" unicode="&#xb7;" horiz-adv-x="160" d="M50 261 C50 261 110 261 110 261 C110 261 110 321 110 321 C110 321 50 321 50 321 C50 321 50 261 50 261 L50 261 Z " />
<glyph glyph-name="guillemotright" unicode="&#xbb;" horiz-adv-x="259" d="M178 525 C178 525 234 291 234 291 C234 291 178 56 178 56 C178 56 195 56 195 56 C195 56 251 291 251 291 C251 291 195 525 195 525 C195 525 178 525 178 525 L178 525 Z M114 525 C114 525 170 291 170 291 C170 291 114 56 114 56 C114 56 131 56 131 56 C131 56 187 291 187 291 C187 291 131 525 131 525 C131 525 114 525 114 525 L114 525 Z " />
<glyph glyph-name="questiondown" unicode="&#xbf;" horiz-adv-x="428" d="M220 581 C220 581 160 581 160 581 C160 581 160 521 160 521 C160 521 220 521 220 521 C220 521 220 581 220 581 L220 581 Z M390 -20 C390 -20 371 -17 371 -17 C361 -132 279 -224 188 -224 C114 -224 56 -133 56 -20 C56 81 73 139 110 156 C179 188 199 235 199 366 C199 366 180 366 180 366 C180 243 162 199 96 169 C55 150 35 88 35 -20 C35 -142 103 -240 188 -240 C290 -240 380 -142 390 -20 L390 -20 Z " />
<glyph glyph-name="Agrave" unicode="&#xc0;" horiz-adv-x="637" d="M326 891 C326 891 344 891 344 891 C344 891 318 1041 318 1041 C318 1041 292 1041 292 1041 C292 1041 326 891 326 891 L326 891 Z M90 66 C90 66 90 66 90 66 C90 66 153 260 153 260 C153 260 505 260 505 260 C505 260 569 65 569 65 C569 65 560 13 560 13 C560 13 560 0 560 0 C560 0 590 0 590 0 C590 0 601 0 601 0 C601 0 613 0 613 0 C613 0 638 0 638 0 C638 0 638 13 638 13 C638 13 591 66 591 66 C591 66 346 811 346 811 C346 811 334 811 334 811 C334 811 328 811 328 811 C328 811 324 811 324 811 C324 811 322 811 322 811 C322 811 292 811 292 811 C292 811 292 798 292 798 C292 798 301 746 301 746 C301 746 77 65 77 65 C77 65 30 13 30 13 C30 13 30 0 30 0 C30 0 56 0 56 0 C56 0 62 0 62 0 C62 0 68 0 68 0 C68 0 98 0 98 0 C98 0 98 13 98 13 C98 13 90 66 90 66 L90 66 Z M156 269 C156 269 329 796 329 796 C329 796 502 269 502 269 C502 269 156 269 156 269 L156 269 Z " />
<glyph glyph-name="Aacute" unicode="&#xc1;" horiz-adv-x="637" d="M326 891 C326 891 344 891 344 891 C344 891 378 1041 378 1041 C378 1041 352 1041 352 1041 C352 1041 326 891 326 891 L326 891 Z M90 66 C90 66 90 66 90 66 C90 66 153 260 153 260 C153 260 505 260 505 260 C505 260 569 65 569 65 C569 65 560 13 560 13 C560 13 560 0 560 0 C560 0 590 0 590 0 C590 0 601 0 601 0 C601 0 613 0 613 0 C613 0 638 0 638 0 C638 0 638 13 638 13 C638 13 591 66 591 66 C591 66 346 811 346 811 C346 811 334 811 334 811 C334 811 328 811 328 811 C328 811 324 811 324 811 C324 811 322 811 322 811 C322 811 292 811 292 811 C292 811 292 798 292 798 C292 798 301 746 301 746 C301 746 77 65 77 65 C77 65 30 13 30 13 C30 13 30 0 30 0 C30 0 56 0 56 0 C56 0 62 0 62 0 C62 0 68 0 68 0 C68 0 98 0 98 0 C98 0 98 13 98 13 C98 13 90 66 90 66 L90 66 Z M156 269 C156 269 329 796 329 796 C329 796 502 269 502 269 C502 269 156 269 156 269 L156 269 Z " />
<glyph glyph-name="Acircumflex" unicode="&#xc2;" horiz-adv-x="637" d="M335 1025 C335 1025 447 891 447 891 C447 891 466 891 466 891 C466 891 345 1041 345 1041 C345 1041 325 1041 325 1041 C325 1041 204 891 204 891 C204 891 222 891 222 891 C222 891 335 1025 335 1025 L335 1025 Z M90 66 C90 66 90 66 90 66 C90 66 153 260 153 260 C153 260 505 260 505 260 C505 260 569 65 569 65 C569 65 560 13 560 13 C560 13 560 0 560 0 C560 0 590 0 590 0 C590 0 601 0 601 0 C601 0 613 0 613 0 C613 0 638 0 638 0 C638 0 638 13 638 13 C638 13 591 66 591 66 C591 66 346 811 346 811 C346 811 334 811 334 811 C334 811 328 811 328 811 C328 811 324 811 324 811 C324 811 322 811 322 811 C322 811 292 811 292 811 C292 811 292 798 292 798 C292 798 301 746 301 746 C301 746 77 65 77 65 C77 65 30 13 30 13 C30 13 30 0 30 0 C30 0 56 0 56 0 C56 0 62 0 62 0 C62 0 68 0 68 0 C68 0 98 0 98 0 C98 0 98 13 98 13 C98 13 90 66 90 66 L90 66 Z M156 269 C156 269 329 796 329 796 C329 796 502 269 502 269 C502 269 156 269 156 269 L156 269 Z " />
<glyph glyph-name="Atilde" unicode="&#xc3;" horiz-adv-x="637" d="M303 891 C303 925 311 953 320 953 C370 953 290 881 351 881 C368 881 382 915 382 958 C382 958 367 958 367 958 C367 924 359 897 349 897 C300 897 379 968 319 968 C302 968 288 934 288 891 C288 891 303 891 303 891 L303 891 Z M90 66 C90 66 90 66 90 66 C90 66 153 260 153 260 C153 260 505 260 505 260 C505 260 569 65 569 65 C569 65 560 13 560 13 C560 13 560 0 560 0 C560 0 590 0 590 0 C590 0 601 0 601 0 C601 0 613 0 613 0 C613 0 638 0 638 0 C638 0 638 13 638 13 C638 13 591 66 591 66 C591 66 346 811 346 811 C346 811 334 811 334 811 C334 811 328 811 328 811 C328 811 324 811 324 811 C324 811 322 811 322 811 C322 811 292 811 292 811 C292 811 292 798 292 798 C292 798 301 746 301 746 C301 746 77 65 77 65 C77 65 30 13 30 13 C30 13 30 0 30 0 C30 0 56 0 56 0 C56 0 62 0 62 0 C62 0 68 0 68 0 C68 0 98 0 98 0 C98 0 98 13 98 13 C98 13 90 66 90 66 L90 66 Z M156 269 C156 269 329 796 329 796 C329 796 502 269 502 269 C502 269 156 269 156 269 L156 269 Z " />
<glyph glyph-name="Adieresis" unicode="&#xc4;" horiz-adv-x="637" d="M366 891 C366 891 426 891 426 891 C426 891 426 951 426 951 C426 951 366 951 366 951 C366 951 366 891 366 891 L366 891 Z M243 891 C243 891 303 891 303 891 C303 891 303 951 303 951 C303 951 243 951 243 951 C243 951 243 891 243 891 L243 891 Z M90 66 C90 66 90 66 90 66 C90 66 153 260 153 260 C153 260 505 260 505 260 C505 260 569 65 569 65 C569 65 560 13 560 13 C560 13 560 0 560 0 C560 0 590 0 590 0 C590 0 601 0 601 0 C601 0 613 0 613 0 C613 0 638 0 638 0 C638 0 638 13 638 13 C638 13 591 66 591 66 C591 66 346 811 346 811 C346 811 334 811 334 811 C334 811 328 811 328 811 C328 811 324 811 324 811 C324 811 322 811 322 811 C322 811 292 811 292 811 C292 811 292 798 292 798 C292 798 301 746 301 746 C301 746 77 65 77 65 C77 65 30 13 30 13 C30 13 30 0 30 0 C30 0 56 0 56 0 C56 0 62 0 62 0 C62 0 68 0 68 0 C68 0 98 0 98 0 C98 0 98 13 98 13 C98 13 90 66 90 66 L90 66 Z M156 269 C156 269 329 796 329 796 C329 796 502 269 502 269 C502 269 156 269 156 269 L156 269 Z " />
<glyph glyph-name="Aring" unicode="&#xc5;" horiz-adv-x="637" d="M335 900 C293 900 266 930 266 976 C266 1020 295 1052 335 1052 C375 1052 403 1020 403 976 C403 930 376 900 335 900 L335 900 Z M256 976 C256 924 287 891 335 891 C383 891 413 924 413 976 C413 1026 380 1061 335 1061 C289 1061 256 1026 256 976 L256 976 Z M90 66 C90 66 90 66 90 66 C90 66 153 260 153 260 C153 260 505 260 505 260 C505 260 569 65 569 65 C569 65 560 13 560 13 C560 13 560 0 560 0 C560 0 590 0 590 0 C590 0 601 0 601 0 C601 0 613 0 613 0 C613 0 638 0 638 0 C638 0 638 13 638 13 C638 13 591 66 591 66 C591 66 346 811 346 811 C346 811 334 811 334 811 C334 811 328 811 328 811 C328 811 324 811 324 811 C324 811 322 811 322 811 C322 811 292 811 292 811 C292 811 292 798 292 798 C292 798 301 746 301 746 C301 746 77 65 77 65 C77 65 30 13 30 13 C30 13 30 0 30 0 C30 0 56 0 56 0 C56 0 62 0 62 0 C62 0 68 0 68 0 C68 0 98 0 98 0 C98 0 98 13 98 13 C98 13 90 66 90 66 L90 66 Z M156 269 C156 269 329 796 329 796 C329 796 502 269 502 269 C502 269 156 269 156 269 L156 269 Z " />
<glyph glyph-name="Ccedilla" unicode="&#xc7;" horiz-adv-x="601" d="M572 179 C572 79 468 0 338 0 C208 0 104 203 104 406 C104 608 208 811 338 811 C411 811 477 786 519 746 C519 746 571 647 571 647 C572 642 572 638 572 633 C572 633 577 637 577 637 C577 637 577 636 577 636 C577 636 581 640 581 640 C581 640 581 670 581 670 C581 670 578 670 578 670 C559 756 459 821 338 821 C195 821 80 613 80 406 C80 203 190 0 328 -10 C328 -10 298 -104 298 -104 C298 -104 302 -106 302 -106 C304 -98 313 -91 322 -91 C334 -91 343 -115 343 -145 C343 -175 334 -199 322 -199 C311 -199 301 -186 300 -171 C300 -171 296 -174 296 -174 C297 -193 309 -209 322 -209 C340 -209 354 -181 354 -145 C354 -112 340 -86 323 -86 C315 -86 306 -93 303 -103 C303 -103 332 -10 332 -10 C334 -10 336 -10 338 -10 C473 -10 581 71 581 171 C581 171 572 179 572 179 L572 179 Z M534 731 C549 714 560 695 566 674 C554 696 542 716 534 731 C534 731 534 731 534 731 L534 731 Z " />
<glyph glyph-name="Egrave" unicode="&#xc8;" horiz-adv-x="455" d="M250 891 C250 891 269 891 269 891 C269 891 243 1041 243 1041 C243 1041 217 1041 217 1041 C217 1041 250 891 250 891 L250 891 Z M406 5 C406 5 406 10 406 10 C406 10 406 40 406 40 C406 40 393 40 393 40 C393 40 340 10 340 10 C340 10 151 10 151 10 C151 10 151 396 151 396 C151 396 305 396 305 396 C305 396 358 366 358 366 C358 366 371 366 371 366 C371 366 371 396 371 396 C371 396 371 401 371 401 C371 401 371 405 371 405 C371 405 371 435 371 435 C371 435 358 435 358 435 C358 435 305 405 305 405 C305 405 151 405 151 405 C151 405 151 801 151 801 C151 801 325 801 325 801 C325 801 378 771 378 771 C378 771 391 771 391 771 C391 771 391 801 391 801 C391 801 391 806 391 806 C391 806 391 811 391 811 C391 811 151 811 151 811 C151 811 150 811 150 811 C150 811 140 811 140 811 C140 811 128 811 128 811 C128 811 98 811 98 811 C98 811 98 798 98 798 C98 798 128 745 128 745 C128 745 128 66 128 66 C128 66 98 13 98 13 C98 13 98 0 98 0 C98 0 128 0 128 0 C128 0 140 0 140 0 C140 0 150 0 150 0 C150 0 151 0 151 0 C151 0 406 0 406 0 C406 0 406 5 406 5 L406 5 Z " />
<glyph glyph-name="Eacute" unicode="&#xc9;" horiz-adv-x="455" d="M250 891 C250 891 269 891 269 891 C269 891 303 1041 303 1041 C303 1041 277 1041 277 1041 C277 1041 250 891 250 891 L250 891 Z M406 5 C406 5 406 10 406 10 C406 10 406 40 406 40 C406 40 393 40 393 40 C393 40 340 10 340 10 C340 10 151 10 151 10 C151 10 151 396 151 396 C151 396 305 396 305 396 C305 396 358 366 358 366 C358 366 371 366 371 366 C371 366 371 396 371 396 C371 396 371 401 371 401 C371 401 371 405 371 405 C371 405 371 435 371 435 C371 435 358 435 358 435 C358 435 305 405 305 405 C305 405 151 405 151 405 C151 405 151 801 151 801 C151 801 325 801 325 801 C325 801 378 771 378 771 C378 771 391 771 391 771 C391 771 391 801 391 801 C391 801 391 806 391 806 C391 806 391 811 391 811 C391 811 151 811 151 811 C151 811 150 811 150 811 C150 811 140 811 140 811 C140 811 128 811 128 811 C128 811 98 811 98 811 C98 811 98 798 98 798 C98 798 128 745 128 745 C128 745 128 66 128 66 C128 66 98 13 98 13 C98 13 98 0 98 0 C98 0 128 0 128 0 C128 0 140 0 140 0 C140 0 150 0 150 0 C150 0 151 0 151 0 C151 0 406 0 406 0 C406 0 406 5 406 5 L406 5 Z " />
<glyph glyph-name="Ecircumflex" unicode="&#xca;" horiz-adv-x="455" d="M260 1025 C260 1025 372 891 372 891 C372 891 391 891 391 891 C391 891 270 1041 270 1041 C270 1041 249 1041 249 1041 C249 1041 129 891 129 891 C129 891 147 891 147 891 C147 891 260 1025 260 1025 L260 1025 Z M406 5 C406 5 406 10 406 10 C406 10 406 40 406 40 C406 40 393 40 393 40 C393 40 340 10 340 10 C340 10 151 10 151 10 C151 10 151 396 151 396 C151 396 305 396 305 396 C305 396 358 366 358 366 C358 366 371 366 371 366 C371 366 371 396 371 396 C371 396 371 401 371 401 C371 401 371 405 371 405 C371 405 371 435 371 435 C371 435 358 435 358 435 C358 435 305 405 305 405 C305 405 151 405 151 405 C151 405 151 801 151 801 C151 801 325 801 325 801 C325 801 378 771 378 771 C378 771 391 771 391 771 C391 771 391 801 391 801 C391 801 391 806 391 806 C391 806 391 811 391 811 C391 811 151 811 151 811 C151 811 150 811 150 811 C150 811 140 811 140 811 C140 811 128 811 128 811 C128 811 98 811 98 811 C98 811 98 798 98 798 C98 798 128 745 128 745 C128 745 128 66 128 66 C128 66 98 13 98 13 C98 13 98 0 98 0 C98 0 128 0 128 0 C128 0 140 0 140 0 C140 0 150 0 150 0 C150 0 151 0 151 0 C151 0 406 0 406 0 C406 0 406 5 406 5 L406 5 Z " />
<glyph glyph-name="Edieresis" unicode="&#xcb;" horiz-adv-x="455" d="M291 891 C291 891 351 891 351 891 C351 891 351 951 351 951 C351 951 291 951 291 951 C291 951 291 891 291 891 L291 891 Z M168 891 C168 891 228 891 228 891 C228 891 228 951 228 951 C228 951 168 951 168 951 C168 951 168 891 168 891 L168 891 Z M406 5 C406 5 406 10 406 10 C406 10 406 40 406 40 C406 40 393 40 393 40 C393 40 340 10 340 10 C340 10 151 10 151 10 C151 10 151 396 151 396 C151 396 305 396 305 396 C305 396 358 366 358 366 C358 366 371 366 371 366 C371 366 371 396 371 396 C371 396 371 401 371 401 C371 401 371 405 371 405 C371 405 371 435 371 435 C371 435 358 435 358 435 C358 435 305 405 305 405 C305 405 151 405 151 405 C151 405 151 801 151 801 C151 801 325 801 325 801 C325 801 378 771 378 771 C378 771 391 771 391 771 C391 771 391 801 391 801 C391 801 391 806 391 806 C391 806 391 811 391 811 C391 811 151 811 151 811 C151 811 150 811 150 811 C150 811 140 811 140 811 C140 811 128 811 128 811 C128 811 98 811 98 811 C98 811 98 798 98 798 C98 798 128 745 128 745 C128 745 128 66 128 66 C128 66 98 13 98 13 C98 13 98 0 98 0 C98 0 128 0 128 0 C128 0 140 0 140 0 C140 0 150 0 150 0 C150 0 151 0 151 0 C151 0 406 0 406 0 C406 0 406 5 406 5 L406 5 Z " />
<glyph glyph-name="Igrave" unicode="&#xcc;" horiz-adv-x="222" d="M103 891 C103 891 121 891 121 891 C121 891 95 1041 95 1041 C95 1041 69 1041 69 1041 C69 1041 103 891 103 891 L103 891 Z M112 0 C112 0 123 0 123 0 C123 0 153 0 153 0 C153 0 153 13 153 13 C153 13 123 66 123 66 C123 66 123 745 123 745 C123 745 153 798 153 798 C153 798 153 811 153 811 C153 811 123 811 123 811 C123 811 112 811 112 811 C112 811 100 811 100 811 C100 811 71 811 71 811 C71 811 71 798 71 798 C71 798 100 745 100 745 C100 745 100 66 100 66 C100 66 71 13 71 13 C71 13 71 0 71 0 C71 0 100 0 100 0 C100 0 112 0 112 0 L112 0 Z " />
<glyph glyph-name="Iacute" unicode="&#xcd;" horiz-adv-x="222" d="M103 891 C103 891 121 891 121 891 C121 891 155 1041 155 1041 C155 1041 129 1041 129 1041 C129 1041 103 891 103 891 L103 891 Z M112 0 C112 0 123 0 123 0 C123 0 153 0 153 0 C153 0 153 13 153 13 C153 13 123 66 123 66 C123 66 123 745 123 745 C123 745 153 798 153 798 C153 798 153 811 153 811 C153 811 123 811 123 811 C123 811 112 811 112 811 C112 811 100 811 100 811 C100 811 71 811 71 811 C71 811 71 798 71 798 C71 798 100 745 100 745 C100 745 100 66 100 66 C100 66 71 13 71 13 C71 13 71 0 71 0 C71 0 100 0 100 0 C100 0 112 0 112 0 L112 0 Z " />
<glyph glyph-name="Icircumflex" unicode="&#xce;" horiz-adv-x="222" d="M112 1025 C112 1025 224 891 224 891 C224 891 243 891 243 891 C243 891 122 1041 122 1041 C122 1041 102 1041 102 1041 C102 1041 -19 891 -19 891 C-19 891 -1 891 -1 891 C-1 891 112 1025 112 1025 L112 1025 Z M112 0 C112 0 123 0 123 0 C123 0 153 0 153 0 C153 0 153 13 153 13 C153 13 123 66 123 66 C123 66 123 745 123 745 C123 745 153 798 153 798 C153 798 153 811 153 811 C153 811 123 811 123 811 C123 811 112 811 112 811 C112 811 100 811 100 811 C100 811 71 811 71 811 C71 811 71 798 71 798 C71 798 100 745 100 745 C100 745 100 66 100 66 C100 66 71 13 71 13 C71 13 71 0 71 0 C71 0 100 0 100 0 C100 0 112 0 112 0 L112 0 Z " />
<glyph glyph-name="Idieresis" unicode="&#xcf;" horiz-adv-x="222" d="M143 891 C143 891 203 891 203 891 C203 891 203 951 203 951 C203 951 143 951 143 951 C143 951 143 891 143 891 L143 891 Z M20 891 C20 891 80 891 80 891 C80 891 80 951 80 951 C80 951 20 951 20 951 C20 951 20 891 20 891 L20 891 Z M112 0 C112 0 123 0 123 0 C123 0 153 0 153 0 C153 0 153 13 153 13 C153 13 123 66 123 66 C123 66 123 745 123 745 C123 745 153 798 153 798 C153 798 153 811 153 811 C153 811 123 811 123 811 C123 811 112 811 112 811 C112 811 100 811 100 811 C100 811 71 811 71 811 C71 811 71 798 71 798 C71 798 100 745 100 745 C100 745 100 66 100 66 C100 66 71 13 71 13 C71 13 71 0 71 0 C71 0 100 0 100 0 C100 0 112 0 112 0 L112 0 Z " />
<glyph glyph-name="Ntilde" unicode="&#xd1;" horiz-adv-x="514" d="M241 891 C241 925 249 953 258 953 C308 953 228 881 289 881 C306 881 320 915 320 958 C320 958 305 958 305 958 C305 924 297 897 287 897 C238 897 317 968 257 968 C240 968 226 934 226 891 C226 891 241 891 241 891 L241 891 Z M402 745 C402 745 402 27 402 27 C402 27 144 811 144 811 C144 811 143 811 143 811 C143 811 137 811 137 811 C137 811 131 811 131 811 C131 811 101 811 101 811 C101 811 101 798 101 798 C101 798 131 745 131 745 C131 745 131 66 131 66 C131 66 101 13 101 13 C101 13 101 0 101 0 C101 0 131 0 131 0 C131 0 137 0 137 0 C137 0 143 0 143 0 C143 0 173 0 173 0 C173 0 173 13 173 13 C173 13 143 66 143 66 C143 66 143 775 143 775 C143 775 398 0 398 0 C398 0 402 0 402 0 C402 0 411 0 411 0 C411 0 414 0 414 0 C414 0 414 745 414 745 C414 745 444 798 444 798 C444 798 444 811 444 811 C444 811 414 811 414 811 C414 811 408 811 408 811 C408 811 402 811 402 811 C402 811 372 811 372 811 C372 811 372 798 372 798 C372 798 402 745 402 745 L402 745 Z " />
<glyph glyph-name="Ograve" unicode="&#xd2;" horiz-adv-x="694" d="M353 891 C353 891 371 891 371 891 C371 891 345 1041 345 1041 C345 1041 319 1041 319 1041 C319 1041 353 891 353 891 L353 891 Z M362 0 C221 0 109 180 109 406 C109 620 228 811 362 811 C496 811 615 620 615 406 C615 180 503 0 362 0 L362 0 Z M85 406 C85 175 208 -10 362 -10 C516 -10 639 175 639 406 C639 625 508 821 362 821 C216 821 85 625 85 406 L85 406 Z " />
<glyph glyph-name="Oacute" unicode="&#xd3;" horiz-adv-x="694" d="M353 891 C353 891 371 891 371 891 C371 891 405 1041 405 1041 C405 1041 379 1041 379 1041 C379 1041 353 891 353 891 L353 891 Z M362 0 C221 0 109 180 109 406 C109 620 228 811 362 811 C496 811 615 620 615 406 C615 180 503 0 362 0 L362 0 Z M85 406 C85 175 208 -10 362 -10 C516 -10 639 175 639 406 C639 625 508 821 362 821 C216 821 85 625 85 406 L85 406 Z " />
<glyph glyph-name="Ocircumflex" unicode="&#xd4;" horiz-adv-x="694" d="M362 1025 C362 1025 475 891 475 891 C475 891 493 891 493 891 C493 891 372 1041 372 1041 C372 1041 352 1041 352 1041 C352 1041 231 891 231 891 C231 891 249 891 249 891 C249 891 362 1025 362 1025 L362 1025 Z M362 0 C221 0 109 180 109 406 C109 620 228 811 362 811 C496 811 615 620 615 406 C615 180 503 0 362 0 L362 0 Z M85 406 C85 175 208 -10 362 -10 C516 -10 639 175 639 406 C639 625 508 821 362 821 C216 821 85 625 85 406 L85 406 Z " />
<glyph glyph-name="Otilde" unicode="&#xd5;" horiz-adv-x="694" d="M330 891 C330 925 338 953 347 953 C397 953 318 881 378 881 C395 881 409 915 409 958 C409 958 394 958 394 958 C394 924 386 897 377 897 C327 897 406 968 346 968 C329 968 315 934 315 891 C315 891 330 891 330 891 L330 891 Z M362 0 C221 0 109 180 109 406 C109 620 228 811 362 811 C496 811 615 620 615 406 C615 180 503 0 362 0 L362 0 Z M85 406 C85 175 208 -10 362 -10 C516 -10 639 175 639 406 C639 625 508 821 362 821 C216 821 85 625 85 406 L85 406 Z " />
<glyph glyph-name="Odieresis" unicode="&#xd6;" horiz-adv-x="694" d="M393 891 C393 891 453 891 453 891 C453 891 453 951 453 951 C453 951 393 951 393 951 C393 951 393 891 393 891 L393 891 Z M271 891 C271 891 331 891 331 891 C331 891 331 951 331 951 C331 951 271 951 271 951 C271 951 271 891 271 891 L271 891 Z M362 0 C221 0 109 180 109 406 C109 620 228 811 362 811 C496 811 615 620 615 406 C615 180 503 0 362 0 L362 0 Z M85 406 C85 175 208 -10 362 -10 C516 -10 639 175 639 406 C639 625 508 821 362 821 C216 821 85 625 85 406 L85 406 Z " />
<glyph glyph-name="Oslash" unicode="&#xd8;" horiz-adv-x="694" d="M362 0 C291 0 227 46 182 120 C182 120 545 678 545 678 C588 604 615 508 615 406 C615 180 503 0 362 0 C362 0 362 0 362 0 L362 0 Z M85 406 C85 291 115 188 165 113 C165 113 85 -10 85 -10 C85 -10 97 -10 97 -10 C97 -10 171 104 171 104 C221 33 288 -10 362 -10 C516 -10 639 175 639 406 C639 515 607 618 556 694 C556 694 639 821 639 821 C639 821 627 821 627 821 C627 821 550 703 550 703 C500 775 433 821 362 821 C216 821 85 625 85 406 C85 406 85 406 85 406 L85 406 Z M176 129 C134 202 109 299 109 406 C109 620 228 811 362 811 C429 811 493 763 540 687 C540 687 176 129 176 129 L176 129 Z " />
<glyph glyph-name="Ugrave" unicode="&#xd9;" horiz-adv-x="532" d="M270 881 C270 881 289 881 289 881 C289 881 263 1031 263 1031 C263 1031 237 1031 237 1031 C237 1031 270 881 270 881 L270 881 Z M121 745 C121 745 121 318 121 318 C121 118 183 -10 280 -10 C376 -10 438 118 438 318 C438 318 438 745 438 745 C438 745 468 798 468 798 C468 798 468 811 468 811 C468 811 438 811 438 811 C438 811 432 811 432 811 C432 811 426 811 426 811 C426 811 396 811 396 811 C396 811 396 798 396 798 C396 798 426 745 426 745 C426 745 426 321 426 321 C426 125 369 1 280 1 C197 1 144 126 144 322 C144 322 144 745 144 745 C144 745 174 798 174 798 C174 798 174 811 174 811 C174 811 144 811 144 811 C144 811 133 811 133 811 C133 811 121 811 121 811 C121 811 91 811 91 811 C91 811 91 798 91 798 C91 798 121 745 121 745 L121 745 Z " />
<glyph glyph-name="Uacute" unicode="&#xda;" horiz-adv-x="532" d="M270 881 C270 881 289 881 289 881 C289 881 323 1031 323 1031 C323 1031 297 1031 297 1031 C297 1031 270 881 270 881 L270 881 Z M121 745 C121 745 121 318 121 318 C121 118 183 -10 280 -10 C376 -10 438 118 438 318 C438 318 438 745 438 745 C438 745 468 798 468 798 C468 798 468 811 468 811 C468 811 438 811 438 811 C438 811 432 811 432 811 C432 811 426 811 426 811 C426 811 396 811 396 811 C396 811 396 798 396 798 C396 798 426 745 426 745 C426 745 426 321 426 321 C426 125 369 1 280 1 C197 1 144 126 144 322 C144 322 144 745 144 745 C144 745 174 798 174 798 C174 798 174 811 174 811 C174 811 144 811 144 811 C144 811 133 811 133 811 C133 811 121 811 121 811 C121 811 91 811 91 811 C91 811 91 798 91 798 C91 798 121 745 121 745 L121 745 Z " />
<glyph glyph-name="Ucircumflex" unicode="&#xdb;" horiz-adv-x="532" d="M280 1015 C280 1015 392 881 392 881 C392 881 411 881 411 881 C411 881 290 1031 290 1031 C290 1031 269 1031 269 1031 C269 1031 149 881 149 881 C149 881 167 881 167 881 C167 881 280 1015 280 1015 L280 1015 Z M121 745 C121 745 121 318 121 318 C121 118 183 -10 280 -10 C376 -10 438 118 438 318 C438 318 438 745 438 745 C438 745 468 798 468 798 C468 798 468 811 468 811 C468 811 438 811 438 811 C438 811 432 811 432 811 C432 811 426 811 426 811 C426 811 396 811 396 811 C396 811 396 798 396 798 C396 798 426 745 426 745 C426 745 426 321 426 321 C426 125 369 1 280 1 C197 1 144 126 144 322 C144 322 144 745 144 745 C144 745 174 798 174 798 C174 798 174 811 174 811 C174 811 144 811 144 811 C144 811 133 811 133 811 C133 811 121 811 121 811 C121 811 91 811 91 811 C91 811 91 798 91 798 C91 798 121 745 121 745 L121 745 Z " />
<glyph glyph-name="Udieresis" unicode="&#xdc;" horiz-adv-x="532" d="M311 881 C311 881 371 881 371 881 C371 881 371 941 371 941 C371 941 311 941 311 941 C311 941 311 881 311 881 L311 881 Z M188 881 C188 881 248 881 248 881 C248 881 248 941 248 941 C248 941 188 941 188 941 C188 941 188 881 188 881 L188 881 Z M121 745 C121 745 121 318 121 318 C121 118 183 -10 280 -10 C376 -10 438 118 438 318 C438 318 438 745 438 745 C438 745 468 798 468 798 C468 798 468 811 468 811 C468 811 438 811 438 811 C438 811 432 811 432 811 C432 811 426 811 426 811 C426 811 396 811 396 811 C396 811 396 798 396 798 C396 798 426 745 426 745 C426 745 426 321 426 321 C426 125 369 1 280 1 C197 1 144 126 144 322 C144 322 144 745 144 745 C144 745 174 798 174 798 C174 798 174 811 174 811 C174 811 144 811 144 811 C144 811 133 811 133 811 C133 811 121 811 121 811 C121 811 91 811 91 811 C91 811 91 798 91 798 C91 798 121 745 121 745 L121 745 Z " />
<glyph glyph-name="Yacute" unicode="&#xdd;" horiz-adv-x="507" d="M262 891 C262 891 280 891 280 891 C280 891 314 1041 314 1041 C314 1041 288 1041 288 1041 C288 1041 262 891 262 891 L262 891 Z M441 745 C441 745 441 745 441 745 C441 745 276 381 276 381 C276 381 110 745 110 745 C110 745 110 798 110 798 C111 798 111 803 110 810 C111 811 111 811 110 811 C110 811 80 811 80 811 C80 811 69 811 69 811 C69 811 59 811 59 811 C59 811 35 811 35 811 C35 811 35 798 35 798 C35 798 89 745 89 745 C89 745 89 745 89 745 C89 745 261 369 261 369 C261 369 261 66 261 66 C261 66 231 13 231 13 C231 13 231 0 231 0 C231 0 261 0 261 0 C261 0 272 0 272 0 C272 0 283 0 283 0 C283 0 313 0 313 0 C313 0 313 13 313 13 C313 13 283 66 283 66 C283 66 283 372 283 372 C283 372 453 745 453 745 C453 745 453 745 453 745 C453 745 507 798 507 798 C507 798 507 811 507 811 C507 811 483 811 483 811 C483 811 477 811 477 811 C477 811 471 811 471 811 C471 811 441 811 441 811 C441 811 441 745 441 745 L441 745 Z " />
<glyph glyph-name="Thorn" unicode="&#xde;" horiz-adv-x="518" d="M140 0 C140 0 151 0 151 0 C151 0 181 0 181 0 C181 0 181 13 181 13 C181 13 151 66 151 66 C151 66 151 162 151 162 C151 162 327 162 327 162 C423 162 484 257 484 406 C484 554 423 649 327 649 C327 649 151 649 151 649 C151 649 151 745 151 745 C151 745 181 798 181 798 C181 798 181 811 181 811 C181 811 151 811 151 811 C151 811 140 811 140 811 C140 811 128 811 128 811 C128 811 98 811 98 811 C98 811 98 798 98 798 C98 798 128 745 128 745 C128 745 128 66 128 66 C128 66 98 13 98 13 C98 13 98 0 98 0 C98 0 128 0 128 0 C128 0 140 0 140 0 L140 0 Z M151 172 C151 172 151 639 151 639 C151 639 326 639 326 639 C409 639 462 548 462 406 C462 263 410 172 327 172 C327 172 151 172 151 172 L151 172 Z " />
<glyph glyph-name="agrave" unicode="&#xe0;" horiz-adv-x="430" d="M208 661 C208 661 226 661 226 661 C226 661 200 811 200 811 C200 811 174 811 174 811 C174 811 208 661 208 661 L208 661 Z M79 444 C79 444 88 441 88 441 C88 519 145 582 217 582 C282 582 335 529 335 424 C335 424 335 406 335 406 C335 296 275 254 200 254 C124 254 64 185 64 99 C64 38 111 -10 205 -10 C269 -10 321 24 335 109 C335 109 335 45 335 45 C335 5 342 0 400 0 C400 0 400 15 400 15 C360 15 355 18 355 45 C355 45 355 415 355 415 C355 532 294 591 217 591 C140 591 79 526 79 444 L79 444 Z M335 351 C335 351 335 160 335 160 C335 43 279 -2 209 -2 C126 -2 84 43 84 99 C84 181 138 247 207 247 C268 247 319 276 335 351 L335 351 Z " />
<glyph glyph-name="aacute" unicode="&#xe1;" horiz-adv-x="430" d="M208 661 C208 661 226 661 226 661 C226 661 260 811 260 811 C260 811 234 811 234 811 C234 811 208 661 208 661 L208 661 Z M79 444 C79 444 88 441 88 441 C88 519 145 582 217 582 C282 582 335 529 335 424 C335 424 335 406 335 406 C335 296 275 254 200 254 C124 254 64 185 64 99 C64 38 111 -10 205 -10 C269 -10 321 24 335 109 C335 109 335 45 335 45 C335 5 342 0 400 0 C400 0 400 15 400 15 C360 15 355 18 355 45 C355 45 355 415 355 415 C355 532 294 591 217 591 C140 591 79 526 79 444 L79 444 Z M335 351 C335 351 335 160 335 160 C335 43 279 -2 209 -2 C126 -2 84 43 84 99 C84 181 138 247 207 247 C268 247 319 276 335 351 L335 351 Z " />
<glyph glyph-name="acircumflex" unicode="&#xe2;" horiz-adv-x="430" d="M217 795 C217 795 330 661 330 661 C330 661 348 661 348 661 C348 661 227 811 227 811 C227 811 207 811 207 811 C207 811 86 661 86 661 C86 661 104 661 104 661 C104 661 217 795 217 795 L217 795 Z M79 444 C79 444 88 441 88 441 C88 519 145 582 217 582 C282 582 335 529 335 424 C335 424 335 406 335 406 C335 296 275 254 200 254 C124 254 64 185 64 99 C64 38 111 -10 205 -10 C269 -10 321 24 335 109 C335 109 335 45 335 45 C335 5 342 0 400 0 C400 0 400 15 400 15 C360 15 355 18 355 45 C355 45 355 415 355 415 C355 532 294 591 217 591 C140 591 79 526 79 444 L79 444 Z M335 351 C335 351 335 160 335 160 C335 43 279 -2 209 -2 C126 -2 84 43 84 99 C84 181 138 247 207 247 C268 247 319 276 335 351 L335 351 Z " />
<glyph glyph-name="atilde" unicode="&#xe3;" horiz-adv-x="495" d="M218 661 C218 695 226 723 236 723 C285 723 206 651 266 651 C283 651 297 685 297 728 C297 728 282 728 282 728 C282 694 274 667 265 667 C215 667 295 738 234 738 C217 738 204 704 204 661 C204 661 218 661 218 661 L218 661 Z M76 291 C76 124 158 -10 259 -10 C329 -10 388 84 405 213 C405 213 405 0 405 0 C405 0 425 0 425 0 C425 0 425 581 425 581 C425 581 405 581 405 581 C405 581 405 368 405 368 C388 497 329 591 259 591 C158 591 76 457 76 291 C76 291 76 291 76 291 L76 291 Z M405 291 C405 129 342 -1 263 -1 C171 -1 97 129 97 291 C97 452 171 582 263 582 C342 582 405 452 405 291 L405 291 Z " />
<glyph glyph-name="adieresis" unicode="&#xe4;" horiz-adv-x="430" d="M264 661 C264 661 324 661 324 661 C324 661 324 721 324 721 C324 721 264 721 264 721 C264 721 264 661 264 661 L264 661 Z M109 661 C109 661 169 661 169 661 C169 661 169 721 169 721 C169 721 109 721 109 721 C109 721 109 661 109 661 L109 661 Z M79 444 C79 444 88 441 88 441 C88 519 145 582 217 582 C282 582 335 529 335 424 C335 424 335 406 335 406 C335 296 275 254 200 254 C124 254 64 185 64 99 C64 38 111 -10 205 -10 C269 -10 321 24 335 109 C335 109 335 45 335 45 C335 5 342 0 400 0 C400 0 400 15 400 15 C360 15 355 18 355 45 C355 45 355 415 355 415 C355 532 294 591 217 591 C140 591 79 526 79 444 L79 444 Z M335 351 C335 351 335 160 335 160 C335 43 279 -2 209 -2 C126 -2 84 43 84 99 C84 181 138 247 207 247 C268 247 319 276 335 351 L335 351 Z " />
<glyph glyph-name="aring" unicode="&#xe5;" horiz-adv-x="430" d="M217 670 C175 670 148 700 148 746 C148 790 177 822 217 822 C257 822 285 790 285 746 C285 700 258 670 217 670 L217 670 Z M138 746 C138 694 169 661 217 661 C265 661 295 694 295 746 C295 796 262 831 217 831 C171 831 138 796 138 746 L138 746 Z M79 444 C79 444 88 441 88 441 C88 519 145 582 217 582 C282 582 335 529 335 424 C335 424 335 406 335 406 C335 296 275 254 200 254 C124 254 64 185 64 99 C64 38 111 -10 205 -10 C269 -10 321 24 335 109 C335 109 335 45 335 45 C335 5 342 0 400 0 C400 0 400 15 400 15 C360 15 355 18 355 45 C355 45 355 415 355 415 C355 532 294 591 217 591 C140 591 79 526 79 444 L79 444 Z M335 351 C335 351 335 160 335 160 C335 43 279 -2 209 -2 C126 -2 84 43 84 99 C84 181 138 247 207 247 C268 247 319 276 335 351 L335 351 Z " />
<glyph glyph-name="ccedilla" unicode="&#xe7;" horiz-adv-x="436" d="M396 139 C396 61 330 -1 247 -1 C164 -1 97 104 97 291 C97 477 164 583 247 583 C346 583 396 513 396 426 C396 426 406 430 406 430 C406 520 353 591 247 591 C152 591 76 482 76 291 C76 105 147 -3 238 -10 C238 -10 209 -104 209 -104 C209 -104 212 -106 212 -106 C215 -98 224 -91 232 -91 C244 -91 253 -115 253 -145 C253 -175 244 -199 232 -199 C221 -199 211 -186 211 -171 C211 -171 206 -174 206 -174 C208 -193 219 -209 232 -209 C251 -209 265 -181 265 -145 C265 -112 251 -86 233 -86 C225 -86 216 -93 213 -103 C213 -103 242 -10 242 -10 C244 -10 245 -10 247 -10 C335 -10 406 54 406 134 C406 134 396 139 396 139 L396 139 Z " />
<glyph glyph-name="egrave" unicode="&#xe8;" horiz-adv-x="442" d="M236 661 C236 661 254 661 254 661 C254 661 228 811 228 811 C228 811 202 811 202 811 C202 811 236 661 236 661 L236 661 Z M402 138 C402 61 332 -1 244 -1 C166 -1 103 95 97 267 C97 267 415 267 415 267 C415 447 358 591 245 591 C151 591 76 482 76 291 C76 99 151 -10 244 -10 C337 -10 412 54 412 134 C412 134 402 138 402 138 L402 138 Z M97 275 C97 280 97 286 97 291 C97 477 163 583 245 583 C343 583 394 447 395 275 C395 275 97 275 97 275 L97 275 Z " />
<glyph glyph-name="eacute" unicode="&#xe9;" horiz-adv-x="442" d="M236 661 C236 661 254 661 254 661 C254 661 288 811 288 811 C288 811 262 811 262 811 C262 811 236 661 236 661 L236 661 Z M402 138 C402 61 332 -1 244 -1 C166 -1 103 95 97 267 C97 267 415 267 415 267 C415 447 358 591 245 591 C151 591 76 482 76 291 C76 99 151 -10 244 -10 C337 -10 412 54 412 134 C412 134 402 138 402 138 L402 138 Z M97 275 C97 280 97 286 97 291 C97 477 163 583 245 583 C343 583 394 447 395 275 C395 275 97 275 97 275 L97 275 Z " />
<glyph glyph-name="ecircumflex" unicode="&#xea;" horiz-adv-x="442" d="M245 795 C245 795 358 661 358 661 C358 661 376 661 376 661 C376 661 255 811 255 811 C255 811 235 811 235 811 C235 811 114 661 114 661 C114 661 133 661 133 661 C133 661 245 795 245 795 L245 795 Z M402 138 C402 61 332 -1 244 -1 C166 -1 103 95 97 267 C97 267 415 267 415 267 C415 447 358 591 245 591 C151 591 76 482 76 291 C76 99 151 -10 244 -10 C337 -10 412 54 412 134 C412 134 402 138 402 138 L402 138 Z M97 275 C97 280 97 286 97 291 C97 477 163 583 245 583 C343 583 394 447 395 275 C395 275 97 275 97 275 L97 275 Z " />
<glyph glyph-name="edieresis" unicode="&#xeb;" horiz-adv-x="442" d="M277 661 C277 661 337 661 337 661 C337 661 337 721 337 721 C337 721 277 721 277 721 C277 721 277 661 277 661 L277 661 Z M154 661 C154 661 214 661 214 661 C214 661 214 721 214 721 C214 721 154 721 154 721 C154 721 154 661 154 661 L154 661 Z M402 138 C402 61 332 -1 244 -1 C166 -1 103 95 97 267 C97 267 415 267 415 267 C415 447 358 591 245 591 C151 591 76 482 76 291 C76 99 151 -10 244 -10 C337 -10 412 54 412 134 C412 134 402 138 402 138 L402 138 Z M97 275 C97 280 97 286 97 291 C97 477 163 583 245 583 C343 583 394 447 395 275 C395 275 97 275 97 275 L97 275 Z " />
<glyph glyph-name="igrave" unicode="&#xec;" horiz-adv-x="179" d="M76 661 C76 661 94 661 94 661 C94 661 68 811 68 811 C68 811 42 811 42 811 C42 811 76 661 76 661 L76 661 Z M85 581 C85 581 75 581 75 581 C75 581 45 581 45 581 C45 581 45 568 45 568 C45 568 75 515 75 515 C75 515 75 66 75 66 C75 66 45 13 45 13 C45 13 45 0 45 0 C45 0 75 0 75 0 C75 0 85 0 85 0 C85 0 95 0 95 0 C95 0 125 0 125 0 C125 0 125 13 125 13 C125 13 95 66 95 66 C95 66 95 581 95 581 C95 581 85 581 85 581 L85 581 Z " />
<glyph glyph-name="iacute" unicode="&#xed;" horiz-adv-x="179" d="M76 661 C76 661 94 661 94 661 C94 661 128 811 128 811 C128 811 102 811 102 811 C102 811 76 661 76 661 L76 661 Z M85 581 C85 581 75 581 75 581 C75 581 45 581 45 581 C45 581 45 568 45 568 C45 568 75 515 75 515 C75 515 75 66 75 66 C75 66 45 13 45 13 C45 13 45 0 45 0 C45 0 75 0 75 0 C75 0 85 0 85 0 C85 0 95 0 95 0 C95 0 125 0 125 0 C125 0 125 13 125 13 C125 13 95 66 95 66 C95 66 95 581 95 581 C95 581 85 581 85 581 L85 581 Z " />
<glyph glyph-name="icircumflex" unicode="&#xee;" horiz-adv-x="179" d="M85 795 C85 795 198 661 198 661 C198 661 216 661 216 661 C216 661 95 811 95 811 C95 811 75 811 75 811 C75 811 -46 661 -46 661 C-46 661 -28 661 -28 661 C-28 661 85 795 85 795 L85 795 Z M85 581 C85 581 75 581 75 581 C75 581 45 581 45 581 C45 581 45 568 45 568 C45 568 75 515 75 515 C75 515 75 66 75 66 C75 66 45 13 45 13 C45 13 45 0 45 0 C45 0 75 0 75 0 C75 0 85 0 85 0 C85 0 95 0 95 0 C95 0 125 0 125 0 C125 0 125 13 125 13 C125 13 95 66 95 66 C95 66 95 581 95 581 C95 581 85 581 85 581 L85 581 Z " />
<glyph glyph-name="idieresis" unicode="&#xef;" horiz-adv-x="179" d="M132 661 C132 661 192 661 192 661 C192 661 192 721 192 721 C192 721 132 721 132 721 C132 721 132 661 132 661 L132 661 Z M-23 661 C-23 661 37 661 37 661 C37 661 37 721 37 721 C37 721 -23 721 -23 721 C-23 721 -23 661 -23 661 L-23 661 Z M85 581 C85 581 75 581 75 581 C75 581 45 581 45 581 C45 581 45 568 45 568 C45 568 75 515 75 515 C75 515 75 66 75 66 C75 66 45 13 45 13 C45 13 45 0 45 0 C45 0 75 0 75 0 C75 0 85 0 85 0 C85 0 95 0 95 0 C95 0 125 0 125 0 C125 0 125 13 125 13 C125 13 95 66 95 66 C95 66 95 581 95 581 C95 581 85 581 85 581 L85 581 Z " />
<glyph glyph-name="ntilde" unicode="&#xf1;" horiz-adv-x="420" d="M193 661 C193 695 201 723 210 723 C260 723 181 651 241 651 C258 651 272 685 272 728 C272 728 257 728 257 728 C257 694 249 667 240 667 C190 667 269 738 209 738 C192 738 178 704 178 661 C178 661 193 661 193 661 L193 661 Z M331 0 C331 0 341 0 341 0 C341 0 371 0 371 0 C371 0 371 13 371 13 C371 13 341 66 341 66 C341 66 341 376 341 376 C341 504 298 586 244 586 C189 586 143 535 129 465 C129 465 129 571 129 571 C129 571 129 581 129 581 C129 581 119 581 119 581 C119 581 114 581 114 581 C114 581 109 581 109 581 C109 581 79 581 79 581 C79 581 79 568 79 568 C79 568 109 515 109 515 C109 515 109 66 109 66 C109 66 79 13 79 13 C79 13 79 0 79 0 C79 0 109 0 109 0 C109 0 119 0 119 0 C119 0 129 0 129 0 C129 0 159 0 159 0 C159 0 159 13 159 13 C159 13 129 66 129 66 C129 66 129 422 129 422 C129 508 178 576 240 576 C285 576 321 498 321 376 C321 376 321 66 321 66 C321 66 291 13 291 13 C291 13 291 0 291 0 C291 0 321 0 321 0 C321 0 331 0 331 0 L331 0 Z " />
<glyph glyph-name="ograve" unicode="&#xf2;" horiz-adv-x="470" d="M239 661 C239 661 257 661 257 661 C257 661 231 811 231 811 C231 811 205 811 205 811 C205 811 239 661 239 661 L239 661 Z M248 -2 C151 -2 97 128 97 291 C97 477 164 583 248 583 C344 583 398 453 398 291 C398 104 331 -2 248 -2 L248 -2 Z M76 291 C76 124 138 -10 248 -10 C343 -10 420 99 420 291 C420 457 358 591 248 591 C152 591 76 482 76 291 L76 291 Z " />
<glyph glyph-name="oacute" unicode="&#xf3;" horiz-adv-x="470" d="M239 661 C239 661 257 661 257 661 C257 661 291 811 291 811 C291 811 265 811 265 811 C265 811 239 661 239 661 L239 661 Z M248 -2 C151 -2 97 128 97 291 C97 477 164 583 248 583 C344 583 398 453 398 291 C398 104 331 -2 248 -2 L248 -2 Z M76 291 C76 124 138 -10 248 -10 C343 -10 420 99 420 291 C420 457 358 591 248 591 C152 591 76 482 76 291 L76 291 Z " />
<glyph glyph-name="ocircumflex" unicode="&#xf4;" horiz-adv-x="470" d="M248 795 C248 795 361 661 361 661 C361 661 379 661 379 661 C379 661 258 811 258 811 C258 811 238 811 238 811 C238 811 117 661 117 661 C117 661 135 661 135 661 C135 661 248 795 248 795 L248 795 Z M248 -2 C151 -2 97 128 97 291 C97 477 164 583 248 583 C344 583 398 453 398 291 C398 104 331 -2 248 -2 L248 -2 Z M76 291 C76 124 138 -10 248 -10 C343 -10 420 99 420 291 C420 457 358 591 248 591 C152 591 76 482 76 291 L76 291 Z " />
<glyph glyph-name="otilde" unicode="&#xf5;" horiz-adv-x="470" d="M216 661 C216 695 224 723 233 723 C283 723 203 651 264 651 C281 651 295 685 295 728 C295 728 280 728 280 728 C280 694 272 667 262 667 C213 667 292 738 232 738 C215 738 201 704 201 661 C201 661 216 661 216 661 L216 661 Z M248 -2 C151 -2 97 128 97 291 C97 477 164 583 248 583 C344 583 398 453 398 291 C398 104 331 -2 248 -2 L248 -2 Z M76 291 C76 124 138 -10 248 -10 C343 -10 420 99 420 291 C420 457 358 591 248 591 C152 591 76 482 76 291 L76 291 Z " />
<glyph glyph-name="odieresis" unicode="&#xf6;" horiz-adv-x="470" d="M279 661 C279 661 339 661 339 661 C339 661 339 721 339 721 C339 721 279 721 279 721 C279 721 279 661 279 661 L279 661 Z M156 661 C156 661 216 661 216 661 C216 661 216 721 216 721 C216 721 156 721 156 721 C156 721 156 661 156 661 L156 661 Z M248 -2 C151 -2 97 128 97 291 C97 477 164 583 248 583 C344 583 398 453 398 291 C398 104 331 -2 248 -2 L248 -2 Z M76 291 C76 124 138 -10 248 -10 C343 -10 420 99 420 291 C420 457 358 591 248 591 C152 591 76 482 76 291 L76 291 Z " />
<glyph glyph-name="oslash" unicode="&#xf8;" horiz-adv-x="470" d="M248 -2 C200 -2 162 30 136 83 C136 83 363 489 363 489 C386 437 398 368 398 291 C398 104 331 -2 248 -2 C248 -2 248 -2 248 -2 L248 -2 Z M76 291 C76 206 92 129 123 74 C123 74 76 -10 76 -10 C76 -10 84 -10 84 -10 C84 -10 127 67 127 67 C156 19 197 -10 248 -10 C343 -10 420 99 420 291 C420 376 404 453 373 507 C373 507 420 591 420 591 C420 591 411 591 411 591 C411 591 369 515 369 515 C340 562 299 591 248 591 C152 591 76 482 76 291 C76 291 76 291 76 291 L76 291 Z M132 91 C109 143 97 213 97 291 C97 477 164 583 248 583 C296 583 334 550 359 498 C359 498 132 91 132 91 L132 91 Z " />
<glyph glyph-name="ugrave" unicode="&#xf9;" horiz-adv-x="412" d="M207 661 C207 661 225 661 225 661 C225 661 199 811 199 811 C199 811 173 811 173 811 C173 811 207 661 207 661 L207 661 Z M328 66 C328 66 328 581 328 581 C328 581 318 581 318 581 C318 581 308 581 308 581 C308 581 278 581 278 581 C278 581 278 568 278 568 C278 568 308 515 308 515 C308 515 308 149 308 149 C308 66 268 0 218 0 C150 0 124 62 124 159 C124 159 124 581 124 581 C124 581 114 581 114 581 C114 581 104 581 104 581 C104 581 74 581 74 581 C74 581 74 568 74 568 C74 568 104 515 104 515 C104 515 104 159 104 159 C104 56 135 -10 214 -10 C260 -10 297 41 308 109 C308 109 308 10 308 10 C308 10 308 0 308 0 C308 0 318 0 318 0 C318 0 328 0 328 0 C328 0 358 0 358 0 C358 0 358 13 358 13 C358 13 328 66 328 66 L328 66 Z " />
<glyph glyph-name="uacute" unicode="&#xfa;" horiz-adv-x="412" d="M207 661 C207 661 225 661 225 661 C225 661 259 811 259 811 C259 811 233 811 233 811 C233 811 207 661 207 661 L207 661 Z M328 66 C328 66 328 581 328 581 C328 581 318 581 318 581 C318 581 308 581 308 581 C308 581 278 581 278 581 C278 581 278 568 278 568 C278 568 308 515 308 515 C308 515 308 149 308 149 C308 66 268 0 218 0 C150 0 124 62 124 159 C124 159 124 581 124 581 C124 581 114 581 114 581 C114 581 104 581 104 581 C104 581 74 581 74 581 C74 581 74 568 74 568 C74 568 104 515 104 515 C104 515 104 159 104 159 C104 56 135 -10 214 -10 C260 -10 297 41 308 109 C308 109 308 10 308 10 C308 10 308 0 308 0 C308 0 318 0 318 0 C318 0 328 0 328 0 C328 0 358 0 358 0 C358 0 358 13 358 13 C358 13 328 66 328 66 L328 66 Z " />
<glyph glyph-name="ucircumflex" unicode="&#xfb;" horiz-adv-x="412" d="M216 795 C216 795 329 661 329 661 C329 661 347 661 347 661 C347 661 226 811 226 811 C226 811 206 811 206 811 C206 811 85 661 85 661 C85 661 103 661 103 661 C103 661 216 795 216 795 L216 795 Z M328 66 C328 66 328 581 328 581 C328 581 318 581 318 581 C318 581 308 581 308 581 C308 581 278 581 278 581 C278 581 278 568 278 568 C278 568 308 515 308 515 C308 515 308 149 308 149 C308 66 268 0 218 0 C150 0 124 62 124 159 C124 159 124 581 124 581 C124 581 114 581 114 581 C114 581 104 581 104 581 C104 581 74 581 74 581 C74 581 74 568 74 568 C74 568 104 515 104 515 C104 515 104 159 104 159 C104 56 135 -10 214 -10 C260 -10 297 41 308 109 C308 109 308 10 308 10 C308 10 308 0 308 0 C308 0 318 0 318 0 C318 0 328 0 328 0 C328 0 358 0 358 0 C358 0 358 13 358 13 C358 13 328 66 328 66 L328 66 Z " />
<glyph glyph-name="udieresis" unicode="&#xfc;" horiz-adv-x="412" d="M247 661 C247 661 307 661 307 661 C307 661 307 721 307 721 C307 721 247 721 247 721 C247 721 247 661 247 661 L247 661 Z M125 661 C125 661 185 661 185 661 C185 661 185 721 185 721 C185 721 125 721 125 721 C125 721 125 661 125 661 L125 661 Z M328 66 C328 66 328 581 328 581 C328 581 318 581 318 581 C318 581 308 581 308 581 C308 581 278 581 278 581 C278 581 278 568 278 568 C278 568 308 515 308 515 C308 515 308 149 308 149 C308 66 268 0 218 0 C150 0 124 62 124 159 C124 159 124 581 124 581 C124 581 114 581 114 581 C114 581 104 581 104 581 C104 581 74 581 74 581 C74 581 74 568 74 568 C74 568 104 515 104 515 C104 515 104 159 104 159 C104 56 135 -10 214 -10 C260 -10 297 41 308 109 C308 109 308 10 308 10 C308 10 308 0 308 0 C308 0 318 0 318 0 C318 0 328 0 328 0 C328 0 358 0 358 0 C358 0 358 13 358 13 C358 13 328 66 328 66 L328 66 Z " />
<glyph glyph-name="yacute" unicode="&#xfd;" horiz-adv-x="381" d="M187 661 C187 661 206 661 206 661 C206 661 239 811 239 811 C239 811 213 811 213 811 C213 811 187 661 187 661 L187 661 Z M71 -200 C71 -200 121 -200 121 -200 C141 -200 162 -145 200 -4 C200 -4 338 515 338 515 C338 515 339 515 339 515 C339 515 383 568 383 568 C383 568 383 581 383 581 C383 581 356 581 356 581 C356 581 350 581 350 581 C350 581 344 581 344 581 C344 581 314 581 314 581 C314 581 314 568 314 568 C314 568 327 516 327 516 C327 516 201 34 201 34 C201 34 76 515 76 515 C76 515 89 568 89 568 C89 568 89 581 89 581 C89 581 59 581 59 581 C59 581 48 581 48 581 C48 581 36 581 36 581 C36 581 10 581 10 581 C10 581 10 568 10 568 C10 568 54 515 54 515 C54 515 193 3 193 3 C193 3 192 0 192 0 C155 -138 136 -191 121 -191 C121 -191 71 -191 71 -191 C71 -191 71 -200 71 -200 L71 -200 Z " />
<glyph glyph-name="thorn" unicode="&#xfe;" horiz-adv-x="477" d="M264 0 C181 0 114 105 114 291 C114 477 181 582 264 582 C343 582 406 452 406 291 C406 129 343 0 264 0 L264 0 Z M104 811 C104 811 94 811 94 811 C94 811 64 811 64 811 C64 811 64 798 64 798 C64 798 94 745 94 745 C94 745 94 -184 94 -184 C94 -184 64 -237 64 -237 C64 -237 64 -250 64 -250 C64 -250 94 -250 94 -250 C94 -250 104 -250 104 -250 C104 -250 114 -250 114 -250 C114 -250 144 -250 144 -250 C144 -250 144 -237 144 -237 C144 -237 114 -184 114 -184 C114 -184 114 207 114 207 C132 68 194 -10 268 -10 C356 -10 427 124 427 291 C427 457 356 591 268 591 C194 591 132 513 114 374 C114 374 114 811 114 811 C114 811 104 811 104 811 L104 811 Z " />
<glyph glyph-name="ydieresis" unicode="&#xff;" horiz-adv-x="381" d="M228 661 C228 661 288 661 288 661 C288 661 288 721 288 721 C288 721 228 721 228 721 C228 721 228 661 228 661 L228 661 Z M105 661 C105 661 165 661 165 661 C165 661 165 721 165 721 C165 721 105 721 105 721 C105 721 105 661 105 661 L105 661 Z M71 -200 C71 -200 121 -200 121 -200 C141 -200 162 -145 200 -4 C200 -4 338 515 338 515 C338 515 339 515 339 515 C339 515 383 568 383 568 C383 568 383 581 383 581 C383 581 356 581 356 581 C356 581 350 581 350 581 C350 581 344 581 344 581 C344 581 314 581 314 581 C314 581 314 568 314 568 C314 568 327 516 327 516 C327 516 201 34 201 34 C201 34 76 515 76 515 C76 515 89 568 89 568 C89 568 89 581 89 581 C89 581 59 581 59 581 C59 581 48 581 48 581 C48 581 36 581 36 581 C36 581 10 581 10 581 C10 581 10 568 10 568 C10 568 54 515 54 515 C54 515 193 3 193 3 C193 3 192 0 192 0 C155 -138 136 -191 121 -191 C121 -191 71 -191 71 -191 C71 -191 71 -200 71 -200 L71 -200 Z " />
<glyph glyph-name="Amacron" unicode="&#x100;" horiz-adv-x="637" d="M279 891 C279 891 391 891 391 891 C391 891 391 905 391 905 C391 905 279 905 279 905 C279 905 279 891 279 891 L279 891 Z M90 66 C90 66 90 66 90 66 C90 66 153 260 153 260 C153 260 505 260 505 260 C505 260 569 65 569 65 C569 65 560 13 560 13 C560 13 560 0 560 0 C560 0 590 0 590 0 C590 0 601 0 601 0 C601 0 613 0 613 0 C613 0 638 0 638 0 C638 0 638 13 638 13 C638 13 591 66 591 66 C591 66 346 811 346 811 C346 811 334 811 334 811 C334 811 328 811 328 811 C328 811 324 811 324 811 C324 811 322 811 322 811 C322 811 292 811 292 811 C292 811 292 798 292 798 C292 798 301 746 301 746 C301 746 77 65 77 65 C77 65 30 13 30 13 C30 13 30 0 30 0 C30 0 56 0 56 0 C56 0 62 0 62 0 C62 0 68 0 68 0 C68 0 98 0 98 0 C98 0 98 13 98 13 C98 13 90 66 90 66 L90 66 Z M156 269 C156 269 329 796 329 796 C329 796 502 269 502 269 C502 269 156 269 156 269 L156 269 Z " />
<glyph glyph-name="amacron" unicode="&#x101;" horiz-adv-x="430" d="M161 661 C161 661 273 661 273 661 C273 661 273 675 273 675 C273 675 161 675 161 675 C161 675 161 661 161 661 L161 661 Z M79 444 C79 444 88 441 88 441 C88 519 145 582 217 582 C282 582 335 529 335 424 C335 424 335 406 335 406 C335 296 275 254 200 254 C124 254 64 185 64 99 C64 38 111 -10 205 -10 C269 -10 321 24 335 109 C335 109 335 45 335 45 C335 5 342 0 400 0 C400 0 400 15 400 15 C360 15 355 18 355 45 C355 45 355 415 355 415 C355 532 294 591 217 591 C140 591 79 526 79 444 L79 444 Z M335 351 C335 351 335 160 335 160 C335 43 279 -2 209 -2 C126 -2 84 43 84 99 C84 181 138 247 207 247 C268 247 319 276 335 351 L335 351 Z " />
<glyph glyph-name="Abreve" unicode="&#x102;" horiz-adv-x="637" d="M279 997 C279 933 304 881 335 881 C365 881 390 933 390 997 C390 997 376 997 376 997 C376 940 358 895 335 895 C312 895 294 940 294 997 C294 997 279 997 279 997 L279 997 Z M90 66 C90 66 90 66 90 66 C90 66 153 260 153 260 C153 260 505 260 505 260 C505 260 569 65 569 65 C569 65 560 13 560 13 C560 13 560 0 560 0 C560 0 590 0 590 0 C590 0 601 0 601 0 C601 0 613 0 613 0 C613 0 638 0 638 0 C638 0 638 13 638 13 C638 13 591 66 591 66 C591 66 346 811 346 811 C346 811 334 811 334 811 C334 811 328 811 328 811 C328 811 324 811 324 811 C324 811 322 811 322 811 C322 811 292 811 292 811 C292 811 292 798 292 798 C292 798 301 746 301 746 C301 746 77 65 77 65 C77 65 30 13 30 13 C30 13 30 0 30 0 C30 0 56 0 56 0 C56 0 62 0 62 0 C62 0 68 0 68 0 C68 0 98 0 98 0 C98 0 98 13 98 13 C98 13 90 66 90 66 L90 66 Z M156 269 C156 269 329 796 329 796 C329 796 502 269 502 269 C502 269 156 269 156 269 L156 269 Z " />
<glyph glyph-name="abreve" unicode="&#x103;" horiz-adv-x="430" d="M161 767 C161 703 186 651 217 651 C247 651 272 703 272 767 C272 767 258 767 258 767 C258 710 240 665 217 665 C194 665 176 710 176 767 C176 767 161 767 161 767 L161 767 Z M79 444 C79 444 88 441 88 441 C88 519 145 582 217 582 C282 582 335 529 335 424 C335 424 335 406 335 406 C335 296 275 254 200 254 C124 254 64 185 64 99 C64 38 111 -10 205 -10 C269 -10 321 24 335 109 C335 109 335 45 335 45 C335 5 342 0 400 0 C400 0 400 15 400 15 C360 15 355 18 355 45 C355 45 355 415 355 415 C355 532 294 591 217 591 C140 591 79 526 79 444 L79 444 Z M335 351 C335 351 335 160 335 160 C335 43 279 -2 209 -2 C126 -2 84 43 84 99 C84 181 138 247 207 247 C268 247 319 276 335 351 L335 351 Z " />
<glyph glyph-name="Aogonek" unicode="&#x104;" horiz-adv-x="637" d="M90 66 C90 66 90 66 90 66 C90 66 153 260 153 260 C153 260 505 260 505 260 C505 260 569 65 569 65 C569 65 560 13 560 13 C560 13 560 0 560 0 C560 0 590 0 590 0 C590 0 601 0 601 0 C601 0 605 0 605 0 C581 -18 534 -71 534 -103 C534 -157 573 -201 621 -201 C650 -201 684 -188 698 -172 C698 -172 697 -167 697 -167 C683 -182 650 -195 621 -195 C579 -195 545 -153 545 -101 C545 -66 594 -11 613 0 C613 0 638 0 638 0 C638 0 638 13 638 13 C638 13 591 66 591 66 C591 66 346 811 346 811 C346 811 334 811 334 811 C334 811 328 811 328 811 C328 811 324 811 324 811 C324 811 322 811 322 811 C322 811 292 811 292 811 C292 811 292 798 292 798 C292 798 301 746 301 746 C301 746 77 65 77 65 C77 65 30 13 30 13 C30 13 30 0 30 0 C30 0 56 0 56 0 C56 0 62 0 62 0 C62 0 68 0 68 0 C68 0 98 0 98 0 C98 0 98 13 98 13 C98 13 90 66 90 66 L90 66 Z M156 269 C156 269 329 796 329 796 C329 796 502 269 502 269 C502 269 156 269 156 269 L156 269 Z " />
<glyph glyph-name="aogonek" unicode="&#x105;" horiz-adv-x="481" d="M76 291 C76 124 154 -10 252 -10 C320 -10 377 87 392 220 C392 220 392 0 392 0 C392 0 402 0 402 0 C402 0 406 0 406 0 C381 -18 333 -71 333 -103 C333 -157 372 -201 420 -201 C449 -201 483 -188 497 -172 C497 -172 496 -167 496 -167 C482 -182 449 -195 420 -195 C378 -195 344 -153 344 -101 C344 -66 393 -11 412 0 C412 0 442 0 442 0 C441 0 441 1 442 1 C441 8 441 13 442 13 C442 13 412 66 412 66 C412 66 412 515 412 515 C412 515 442 568 442 568 C441 568 441 573 442 580 C441 581 441 581 442 581 C442 581 412 581 412 581 C412 581 402 581 402 581 C402 581 392 581 392 581 C392 581 392 362 392 362 C377 494 320 591 252 591 C154 591 76 457 76 291 C76 291 76 291 76 291 L76 291 Z M392 291 C392 129 331 -1 256 -1 C167 -1 97 129 97 291 C97 452 167 582 256 582 C331 582 392 452 392 291 L392 291 Z " />
<glyph glyph-name="Cacute" unicode="&#x106;" horiz-adv-x="601" d="M321 891 C321 891 340 891 340 891 C340 891 374 1041 374 1041 C374 1041 348 1041 348 1041 C348 1041 321 891 321 891 L321 891 Z M572 179 C572 79 468 0 338 0 C208 0 104 203 104 406 C104 608 208 811 338 811 C411 811 477 786 519 746 C519 746 571 647 571 647 C572 642 572 638 572 633 C572 633 577 637 577 637 C577 637 577 636 577 636 C577 636 581 640 581 640 C581 640 581 670 581 670 C581 670 578 670 578 670 C559 756 459 821 338 821 C195 821 80 613 80 406 C80 198 195 -10 338 -10 C473 -10 581 71 581 171 C581 171 572 179 572 179 L572 179 Z M534 731 C549 714 560 695 566 674 C554 696 542 716 534 731 C534 731 534 731 534 731 L534 731 Z " />
<glyph glyph-name="cacute" unicode="&#x107;" horiz-adv-x="436" d="M238 661 C238 661 256 661 256 661 C256 661 290 811 290 811 C290 811 264 811 264 811 C264 811 238 661 238 661 L238 661 Z M396 139 C396 61 330 -1 247 -1 C164 -1 97 104 97 291 C97 477 164 583 247 583 C346 583 396 513 396 426 C396 426 406 430 406 430 C406 520 353 591 247 591 C152 591 76 482 76 291 C76 99 152 -10 247 -10 C335 -10 406 54 406 134 C406 134 396 139 396 139 L396 139 Z " />
<glyph glyph-name="Ccircumflex" unicode="&#x108;" horiz-adv-x="601" d="M331 1025 C331 1025 443 891 443 891 C443 891 462 891 462 891 C462 891 341 1041 341 1041 C341 1041 321 1041 321 1041 C321 1041 200 891 200 891 C200 891 218 891 218 891 C218 891 331 1025 331 1025 L331 1025 Z M572 179 C572 79 468 0 338 0 C208 0 104 203 104 406 C104 608 208 811 338 811 C411 811 477 786 519 746 C519 746 571 647 571 647 C572 642 572 638 572 633 C572 633 577 637 577 637 C577 637 577 636 577 636 C577 636 581 640 581 640 C581 640 581 670 581 670 C581 670 578 670 578 670 C559 756 459 821 338 821 C195 821 80 613 80 406 C80 198 195 -10 338 -10 C473 -10 581 71 581 171 C581 171 572 179 572 179 L572 179 Z M534 731 C549 714 560 695 566 674 C554 696 542 716 534 731 C534 731 534 731 534 731 L534 731 Z " />
<glyph glyph-name="Cdotaccent" unicode="&#x10a;" horiz-adv-x="601" d="M301 891 C301 891 361 891 361 891 C361 891 361 951 361 951 C361 951 301 951 301 951 C301 951 301 891 301 891 L301 891 Z M572 179 C572 79 468 0 338 0 C208 0 104 203 104 406 C104 608 208 811 338 811 C411 811 477 786 519 746 C519 746 571 647 571 647 C572 642 572 638 572 633 C572 633 577 637 577 637 C577 637 577 636 577 636 C577 636 581 640 581 640 C581 640 581 670 581 670 C581 670 578 670 578 670 C559 756 459 821 338 821 C195 821 80 613 80 406 C80 198 195 -10 338 -10 C473 -10 581 71 581 171 C581 171 572 179 572 179 L572 179 Z M534 731 C549 714 560 695 566 674 C554 696 542 716 534 731 C534 731 534 731 534 731 L534 731 Z " />
<glyph glyph-name="cdotaccent" unicode="&#x10b;" horiz-adv-x="436" d="M217 661 C217 661 277 661 277 661 C277 661 277 721 277 721 C277 721 217 721 217 721 C217 721 217 661 217 661 L217 661 Z M396 139 C396 61 330 -1 247 -1 C164 -1 97 104 97 291 C97 477 164 583 247 583 C346 583 396 513 396 426 C396 426 406 430 406 430 C406 520 353 591 247 591 C152 591 76 482 76 291 C76 99 152 -10 247 -10 C335 -10 406 54 406 134 C406 134 396 139 396 139 L396 139 Z " />
<glyph glyph-name="Ccaron" unicode="&#x10c;" horiz-adv-x="601" d="M331 907 C331 907 443 1041 443 1041 C443 1041 462 1041 462 1041 C462 1041 341 891 341 891 C341 891 321 891 321 891 C321 891 200 1041 200 1041 C200 1041 218 1041 218 1041 C218 1041 331 907 331 907 L331 907 Z M572 179 C572 79 468 0 338 0 C208 0 104 203 104 406 C104 608 208 811 338 811 C411 811 477 786 519 746 C519 746 571 647 571 647 C572 642 572 638 572 633 C572 633 577 637 577 637 C577 637 577 636 577 636 C577 636 581 640 581 640 C581 640 581 670 581 670 C581 670 578 670 578 670 C559 756 459 821 338 821 C195 821 80 613 80 406 C80 198 195 -10 338 -10 C473 -10 581 71 581 171 C581 171 572 179 572 179 L572 179 Z M534 731 C549 714 560 695 566 674 C554 696 542 716 534 731 C534 731 534 731 534 731 L534 731 Z " />
<glyph glyph-name="ccaron" unicode="&#x10d;" horiz-adv-x="436" d="M247 677 C247 677 360 811 360 811 C360 811 378 811 378 811 C378 811 257 661 257 661 C257 661 237 661 237 661 C237 661 116 811 116 811 C116 811 134 811 134 811 C134 811 247 677 247 677 L247 677 Z M396 139 C396 61 330 -1 247 -1 C164 -1 97 104 97 291 C97 477 164 583 247 583 C346 583 396 513 396 426 C396 426 406 430 406 430 C406 520 353 591 247 591 C152 591 76 482 76 291 C76 99 152 -10 247 -10 C335 -10 406 54 406 134 C406 134 396 139 396 139 L396 139 Z " />
<glyph glyph-name="Dcaron" unicode="&#x10e;" horiz-adv-x="658" d="M354 907 C354 907 467 1041 467 1041 C467 1041 485 1041 485 1041 C485 1041 364 891 364 891 C364 891 344 891 344 891 C344 891 223 1041 223 1041 C223 1041 241 1041 241 1041 C241 1041 354 907 354 907 L354 907 Z M140 0 C140 0 151 0 151 0 C151 0 303 0 303 0 C491 0 603 151 603 406 C603 653 475 811 273 811 C273 811 151 811 151 811 C151 811 140 811 140 811 C140 811 128 811 128 811 C128 811 98 811 98 811 C98 811 98 798 98 798 C98 798 128 745 128 745 C128 745 128 66 128 66 C128 66 98 13 98 13 C98 13 98 0 98 0 C98 0 128 0 128 0 C128 0 140 0 140 0 L140 0 Z M151 9 C151 9 151 802 151 802 C151 802 274 802 274 802 C460 802 579 648 579 406 C579 157 476 9 303 9 C303 9 151 9 151 9 L151 9 Z " />
<glyph glyph-name="dcaron" unicode="&#x10f;" horiz-adv-x="445" d="M425 821 C425 821 420 671 420 671 C420 671 435 671 435 671 C435 671 447 821 447 821 C447 821 425 821 425 821 L425 821 Z M76 291 C76 124 139 -10 218 -10 C284 -10 339 83 355 211 C355 211 355 10 355 10 C355 10 355 0 355 0 C355 0 365 0 365 0 C365 0 375 0 375 0 C375 0 405 0 405 0 C405 0 405 13 405 13 C405 13 375 66 375 66 C375 66 375 801 375 801 C375 801 375 811 375 811 C375 811 365 811 365 811 C365 811 355 811 355 811 C355 811 325 811 325 811 C325 811 325 798 325 798 C325 798 355 745 355 745 C355 745 355 371 355 371 C339 498 284 591 218 591 C139 591 76 457 76 291 L76 291 Z M355 291 C355 129 296 -1 221 -1 C152 -1 97 129 97 291 C97 452 152 582 221 582 C296 582 355 452 355 291 L355 291 Z " />
<glyph glyph-name="Dcroat" unicode="&#x110;" horiz-adv-x="658" d="M48 402 C48 402 128 402 128 402 C128 402 128 66 128 66 C128 66 98 13 98 13 C98 13 98 0 98 0 C98 0 128 0 128 0 C128 0 140 0 140 0 C140 0 151 0 151 0 C151 0 303 0 303 0 C491 0 603 151 603 406 C603 653 475 811 273 811 C273 811 151 811 151 811 C151 811 140 811 140 811 C140 811 128 811 128 811 C128 811 98 811 98 811 C98 811 98 798 98 798 C98 798 128 745 128 745 C128 745 128 409 128 409 C128 409 48 409 48 409 C48 409 48 402 48 402 L48 402 Z M151 9 C151 9 151 402 151 402 C151 402 354 402 354 402 C354 402 354 409 354 409 C354 409 151 409 151 409 C151 409 151 802 151 802 C151 802 274 802 274 802 C460 802 579 648 579 406 C579 157 476 9 303 9 C303 9 151 9 151 9 L151 9 Z " />
<glyph glyph-name="dcroat" unicode="&#x111;" horiz-adv-x="445" d="M218 697 C218 697 355 697 355 697 C355 697 355 371 355 371 C339 498 284 591 218 591 C139 591 76 457 76 291 C76 124 139 -10 218 -10 C284 -10 339 83 355 211 C355 211 355 10 355 10 C355 10 355 0 355 0 C355 0 365 0 365 0 C365 0 375 0 375 0 C375 0 405 0 405 0 C405 0 405 13 405 13 C405 13 375 66 375 66 C375 66 375 697 375 697 C375 697 436 697 436 697 C436 697 436 705 436 705 C436 705 375 705 375 705 C375 705 375 801 375 801 C375 801 375 811 375 811 C375 811 365 811 365 811 C365 811 355 811 355 811 C355 811 325 811 325 811 C325 811 325 798 325 798 C325 798 355 745 355 745 C355 745 355 705 355 705 C355 705 218 705 218 705 C218 705 218 697 218 697 L218 697 Z M355 291 C355 129 296 -1 221 -1 C152 -1 97 129 97 291 C97 452 152 582 221 582 C296 582 355 452 355 291 L355 291 Z " />
<glyph glyph-name="Emacron" unicode="&#x112;" horiz-adv-x="455" d="M204 891 C204 891 316 891 316 891 C316 891 316 905 316 905 C316 905 204 905 204 905 C204 905 204 891 204 891 L204 891 Z M406 5 C406 5 406 10 406 10 C406 10 406 40 406 40 C406 40 393 40 393 40 C393 40 340 10 340 10 C340 10 151 10 151 10 C151 10 151 396 151 396 C151 396 305 396 305 396 C305 396 358 366 358 366 C358 366 371 366 371 366 C371 366 371 396 371 396 C371 396 371 401 371 401 C371 401 371 405 371 405 C371 405 371 435 371 435 C371 435 358 435 358 435 C358 435 305 405 305 405 C305 405 151 405 151 405 C151 405 151 801 151 801 C151 801 325 801 325 801 C325 801 378 771 378 771 C378 771 391 771 391 771 C391 771 391 801 391 801 C391 801 391 806 391 806 C391 806 391 811 391 811 C391 811 151 811 151 811 C151 811 150 811 150 811 C150 811 140 811 140 811 C140 811 128 811 128 811 C128 811 98 811 98 811 C98 811 98 798 98 798 C98 798 128 745 128 745 C128 745 128 66 128 66 C128 66 98 13 98 13 C98 13 98 0 98 0 C98 0 128 0 128 0 C128 0 140 0 140 0 C140 0 150 0 150 0 C150 0 151 0 151 0 C151 0 406 0 406 0 C406 0 406 5 406 5 L406 5 Z " />
<glyph glyph-name="emacron" unicode="&#x113;" horiz-adv-x="442" d="M189 661 C189 661 301 661 301 661 C301 661 301 675 301 675 C301 675 189 675 189 675 C189 675 189 661 189 661 L189 661 Z M402 138 C402 61 332 -1 244 -1 C166 -1 103 95 97 267 C97 267 415 267 415 267 C415 447 358 591 245 591 C151 591 76 482 76 291 C76 99 151 -10 244 -10 C337 -10 412 54 412 134 C412 134 402 138 402 138 L402 138 Z M97 275 C97 280 97 286 97 291 C97 477 163 583 245 583 C343 583 394 447 395 275 C395 275 97 275 97 275 L97 275 Z " />
<glyph glyph-name="Ebreve" unicode="&#x114;" horiz-adv-x="455" d="M204 997 C204 933 229 881 260 881 C290 881 315 933 315 997 C315 997 300 997 300 997 C300 940 282 895 260 895 C237 895 219 940 219 997 C219 997 204 997 204 997 L204 997 Z M406 5 C406 5 406 10 406 10 C406 10 406 40 406 40 C406 40 393 40 393 40 C393 40 340 10 340 10 C340 10 151 10 151 10 C151 10 151 396 151 396 C151 396 305 396 305 396 C305 396 358 366 358 366 C358 366 371 366 371 366 C371 366 371 396 371 396 C371 396 371 401 371 401 C371 401 371 405 371 405 C371 405 371 435 371 435 C371 435 358 435 358 435 C358 435 305 405 305 405 C305 405 151 405 151 405 C151 405 151 801 151 801 C151 801 325 801 325 801 C325 801 378 771 378 771 C378 771 391 771 391 771 C391 771 391 801 391 801 C391 801 391 806 391 806 C391 806 391 811 391 811 C391 811 151 811 151 811 C151 811 150 811 150 811 C150 811 140 811 140 811 C140 811 128 811 128 811 C128 811 98 811 98 811 C98 811 98 798 98 798 C98 798 128 745 128 745 C128 745 128 66 128 66 C128 66 98 13 98 13 C98 13 98 0 98 0 C98 0 128 0 128 0 C128 0 140 0 140 0 C140 0 150 0 150 0 C150 0 151 0 151 0 C151 0 406 0 406 0 C406 0 406 5 406 5 L406 5 Z " />
<glyph glyph-name="ebreve" unicode="&#x115;" horiz-adv-x="442" d="M190 767 C190 703 215 651 245 651 C276 651 301 703 301 767 C301 767 286 767 286 767 C286 710 268 665 245 665 C222 665 204 710 204 767 C204 767 190 767 190 767 L190 767 Z M402 138 C402 61 332 -1 244 -1 C166 -1 103 95 97 267 C97 267 415 267 415 267 C415 447 358 591 245 591 C151 591 76 482 76 291 C76 99 151 -10 244 -10 C337 -10 412 54 412 134 C412 134 402 138 402 138 L402 138 Z M97 275 C97 280 97 286 97 291 C97 477 163 583 245 583 C343 583 394 447 395 275 C395 275 97 275 97 275 L97 275 Z " />
<glyph glyph-name="Edotaccent" unicode="&#x116;" horiz-adv-x="455" d="M230 891 C230 891 290 891 290 891 C290 891 290 951 290 951 C290 951 230 951 230 951 C230 951 230 891 230 891 L230 891 Z M406 5 C406 5 406 10 406 10 C406 10 406 40 406 40 C406 40 393 40 393 40 C393 40 340 10 340 10 C340 10 151 10 151 10 C151 10 151 396 151 396 C151 396 305 396 305 396 C305 396 358 366 358 366 C358 366 371 366 371 366 C371 366 371 396 371 396 C371 396 371 401 371 401 C371 401 371 405 371 405 C371 405 371 435 371 435 C371 435 358 435 358 435 C358 435 305 405 305 405 C305 405 151 405 151 405 C151 405 151 801 151 801 C151 801 325 801 325 801 C325 801 378 771 378 771 C378 771 391 771 391 771 C391 771 391 801 391 801 C391 801 391 806 391 806 C391 806 391 811 391 811 C391 811 151 811 151 811 C151 811 150 811 150 811 C150 811 140 811 140 811 C140 811 128 811 128 811 C128 811 98 811 98 811 C98 811 98 798 98 798 C98 798 128 745 128 745 C128 745 128 66 128 66 C128 66 98 13 98 13 C98 13 98 0 98 0 C98 0 128 0 128 0 C128 0 140 0 140 0 C140 0 150 0 150 0 C150 0 151 0 151 0 C151 0 406 0 406 0 C406 0 406 5 406 5 L406 5 Z " />
<glyph glyph-name="edotaccent" unicode="&#x117;" horiz-adv-x="442" d="M215 661 C215 661 275 661 275 661 C275 661 275 721 275 721 C275 721 215 721 215 721 C215 721 215 661 215 661 L215 661 Z M402 138 C402 61 332 -1 244 -1 C166 -1 103 95 97 267 C97 267 415 267 415 267 C415 447 358 591 245 591 C151 591 76 482 76 291 C76 99 151 -10 244 -10 C337 -10 412 54 412 134 C412 134 402 138 402 138 L402 138 Z M97 275 C97 280 97 286 97 291 C97 477 163 583 245 583 C343 583 394 447 395 275 C395 275 97 275 97 275 L97 275 Z " />
<glyph glyph-name="Eogonek" unicode="&#x118;" horiz-adv-x="455" d="M264 0 C239 -18 191 -71 191 -103 C191 -157 230 -201 278 -201 C307 -201 342 -188 355 -172 C355 -172 354 -167 354 -167 C341 -182 307 -195 279 -195 C237 -195 203 -153 203 -101 C203 -66 251 -11 270 0 C270 0 406 0 406 0 C406 0 406 5 406 5 C406 5 406 10 406 10 C406 10 406 40 406 40 C406 40 393 40 393 40 C393 40 340 10 340 10 C340 10 151 10 151 10 C151 10 151 396 151 396 C151 396 305 396 305 396 C305 396 358 366 358 366 C358 366 371 366 371 366 C371 366 371 396 371 396 C371 396 371 401 371 401 C371 401 371 405 371 405 C371 405 371 435 371 435 C371 435 358 435 358 435 C358 435 305 405 305 405 C305 405 151 405 151 405 C151 405 151 801 151 801 C151 801 325 801 325 801 C325 801 378 771 378 771 C378 771 391 771 391 771 C391 771 391 801 391 801 C391 801 391 806 391 806 C391 806 391 811 391 811 C391 811 151 811 151 811 C151 811 150 811 150 811 C150 811 140 811 140 811 C140 811 128 811 128 811 C128 811 98 811 98 811 C98 811 98 798 98 798 C98 798 128 745 128 745 C128 745 128 66 128 66 C128 66 98 13 98 13 C98 13 98 0 98 0 C98 0 128 0 128 0 C128 0 140 0 140 0 C140 0 150 0 150 0 C150 0 151 0 151 0 C151 0 264 0 264 0 L264 0 Z " />
<glyph glyph-name="eogonek" unicode="&#x119;" horiz-adv-x="442" d="M402 138 C402 61 332 -1 244 -1 C166 -1 103 95 97 267 C97 267 415 267 415 267 C415 447 358 591 245 591 C151 591 76 482 76 291 C76 99 151 -10 244 -10 C277 -10 307 -2 333 11 C307 -14 273 -59 273 -91 C273 -152 312 -201 360 -201 C389 -201 423 -188 436 -172 C436 -172 435 -167 435 -167 C422 -182 389 -195 360 -195 C318 -195 284 -148 284 -89 C284 -51 325 2 346 19 C386 46 412 87 412 134 C412 134 402 138 402 138 L402 138 Z M97 275 C97 280 97 286 97 291 C97 477 163 583 245 583 C343 583 394 447 395 275 C395 275 97 275 97 275 L97 275 Z " />
<glyph glyph-name="Ecaron" unicode="&#x11a;" horiz-adv-x="455" d="M260 907 C260 907 372 1041 372 1041 C372 1041 391 1041 391 1041 C391 1041 270 891 270 891 C270 891 249 891 249 891 C249 891 129 1041 129 1041 C129 1041 147 1041 147 1041 C147 1041 260 907 260 907 L260 907 Z M406 5 C406 5 406 10 406 10 C406 10 406 40 406 40 C406 40 393 40 393 40 C393 40 340 10 340 10 C340 10 151 10 151 10 C151 10 151 396 151 396 C151 396 305 396 305 396 C305 396 358 366 358 366 C358 366 371 366 371 366 C371 366 371 396 371 396 C371 396 371 401 371 401 C371 401 371 405 371 405 C371 405 371 435 371 435 C371 435 358 435 358 435 C358 435 305 405 305 405 C305 405 151 405 151 405 C151 405 151 801 151 801 C151 801 325 801 325 801 C325 801 378 771 378 771 C378 771 391 771 391 771 C391 771 391 801 391 801 C391 801 391 806 391 806 C391 806 391 811 391 811 C391 811 151 811 151 811 C151 811 150 811 150 811 C150 811 140 811 140 811 C140 811 128 811 128 811 C128 811 98 811 98 811 C98 811 98 798 98 798 C98 798 128 745 128 745 C128 745 128 66 128 66 C128 66 98 13 98 13 C98 13 98 0 98 0 C98 0 128 0 128 0 C128 0 140 0 140 0 C140 0 150 0 150 0 C150 0 151 0 151 0 C151 0 406 0 406 0 C406 0 406 5 406 5 L406 5 Z " />
<glyph glyph-name="ecaron" unicode="&#x11b;" horiz-adv-x="442" d="M245 677 C245 677 358 811 358 811 C358 811 376 811 376 811 C376 811 255 661 255 661 C255 661 235 661 235 661 C235 661 114 811 114 811 C114 811 133 811 133 811 C133 811 245 677 245 677 L245 677 Z M402 138 C402 61 332 -1 244 -1 C166 -1 103 95 97 267 C97 267 415 267 415 267 C415 447 358 591 245 591 C151 591 76 482 76 291 C76 99 151 -10 244 -10 C337 -10 412 54 412 134 C412 134 402 138 402 138 L402 138 Z M97 275 C97 280 97 286 97 291 C97 477 163 583 245 583 C343 583 394 447 395 275 C395 275 97 275 97 275 L97 275 Z " />
<glyph glyph-name="Gcircumflex" unicode="&#x11c;" horiz-adv-x="651" d="M364 1025 C364 1025 477 891 477 891 C477 891 495 891 495 891 C495 891 374 1041 374 1041 C374 1041 354 1041 354 1041 C354 1041 233 891 233 891 C233 891 252 891 252 891 C252 891 364 1025 364 1025 L364 1025 Z M425 411 C425 411 595 411 595 411 C595 411 595 110 595 110 C522 49 425 0 364 0 C220 0 104 180 104 406 C104 631 220 811 364 811 C428 811 484 788 523 752 C523 752 576 647 576 647 C577 642 577 638 577 633 C577 633 582 637 582 637 C582 637 582 636 582 636 C582 636 586 640 586 640 C586 640 586 670 586 670 C586 670 583 670 583 670 C566 756 475 821 364 821 C206 821 80 636 80 406 C80 175 206 -10 364 -10 C429 -10 531 41 607 105 C607 105 607 421 607 421 C607 421 425 421 425 421 C425 421 425 411 425 411 L425 411 Z M537 737 C554 718 566 696 572 672 C559 697 547 720 537 737 L537 737 Z " />
<glyph glyph-name="Gbreve" unicode="&#x11e;" horiz-adv-x="651" d="M309 997 C309 933 334 881 364 881 C395 881 420 933 420 997 C420 997 405 997 405 997 C405 940 387 895 364 895 C341 895 323 940 323 997 C323 997 309 997 309 997 L309 997 Z M425 411 C425 411 595 411 595 411 C595 411 595 110 595 110 C522 49 425 0 364 0 C220 0 104 180 104 406 C104 631 220 811 364 811 C428 811 484 788 523 752 C523 752 576 647 576 647 C577 642 577 638 577 633 C577 633 582 637 582 637 C582 637 582 636 582 636 C582 636 586 640 586 640 C586 640 586 670 586 670 C586 670 583 670 583 670 C566 756 475 821 364 821 C206 821 80 636 80 406 C80 175 206 -10 364 -10 C429 -10 531 41 607 105 C607 105 607 421 607 421 C607 421 425 421 425 421 C425 421 425 411 425 411 L425 411 Z M537 737 C554 718 566 696 572 672 C559 697 547 720 537 737 L537 737 Z " />
<glyph glyph-name="gbreve" unicode="&#x11f;" horiz-adv-x="435" d="M165 767 C165 703 190 651 220 651 C251 651 276 703 276 767 C276 767 261 767 261 767 C261 710 243 665 220 665 C197 665 179 710 179 767 C179 767 165 767 165 767 L165 767 Z M78 -91 C78 -136 141 -159 220 -159 C317 -159 365 -85 365 8 C365 8 365 515 365 515 C365 515 395 568 395 568 C395 568 395 581 395 581 C395 581 365 581 365 581 C365 581 355 581 355 581 C355 581 345 581 345 581 C345 581 345 372 345 372 C329 498 276 591 213 591 C137 591 76 491 76 291 C76 97 137 0 213 0 C276 0 329 89 345 212 C345 212 345 0 345 0 C345 -84 303 -151 220 -151 C148 -151 90 -131 90 -91 C90 -91 78 -91 78 -91 L78 -91 Z M216 582 C288 582 345 452 345 291 C345 134 288 9 216 9 C150 9 97 103 97 291 C97 485 150 582 216 582 L216 582 Z " />
<glyph glyph-name="Gdotaccent" unicode="&#x120;" horiz-adv-x="651" d="M334 891 C334 891 394 891 394 891 C394 891 394 951 394 951 C394 951 334 951 334 951 C334 951 334 891 334 891 L334 891 Z M425 411 C425 411 595 411 595 411 C595 411 595 110 595 110 C522 49 425 0 364 0 C220 0 104 180 104 406 C104 631 220 811 364 811 C428 811 484 788 523 752 C523 752 576 647 576 647 C577 642 577 638 577 633 C577 633 582 637 582 637 C582 637 582 636 582 636 C582 636 586 640 586 640 C586 640 586 670 586 670 C586 670 583 670 583 670 C566 756 475 821 364 821 C206 821 80 636 80 406 C80 175 206 -10 364 -10 C429 -10 531 41 607 105 C607 105 607 421 607 421 C607 421 425 421 425 421 C425 421 425 411 425 411 L425 411 Z M537 737 C554 718 566 696 572 672 C559 697 547 720 537 737 L537 737 Z " />
<glyph glyph-name="gdotaccent" unicode="&#x121;" horiz-adv-x="435" d="M190 661 C190 661 250 661 250 661 C250 661 250 721 250 721 C250 721 190 721 190 721 C190 721 190 661 190 661 L190 661 Z M78 -91 C78 -136 141 -159 220 -159 C317 -159 365 -85 365 8 C365 8 365 515 365 515 C365 515 395 568 395 568 C395 568 395 581 395 581 C395 581 365 581 365 581 C365 581 355 581 355 581 C355 581 345 581 345 581 C345 581 345 372 345 372 C329 498 276 591 213 591 C137 591 76 491 76 291 C76 97 137 0 213 0 C276 0 329 89 345 212 C345 212 345 0 345 0 C345 -84 303 -151 220 -151 C148 -151 90 -131 90 -91 C90 -91 78 -91 78 -91 L78 -91 Z M216 582 C288 582 345 452 345 291 C345 134 288 9 216 9 C150 9 97 103 97 291 C97 485 150 582 216 582 L216 582 Z " />
<glyph glyph-name="Hcircumflex" unicode="&#x124;" horiz-adv-x="555" d="M292 1025 C292 1025 405 891 405 891 C405 891 423 891 423 891 C423 891 302 1041 302 1041 C302 1041 282 1041 282 1041 C282 1041 161 891 161 891 C161 891 179 891 179 891 C179 891 292 1025 292 1025 L292 1025 Z M444 0 C444 0 455 0 455 0 C455 0 485 0 485 0 C485 0 485 13 485 13 C485 13 455 66 455 66 C455 66 455 745 455 745 C455 745 485 798 485 798 C485 798 485 811 485 811 C485 811 455 811 455 811 C455 811 444 811 444 811 C444 811 433 811 433 811 C433 811 403 811 403 811 C403 811 403 798 403 798 C403 798 433 745 433 745 C433 745 433 416 433 416 C433 416 151 416 151 416 C151 416 151 745 151 745 C151 745 181 798 181 798 C181 798 181 811 181 811 C181 811 151 811 151 811 C151 811 140 811 140 811 C140 811 128 811 128 811 C128 811 98 811 98 811 C98 811 98 798 98 798 C98 798 128 745 128 745 C128 745 128 66 128 66 C128 66 98 13 98 13 C98 13 98 0 98 0 C98 0 128 0 128 0 C128 0 140 0 140 0 C140 0 151 0 151 0 C151 0 181 0 181 0 C181 0 181 13 181 13 C181 13 151 66 151 66 C151 66 151 406 151 406 C151 406 433 406 433 406 C433 406 433 66 433 66 C433 66 403 13 403 13 C403 13 403 0 403 0 C403 0 433 0 433 0 C433 0 444 0 444 0 L444 0 Z " />
<glyph glyph-name="Itilde" unicode="&#x128;" horiz-adv-x="222" d="M80 891 C80 925 88 953 97 953 C146 953 67 881 128 881 C145 881 158 915 158 958 C158 958 144 958 144 958 C144 924 136 897 126 897 C77 897 156 968 96 968 C79 968 65 934 65 891 C65 891 80 891 80 891 L80 891 Z M112 0 C112 0 123 0 123 0 C123 0 153 0 153 0 C153 0 153 13 153 13 C153 13 123 66 123 66 C123 66 123 745 123 745 C123 745 153 798 153 798 C153 798 153 811 153 811 C153 811 123 811 123 811 C123 811 112 811 112 811 C112 811 100 811 100 811 C100 811 71 811 71 811 C71 811 71 798 71 798 C71 798 100 745 100 745 C100 745 100 66 100 66 C100 66 71 13 71 13 C71 13 71 0 71 0 C71 0 100 0 100 0 C100 0 112 0 112 0 L112 0 Z " />
<glyph glyph-name="itilde" unicode="&#x129;" horiz-adv-x="179" d="M53 661 C53 695 61 723 70 723 C120 723 40 651 101 651 C118 651 132 685 132 728 C132 728 117 728 117 728 C117 694 109 667 100 667 C50 667 129 738 69 738 C52 738 38 704 38 661 C38 661 53 661 53 661 L53 661 Z M75 581 C75 581 85 581 85 581 C85 581 75 581 75 581 L75 581 Z M75 581 C75 581 45 581 45 581 C45 581 45 568 45 568 C45 568 75 515 75 515 C75 515 75 0 75 0 C75 0 95 0 95 0 C95 0 95 581 95 581 C95 581 75 581 75 581 L75 581 Z " />
<glyph glyph-name="Imacron" unicode="&#x12a;" horiz-adv-x="222" d="M56 891 C56 891 168 891 168 891 C168 891 168 905 168 905 C168 905 56 905 56 905 C56 905 56 891 56 891 L56 891 Z M112 0 C112 0 123 0 123 0 C123 0 153 0 153 0 C153 0 153 13 153 13 C153 13 123 66 123 66 C123 66 123 745 123 745 C123 745 153 798 153 798 C153 798 153 811 153 811 C153 811 123 811 123 811 C123 811 112 811 112 811 C112 811 100 811 100 811 C100 811 71 811 71 811 C71 811 71 798 71 798 C71 798 100 745 100 745 C100 745 100 66 100 66 C100 66 71 13 71 13 C71 13 71 0 71 0 C71 0 100 0 100 0 C100 0 112 0 112 0 L112 0 Z " />
<glyph glyph-name="imacron" unicode="&#x12b;" horiz-adv-x="179" d="M29 661 C29 661 141 661 141 661 C141 661 141 675 141 675 C141 675 29 675 29 675 C29 675 29 661 29 661 L29 661 Z M85 581 C85 581 75 581 75 581 C75 581 45 581 45 581 C45 581 45 568 45 568 C45 568 75 515 75 515 C75 515 75 66 75 66 C75 66 45 13 45 13 C45 13 45 0 45 0 C45 0 75 0 75 0 C75 0 85 0 85 0 C85 0 95 0 95 0 C95 0 125 0 125 0 C125 0 125 13 125 13 C125 13 95 66 95 66 C95 66 95 581 95 581 C95 581 85 581 85 581 L85 581 Z " />
<glyph glyph-name="Ibreve" unicode="&#x12c;" horiz-adv-x="222" d="M56 997 C56 933 81 881 112 881 C142 881 167 933 167 997 C167 997 153 997 153 997 C153 940 135 895 112 895 C89 895 71 940 71 997 C71 997 56 997 56 997 L56 997 Z M112 0 C112 0 123 0 123 0 C123 0 153 0 153 0 C153 0 153 13 153 13 C153 13 123 66 123 66 C123 66 123 745 123 745 C123 745 153 798 153 798 C153 798 153 811 153 811 C153 811 123 811 123 811 C123 811 112 811 112 811 C112 811 100 811 100 811 C100 811 71 811 71 811 C71 811 71 798 71 798 C71 798 100 745 100 745 C100 745 100 66 100 66 C100 66 71 13 71 13 C71 13 71 0 71 0 C71 0 100 0 100 0 C100 0 112 0 112 0 L112 0 Z " />
<glyph glyph-name="ibreve" unicode="&#x12d;" horiz-adv-x="179" d="M29 767 C29 703 54 651 85 651 C116 651 141 703 141 767 C141 767 126 767 126 767 C126 710 108 665 85 665 C62 665 44 710 44 767 C44 767 29 767 29 767 L29 767 Z M85 581 C85 581 75 581 75 581 C75 581 45 581 45 581 C45 581 45 568 45 568 C45 568 75 515 75 515 C75 515 75 66 75 66 C75 66 45 13 45 13 C45 13 45 0 45 0 C45 0 75 0 75 0 C75 0 85 0 85 0 C85 0 95 0 95 0 C95 0 125 0 125 0 C125 0 125 13 125 13 C125 13 95 66 95 66 C95 66 95 581 95 581 C95 581 85 581 85 581 L85 581 Z " />
<glyph glyph-name="Idotaccent" unicode="&#x130;" horiz-adv-x="222" d="M82 891 C82 891 142 891 142 891 C142 891 142 951 142 951 C142 951 82 951 82 951 C82 951 82 891 82 891 L82 891 Z M112 0 C112 0 123 0 123 0 C123 0 153 0 153 0 C153 0 153 13 153 13 C153 13 123 66 123 66 C123 66 123 745 123 745 C123 745 153 798 153 798 C153 798 153 811 153 811 C153 811 123 811 123 811 C123 811 112 811 112 811 C112 811 100 811 100 811 C100 811 71 811 71 811 C71 811 71 798 71 798 C71 798 100 745 100 745 C100 745 100 66 100 66 C100 66 71 13 71 13 C71 13 71 0 71 0 C71 0 100 0 100 0 C100 0 112 0 112 0 L112 0 Z " />
<glyph glyph-name="dotlessi" unicode="&#x131;" horiz-adv-x="247" d="M157 0 C157 0 177 0 177 0 C177 0 177 581 177 581 C177 581 157 581 157 581 C157 581 157 0 157 0 L157 0 Z " />
<glyph glyph-name="Jcircumflex" unicode="&#x134;" horiz-adv-x="339" d="M243 1025 C243 1025 356 891 356 891 C356 891 374 891 374 891 C374 891 253 1041 253 1041 C253 1041 233 1041 233 1041 C233 1041 112 891 112 891 C112 891 130 891 130 891 C130 891 243 1025 243 1025 L243 1025 Z M75 284 C75 284 75 223 75 223 C75 74 107 -10 165 -10 C219 -10 254 100 254 238 C254 238 254 745 254 745 C254 745 284 798 284 798 C284 798 284 811 284 811 C284 811 254 811 254 811 C254 811 243 811 243 811 C243 811 232 811 232 811 C232 811 202 811 202 811 C202 811 202 798 202 798 C202 798 232 745 232 745 C232 745 232 238 232 238 C232 106 206 1 165 1 C122 1 98 84 98 230 C98 230 98 288 98 288 C98 288 75 284 75 284 L75 284 Z " />
<glyph glyph-name="Lacute" unicode="&#x139;" horiz-adv-x="372" d="M103 891 C103 891 121 891 121 891 C121 891 155 1041 155 1041 C155 1041 129 1041 129 1041 C129 1041 103 891 103 891 L103 891 Z M328 5 C328 5 328 10 328 10 C328 10 328 40 328 40 C328 40 315 40 315 40 C315 40 262 10 262 10 C262 10 123 10 123 10 C123 10 123 745 123 745 C123 745 153 798 153 798 C153 798 153 811 153 811 C153 811 123 811 123 811 C123 811 112 811 112 811 C112 811 100 811 100 811 C100 811 71 811 71 811 C71 811 71 798 71 798 C71 798 100 745 100 745 C100 745 100 66 100 66 C100 66 71 13 71 13 C71 13 71 0 71 0 C71 0 100 0 100 0 C100 0 112 0 112 0 C112 0 123 0 123 0 C123 0 328 0 328 0 C328 0 328 5 328 5 L328 5 Z " />
<glyph glyph-name="lacute" unicode="&#x13a;" horiz-adv-x="266" d="M143 851 C143 851 161 851 161 851 C161 851 195 1001 195 1001 C195 1001 169 1001 169 1001 C169 1001 143 851 143 851 L143 851 Z M157 0 C157 0 167 0 167 0 C167 0 197 0 197 0 C197 0 197 13 197 13 C197 13 167 66 167 66 C167 66 167 801 167 801 C167 801 167 811 167 811 C167 811 157 811 157 811 C157 811 147 811 147 811 C147 811 117 811 117 811 C117 811 117 798 117 798 C117 798 147 745 147 745 C147 745 147 66 147 66 C147 66 117 13 117 13 C117 13 117 0 117 0 C117 0 147 0 147 0 C147 0 157 0 157 0 L157 0 Z " />
<glyph glyph-name="Lcaron" unicode="&#x13d;" horiz-adv-x="372" d="M244 821 C244 821 240 671 240 671 C240 671 255 671 255 671 C255 671 266 821 266 821 C266 821 244 821 244 821 L244 821 Z M328 5 C328 5 328 10 328 10 C328 10 328 40 328 40 C328 40 315 40 315 40 C315 40 262 10 262 10 C262 10 123 10 123 10 C123 10 123 745 123 745 C123 745 153 798 153 798 C153 798 153 811 153 811 C153 811 123 811 123 811 C123 811 112 811 112 811 C112 811 100 811 100 811 C100 811 71 811 71 811 C71 811 71 798 71 798 C71 798 100 745 100 745 C100 745 100 66 100 66 C100 66 71 13 71 13 C71 13 71 0 71 0 C71 0 100 0 100 0 C100 0 112 0 112 0 C112 0 123 0 123 0 C123 0 328 0 328 0 C328 0 328 5 328 5 L328 5 Z " />
<glyph glyph-name="lcaron" unicode="&#x13e;" horiz-adv-x="266" d="M217 821 C217 821 212 671 212 671 C212 671 227 671 227 671 C227 671 239 821 239 821 C239 821 217 821 217 821 L217 821 Z M157 0 C157 0 167 0 167 0 C167 0 197 0 197 0 C197 0 197 13 197 13 C197 13 167 66 167 66 C167 66 167 801 167 801 C167 801 167 811 167 811 C167 811 157 811 157 811 C157 811 147 811 147 811 C147 811 117 811 117 811 C117 811 117 798 117 798 C117 798 147 745 147 745 C147 745 147 66 147 66 C147 66 117 13 117 13 C117 13 117 0 117 0 C117 0 147 0 147 0 C147 0 157 0 157 0 L157 0 Z " />
<glyph glyph-name="Lslash" unicode="&#x141;" horiz-adv-x="372" d="M20 352 C20 352 100 391 100 391 C100 391 100 66 100 66 C100 66 71 13 71 13 C71 13 71 0 71 0 C71 0 100 0 100 0 C100 0 112 0 112 0 C112 0 123 0 123 0 C123 0 328 0 328 0 C328 0 328 5 328 5 C328 5 328 10 328 10 C328 10 328 40 328 40 C328 40 315 40 315 40 C315 40 262 10 262 10 C262 10 123 10 123 10 C123 10 123 402 123 402 C123 402 225 452 225 452 C225 452 225 460 225 460 C225 460 123 410 123 410 C123 410 123 745 123 745 C123 745 153 798 153 798 C153 798 153 811 153 811 C153 811 123 811 123 811 C123 811 112 811 112 811 C112 811 100 811 100 811 C100 811 71 811 71 811 C71 811 71 798 71 798 C71 798 100 745 100 745 C100 745 100 399 100 399 C100 399 20 360 20 360 C20 360 20 352 20 352 L20 352 Z " />
<glyph glyph-name="lslash" unicode="&#x142;" horiz-adv-x="266" d="M67 352 C67 352 147 396 147 396 C147 396 147 66 147 66 C147 66 117 13 117 13 C117 13 117 0 117 0 C117 0 147 0 147 0 C147 0 157 0 157 0 C157 0 167 0 167 0 C167 0 197 0 197 0 C197 0 197 13 197 13 C197 13 167 66 167 66 C167 66 167 408 167 408 C167 408 247 452 247 452 C247 452 247 460 247 460 C247 460 167 416 167 416 C167 416 167 801 167 801 C167 801 167 811 167 811 C167 811 157 811 157 811 C157 811 147 811 147 811 C147 811 117 811 117 811 C117 811 117 798 117 798 C117 798 147 745 147 745 C147 745 147 404 147 404 C147 404 67 360 67 360 C67 360 67 352 67 352 L67 352 Z " />
<glyph glyph-name="Nacute" unicode="&#x143;" horiz-adv-x="514" d="M164 891 C164 891 182 891 182 891 C182 891 216 1041 216 1041 C216 1041 190 1041 190 1041 C190 1041 164 891 164 891 L164 891 Z M402 745 C402 745 402 27 402 27 C402 27 144 811 144 811 C144 811 143 811 143 811 C143 811 137 811 137 811 C137 811 131 811 131 811 C131 811 101 811 101 811 C101 811 101 798 101 798 C101 798 131 745 131 745 C131 745 131 66 131 66 C131 66 101 13 101 13 C101 13 101 0 101 0 C101 0 131 0 131 0 C131 0 137 0 137 0 C137 0 143 0 143 0 C143 0 173 0 173 0 C173 0 173 13 173 13 C173 13 143 66 143 66 C143 66 143 775 143 775 C143 775 398 0 398 0 C398 0 402 0 402 0 C402 0 411 0 411 0 C411 0 414 0 414 0 C414 0 414 745 414 745 C414 745 444 798 444 798 C444 798 444 811 444 811 C444 811 414 811 414 811 C414 811 408 811 408 811 C408 811 402 811 402 811 C402 811 372 811 372 811 C372 811 372 798 372 798 C372 798 402 745 402 745 L402 745 Z " />
<glyph glyph-name="nacute" unicode="&#x144;" horiz-adv-x="420" d="M216 661 C216 661 234 661 234 661 C234 661 268 811 268 811 C268 811 242 811 242 811 C242 811 216 661 216 661 L216 661 Z M331 0 C331 0 341 0 341 0 C341 0 371 0 371 0 C371 0 371 13 371 13 C371 13 341 66 341 66 C341 66 341 376 341 376 C341 504 298 586 244 586 C189 586 143 535 129 465 C129 465 129 571 129 571 C129 571 129 581 129 581 C129 581 119 581 119 581 C119 581 114 581 114 581 C114 581 109 581 109 581 C109 581 79 581 79 581 C79 581 79 568 79 568 C79 568 109 515 109 515 C109 515 109 66 109 66 C109 66 79 13 79 13 C79 13 79 0 79 0 C79 0 109 0 109 0 C109 0 119 0 119 0 C119 0 129 0 129 0 C129 0 159 0 159 0 C159 0 159 13 159 13 C159 13 129 66 129 66 C129 66 129 422 129 422 C129 508 178 576 240 576 C285 576 321 498 321 376 C321 376 321 66 321 66 C321 66 291 13 291 13 C291 13 291 0 291 0 C291 0 321 0 321 0 C321 0 331 0 331 0 L331 0 Z " />
<glyph glyph-name="Ncaron" unicode="&#x147;" horiz-adv-x="514" d="M273 907 C273 907 385 1041 385 1041 C385 1041 404 1041 404 1041 C404 1041 283 891 283 891 C283 891 263 891 263 891 C263 891 142 1041 142 1041 C142 1041 160 1041 160 1041 C160 1041 273 907 273 907 L273 907 Z M402 745 C402 745 402 27 402 27 C402 27 144 811 144 811 C144 811 143 811 143 811 C143 811 137 811 137 811 C137 811 131 811 131 811 C131 811 101 811 101 811 C101 811 101 798 101 798 C101 798 131 745 131 745 C131 745 131 66 131 66 C131 66 101 13 101 13 C101 13 101 0 101 0 C101 0 131 0 131 0 C131 0 137 0 137 0 C137 0 143 0 143 0 C143 0 173 0 173 0 C173 0 173 13 173 13 C173 13 143 66 143 66 C143 66 143 775 143 775 C143 775 398 0 398 0 C398 0 402 0 402 0 C402 0 411 0 411 0 C411 0 414 0 414 0 C414 0 414 745 414 745 C414 745 444 798 444 798 C444 798 444 811 444 811 C444 811 414 811 414 811 C414 811 408 811 408 811 C408 811 402 811 402 811 C402 811 372 811 372 811 C372 811 372 798 372 798 C372 798 402 745 402 745 L402 745 Z " />
<glyph glyph-name="ncaron" unicode="&#x148;" horiz-adv-x="420" d="M225 677 C225 677 338 811 338 811 C338 811 356 811 356 811 C356 811 235 661 235 661 C235 661 215 661 215 661 C215 661 94 811 94 811 C94 811 112 811 112 811 C112 811 225 677 225 677 L225 677 Z M331 0 C331 0 341 0 341 0 C341 0 371 0 371 0 C371 0 371 13 371 13 C371 13 341 66 341 66 C341 66 341 376 341 376 C341 504 298 586 244 586 C189 586 143 535 129 465 C129 465 129 571 129 571 C129 571 129 581 129 581 C129 581 119 581 119 581 C119 581 114 581 114 581 C114 581 109 581 109 581 C109 581 79 581 79 581 C79 581 79 568 79 568 C79 568 109 515 109 515 C109 515 109 66 109 66 C109 66 79 13 79 13 C79 13 79 0 79 0 C79 0 109 0 109 0 C109 0 119 0 119 0 C119 0 129 0 129 0 C129 0 159 0 159 0 C159 0 159 13 159 13 C159 13 129 66 129 66 C129 66 129 422 129 422 C129 508 178 576 240 576 C285 576 321 498 321 376 C321 376 321 66 321 66 C321 66 291 13 291 13 C291 13 291 0 291 0 C291 0 321 0 321 0 C321 0 331 0 331 0 L331 0 Z " />
<glyph glyph-name="Omacron" unicode="&#x14c;" horiz-adv-x="694" d="M306 891 C306 891 418 891 418 891 C418 891 418 905 418 905 C418 905 306 905 306 905 C306 905 306 891 306 891 L306 891 Z M362 0 C221 0 109 180 109 406 C109 620 228 811 362 811 C496 811 615 620 615 406 C615 180 503 0 362 0 L362 0 Z M85 406 C85 175 208 -10 362 -10 C516 -10 639 175 639 406 C639 625 508 821 362 821 C216 821 85 625 85 406 L85 406 Z " />
<glyph glyph-name="omacron" unicode="&#x14d;" horiz-adv-x="470" d="M192 661 C192 661 304 661 304 661 C304 661 304 675 304 675 C304 675 192 675 192 675 C192 675 192 661 192 661 L192 661 Z M248 -2 C151 -2 97 128 97 291 C97 477 164 583 248 583 C344 583 398 453 398 291 C398 104 331 -2 248 -2 L248 -2 Z M76 291 C76 124 138 -10 248 -10 C343 -10 420 99 420 291 C420 457 358 591 248 591 C152 591 76 482 76 291 L76 291 Z " />
<glyph glyph-name="Obreve" unicode="&#x14e;" horiz-adv-x="694" d="M306 997 C306 933 331 881 362 881 C393 881 418 933 418 997 C418 997 403 997 403 997 C403 940 385 895 362 895 C339 895 321 940 321 997 C321 997 306 997 306 997 L306 997 Z M362 0 C221 0 109 180 109 406 C109 620 228 811 362 811 C496 811 615 620 615 406 C615 180 503 0 362 0 L362 0 Z M85 406 C85 175 208 -10 362 -10 C516 -10 639 175 639 406 C639 625 508 821 362 821 C216 821 85 625 85 406 L85 406 Z " />
<glyph glyph-name="obreve" unicode="&#x14f;" horiz-adv-x="470" d="M192 767 C192 703 217 651 248 651 C278 651 303 703 303 767 C303 767 289 767 289 767 C289 710 271 665 248 665 C225 665 207 710 207 767 C207 767 192 767 192 767 L192 767 Z M248 -2 C151 -2 97 128 97 291 C97 477 164 583 248 583 C344 583 398 453 398 291 C398 104 331 -2 248 -2 L248 -2 Z M76 291 C76 124 138 -10 248 -10 C343 -10 420 99 420 291 C420 457 358 591 248 591 C152 591 76 482 76 291 L76 291 Z " />
<glyph glyph-name="Racute" unicode="&#x154;" horiz-adv-x="533" d="M297 891 C297 891 315 891 315 891 C315 891 349 1041 349 1041 C349 1041 323 1041 323 1041 C323 1041 297 891 297 891 L297 891 Z M463 0 C463 0 476 0 476 0 C476 0 489 0 489 0 C489 0 513 0 513 0 C513 0 513 13 513 13 C513 13 460 66 460 66 C460 66 336 351 336 351 C336 351 310 351 310 351 C310 351 463 0 463 0 L463 0 Z M140 0 C140 0 151 0 151 0 C151 0 181 0 181 0 C181 0 181 13 181 13 C181 13 151 66 151 66 C151 66 151 355 151 355 C151 355 327 355 327 355 C423 355 484 438 484 568 C484 716 423 811 327 811 C327 811 151 811 151 811 C151 811 140 811 140 811 C140 811 134 811 134 811 C134 811 128 811 128 811 C128 811 98 811 98 811 C98 811 98 798 98 798 C98 798 128 745 128 745 C128 745 128 66 128 66 C128 66 98 13 98 13 C98 13 98 0 98 0 C98 0 128 0 128 0 C128 0 140 0 140 0 L140 0 Z M151 364 C151 364 151 802 151 802 C151 802 326 802 326 802 C409 802 462 711 462 568 C462 443 410 364 327 364 C327 364 151 364 151 364 L151 364 Z " />
<glyph glyph-name="racute" unicode="&#x155;" horiz-adv-x="244" d="M157 661 C157 661 176 661 176 661 C176 661 210 811 210 811 C210 811 183 811 183 811 C183 811 157 661 157 661 L157 661 Z M224 569 C224 569 224 581 224 581 C224 581 220 581 220 581 C170 581 139 511 129 413 C129 413 129 571 129 571 C129 571 129 581 129 581 C129 581 119 581 119 581 C119 581 114 581 114 581 C114 581 109 581 109 581 C109 581 79 581 79 581 C79 581 79 568 79 568 C79 568 109 515 109 515 C109 515 109 66 109 66 C109 66 79 13 79 13 C79 13 79 0 79 0 C79 0 109 0 109 0 C109 0 119 0 119 0 C119 0 129 0 129 0 C129 0 159 0 159 0 C159 0 159 13 159 13 C159 13 129 66 129 66 C129 66 129 332 129 332 C129 464 159 569 219 569 C219 569 224 569 224 569 L224 569 Z " />
<glyph glyph-name="Rcaron" unicode="&#x158;" horiz-adv-x="533" d="M306 907 C306 907 419 1041 419 1041 C419 1041 437 1041 437 1041 C437 1041 316 891 316 891 C316 891 296 891 296 891 C296 891 175 1041 175 1041 C175 1041 193 1041 193 1041 C193 1041 306 907 306 907 L306 907 Z M463 0 C463 0 476 0 476 0 C476 0 489 0 489 0 C489 0 513 0 513 0 C513 0 513 13 513 13 C513 13 460 66 460 66 C460 66 336 351 336 351 C336 351 310 351 310 351 C310 351 463 0 463 0 L463 0 Z M140 0 C140 0 151 0 151 0 C151 0 181 0 181 0 C181 0 181 13 181 13 C181 13 151 66 151 66 C151 66 151 355 151 355 C151 355 327 355 327 355 C423 355 484 438 484 568 C484 716 423 811 327 811 C327 811 151 811 151 811 C151 811 140 811 140 811 C140 811 134 811 134 811 C134 811 128 811 128 811 C128 811 98 811 98 811 C98 811 98 798 98 798 C98 798 128 745 128 745 C128 745 128 66 128 66 C128 66 98 13 98 13 C98 13 98 0 98 0 C98 0 128 0 128 0 C128 0 140 0 140 0 L140 0 Z M151 364 C151 364 151 802 151 802 C151 802 326 802 326 802 C409 802 462 711 462 568 C462 443 410 364 327 364 C327 364 151 364 151 364 L151 364 Z " />
<glyph glyph-name="rcaron" unicode="&#x159;" horiz-adv-x="244" d="M166 677 C166 677 279 811 279 811 C279 811 297 811 297 811 C297 811 177 661 177 661 C177 661 156 661 156 661 C156 661 35 811 35 811 C35 811 54 811 54 811 C54 811 166 677 166 677 L166 677 Z M224 569 C224 569 224 581 224 581 C224 581 220 581 220 581 C170 581 139 511 129 413 C129 413 129 571 129 571 C129 571 129 581 129 581 C129 581 119 581 119 581 C119 581 114 581 114 581 C114 581 109 581 109 581 C109 581 79 581 79 581 C79 581 79 568 79 568 C79 568 109 515 109 515 C109 515 109 66 109 66 C109 66 79 13 79 13 C79 13 79 0 79 0 C79 0 109 0 109 0 C109 0 119 0 119 0 C119 0 129 0 129 0 C129 0 159 0 159 0 C159 0 159 13 159 13 C159 13 129 66 129 66 C129 66 129 332 129 332 C129 464 159 569 219 569 C219 569 224 569 224 569 L224 569 Z " />
<glyph glyph-name="Sacute" unicode="&#x15a;" horiz-adv-x="396" d="M180 891 C180 891 198 891 198 891 C198 891 232 1041 232 1041 C232 1041 206 1041 206 1041 C206 1041 180 891 180 891 L180 891 Z M63 148 C69 94 93 51 127 23 C127 23 127 23 127 23 C127 23 127 23 127 23 C154 2 188 -10 224 -10 C308 -10 362 95 362 226 C362 309 302 388 207 429 C134 460 87 525 87 595 C87 715 129 810 181 810 C208 810 233 802 253 786 C253 786 307 678 307 678 C308 673 308 668 308 663 C308 663 313 667 313 667 C313 667 313 667 313 667 C313 667 317 671 317 671 C317 671 317 701 317 701 C317 701 315 701 315 701 C307 747 284 781 251 802 C251 802 251 802 251 802 C251 802 251 802 251 802 C230 814 207 821 181 821 C116 821 64 720 64 593 C64 515 117 442 201 406 C286 369 340 299 340 226 C340 101 295 1 224 1 C186 1 152 15 126 41 C126 41 72 169 72 169 C72 174 72 180 72 185 C72 185 67 182 67 182 C67 182 67 182 67 182 C67 182 61 178 61 178 C61 178 61 148 61 148 C61 148 63 148 63 148 L63 148 Z M304 701 C304 701 304 701 304 701 C288 732 273 759 264 778 C283 759 298 733 304 701 L304 701 Z M75 148 C75 148 75 148 75 148 C91 110 105 76 115 53 C94 77 80 109 75 148 L75 148 Z " />
<glyph glyph-name="sacute" unicode="&#x15b;" horiz-adv-x="381" d="M201 661 C201 661 219 661 219 661 C219 661 253 811 253 811 C253 811 227 811 227 811 C227 811 201 661 201 661 L201 661 Z M54 109 C69 44 131 -5 207 -5 C288 -5 352 67 352 157 C352 213 297 274 211 299 C143 320 100 374 100 426 C100 510 149 578 210 578 C233 578 255 570 273 557 C273 557 330 445 330 445 C330 442 330 439 330 435 C330 435 339 439 339 439 C339 439 339 469 339 469 C339 469 336 469 336 469 C329 512 305 547 273 568 C273 568 273 568 273 568 C273 568 273 568 273 568 C254 579 233 586 210 586 C138 586 81 514 81 424 C81 366 130 305 206 282 C283 258 332 204 332 155 C332 71 276 4 207 4 C172 4 139 16 114 35 C114 35 61 131 61 131 C60 135 60 139 60 143 C60 143 55 141 55 141 C55 141 55 141 55 141 C55 141 51 139 51 139 C51 139 51 109 51 109 C51 109 54 109 54 109 L54 109 Z M327 469 C327 469 326 469 326 469 C308 502 293 531 283 549 C305 529 320 501 327 469 L327 469 Z M65 108 C80 83 93 61 102 45 C84 62 71 84 65 108 C65 108 65 108 65 108 L65 108 Z " />
<glyph glyph-name="Scircumflex" unicode="&#x15c;" horiz-adv-x="396" d="M189 1025 C189 1025 302 891 302 891 C302 891 320 891 320 891 C320 891 199 1041 199 1041 C199 1041 179 1041 179 1041 C179 1041 58 891 58 891 C58 891 76 891 76 891 C76 891 189 1025 189 1025 L189 1025 Z M63 148 C69 94 93 51 127 23 C127 23 127 23 127 23 C127 23 127 23 127 23 C154 2 188 -10 224 -10 C308 -10 362 95 362 226 C362 309 302 388 207 429 C134 460 87 525 87 595 C87 715 129 810 181 810 C208 810 233 802 253 786 C253 786 307 678 307 678 C308 673 308 668 308 663 C308 663 313 667 313 667 C313 667 313 667 313 667 C313 667 317 671 317 671 C317 671 317 701 317 701 C317 701 315 701 315 701 C307 747 284 781 251 802 C251 802 251 802 251 802 C251 802 251 802 251 802 C230 814 207 821 181 821 C116 821 64 720 64 593 C64 515 117 442 201 406 C286 369 340 299 340 226 C340 101 295 1 224 1 C186 1 152 15 126 41 C126 41 72 169 72 169 C72 174 72 180 72 185 C72 185 67 182 67 182 C67 182 67 182 67 182 C67 182 61 178 61 178 C61 178 61 148 61 148 C61 148 63 148 63 148 L63 148 Z M304 701 C304 701 304 701 304 701 C288 732 273 759 264 778 C283 759 298 733 304 701 L304 701 Z M75 148 C75 148 75 148 75 148 C91 110 105 76 115 53 C94 77 80 109 75 148 L75 148 Z " />
<glyph glyph-name="Scedilla" unicode="&#x15e;" horiz-adv-x="396" d="M63 148 C69 94 93 51 127 23 C127 23 127 23 127 23 C127 23 127 23 127 23 C153 2 185 -9 220 -10 C220 -10 191 -104 191 -104 C191 -104 195 -106 195 -106 C197 -98 206 -91 215 -91 C227 -91 236 -115 236 -145 C236 -175 227 -199 215 -199 C204 -199 194 -186 194 -171 C194 -171 189 -174 189 -174 C190 -193 202 -209 215 -209 C233 -209 247 -181 247 -145 C247 -112 233 -86 216 -86 C208 -86 199 -93 196 -103 C196 -103 224 -10 224 -10 C308 -10 362 95 362 226 C362 309 302 388 207 429 C134 460 87 525 87 595 C87 715 129 810 181 810 C208 810 233 802 253 786 C253 786 307 678 307 678 C308 673 308 668 308 663 C308 663 313 667 313 667 C313 667 313 667 313 667 C313 667 317 671 317 671 C317 671 317 701 317 701 C317 701 315 701 315 701 C307 747 284 781 251 802 C251 802 251 802 251 802 C251 802 251 802 251 802 C230 814 207 821 181 821 C116 821 64 720 64 593 C64 515 117 442 201 406 C286 369 340 299 340 226 C340 101 295 1 224 1 C186 1 152 15 126 41 C126 41 72 169 72 169 C72 174 72 180 72 185 C72 185 67 182 67 182 C67 182 67 182 67 182 C67 182 61 178 61 178 C61 178 61 148 61 148 C61 148 63 148 63 148 L63 148 Z M304 701 C304 701 304 701 304 701 C288 732 273 759 264 778 C283 759 298 733 304 701 L304 701 Z M75 148 C75 148 75 148 75 148 C91 110 105 76 115 53 C94 77 80 109 75 148 L75 148 Z " />
<glyph glyph-name="scedilla" unicode="&#x15f;" horiz-adv-x="381" d="M54 109 C69 45 129 -4 204 -5 C204 -5 175 -104 175 -104 C175 -104 178 -106 178 -106 C181 -98 190 -91 199 -91 C211 -91 220 -115 220 -145 C220 -175 210 -199 198 -199 C188 -199 178 -186 177 -171 C177 -171 173 -174 173 -174 C174 -193 186 -209 199 -209 C217 -209 231 -181 231 -145 C231 -112 217 -86 200 -86 C191 -86 182 -93 179 -103 C179 -103 208 -5 208 -5 C288 -5 352 67 352 157 C352 213 297 274 211 299 C143 320 100 374 100 426 C100 510 149 578 210 578 C233 578 255 570 273 557 C273 557 330 445 330 445 C330 442 330 439 330 435 C330 435 339 439 339 439 C339 439 339 469 339 469 C339 469 336 469 336 469 C329 512 305 547 273 568 C273 568 273 568 273 568 C273 568 273 568 273 568 C254 579 233 586 210 586 C138 586 81 514 81 424 C81 366 130 305 206 282 C283 258 332 204 332 155 C332 71 276 4 207 4 C172 4 139 16 114 35 C114 35 61 131 61 131 C60 135 60 139 60 143 C60 143 55 141 55 141 C55 141 55 141 55 141 C55 141 51 139 51 139 C51 139 51 109 51 109 C51 109 54 109 54 109 L54 109 Z M327 469 C327 469 326 469 326 469 C308 502 293 531 283 549 C305 529 320 501 327 469 L327 469 Z M65 108 C80 83 93 61 102 45 C84 62 71 84 65 108 C65 108 65 108 65 108 L65 108 Z " />
<glyph glyph-name="Scaron" unicode="&#x160;" horiz-adv-x="396" d="M189 907 C189 907 302 1041 302 1041 C302 1041 320 1041 320 1041 C320 1041 199 891 199 891 C199 891 179 891 179 891 C179 891 58 1041 58 1041 C58 1041 76 1041 76 1041 C76 1041 189 907 189 907 L189 907 Z M63 148 C69 94 93 51 127 23 C127 23 127 23 127 23 C127 23 127 23 127 23 C154 2 188 -10 224 -10 C308 -10 362 95 362 226 C362 309 302 388 207 429 C134 460 87 525 87 595 C87 715 129 810 181 810 C208 810 233 802 253 786 C253 786 307 678 307 678 C308 673 308 668 308 663 C308 663 313 667 313 667 C313 667 313 667 313 667 C313 667 317 671 317 671 C317 671 317 701 317 701 C317 701 315 701 315 701 C307 747 284 781 251 802 C251 802 251 802 251 802 C251 802 251 802 251 802 C230 814 207 821 181 821 C116 821 64 720 64 593 C64 515 117 442 201 406 C286 369 340 299 340 226 C340 101 295 1 224 1 C186 1 152 15 126 41 C126 41 72 169 72 169 C72 174 72 180 72 185 C72 185 67 182 67 182 C67 182 67 182 67 182 C67 182 61 178 61 178 C61 178 61 148 61 148 C61 148 63 148 63 148 L63 148 Z M304 701 C304 701 304 701 304 701 C288 732 273 759 264 778 C283 759 298 733 304 701 L304 701 Z M75 148 C75 148 75 148 75 148 C91 110 105 76 115 53 C94 77 80 109 75 148 L75 148 Z " />
<glyph glyph-name="scaron" unicode="&#x161;" horiz-adv-x="381" d="M210 677 C210 677 323 811 323 811 C323 811 341 811 341 811 C341 811 220 661 220 661 C220 661 200 661 200 661 C200 661 79 811 79 811 C79 811 97 811 97 811 C97 811 210 677 210 677 L210 677 Z M54 109 C69 44 131 -5 207 -5 C288 -5 352 67 352 157 C352 213 297 274 211 299 C143 320 100 374 100 426 C100 510 149 578 210 578 C233 578 255 570 273 557 C273 557 330 445 330 445 C330 442 330 439 330 435 C330 435 339 439 339 439 C339 439 339 469 339 469 C339 469 336 469 336 469 C329 512 305 547 273 568 C273 568 273 568 273 568 C273 568 273 568 273 568 C254 579 233 586 210 586 C138 586 81 514 81 424 C81 366 130 305 206 282 C283 258 332 204 332 155 C332 71 276 4 207 4 C172 4 139 16 114 35 C114 35 61 131 61 131 C60 135 60 139 60 143 C60 143 55 141 55 141 C55 141 55 141 55 141 C55 141 51 139 51 139 C51 139 51 109 51 109 C51 109 54 109 54 109 L54 109 Z M327 469 C327 469 326 469 326 469 C308 502 293 531 283 549 C305 529 320 501 327 469 L327 469 Z M65 108 C80 83 93 61 102 45 C84 62 71 84 65 108 C65 108 65 108 65 108 L65 108 Z " />
<glyph glyph-name="Tcaron" unicode="&#x164;" horiz-adv-x="475" d="M238 907 C238 907 350 1041 350 1041 C350 1041 369 1041 369 1041 C369 1041 248 891 248 891 C248 891 227 891 227 891 C227 891 107 1041 107 1041 C107 1041 125 1041 125 1041 C125 1041 238 907 238 907 L238 907 Z M238 0 C238 0 249 0 249 0 C249 0 279 0 279 0 C278 0 278 1 279 1 C278 8 278 13 279 13 C279 13 249 66 249 66 C249 66 249 801 249 801 C249 801 399 801 399 801 C399 801 452 771 452 771 C452 771 465 771 465 771 C465 771 465 801 465 801 C465 801 465 806 465 806 C465 806 465 811 465 811 C465 811 249 811 249 811 C249 811 226 811 226 811 C226 811 10 811 10 811 C10 811 10 806 10 806 C10 806 10 801 10 801 C10 801 10 771 10 771 C10 771 23 771 23 771 C23 771 76 801 76 801 C76 801 226 801 226 801 C226 801 226 66 226 66 C226 66 196 13 196 13 C196 13 196 0 196 0 C196 0 226 0 226 0 C226 0 238 0 238 0 L238 0 Z " />
<glyph glyph-name="tcaron" unicode="&#x165;" horiz-adv-x="225" d="M153 821 C153 821 149 671 149 671 C149 671 164 671 164 671 C164 671 175 821 175 821 C175 821 153 821 153 821 L153 821 Z M195 581 C195 581 103 581 103 581 C103 581 103 749 103 749 C103 749 83 732 83 732 C83 732 83 581 83 581 C83 581 10 581 10 581 C10 581 10 573 10 573 C10 573 83 573 83 573 C83 573 83 133 83 133 C83 41 89 0 139 0 C139 0 195 0 195 0 C195 0 195 9 195 9 C195 9 144 9 144 9 C108 9 103 47 103 133 C103 133 103 573 103 573 C103 573 195 573 195 573 C195 573 195 581 195 581 L195 581 Z " />
<glyph glyph-name="Utilde" unicode="&#x168;" horiz-adv-x="532" d="M248 881 C248 915 256 943 265 943 C314 943 235 871 296 871 C312 871 326 905 326 948 C326 948 312 948 312 948 C312 914 304 887 294 887 C245 887 324 958 264 958 C247 958 233 924 233 881 C233 881 248 881 248 881 L248 881 Z M121 745 C121 745 121 318 121 318 C121 118 183 -10 280 -10 C376 -10 438 118 438 318 C438 318 438 745 438 745 C438 745 468 798 468 798 C468 798 468 811 468 811 C468 811 438 811 438 811 C438 811 432 811 432 811 C432 811 426 811 426 811 C426 811 396 811 396 811 C396 811 396 798 396 798 C396 798 426 745 426 745 C426 745 426 321 426 321 C426 125 369 1 280 1 C197 1 144 126 144 322 C144 322 144 745 144 745 C144 745 174 798 174 798 C174 798 174 811 174 811 C174 811 144 811 144 811 C144 811 133 811 133 811 C133 811 121 811 121 811 C121 811 91 811 91 811 C91 811 91 798 91 798 C91 798 121 745 121 745 L121 745 Z " />
<glyph glyph-name="utilde" unicode="&#x169;" horiz-adv-x="412" d="M184 661 C184 695 192 723 201 723 C251 723 171 651 232 651 C249 651 263 685 263 728 C263 728 248 728 248 728 C248 694 240 667 231 667 C181 667 260 738 200 738 C183 738 169 704 169 661 C169 661 184 661 184 661 L184 661 Z M328 66 C328 66 328 581 328 581 C328 581 318 581 318 581 C318 581 308 581 308 581 C308 581 278 581 278 581 C278 581 278 568 278 568 C278 568 308 515 308 515 C308 515 308 149 308 149 C308 66 268 0 218 0 C150 0 124 62 124 159 C124 159 124 581 124 581 C124 581 114 581 114 581 C114 581 104 581 104 581 C104 581 74 581 74 581 C74 581 74 568 74 568 C74 568 104 515 104 515 C104 515 104 159 104 159 C104 56 135 -10 214 -10 C260 -10 297 41 308 109 C308 109 308 10 308 10 C308 10 308 0 308 0 C308 0 318 0 318 0 C318 0 328 0 328 0 C328 0 358 0 358 0 C358 0 358 13 358 13 C358 13 328 66 328 66 L328 66 Z " />
<glyph glyph-name="Umacron" unicode="&#x16a;" horiz-adv-x="532" d="M224 881 C224 881 336 881 336 881 C336 881 336 895 336 895 C336 895 224 895 224 895 C224 895 224 881 224 881 L224 881 Z M121 745 C121 745 121 318 121 318 C121 118 183 -10 280 -10 C376 -10 438 118 438 318 C438 318 438 745 438 745 C438 745 468 798 468 798 C468 798 468 811 468 811 C468 811 438 811 438 811 C438 811 432 811 432 811 C432 811 426 811 426 811 C426 811 396 811 396 811 C396 811 396 798 396 798 C396 798 426 745 426 745 C426 745 426 321 426 321 C426 125 369 1 280 1 C197 1 144 126 144 322 C144 322 144 745 144 745 C144 745 174 798 174 798 C174 798 174 811 174 811 C174 811 144 811 144 811 C144 811 133 811 133 811 C133 811 121 811 121 811 C121 811 91 811 91 811 C91 811 91 798 91 798 C91 798 121 745 121 745 L121 745 Z " />
<glyph glyph-name="umacron" unicode="&#x16b;" horiz-adv-x="412" d="M160 661 C160 661 272 661 272 661 C272 661 272 675 272 675 C272 675 160 675 160 675 C160 675 160 661 160 661 L160 661 Z M328 66 C328 66 328 581 328 581 C328 581 318 581 318 581 C318 581 308 581 308 581 C308 581 278 581 278 581 C278 581 278 568 278 568 C278 568 308 515 308 515 C308 515 308 149 308 149 C308 66 268 0 218 0 C150 0 124 62 124 159 C124 159 124 581 124 581 C124 581 114 581 114 581 C114 581 104 581 104 581 C104 581 74 581 74 581 C74 581 74 568 74 568 C74 568 104 515 104 515 C104 515 104 159 104 159 C104 56 135 -10 214 -10 C260 -10 297 41 308 109 C308 109 308 10 308 10 C308 10 308 0 308 0 C308 0 318 0 318 0 C318 0 328 0 328 0 C328 0 358 0 358 0 C358 0 358 13 358 13 C358 13 328 66 328 66 L328 66 Z " />
<glyph glyph-name="Ubreve" unicode="&#x16c;" horiz-adv-x="532" d="M224 987 C224 923 249 871 280 871 C310 871 335 923 335 987 C335 987 320 987 320 987 C320 930 302 885 280 885 C257 885 239 930 239 987 C239 987 224 987 224 987 L224 987 Z M121 745 C121 745 121 318 121 318 C121 118 183 -10 280 -10 C376 -10 438 118 438 318 C438 318 438 745 438 745 C438 745 468 798 468 798 C468 798 468 811 468 811 C468 811 438 811 438 811 C438 811 432 811 432 811 C432 811 426 811 426 811 C426 811 396 811 396 811 C396 811 396 798 396 798 C396 798 426 745 426 745 C426 745 426 321 426 321 C426 125 369 1 280 1 C197 1 144 126 144 322 C144 322 144 745 144 745 C144 745 174 798 174 798 C174 798 174 811 174 811 C174 811 144 811 144 811 C144 811 133 811 133 811 C133 811 121 811 121 811 C121 811 91 811 91 811 C91 811 91 798 91 798 C91 798 121 745 121 745 L121 745 Z " />
<glyph glyph-name="ubreve" unicode="&#x16d;" horiz-adv-x="412" d="M160 767 C160 703 185 651 216 651 C247 651 272 703 272 767 C272 767 257 767 257 767 C257 710 239 665 216 665 C193 665 175 710 175 767 C175 767 160 767 160 767 L160 767 Z M328 66 C328 66 328 581 328 581 C328 581 318 581 318 581 C318 581 308 581 308 581 C308 581 278 581 278 581 C278 581 278 568 278 568 C278 568 308 515 308 515 C308 515 308 149 308 149 C308 66 268 0 218 0 C150 0 124 62 124 159 C124 159 124 581 124 581 C124 581 114 581 114 581 C114 581 104 581 104 581 C104 581 74 581 74 581 C74 581 74 568 74 568 C74 568 104 515 104 515 C104 515 104 159 104 159 C104 56 135 -10 214 -10 C260 -10 297 41 308 109 C308 109 308 10 308 10 C308 10 308 0 308 0 C308 0 318 0 318 0 C318 0 328 0 328 0 C328 0 358 0 358 0 C358 0 358 13 358 13 C358 13 328 66 328 66 L328 66 Z " />
<glyph glyph-name="Uring" unicode="&#x16e;" horiz-adv-x="532" d="M280 890 C238 890 211 920 211 966 C211 1010 240 1042 280 1042 C319 1042 348 1010 348 966 C348 920 321 890 280 890 L280 890 Z M201 966 C201 914 232 881 280 881 C327 881 358 914 358 966 C358 1016 325 1051 280 1051 C234 1051 201 1016 201 966 L201 966 Z M121 745 C121 745 121 318 121 318 C121 118 183 -10 280 -10 C376 -10 438 118 438 318 C438 318 438 745 438 745 C438 745 468 798 468 798 C468 798 468 811 468 811 C468 811 438 811 438 811 C438 811 432 811 432 811 C432 811 426 811 426 811 C426 811 396 811 396 811 C396 811 396 798 396 798 C396 798 426 745 426 745 C426 745 426 321 426 321 C426 125 369 1 280 1 C197 1 144 126 144 322 C144 322 144 745 144 745 C144 745 174 798 174 798 C174 798 174 811 174 811 C174 811 144 811 144 811 C144 811 133 811 133 811 C133 811 121 811 121 811 C121 811 91 811 91 811 C91 811 91 798 91 798 C91 798 121 745 121 745 L121 745 Z " />
<glyph glyph-name="uring" unicode="&#x16f;" horiz-adv-x="412" d="M216 670 C174 670 147 700 147 746 C147 790 176 822 216 822 C256 822 285 790 285 746 C285 700 258 670 216 670 L216 670 Z M138 746 C138 694 168 661 216 661 C264 661 294 694 294 746 C294 796 261 831 216 831 C170 831 138 796 138 746 L138 746 Z M328 66 C328 66 328 581 328 581 C328 581 318 581 318 581 C318 581 308 581 308 581 C308 581 278 581 278 581 C278 581 278 568 278 568 C278 568 308 515 308 515 C308 515 308 149 308 149 C308 66 268 0 218 0 C150 0 124 62 124 159 C124 159 124 581 124 581 C124 581 114 581 114 581 C114 581 104 581 104 581 C104 581 74 581 74 581 C74 581 74 568 74 568 C74 568 104 515 104 515 C104 515 104 159 104 159 C104 56 135 -10 214 -10 C260 -10 297 41 308 109 C308 109 308 10 308 10 C308 10 308 0 308 0 C308 0 318 0 318 0 C318 0 328 0 328 0 C328 0 358 0 358 0 C358 0 358 13 358 13 C358 13 328 66 328 66 L328 66 Z " />
<glyph glyph-name="Wcircumflex" unicode="&#x174;" horiz-adv-x="646" d="M338 1025 C338 1025 451 891 451 891 C451 891 469 891 469 891 C469 891 348 1041 348 1041 C348 1041 328 1041 328 1041 C328 1041 207 891 207 891 C207 891 225 891 225 891 C225 891 338 1025 338 1025 L338 1025 Z M80 745 C80 745 80 745 80 745 C80 745 195 0 195 0 C195 0 206 0 206 0 C206 0 216 0 216 0 C216 0 338 773 338 773 C338 773 459 0 459 0 C459 0 470 0 470 0 C470 0 481 0 481 0 C481 0 596 745 596 745 C596 745 596 745 596 745 C596 745 634 798 634 798 C634 798 634 811 634 811 C634 811 606 811 606 811 C606 811 600 811 600 811 C600 811 593 811 593 811 C593 811 563 811 563 811 C563 811 563 798 563 798 C563 798 583 745 583 745 C583 745 475 36 475 36 C475 36 354 811 354 811 C354 811 344 811 344 811 C344 811 332 811 332 811 C332 811 211 33 211 33 C211 33 104 745 104 745 C104 745 104 745 104 745 C104 745 124 798 124 798 C124 798 124 811 124 811 C124 811 94 811 94 811 C94 811 82 811 82 811 C82 811 70 811 70 811 C70 811 42 811 42 811 C42 811 42 798 42 798 C42 798 80 745 80 745 L80 745 Z " />
<glyph glyph-name="Ycircumflex" unicode="&#x176;" horiz-adv-x="507" d="M271 1025 C271 1025 383 891 383 891 C383 891 402 891 402 891 C402 891 281 1041 281 1041 C281 1041 261 1041 261 1041 C261 1041 140 891 140 891 C140 891 158 891 158 891 C158 891 271 1025 271 1025 L271 1025 Z M441 745 C441 745 441 745 441 745 C441 745 276 381 276 381 C276 381 110 745 110 745 C110 745 110 798 110 798 C111 798 111 803 110 810 C111 811 111 811 110 811 C110 811 80 811 80 811 C80 811 69 811 69 811 C69 811 59 811 59 811 C59 811 35 811 35 811 C35 811 35 798 35 798 C35 798 89 745 89 745 C89 745 89 745 89 745 C89 745 261 369 261 369 C261 369 261 66 261 66 C261 66 231 13 231 13 C231 13 231 0 231 0 C231 0 261 0 261 0 C261 0 272 0 272 0 C272 0 283 0 283 0 C283 0 313 0 313 0 C313 0 313 13 313 13 C313 13 283 66 283 66 C283 66 283 372 283 372 C283 372 453 745 453 745 C453 745 453 745 453 745 C453 745 507 798 507 798 C507 798 507 811 507 811 C507 811 483 811 483 811 C483 811 477 811 477 811 C477 811 471 811 471 811 C471 811 441 811 441 811 C441 811 441 745 441 745 L441 745 Z " />
<glyph glyph-name="Ydieresis" unicode="&#x178;" horiz-adv-x="507" d="M302 891 C302 891 362 891 362 891 C362 891 362 951 362 951 C362 951 302 951 302 951 C302 951 302 891 302 891 L302 891 Z M179 891 C179 891 239 891 239 891 C239 891 239 951 239 951 C239 951 179 951 179 951 C179 951 179 891 179 891 L179 891 Z M441 745 C441 745 441 745 441 745 C441 745 276 381 276 381 C276 381 110 745 110 745 C110 745 110 798 110 798 C111 798 111 803 110 810 C111 811 111 811 110 811 C110 811 80 811 80 811 C80 811 69 811 69 811 C69 811 59 811 59 811 C59 811 35 811 35 811 C35 811 35 798 35 798 C35 798 89 745 89 745 C89 745 89 745 89 745 C89 745 261 369 261 369 C261 369 261 66 261 66 C261 66 231 13 231 13 C231 13 231 0 231 0 C231 0 261 0 261 0 C261 0 272 0 272 0 C272 0 283 0 283 0 C283 0 313 0 313 0 C313 0 313 13 313 13 C313 13 283 66 283 66 C283 66 283 372 283 372 C283 372 453 745 453 745 C453 745 453 745 453 745 C453 745 507 798 507 798 C507 798 507 811 507 811 C507 811 483 811 483 811 C483 811 477 811 477 811 C477 811 471 811 471 811 C471 811 441 811 441 811 C441 811 441 745 441 745 L441 745 Z " />
<glyph glyph-name="Zacute" unicode="&#x179;" horiz-adv-x="535" d="M266 891 C266 891 284 891 284 891 C284 891 318 1041 318 1041 C318 1041 292 1041 292 1041 C292 1041 266 891 266 891 L266 891 Z M490 5 C490 5 490 10 490 10 C490 10 490 40 490 40 C490 40 477 40 477 40 C477 40 424 10 424 10 C424 10 68 10 68 10 C68 10 490 801 490 801 C490 801 490 811 490 811 C490 811 60 811 60 811 C60 811 60 806 60 806 C60 806 60 801 60 801 C60 801 60 771 60 771 C60 771 73 771 73 771 C73 771 126 801 126 801 C126 801 467 801 467 801 C467 801 45 10 45 10 C45 10 45 0 45 0 C45 0 490 0 490 0 C490 0 490 5 490 5 L490 5 Z " />
<glyph glyph-name="zacute" unicode="&#x17a;" horiz-adv-x="340" d="M173 661 C173 661 192 661 192 661 C192 661 226 811 226 811 C226 811 199 811 199 811 C199 811 173 661 173 661 L173 661 Z M45 581 C45 581 45 577 45 577 C45 577 45 573 45 573 C45 573 45 543 45 543 C45 543 58 543 58 543 C58 543 111 573 111 573 C111 573 280 573 280 573 C280 573 30 7 30 7 C30 7 30 0 30 0 C30 0 320 0 320 0 C320 0 320 4 320 4 C320 4 320 9 320 9 C320 9 320 38 320 38 C320 38 307 38 307 38 C307 38 254 9 254 9 C254 9 53 9 53 9 C53 9 304 574 304 574 C304 574 304 581 304 581 C304 581 45 581 45 581 L45 581 Z " />
<glyph glyph-name="Zdotaccent" unicode="&#x17b;" horiz-adv-x="535" d="M245 891 C245 891 305 891 305 891 C305 891 305 951 305 951 C305 951 245 951 245 951 C245 951 245 891 245 891 L245 891 Z M490 5 C490 5 490 10 490 10 C490 10 490 40 490 40 C490 40 477 40 477 40 C477 40 424 10 424 10 C424 10 68 10 68 10 C68 10 490 801 490 801 C490 801 490 811 490 811 C490 811 60 811 60 811 C60 811 60 806 60 806 C60 806 60 801 60 801 C60 801 60 771 60 771 C60 771 73 771 73 771 C73 771 126 801 126 801 C126 801 467 801 467 801 C467 801 45 10 45 10 C45 10 45 0 45 0 C45 0 490 0 490 0 C490 0 490 5 490 5 L490 5 Z " />
<glyph glyph-name="zdotaccent" unicode="&#x17c;" horiz-adv-x="340" d="M153 661 C153 661 213 661 213 661 C213 661 213 721 213 721 C213 721 153 721 153 721 C153 721 153 661 153 661 L153 661 Z M45 581 C45 581 45 577 45 577 C45 577 45 573 45 573 C45 573 45 543 45 543 C45 543 58 543 58 543 C58 543 111 573 111 573 C111 573 280 573 280 573 C280 573 30 7 30 7 C30 7 30 0 30 0 C30 0 320 0 320 0 C320 0 320 4 320 4 C320 4 320 9 320 9 C320 9 320 38 320 38 C320 38 307 38 307 38 C307 38 254 9 254 9 C254 9 53 9 53 9 C53 9 304 574 304 574 C304 574 304 581 304 581 C304 581 45 581 45 581 L45 581 Z " />
<glyph glyph-name="Zcaron" unicode="&#x17d;" horiz-adv-x="535" d="M275 907 C275 907 388 1041 388 1041 C388 1041 406 1041 406 1041 C406 1041 285 891 285 891 C285 891 265 891 265 891 C265 891 144 1041 144 1041 C144 1041 162 1041 162 1041 C162 1041 275 907 275 907 L275 907 Z M490 5 C490 5 490 10 490 10 C490 10 490 40 490 40 C490 40 477 40 477 40 C477 40 424 10 424 10 C424 10 68 10 68 10 C68 10 490 801 490 801 C490 801 490 811 490 811 C490 811 60 811 60 811 C60 811 60 806 60 806 C60 806 60 801 60 801 C60 801 60 771 60 771 C60 771 73 771 73 771 C73 771 126 801 126 801 C126 801 467 801 467 801 C467 801 45 10 45 10 C45 10 45 0 45 0 C45 0 490 0 490 0 C490 0 490 5 490 5 L490 5 Z " />
<glyph glyph-name="zcaron" unicode="&#x17e;" horiz-adv-x="340" d="M183 677 C183 677 295 811 295 811 C295 811 314 811 314 811 C314 811 193 661 193 661 C193 661 172 661 172 661 C172 661 52 811 52 811 C52 811 70 811 70 811 C70 811 183 677 183 677 L183 677 Z M45 581 C45 581 45 577 45 577 C45 577 45 573 45 573 C45 573 45 543 45 543 C45 543 58 543 58 543 C58 543 111 573 111 573 C111 573 280 573 280 573 C280 573 30 7 30 7 C30 7 30 0 30 0 C30 0 320 0 320 0 C320 0 320 4 320 4 C320 4 320 9 320 9 C320 9 320 38 320 38 C320 38 307 38 307 38 C307 38 254 9 254 9 C254 9 53 9 53 9 C53 9 304 574 304 574 C304 574 304 581 304 581 C304 581 45 581 45 581 L45 581 Z " />
<glyph glyph-name="SmallLetterBwithstro" unicode="&#x180;" horiz-adv-x="40" d="" />
<glyph glyph-name="SmallLetterOwithogon" unicode="&#x1eb;" horiz-adv-x="670" d="M86 329 C86 141 203 -10 350 -10 C374 -10 397 -6 419 2 C419 2 588 -90 588 -90 C588 -90 599 -77 599 -77 C599 -77 432 6 432 6 C539 50 615 178 615 329 C615 508 490 668 350 668 C211 668 86 508 86 329 L86 329 Z M407 8 C389 2 370 -1 350 -1 C215 -1 107 146 107 329 C107 503 222 659 350 659 C478 659 593 503 593 329 C593 179 520 53 420 13 C420 13 377 34 377 34 C377 34 372 27 372 27 C372 27 407 8 407 8 L407 8 Z " />
<glyph glyph-name="CapitalLetterAwithdo" unicode="&#x226;" horiz-adv-x="637" d="M305 891 C305 891 365 891 365 891 C365 891 365 951 365 951 C365 951 305 951 305 951 C305 951 305 891 305 891 L305 891 Z M90 66 C90 66 90 66 90 66 C90 66 153 260 153 260 C153 260 505 260 505 260 C505 260 569 65 569 65 C569 65 560 13 560 13 C560 13 560 0 560 0 C560 0 590 0 590 0 C590 0 601 0 601 0 C601 0 613 0 613 0 C613 0 638 0 638 0 C638 0 638 13 638 13 C638 13 591 66 591 66 C591 66 346 811 346 811 C346 811 334 811 334 811 C334 811 328 811 328 811 C328 811 324 811 324 811 C324 811 322 811 322 811 C322 811 292 811 292 811 C292 811 292 798 292 798 C292 798 301 746 301 746 C301 746 77 65 77 65 C77 65 30 13 30 13 C30 13 30 0 30 0 C30 0 56 0 56 0 C56 0 62 0 62 0 C62 0 68 0 68 0 C68 0 98 0 98 0 C98 0 98 13 98 13 C98 13 90 66 90 66 L90 66 Z M156 269 C156 269 329 796 329 796 C329 796 502 269 502 269 C502 269 156 269 156 269 L156 269 Z " />
<glyph glyph-name="LETTERSMALLCAPITALG" unicode="&#x262;" horiz-adv-x="628" d="M415 348 C415 348 573 348 573 348 C573 348 573 110 573 110 C499 48 405 -1 351 -1 C213 -1 102 146 102 329 C102 512 213 659 351 659 C409 659 461 638 498 604 C498 604 555 492 555 492 C555 488 555 484 555 480 C555 480 559 483 559 483 C559 483 559 483 559 483 C559 483 562 486 562 486 C562 486 562 516 562 516 C562 516 559 516 559 516 C552 556 529 591 497 618 C497 618 497 618 497 618 C497 618 497 618 497 618 C459 649 408 668 351 668 C201 668 81 517 81 329 C81 141 201 -10 351 -10 C410 -10 508 41 583 105 C583 105 583 357 583 357 C583 357 415 357 415 357 C415 357 415 348 415 348 L415 348 Z M551 516 C551 516 549 516 549 516 C534 546 520 573 510 592 C530 570 544 544 551 516 L551 516 Z " />
<glyph glyph-name="LETTERSMALLCAPITALI" unicode="&#x26a;" horiz-adv-x="221" d="M112 0 C112 0 122 0 122 0 C122 0 152 0 152 0 C151 0 151 1 152 1 C151 8 151 13 152 13 C152 13 122 66 122 66 C122 66 122 592 122 592 C122 592 152 645 152 645 C151 645 151 650 152 656 C151 657 151 658 152 658 C152 658 122 658 122 658 C122 658 112 658 112 658 C112 658 102 658 102 658 C102 658 72 658 72 658 C72 658 72 645 72 645 C72 645 102 592 102 592 C102 592 102 66 102 66 C102 66 72 13 72 13 C72 13 72 0 72 0 C72 0 102 0 102 0 C102 0 112 0 112 0 L112 0 Z " />
<glyph glyph-name="LETTERSMALLCAPITALN" unicode="&#x274;" horiz-adv-x="481" d="M370 592 C370 592 370 22 370 22 C370 22 142 650 142 650 C142 650 142 658 142 658 C142 658 139 658 139 658 C139 658 137 658 137 658 C137 658 131 658 131 658 C131 658 101 658 101 658 C101 658 101 645 101 645 C101 645 131 592 131 592 C131 592 131 66 131 66 C131 66 101 13 101 13 C101 13 101 0 101 0 C101 0 131 0 131 0 C131 0 137 0 137 0 C137 0 142 0 142 0 C142 0 172 0 172 0 C172 0 172 13 172 13 C172 13 142 66 142 66 C142 66 142 628 142 628 C142 628 370 0 370 0 C370 0 378 0 378 0 C378 0 381 0 381 0 C381 0 381 592 381 592 C381 592 411 645 411 645 C412 645 412 650 411 656 C412 657 412 658 411 658 C411 658 381 658 381 658 C381 658 376 658 376 658 C376 658 370 658 370 658 C370 658 341 658 341 658 C341 658 341 645 341 645 C341 645 370 592 370 592 L370 592 Z " />
<glyph glyph-name="LETTERSMALLCAPITALR" unicode="&#x280;" horiz-adv-x="509" d="M488 13 C488 13 430 66 430 66 C430 66 312 289 312 289 C312 289 289 289 289 289 C289 289 442 0 442 0 C442 0 453 0 453 0 C453 0 465 0 465 0 C465 0 488 0 488 0 C488 0 488 13 488 13 L488 13 Z M139 0 C139 0 149 0 149 0 C149 0 179 0 179 0 C179 0 179 13 179 13 C179 13 149 66 149 66 C149 66 149 292 149 292 C149 292 305 292 305 292 C400 292 460 358 460 460 C460 581 400 658 305 658 C305 658 149 658 149 658 C149 658 139 658 139 658 C139 658 134 658 134 658 C134 658 129 658 129 658 C129 658 99 658 99 658 C99 658 99 645 99 645 C99 645 129 592 129 592 C129 592 129 66 129 66 C129 66 99 13 99 13 C99 13 99 0 99 0 C99 0 129 0 129 0 C129 0 139 0 139 0 L139 0 Z M149 301 C149 301 149 649 149 649 C149 649 304 649 304 649 C387 649 440 576 440 460 C440 363 388 301 305 301 C305 301 149 301 149 301 L149 301 Z " />
<glyph glyph-name="LETTERSMALLCAPITALY" unicode="&#x28f;" horiz-adv-x="483" d="M480 658 C480 658 459 658 459 658 C459 658 453 658 453 658 C453 658 447 658 447 658 C447 658 417 658 417 658 C417 658 417 645 417 645 C417 645 404 592 404 592 C404 592 263 380 263 380 C263 380 124 592 124 592 C124 592 110 645 110 645 C110 645 110 658 110 658 C110 658 80 658 80 658 C80 658 69 658 69 658 C69 658 59 658 59 658 C59 658 37 658 37 658 C37 658 37 645 37 645 C37 645 102 592 102 592 C102 592 103 592 103 592 C103 592 250 369 250 369 C250 369 250 66 250 66 C250 66 220 13 220 13 C220 13 220 0 220 0 C220 0 250 0 250 0 C250 0 260 0 260 0 C260 0 270 0 270 0 C270 0 300 0 300 0 C300 0 300 13 300 13 C300 13 270 66 270 66 C270 66 270 373 270 373 C270 373 396 563 396 563 C396 563 392 547 392 547 C394 553 395 559 397 564 C397 564 416 592 416 592 C416 592 480 645 480 645 C480 645 480 658 480 658 L480 658 Z " />
<glyph glyph-name="LETTERSMALLCAPITALB" unicode="&#x299;" horiz-adv-x="594" d="M340 351 C426 362 490 416 490 483 C490 600 422 658 287 658 C287 658 149 658 149 658 C149 658 139 658 139 658 C139 658 129 658 129 658 C129 658 99 658 99 658 C99 658 99 645 99 645 C99 645 129 592 129 592 C129 592 129 66 129 66 C129 66 99 13 99 13 C99 13 99 0 99 0 C99 0 129 0 129 0 C129 0 139 0 139 0 C139 0 149 0 149 0 C149 0 356 0 356 0 C491 0 559 64 559 192 C559 280 482 351 386 351 C386 351 340 351 340 351 L340 351 Z M149 353 C149 353 149 649 149 649 C149 649 288 649 288 649 C409 649 469 593 469 481 C469 410 395 353 304 353 C304 353 149 353 149 353 L149 353 Z M149 8 C149 8 149 345 149 345 C149 345 379 345 379 345 C467 345 538 278 538 195 C538 71 476 9 353 9 C296 9 206 8 149 8 L149 8 Z " />
<glyph glyph-name="LETTERSMALLCAPITALH" unicode="&#x29c;" horiz-adv-x="523" d="M414 0 C414 0 424 0 424 0 C424 0 454 0 454 0 C453 0 453 1 454 1 C453 8 453 13 454 13 C454 13 424 66 424 66 C424 66 424 592 424 592 C424 592 454 645 454 645 C453 645 453 650 454 656 C453 657 453 658 454 658 C454 658 424 658 424 658 C424 658 414 658 414 658 C414 658 404 658 404 658 C404 658 374 658 374 658 C374 658 374 645 374 645 C374 645 404 592 404 592 C404 592 404 327 404 327 C404 327 149 327 149 327 C149 327 149 592 149 592 C149 592 179 645 179 645 C179 645 179 658 179 658 C179 658 149 658 149 658 C149 658 139 658 139 658 C139 658 129 658 129 658 C129 658 99 658 99 658 C99 658 99 645 99 645 C99 645 129 592 129 592 C129 592 129 66 129 66 C129 66 99 13 99 13 C99 13 99 0 99 0 C99 0 129 0 129 0 C129 0 139 0 139 0 C139 0 149 0 149 0 C149 0 179 0 179 0 C179 0 179 13 179 13 C179 13 149 66 149 66 C149 66 149 318 149 318 C149 318 404 318 404 318 C404 318 404 66 404 66 C404 66 374 13 374 13 C374 13 374 0 374 0 C374 0 404 0 404 0 C404 0 414 0 414 0 L414 0 Z " />
<glyph glyph-name="LETTERSMALLCAPITALL" unicode="&#x29f;" horiz-adv-x="347" d="M303 4 C303 4 303 9 303 9 C303 9 303 39 303 39 C303 39 290 39 290 39 C290 39 237 9 237 9 C237 9 122 9 122 9 C122 9 122 592 122 592 C122 592 152 645 152 645 C151 645 151 650 152 656 C151 657 151 658 152 658 C152 658 122 658 122 658 C122 658 112 658 112 658 C112 658 102 658 102 658 C102 658 72 658 72 658 C72 658 72 645 72 645 C72 645 102 592 102 592 C102 592 102 66 102 66 C102 66 72 13 72 13 C72 13 72 0 72 0 C72 0 102 0 102 0 C102 0 112 0 112 0 C112 0 122 0 122 0 C122 0 303 0 303 0 C303 0 303 4 303 4 L303 4 Z " />
<glyph glyph-name="LETTERSMALLCAPITALA" unicode="&#x1d00;" horiz-adv-x="613" d="M563 66 C563 66 562 66 562 66 C562 66 332 658 332 658 C332 658 322 658 322 658 C322 658 316 658 316 658 C316 658 313 658 313 658 C313 658 311 658 311 658 C311 658 281 658 281 658 C282 658 282 657 281 656 C282 650 282 645 281 645 C281 645 286 593 286 593 C286 593 81 65 81 65 C81 65 31 13 31 13 C31 13 31 0 31 0 C31 0 56 0 56 0 C56 0 62 0 62 0 C62 0 67 0 67 0 C67 0 97 0 97 0 C97 0 97 13 97 13 C97 13 92 65 92 65 C92 65 148 210 148 210 C148 210 487 210 487 210 C487 210 484 218 484 218 C484 218 151 218 151 218 C151 218 318 646 318 646 C318 646 543 66 543 66 C543 66 543 66 543 66 C543 66 539 13 539 13 C539 13 539 0 539 0 C539 0 569 0 569 0 C569 0 578 0 578 0 C578 0 588 0 588 0 C588 0 613 0 613 0 C613 0 613 13 613 13 C613 13 563 66 563 66 L563 66 Z " />
<glyph glyph-name="LETTERSMALLCAPITALC" unicode="&#x1d04;" horiz-adv-x="577" d="M550 178 C550 79 450 -1 326 -1 C202 -1 102 164 102 329 C102 494 202 659 326 659 C394 659 455 635 496 597 C496 597 550 492 550 492 C550 488 550 484 550 480 C550 480 554 483 554 483 C554 483 558 486 558 486 C558 486 558 516 558 516 C558 516 555 516 555 516 C547 554 525 587 492 613 C492 614 492 614 492 614 C492 614 492 614 492 614 C450 647 391 668 326 668 C190 668 81 498 81 329 C81 159 190 -10 326 -10 C455 -10 558 71 558 171 C558 171 550 178 550 178 L550 178 Z M545 516 C545 516 544 516 544 516 C530 543 517 568 507 585 C526 565 539 542 545 516 L545 516 Z " />
<glyph glyph-name="LETTERSMALLCAPITALD" unicode="&#x1d05;" horiz-adv-x="634" d="M139 0 C139 0 149 0 149 0 C149 0 291 0 291 0 C472 0 579 122 579 329 C579 530 455 658 261 658 C261 658 149 658 149 658 C149 658 139 658 139 658 C139 658 129 658 129 658 C129 658 99 658 99 658 C99 658 99 645 99 645 C99 645 129 592 129 592 C129 592 129 66 129 66 C129 66 99 13 99 13 C99 13 99 0 99 0 C99 0 129 0 129 0 C129 0 139 0 139 0 L139 0 Z M149 8 C149 8 149 649 149 649 C149 649 262 649 262 649 C443 649 558 524 558 329 C558 127 458 8 291 8 C291 8 149 8 149 8 L149 8 Z " />
<glyph glyph-name="LETTERSMALLCAPITALE" unicode="&#x1d07;" horiz-adv-x="430" d="M380 4 C380 4 380 9 380 9 C380 9 380 39 380 39 C380 39 367 39 367 39 C367 39 314 9 314 9 C314 9 149 9 149 9 C149 9 149 321 149 321 C149 321 279 321 279 321 C279 321 332 291 332 291 C332 291 345 291 345 291 C345 291 345 321 345 321 C345 321 345 325 345 325 C345 325 345 329 345 329 C345 329 345 359 345 359 C345 359 332 359 332 359 C332 359 279 329 279 329 C279 329 149 329 149 329 C149 329 149 649 149 649 C149 649 299 649 299 649 C299 649 352 619 352 619 C352 619 365 619 365 619 C365 619 365 649 365 649 C365 649 365 653 365 653 C365 653 365 658 365 658 C365 658 149 658 149 658 C149 658 148 658 148 658 C148 658 139 658 139 658 C139 658 129 658 129 658 C129 658 99 658 99 658 C99 658 99 645 99 645 C99 645 129 592 129 592 C129 592 129 66 129 66 C129 66 99 13 99 13 C99 13 99 0 99 0 C99 0 129 0 129 0 C129 0 139 0 139 0 C139 0 148 0 148 0 C148 0 149 0 149 0 C149 0 380 0 380 0 C380 0 380 4 380 4 L380 4 Z " />
<glyph glyph-name="LETTERSMALLCAPITALJ" unicode="&#x1d0a;" horiz-adv-x="313" d="M76 284 C76 284 76 224 76 224 C76 74 103 -10 152 -10 C198 -10 228 80 228 193 C228 193 228 592 228 592 C228 592 258 645 258 645 C258 645 258 658 258 658 C258 658 228 658 228 658 C228 658 218 658 218 658 C218 658 208 658 208 658 C208 658 178 658 178 658 C178 658 178 645 178 645 C178 645 208 592 208 592 C208 592 208 193 208 193 C208 86 186 0 152 0 C116 0 96 83 96 229 C96 229 96 288 96 288 C96 288 76 284 76 284 L76 284 Z " />
<glyph glyph-name="LETTERSMALLCAPITALK" unicode="&#x1d0b;" horiz-adv-x="425" d="M380 658 C380 658 357 658 357 658 C357 658 351 658 351 658 C351 658 346 658 346 658 C346 658 316 658 316 658 C315 658 315 657 316 656 C315 650 315 645 316 645 C316 645 311 592 311 592 C311 592 310 592 310 592 C310 592 311 592 311 592 C311 592 308 567 308 567 C308 567 321 592 321 592 C321 592 322 592 322 592 C322 592 380 645 380 645 C380 645 380 658 380 658 L380 658 Z M383 66 C383 66 383 66 383 66 C383 66 219 402 219 402 C219 402 215 394 215 394 C215 394 308 567 308 567 C309 579 310 588 310 591 C310 591 134 264 134 264 C134 264 134 592 134 592 C134 592 164 645 164 645 C164 645 164 658 164 658 C164 658 134 658 134 658 C134 658 124 658 124 658 C124 658 114 658 114 658 C114 658 84 658 84 658 C84 658 84 645 84 645 C84 645 114 592 114 592 C114 592 114 66 114 66 C114 66 84 13 84 13 C84 13 84 0 84 0 C84 0 114 0 114 0 C114 0 124 0 124 0 C124 0 134 0 134 0 C134 0 164 0 164 0 C164 0 164 13 164 13 C164 13 134 66 134 66 C134 66 134 245 134 245 C134 245 209 384 209 384 C209 384 363 66 363 66 C363 66 363 66 363 66 C363 66 365 13 365 13 C365 13 365 0 365 0 C365 0 395 0 395 0 C395 0 405 0 405 0 C405 0 415 0 415 0 C415 0 439 0 439 0 C439 0 439 13 439 13 C439 13 383 66 383 66 L383 66 Z M308 567 C308 567 308 567 308 567 C308 567 306 547 306 547 C307 554 307 561 308 567 L308 567 Z M310 591 C310 592 310 592 310 592 C310 592 310 592 310 592 C310 592 310 591 310 591 L310 591 Z " />
<glyph glyph-name="LETTERSMALLCAPITALM" unicode="&#x1d0d;" horiz-adv-x="678" d="M569 0 C569 0 579 0 579 0 C579 0 609 0 609 0 C609 0 609 13 609 13 C609 13 579 66 579 66 C579 66 579 592 579 592 C579 592 609 645 609 645 C609 645 609 658 609 658 C609 658 579 658 579 658 C579 658 569 658 569 658 C569 658 563 658 563 658 C563 658 559 658 559 658 C559 658 553 658 553 658 C553 658 355 16 355 16 C355 16 156 658 156 658 C156 658 142 658 142 658 C142 658 138 658 138 658 C138 658 137 658 137 658 C137 658 131 658 131 658 C131 658 101 658 101 658 C101 658 101 645 101 645 C101 645 131 592 131 592 C131 592 131 66 131 66 C131 66 101 13 101 13 C101 13 101 0 101 0 C101 0 131 0 131 0 C131 0 137 0 137 0 C137 0 142 0 142 0 C142 0 172 0 172 0 C172 0 172 13 172 13 C172 13 142 66 142 66 C142 66 142 645 142 645 C142 645 342 0 342 0 C342 0 350 0 350 0 C350 0 360 0 360 0 C360 0 559 645 559 645 C559 645 559 66 559 66 C559 66 529 13 529 13 C529 13 529 0 529 0 C529 0 559 0 559 0 C559 0 569 0 569 0 L569 0 Z " />
<glyph glyph-name="LETTERSMALLCAPITALO" unicode="&#x1d0f;" horiz-adv-x="670" d="M350 -1 C215 -1 107 146 107 329 C107 503 222 659 350 659 C478 659 593 503 593 329 C593 146 485 -1 350 -1 L350 -1 Z M86 329 C86 141 203 -10 350 -10 C497 -10 615 141 615 329 C615 508 490 668 350 668 C211 668 86 508 86 329 L86 329 Z " />
<glyph glyph-name="LETTERSMALLCAPITALP" unicode="&#x1d18;" horiz-adv-x="494" d="M139 0 C139 0 149 0 149 0 C149 0 179 0 179 0 C179 0 179 13 179 13 C179 13 149 66 149 66 C149 66 149 276 149 276 C149 276 305 276 305 276 C400 276 460 348 460 460 C460 581 400 658 305 658 C305 658 149 658 149 658 C149 658 139 658 139 658 C139 658 134 658 134 658 C134 658 129 658 129 658 C129 658 99 658 99 658 C99 658 99 645 99 645 C99 645 129 592 129 592 C129 592 129 66 129 66 C129 66 99 13 99 13 C99 13 99 0 99 0 C99 0 129 0 129 0 C129 0 139 0 139 0 L139 0 Z M149 284 C149 284 149 649 149 649 C149 649 304 649 304 649 C387 649 440 576 440 460 C440 353 388 284 305 284 C305 284 149 284 149 284 L149 284 Z " />
<glyph glyph-name="LETTERSMALLCAPITALT" unicode="&#x1d1b;" horiz-adv-x="451" d="M226 0 C226 0 236 0 236 0 C236 0 266 0 266 0 C265 0 265 1 266 1 C265 8 265 13 266 13 C266 13 236 66 236 66 C236 66 236 649 236 649 C236 649 375 649 375 649 C375 649 428 619 428 619 C428 619 441 619 441 619 C441 619 441 649 441 649 C441 649 441 653 441 653 C441 653 441 658 441 658 C441 658 236 658 236 658 C236 658 215 658 215 658 C215 658 10 658 10 658 C10 658 10 653 10 653 C10 653 10 649 10 649 C10 649 10 619 10 619 C10 619 23 619 23 619 C23 619 76 649 76 649 C76 649 215 649 215 649 C215 649 215 66 215 66 C215 66 185 13 185 13 C185 13 185 0 185 0 C185 0 215 0 215 0 C215 0 226 0 226 0 L226 0 Z " />
<glyph glyph-name="LETTERSMALLCAPITALU" unicode="&#x1d1c;" horiz-adv-x="506" d="M122 592 C122 592 122 258 122 258 C122 94 178 -10 267 -10 C356 -10 412 94 412 258 C412 258 412 592 412 592 C412 592 442 645 442 645 C442 645 442 658 442 658 C442 658 412 658 412 658 C412 658 406 658 406 658 C406 658 401 658 401 658 C401 658 371 658 371 658 C371 658 371 645 371 645 C371 645 401 592 401 592 C401 592 401 260 401 260 C401 101 349 0 267 0 C191 0 142 102 142 261 C142 261 142 592 142 592 C142 592 172 645 172 645 C172 645 172 658 172 658 C172 658 142 658 142 658 C142 658 132 658 132 658 C132 658 122 658 122 658 C122 658 92 658 92 658 C92 658 92 645 92 645 C92 645 122 592 122 592 L122 592 Z " />
<glyph glyph-name="LETTERSMALLCAPITALV" unicode="&#x1d20;" horiz-adv-x="430" d="M86 592 C86 592 86 592 86 592 C86 592 221 0 221 0 C221 0 230 0 230 0 C230 0 240 0 240 0 C240 0 375 592 375 592 C375 592 375 592 375 592 C375 592 417 645 417 645 C417 645 417 658 417 658 C417 658 390 658 390 658 C390 658 384 658 384 658 C384 658 378 658 378 658 C378 658 348 658 348 658 C349 658 349 657 348 656 C349 650 349 645 348 645 C348 645 364 594 364 594 C364 594 235 22 235 22 C235 22 107 592 107 592 C107 592 107 592 107 592 C107 592 122 645 122 645 C122 645 122 658 122 658 C122 658 92 658 92 658 C92 658 81 658 81 658 C81 658 71 658 71 658 C71 658 44 658 44 658 C43 658 43 657 44 656 C43 650 43 645 44 645 C44 645 86 592 86 592 L86 592 Z " />
<glyph glyph-name="LETTERSMALLCAPITALW" unicode="&#x1d21;" horiz-adv-x="620" d="M82 592 C82 592 83 592 83 592 C83 592 190 0 190 0 C190 0 199 0 199 0 C199 0 209 0 209 0 C209 0 325 628 325 628 C325 628 441 0 441 0 C441 0 451 0 451 0 C451 0 461 0 461 0 C461 0 568 592 568 592 C568 592 608 645 608 645 C608 645 608 658 608 658 C608 658 580 658 580 658 C580 658 574 658 574 658 C574 658 568 658 568 658 C568 658 538 658 538 658 C539 658 539 657 538 656 C539 650 539 645 538 645 C538 645 557 593 557 593 C557 593 456 28 456 28 C456 28 339 658 339 658 C339 658 331 658 331 658 C331 658 320 658 320 658 C320 658 204 28 204 28 C204 28 104 592 104 592 C104 592 104 592 104 592 C104 592 122 645 122 645 C122 645 122 658 122 658 C122 658 92 658 92 658 C92 658 81 658 81 658 C81 658 71 658 71 658 C71 658 43 658 43 658 C43 658 43 645 43 645 C43 645 82 592 82 592 L82 592 Z " />
<glyph glyph-name="LETTERSMALLCAPITALZ" unicode="&#x1d22;" horiz-adv-x="511" d="M466 4 C466 4 466 9 466 9 C466 9 466 39 466 39 C466 39 453 39 453 39 C453 39 400 9 400 9 C400 9 66 9 66 9 C66 9 466 649 466 649 C466 649 466 658 466 658 C466 658 60 658 60 658 C60 658 60 653 60 653 C60 653 60 649 60 649 C60 649 60 619 60 619 C60 619 73 619 73 619 C73 619 126 649 126 649 C126 649 446 649 446 649 C446 649 45 9 45 9 C45 9 45 0 45 0 C45 0 466 0 466 0 C466 0 466 4 466 4 L466 4 Z " />
<glyph glyph-name="Wgrave" unicode="&#x1e80;" horiz-adv-x="646" d="M329 891 C329 891 347 891 347 891 C347 891 321 1041 321 1041 C321 1041 295 1041 295 1041 C295 1041 329 891 329 891 L329 891 Z M80 745 C80 745 80 745 80 745 C80 745 195 0 195 0 C195 0 206 0 206 0 C206 0 216 0 216 0 C216 0 338 773 338 773 C338 773 459 0 459 0 C459 0 470 0 470 0 C470 0 481 0 481 0 C481 0 596 745 596 745 C596 745 596 745 596 745 C596 745 634 798 634 798 C634 798 634 811 634 811 C634 811 606 811 606 811 C606 811 600 811 600 811 C600 811 593 811 593 811 C593 811 563 811 563 811 C563 811 563 798 563 798 C563 798 583 745 583 745 C583 745 475 36 475 36 C475 36 354 811 354 811 C354 811 344 811 344 811 C344 811 332 811 332 811 C332 811 211 33 211 33 C211 33 104 745 104 745 C104 745 104 745 104 745 C104 745 124 798 124 798 C124 798 124 811 124 811 C124 811 94 811 94 811 C94 811 82 811 82 811 C82 811 70 811 70 811 C70 811 42 811 42 811 C42 811 42 798 42 798 C42 798 80 745 80 745 L80 745 Z " />
<glyph glyph-name="Wacute" unicode="&#x1e82;" horiz-adv-x="646" d="M329 891 C329 891 347 891 347 891 C347 891 381 1041 381 1041 C381 1041 355 1041 355 1041 C355 1041 329 891 329 891 L329 891 Z M80 745 C80 745 80 745 80 745 C80 745 195 0 195 0 C195 0 206 0 206 0 C206 0 216 0 216 0 C216 0 338 773 338 773 C338 773 459 0 459 0 C459 0 470 0 470 0 C470 0 481 0 481 0 C481 0 596 745 596 745 C596 745 596 745 596 745 C596 745 634 798 634 798 C634 798 634 811 634 811 C634 811 606 811 606 811 C606 811 600 811 600 811 C600 811 593 811 593 811 C593 811 563 811 563 811 C563 811 563 798 563 798 C563 798 583 745 583 745 C583 745 475 36 475 36 C475 36 354 811 354 811 C354 811 344 811 344 811 C344 811 332 811 332 811 C332 811 211 33 211 33 C211 33 104 745 104 745 C104 745 104 745 104 745 C104 745 124 798 124 798 C124 798 124 811 124 811 C124 811 94 811 94 811 C94 811 82 811 82 811 C82 811 70 811 70 811 C70 811 42 811 42 811 C42 811 42 798 42 798 C42 798 80 745 80 745 L80 745 Z " />
<glyph glyph-name="Wdieresis" unicode="&#x1e84;" horiz-adv-x="646" d="M369 891 C369 891 429 891 429 891 C429 891 429 951 429 951 C429 951 369 951 369 951 C369 951 369 891 369 891 L369 891 Z M247 891 C247 891 307 891 307 891 C307 891 307 951 307 951 C307 951 247 951 247 951 C247 951 247 891 247 891 L247 891 Z M80 745 C80 745 80 745 80 745 C80 745 195 0 195 0 C195 0 206 0 206 0 C206 0 216 0 216 0 C216 0 338 773 338 773 C338 773 459 0 459 0 C459 0 470 0 470 0 C470 0 481 0 481 0 C481 0 596 745 596 745 C596 745 596 745 596 745 C596 745 634 798 634 798 C634 798 634 811 634 811 C634 811 606 811 606 811 C606 811 600 811 600 811 C600 811 593 811 593 811 C593 811 563 811 563 811 C563 811 563 798 563 798 C563 798 583 745 583 745 C583 745 475 36 475 36 C475 36 354 811 354 811 C354 811 344 811 344 811 C344 811 332 811 332 811 C332 811 211 33 211 33 C211 33 104 745 104 745 C104 745 104 745 104 745 C104 745 124 798 124 798 C124 798 124 811 124 811 C124 811 94 811 94 811 C94 811 82 811 82 811 C82 811 70 811 70 811 C70 811 42 811 42 811 C42 811 42 798 42 798 C42 798 80 745 80 745 L80 745 Z " />
<glyph glyph-name="CapitalLetterEWITHTI" unicode="&#x1ebc;" horiz-adv-x="455" d="M228 891 C228 925 236 953 245 953 C294 953 215 881 276 881 C292 881 306 915 306 958 C306 958 292 958 292 958 C292 924 284 897 274 897 C225 897 304 968 244 968 C227 968 213 934 213 891 C213 891 228 891 228 891 L228 891 Z M406 5 C406 5 406 10 406 10 C406 10 406 40 406 40 C406 40 393 40 393 40 C393 40 340 10 340 10 C340 10 151 10 151 10 C151 10 151 396 151 396 C151 396 305 396 305 396 C305 396 358 366 358 366 C358 366 371 366 371 366 C371 366 371 396 371 396 C371 396 371 401 371 401 C371 401 371 405 371 405 C371 405 371 435 371 435 C371 435 358 435 358 435 C358 435 305 405 305 405 C305 405 151 405 151 405 C151 405 151 801 151 801 C151 801 325 801 325 801 C325 801 378 771 378 771 C378 771 391 771 391 771 C391 771 391 801 391 801 C391 801 391 806 391 806 C391 806 391 811 391 811 C391 811 151 811 151 811 C151 811 150 811 150 811 C150 811 140 811 140 811 C140 811 128 811 128 811 C128 811 98 811 98 811 C98 811 98 798 98 798 C98 798 128 745 128 745 C128 745 128 66 128 66 C128 66 98 13 98 13 C98 13 98 0 98 0 C98 0 128 0 128 0 C128 0 140 0 140 0 C140 0 150 0 150 0 C150 0 151 0 151 0 C151 0 406 0 406 0 C406 0 406 5 406 5 L406 5 Z " />
<glyph glyph-name="Ygrave" unicode="&#x1ef2;" horiz-adv-x="507" d="M262 891 C262 891 280 891 280 891 C280 891 254 1041 254 1041 C254 1041 228 1041 228 1041 C228 1041 262 891 262 891 L262 891 Z M441 745 C441 745 441 745 441 745 C441 745 276 381 276 381 C276 381 110 745 110 745 C110 745 110 798 110 798 C111 798 111 803 110 810 C111 811 111 811 110 811 C110 811 80 811 80 811 C80 811 69 811 69 811 C69 811 59 811 59 811 C59 811 35 811 35 811 C35 811 35 798 35 798 C35 798 89 745 89 745 C89 745 89 745 89 745 C89 745 261 369 261 369 C261 369 261 66 261 66 C261 66 231 13 231 13 C231 13 231 0 231 0 C231 0 261 0 261 0 C261 0 272 0 272 0 C272 0 283 0 283 0 C283 0 313 0 313 0 C313 0 313 13 313 13 C313 13 283 66 283 66 C283 66 283 372 283 372 C283 372 453 745 453 745 C453 745 453 745 453 745 C453 745 507 798 507 798 C507 798 507 811 507 811 C507 811 483 811 483 811 C483 811 477 811 477 811 C477 811 471 811 471 811 C471 811 441 811 441 811 C441 811 441 745 441 745 L441 745 Z " />
<glyph glyph-name="endash" unicode="&#x2013;" horiz-adv-x="290" d="M5 276 C5 276 285 276 285 276 C285 276 285 293 285 293 C285 293 5 293 5 293 C5 293 5 276 5 276 L5 276 Z " />
<glyph glyph-name="emdash" unicode="&#x2014;" horiz-adv-x="580" d="M50 276 C50 276 530 276 530 276 C530 276 530 293 530 293 C530 293 50 293 50 293 C50 293 50 276 50 276 L50 276 Z " />
<glyph glyph-name="quoteleft" unicode="&#x2018;" horiz-adv-x="160" d="M110 821 C70 821 50 790 50 751 C50 751 50 691 50 691 C50 691 110 691 110 691 C110 691 110 751 110 751 C110 751 63 751 63 751 C63 784 79 811 110 811 C110 811 110 821 110 821 L110 821 Z " />
<glyph glyph-name="quoteright" unicode="&#x2019;" horiz-adv-x="160" d="M80 821 C80 821 80 761 80 761 C80 761 127 761 127 761 C127 721 111 701 80 701 C80 701 80 691 80 691 C120 691 140 714 140 761 C140 761 140 821 140 821 C140 821 80 821 80 821 L80 821 Z " />
<glyph glyph-name="quotedblleft" unicode="&#x201c;" horiz-adv-x="280" d="M230 821 C190 821 170 790 170 751 C170 751 170 691 170 691 C170 691 230 691 230 691 C230 691 230 751 230 751 C230 751 183 751 183 751 C183 784 199 811 230 811 C230 811 230 821 230 821 L230 821 Z M140 821 C100 821 80 790 80 751 C80 751 80 691 80 691 C80 691 140 691 140 691 C140 691 140 751 140 751 C140 751 93 751 93 751 C93 784 109 811 140 811 C140 811 140 821 140 821 L140 821 Z " />
<glyph glyph-name="quotedblright" unicode="&#x201d;" horiz-adv-x="280" d="M170 821 C170 821 170 761 170 761 C170 761 217 761 217 761 C217 721 201 701 170 701 C170 701 170 691 170 691 C210 691 230 714 230 761 C230 761 230 821 230 821 C230 821 170 821 170 821 L170 821 Z M80 821 C80 821 80 761 80 761 C80 761 127 761 127 761 C127 721 111 701 80 701 C80 701 80 691 80 691 C120 691 140 714 140 761 C140 761 140 821 140 821 C140 821 80 821 80 821 L80 821 Z " />
<glyph glyph-name="dagger" unicode="&#x2020;" horiz-adv-x="480" d="M420 641 C420 641 250 641 250 641 C250 641 250 811 250 811 C250 811 230 811 230 811 C230 811 230 641 230 641 C230 641 60 641 60 641 C60 641 60 624 60 624 C60 624 230 624 230 624 C230 624 230 -50 230 -50 C230 -50 250 -50 250 -50 C250 -50 250 624 250 624 C250 624 420 624 420 624 C420 624 420 641 420 641 L420 641 Z " />
<glyph glyph-name="daggerdbl" unicode="&#x2021;" horiz-adv-x="480" d="M60 120 C60 120 230 120 230 120 C230 120 230 -50 230 -50 C230 -50 250 -50 250 -50 C250 -50 250 120 250 120 C250 120 420 120 420 120 C420 120 420 137 420 137 C420 137 250 137 250 137 C250 137 250 624 250 624 C250 624 420 624 420 624 C420 624 420 641 420 641 C420 641 250 641 250 641 C250 641 250 811 250 811 C250 811 230 811 230 811 C230 811 230 641 230 641 C230 641 60 641 60 641 C60 641 60 624 60 624 C60 624 230 624 230 624 C230 624 230 137 230 137 C230 137 60 137 60 137 C60 137 60 120 60 120 L60 120 Z " />
<glyph glyph-name="bullet" unicode="&#x2022;" horiz-adv-x="160" d="M43 261 C43 261 118 261 118 261 C118 261 118 336 118 336 C118 336 43 336 43 336 C43 336 43 261 43 261 L43 261 Z " />
<glyph glyph-name="ellipsis" unicode="&#x2026;" horiz-adv-x="430" d="M320 0 C320 0 380 0 380 0 C380 0 380 60 380 60 C380 60 320 60 320 60 C320 60 320 0 320 0 L320 0 Z M185 0 C185 0 245 0 245 0 C245 0 245 60 245 60 C245 60 185 60 185 60 C185 60 185 0 185 0 L185 0 Z M50 0 C50 0 110 0 110 0 C110 0 110 60 110 60 C110 60 50 60 50 60 C50 60 50 0 50 0 L50 0 Z " />
<glyph glyph-name="perthousand" unicode="&#x2030;" horiz-adv-x="485" d="M534 140 C534 60 516 -4 487 -4 C458 -4 439 60 439 140 C439 220 458 284 487 284 C516 284 534 220 534 140 L534 140 Z M423 140 C423 60 405 -4 375 -4 C346 -4 328 60 328 140 C328 220 346 284 375 284 C405 284 423 220 423 140 L423 140 Z M375 -10 C403 -10 424 32 431 90 C438 148 459 -10 487 -10 C523 -10 546 57 546 140 C546 223 523 290 487 290 C459 290 438 248 431 190 C424 132 403 290 375 290 C340 290 317 223 317 140 C317 57 340 -10 375 -10 L375 -10 Z M63 671 C63 751 81 815 110 815 C139 815 158 751 158 671 C158 591 139 527 110 527 C81 527 63 591 63 671 L63 671 Z M110 821 C75 821 52 754 52 671 C52 588 75 521 110 521 C146 521 169 588 169 671 C169 754 146 821 110 821 L110 821 Z M106 0 C106 0 113 0 113 0 C113 0 380 811 380 811 C380 811 373 811 373 811 C373 811 106 0 106 0 L106 0 Z " />
<glyph glyph-name="guilsinglleft" unicode="&#x2039;" horiz-adv-x="181" d="M127 525 C127 525 71 291 71 291 C71 291 127 56 127 56 C127 56 144 56 144 56 C144 56 88 291 88 291 C88 291 144 525 144 525 C144 525 127 525 127 525 L127 525 Z " />
<glyph glyph-name="guilsinglright" unicode="&#x203a;" horiz-adv-x="181" d="M112 525 C112 525 168 291 168 291 C168 291 112 56 112 56 C112 56 129 56 129 56 C129 56 185 291 185 291 C185 291 129 525 129 525 C129 525 112 525 112 525 L112 525 Z " />
<glyph glyph-name="fraction" unicode="&#x2044;" horiz-adv-x="513" d="M60 0 C60 0 67 0 67 0 C67 0 454 811 454 811 C454 811 447 811 447 811 C447 811 60 0 60 0 L60 0 Z " />
<glyph glyph-name="Euro" unicode="&#x20ac;" horiz-adv-x="601" d="M28 364 C28 364 82 364 82 364 C96 171 205 -10 338 -10 C473 -10 581 71 581 171 C581 171 572 179 572 179 C572 79 468 0 338 0 C217 0 118 176 105 364 C105 364 383 364 383 364 C383 364 385 376 385 376 C385 376 105 376 105 376 C104 386 104 396 104 406 C104 416 104 426 105 436 C105 436 385 436 385 436 C385 436 387 447 387 447 C387 447 105 447 105 447 C118 635 217 811 338 811 C468 811 572 732 572 633 C572 633 581 640 581 640 C581 741 473 821 338 821 C204 821 95 640 81 447 C81 447 32 447 32 447 C32 447 30 436 30 436 C30 436 81 436 81 436 C80 426 80 416 80 406 C80 396 80 386 81 376 C81 376 30 376 30 376 C30 376 28 364 28 364 L28 364 Z " />
<glyph glyph-name="minus" unicode="&#x2212;" horiz-adv-x="495" d="M50 278 C50 278 445 278 445 278 C445 278 445 290 445 290 C445 290 50 290 50 290 C50 290 50 278 50 278 L50 278 Z " />
<glyph glyph-name="DIVISIONSLASH" unicode="&#x2215;" horiz-adv-x="393" d="M0 0 C0 0 7 0 7 0 C7 0 394 811 394 811 C394 811 387 811 387 811 C387 811 0 0 0 0 L0 0 Z " />
<glyph glyph-name="BULLETOPERATOR" unicode="&#x2219;" horiz-adv-x="160" d="M50 261 C50 261 110 261 110 261 C110 261 110 321 110 321 C110 321 50 321 50 321 C50 321 50 261 50 261 L50 261 Z " />
<glyph glyph-name="LETTERSMALLCAPITALF" unicode="&#xa730;" horiz-adv-x="395" d="M269 321 C269 321 322 291 322 291 C322 291 335 291 335 291 C335 291 335 321 335 321 C335 321 335 325 335 325 C335 325 335 329 335 329 C335 329 335 359 335 359 C335 359 322 359 322 359 C322 359 269 329 269 329 C269 329 149 329 149 329 C149 329 149 649 149 649 C149 649 299 649 299 649 C299 649 352 619 352 619 C352 619 365 619 365 619 C365 619 365 649 365 649 C365 649 365 653 365 653 C365 653 365 658 365 658 C365 658 149 658 149 658 C149 658 148 658 148 658 C148 658 139 658 139 658 C139 658 129 658 129 658 C129 658 99 658 99 658 C99 658 99 645 99 645 C99 645 129 592 129 592 C129 592 129 66 129 66 C129 66 99 13 99 13 C99 13 99 0 99 0 C99 0 129 0 129 0 C129 0 139 0 139 0 C139 0 149 0 149 0 C149 0 179 0 179 0 C179 0 179 13 179 13 C179 13 149 66 149 66 C149 66 149 321 149 321 C149 321 269 321 269 321 L269 321 Z " />
<glyph glyph-name="LETTERSMALLCAPITALS" unicode="&#xa731;" horiz-adv-x="370" d="M64 148 C70 91 93 46 127 19 C127 19 127 19 127 19 C127 19 127 19 127 19 C151 0 179 -10 210 -10 C287 -10 336 76 336 183 C336 252 281 316 193 349 C128 373 86 425 86 484 C86 580 123 658 169 658 C190 658 209 652 226 641 C226 641 283 523 283 523 C283 519 283 515 283 511 C283 511 287 515 287 515 C287 515 287 514 287 514 C287 514 290 518 290 518 C290 518 290 547 290 547 C290 547 288 547 288 547 C281 596 258 633 225 652 C225 653 225 653 225 653 C225 653 225 653 225 653 C208 663 189 668 169 668 C111 668 65 585 65 481 C65 416 113 356 188 328 C266 299 315 243 315 183 C315 81 274 0 210 0 C179 0 150 12 127 34 C127 34 71 169 71 169 C71 174 71 179 71 185 C71 185 66 181 66 181 C66 181 66 182 66 182 C66 182 62 178 62 178 C62 178 62 148 62 148 C62 148 64 148 64 148 L64 148 Z M280 547 C280 547 277 547 277 547 C259 583 244 615 234 634 C257 615 274 585 280 547 L280 547 Z M73 148 C73 148 75 148 75 148 C93 105 108 67 117 43 C95 69 79 104 73 148 L73 148 Z " />
</font>
</svg>
