<?xml version="1.0" encoding="UTF-8"?>
<svg xmlns="http://www.w3.org/2000/svg" xmlns:xlink="http://www.w3.org/1999/xlink" version="1.2" >
<font id="Myron Bold">
<font-face  font-family="Myron" units-per-em="1024" ascent="945" descent="-300" font-style="normal" font-weight="700" font-stretch="normal" cap-height="728" x-height="478" underline-position="0" underline-thickness="0" />
<missing-glyph  horiz-adv-x="472" d="M0 700 C0 700 432 700 432 700 C432 700 432 0 432 0 C432 0 0 0 0 0 C0 0 0 700 0 700 L0 700 Z M50 50 C50 50 382 50 382 50 C382 50 382 650 382 650 C382 650 50 650 50 650 C50 650 50 50 50 50 L50 50 Z " />
<glyph glyph-name="NULL" d="" />
<glyph glyph-name="CR" unicode="&#xd;" horiz-adv-x="256" d="" />
<glyph glyph-name="space" unicode="&#x20;" horiz-adv-x="226" d="" />
<glyph glyph-name="exclam" unicode="&#x21;" horiz-adv-x="280" d="M140 -5 C199 -5 220 16 220 75 C220 134 199 155 140 155 C81 155 60 134 60 75 C60 16 81 -5 140 -5 L140 -5 Z M140 733 C56 733 57 700 70 610 C70 610 130 201 130 201 C130 201 151 201 151 201 C151 201 211 610 211 610 C224 700 225 733 140 733 L140 733 Z " />
<glyph glyph-name="quotedbl" unicode="&#x22;" horiz-adv-x="306" d="M714 728 C670 728 671 716 680 683 C680 683 721 538 721 538 C721 538 734 538 734 538 C734 538 775 683 775 683 C785 716 786 728 741 728 C741 728 714 728 714 728 L714 728 Z " />
<glyph glyph-name="numbersign" unicode="&#x23;" horiz-adv-x="514" d="M373 633 C373 633 350 482 350 482 C350 482 216 482 216 482 C216 482 239 633 239 633 C239 633 225 633 225 633 C225 633 202 482 202 482 C202 482 68 482 68 482 C68 482 55 393 55 393 C55 393 188 393 188 393 C188 393 165 244 165 244 C165 244 28 244 28 244 C28 244 16 156 16 156 C16 156 151 156 151 156 C151 156 127 0 127 0 C127 0 142 0 142 0 C142 0 166 156 166 156 C166 156 300 156 300 156 C300 156 276 0 276 0 C276 0 290 0 290 0 C290 0 314 156 314 156 C314 156 437 156 437 156 C437 156 449 244 449 244 C449 244 328 244 328 244 C328 244 351 393 351 393 C351 393 482 393 482 393 C482 393 494 482 494 482 C494 482 365 482 365 482 C365 482 388 633 388 633 C388 633 373 633 373 633 L373 633 Z M202 393 C202 393 336 393 336 393 C336 393 313 244 313 244 C313 244 179 244 179 244 C179 244 202 393 202 393 L202 393 Z " />
<glyph glyph-name="dollar" unicode="&#x24;" horiz-adv-x="535" d="M284 726 C284 726 284 441 284 441 C269 447 256 453 244 459 C244 459 244 727 244 727 C248 727 252 727 257 727 C266 727 275 727 284 726 C284 726 277 727 277 727 C279 727 282 727 284 726 L284 726 Z M284 803 C284 803 284 737 284 737 C275 738 266 738 257 738 C253 738 248 738 244 738 C244 738 244 803 244 803 C244 803 204 803 204 803 C204 803 204 735 204 735 C98 722 59 664 59 536 C59 416 87 358 204 308 C204 308 204 15 204 15 C157 34 122 79 85 159 C85 159 80 157 80 157 C74 168 68 181 63 193 C59 201 58 204 58 204 C57 204 50 206 48 206 C48 206 48 141 48 141 C48 141 48 60 48 60 C62 64 57 61 63 83 C63 80 80 65 128 31 C150 14 175 2 204 -4 C204 -4 204 -75 204 -75 C204 -75 244 -75 244 -75 C244 -75 244 -9 244 -9 C253 -10 262 -10 272 -10 C276 -10 280 -10 284 -10 C284 -10 284 -75 284 -75 C284 -75 324 -75 324 -75 C324 -75 324 -8 324 -8 C450 4 496 63 496 199 C496 316 462 372 324 426 C324 426 324 714 324 714 C351 702 374 681 394 656 C404 642 412 626 421 608 C421 608 425 610 425 610 C432 598 438 586 443 574 C447 566 448 563 448 563 C453 562 449 562 458 560 C458 560 458 625 458 625 C458 625 458 690 458 690 C444 687 449 690 443 671 C443 672 431 681 397 705 C397 705 396 705 396 705 C376 719 353 728 324 733 C324 733 324 803 324 803 C324 803 284 803 284 803 L284 803 Z M301 723 C301 723 286 725 286 725 C290 725 293 724 297 724 C298 723 300 723 301 723 C301 723 301 723 301 723 L301 723 Z M244 293 C259 287 272 282 284 277 C284 277 284 3 284 3 C280 3 276 3 272 3 C262 3 253 4 244 5 C244 5 244 293 244 293 L244 293 Z M324 258 C378 229 393 202 393 162 C393 72 374 26 324 10 C324 10 324 258 324 258 L324 258 Z M204 483 C169 510 159 541 159 585 C159 658 172 698 204 716 C204 716 204 483 204 483 L204 483 Z " />
<glyph glyph-name="ampersand" unicode="&#x26;" horiz-adv-x="309" d="M344 467 C464 507 508 546 508 610 C508 704 457 738 315 738 C186 738 139 700 139 595 C139 530 161 501 220 434 C82 387 32 322 32 196 C32 45 88 -10 245 -10 C355 -10 441 19 516 89 C516 89 522 82 522 82 C579 14 627 -10 700 -10 C788 -10 825 31 839 145 C839 145 819 152 819 152 C813 102 794 84 748 84 C692 84 659 99 622 142 C622 142 592 177 592 177 C642 252 689 350 735 478 C735 478 708 478 708 478 C664 356 619 267 566 207 C566 207 361 447 361 447 C355 454 349 461 344 467 C344 467 344 467 344 467 L344 467 Z M332 481 C265 559 240 587 240 655 C240 696 260 711 315 711 C387 711 413 686 413 617 C413 544 391 506 332 481 L332 481 Z M477 134 C430 108 376 97 312 97 C195 97 153 133 153 231 C153 337 175 392 231 422 C240 411 250 400 261 387 C261 387 477 134 477 134 L477 134 Z " />
<glyph glyph-name="quotesingle" unicode="&#x27;" horiz-adv-x="195" d="" />
<glyph glyph-name="parenleft" unicode="&#x28;" horiz-adv-x="455" d="M320 738 C128 609 59 482 59 262 C59 52 126 -74 313 -214 C313 -214 320 -201 320 -201 C188 -102 141 21 141 262 C141 510 190 632 327 725 C327 725 320 738 320 738 L320 738 Z " />
<glyph glyph-name="parenright" unicode="&#x29;" horiz-adv-x="455" d="M23 724 C160 636 209 513 209 262 C209 7 162 -116 30 -201 C30 -201 37 -214 37 -214 C224 -94 291 33 291 262 C291 487 222 613 30 738 C30 738 23 724 23 724 L23 724 Z " />
<glyph glyph-name="asterisk" unicode="&#x2a;" horiz-adv-x="300" d="M145 608 C145 608 29 578 29 578 C2 571 -1 559 16 530 C32 501 45 498 64 517 C64 517 148 604 148 604 C148 604 115 488 115 488 C108 462 117 453 150 453 C183 453 192 462 185 488 C185 488 152 604 152 604 C152 604 236 517 236 517 C255 498 268 502 284 530 C301 559 297 572 271 578 C271 578 155 608 155 608 C155 608 271 637 271 637 C297 644 301 656 284 685 C268 714 255 717 236 698 C236 698 152 612 152 612 C152 612 185 728 185 728 C192 754 183 763 150 763 C117 763 108 754 115 728 C115 728 148 612 148 612 C148 612 64 698 64 698 C45 717 32 714 16 685 C-1 657 2 644 29 637 C29 637 145 608 145 608 L145 608 Z " />
<glyph glyph-name="plus" unicode="&#x2b;" horiz-adv-x="601" d="M256 441 C256 441 256 281 256 281 C256 281 100 281 100 281 C100 281 100 200 100 200 C100 200 256 200 256 200 C256 200 256 40 256 40 C256 40 345 40 345 40 C345 40 345 200 345 200 C345 200 501 200 501 200 C501 200 501 281 501 281 C501 281 345 281 345 281 C345 281 345 441 345 441 C345 441 256 441 256 441 L256 441 Z " />
<glyph glyph-name="comma" unicode="&#x2c;" horiz-adv-x="261" d="M168 15 C169 9 169 2 169 -6 C169 -77 141 -103 65 -103 C65 -103 65 -112 65 -112 C158 -112 192 -79 192 13 C192 88 174 115 125 115 C81 115 65 99 65 55 C65 11 81 -5 125 -5 C147 -5 161 1 168 15 C168 15 168 15 168 15 L168 15 Z " />
<glyph glyph-name="hyphen" unicode="&#x2d;" horiz-adv-x="411" d="M80 239 C80 239 331 239 331 239 C331 239 331 329 331 329 C331 329 80 329 80 329 C80 329 80 239 80 239 L80 239 Z " />
<glyph glyph-name="period" unicode="&#x2e;" horiz-adv-x="195" d="M125 -5 C184 -5 205 16 205 75 C205 134 184 155 125 155 C66 155 45 134 45 75 C45 16 66 -5 125 -5 L125 -5 Z " />
<glyph glyph-name="slash" unicode="&#x2f;" horiz-adv-x="397" d="M300 748 C300 748 18 -80 18 -80 C18 -80 86 -80 86 -80 C86 -80 368 748 368 748 C368 748 300 748 300 748 L300 748 Z " />
<glyph glyph-name="zero" unicode="0" horiz-adv-x="591" d="M294 37 C163 37 96 90 96 239 C96 372 148 440 294 440 C425 440 492 387 492 239 C492 105 439 37 294 37 L294 37 Z M41 239 C41 56 127 -10 294 -10 C479 -10 546 74 546 239 C546 422 461 488 294 488 C108 488 41 404 41 239 L41 239 Z " />
<glyph glyph-name="one" unicode="1" horiz-adv-x="301" d="M265 478 C265 478 37 478 37 478 C37 478 40 462 40 462 C40 462 47 462 47 462 C81 462 93 462 93 447 C93 447 93 30 93 30 C93 15 81 15 47 15 C47 15 40 15 40 15 C39 10 37 6 37 0 C37 0 265 0 265 0 C265 2 262 9 262 15 C262 15 255 15 255 15 C220 15 208 15 208 30 C208 30 208 447 208 447 C208 462 220 462 255 462 C255 462 262 462 262 462 C263 466 263 474 265 478 L265 478 Z " />
<glyph glyph-name="two" unicode="2" horiz-adv-x="534" d="M66 276 C84 367 122 400 210 400 C291 400 320 375 320 305 C320 187 222 127 30 20 C30 20 30 0 30 0 C30 0 277 0 277 0 C277 0 416 0 416 0 C445 46 472 89 501 135 C500 135 489 137 486 137 C469 108 475 102 355 102 C355 102 209 102 209 102 C359 192 435 256 435 332 C435 447 391 488 269 488 C131 488 71 433 42 281 C42 281 66 276 66 276 L66 276 Z " />
<glyph glyph-name="three" unicode="3" horiz-adv-x="438" d="M16 -209 C16 -209 20 -232 20 -232 C298 -203 398 -138 398 11 C398 142 359 195 250 210 C250 210 250 210 250 210 C335 257 368 300 368 370 C368 457 326 488 210 488 C96 488 45 446 19 329 C19 329 44 322 44 322 C58 385 90 407 163 407 C223 407 245 387 245 330 C245 237 208 209 104 165 C104 165 104 142 104 142 C231 124 277 81 277 -22 C277 -140 208 -189 16 -209 C16 -209 16 -209 16 -209 L16 -209 Z " />
<glyph glyph-name="four" unicode="4" horiz-adv-x="584" d="M540 -29 C544 -30 554 -31 555 -31 C562 21 570 73 577 125 C573 124 562 123 561 123 C557 93 566 88 446 88 C446 88 396 88 396 88 C396 88 396 507 396 507 C396 507 381 507 381 507 C381 507 15 20 15 20 C15 20 15 0 15 0 C15 0 281 0 281 0 C281 0 281 -220 281 -220 C281 -220 396 -220 396 -220 C396 -220 396 0 396 0 C396 0 484 0 484 0 C551 0 543 -6 540 -29 L540 -29 Z M119 88 C119 88 281 305 281 305 C281 305 281 88 281 88 C281 88 120 88 120 88 C120 88 119 88 119 88 L119 88 Z " />
<glyph glyph-name="five" unicode="5" horiz-adv-x="423" d="M61 -235 C306 -205 394 -129 394 53 C394 217 315 276 95 276 C95 276 76 276 76 276 C76 276 92 374 92 374 C92 374 326 378 326 378 C335 423 343 468 350 514 C346 513 335 512 334 512 C330 483 336 478 228 478 C228 478 70 478 70 478 C70 478 20 173 20 173 C20 173 40 155 40 155 C40 155 82 155 82 155 C236 155 292 118 292 14 C292 -132 230 -193 58 -214 C58 -214 61 -235 61 -235 L61 -235 Z " />
<glyph glyph-name="six" unicode="6" horiz-adv-x="550" d="M531 728 C172 651 42 535 42 287 C42 69 104 -10 277 -10 C438 -10 496 54 496 231 C496 386 443 442 295 442 C237 442 198 430 173 402 C211 577 320 664 536 711 C536 711 531 728 531 728 L531 728 Z M157 226 C157 377 192 431 291 431 C357 431 381 380 381 237 C381 64 353 1 275 1 C188 1 157 61 157 226 L157 226 Z " />
<glyph glyph-name="seven" unicode="7" horiz-adv-x="425" d="M77 502 C77 502 69 502 69 502 C64 503 62 503 62 503 C39 451 17 399 -7 348 C-3 349 8 350 9 350 C20 375 18 384 74 384 C74 384 374 384 374 384 C374 384 102 -220 102 -220 C102 -220 190 -220 190 -220 C190 -220 420 463 420 463 C420 463 420 478 420 478 C420 478 140 478 140 478 C58 478 66 482 77 502 L77 502 Z " />
<glyph glyph-name="eight" unicode="8" horiz-adv-x="522" d="M185 352 C198 345 212 339 227 333 C350 283 394 269 394 139 C394 36 358 -1 257 -1 C166 -1 133 44 133 169 C133 263 148 318 185 352 L185 352 Z M168 361 C70 313 33 258 33 169 C33 37 92 -10 257 -10 C422 -10 482 43 482 190 C482 333 441 367 333 414 C423 458 458 506 458 581 C458 696 404 738 255 738 C111 738 59 691 59 560 C59 455 89 404 168 361 C168 361 168 361 168 361 L168 361 Z M314 422 C301 428 286 434 271 440 C183 476 151 511 151 603 C151 696 179 729 255 729 C332 729 360 687 360 571 C360 497 347 451 314 422 C314 422 314 422 314 422 L314 422 Z " />
<glyph glyph-name="nine" unicode="9" horiz-adv-x="550" d="M19 -250 C379 -174 508 -57 508 191 C508 409 446 488 274 488 C113 488 54 424 54 246 C54 92 108 36 255 35 C313 35 353 48 378 76 C340 -99 230 -187 15 -233 C15 -233 19 -250 19 -250 L19 -250 Z M394 252 C394 101 358 47 260 46 C193 47 169 98 169 240 C169 414 198 477 276 477 C362 477 394 417 394 252 L394 252 Z " />
<glyph glyph-name="colon" unicode="&#x3a;" horiz-adv-x="135" d="M125 363 C184 363 205 384 205 443 C205 502 184 523 125 523 C66 523 45 502 45 443 C45 384 66 363 125 363 L125 363 Z M125 -5 C184 -5 205 16 205 75 C205 134 184 155 125 155 C66 155 45 134 45 75 C45 16 66 -5 125 -5 L125 -5 Z " />
<glyph glyph-name="semicolon" unicode="&#x3b;" horiz-adv-x="261" d="M125 363 C184 363 205 384 205 443 C205 502 184 523 125 523 C66 523 45 502 45 443 C45 384 66 363 125 363 L125 363 Z M168 15 C169 9 169 2 169 -6 C169 -77 141 -103 65 -103 C65 -103 65 -112 65 -112 C158 -112 192 -79 192 13 C192 88 174 115 125 115 C81 115 65 99 65 55 C65 11 81 -5 125 -5 C147 -5 161 1 168 15 C168 15 168 15 168 15 L168 15 Z " />
<glyph glyph-name="equal" unicode="&#x3d;" horiz-adv-x="519" d="M88 214 C88 214 88 163 88 163 C88 163 449 163 449 163 C449 163 449 214 449 214 C449 214 88 214 88 214 L88 214 Z M88 314 C88 314 88 263 88 263 C88 263 449 263 449 263 C449 263 449 314 449 314 C449 314 88 314 88 314 L88 314 Z " />
<glyph glyph-name="question" unicode="&#x3f;" horiz-adv-x="295" d="M125 -5 C184 -5 205 16 205 75 C205 134 184 155 125 155 C66 155 45 134 45 75 C45 16 66 -5 125 -5 L125 -5 Z M127 233 C127 233 125 349 125 349 C248 349 251 369 288 423 C311 455 319 486 319 540 C319 685 273 737 145 737 C66 737 37 715 37 652 C37 611 53 596 99 596 C133 596 153 616 187 616 C259 616 285 592 285 527 C285 515 279 502 263 478 C238 443 242 430 97 430 C97 430 107 233 107 233 C107 233 127 233 127 233 L127 233 Z " />
<glyph glyph-name="at" unicode="&#x40;" horiz-adv-x="1149" d="M1011 0 C931 -172 821 -234 597 -234 C265 -234 145 -106 145 248 C145 602 259 730 575 730 C891 730 1005 623 1005 328 C1005 94 960 10 834 10 C744 10 724 60 760 200 C760 200 828 459 828 459 C828 459 719 459 719 459 C719 459 705 406 705 406 C690 451 652 468 580 468 C356 468 275 391 275 179 C275 50 321 4 448 4 C542 4 599 25 637 78 C644 0 699 -30 813 -30 C1020 -30 1095 65 1095 328 C1095 647 957 762 575 762 C194 762 56 626 56 248 C56 -130 199 -266 597 -266 C838 -266 958 -196 1049 0 C1049 0 1011 0 1011 0 L1011 0 Z M688 339 C688 339 652 200 652 200 C626 103 588 68 508 68 C429 68 401 103 401 201 C401 374 448 436 577 436 C659 436 688 410 688 339 L688 339 Z " />
<glyph glyph-name="A" unicode="A" horiz-adv-x="697" d="M424 0 C424 0 498 0 498 0 C498 0 633 0 633 0 C633 0 681 0 681 0 C680 3 679 14 679 15 C679 15 657 15 657 15 C635 15 628 12 589 135 C589 135 589 135 589 135 C589 135 408 688 408 688 C408 688 389 748 389 748 C389 748 375 748 375 748 C349 710 324 695 280 688 C280 688 283 678 283 678 C283 678 283 678 283 678 C283 678 136 165 136 165 C136 165 136 165 136 165 C93 11 80 15 43 15 C43 15 22 15 22 15 C21 11 20 1 20 0 C20 0 89 0 89 0 C89 0 102 0 102 0 C102 0 191 0 191 0 C190 3 189 14 189 15 C189 15 170 15 170 15 C123 15 105 11 148 165 C148 165 148 165 148 165 C148 165 184 293 184 293 C184 293 405 293 405 293 C405 293 455 135 455 135 C455 135 455 135 455 135 C495 12 481 15 446 15 C446 15 426 15 426 15 C425 11 424 1 424 0 L424 0 Z M187 304 C187 304 287 665 287 665 C287 665 402 304 402 304 C402 304 187 304 187 304 L187 304 Z " />
<glyph glyph-name="B" unicode="B" horiz-adv-x="663" d="M48 0 C48 0 236 0 236 0 C236 0 356 0 356 0 C553 0 624 1 624 189 C624 314 572 366 430 376 C545 392 588 445 588 554 C588 682 586 728 313 728 C313 728 236 728 236 728 C236 728 48 728 48 728 C49 724 51 713 52 712 C52 712 58 712 58 712 C94 712 107 714 107 647 C107 647 107 80 107 80 C107 13 94 15 58 15 C58 15 52 15 52 15 C52 12 49 1 48 0 L48 0 Z M236 719 C236 719 296 719 296 719 C459 719 460 672 460 541 C460 420 427 377 334 377 C334 377 236 377 236 377 C236 377 236 647 236 647 C236 647 236 719 236 719 L236 719 Z M338 370 C338 370 354 370 354 370 C448 370 482 322 482 189 C482 9 446 8 346 8 C346 8 296 8 296 8 C252 8 236 24 236 69 C236 69 236 80 236 80 C236 80 236 370 236 370 C236 370 338 370 338 370 L338 370 Z " />
<glyph glyph-name="C" unicode="C" horiz-adv-x="739" d="M700 41 C700 41 700 108 700 108 C700 108 700 169 700 169 C698 168 691 166 689 166 C682 150 675 134 667 119 C667 119 659 121 659 121 C654 104 649 90 643 77 C625 50 606 29 587 21 C587 21 587 21 587 21 C553 6 501 0 415 0 C245 0 183 96 183 364 C183 631 248 727 427 727 C555 727 577 674 662 527 C662 527 666 530 666 530 C672 518 678 506 683 494 C687 485 688 482 688 482 C689 482 690 482 699 480 C699 480 699 549 699 549 C699 549 699 614 699 614 C683 606 690 615 683 595 C684 599 668 621 623 671 C582 719 533 738 422 738 C143 738 42 639 42 364 C42 89 140 -10 412 -10 C588 -10 645 7 675 51 C675 51 684 60 684 60 C690 66 692 62 692 44 C696 43 697 41 700 41 C700 41 700 41 700 41 L700 41 Z " />
<glyph glyph-name="D" unicode="D" horiz-adv-x="827" d="M48 0 C48 0 107 0 107 0 C107 0 236 0 236 0 C236 0 309 0 309 0 C650 0 773 70 773 364 C773 631 691 728 345 728 C345 728 236 728 236 728 C236 728 107 728 107 728 C107 728 48 728 48 728 C49 724 51 713 52 712 C52 712 58 712 58 712 C94 712 107 714 107 647 C107 647 107 80 107 80 C107 13 94 15 58 15 C58 15 52 15 52 15 C52 12 49 1 48 0 L48 0 Z M236 719 C236 719 312 719 312 719 C571 719 632 625 632 364 C632 76 543 8 296 8 C245 8 237 17 236 42 C236 42 236 69 236 69 C236 69 236 80 236 80 C236 80 236 647 236 647 C236 647 236 719 236 719 L236 719 Z " />
<glyph glyph-name="E" unicode="E" horiz-adv-x="609" d="M533 648 C531 675 529 701 527 728 C527 728 412 728 412 728 C412 728 236 728 236 728 C236 728 107 728 107 728 C107 728 48 728 48 728 C49 724 51 713 52 712 C52 712 58 712 58 712 C94 712 107 714 107 647 C107 647 107 80 107 80 C107 13 94 15 58 15 C58 15 52 15 52 15 C52 12 49 1 48 0 C48 0 107 0 107 0 C107 0 236 0 236 0 C236 0 437 0 437 0 C437 0 552 0 552 0 C556 27 559 51 563 79 C553 77 549 75 547 75 C547 75 547 68 547 68 C540 25 541 9 438 9 C438 9 305 9 305 9 C247 9 237 18 236 43 C236 43 236 69 236 69 C236 69 236 80 236 80 C236 80 236 389 236 389 C236 389 352 389 352 389 C455 389 452 371 452 322 C452 322 452 315 452 315 C457 313 459 314 467 310 C467 310 467 389 467 389 C467 389 467 399 467 399 C467 399 467 478 467 478 C464 478 453 475 452 474 C452 474 452 467 452 467 C452 417 455 399 352 399 C352 399 236 399 236 399 C236 399 236 647 236 647 C236 647 236 719 236 719 C236 719 413 719 413 719 C536 719 514 703 517 659 C517 659 517 652 517 652 C521 651 532 649 533 648 L533 648 Z " />
<glyph glyph-name="F" unicode="F" horiz-adv-x="584" d="M534 652 C532 666 532 676 531 690 C529 704 528 714 527 728 C527 728 412 728 412 728 C412 728 236 728 236 728 C236 728 107 728 107 728 C107 728 48 728 48 728 C49 724 51 713 52 712 C52 712 58 712 58 712 C94 712 107 714 107 647 C107 647 107 80 107 80 C107 13 94 15 58 15 C58 15 52 15 52 15 C52 12 49 1 48 0 C48 0 107 0 107 0 C107 0 236 0 236 0 C236 0 295 0 295 0 C295 0 292 15 292 15 C292 15 285 15 285 15 C249 15 236 13 236 80 C236 80 236 380 236 380 C236 380 424 380 424 380 C441 372 442 358 445 337 C445 337 448 312 448 312 C450 311 456 309 457 308 C457 308 457 380 457 380 C457 380 457 389 457 389 C457 389 457 461 457 461 C455 460 450 457 448 457 C448 457 445 432 445 432 C441 400 442 389 342 389 C342 389 236 389 236 389 C236 389 236 647 236 647 C236 647 236 721 236 721 C236 721 333 721 333 721 C518 721 514 705 518 661 C518 661 518 654 518 654 C522 653 533 652 534 652 L534 652 Z " />
<glyph glyph-name="G" unicode="G" horiz-adv-x="791" d="M728 315 C728 315 496 315 496 315 C496 313 498 303 499 300 C499 300 506 300 506 300 C540 300 552 302 552 240 C552 240 555 23 555 23 C555 23 555 23 555 23 C555 23 553 140 553 140 C553 52 522 21 437 21 C250 21 183 112 183 364 C183 631 248 727 427 727 C555 727 577 674 662 527 C662 527 666 530 666 530 C672 518 678 506 683 494 C687 485 688 482 688 482 C689 482 690 482 699 480 C699 480 699 549 699 549 C699 549 699 614 699 614 C683 606 690 615 683 595 C684 599 668 621 623 671 C582 719 533 738 422 738 C143 738 42 639 42 364 C42 89 144 -10 426 -10 C535 -10 593 -2 653 20 C653 20 680 26 680 26 C680 26 680 30 680 30 C701 39 724 50 750 62 C750 62 748 67 748 67 C724 56 704 47 680 40 C680 40 680 240 680 240 C680 302 690 300 719 300 C719 300 726 300 726 300 C727 303 728 314 728 315 C728 315 728 315 728 315 L728 315 Z " />
<glyph glyph-name="H" unicode="H" horiz-adv-x="806" d="M751 728 C751 728 504 728 504 728 C505 724 507 713 508 712 C508 712 515 712 515 712 C551 712 564 714 564 652 C564 652 564 377 564 377 C564 377 272 377 272 377 C272 377 272 652 272 652 C272 714 285 712 321 712 C321 712 328 712 328 712 C329 719 331 722 331 728 C331 728 84 728 84 728 C85 724 87 713 88 712 C88 712 94 712 94 712 C130 712 143 714 143 652 C143 652 143 75 143 75 C143 13 130 15 94 15 C94 15 88 15 88 15 C88 12 85 1 84 0 C84 0 331 0 331 0 C331 0 328 15 328 15 C328 15 321 15 321 15 C285 15 272 13 272 75 C272 75 272 366 272 366 C272 366 564 366 564 366 C564 366 564 75 564 75 C564 13 551 15 515 15 C515 15 508 15 508 15 C508 12 505 1 504 0 C504 0 751 0 751 0 C751 0 748 15 748 15 C748 15 741 15 741 15 C705 15 692 13 692 75 C692 75 692 652 692 652 C692 714 705 712 741 712 C741 712 748 712 748 712 C749 719 751 722 751 728 L751 728 Z " />
<glyph glyph-name="I" unicode="I" horiz-adv-x="338" d="M283 728 C283 728 36 728 36 728 C37 721 39 718 39 712 C39 712 46 712 46 712 C82 712 95 714 95 652 C95 652 95 75 95 75 C95 13 82 15 46 15 C46 15 39 15 39 15 C39 14 36 0 36 0 C36 0 283 0 283 0 C282 6 280 10 280 15 C280 15 273 15 273 15 C237 15 224 13 224 75 C224 75 224 652 224 652 C224 714 237 712 273 712 C273 712 280 712 280 712 C280 712 283 728 283 728 L283 728 Z " />
<glyph glyph-name="J" unicode="J" horiz-adv-x="338" d="M283 728 C283 728 36 728 36 728 C37 721 39 718 39 712 C39 712 46 712 46 712 C82 712 95 714 95 652 C95 652 95 -99 95 -99 C95 -208 41 -205 -15 -205 C-95 -205 -37 -97 -117 -97 C-162 -97 -178 -113 -178 -158 C-178 -204 -138 -220 -25 -220 C103 -220 224 -231 224 143 C224 143 224 652 224 652 C224 714 237 712 273 712 C273 712 280 712 280 712 C280 712 283 728 283 728 L283 728 Z " />
<glyph glyph-name="K" unicode="K" horiz-adv-x="728" d="M708 15 C708 15 683 15 683 15 C668 15 643 40 613 80 C613 80 613 80 613 80 C613 80 333 445 333 445 C333 445 477 622 477 622 C477 622 478 622 478 622 C480 625 482 628 484 630 C484 630 532 689 532 689 C555 713 564 712 580 712 C580 712 602 712 602 712 C603 716 604 727 604 728 C604 728 564 728 564 728 C564 728 513 728 513 728 C513 728 437 728 437 728 C438 724 439 713 439 712 C439 712 457 712 457 712 C485 712 500 714 449 643 C449 643 236 364 236 364 C236 364 236 668 236 668 C236 713 249 712 285 712 C285 712 292 712 292 712 C293 719 295 722 295 728 C295 728 236 728 236 728 C236 728 107 728 107 728 C107 728 48 728 48 728 C49 724 51 713 52 712 C52 712 58 712 58 712 C94 712 107 713 107 668 C107 668 107 60 107 60 C107 14 94 15 58 15 C58 15 52 15 52 15 C52 12 49 1 48 0 C48 0 107 0 107 0 C107 0 236 0 236 0 C236 0 295 0 295 0 C295 0 292 15 292 15 C292 15 285 15 285 15 C249 15 236 14 236 60 C236 60 236 364 236 364 C236 364 451 80 451 80 C451 80 450 80 450 80 C519 -11 511 0 511 0 C511 0 674 0 674 0 C674 0 710 0 710 0 C709 3 708 14 708 15 C708 15 708 15 708 15 L708 15 Z " />
<glyph glyph-name="L" unicode="L" horiz-adv-x="580" d="M535 21 C543 52 551 82 560 113 C551 112 550 110 544 110 C525 44 531 22 355 22 C355 22 293 22 293 22 C235 22 225 30 224 49 C224 49 224 69 224 69 C224 69 224 80 224 80 C224 80 224 647 224 647 C224 714 237 712 273 712 C273 712 280 712 280 712 C280 712 283 728 283 728 C283 728 224 728 224 728 C224 728 95 728 95 728 C95 728 36 728 36 728 C37 721 39 718 39 712 C39 712 46 712 46 712 C82 712 95 714 95 647 C95 647 95 80 95 80 C95 13 82 15 46 15 C46 15 39 15 39 15 C39 14 36 0 36 0 C36 0 95 0 95 0 C95 0 224 0 224 0 C224 0 349 0 349 0 C349 0 530 0 530 0 C530 0 535 21 535 21 L535 21 Z " />
<glyph glyph-name="M" unicode="M" horiz-adv-x="841" d="M49 712 C49 712 70 712 70 712 C92 712 101 713 120 672 C120 672 102 111 102 111 C97 12 84 15 54 15 C54 15 32 15 32 15 C31 11 30 1 30 0 C30 0 98 0 98 0 C98 0 143 0 143 0 C143 0 212 0 212 0 C211 3 210 14 210 15 C210 15 189 15 189 15 C159 15 145 13 144 89 C144 89 152 596 152 596 C233 397 314 198 396 0 C396 0 428 0 428 0 C428 0 633 604 633 604 C633 604 646 80 646 80 C646 80 646 80 646 80 C648 13 635 15 597 15 C597 15 590 15 590 15 C590 14 587 0 587 0 C587 0 648 0 648 0 C648 0 777 0 777 0 C777 0 833 0 833 0 C832 6 830 10 830 15 C830 15 823 15 823 15 C791 15 778 13 775 63 C775 63 758 562 758 562 C758 562 758 562 758 562 C754 716 763 712 786 712 C786 712 808 712 808 712 C809 716 810 727 810 728 C810 728 752 728 752 728 C752 728 675 728 675 728 C675 728 630 728 630 728 C630 728 450 167 450 167 C450 167 450 169 450 169 C450 169 253 728 253 728 C253 728 154 728 154 728 C154 728 122 728 122 728 C122 728 98 728 98 728 C98 728 47 728 47 728 C48 724 49 713 49 712 C49 712 49 712 49 712 L49 712 Z " />
<glyph glyph-name="N" unicode="N" horiz-adv-x="713" d="M-14 712 C-14 712 9 712 9 712 C17 712 20 713 43 683 C43 683 107 600 107 600 C107 600 105 145 105 145 C105 145 105 145 105 145 C105 11 93 15 60 15 C60 15 38 15 38 15 C37 11 36 1 36 0 C36 0 105 0 105 0 C105 0 144 0 144 0 C144 0 212 0 212 0 C211 3 210 14 210 15 C210 15 189 15 189 15 C159 15 146 13 143 90 C143 90 140 556 140 556 C140 556 429 177 429 177 C429 177 564 0 564 0 C564 0 589 0 589 0 C589 0 597 612 597 612 C597 612 598 612 598 612 C597 715 613 712 657 712 C657 712 664 712 664 712 C665 716 667 727 668 728 C668 728 599 728 599 728 C599 728 560 728 560 728 C560 728 491 728 491 728 C492 721 494 718 494 712 C494 712 501 712 501 712 C540 712 557 714 560 640 C560 640 563 206 563 206 C563 206 529 251 529 251 C529 251 169 728 169 728 C169 728 139 728 139 728 C139 728 107 728 107 728 C107 728 9 728 9 728 C9 728 -16 728 -16 728 C-15 724 -14 713 -14 712 C-14 712 -14 712 -14 712 L-14 712 Z " />
<glyph glyph-name="O" unicode="O" horiz-adv-x="865" d="M413 1 C247 1 187 97 187 364 C187 631 248 727 419 727 C599 727 664 631 664 364 C664 97 597 1 413 1 L413 1 Z M40 364 C40 89 138 -10 410 -10 C705 -10 811 89 811 364 C811 639 708 738 420 738 C141 738 40 639 40 364 L40 364 Z " />
<glyph glyph-name="P" unicode="P" horiz-adv-x="603" d="M84 712 C84 712 91 712 91 712 C127 712 140 714 140 647 C140 647 140 80 140 80 C140 13 127 15 91 15 C91 15 84 15 84 15 C84 12 81 1 80 0 C80 0 140 0 140 0 C140 0 268 0 268 0 C268 0 327 0 327 0 C327 0 324 15 324 15 C324 15 317 15 317 15 C281 15 268 13 268 80 C268 80 268 327 268 327 C268 327 313 327 313 327 C512 327 584 357 584 522 C584 673 524 728 359 728 C359 728 268 728 268 728 C268 728 140 728 140 728 C140 728 80 728 80 728 C81 724 83 713 84 712 L84 712 Z M268 354 C268 354 268 647 268 647 C268 647 268 706 268 706 C268 706 326 706 326 706 C427 706 463 663 463 543 C463 383 423 354 313 354 C313 354 268 354 268 354 L268 354 Z " />
<glyph glyph-name="Q" unicode="Q" horiz-adv-x="860" d="M1137 -50 C1137 -50 1134 -47 1134 -47 C1097 -79 1015 -90 826 -90 C639 -90 519 -68 398 -10 C402 -10 406 -10 410 -10 C705 -10 811 89 811 364 C811 639 708 738 420 738 C141 738 40 639 40 364 C40 188 136 84 240 32 C507 -121 659 -176 811 -176 C940 -176 1027 -143 1137 -50 L1137 -50 Z M413 1 C330 1 187 97 187 364 C187 631 248 727 419 727 C599 727 664 631 664 364 C664 97 597 1 413 1 L413 1 Z " />
<glyph glyph-name="R" unicode="R" horiz-adv-x="724" d="M52 712 C52 712 58 712 58 712 C94 712 107 714 107 647 C107 647 107 80 107 80 C107 13 94 15 58 15 C58 15 52 15 52 15 C52 12 49 1 48 0 C48 0 295 0 295 0 C295 0 292 15 292 15 C292 15 285 15 285 15 C249 15 236 13 236 80 C236 80 236 337 236 337 C236 337 292 337 292 337 C308 303 358 226 463 73 C522 -13 477 0 715 0 C715 0 715 20 715 20 C639 20 656 11 613 73 C515 217 457 301 429 343 C543 358 587 402 587 521 C587 673 511 728 299 728 C299 728 236 728 236 728 C236 728 48 728 48 728 C49 724 51 713 52 712 C52 712 52 712 52 712 L52 712 Z M236 702 C236 702 261 702 261 702 C396 702 445 661 445 546 C445 396 406 369 299 369 C299 369 236 369 236 369 C236 369 236 647 236 647 C236 647 236 702 236 702 L236 702 Z " />
<glyph glyph-name="S" unicode="S" horiz-adv-x="535" d="M397 705 C397 705 396 705 396 705 C363 728 319 738 257 738 C111 738 59 684 59 536 C59 407 92 349 233 297 C362 250 393 219 393 162 C393 45 361 3 272 3 C187 3 138 44 85 159 C85 159 80 157 80 157 C74 168 68 181 63 193 C59 201 58 204 58 204 C57 204 50 206 48 206 C48 206 48 141 48 141 C48 141 48 60 48 60 C62 64 57 61 63 83 C63 80 80 65 128 31 C165 2 211 -10 272 -10 C437 -10 496 46 496 199 C496 320 460 376 310 431 C188 475 159 512 159 585 C159 689 185 727 257 727 C267 727 277 726 286 725 C290 725 293 724 297 724 C298 723 300 723 301 723 C301 723 301 723 301 723 C301 723 286 725 286 725 C286 725 277 727 277 727 C284 726 290 725 297 724 C300 723 303 722 307 722 C307 722 301 723 301 723 C337 713 368 688 394 656 C404 642 412 626 421 608 C421 608 425 610 425 610 C432 598 438 586 443 574 C447 566 448 563 448 563 C453 562 449 562 458 560 C458 560 458 625 458 625 C458 625 458 690 458 690 C444 687 449 690 443 671 C443 672 431 681 397 705 C397 705 397 705 397 705 L397 705 Z " />
<glyph glyph-name="T" unicode="T" horiz-adv-x="756" d="M95 762 C91 762 83 764 80 764 C75 752 71 740 67 728 C67 728 55 728 55 728 C55 728 55 697 55 697 C48 677 41 658 34 638 C38 639 49 640 50 640 C68 681 59 696 170 696 C170 696 314 696 314 696 C314 696 314 75 314 75 C314 13 301 15 265 15 C265 15 258 15 258 15 C257 10 255 6 255 0 C255 0 502 0 502 0 C501 3 499 14 498 15 C498 15 491 15 491 15 C455 15 442 13 442 75 C442 75 442 696 442 696 C442 696 586 696 586 696 C692 696 694 683 706 640 C710 639 721 638 722 638 C715 657 708 677 701 696 C701 696 701 728 701 728 C701 728 689 728 689 728 C685 740 681 752 677 764 C673 764 665 762 662 762 C670 734 685 728 574 728 C574 728 442 728 442 728 C442 728 314 728 314 728 C314 728 182 728 182 728 C73 728 83 735 95 762 L95 762 Z " />
<glyph glyph-name="U" unicode="U" horiz-adv-x="718" d="M450 712 C450 712 456 712 456 712 C492 712 505 714 505 647 C505 647 505 195 505 195 C464 105 415 73 322 73 C233 73 201 111 201 215 C201 215 201 647 201 647 C201 647 201 728 201 728 C201 728 13 728 13 728 C14 724 16 713 17 712 C17 712 23 712 23 712 C59 712 72 714 72 647 C72 647 72 215 72 215 C72 50 124 -10 270 -10 C393 -10 455 29 505 137 C505 137 505 105 505 105 C505 105 505 0 505 0 C505 0 526 0 526 0 C526 0 689 53 689 53 C689 53 689 60 689 60 C632 57 634 54 634 105 C634 105 634 647 634 647 C634 647 634 728 634 728 C634 728 446 728 446 728 C447 724 449 713 450 712 L450 712 Z " />
<glyph glyph-name="V" unicode="V" horiz-adv-x="755" d="M270 728 C270 728 180 728 180 728 C180 728 33 728 33 728 C33 728 3 728 3 728 C4 724 5 713 5 712 C5 712 28 712 28 712 C36 712 38 713 57 672 C57 672 58 672 58 672 C58 672 273 180 273 180 C273 180 357 -10 357 -10 C357 -10 382 -10 382 -10 C382 -10 626 592 626 592 C626 592 626 592 626 592 C626 593 627 594 627 595 C627 595 661 678 661 678 C678 713 687 712 703 712 C703 712 725 712 725 712 C726 716 727 727 727 728 C727 728 681 728 681 728 C681 728 629 728 629 728 C629 728 539 728 539 728 C540 724 541 713 541 712 C541 712 561 712 561 712 C604 712 622 715 588 616 C588 616 357 -10 357 -10 C357 -10 427 180 427 180 C427 180 234 608 234 608 C189 715 207 712 249 712 C249 712 268 712 268 712 C269 716 270 727 270 728 C270 728 270 728 270 728 L270 728 Z " />
<glyph glyph-name="W" unicode="W" horiz-adv-x="1044" d="M1018 728 C1018 728 970 728 970 728 C970 728 917 728 917 728 C917 728 827 728 827 728 C828 724 829 713 829 712 C829 712 849 712 849 712 C896 712 914 715 881 592 C881 592 881 592 881 592 C881 592 774 187 774 187 C774 187 774 187 774 187 C774 187 577 656 577 656 C556 714 571 712 605 712 C605 712 624 712 624 712 C625 716 626 727 626 728 C626 728 547 728 547 728 C547 728 398 728 398 728 C398 728 352 728 352 728 C353 724 354 713 354 712 C354 712 376 712 376 712 C397 712 404 713 422 672 C422 672 423 672 423 672 C450 609 478 547 505 485 C505 485 401 161 401 161 C401 161 401 162 401 162 C401 162 208 648 208 648 C184 714 200 712 233 712 C233 712 253 712 253 712 C254 716 255 727 255 728 C255 728 176 728 176 728 C176 728 34 728 34 728 C34 728 4 728 4 728 C5 724 6 713 6 712 C6 712 29 712 29 712 C38 712 40 715 91 592 C91 592 91 592 91 592 C176 391 261 190 346 -10 C346 -10 380 -10 380 -10 C380 -10 530 429 530 429 C594 283 658 137 722 -10 C722 -10 756 -10 756 -10 C756 -10 931 592 931 592 C931 592 931 592 931 592 C933 598 934 603 935 609 C935 609 951 661 951 661 C968 714 977 712 994 712 C994 712 1016 712 1016 712 C1017 716 1018 727 1018 728 C1018 728 1018 728 1018 728 L1018 728 Z " />
<glyph glyph-name="X" unicode="X" horiz-adv-x="733" d="M704 728 C704 728 670 728 670 728 C670 728 612 728 612 728 C612 728 538 728 538 728 C539 724 540 713 540 712 C540 712 558 712 558 712 C586 712 600 715 542 629 C542 629 397 425 397 425 C397 425 261 634 261 634 C211 714 224 712 248 712 C248 712 266 712 266 712 C267 716 268 727 268 728 C268 728 200 728 200 728 C200 728 48 728 48 728 C48 728 16 728 16 728 C17 724 18 713 18 712 C18 712 41 712 41 712 C53 712 56 715 136 592 C136 592 136 592 136 592 C136 592 305 332 305 332 C305 332 128 91 128 91 C69 12 61 15 38 15 C38 15 16 15 16 15 C15 11 14 1 14 0 C14 0 61 0 61 0 C61 0 112 0 112 0 C112 0 213 0 213 0 C212 3 211 14 211 15 C211 15 192 15 192 15 C149 15 125 13 163 74 C163 74 203 133 203 133 C206 137 209 141 212 145 C212 145 211 145 211 145 C211 145 322 306 322 306 C322 306 433 135 433 135 C433 135 433 135 433 135 C513 12 501 15 472 15 C472 15 454 15 454 15 C453 11 452 1 452 0 C452 0 521 0 521 0 C521 0 674 0 674 0 C674 0 711 0 711 0 C710 3 709 14 709 15 C709 15 687 15 687 15 C671 15 667 12 604 107 C604 107 405 414 405 414 C405 414 530 562 530 562 C530 562 530 562 530 562 C530 562 530 563 531 563 C531 563 653 708 653 708 C662 712 670 712 680 712 C680 712 702 712 702 712 C703 716 704 727 704 728 C704 728 704 728 704 728 L704 728 Z " />
<glyph glyph-name="Y" unicode="Y" horiz-adv-x="682" d="M236 728 C236 728 178 728 178 728 C178 728 27 728 27 728 C27 728 0 728 0 728 C1 724 2 713 2 712 C2 712 24 712 24 712 C33 712 34 715 110 592 C110 592 110 592 110 592 C110 592 286 306 286 306 C286 306 286 75 286 75 C286 13 273 15 237 15 C237 15 230 15 230 15 C229 10 227 6 227 0 C227 0 474 0 474 0 C473 3 471 14 470 15 C470 15 464 15 464 15 C428 15 415 13 415 75 C415 75 415 323 415 323 C415 323 553 592 553 592 C553 592 553 592 553 592 C617 715 621 712 638 712 C638 712 660 712 660 712 C661 716 662 727 662 728 C662 728 622 728 622 728 C622 728 602 728 602 728 C602 728 544 728 544 728 C545 724 546 713 546 712 C546 712 565 712 565 712 C582 712 593 714 572 667 C572 667 545 611 545 611 C543 608 542 605 540 602 C540 602 540 602 540 602 C540 602 411 337 411 337 C411 337 259 592 259 592 C259 592 259 592 259 592 C259 592 259 592 259 593 C259 593 218 661 218 661 C189 714 199 712 216 712 C216 712 234 712 234 712 C235 716 236 727 236 728 L236 728 Z " />
<glyph glyph-name="Z" unicode="Z" horiz-adv-x="618" d="M164 0 C164 0 432 0 432 0 C432 0 587 0 587 0 C598 41 607 81 618 122 C614 121 606 121 602 119 C602 119 591 96 591 96 C576 61 571 44 503 39 C503 39 183 31 183 31 C183 31 591 701 591 701 C591 701 591 728 591 728 C591 728 466 728 466 728 C466 728 235 728 235 728 C235 728 70 728 70 728 C64 684 57 643 52 599 C57 600 71 602 72 603 C72 603 76 619 76 619 C89 673 90 693 231 693 C231 693 231 693 231 693 C231 693 447 698 447 698 C447 698 25 27 25 27 C25 27 25 0 25 0 C25 0 164 0 164 0 L164 0 Z " />
<glyph glyph-name="bracketleft" unicode="&#x5b;" horiz-adv-x="302" d="M142 694 C142 694 352 694 352 694 C352 694 352 728 352 728 C352 728 142 728 142 728 C142 728 102 728 102 728 C102 728 102 -195 102 -195 C102 -195 142 -195 142 -195 C142 -195 352 -195 352 -195 C352 -195 352 -161 352 -161 C352 -161 142 -161 142 -161 C142 -161 142 694 142 694 L142 694 Z " />
<glyph glyph-name="backslash" unicode="&#x5c;" horiz-adv-x="355" d="M18 748 C18 748 278 -80 278 -80 C278 -80 346 -80 346 -80 C346 -80 86 748 86 748 C86 748 18 748 18 748 L18 748 Z " />
<glyph glyph-name="bracketright" unicode="&#x5d;" horiz-adv-x="305" d="M155 694 C155 694 155 -161 155 -161 C155 -161 -55 -161 -55 -161 C-55 -161 -55 -195 -55 -195 C-55 -195 155 -195 155 -195 C155 -195 195 -195 195 -195 C195 -195 195 728 195 728 C195 728 155 728 155 728 C155 728 -55 728 -55 728 C-55 728 -55 694 -55 694 C-55 694 155 694 155 694 L155 694 Z " />
<glyph glyph-name="underscore" unicode="&#x5f;" horiz-adv-x="412" d="M5 -50 C5 -50 5 -114 5 -114 C5 -114 408 -114 408 -114 C408 -114 408 -50 408 -50 C408 -50 5 -50 5 -50 L5 -50 Z " />
<glyph glyph-name="a" unicode="a" horiz-adv-x="495" d="M505 123 C505 123 488 131 488 131 C481 91 466 77 433 77 C395 77 381 87 381 114 C381 114 381 336 381 336 C381 465 345 488 245 488 C85 488 44 393 57 318 C70 247 90 221 134 221 C189 221 203 254 197 290 C192 317 178 328 173 360 C163 410 174 473 236 473 C259 473 267 458 267 378 C267 378 267 264 267 264 C60 146 37 135 37 90 C37 17 65 -10 142 -10 C192 -10 219 0 269 74 C279 17 313 -5 386 -5 C457 -5 489 29 505 123 L505 123 Z M267 255 C267 255 266 114 266 114 C266 102 267 92 268 82 C247 55 231 51 203 51 C166 51 153 65 153 102 C153 196 164 197 267 255 L267 255 Z " />
<glyph glyph-name="b" unicode="b" horiz-adv-x="568" d="M12 672 C45 681 57 692 57 614 C57 614 57 0 57 0 C57 0 64 0 64 0 C64 0 108 66 108 66 C108 66 108 65 108 65 C128 10 172 -10 276 -10 C458 -10 523 57 523 242 C523 419 465 483 304 483 C242 483 204 465 172 420 C172 420 172 642 172 642 C172 642 172 728 172 728 C172 728 152 728 152 728 C152 728 9 687 9 687 C9 687 12 672 12 672 L12 672 Z M172 399 C197 432 223 445 267 445 C360 445 394 388 394 229 C394 66 364 7 281 7 C218 7 189 24 172 70 C172 70 172 195 172 195 C172 195 172 399 172 399 L172 399 Z " />
<glyph glyph-name="c" unicode="c" horiz-adv-x="502" d="M472 166 C472 166 455 170 455 170 C440 89 407 60 331 60 C202 60 156 115 156 267 C156 410 194 461 299 461 C311 461 323 440 344 383 C362 331 381 313 414 313 C483 313 501 331 483 383 C455 460 408 488 305 488 C105 488 33 418 33 224 C33 52 101 -10 291 -10 C400 -10 449 37 472 166 L472 166 Z " />
<glyph glyph-name="d" unicode="d" horiz-adv-x="544" d="M540 40 C504 35 495 18 495 129 C495 129 495 645 495 645 C495 645 495 728 495 728 C495 728 474 728 474 728 C474 728 332 687 332 687 C333 684 334 673 334 672 C368 682 380 692 380 618 C380 618 380 467 380 467 C350 481 309 488 255 488 C80 488 39 422 39 238 C39 59 91 -5 234 -5 C303 -5 344 13 380 62 C380 62 380 -10 380 -10 C380 -10 400 -10 400 -10 C400 -10 543 26 543 26 C542 33 540 34 540 40 L540 40 Z M380 102 C349 59 321 43 281 43 C189 43 156 103 156 269 C156 405 177 454 268 454 C318 454 352 429 380 379 C380 379 380 105 380 105 C380 105 380 102 380 102 L380 102 Z " />
<glyph glyph-name="e" unicode="e" horiz-adv-x="509" d="M158 339 C158 339 353 339 353 339 C353 339 480 339 480 339 C451 470 402 488 279 488 C98 488 33 416 33 218 C33 50 92 -10 256 -10 C400 -10 458 39 474 175 C474 175 459 177 459 177 C450 95 403 66 284 66 C188 66 154 119 154 264 C154 292 155 317 158 339 L158 339 Z M421 371 C429 372 438 372 448 372 C448 372 421 371 421 371 L421 371 Z M346 370 C346 370 162 366 162 366 C176 434 210 461 272 461 C308 461 325 450 346 370 C346 370 346 370 346 370 L346 370 Z " />
<glyph glyph-name="f" unicode="f" horiz-adv-x="342" d="M34 0 C34 0 245 0 245 0 C244 6 242 10 242 15 C242 15 235 15 235 15 C207 15 197 15 197 30 C197 30 197 417 197 417 C197 417 333 417 333 417 C333 417 333 478 333 478 C333 478 197 478 197 478 C197 639 213 697 278 697 C362 697 317 603 387 603 C428 603 442 617 442 658 C442 713 409 733 319 733 C127 733 82 665 82 478 C82 478 -4 430 -4 430 C-4 430 -4 417 -4 417 C-4 417 82 417 82 417 C82 417 82 30 82 30 C82 15 72 15 44 15 C44 15 37 15 37 15 C36 10 34 6 34 0 L34 0 Z " />
<glyph glyph-name="g" unicode="g" horiz-adv-x="501" d="M182 334 C182 427 198 461 242 461 C285 461 301 427 301 334 C301 241 285 207 242 207 C198 207 182 241 182 334 L182 334 Z M148 -15 C154 -15 160 -15 166 -15 C166 -15 276 -15 276 -15 C360 -15 371 -34 371 -86 C371 -173 341 -204 259 -204 C167 -204 134 -168 134 -70 C134 -43 138 -25 148 -15 C148 -15 148 -15 148 -15 L148 -15 Z M113 -10 C59 -26 39 -51 39 -97 C39 -195 96 -230 253 -230 C409 -230 466 -185 466 -59 C466 57 445 99 288 99 C288 99 172 99 172 99 C132 100 118 109 118 132 C118 167 151 180 242 180 C370 180 416 221 416 334 C416 357 414 377 410 394 C425 416 441 425 463 425 C465 425 466 419 466 404 C466 374 480 364 519 364 C554 364 566 378 566 418 C566 458 551 473 511 473 C457 473 426 458 401 420 C379 469 330 488 242 488 C113 488 67 447 67 334 C67 259 87 216 138 195 C75 183 50 153 50 98 C50 35 68 2 113 -10 C113 -10 113 -10 113 -10 L113 -10 Z " />
<glyph glyph-name="h" unicode="h" horiz-adv-x="608" d="M33 672 C66 681 78 692 78 614 C78 614 78 30 78 30 C78 15 68 15 40 15 C40 15 33 15 33 15 C32 10 30 6 30 0 C30 0 241 0 241 0 C240 6 238 10 238 15 C238 15 231 15 231 15 C203 15 193 15 193 30 C193 30 193 360 193 360 C208 395 243 407 323 407 C388 407 404 373 404 278 C404 278 404 30 404 30 C404 15 394 15 366 15 C366 15 359 15 359 15 C358 10 356 6 356 0 C356 0 567 0 567 0 C567 0 564 15 564 15 C564 15 557 15 557 15 C529 15 519 15 519 30 C519 30 519 278 519 278 C519 432 494 488 389 488 C284 488 232 457 193 370 C193 370 193 642 193 642 C193 642 193 728 193 728 C193 728 173 728 173 728 C173 728 30 687 30 687 C30 687 33 672 33 672 L33 672 Z " />
<glyph glyph-name="i" unicode="i" horiz-adv-x="281" d="M144 593 C199 593 219 613 219 667 C219 722 199 742 144 742 C90 742 70 722 70 667 C70 613 90 593 144 593 L144 593 Z M42 422 C75 431 87 442 87 364 C87 364 87 30 87 30 C87 15 78 15 54 15 C54 15 47 15 47 15 C46 11 45 1 45 0 C45 0 244 0 244 0 C243 3 242 14 242 15 C242 15 235 15 235 15 C211 15 202 15 202 30 C202 30 202 392 202 392 C202 392 202 478 202 478 C202 478 182 478 182 478 C182 478 39 437 39 437 C39 437 42 422 42 422 L42 422 Z " />
<glyph glyph-name="j" unicode="j" horiz-adv-x="281" d="M134 593 C189 593 209 613 209 667 C209 722 189 742 134 742 C80 742 60 722 60 667 C60 613 80 593 134 593 L134 593 Z M32 422 C65 431 77 442 77 364 C77 364 77 68 77 68 C77 -42 62 -91 19 -115 C-17 -115 -41 -100 -78 -100 C-111 -100 -123 -111 -123 -140 C-123 -176 -107 -188 -63 -185 C-55 -184 -27 -170 42 -130 C152 -66 192 -14 192 68 C192 68 192 392 192 392 C192 392 192 478 192 478 C192 478 172 478 172 478 C172 478 29 437 29 437 C29 437 32 422 32 422 L32 422 Z " />
<glyph glyph-name="k" unicode="k" horiz-adv-x="608" d="M552 478 C552 478 537 478 537 478 C537 478 492 478 492 478 C492 478 392 478 392 478 C393 474 394 463 394 462 C394 462 410 462 410 462 C448 462 469 465 351 376 C351 376 202 268 202 268 C202 268 202 642 202 642 C202 642 202 728 202 728 C202 728 182 728 182 728 C182 728 39 687 39 687 C39 687 42 672 42 672 C75 681 87 692 87 614 C87 614 87 30 87 30 C87 15 78 15 54 15 C54 15 47 15 47 15 C46 11 45 1 45 0 C45 0 244 0 244 0 C243 3 242 14 242 15 C242 15 235 15 235 15 C211 15 202 15 202 30 C202 30 202 268 202 268 C202 268 402 30 402 30 C402 30 401 30 401 30 C414 15 410 15 397 15 C397 15 381 15 381 15 C380 11 379 1 379 0 C379 0 427 0 427 0 C427 0 573 0 573 0 C573 0 591 0 591 0 C590 3 589 14 589 15 C589 15 566 15 566 15 C562 15 560 15 548 30 C548 30 548 30 548 30 C548 30 310 314 310 314 C310 314 490 444 490 444 C490 444 495 447 495 447 C516 462 518 462 527 462 C527 462 550 462 550 462 C551 466 552 477 552 478 C552 478 552 478 552 478 L552 478 Z " />
<glyph glyph-name="l" unicode="l" horiz-adv-x="271" d="M32 672 C65 681 77 692 77 614 C77 614 77 30 77 30 C77 15 68 15 41 15 C41 15 34 15 34 15 C33 11 32 1 32 0 C32 0 237 0 237 0 C237 0 234 15 234 15 C234 15 228 15 228 15 C201 15 192 15 192 30 C192 30 192 642 192 642 C192 642 192 728 192 728 C192 728 172 728 172 728 C172 728 29 687 29 687 C29 687 32 672 32 672 L32 672 Z " />
<glyph glyph-name="m" unicode="m" horiz-adv-x="849" d="M613 0 C613 0 818 0 818 0 C818 0 815 15 815 15 C815 15 809 15 809 15 C780 15 770 14 770 50 C770 50 770 278 770 278 C770 432 755 488 639 488 C555 488 511 459 473 380 C463 458 432 488 347 488 C266 488 223 458 186 375 C186 375 186 392 186 392 C186 392 186 478 186 478 C186 478 166 478 166 478 C166 478 23 426 23 426 C23 425 26 411 26 411 C58 425 71 435 71 357 C71 357 71 50 71 50 C71 14 61 15 33 15 C33 15 26 15 26 15 C25 10 23 6 23 0 C23 0 225 0 225 0 C224 3 223 14 223 15 C223 15 216 15 216 15 C194 15 186 14 186 50 C186 50 186 365 186 365 C198 392 229 402 299 402 C355 402 363 369 363 278 C363 278 363 50 363 50 C363 14 354 15 330 15 C330 15 323 15 323 15 C322 11 321 1 321 0 C321 0 515 0 515 0 C514 3 513 14 513 15 C513 15 506 15 506 15 C485 15 478 14 478 50 C478 50 478 278 478 278 C478 314 477 345 474 371 C489 393 521 402 591 402 C648 402 655 369 655 278 C655 278 655 50 655 50 C655 14 646 15 622 15 C622 15 615 15 615 15 C614 11 613 1 613 0 L613 0 Z " />
<glyph glyph-name="n" unicode="n" horiz-adv-x="557" d="M26 411 C58 425 71 435 71 357 C71 357 71 30 71 30 C71 15 62 15 35 15 C35 15 28 15 28 15 C27 11 26 1 26 0 C26 0 231 0 231 0 C231 0 228 15 228 15 C228 15 222 15 222 15 C195 15 186 15 186 30 C186 30 186 353 186 353 C210 407 243 427 309 427 C353 427 363 389 363 284 C363 284 363 30 363 30 C363 15 354 15 327 15 C327 15 320 15 320 15 C319 11 318 1 318 0 C318 0 523 0 523 0 C522 3 521 14 521 15 C521 15 514 15 514 15 C487 15 478 15 478 30 C478 30 478 284 478 284 C478 434 453 488 347 488 C267 488 224 458 186 373 C186 373 186 392 186 392 C186 392 186 478 186 478 C186 478 166 478 166 478 C166 478 23 426 23 426 C23 425 26 411 26 411 L26 411 Z " />
<glyph glyph-name="o" unicode="o" horiz-adv-x="590" d="M289 1 C193 1 159 64 159 239 C159 414 193 477 289 477 C384 477 418 414 418 239 C418 64 384 1 289 1 L289 1 Z M32 239 C32 56 100 -10 289 -10 C477 -10 545 56 545 239 C545 422 477 488 289 488 C100 488 32 422 32 239 L32 239 Z " />
<glyph glyph-name="p" unicode="p" horiz-adv-x="587" d="M27 411 C59 425 72 435 72 357 C72 357 72 -159 72 -159 C72 -206 62 -205 34 -205 C34 -205 27 -205 27 -205 C26 -210 24 -214 24 -220 C24 -220 235 -220 235 -220 C234 -214 232 -210 232 -205 C232 -205 225 -205 225 -205 C197 -205 187 -206 187 -159 C187 -159 187 44 187 44 C212 9 256 -5 329 -5 C486 -5 542 81 542 248 C542 424 486 488 329 488 C254 488 213 467 187 410 C187 410 187 478 187 478 C187 478 167 478 167 478 C167 478 24 426 24 426 C24 425 27 411 27 411 C27 411 27 411 27 411 L27 411 Z M187 68 C187 68 187 368 187 368 C207 420 233 440 276 440 C379 440 416 380 416 212 C416 74 392 4 325 4 C250 4 207 22 187 68 L187 68 Z " />
<glyph glyph-name="q" unicode="q" horiz-adv-x="556" d="M293 -220 C293 -220 504 -220 504 -220 C503 -217 502 -206 502 -205 C502 -205 495 -205 495 -205 C466 -205 456 -205 456 -190 C456 -190 456 478 456 478 C456 478 450 478 450 478 C450 478 412 418 412 418 C375 469 333 488 253 488 C61 488 16 422 16 238 C16 59 68 -5 213 -5 C252 -5 286 13 341 62 C341 62 341 -190 341 -190 C341 -205 331 -205 303 -205 C303 -205 296 -205 296 -205 C296 -206 293 -220 293 -220 L293 -220 Z M341 368 C341 368 341 101 341 101 C296 59 274 43 260 43 C168 43 135 103 135 269 C135 410 156 461 247 461 C279 461 304 436 341 368 C341 368 341 368 341 368 L341 368 Z " />
<glyph glyph-name="r" unicode="r" horiz-adv-x="445" d="M32 411 C64 425 77 435 77 357 C77 357 77 30 77 30 C77 15 68 15 44 15 C44 15 37 15 37 15 C36 11 35 1 35 0 C35 0 240 0 240 0 C239 6 237 10 237 15 C237 15 230 15 230 15 C202 15 192 15 192 30 C192 30 192 373 192 373 C205 417 227 434 270 434 C305 434 313 408 301 336 C292 286 310 268 368 268 C409 268 427 286 436 336 C456 448 426 488 323 488 C247 488 210 462 192 394 C192 394 192 478 192 478 C192 478 172 478 172 478 C172 478 29 426 29 426 C29 425 32 411 32 411 C32 411 32 411 32 411 L32 411 Z " />
<glyph glyph-name="s" unicode="s" horiz-adv-x="424" d="M352 357 C352 357 352 408 352 408 C352 408 352 473 352 473 C348 472 337 469 336 469 C336 469 336 454 336 454 C336 457 322 464 282 479 C282 479 281 479 281 479 C264 485 243 488 217 488 C105 488 65 453 65 355 C65 261 88 221 184 195 C266 173 286 150 286 100 C286 26 266 -1 209 -1 C164 -1 135 26 100 103 C100 103 87 97 87 97 C86 107 85 118 85 129 C85 129 85 137 85 137 C81 138 70 139 69 139 C69 139 69 88 69 88 C69 88 69 40 69 40 C76 41 79 43 85 43 C85 43 85 54 85 54 C85 33 106 11 162 -5 C162 -5 163 -5 163 -5 C177 -8 192 -10 209 -10 C331 -10 375 28 375 132 C375 215 348 252 234 283 C163 302 146 329 146 394 C146 457 165 479 217 479 C264 479 292 456 321 393 C321 393 333 399 333 399 C335 389 336 379 336 368 C336 368 336 359 336 359 C340 358 351 357 352 357 C352 357 352 357 352 357 L352 357 Z " />
<glyph glyph-name="t" unicode="t" horiz-adv-x="399" d="M350 478 C350 478 208 478 208 478 C208 478 208 592 208 592 C208 592 200 592 200 592 C200 592 28 427 28 427 C28 427 28 417 28 417 C28 417 93 417 93 417 C93 417 93 178 93 178 C93 12 132 -10 241 -10 C332 -10 372 23 390 116 C390 116 375 119 375 119 C365 64 339 44 277 44 C223 44 204 57 205 152 C205 152 208 417 208 417 C208 417 350 417 350 417 C350 417 350 478 350 478 L350 478 Z " />
<glyph glyph-name="u" unicode="u" horiz-adv-x="528" d="M499 40 C464 35 454 18 454 109 C454 109 454 447 454 447 C454 447 454 478 454 478 C454 478 302 478 302 478 C303 474 304 463 304 462 C304 462 311 462 311 462 C332 462 339 462 339 447 C339 447 339 132 339 132 C319 86 292 70 242 70 C189 70 170 93 170 156 C170 156 170 447 170 447 C170 447 170 478 170 478 C170 478 18 478 18 478 C19 474 20 463 20 462 C20 462 27 462 27 462 C47 462 55 462 55 447 C55 447 55 156 55 156 C55 34 90 -10 188 -10 C260 -10 302 25 339 120 C339 120 339 85 339 85 C339 85 339 -10 339 -10 C339 -10 359 -10 359 -10 C359 -10 502 26 502 26 C502 26 499 40 499 40 L499 40 Z " />
<glyph glyph-name="v" unicode="v" horiz-adv-x="505" d="M488 478 C488 478 446 478 446 478 C446 478 393 478 393 478 C393 478 341 478 341 478 C342 474 343 463 343 462 C343 462 362 462 362 462 C380 462 387 463 379 437 C379 437 233 -10 233 -10 C233 -10 281 137 281 137 C281 137 170 436 170 436 C170 436 170 436 170 436 C159 463 163 462 175 462 C175 462 194 462 194 462 C195 466 196 477 196 478 C196 478 154 478 154 478 C154 478 28 478 28 478 C28 478 -5 478 -5 478 C-4 474 -3 463 -3 462 C-3 462 20 462 20 462 C29 462 33 463 40 449 C40 449 233 -10 233 -10 C233 -10 267 -10 267 -10 C267 -10 431 438 431 438 C442 463 449 462 464 462 C464 462 486 462 486 462 C487 466 488 477 488 478 C488 478 488 478 488 478 L488 478 Z " />
<glyph glyph-name="w" unicode="w" horiz-adv-x="828" d="M800 478 C800 478 759 478 759 478 C759 478 705 478 705 478 C705 478 653 478 653 478 C653 478 653 476 654 470 C654 470 654 462 654 462 C654 462 674 462 674 462 C691 462 699 463 692 442 C692 442 530 -10 530 -10 C530 -10 582 136 582 136 C582 136 462 443 462 443 C462 443 462 443 462 443 C454 463 457 462 465 462 C465 462 484 462 484 462 C485 466 486 477 486 478 C486 478 448 478 448 478 C448 478 320 478 320 478 C320 478 289 478 289 478 C290 474 291 463 291 462 C291 462 314 462 314 462 C323 462 326 463 333 448 C333 448 334 446 334 446 C334 445 335 444 335 443 C335 443 335 443 335 443 C335 443 382 334 382 334 C382 334 255 -10 255 -10 C255 -10 308 136 308 136 C308 136 178 453 178 453 C174 463 177 462 183 462 C183 462 202 462 202 462 C203 466 204 477 204 478 C204 478 204 478 204 478 C204 478 167 478 167 478 C167 478 38 478 38 478 C38 478 8 478 8 478 C9 474 10 463 10 462 C10 462 33 462 33 462 C40 462 44 463 49 452 C49 452 255 -10 255 -10 C255 -10 289 -10 289 -10 C289 -10 405 281 405 281 C405 281 530 -10 530 -10 C530 -10 564 -10 564 -10 C564 -10 734 416 734 416 C734 416 735 416 735 416 C751 463 758 462 776 462 C776 462 798 462 798 462 C799 466 800 477 800 478 L800 478 Z " />
<glyph glyph-name="x" unicode="x" horiz-adv-x="532" d="M10 0 C10 0 41 0 41 0 C41 0 94 0 94 0 C94 0 149 0 149 0 C148 3 147 14 147 15 C147 15 129 15 129 15 C115 15 106 15 110 26 C110 26 214 195 214 195 C214 195 314 37 314 37 C327 14 322 15 312 15 C312 15 295 15 295 15 C294 11 293 1 293 0 C293 0 337 0 337 0 C337 0 478 0 478 0 C478 0 505 0 505 0 C504 3 503 14 503 15 C503 15 480 15 480 15 C471 15 469 14 442 57 C442 57 442 57 442 57 C442 57 305 274 305 274 C305 274 410 418 410 418 C410 418 411 418 411 418 C413 422 416 425 418 428 C418 428 432 448 432 448 C444 462 450 462 461 462 C461 462 483 462 483 462 C484 466 485 477 485 478 C485 478 454 478 454 478 C454 478 402 478 402 478 C402 478 352 478 352 478 C353 474 354 463 354 462 C354 462 371 462 371 462 C386 462 393 463 365 421 C365 421 366 421 366 421 C366 421 288 300 288 300 C288 300 214 418 214 418 C214 418 214 418 214 418 C185 463 190 462 202 462 C202 462 219 462 219 462 C220 466 221 477 221 478 C221 478 176 478 176 478 C176 478 35 478 35 478 C35 478 14 478 14 478 C15 474 16 463 16 462 C16 462 39 462 39 462 C42 462 44 463 59 440 C59 440 199 219 199 219 C199 219 72 43 72 43 C50 14 45 15 35 15 C35 15 12 15 12 15 C11 11 10 1 10 0 C10 0 10 0 10 0 L10 0 Z " />
<glyph glyph-name="y" unicode="y" horiz-adv-x="535" d="M518 478 C518 478 476 478 476 478 C476 478 423 478 423 478 C423 478 371 478 371 478 C372 474 373 463 373 462 C373 462 392 462 392 462 C408 462 416 463 411 444 C411 444 256 -10 256 -10 C256 -10 306 137 306 137 C306 137 176 448 176 448 C172 463 176 462 185 462 C185 462 204 462 204 462 C205 466 206 477 206 478 C206 478 164 478 164 478 C164 478 38 478 38 478 C38 478 6 478 6 478 C7 474 8 463 8 462 C8 462 30 462 30 462 C39 462 44 463 52 446 C52 446 256 -10 256 -10 C256 -10 211 -140 211 -140 C205 -158 197 -165 181 -165 C148 -165 149 -124 116 -124 C67 -124 50 -139 50 -182 C50 -234 68 -253 118 -253 C181 -253 212 -231 233 -171 C233 -171 290 -10 290 -10 C290 -10 452 416 452 416 C452 416 453 416 453 416 C468 463 475 462 493 462 C493 462 516 462 516 462 C517 466 518 477 518 478 C518 478 518 478 518 478 L518 478 Z " />
<glyph glyph-name="z" unicode="z" horiz-adv-x="446" d="M101 499 C101 499 99 499 94 500 C94 500 86 500 86 500 C75 462 65 425 56 386 C56 386 62 389 64 389 C64 389 74 396 74 396 C110 422 128 436 163 441 C163 441 270 445 270 445 C270 445 30 27 30 27 C30 27 30 0 30 0 C30 0 151 0 151 0 C151 0 289 0 289 0 C289 0 401 0 401 0 C403 17 405 29 408 46 C410 62 411 74 414 91 C414 91 408 88 408 88 C408 88 397 81 397 81 C355 54 335 41 291 37 C291 37 169 32 169 32 C169 32 406 451 406 451 C406 451 406 478 406 478 C406 478 289 478 289 478 C289 478 116 478 116 478 C99 478 97 486 101 499 C101 499 101 499 101 499 L101 499 Z " />
<glyph glyph-name="bar" unicode="&#x7c;" horiz-adv-x="209" d="M60 778 C60 778 60 -250 60 -250 C60 -250 149 -250 149 -250 C149 -250 149 778 149 778 C149 778 60 778 60 778 L60 778 Z " />
<glyph glyph-name="exclamdown" unicode="&#xa1;" horiz-adv-x="280" d="M140 483 C82 483 61 461 60 403 C61 344 82 323 140 323 C199 323 221 344 220 403 C221 461 199 483 140 483 L140 483 Z M140 -255 C225 -255 224 -223 211 -132 C211 -132 151 277 151 277 C151 277 130 277 130 277 C130 277 70 -132 70 -132 C57 -223 56 -255 140 -255 L140 -255 Z " />
<glyph glyph-name="cent" unicode="&#xa2;" horiz-adv-x="502" d="M270 553 C270 553 270 487 270 487 C97 479 33 406 33 224 C33 58 96 -5 270 -10 C270 -10 270 -75 270 -75 C270 -75 311 -75 311 -75 C311 -75 311 -9 311 -9 C406 -4 450 45 472 166 C472 166 455 170 455 170 C440 89 407 60 331 60 C324 60 317 60 311 60 C311 60 311 454 311 454 C320 444 330 421 344 383 C362 331 381 313 414 313 C483 313 501 331 483 383 C456 458 410 487 311 488 C311 488 311 553 311 553 C311 553 270 553 270 553 L270 553 Z M270 65 C187 83 156 142 156 267 C156 396 187 450 270 459 C270 459 270 65 270 65 L270 65 Z " />
<glyph glyph-name="questiondown" unicode="&#xbf;" horiz-adv-x="295" d="M170 483 C111 483 90 461 90 403 C90 344 111 323 170 323 C229 323 250 344 250 403 C250 461 229 483 170 483 L170 483 Z M168 245 C168 245 170 128 170 128 C47 129 44 109 7 55 C-16 22 -24 -9 -24 -63 C-24 -207 22 -259 150 -260 C229 -259 258 -237 258 -174 C258 -133 242 -118 196 -118 C162 -118 142 -138 108 -138 C36 -138 10 -115 10 -49 C10 -37 16 -25 32 -1 C57 35 53 48 198 48 C198 48 188 245 188 245 C188 245 168 245 168 245 L168 245 Z " />
<glyph glyph-name="Agrave" unicode="&#xc0;" horiz-adv-x="697" d="M424 0 C424 0 498 0 498 0 C498 0 633 0 633 0 C633 0 681 0 681 0 C680 3 679 14 679 15 C679 15 657 15 657 15 C635 15 628 12 589 135 C589 135 589 135 589 135 C589 135 408 688 408 688 C408 688 389 748 389 748 C389 748 375 748 375 748 C349 710 324 695 280 688 C280 688 283 678 283 678 C283 678 283 678 283 678 C283 678 136 165 136 165 C136 165 136 165 136 165 C93 11 80 15 43 15 C43 15 22 15 22 15 C21 11 20 1 20 0 C20 0 89 0 89 0 C89 0 102 0 102 0 C102 0 191 0 191 0 C190 3 189 14 189 15 C189 15 170 15 170 15 C123 15 105 11 148 165 C148 165 148 165 148 165 C148 165 184 293 184 293 C184 293 405 293 405 293 C405 293 455 135 455 135 C455 135 455 135 455 135 C495 12 481 15 446 15 C446 15 426 15 426 15 C425 11 424 1 424 0 L424 0 Z M253 959 C221 1006 209 1023 199 1023 C161 1023 142 1004 142 966 C142 955 158 941 201 907 C201 907 345 789 345 789 C345 789 360 803 360 803 C360 803 253 959 253 959 L253 959 Z M187 304 C187 304 287 665 287 665 C287 665 402 304 402 304 C402 304 187 304 187 304 L187 304 Z " />
<glyph glyph-name="Aacute" unicode="&#xc1;" horiz-adv-x="697" d="M352 789 C352 789 497 907 497 907 C540 943 556 957 556 966 C556 1004 537 1023 499 1023 C490 1023 477 1006 444 959 C444 959 338 803 338 803 C338 803 352 789 352 789 L352 789 Z M424 0 C424 0 498 0 498 0 C498 0 633 0 633 0 C633 0 681 0 681 0 C680 3 679 14 679 15 C679 15 657 15 657 15 C635 15 628 12 589 135 C589 135 589 135 589 135 C589 135 408 688 408 688 C408 688 389 748 389 748 C389 748 375 748 375 748 C349 710 324 695 280 688 C280 688 283 678 283 678 C283 678 283 678 283 678 C283 678 136 165 136 165 C136 165 136 165 136 165 C93 11 80 15 43 15 C43 15 22 15 22 15 C21 11 20 1 20 0 C20 0 89 0 89 0 C89 0 102 0 102 0 C102 0 191 0 191 0 C190 3 189 14 189 15 C189 15 170 15 170 15 C123 15 105 11 148 165 C148 165 148 165 148 165 C148 165 184 293 184 293 C184 293 405 293 405 293 C405 293 455 135 455 135 C455 135 455 135 455 135 C495 12 481 15 446 15 C446 15 426 15 426 15 C425 11 424 1 424 0 L424 0 Z M187 304 C187 304 287 665 287 665 C287 665 402 304 402 304 C402 304 187 304 187 304 L187 304 Z " />
<glyph glyph-name="Acircumflex" unicode="&#xc2;" horiz-adv-x="697" d="M424 0 C424 0 498 0 498 0 C498 0 633 0 633 0 C633 0 681 0 681 0 C680 3 679 14 679 15 C679 15 657 15 657 15 C635 15 628 12 589 135 C589 135 589 135 589 135 C589 135 408 688 408 688 C408 688 389 748 389 748 C389 748 375 748 375 748 C349 710 324 695 280 688 C280 688 283 678 283 678 C283 678 283 678 283 678 C283 678 136 165 136 165 C136 165 136 165 136 165 C93 11 80 15 43 15 C43 15 22 15 22 15 C21 11 20 1 20 0 C20 0 89 0 89 0 C89 0 102 0 102 0 C102 0 191 0 191 0 C190 3 189 14 189 15 C189 15 170 15 170 15 C123 15 105 11 148 165 C148 165 148 165 148 165 C148 165 184 293 184 293 C184 293 405 293 405 293 C405 293 455 135 455 135 C455 135 455 135 455 135 C495 12 481 15 446 15 C446 15 426 15 426 15 C425 11 424 1 424 0 L424 0 Z M344 899 C344 899 483 782 483 782 C483 782 498 796 498 796 C498 796 385 973 385 973 C375 989 359 1015 344 1015 C327 1015 313 989 304 974 C304 974 190 796 190 796 C190 796 205 782 205 782 C205 782 344 899 344 899 L344 899 Z M187 304 C187 304 287 665 287 665 C287 665 402 304 402 304 C402 304 187 304 187 304 L187 304 Z " />
<glyph glyph-name="Atilde" unicode="&#xc3;" horiz-adv-x="697" d="M215 848 C215 888 225 902 252 902 C317 902 337 837 403 837 C460 837 480 874 480 978 C480 978 473 978 473 978 C473 934 461 918 429 918 C364 918 344 983 278 983 C227 983 208 947 208 848 C208 848 215 848 215 848 L215 848 Z M424 0 C424 0 498 0 498 0 C498 0 633 0 633 0 C633 0 681 0 681 0 C680 3 679 14 679 15 C679 15 657 15 657 15 C635 15 628 12 589 135 C589 135 589 135 589 135 C589 135 408 688 408 688 C408 688 389 748 389 748 C389 748 375 748 375 748 C349 710 324 695 280 688 C280 688 283 678 283 678 C283 678 283 678 283 678 C283 678 136 165 136 165 C136 165 136 165 136 165 C93 11 80 15 43 15 C43 15 22 15 22 15 C21 11 20 1 20 0 C20 0 89 0 89 0 C89 0 102 0 102 0 C102 0 191 0 191 0 C190 3 189 14 189 15 C189 15 170 15 170 15 C123 15 105 11 148 165 C148 165 148 165 148 165 C148 165 184 293 184 293 C184 293 405 293 405 293 C405 293 455 135 455 135 C455 135 455 135 455 135 C495 12 481 15 446 15 C446 15 426 15 426 15 C425 11 424 1 424 0 L424 0 Z M187 304 C187 304 287 665 287 665 C287 665 402 304 402 304 C402 304 187 304 187 304 L187 304 Z " />
<glyph glyph-name="Adieresis" unicode="&#xc4;" horiz-adv-x="697" d="M422 843 C477 843 497 863 497 917 C497 972 477 992 422 992 C368 992 348 972 348 917 C348 863 368 843 422 843 L422 843 Z M266 843 C320 843 340 863 340 917 C340 972 320 992 266 992 C211 992 191 972 191 917 C191 863 211 843 266 843 L266 843 Z M424 0 C424 0 498 0 498 0 C498 0 633 0 633 0 C633 0 681 0 681 0 C680 3 679 14 679 15 C679 15 657 15 657 15 C635 15 628 12 589 135 C589 135 589 135 589 135 C589 135 408 688 408 688 C408 688 389 748 389 748 C389 748 375 748 375 748 C349 710 324 695 280 688 C280 688 283 678 283 678 C283 678 283 678 283 678 C283 678 136 165 136 165 C136 165 136 165 136 165 C93 11 80 15 43 15 C43 15 22 15 22 15 C21 11 20 1 20 0 C20 0 89 0 89 0 C89 0 102 0 102 0 C102 0 191 0 191 0 C190 3 189 14 189 15 C189 15 170 15 170 15 C123 15 105 11 148 165 C148 165 148 165 148 165 C148 165 184 293 184 293 C184 293 405 293 405 293 C405 293 455 135 455 135 C455 135 455 135 455 135 C495 12 481 15 446 15 C446 15 426 15 426 15 C425 11 424 1 424 0 L424 0 Z M187 304 C187 304 287 665 287 665 C287 665 402 304 402 304 C402 304 187 304 187 304 L187 304 Z " />
<glyph glyph-name="Aring" unicode="&#xc5;" horiz-adv-x="697" d="M344 815 C301 815 279 838 279 883 C279 933 296 951 344 951 C391 951 408 933 408 883 C408 838 386 815 344 815 L344 815 Z M246 883 C246 820 279 788 344 788 C409 788 442 820 442 883 C442 953 416 978 344 978 C272 978 246 953 246 883 L246 883 Z M424 0 C424 0 498 0 498 0 C498 0 633 0 633 0 C633 0 681 0 681 0 C680 3 679 14 679 15 C679 15 657 15 657 15 C635 15 628 12 589 135 C589 135 589 135 589 135 C589 135 408 688 408 688 C408 688 389 748 389 748 C389 748 375 748 375 748 C349 710 324 695 280 688 C280 688 283 678 283 678 C283 678 283 678 283 678 C283 678 136 165 136 165 C136 165 136 165 136 165 C93 11 80 15 43 15 C43 15 22 15 22 15 C21 11 20 1 20 0 C20 0 89 0 89 0 C89 0 102 0 102 0 C102 0 191 0 191 0 C190 3 189 14 189 15 C189 15 170 15 170 15 C123 15 105 11 148 165 C148 165 148 165 148 165 C148 165 184 293 184 293 C184 293 405 293 405 293 C405 293 455 135 455 135 C455 135 455 135 455 135 C495 12 481 15 446 15 C446 15 426 15 426 15 C425 11 424 1 424 0 L424 0 Z M187 304 C187 304 287 665 287 665 C287 665 402 304 402 304 C402 304 187 304 187 304 L187 304 Z " />
<glyph glyph-name="Egrave" unicode="&#xc8;" horiz-adv-x="609" d="M533 648 C531 675 529 701 527 728 C527 728 412 728 412 728 C412 728 236 728 236 728 C236 728 107 728 107 728 C107 728 48 728 48 728 C49 724 51 713 52 712 C52 712 58 712 58 712 C94 712 107 714 107 647 C107 647 107 80 107 80 C107 13 94 15 58 15 C58 15 52 15 52 15 C52 12 49 1 48 0 C48 0 107 0 107 0 C107 0 236 0 236 0 C236 0 437 0 437 0 C437 0 552 0 552 0 C556 27 559 51 563 79 C553 77 549 75 547 75 C547 75 547 68 547 68 C540 25 541 9 438 9 C438 9 305 9 305 9 C247 9 237 18 236 43 C236 43 236 69 236 69 C236 69 236 80 236 80 C236 80 236 389 236 389 C236 389 352 389 352 389 C455 389 452 371 452 322 C452 322 452 315 452 315 C457 313 459 314 467 310 C467 310 467 389 467 389 C467 389 467 399 467 399 C467 399 467 478 467 478 C464 478 453 475 452 474 C452 474 452 467 452 467 C452 417 455 399 352 399 C352 399 236 399 236 399 C236 399 236 647 236 647 C236 647 236 719 236 719 C236 719 413 719 413 719 C536 719 514 703 517 659 C517 659 517 652 517 652 C521 651 532 649 533 648 L533 648 Z M227 959 C195 1006 183 1023 172 1023 C134 1023 115 1004 115 966 C115 955 131 941 174 907 C174 907 319 789 319 789 C319 789 333 803 333 803 C333 803 227 959 227 959 L227 959 Z " />
<glyph glyph-name="Eacute" unicode="&#xc9;" horiz-adv-x="609" d="M326 789 C326 789 471 907 471 907 C514 943 530 957 530 966 C530 1004 510 1023 472 1023 C464 1023 451 1006 418 959 C418 959 312 803 312 803 C312 803 326 789 326 789 L326 789 Z M533 648 C531 675 529 701 527 728 C527 728 412 728 412 728 C412 728 236 728 236 728 C236 728 107 728 107 728 C107 728 48 728 48 728 C49 724 51 713 52 712 C52 712 58 712 58 712 C94 712 107 714 107 647 C107 647 107 80 107 80 C107 13 94 15 58 15 C58 15 52 15 52 15 C52 12 49 1 48 0 C48 0 107 0 107 0 C107 0 236 0 236 0 C236 0 437 0 437 0 C437 0 552 0 552 0 C556 27 559 51 563 79 C553 77 549 75 547 75 C547 75 547 68 547 68 C540 25 541 9 438 9 C438 9 305 9 305 9 C247 9 237 18 236 43 C236 43 236 69 236 69 C236 69 236 80 236 80 C236 80 236 389 236 389 C236 389 352 389 352 389 C455 389 452 371 452 322 C452 322 452 315 452 315 C457 313 459 314 467 310 C467 310 467 389 467 389 C467 389 467 399 467 399 C467 399 467 478 467 478 C464 478 453 475 452 474 C452 474 452 467 452 467 C452 417 455 399 352 399 C352 399 236 399 236 399 C236 399 236 647 236 647 C236 647 236 719 236 719 C236 719 413 719 413 719 C536 719 514 703 517 659 C517 659 517 652 517 652 C521 651 532 649 533 648 L533 648 Z " />
<glyph glyph-name="Ecircumflex" unicode="&#xca;" horiz-adv-x="609" d="M533 648 C531 675 529 701 527 728 C527 728 412 728 412 728 C412 728 236 728 236 728 C236 728 107 728 107 728 C107 728 48 728 48 728 C49 724 51 713 52 712 C52 712 58 712 58 712 C94 712 107 714 107 647 C107 647 107 80 107 80 C107 13 94 15 58 15 C58 15 52 15 52 15 C52 12 49 1 48 0 C48 0 107 0 107 0 C107 0 236 0 236 0 C236 0 437 0 437 0 C437 0 552 0 552 0 C556 27 559 51 563 79 C553 77 549 75 547 75 C547 75 547 68 547 68 C540 25 541 9 438 9 C438 9 305 9 305 9 C247 9 237 18 236 43 C236 43 236 69 236 69 C236 69 236 80 236 80 C236 80 236 389 236 389 C236 389 352 389 352 389 C455 389 452 371 452 322 C452 322 452 315 452 315 C457 313 459 314 467 310 C467 310 467 389 467 389 C467 389 467 399 467 399 C467 399 467 478 467 478 C464 478 453 475 452 474 C452 474 452 467 452 467 C452 417 455 399 352 399 C352 399 236 399 236 399 C236 399 236 647 236 647 C236 647 236 719 236 719 C236 719 413 719 413 719 C536 719 514 703 517 659 C517 659 517 652 517 652 C521 651 532 649 533 648 L533 648 Z M318 899 C318 899 456 782 456 782 C456 782 472 796 472 796 C472 796 358 973 358 973 C349 989 333 1015 317 1015 C302 1015 287 989 277 974 C277 974 163 796 163 796 C163 796 179 782 179 782 C179 782 318 899 318 899 L318 899 Z " />
<glyph glyph-name="Edieresis" unicode="&#xcb;" horiz-adv-x="609" d="M396 843 C450 843 470 863 470 917 C470 972 450 992 396 992 C341 992 321 972 321 917 C321 863 341 843 396 843 L396 843 Z M239 843 C293 843 313 863 313 917 C313 972 293 992 239 992 C185 992 165 972 165 917 C165 863 185 843 239 843 L239 843 Z M533 648 C531 675 529 701 527 728 C527 728 412 728 412 728 C412 728 236 728 236 728 C236 728 107 728 107 728 C107 728 48 728 48 728 C49 724 51 713 52 712 C52 712 58 712 58 712 C94 712 107 714 107 647 C107 647 107 80 107 80 C107 13 94 15 58 15 C58 15 52 15 52 15 C52 12 49 1 48 0 C48 0 107 0 107 0 C107 0 236 0 236 0 C236 0 437 0 437 0 C437 0 552 0 552 0 C556 27 559 51 563 79 C553 77 549 75 547 75 C547 75 547 68 547 68 C540 25 541 9 438 9 C438 9 305 9 305 9 C247 9 237 18 236 43 C236 43 236 69 236 69 C236 69 236 80 236 80 C236 80 236 389 236 389 C236 389 352 389 352 389 C455 389 452 371 452 322 C452 322 452 315 452 315 C457 313 459 314 467 310 C467 310 467 389 467 389 C467 389 467 399 467 399 C467 399 467 478 467 478 C464 478 453 475 452 474 C452 474 452 467 452 467 C452 417 455 399 352 399 C352 399 236 399 236 399 C236 399 236 647 236 647 C236 647 236 719 236 719 C236 719 413 719 413 719 C536 719 514 703 517 659 C517 659 517 652 517 652 C521 651 532 649 533 648 L533 648 Z " />
<glyph glyph-name="Igrave" unicode="&#xcc;" horiz-adv-x="338" d="M283 728 C283 728 36 728 36 728 C37 721 39 718 39 712 C39 712 46 712 46 712 C82 712 95 714 95 652 C95 652 95 75 95 75 C95 13 82 15 46 15 C46 15 39 15 39 15 C39 14 36 0 36 0 C36 0 283 0 283 0 C282 6 280 10 280 15 C280 15 273 15 273 15 C237 15 224 13 224 75 C224 75 224 652 224 652 C224 714 237 712 273 712 C273 712 280 712 280 712 C280 712 283 728 283 728 L283 728 Z M69 959 C37 1006 25 1023 15 1023 C-23 1023 -43 1004 -43 966 C-43 955 -27 941 16 907 C16 907 161 789 161 789 C161 789 175 803 175 803 C175 803 69 959 69 959 L69 959 Z " />
<glyph glyph-name="Iacute" unicode="&#xcd;" horiz-adv-x="338" d="M168 789 C168 789 313 907 313 907 C356 943 372 957 372 966 C372 1004 353 1023 315 1023 C306 1023 293 1006 260 959 C260 959 154 803 154 803 C154 803 168 789 168 789 L168 789 Z M283 728 C283 728 36 728 36 728 C37 721 39 718 39 712 C39 712 46 712 46 712 C82 712 95 714 95 652 C95 652 95 75 95 75 C95 13 82 15 46 15 C46 15 39 15 39 15 C39 14 36 0 36 0 C36 0 283 0 283 0 C282 6 280 10 280 15 C280 15 273 15 273 15 C237 15 224 13 224 75 C224 75 224 652 224 652 C224 714 237 712 273 712 C273 712 280 712 280 712 C280 712 283 728 283 728 L283 728 Z " />
<glyph glyph-name="Icircumflex" unicode="&#xce;" horiz-adv-x="338" d="M283 728 C283 728 36 728 36 728 C37 721 39 718 39 712 C39 712 46 712 46 712 C82 712 95 714 95 652 C95 652 95 75 95 75 C95 13 82 15 46 15 C46 15 39 15 39 15 C39 14 36 0 36 0 C36 0 283 0 283 0 C282 6 280 10 280 15 C280 15 273 15 273 15 C237 15 224 13 224 75 C224 75 224 652 224 652 C224 714 237 712 273 712 C273 712 280 712 280 712 C280 712 283 728 283 728 L283 728 Z M160 899 C160 899 298 782 298 782 C298 782 314 796 314 796 C314 796 200 973 200 973 C191 989 175 1015 160 1015 C144 1015 129 989 119 974 C119 974 5 796 5 796 C5 796 21 782 21 782 C21 782 160 899 160 899 L160 899 Z " />
<glyph glyph-name="Idieresis" unicode="&#xcf;" horiz-adv-x="338" d="M238 843 C292 843 312 863 312 917 C312 972 292 992 238 992 C184 992 164 972 164 917 C164 863 184 843 238 843 L238 843 Z M81 843 C136 843 156 863 156 917 C156 972 136 992 81 992 C27 992 7 972 7 917 C7 863 27 843 81 843 L81 843 Z M283 728 C283 728 36 728 36 728 C37 721 39 718 39 712 C39 712 46 712 46 712 C82 712 95 714 95 652 C95 652 95 75 95 75 C95 13 82 15 46 15 C46 15 39 15 39 15 C39 14 36 0 36 0 C36 0 283 0 283 0 C282 6 280 10 280 15 C280 15 273 15 273 15 C237 15 224 13 224 75 C224 75 224 652 224 652 C224 714 237 712 273 712 C273 712 280 712 280 712 C280 712 283 728 283 728 L283 728 Z " />
<glyph glyph-name="Ntilde" unicode="&#xd1;" horiz-adv-x="713" d="M223 848 C223 888 233 902 260 902 C326 902 346 837 411 837 C468 837 488 874 488 978 C488 978 481 978 481 978 C481 934 469 918 438 918 C372 918 352 983 286 983 C235 983 216 947 216 848 C216 848 223 848 223 848 L223 848 Z M-14 712 C-14 712 9 712 9 712 C17 712 20 713 43 683 C43 683 107 600 107 600 C107 600 105 145 105 145 C105 145 105 145 105 145 C105 11 93 15 60 15 C60 15 38 15 38 15 C37 11 36 1 36 0 C36 0 105 0 105 0 C105 0 144 0 144 0 C144 0 212 0 212 0 C211 3 210 14 210 15 C210 15 189 15 189 15 C159 15 146 13 143 90 C143 90 140 556 140 556 C140 556 429 177 429 177 C429 177 564 0 564 0 C564 0 589 0 589 0 C589 0 597 612 597 612 C597 612 598 612 598 612 C597 715 613 712 657 712 C657 712 664 712 664 712 C665 716 667 727 668 728 C668 728 599 728 599 728 C599 728 560 728 560 728 C560 728 491 728 491 728 C492 721 494 718 494 712 C494 712 501 712 501 712 C540 712 557 714 560 640 C560 640 563 206 563 206 C563 206 529 251 529 251 C529 251 169 728 169 728 C169 728 139 728 139 728 C139 728 107 728 107 728 C107 728 9 728 9 728 C9 728 -16 728 -16 728 C-15 724 -14 713 -14 712 C-14 712 -14 712 -14 712 L-14 712 Z " />
<glyph glyph-name="Ograve" unicode="&#xd2;" horiz-adv-x="865" d="M413 1 C247 1 187 97 187 364 C187 631 248 727 419 727 C599 727 664 631 664 364 C664 97 597 1 413 1 L413 1 Z M40 364 C40 89 138 -10 410 -10 C705 -10 811 89 811 364 C811 639 708 738 420 738 C141 738 40 639 40 364 L40 364 Z M330 959 C298 1006 286 1023 276 1023 C237 1023 218 1004 218 966 C218 955 234 941 277 907 C277 907 422 789 422 789 C422 789 436 803 436 803 C436 803 330 959 330 959 L330 959 Z " />
<glyph glyph-name="Oacute" unicode="&#xd3;" horiz-adv-x="865" d="M429 789 C429 789 574 907 574 907 C617 943 633 957 633 966 C633 1004 614 1023 575 1023 C567 1023 554 1006 521 959 C521 959 415 803 415 803 C415 803 429 789 429 789 L429 789 Z M413 1 C247 1 187 97 187 364 C187 631 248 727 419 727 C599 727 664 631 664 364 C664 97 597 1 413 1 L413 1 Z M40 364 C40 89 138 -10 410 -10 C705 -10 811 89 811 364 C811 639 708 738 420 738 C141 738 40 639 40 364 L40 364 Z " />
<glyph glyph-name="Ocircumflex" unicode="&#xd4;" horiz-adv-x="865" d="M413 1 C247 1 187 97 187 364 C187 631 248 727 419 727 C599 727 664 631 664 364 C664 97 597 1 413 1 L413 1 Z M40 364 C40 89 138 -10 410 -10 C705 -10 811 89 811 364 C811 639 708 738 420 738 C141 738 40 639 40 364 L40 364 Z M421 899 C421 899 559 782 559 782 C559 782 575 796 575 796 C575 796 461 973 461 973 C452 989 436 1015 420 1015 C405 1015 390 989 380 974 C380 974 266 796 266 796 C266 796 282 782 282 782 C282 782 421 899 421 899 L421 899 Z " />
<glyph glyph-name="Otilde" unicode="&#xd5;" horiz-adv-x="865" d="M291 848 C291 888 301 902 328 902 C394 902 414 837 480 837 C536 837 556 874 556 978 C556 978 550 978 550 978 C550 934 538 918 506 918 C440 918 420 983 355 983 C303 983 285 947 285 848 C285 848 291 848 291 848 L291 848 Z M413 1 C247 1 187 97 187 364 C187 631 248 727 419 727 C599 727 664 631 664 364 C664 97 597 1 413 1 L413 1 Z M40 364 C40 89 138 -10 410 -10 C705 -10 811 89 811 364 C811 639 708 738 420 738 C141 738 40 639 40 364 L40 364 Z " />
<glyph glyph-name="Odieresis" unicode="&#xd6;" horiz-adv-x="865" d="M499 843 C553 843 573 863 573 917 C573 972 553 992 499 992 C444 992 424 972 424 917 C424 863 444 843 499 843 L499 843 Z M342 843 C396 843 416 863 416 917 C416 972 396 992 342 992 C288 992 268 972 268 917 C268 863 288 843 342 843 L342 843 Z M413 1 C247 1 187 97 187 364 C187 631 248 727 419 727 C599 727 664 631 664 364 C664 97 597 1 413 1 L413 1 Z M40 364 C40 89 138 -10 410 -10 C705 -10 811 89 811 364 C811 639 708 738 420 738 C141 738 40 639 40 364 L40 364 Z " />
<glyph glyph-name="Oslash" unicode="&#xd8;" horiz-adv-x="865" d="M47 -17 C47 -17 132 65 132 65 C191 12 281 -10 410 -10 C705 -10 811 89 811 364 C811 496 787 588 731 647 C731 647 817 731 817 731 C817 731 804 744 804 744 C804 744 717 660 717 660 C655 715 559 738 420 738 C141 738 40 639 40 364 C40 230 63 138 118 79 C118 79 34 -3 34 -3 C34 -3 47 -17 47 -17 L47 -17 Z M413 1 C305 1 242 41 211 143 C211 143 644 563 644 563 C658 511 664 446 664 364 C664 97 597 1 413 1 C413 1 413 1 413 1 L413 1 Z M206 163 C193 215 187 282 187 364 C187 631 248 727 419 727 C537 727 605 686 638 583 C638 583 206 163 206 163 L206 163 Z " />
<glyph glyph-name="Ugrave" unicode="&#xd9;" horiz-adv-x="718" d="M450 712 C450 712 456 712 456 712 C492 712 505 714 505 647 C505 647 505 195 505 195 C464 105 415 73 322 73 C233 73 201 111 201 215 C201 215 201 647 201 647 C201 647 201 728 201 728 C201 728 13 728 13 728 C14 724 16 713 17 712 C17 712 23 712 23 712 C59 712 72 714 72 647 C72 647 72 215 72 215 C72 50 124 -10 270 -10 C393 -10 455 29 505 137 C505 137 505 105 505 105 C505 105 505 0 505 0 C505 0 526 0 526 0 C526 0 689 53 689 53 C689 53 689 60 689 60 C632 57 634 54 634 105 C634 105 634 647 634 647 C634 647 634 728 634 728 C634 728 446 728 446 728 C447 724 449 713 450 712 L450 712 Z M263 959 C231 1006 219 1023 208 1023 C170 1023 151 1004 151 966 C151 955 167 941 210 907 C210 907 355 789 355 789 C355 789 369 803 369 803 C369 803 263 959 263 959 L263 959 Z " />
<glyph glyph-name="Uacute" unicode="&#xda;" horiz-adv-x="718" d="M362 789 C362 789 506 907 506 907 C550 943 566 957 566 966 C566 1004 546 1023 508 1023 C500 1023 487 1006 454 959 C454 959 347 803 347 803 C347 803 362 789 362 789 L362 789 Z M450 712 C450 712 456 712 456 712 C492 712 505 714 505 647 C505 647 505 195 505 195 C464 105 415 73 322 73 C233 73 201 111 201 215 C201 215 201 647 201 647 C201 647 201 728 201 728 C201 728 13 728 13 728 C14 724 16 713 17 712 C17 712 23 712 23 712 C59 712 72 714 72 647 C72 647 72 215 72 215 C72 50 124 -10 270 -10 C393 -10 455 29 505 137 C505 137 505 105 505 105 C505 105 505 0 505 0 C505 0 526 0 526 0 C526 0 689 53 689 53 C689 53 689 60 689 60 C632 57 634 54 634 105 C634 105 634 647 634 647 C634 647 634 728 634 728 C634 728 446 728 446 728 C447 724 449 713 450 712 L450 712 Z " />
<glyph glyph-name="Ucircumflex" unicode="&#xdb;" horiz-adv-x="718" d="M450 712 C450 712 456 712 456 712 C492 712 505 714 505 647 C505 647 505 195 505 195 C464 105 415 73 322 73 C233 73 201 111 201 215 C201 215 201 647 201 647 C201 647 201 728 201 728 C201 728 13 728 13 728 C14 724 16 713 17 712 C17 712 23 712 23 712 C59 712 72 714 72 647 C72 647 72 215 72 215 C72 50 124 -10 270 -10 C393 -10 455 29 505 137 C505 137 505 105 505 105 C505 105 505 0 505 0 C505 0 526 0 526 0 C526 0 689 53 689 53 C689 53 689 60 689 60 C632 57 634 54 634 105 C634 105 634 647 634 647 C634 647 634 728 634 728 C634 728 446 728 446 728 C447 724 449 713 450 712 L450 712 Z M354 899 C354 899 492 782 492 782 C492 782 508 796 508 796 C508 796 394 973 394 973 C384 989 370 1015 353 1015 C338 1015 322 989 313 974 C313 974 199 796 199 796 C199 796 214 782 214 782 C214 782 354 899 354 899 L354 899 Z " />
<glyph glyph-name="Udieresis" unicode="&#xdc;" horiz-adv-x="718" d="M432 843 C486 843 506 863 506 917 C506 972 486 992 432 992 C377 992 357 972 357 917 C357 863 377 843 432 843 L432 843 Z M275 843 C329 843 349 863 349 917 C349 972 329 992 275 992 C220 992 200 972 200 917 C200 863 220 843 275 843 L275 843 Z M450 712 C450 712 456 712 456 712 C492 712 505 714 505 647 C505 647 505 195 505 195 C464 105 415 73 322 73 C233 73 201 111 201 215 C201 215 201 647 201 647 C201 647 201 728 201 728 C201 728 13 728 13 728 C14 724 16 713 17 712 C17 712 23 712 23 712 C59 712 72 714 72 647 C72 647 72 215 72 215 C72 50 124 -10 270 -10 C393 -10 455 29 505 137 C505 137 505 105 505 105 C505 105 505 0 505 0 C505 0 526 0 526 0 C526 0 689 53 689 53 C689 53 689 60 689 60 C632 57 634 54 634 105 C634 105 634 647 634 647 C634 647 634 728 634 728 C634 728 446 728 446 728 C447 724 449 713 450 712 L450 712 Z " />
<glyph glyph-name="Yacute" unicode="&#xdd;" horiz-adv-x="682" d="M359 789 C359 789 503 907 503 907 C547 943 563 957 563 966 C563 1004 543 1023 505 1023 C497 1023 484 1006 451 959 C451 959 345 803 345 803 C345 803 359 789 359 789 L359 789 Z M236 728 C236 728 178 728 178 728 C178 728 27 728 27 728 C27 728 0 728 0 728 C1 724 2 713 2 712 C2 712 24 712 24 712 C33 712 34 715 110 592 C110 592 110 592 110 592 C110 592 286 306 286 306 C286 306 286 75 286 75 C286 13 273 15 237 15 C237 15 230 15 230 15 C229 10 227 6 227 0 C227 0 474 0 474 0 C473 3 471 14 470 15 C470 15 464 15 464 15 C428 15 415 13 415 75 C415 75 415 323 415 323 C415 323 553 592 553 592 C553 592 553 592 553 592 C617 715 621 712 638 712 C638 712 660 712 660 712 C661 716 662 727 662 728 C662 728 622 728 622 728 C622 728 602 728 602 728 C602 728 544 728 544 728 C545 724 546 713 546 712 C546 712 565 712 565 712 C582 712 593 714 572 667 C572 667 545 611 545 611 C543 608 542 605 540 602 C540 602 540 602 540 602 C540 602 411 337 411 337 C411 337 259 592 259 592 C259 592 259 592 259 592 C259 592 259 592 259 593 C259 593 218 661 218 661 C189 714 199 712 216 712 C216 712 234 712 234 712 C235 716 236 727 236 728 L236 728 Z " />
<glyph glyph-name="agrave" unicode="&#xe0;" horiz-adv-x="495" d="M505 123 C505 123 488 131 488 131 C481 91 466 77 433 77 C395 77 381 87 381 114 C381 114 381 336 381 336 C381 465 345 488 245 488 C85 488 44 393 57 318 C70 247 90 221 134 221 C189 221 203 254 197 290 C192 317 178 328 173 360 C163 410 174 473 236 473 C259 473 267 458 267 378 C267 378 267 264 267 264 C60 146 37 135 37 90 C37 17 65 -10 142 -10 C192 -10 219 0 269 74 C279 17 313 -5 386 -5 C457 -5 489 29 505 123 L505 123 Z M154 709 C123 756 111 773 100 773 C62 773 43 754 43 716 C43 705 59 691 102 657 C102 657 246 539 246 539 C246 539 261 553 261 553 C261 553 154 709 154 709 L154 709 Z M267 255 C267 255 266 114 266 114 C266 102 267 92 268 82 C247 55 231 51 203 51 C166 51 153 65 153 102 C153 196 164 197 267 255 L267 255 Z " />
<glyph glyph-name="aacute" unicode="&#xe1;" horiz-adv-x="495" d="M254 539 C254 539 398 657 398 657 C441 693 457 707 457 716 C457 754 438 773 400 773 C391 773 378 756 346 709 C346 709 239 553 239 553 C239 553 254 539 254 539 L254 539 Z M505 123 C505 123 488 131 488 131 C481 91 466 77 433 77 C395 77 381 87 381 114 C381 114 381 336 381 336 C381 465 345 488 245 488 C85 488 44 393 57 318 C70 247 90 221 134 221 C189 221 203 254 197 290 C192 317 178 328 173 360 C163 410 174 473 236 473 C259 473 267 458 267 378 C267 378 267 264 267 264 C60 146 37 135 37 90 C37 17 65 -10 142 -10 C192 -10 219 0 269 74 C279 17 313 -5 386 -5 C457 -5 489 29 505 123 L505 123 Z M267 255 C267 255 266 114 266 114 C266 102 267 92 268 82 C247 55 231 51 203 51 C166 51 153 65 153 102 C153 196 164 197 267 255 L267 255 Z " />
<glyph glyph-name="acircumflex" unicode="&#xe2;" horiz-adv-x="495" d="M505 123 C505 123 488 131 488 131 C481 91 466 77 433 77 C395 77 381 87 381 114 C381 114 381 336 381 336 C381 465 345 488 245 488 C85 488 44 393 57 318 C70 247 90 221 134 221 C189 221 203 254 197 290 C192 317 178 328 173 360 C163 410 174 473 236 473 C259 473 267 458 267 378 C267 378 267 264 267 264 C60 146 37 135 37 90 C37 17 65 -10 142 -10 C192 -10 219 0 269 74 C279 17 313 -5 386 -5 C457 -5 489 29 505 123 L505 123 Z M245 649 C245 649 384 532 384 532 C384 532 399 546 399 546 C399 546 286 723 286 723 C276 739 260 765 245 765 C230 765 214 739 205 724 C205 724 91 546 91 546 C91 546 106 532 106 532 C106 532 245 649 245 649 L245 649 Z M267 255 C267 255 266 114 266 114 C266 102 267 92 268 82 C247 55 231 51 203 51 C166 51 153 65 153 102 C153 196 164 197 267 255 L267 255 Z " />
<glyph glyph-name="atilde" unicode="&#xe3;" horiz-adv-x="495" d="M116 598 C116 638 126 652 153 652 C218 652 239 587 304 587 C361 587 381 624 381 728 C381 728 374 728 374 728 C374 684 362 668 331 668 C265 668 245 733 179 733 C128 733 109 697 109 598 C109 598 116 598 116 598 L116 598 Z M505 123 C505 123 488 131 488 131 C481 91 466 77 433 77 C395 77 381 87 381 114 C381 114 381 336 381 336 C381 465 345 488 245 488 C85 488 44 393 57 318 C70 247 90 221 134 221 C189 221 203 254 197 290 C192 317 178 328 173 360 C163 410 174 473 236 473 C259 473 267 458 267 378 C267 378 267 264 267 264 C60 146 37 135 37 90 C37 17 65 -10 142 -10 C192 -10 219 0 269 74 C279 17 313 -5 386 -5 C457 -5 489 29 505 123 L505 123 Z M267 255 C267 255 266 114 266 114 C266 102 267 92 268 82 C247 55 231 51 203 51 C166 51 153 65 153 102 C153 196 164 197 267 255 L267 255 Z " />
<glyph glyph-name="adieresis" unicode="&#xe4;" horiz-adv-x="495" d="M323 593 C378 593 398 613 398 667 C398 722 378 742 323 742 C269 742 249 722 249 667 C249 613 269 593 323 593 L323 593 Z M167 593 C221 593 241 613 241 667 C241 722 221 742 167 742 C112 742 92 722 92 667 C92 613 112 593 167 593 L167 593 Z M505 123 C505 123 488 131 488 131 C481 91 466 77 433 77 C395 77 381 87 381 114 C381 114 381 336 381 336 C381 465 345 488 245 488 C85 488 44 393 57 318 C70 247 90 221 134 221 C189 221 203 254 197 290 C192 317 178 328 173 360 C163 410 174 473 236 473 C259 473 267 458 267 378 C267 378 267 264 267 264 C60 146 37 135 37 90 C37 17 65 -10 142 -10 C192 -10 219 0 269 74 C279 17 313 -5 386 -5 C457 -5 489 29 505 123 L505 123 Z M267 255 C267 255 266 114 266 114 C266 102 267 92 268 82 C247 55 231 51 203 51 C166 51 153 65 153 102 C153 196 164 197 267 255 L267 255 Z " />
<glyph glyph-name="aring" unicode="&#xe5;" horiz-adv-x="495" d="M245 565 C202 565 180 588 180 633 C180 683 197 701 245 701 C293 701 310 683 310 633 C310 588 288 565 245 565 L245 565 Z M147 633 C147 570 180 538 245 538 C310 538 343 570 343 633 C343 703 317 728 245 728 C173 728 147 703 147 633 L147 633 Z M505 123 C505 123 488 131 488 131 C481 91 466 77 433 77 C395 77 381 87 381 114 C381 114 381 336 381 336 C381 465 345 488 245 488 C85 488 44 393 57 318 C70 247 90 221 134 221 C189 221 203 254 197 290 C192 317 178 328 173 360 C163 410 174 473 236 473 C259 473 267 458 267 378 C267 378 267 264 267 264 C60 146 37 135 37 90 C37 17 65 -10 142 -10 C192 -10 219 0 269 74 C279 17 313 -5 386 -5 C457 -5 489 29 505 123 L505 123 Z M267 255 C267 255 266 114 266 114 C266 102 267 92 268 82 C247 55 231 51 203 51 C166 51 153 65 153 102 C153 196 164 197 267 255 L267 255 Z " />
<glyph glyph-name="egrave" unicode="&#xe8;" horiz-adv-x="509" d="M188 709 C156 756 144 773 134 773 C96 773 77 754 77 716 C77 705 93 691 136 657 C136 657 280 539 280 539 C280 539 295 553 295 553 C295 553 188 709 188 709 L188 709 Z M158 339 C158 339 353 339 353 339 C353 339 480 339 480 339 C451 470 402 488 279 488 C98 488 33 416 33 218 C33 50 92 -10 256 -10 C400 -10 458 39 474 175 C474 175 459 177 459 177 C450 95 403 66 284 66 C188 66 154 119 154 264 C154 292 155 317 158 339 L158 339 Z M421 371 C429 372 438 372 448 372 C448 372 421 371 421 371 L421 371 Z M346 370 C346 370 162 366 162 366 C176 434 210 461 272 461 C308 461 325 450 346 370 C346 370 346 370 346 370 L346 370 Z " />
<glyph glyph-name="eacute" unicode="&#xe9;" horiz-adv-x="509" d="M287 539 C287 539 432 657 432 657 C475 693 491 707 491 716 C491 754 472 773 434 773 C425 773 412 756 379 709 C379 709 273 553 273 553 C273 553 287 539 287 539 L287 539 Z M158 339 C158 339 353 339 353 339 C353 339 480 339 480 339 C451 470 402 488 279 488 C98 488 33 416 33 218 C33 50 92 -10 256 -10 C400 -10 458 39 474 175 C474 175 459 177 459 177 C450 95 403 66 284 66 C188 66 154 119 154 264 C154 292 155 317 158 339 L158 339 Z M421 371 C429 372 438 372 448 372 C448 372 421 371 421 371 L421 371 Z M346 370 C346 370 162 366 162 366 C176 434 210 461 272 461 C308 461 325 450 346 370 C346 370 346 370 346 370 L346 370 Z " />
<glyph glyph-name="ecircumflex" unicode="&#xea;" horiz-adv-x="509" d="M279 649 C279 649 418 532 418 532 C418 532 433 546 433 546 C433 546 320 723 320 723 C310 739 294 765 279 765 C262 765 248 739 238 724 C238 724 125 546 125 546 C125 546 140 532 140 532 C140 532 279 649 279 649 L279 649 Z M158 339 C158 339 353 339 353 339 C353 339 480 339 480 339 C451 470 402 488 279 488 C98 488 33 416 33 218 C33 50 92 -10 256 -10 C400 -10 458 39 474 175 C474 175 459 177 459 177 C450 95 403 66 284 66 C188 66 154 119 154 264 C154 292 155 317 158 339 L158 339 Z M421 371 C429 372 438 372 448 372 C448 372 421 371 421 371 L421 371 Z M346 370 C346 370 162 366 162 366 C176 434 210 461 272 461 C308 461 325 450 346 370 C346 370 346 370 346 370 L346 370 Z " />
<glyph glyph-name="edieresis" unicode="&#xeb;" horiz-adv-x="509" d="M357 593 C412 593 432 613 432 667 C432 722 412 742 357 742 C303 742 283 722 283 667 C283 613 303 593 357 593 L357 593 Z M200 593 C255 593 275 613 275 667 C275 722 255 742 200 742 C146 742 126 722 126 667 C126 613 146 593 200 593 L200 593 Z M158 339 C158 339 353 339 353 339 C353 339 480 339 480 339 C451 470 402 488 279 488 C98 488 33 416 33 218 C33 50 92 -10 256 -10 C400 -10 458 39 474 175 C474 175 459 177 459 177 C450 95 403 66 284 66 C188 66 154 119 154 264 C154 292 155 317 158 339 L158 339 Z M421 371 C429 372 438 372 448 372 C448 372 421 371 421 371 L421 371 Z M346 370 C346 370 162 366 162 366 C176 434 210 461 272 461 C308 461 325 450 346 370 C346 370 346 370 346 370 L346 370 Z " />
<glyph glyph-name="igrave" unicode="&#xec;" horiz-adv-x="301" d="M62 0 C62 0 269 0 269 0 C269 0 266 15 266 15 C266 15 260 15 260 15 C232 15 222 15 222 30 C222 30 222 370 222 370 C222 370 222 478 222 478 C222 478 202 478 202 478 C202 478 64 423 64 423 C64 423 64 415 64 415 C108 417 107 420 107 370 C107 370 107 30 107 30 C107 15 98 15 72 15 C72 15 65 15 65 15 C64 10 62 6 62 0 L62 0 Z M74 709 C42 756 30 773 20 773 C-18 773 -38 754 -38 716 C-38 705 -22 691 22 657 C22 657 166 539 166 539 C166 539 181 553 181 553 C181 553 74 709 74 709 L74 709 Z " />
<glyph glyph-name="iacute" unicode="&#xed;" horiz-adv-x="301" d="M62 0 C62 0 269 0 269 0 C269 0 266 15 266 15 C266 15 260 15 260 15 C232 15 222 15 222 30 C222 30 222 370 222 370 C222 370 222 478 222 478 C222 478 202 478 202 478 C202 478 64 423 64 423 C64 423 64 415 64 415 C108 417 107 420 107 370 C107 370 107 30 107 30 C107 15 98 15 72 15 C72 15 65 15 65 15 C64 10 62 6 62 0 L62 0 Z M74 709 C42 756 30 773 20 773 C-18 773 -38 754 -38 716 C-38 705 -22 691 22 657 C22 657 166 539 166 539 C166 539 181 553 181 553 C181 553 74 709 74 709 L74 709 Z " />
<glyph glyph-name="icircumflex" unicode="&#xee;" horiz-adv-x="301" d="M62 0 C62 0 269 0 269 0 C269 0 266 15 266 15 C266 15 260 15 260 15 C232 15 222 15 222 30 C222 30 222 370 222 370 C222 370 222 478 222 478 C222 478 202 478 202 478 C202 478 64 423 64 423 C64 423 64 415 64 415 C108 417 107 420 107 370 C107 370 107 30 107 30 C107 15 98 15 72 15 C72 15 65 15 65 15 C64 10 62 6 62 0 L62 0 Z M165 649 C165 649 304 532 304 532 C304 532 319 546 319 546 C319 546 205 723 205 723 C196 739 180 765 165 765 C148 765 134 739 124 724 C124 724 10 546 10 546 C10 546 26 532 26 532 C26 532 165 649 165 649 L165 649 Z " />
<glyph glyph-name="idieresis" unicode="&#xef;" horiz-adv-x="301" d="M243 593 C298 593 318 613 318 667 C318 722 298 742 243 742 C189 742 169 722 169 667 C169 613 189 593 243 593 L243 593 Z M86 593 C141 593 161 613 161 667 C161 722 141 742 86 742 C32 742 12 722 12 667 C12 613 32 593 86 593 L86 593 Z M62 0 C62 0 269 0 269 0 C269 0 266 15 266 15 C266 15 260 15 260 15 C232 15 222 15 222 30 C222 30 222 370 222 370 C222 370 222 478 222 478 C222 478 202 478 202 478 C202 478 64 423 64 423 C64 423 64 415 64 415 C108 417 107 420 107 370 C107 370 107 30 107 30 C107 15 98 15 72 15 C72 15 65 15 65 15 C64 10 62 6 62 0 L62 0 Z " />
<glyph glyph-name="ntilde" unicode="&#xf1;" horiz-adv-x="557" d="M145 598 C145 638 155 652 182 652 C248 652 268 587 334 587 C390 587 410 624 410 728 C410 728 404 728 404 728 C404 684 392 668 360 668 C294 668 274 733 209 733 C157 733 139 697 139 598 C139 598 145 598 145 598 L145 598 Z M26 411 C58 425 71 435 71 357 C71 357 71 30 71 30 C71 15 62 15 35 15 C35 15 28 15 28 15 C27 11 26 1 26 0 C26 0 231 0 231 0 C231 0 228 15 228 15 C228 15 222 15 222 15 C195 15 186 15 186 30 C186 30 186 353 186 353 C210 407 243 427 309 427 C353 427 363 389 363 284 C363 284 363 30 363 30 C363 15 354 15 327 15 C327 15 320 15 320 15 C319 11 318 1 318 0 C318 0 523 0 523 0 C522 3 521 14 521 15 C521 15 514 15 514 15 C487 15 478 15 478 30 C478 30 478 284 478 284 C478 434 453 488 347 488 C267 488 224 458 186 373 C186 373 186 392 186 392 C186 392 186 478 186 478 C186 478 166 478 166 478 C166 478 23 426 23 426 C23 425 26 411 26 411 L26 411 Z " />
<glyph glyph-name="ograve" unicode="&#xf2;" horiz-adv-x="590" d="M289 1 C193 1 159 64 159 239 C159 414 193 477 289 477 C384 477 418 414 418 239 C418 64 384 1 289 1 L289 1 Z M32 239 C32 56 100 -10 289 -10 C477 -10 545 56 545 239 C545 422 477 488 289 488 C100 488 32 422 32 239 L32 239 Z M198 709 C166 756 154 773 144 773 C106 773 86 754 86 716 C86 705 102 691 146 657 C146 657 290 539 290 539 C290 539 305 553 305 553 C305 553 198 709 198 709 L198 709 Z " />
<glyph glyph-name="oacute" unicode="&#xf3;" horiz-adv-x="590" d="M297 539 C297 539 442 657 442 657 C485 693 501 707 501 716 C501 754 482 773 444 773 C435 773 422 756 389 709 C389 709 283 553 283 553 C283 553 297 539 297 539 L297 539 Z M289 1 C193 1 159 64 159 239 C159 414 193 477 289 477 C384 477 418 414 418 239 C418 64 384 1 289 1 L289 1 Z M32 239 C32 56 100 -10 289 -10 C477 -10 545 56 545 239 C545 422 477 488 289 488 C100 488 32 422 32 239 L32 239 Z " />
<glyph glyph-name="ocircumflex" unicode="&#xf4;" horiz-adv-x="590" d="M289 1 C193 1 159 64 159 239 C159 414 193 477 289 477 C384 477 418 414 418 239 C418 64 384 1 289 1 L289 1 Z M32 239 C32 56 100 -10 289 -10 C477 -10 545 56 545 239 C545 422 477 488 289 488 C100 488 32 422 32 239 L32 239 Z M289 649 C289 649 428 532 428 532 C428 532 443 546 443 546 C443 546 329 723 329 723 C320 739 304 765 289 765 C272 765 258 739 248 724 C248 724 134 546 134 546 C134 546 150 532 150 532 C150 532 289 649 289 649 L289 649 Z " />
<glyph glyph-name="otilde" unicode="&#xf5;" horiz-adv-x="590" d="M159 598 C159 638 169 652 197 652 C262 652 282 587 348 587 C405 587 425 624 425 728 C425 728 418 728 418 728 C418 684 406 668 374 668 C309 668 289 733 223 733 C172 733 153 697 153 598 C153 598 159 598 159 598 L159 598 Z M289 1 C193 1 159 64 159 239 C159 414 193 477 289 477 C384 477 418 414 418 239 C418 64 384 1 289 1 L289 1 Z M32 239 C32 56 100 -10 289 -10 C477 -10 545 56 545 239 C545 422 477 488 289 488 C100 488 32 422 32 239 L32 239 Z " />
<glyph glyph-name="odieresis" unicode="&#xf6;" horiz-adv-x="590" d="M367 593 C422 593 442 613 442 667 C442 722 422 742 367 742 C313 742 293 722 293 667 C293 613 313 593 367 593 L367 593 Z M210 593 C265 593 285 613 285 667 C285 722 265 742 210 742 C156 742 136 722 136 667 C136 613 156 593 210 593 L210 593 Z M289 1 C193 1 159 64 159 239 C159 414 193 477 289 477 C384 477 418 414 418 239 C418 64 384 1 289 1 L289 1 Z M32 239 C32 56 100 -10 289 -10 C477 -10 545 56 545 239 C545 422 477 488 289 488 C100 488 32 422 32 239 L32 239 Z " />
<glyph glyph-name="oslash" unicode="&#xf8;" horiz-adv-x="590" d="M37 -15 C37 -15 95 41 95 41 C136 5 198 -10 289 -10 C477 -10 545 56 545 239 C545 327 529 388 492 427 C492 427 550 483 550 483 C550 483 541 492 541 492 C541 492 483 436 483 436 C443 473 380 488 289 488 C100 488 32 422 32 239 C32 151 48 90 85 50 C85 50 28 -5 28 -5 C28 -5 37 -15 37 -15 L37 -15 Z M289 1 C221 1 184 32 168 113 C168 113 411 348 411 348 C416 318 418 282 418 239 C418 64 384 1 289 1 L289 1 Z M166 128 C161 159 159 195 159 239 C159 414 193 477 289 477 C357 477 393 445 409 364 C409 364 166 128 166 128 L166 128 Z " />
<glyph glyph-name="ugrave" unicode="&#xf9;" horiz-adv-x="528" d="M499 40 C464 35 454 18 454 109 C454 109 454 447 454 447 C454 447 454 478 454 478 C454 478 302 478 302 478 C303 474 304 463 304 462 C304 462 311 462 311 462 C332 462 339 462 339 447 C339 447 339 132 339 132 C319 86 292 70 242 70 C189 70 170 93 170 156 C170 156 170 447 170 447 C170 447 170 478 170 478 C170 478 18 478 18 478 C19 474 20 463 20 462 C20 462 27 462 27 462 C47 462 55 462 55 447 C55 447 55 156 55 156 C55 34 90 -10 188 -10 C260 -10 302 25 339 120 C339 120 339 85 339 85 C339 85 339 -10 339 -10 C339 -10 359 -10 359 -10 C359 -10 502 26 502 26 C502 26 499 40 499 40 L499 40 Z M164 709 C132 756 120 773 110 773 C71 773 52 754 52 716 C52 705 68 691 111 657 C111 657 256 539 256 539 C256 539 270 553 270 553 C270 553 164 709 164 709 L164 709 Z " />
<glyph glyph-name="uacute" unicode="&#xfa;" horiz-adv-x="528" d="M263 539 C263 539 408 657 408 657 C451 693 467 707 467 716 C467 754 448 773 409 773 C401 773 388 756 355 709 C355 709 249 553 249 553 C249 553 263 539 263 539 L263 539 Z M499 40 C464 35 454 18 454 109 C454 109 454 447 454 447 C454 447 454 478 454 478 C454 478 302 478 302 478 C303 474 304 463 304 462 C304 462 311 462 311 462 C332 462 339 462 339 447 C339 447 339 132 339 132 C319 86 292 70 242 70 C189 70 170 93 170 156 C170 156 170 447 170 447 C170 447 170 478 170 478 C170 478 18 478 18 478 C19 474 20 463 20 462 C20 462 27 462 27 462 C47 462 55 462 55 447 C55 447 55 156 55 156 C55 34 90 -10 188 -10 C260 -10 302 25 339 120 C339 120 339 85 339 85 C339 85 339 -10 339 -10 C339 -10 359 -10 359 -10 C359 -10 502 26 502 26 C502 26 499 40 499 40 L499 40 Z " />
<glyph glyph-name="ucircumflex" unicode="&#xfb;" horiz-adv-x="528" d="M499 40 C464 35 454 18 454 109 C454 109 454 447 454 447 C454 447 454 478 454 478 C454 478 302 478 302 478 C303 474 304 463 304 462 C304 462 311 462 311 462 C332 462 339 462 339 447 C339 447 339 132 339 132 C319 86 292 70 242 70 C189 70 170 93 170 156 C170 156 170 447 170 447 C170 447 170 478 170 478 C170 478 18 478 18 478 C19 474 20 463 20 462 C20 462 27 462 27 462 C47 462 55 462 55 447 C55 447 55 156 55 156 C55 34 90 -10 188 -10 C260 -10 302 25 339 120 C339 120 339 85 339 85 C339 85 339 -10 339 -10 C339 -10 359 -10 359 -10 C359 -10 502 26 502 26 C502 26 499 40 499 40 L499 40 Z M255 649 C255 649 393 532 393 532 C393 532 409 546 409 546 C409 546 295 723 295 723 C286 739 270 765 254 765 C239 765 224 739 214 724 C214 724 100 546 100 546 C100 546 116 532 116 532 C116 532 255 649 255 649 L255 649 Z " />
<glyph glyph-name="udieresis" unicode="&#xfc;" horiz-adv-x="528" d="M333 593 C387 593 407 613 407 667 C407 722 387 742 333 742 C278 742 258 722 258 667 C258 613 278 593 333 593 L333 593 Z M176 593 C230 593 250 613 250 667 C250 722 230 742 176 742 C122 742 102 722 102 667 C102 613 122 593 176 593 L176 593 Z M499 40 C464 35 454 18 454 109 C454 109 454 447 454 447 C454 447 454 478 454 478 C454 478 302 478 302 478 C303 474 304 463 304 462 C304 462 311 462 311 462 C332 462 339 462 339 447 C339 447 339 132 339 132 C319 86 292 70 242 70 C189 70 170 93 170 156 C170 156 170 447 170 447 C170 447 170 478 170 478 C170 478 18 478 18 478 C19 474 20 463 20 462 C20 462 27 462 27 462 C47 462 55 462 55 447 C55 447 55 156 55 156 C55 34 90 -10 188 -10 C260 -10 302 25 339 120 C339 120 339 85 339 85 C339 85 339 -10 339 -10 C339 -10 359 -10 359 -10 C359 -10 502 26 502 26 C502 26 499 40 499 40 L499 40 Z " />
<glyph glyph-name="ydieresis" unicode="&#xff;" horiz-adv-x="525" d="M362 593 C416 593 436 613 436 667 C436 722 416 742 362 742 C308 742 288 722 288 667 C288 613 308 593 362 593 L362 593 Z M205 593 C260 593 280 613 280 667 C280 722 260 742 205 742 C151 742 131 722 131 667 C131 613 151 593 205 593 L205 593 Z M508 478 C508 478 466 478 466 478 C466 478 413 478 413 478 C413 478 361 478 361 478 C362 474 363 463 363 462 C363 462 382 462 382 462 C398 462 406 463 401 444 C401 444 246 -10 246 -10 C246 -10 296 137 296 137 C296 137 166 448 166 448 C162 463 166 462 175 462 C175 462 194 462 194 462 C195 466 196 477 196 478 C196 478 154 478 154 478 C154 478 28 478 28 478 C28 478 -4 478 -4 478 C-3 474 -2 463 -2 462 C-2 462 20 462 20 462 C29 462 34 463 42 446 C42 446 246 -10 246 -10 C246 -10 201 -140 201 -140 C195 -158 187 -165 171 -165 C138 -165 139 -124 106 -124 C57 -124 40 -139 40 -182 C40 -234 58 -253 108 -253 C171 -253 202 -231 223 -171 C223 -171 280 -10 280 -10 C280 -10 442 416 442 416 C442 416 443 416 443 416 C458 463 465 462 483 462 C483 462 506 462 506 462 C507 466 508 477 508 478 C508 478 508 478 508 478 L508 478 Z " />
<glyph glyph-name="Amacron" unicode="&#x100;" horiz-adv-x="697" d="M208 868 C208 868 480 868 480 868 C480 868 480 948 480 948 C480 948 208 948 208 948 C208 948 208 868 208 868 L208 868 Z M424 0 C424 0 498 0 498 0 C498 0 633 0 633 0 C633 0 681 0 681 0 C680 3 679 14 679 15 C679 15 657 15 657 15 C635 15 628 12 589 135 C589 135 589 135 589 135 C589 135 408 688 408 688 C408 688 389 748 389 748 C389 748 375 748 375 748 C349 710 324 695 280 688 C280 688 283 678 283 678 C283 678 283 678 283 678 C283 678 136 165 136 165 C136 165 136 165 136 165 C93 11 80 15 43 15 C43 15 22 15 22 15 C21 11 20 1 20 0 C20 0 89 0 89 0 C89 0 102 0 102 0 C102 0 191 0 191 0 C190 3 189 14 189 15 C189 15 170 15 170 15 C123 15 105 11 148 165 C148 165 148 165 148 165 C148 165 184 293 184 293 C184 293 405 293 405 293 C405 293 455 135 455 135 C455 135 455 135 455 135 C495 12 481 15 446 15 C446 15 426 15 426 15 C425 11 424 1 424 0 L424 0 Z M187 304 C187 304 287 665 287 665 C287 665 402 304 402 304 C402 304 187 304 187 304 L187 304 Z " />
<glyph glyph-name="amacron" unicode="&#x101;" horiz-adv-x="495" d="M109 618 C109 618 381 618 381 618 C381 618 381 698 381 698 C381 698 109 698 109 698 C109 698 109 618 109 618 L109 618 Z M505 123 C505 123 488 131 488 131 C481 91 466 77 433 77 C395 77 381 87 381 114 C381 114 381 336 381 336 C381 465 345 488 245 488 C85 488 44 393 57 318 C70 247 90 221 134 221 C189 221 203 254 197 290 C192 317 178 328 173 360 C163 410 174 473 236 473 C259 473 267 458 267 378 C267 378 267 264 267 264 C60 146 37 135 37 90 C37 17 65 -10 142 -10 C192 -10 219 0 269 74 C279 17 313 -5 386 -5 C457 -5 489 29 505 123 L505 123 Z M267 255 C267 255 266 114 266 114 C266 102 267 92 268 82 C247 55 231 51 203 51 C166 51 153 65 153 102 C153 196 164 197 267 255 L267 255 Z " />
<glyph glyph-name="Abreve" unicode="&#x102;" horiz-adv-x="697" d="M211 972 C224 869 259 832 344 832 C429 832 464 868 477 969 C477 969 453 973 453 973 C447 929 418 913 344 913 C270 913 241 929 235 975 C235 975 211 972 211 972 L211 972 Z M424 0 C424 0 498 0 498 0 C498 0 633 0 633 0 C633 0 681 0 681 0 C680 3 679 14 679 15 C679 15 657 15 657 15 C635 15 628 12 589 135 C589 135 589 135 589 135 C589 135 408 688 408 688 C408 688 389 748 389 748 C389 748 375 748 375 748 C349 710 324 695 280 688 C280 688 283 678 283 678 C283 678 283 678 283 678 C283 678 136 165 136 165 C136 165 136 165 136 165 C93 11 80 15 43 15 C43 15 22 15 22 15 C21 11 20 1 20 0 C20 0 89 0 89 0 C89 0 102 0 102 0 C102 0 191 0 191 0 C190 3 189 14 189 15 C189 15 170 15 170 15 C123 15 105 11 148 165 C148 165 148 165 148 165 C148 165 184 293 184 293 C184 293 405 293 405 293 C405 293 455 135 455 135 C455 135 455 135 455 135 C495 12 481 15 446 15 C446 15 426 15 426 15 C425 11 424 1 424 0 L424 0 Z M187 304 C187 304 287 665 287 665 C287 665 402 304 402 304 C402 304 187 304 187 304 L187 304 Z " />
<glyph glyph-name="abreve" unicode="&#x103;" horiz-adv-x="495" d="M112 722 C125 619 160 582 245 582 C330 582 365 618 378 719 C378 719 354 723 354 723 C349 679 320 663 245 663 C171 663 142 679 136 725 C136 725 112 722 112 722 L112 722 Z M505 123 C505 123 488 131 488 131 C481 91 466 77 433 77 C395 77 381 87 381 114 C381 114 381 336 381 336 C381 465 345 488 245 488 C85 488 44 393 57 318 C70 247 90 221 134 221 C189 221 203 254 197 290 C192 317 178 328 173 360 C163 410 174 473 236 473 C259 473 267 458 267 378 C267 378 267 264 267 264 C60 146 37 135 37 90 C37 17 65 -10 142 -10 C192 -10 219 0 269 74 C279 17 313 -5 386 -5 C457 -5 489 29 505 123 L505 123 Z M267 255 C267 255 266 114 266 114 C266 102 267 92 268 82 C247 55 231 51 203 51 C166 51 153 65 153 102 C153 196 164 197 267 255 L267 255 Z " />
<glyph glyph-name="Cacute" unicode="&#x106;" horiz-adv-x="739" d="M431 789 C431 789 576 907 576 907 C619 943 635 957 635 966 C635 1004 616 1023 577 1023 C569 1023 556 1006 523 959 C523 959 417 803 417 803 C417 803 431 789 431 789 L431 789 Z M700 41 C700 41 700 108 700 108 C700 108 700 169 700 169 C698 168 691 166 689 166 C682 150 675 134 667 119 C667 119 659 121 659 121 C654 104 649 90 643 77 C625 50 606 29 587 21 C587 21 587 21 587 21 C553 6 501 0 415 0 C245 0 183 96 183 364 C183 631 248 727 427 727 C555 727 577 674 662 527 C662 527 666 530 666 530 C672 518 678 506 683 494 C687 485 688 482 688 482 C689 482 690 482 699 480 C699 480 699 549 699 549 C699 549 699 614 699 614 C683 606 690 615 683 595 C684 599 668 621 623 671 C582 719 533 738 422 738 C143 738 42 639 42 364 C42 89 140 -10 412 -10 C588 -10 645 7 675 51 C675 51 684 60 684 60 C690 66 692 62 692 44 C696 43 697 41 700 41 C700 41 700 41 700 41 L700 41 Z " />
<glyph glyph-name="Ccircumflex" unicode="&#x108;" horiz-adv-x="739" d="M700 41 C700 41 700 108 700 108 C700 108 700 169 700 169 C698 168 691 166 689 166 C682 150 675 134 667 119 C667 119 659 121 659 121 C654 104 649 90 643 77 C625 50 606 29 587 21 C587 21 587 21 587 21 C553 6 501 0 415 0 C245 0 183 96 183 364 C183 631 248 727 427 727 C555 727 577 674 662 527 C662 527 666 530 666 530 C672 518 678 506 683 494 C687 485 688 482 688 482 C689 482 690 482 699 480 C699 480 699 549 699 549 C699 549 699 614 699 614 C683 606 690 615 683 595 C684 599 668 621 623 671 C582 719 533 738 422 738 C143 738 42 639 42 364 C42 89 140 -10 412 -10 C588 -10 645 7 675 51 C675 51 684 60 684 60 C690 66 692 62 692 44 C696 43 697 41 700 41 C700 41 700 41 700 41 L700 41 Z M423 899 C423 899 561 782 561 782 C561 782 577 796 577 796 C577 796 463 973 463 973 C454 989 438 1015 422 1015 C407 1015 392 989 382 974 C382 974 268 796 268 796 C268 796 284 782 284 782 C284 782 423 899 423 899 L423 899 Z " />
<glyph glyph-name="Cdotaccent" unicode="&#x10a;" horiz-adv-x="739" d="M422 843 C477 843 497 863 497 917 C497 972 477 992 422 992 C368 992 348 972 348 917 C348 863 368 843 422 843 L422 843 Z M700 41 C700 41 700 108 700 108 C700 108 700 169 700 169 C698 168 691 166 689 166 C682 150 675 134 667 119 C667 119 659 121 659 121 C654 104 649 90 643 77 C625 50 606 29 587 21 C587 21 587 21 587 21 C553 6 501 0 415 0 C245 0 183 96 183 364 C183 631 248 727 427 727 C555 727 577 674 662 527 C662 527 666 530 666 530 C672 518 678 506 683 494 C687 485 688 482 688 482 C689 482 690 482 699 480 C699 480 699 549 699 549 C699 549 699 614 699 614 C683 606 690 615 683 595 C684 599 668 621 623 671 C582 719 533 738 422 738 C143 738 42 639 42 364 C42 89 140 -10 412 -10 C588 -10 645 7 675 51 C675 51 684 60 684 60 C690 66 692 62 692 44 C696 43 697 41 700 41 C700 41 700 41 700 41 L700 41 Z " />
<glyph glyph-name="cdotaccent" unicode="&#x10b;" horiz-adv-x="502" d="M305 593 C360 593 380 613 380 667 C380 722 360 742 305 742 C251 742 231 722 231 667 C231 613 251 593 305 593 L305 593 Z M472 166 C472 166 455 170 455 170 C440 89 407 60 331 60 C202 60 156 115 156 267 C156 410 194 461 299 461 C311 461 323 440 344 383 C362 331 381 313 414 313 C483 313 501 331 483 383 C455 460 408 488 305 488 C105 488 33 418 33 224 C33 52 101 -10 291 -10 C400 -10 449 37 472 166 L472 166 Z " />
<glyph glyph-name="Ccaron" unicode="&#x10c;" horiz-adv-x="739" d="M700 41 C700 41 700 108 700 108 C700 108 700 169 700 169 C698 168 691 166 689 166 C682 150 675 134 667 119 C667 119 659 121 659 121 C654 104 649 90 643 77 C625 50 606 29 587 21 C587 21 587 21 587 21 C553 6 501 0 415 0 C245 0 183 96 183 364 C183 631 248 727 427 727 C555 727 577 674 662 527 C662 527 666 530 666 530 C672 518 678 506 683 494 C687 485 688 482 688 482 C689 482 690 482 699 480 C699 480 699 549 699 549 C699 549 699 614 699 614 C683 606 690 615 683 595 C684 599 668 621 623 671 C582 719 533 738 422 738 C143 738 42 639 42 364 C42 89 140 -10 412 -10 C588 -10 645 7 675 51 C675 51 684 60 684 60 C690 66 692 62 692 44 C696 43 697 41 700 41 C700 41 700 41 700 41 L700 41 Z M422 906 C422 906 561 1023 561 1023 C561 1023 577 1010 577 1010 C577 1010 463 832 463 832 C454 817 438 790 422 791 C407 790 392 816 382 831 C382 831 268 1010 268 1010 C268 1010 284 1023 284 1023 C284 1023 422 906 422 906 L422 906 Z " />
<glyph glyph-name="ccaron" unicode="&#x10d;" horiz-adv-x="502" d="M472 166 C472 166 455 170 455 170 C440 89 407 60 331 60 C202 60 156 115 156 267 C156 410 194 461 299 461 C311 461 323 440 344 383 C362 331 381 313 414 313 C483 313 501 331 483 383 C455 460 408 488 305 488 C105 488 33 418 33 224 C33 52 101 -10 291 -10 C400 -10 449 37 472 166 L472 166 Z M306 656 C306 656 444 773 444 773 C444 773 460 760 460 760 C460 760 346 582 346 582 C337 567 321 540 305 541 C290 540 275 566 265 581 C265 581 151 760 151 760 C151 760 167 773 167 773 C167 773 306 656 306 656 L306 656 Z " />
<glyph glyph-name="Dcaron" unicode="&#x10e;" horiz-adv-x="827" d="M48 0 C48 0 107 0 107 0 C107 0 236 0 236 0 C236 0 309 0 309 0 C650 0 773 70 773 364 C773 631 691 728 345 728 C345 728 236 728 236 728 C236 728 107 728 107 728 C107 728 48 728 48 728 C49 724 51 713 52 712 C52 712 58 712 58 712 C94 712 107 714 107 647 C107 647 107 80 107 80 C107 13 94 15 58 15 C58 15 52 15 52 15 C52 12 49 1 48 0 L48 0 Z M370 906 C370 906 508 1023 508 1023 C508 1023 524 1010 524 1010 C524 1010 410 832 410 832 C401 817 385 790 370 791 C354 790 339 816 329 831 C329 831 215 1010 215 1010 C215 1010 231 1023 231 1023 C231 1023 370 906 370 906 L370 906 Z M236 719 C236 719 312 719 312 719 C571 719 632 625 632 364 C632 76 543 8 296 8 C245 8 237 17 236 42 C236 42 236 69 236 69 C236 69 236 80 236 80 C236 80 236 647 236 647 C236 647 236 719 236 719 L236 719 Z " />
<glyph glyph-name="dcaron" unicode="&#x10f;" horiz-adv-x="544" d="M540 40 C504 35 495 18 495 129 C495 129 495 645 495 645 C495 645 495 728 495 728 C495 728 474 728 474 728 C474 728 332 687 332 687 C333 684 334 673 334 672 C368 682 380 692 380 618 C380 618 380 467 380 467 C350 481 309 488 255 488 C80 488 39 422 39 238 C39 59 91 -5 234 -5 C303 -5 344 13 380 62 C380 62 380 -10 380 -10 C380 -10 400 -10 400 -10 C400 -10 543 26 543 26 C542 33 540 34 540 40 L540 40 Z M605 614 C626 658 633 685 633 718 C633 732 619 735 581 735 C552 734 548 682 546 626 C546 626 540 514 540 514 C540 514 560 510 560 510 C560 510 605 614 605 614 L605 614 Z M380 102 C349 59 321 43 281 43 C189 43 156 103 156 269 C156 405 177 454 268 454 C318 454 352 429 380 379 C380 379 380 105 380 105 C380 105 380 102 380 102 L380 102 Z " />
<glyph glyph-name="Emacron" unicode="&#x112;" horiz-adv-x="609" d="M181 868 C181 868 453 868 453 868 C453 868 453 948 453 948 C453 948 181 948 181 948 C181 948 181 868 181 868 L181 868 Z M533 648 C531 675 529 701 527 728 C527 728 412 728 412 728 C412 728 236 728 236 728 C236 728 107 728 107 728 C107 728 48 728 48 728 C49 724 51 713 52 712 C52 712 58 712 58 712 C94 712 107 714 107 647 C107 647 107 80 107 80 C107 13 94 15 58 15 C58 15 52 15 52 15 C52 12 49 1 48 0 C48 0 107 0 107 0 C107 0 236 0 236 0 C236 0 437 0 437 0 C437 0 552 0 552 0 C556 27 559 51 563 79 C553 77 549 75 547 75 C547 75 547 68 547 68 C540 25 541 9 438 9 C438 9 305 9 305 9 C247 9 237 18 236 43 C236 43 236 69 236 69 C236 69 236 80 236 80 C236 80 236 389 236 389 C236 389 352 389 352 389 C455 389 452 371 452 322 C452 322 452 315 452 315 C457 313 459 314 467 310 C467 310 467 389 467 389 C467 389 467 399 467 399 C467 399 467 478 467 478 C464 478 453 475 452 474 C452 474 452 467 452 467 C452 417 455 399 352 399 C352 399 236 399 236 399 C236 399 236 647 236 647 C236 647 236 719 236 719 C236 719 413 719 413 719 C536 719 514 703 517 659 C517 659 517 652 517 652 C521 651 532 649 533 648 L533 648 Z " />
<glyph glyph-name="emacron" unicode="&#x113;" horiz-adv-x="509" d="M143 618 C143 618 415 618 415 618 C415 618 415 698 415 698 C415 698 143 698 143 698 C143 698 143 618 143 618 L143 618 Z M158 339 C158 339 353 339 353 339 C353 339 480 339 480 339 C451 470 402 488 279 488 C98 488 33 416 33 218 C33 50 92 -10 256 -10 C400 -10 458 39 474 175 C474 175 459 177 459 177 C450 95 403 66 284 66 C188 66 154 119 154 264 C154 292 155 317 158 339 L158 339 Z M421 371 C429 372 438 372 448 372 C448 372 421 371 421 371 L421 371 Z M346 370 C346 370 162 366 162 366 C176 434 210 461 272 461 C308 461 325 450 346 370 C346 370 346 370 346 370 L346 370 Z " />
<glyph glyph-name="Ebreve" unicode="&#x114;" horiz-adv-x="609" d="M185 972 C197 869 232 832 317 832 C403 832 438 868 450 969 C450 969 426 973 426 973 C421 929 392 913 317 913 C243 913 214 929 209 975 C209 975 185 972 185 972 L185 972 Z M533 648 C531 675 529 701 527 728 C527 728 412 728 412 728 C412 728 236 728 236 728 C236 728 107 728 107 728 C107 728 48 728 48 728 C49 724 51 713 52 712 C52 712 58 712 58 712 C94 712 107 714 107 647 C107 647 107 80 107 80 C107 13 94 15 58 15 C58 15 52 15 52 15 C52 12 49 1 48 0 C48 0 107 0 107 0 C107 0 236 0 236 0 C236 0 437 0 437 0 C437 0 552 0 552 0 C556 27 559 51 563 79 C553 77 549 75 547 75 C547 75 547 68 547 68 C540 25 541 9 438 9 C438 9 305 9 305 9 C247 9 237 18 236 43 C236 43 236 69 236 69 C236 69 236 80 236 80 C236 80 236 389 236 389 C236 389 352 389 352 389 C455 389 452 371 452 322 C452 322 452 315 452 315 C457 313 459 314 467 310 C467 310 467 389 467 389 C467 389 467 399 467 399 C467 399 467 478 467 478 C464 478 453 475 452 474 C452 474 452 467 452 467 C452 417 455 399 352 399 C352 399 236 399 236 399 C236 399 236 647 236 647 C236 647 236 719 236 719 C236 719 413 719 413 719 C536 719 514 703 517 659 C517 659 517 652 517 652 C521 651 532 649 533 648 L533 648 Z " />
<glyph glyph-name="ebreve" unicode="&#x115;" horiz-adv-x="509" d="M146 722 C159 619 194 582 279 582 C364 582 399 618 412 719 C412 719 388 723 388 723 C382 679 353 663 279 663 C205 663 176 679 170 725 C170 725 146 722 146 722 L146 722 Z M158 339 C158 339 353 339 353 339 C353 339 480 339 480 339 C451 470 402 488 279 488 C98 488 33 416 33 218 C33 50 92 -10 256 -10 C400 -10 458 39 474 175 C474 175 459 177 459 177 C450 95 403 66 284 66 C188 66 154 119 154 264 C154 292 155 317 158 339 L158 339 Z M421 371 C429 372 438 372 448 372 C448 372 421 371 421 371 L421 371 Z M346 370 C346 370 162 366 162 366 C176 434 210 461 272 461 C308 461 325 450 346 370 C346 370 346 370 346 370 L346 370 Z " />
<glyph glyph-name="Edotaccent" unicode="&#x116;" horiz-adv-x="609" d="M317 843 C372 843 392 863 392 917 C392 972 372 992 317 992 C263 992 243 972 243 917 C243 863 263 843 317 843 L317 843 Z M533 648 C531 675 529 701 527 728 C527 728 412 728 412 728 C412 728 236 728 236 728 C236 728 107 728 107 728 C107 728 48 728 48 728 C49 724 51 713 52 712 C52 712 58 712 58 712 C94 712 107 714 107 647 C107 647 107 80 107 80 C107 13 94 15 58 15 C58 15 52 15 52 15 C52 12 49 1 48 0 C48 0 107 0 107 0 C107 0 236 0 236 0 C236 0 437 0 437 0 C437 0 552 0 552 0 C556 27 559 51 563 79 C553 77 549 75 547 75 C547 75 547 68 547 68 C540 25 541 9 438 9 C438 9 305 9 305 9 C247 9 237 18 236 43 C236 43 236 69 236 69 C236 69 236 80 236 80 C236 80 236 389 236 389 C236 389 352 389 352 389 C455 389 452 371 452 322 C452 322 452 315 452 315 C457 313 459 314 467 310 C467 310 467 389 467 389 C467 389 467 399 467 399 C467 399 467 478 467 478 C464 478 453 475 452 474 C452 474 452 467 452 467 C452 417 455 399 352 399 C352 399 236 399 236 399 C236 399 236 647 236 647 C236 647 236 719 236 719 C236 719 413 719 413 719 C536 719 514 703 517 659 C517 659 517 652 517 652 C521 651 532 649 533 648 L533 648 Z " />
<glyph glyph-name="edotaccent" unicode="&#x117;" horiz-adv-x="509" d="M279 593 C333 593 353 613 353 667 C353 722 333 742 279 742 C224 742 204 722 204 667 C204 613 224 593 279 593 L279 593 Z M158 339 C158 339 353 339 353 339 C353 339 480 339 480 339 C451 470 402 488 279 488 C98 488 33 416 33 218 C33 50 92 -10 256 -10 C400 -10 458 39 474 175 C474 175 459 177 459 177 C450 95 403 66 284 66 C188 66 154 119 154 264 C154 292 155 317 158 339 L158 339 Z M421 371 C429 372 438 372 448 372 C448 372 421 371 421 371 L421 371 Z M346 370 C346 370 162 366 162 366 C176 434 210 461 272 461 C308 461 325 450 346 370 C346 370 346 370 346 370 L346 370 Z " />
<glyph glyph-name="Ecaron" unicode="&#x11a;" horiz-adv-x="609" d="M533 648 C531 675 529 701 527 728 C527 728 412 728 412 728 C412 728 236 728 236 728 C236 728 107 728 107 728 C107 728 48 728 48 728 C49 724 51 713 52 712 C52 712 58 712 58 712 C94 712 107 714 107 647 C107 647 107 80 107 80 C107 13 94 15 58 15 C58 15 52 15 52 15 C52 12 49 1 48 0 C48 0 107 0 107 0 C107 0 236 0 236 0 C236 0 437 0 437 0 C437 0 552 0 552 0 C556 27 559 51 563 79 C553 77 549 75 547 75 C547 75 547 68 547 68 C540 25 541 9 438 9 C438 9 305 9 305 9 C247 9 237 18 236 43 C236 43 236 69 236 69 C236 69 236 80 236 80 C236 80 236 389 236 389 C236 389 352 389 352 389 C455 389 452 371 452 322 C452 322 452 315 452 315 C457 313 459 314 467 310 C467 310 467 389 467 389 C467 389 467 399 467 399 C467 399 467 478 467 478 C464 478 453 475 452 474 C452 474 452 467 452 467 C452 417 455 399 352 399 C352 399 236 399 236 399 C236 399 236 647 236 647 C236 647 236 719 236 719 C236 719 413 719 413 719 C536 719 514 703 517 659 C517 659 517 652 517 652 C521 651 532 649 533 648 L533 648 Z M318 906 C318 906 456 1023 456 1023 C456 1023 472 1010 472 1010 C472 1010 358 832 358 832 C349 817 333 790 317 791 C302 790 287 816 277 831 C277 831 163 1010 163 1010 C163 1010 179 1023 179 1023 C179 1023 318 906 318 906 L318 906 Z " />
<glyph glyph-name="ecaron" unicode="&#x11b;" horiz-adv-x="509" d="M279 656 C279 656 418 773 418 773 C418 773 433 760 433 760 C433 760 320 582 320 582 C310 567 294 540 279 541 C262 540 248 566 238 581 C238 581 125 760 125 760 C125 760 140 773 140 773 C140 773 279 656 279 656 L279 656 Z M158 339 C158 339 353 339 353 339 C353 339 480 339 480 339 C451 470 402 488 279 488 C98 488 33 416 33 218 C33 50 92 -10 256 -10 C400 -10 458 39 474 175 C474 175 459 177 459 177 C450 95 403 66 284 66 C188 66 154 119 154 264 C154 292 155 317 158 339 L158 339 Z M421 371 C429 372 438 372 448 372 C448 372 421 371 421 371 L421 371 Z M346 370 C346 370 162 366 162 366 C176 434 210 461 272 461 C308 461 325 450 346 370 C346 370 346 370 346 370 L346 370 Z " />
<glyph glyph-name="Gcircumflex" unicode="&#x11c;" horiz-adv-x="791" d="M728 315 C728 315 496 315 496 315 C496 313 498 303 499 300 C499 300 506 300 506 300 C540 300 552 302 552 240 C552 240 555 23 555 23 C555 23 555 23 555 23 C555 23 553 140 553 140 C553 52 522 21 437 21 C250 21 183 112 183 364 C183 631 248 727 427 727 C555 727 577 674 662 527 C662 527 666 530 666 530 C672 518 678 506 683 494 C687 485 688 482 688 482 C689 482 690 482 699 480 C699 480 699 549 699 549 C699 549 699 614 699 614 C683 606 690 615 683 595 C684 599 668 621 623 671 C582 719 533 738 422 738 C143 738 42 639 42 364 C42 89 144 -10 426 -10 C535 -10 593 -2 653 20 C653 20 680 26 680 26 C680 26 680 30 680 30 C701 39 724 50 750 62 C750 62 748 67 748 67 C724 56 704 47 680 40 C680 40 680 240 680 240 C680 302 690 300 719 300 C719 300 726 300 726 300 C727 303 728 314 728 315 C728 315 728 315 728 315 L728 315 Z M423 899 C423 899 561 782 561 782 C561 782 577 796 577 796 C577 796 463 973 463 973 C454 989 438 1015 422 1015 C407 1015 392 989 382 974 C382 974 268 796 268 796 C268 796 284 782 284 782 C284 782 423 899 423 899 L423 899 Z " />
<glyph glyph-name="Gbreve" unicode="&#x11e;" horiz-adv-x="791" d="M290 972 C302 869 337 832 422 832 C508 832 543 868 555 969 C555 969 531 973 531 973 C526 929 497 913 422 913 C348 913 319 929 314 975 C314 975 290 972 290 972 L290 972 Z M728 315 C728 315 496 315 496 315 C496 313 498 303 499 300 C499 300 506 300 506 300 C540 300 552 302 552 240 C552 240 555 23 555 23 C555 23 555 23 555 23 C555 23 553 140 553 140 C553 52 522 21 437 21 C250 21 183 112 183 364 C183 631 248 727 427 727 C555 727 577 674 662 527 C662 527 666 530 666 530 C672 518 678 506 683 494 C687 485 688 482 688 482 C689 482 690 482 699 480 C699 480 699 549 699 549 C699 549 699 614 699 614 C683 606 690 615 683 595 C684 599 668 621 623 671 C582 719 533 738 422 738 C143 738 42 639 42 364 C42 89 144 -10 426 -10 C535 -10 593 -2 653 20 C653 20 680 26 680 26 C680 26 680 30 680 30 C701 39 724 50 750 62 C750 62 748 67 748 67 C724 56 704 47 680 40 C680 40 680 240 680 240 C680 302 690 300 719 300 C719 300 726 300 726 300 C727 303 728 314 728 315 C728 315 728 315 728 315 L728 315 Z " />
<glyph glyph-name="gbreve" unicode="&#x11f;" horiz-adv-x="501" d="M109 722 C121 619 157 582 242 582 C327 582 362 618 375 719 C375 719 350 723 350 723 C345 679 316 663 242 663 C167 663 138 679 133 725 C133 725 109 722 109 722 L109 722 Z M182 334 C182 427 198 461 242 461 C285 461 301 427 301 334 C301 241 285 207 242 207 C198 207 182 241 182 334 L182 334 Z M148 -15 C154 -15 160 -15 166 -15 C166 -15 276 -15 276 -15 C360 -15 371 -34 371 -86 C371 -173 341 -204 259 -204 C167 -204 134 -168 134 -70 C134 -43 138 -25 148 -15 C148 -15 148 -15 148 -15 L148 -15 Z M113 -10 C59 -26 39 -51 39 -97 C39 -195 96 -230 253 -230 C409 -230 466 -185 466 -59 C466 57 445 99 288 99 C288 99 172 99 172 99 C132 100 118 109 118 132 C118 167 151 180 242 180 C370 180 416 221 416 334 C416 357 414 377 410 394 C425 416 441 425 463 425 C465 425 466 419 466 404 C466 374 480 364 519 364 C554 364 566 378 566 418 C566 458 551 473 511 473 C457 473 426 458 401 420 C379 469 330 488 242 488 C113 488 67 447 67 334 C67 259 87 216 138 195 C75 183 50 153 50 98 C50 35 68 2 113 -10 C113 -10 113 -10 113 -10 L113 -10 Z " />
<glyph glyph-name="Gdotaccent" unicode="&#x120;" horiz-adv-x="791" d="M422 843 C477 843 497 863 497 917 C497 972 477 992 422 992 C368 992 348 972 348 917 C348 863 368 843 422 843 L422 843 Z M728 315 C728 315 496 315 496 315 C496 313 498 303 499 300 C499 300 506 300 506 300 C540 300 552 302 552 240 C552 240 555 23 555 23 C555 23 555 23 555 23 C555 23 553 140 553 140 C553 52 522 21 437 21 C250 21 183 112 183 364 C183 631 248 727 427 727 C555 727 577 674 662 527 C662 527 666 530 666 530 C672 518 678 506 683 494 C687 485 688 482 688 482 C689 482 690 482 699 480 C699 480 699 549 699 549 C699 549 699 614 699 614 C683 606 690 615 683 595 C684 599 668 621 623 671 C582 719 533 738 422 738 C143 738 42 639 42 364 C42 89 144 -10 426 -10 C535 -10 593 -2 653 20 C653 20 680 26 680 26 C680 26 680 30 680 30 C701 39 724 50 750 62 C750 62 748 67 748 67 C724 56 704 47 680 40 C680 40 680 240 680 240 C680 302 690 300 719 300 C719 300 726 300 726 300 C727 303 728 314 728 315 C728 315 728 315 728 315 L728 315 Z " />
<glyph glyph-name="gdotaccent" unicode="&#x121;" horiz-adv-x="501" d="M242 593 C296 593 316 613 316 667 C316 722 296 742 242 742 C187 742 167 722 167 667 C167 613 187 593 242 593 L242 593 Z M182 334 C182 427 198 461 242 461 C285 461 301 427 301 334 C301 241 285 207 242 207 C198 207 182 241 182 334 L182 334 Z M148 -15 C154 -15 160 -15 166 -15 C166 -15 276 -15 276 -15 C360 -15 371 -34 371 -86 C371 -173 341 -204 259 -204 C167 -204 134 -168 134 -70 C134 -43 138 -25 148 -15 C148 -15 148 -15 148 -15 L148 -15 Z M113 -10 C59 -26 39 -51 39 -97 C39 -195 96 -230 253 -230 C409 -230 466 -185 466 -59 C466 57 445 99 288 99 C288 99 172 99 172 99 C132 100 118 109 118 132 C118 167 151 180 242 180 C370 180 416 221 416 334 C416 357 414 377 410 394 C425 416 441 425 463 425 C465 425 466 419 466 404 C466 374 480 364 519 364 C554 364 566 378 566 418 C566 458 551 473 511 473 C457 473 426 458 401 420 C379 469 330 488 242 488 C113 488 67 447 67 334 C67 259 87 216 138 195 C75 183 50 153 50 98 C50 35 68 2 113 -10 C113 -10 113 -10 113 -10 L113 -10 Z " />
<glyph glyph-name="Hcircumflex" unicode="&#x124;" horiz-adv-x="806" d="M751 728 C751 728 504 728 504 728 C505 724 507 713 508 712 C508 712 515 712 515 712 C551 712 564 714 564 652 C564 652 564 377 564 377 C564 377 272 377 272 377 C272 377 272 652 272 652 C272 714 285 712 321 712 C321 712 328 712 328 712 C329 719 331 722 331 728 C331 728 84 728 84 728 C85 724 87 713 88 712 C88 712 94 712 94 712 C130 712 143 714 143 652 C143 652 143 75 143 75 C143 13 130 15 94 15 C94 15 88 15 88 15 C88 12 85 1 84 0 C84 0 331 0 331 0 C331 0 328 15 328 15 C328 15 321 15 321 15 C285 15 272 13 272 75 C272 75 272 366 272 366 C272 366 564 366 564 366 C564 366 564 75 564 75 C564 13 551 15 515 15 C515 15 508 15 508 15 C508 12 505 1 504 0 C504 0 751 0 751 0 C751 0 748 15 748 15 C748 15 741 15 741 15 C705 15 692 13 692 75 C692 75 692 652 692 652 C692 714 705 712 741 712 C741 712 748 712 748 712 C749 719 751 722 751 728 L751 728 Z M418 899 C418 899 557 782 557 782 C557 782 572 796 572 796 C572 796 459 973 459 973 C449 989 433 1015 418 1015 C401 1015 387 989 377 974 C377 974 263 796 263 796 C263 796 279 782 279 782 C279 782 418 899 418 899 L418 899 Z " />
<glyph glyph-name="Itilde" unicode="&#x128;" horiz-adv-x="338" d="M30 848 C30 888 40 902 67 902 C133 902 153 837 219 837 C275 837 295 874 295 978 C295 978 289 978 289 978 C289 934 277 918 245 918 C180 918 159 983 94 983 C42 983 24 947 24 848 C24 848 30 848 30 848 L30 848 Z M283 728 C283 728 36 728 36 728 C37 721 39 718 39 712 C39 712 46 712 46 712 C82 712 95 714 95 652 C95 652 95 75 95 75 C95 13 82 15 46 15 C46 15 39 15 39 15 C39 14 36 0 36 0 C36 0 283 0 283 0 C282 6 280 10 280 15 C280 15 273 15 273 15 C237 15 224 13 224 75 C224 75 224 652 224 652 C224 714 237 712 273 712 C273 712 280 712 280 712 C280 712 283 728 283 728 L283 728 Z " />
<glyph glyph-name="itilde" unicode="&#x129;" horiz-adv-x="301" d="M35 598 C35 638 45 652 73 652 C138 652 158 587 224 587 C281 587 301 624 301 728 C301 728 294 728 294 728 C294 684 282 668 250 668 C185 668 165 733 99 733 C48 733 29 697 29 598 C29 598 35 598 35 598 L35 598 Z M62 0 C62 0 269 0 269 0 C269 0 266 15 266 15 C266 15 260 15 260 15 C232 15 222 15 222 30 C222 30 222 370 222 370 C222 370 222 478 222 478 C222 478 202 478 202 478 C202 478 64 423 64 423 C64 423 64 415 64 415 C108 417 107 420 107 370 C107 370 107 30 107 30 C107 15 98 15 72 15 C72 15 65 15 65 15 C64 10 62 6 62 0 L62 0 Z " />
<glyph glyph-name="Imacron" unicode="&#x12a;" horiz-adv-x="338" d="M24 868 C24 868 296 868 296 868 C296 868 296 948 296 948 C296 948 24 948 24 948 C24 948 24 868 24 868 L24 868 Z M283 728 C283 728 36 728 36 728 C37 721 39 718 39 712 C39 712 46 712 46 712 C82 712 95 714 95 652 C95 652 95 75 95 75 C95 13 82 15 46 15 C46 15 39 15 39 15 C39 14 36 0 36 0 C36 0 283 0 283 0 C282 6 280 10 280 15 C280 15 273 15 273 15 C237 15 224 13 224 75 C224 75 224 652 224 652 C224 714 237 712 273 712 C273 712 280 712 280 712 C280 712 283 728 283 728 L283 728 Z " />
<glyph glyph-name="imacron" unicode="&#x12b;" horiz-adv-x="301" d="M29 618 C29 618 301 618 301 618 C301 618 301 698 301 698 C301 698 29 698 29 698 C29 698 29 618 29 618 L29 618 Z M62 0 C62 0 269 0 269 0 C269 0 266 15 266 15 C266 15 260 15 260 15 C232 15 222 15 222 30 C222 30 222 370 222 370 C222 370 222 478 222 478 C222 478 202 478 202 478 C202 478 64 423 64 423 C64 423 64 415 64 415 C108 417 107 420 107 370 C107 370 107 30 107 30 C107 15 98 15 72 15 C72 15 65 15 65 15 C64 10 62 6 62 0 L62 0 Z " />
<glyph glyph-name="Ibreve" unicode="&#x12c;" horiz-adv-x="338" d="M27 972 C39 869 74 832 160 832 C245 832 280 868 292 969 C292 969 268 973 268 973 C263 929 234 913 160 913 C85 913 56 929 51 975 C51 975 27 972 27 972 L27 972 Z M283 728 C283 728 36 728 36 728 C37 721 39 718 39 712 C39 712 46 712 46 712 C82 712 95 714 95 652 C95 652 95 75 95 75 C95 13 82 15 46 15 C46 15 39 15 39 15 C39 14 36 0 36 0 C36 0 283 0 283 0 C282 6 280 10 280 15 C280 15 273 15 273 15 C237 15 224 13 224 75 C224 75 224 652 224 652 C224 714 237 712 273 712 C273 712 280 712 280 712 C280 712 283 728 283 728 L283 728 Z " />
<glyph glyph-name="ibreve" unicode="&#x12d;" horiz-adv-x="301" d="M32 722 C44 619 80 582 165 582 C250 582 285 618 298 719 C298 719 273 723 273 723 C268 679 239 663 165 663 C90 663 61 679 56 725 C56 725 32 722 32 722 L32 722 Z M62 0 C62 0 269 0 269 0 C269 0 266 15 266 15 C266 15 260 15 260 15 C232 15 222 15 222 30 C222 30 222 370 222 370 C222 370 222 478 222 478 C222 478 202 478 202 478 C202 478 64 423 64 423 C64 423 64 415 64 415 C108 417 107 420 107 370 C107 370 107 30 107 30 C107 15 98 15 72 15 C72 15 65 15 65 15 C64 10 62 6 62 0 L62 0 Z " />
<glyph glyph-name="Idotaccent" unicode="&#x130;" horiz-adv-x="338" d="M160 843 C214 843 234 863 234 917 C234 972 214 992 160 992 C105 992 85 972 85 917 C85 863 105 843 160 843 L160 843 Z M283 728 C283 728 36 728 36 728 C37 721 39 718 39 712 C39 712 46 712 46 712 C82 712 95 714 95 652 C95 652 95 75 95 75 C95 13 82 15 46 15 C46 15 39 15 39 15 C39 14 36 0 36 0 C36 0 283 0 283 0 C282 6 280 10 280 15 C280 15 273 15 273 15 C237 15 224 13 224 75 C224 75 224 652 224 652 C224 714 237 712 273 712 C273 712 280 712 280 712 C280 712 283 728 283 728 L283 728 Z " />
<glyph glyph-name="dotlessi" unicode="&#x131;" horiz-adv-x="301" d="M62 0 C62 0 269 0 269 0 C269 0 266 15 266 15 C266 15 260 15 260 15 C232 15 222 15 222 30 C222 30 222 370 222 370 C222 370 222 478 222 478 C222 478 202 478 202 478 C202 478 64 423 64 423 C64 423 64 415 64 415 C108 417 107 420 107 370 C107 370 107 30 107 30 C107 15 98 15 72 15 C72 15 65 15 65 15 C64 10 62 6 62 0 L62 0 Z " />
<glyph glyph-name="Jcircumflex" unicode="&#x134;" horiz-adv-x="338" d="M283 728 C283 728 36 728 36 728 C37 721 39 718 39 712 C39 712 46 712 46 712 C82 712 95 714 95 652 C95 652 95 -99 95 -99 C95 -208 41 -205 -15 -205 C-95 -205 -37 -97 -117 -97 C-162 -97 -178 -113 -178 -158 C-178 -204 -138 -220 -25 -220 C103 -220 224 -231 224 143 C224 143 224 652 224 652 C224 714 237 712 273 712 C273 712 280 712 280 712 C280 712 283 728 283 728 L283 728 Z M160 899 C160 899 298 782 298 782 C298 782 314 796 314 796 C314 796 200 973 200 973 C191 989 175 1015 160 1015 C144 1015 129 989 119 974 C119 974 5 796 5 796 C5 796 21 782 21 782 C21 782 160 899 160 899 L160 899 Z " />
<glyph glyph-name="Lacute" unicode="&#x139;" horiz-adv-x="580" d="M168 789 C168 789 313 907 313 907 C356 943 372 957 372 966 C372 1004 353 1023 315 1023 C306 1023 293 1006 260 959 C260 959 154 803 154 803 C154 803 168 789 168 789 L168 789 Z M535 21 C543 52 551 82 560 113 C551 112 550 110 544 110 C525 44 531 22 355 22 C355 22 293 22 293 22 C235 22 225 30 224 49 C224 49 224 69 224 69 C224 69 224 80 224 80 C224 80 224 647 224 647 C224 714 237 712 273 712 C273 712 280 712 280 712 C280 712 283 728 283 728 C283 728 224 728 224 728 C224 728 95 728 95 728 C95 728 36 728 36 728 C37 721 39 718 39 712 C39 712 46 712 46 712 C82 712 95 714 95 647 C95 647 95 80 95 80 C95 13 82 15 46 15 C46 15 39 15 39 15 C39 14 36 0 36 0 C36 0 95 0 95 0 C95 0 224 0 224 0 C224 0 349 0 349 0 C349 0 530 0 530 0 C530 0 535 21 535 21 L535 21 Z " />
<glyph glyph-name="Lcaron" unicode="&#x13d;" horiz-adv-x="580" d="M535 21 C543 52 551 82 560 113 C551 112 550 110 544 110 C525 44 531 22 355 22 C355 22 293 22 293 22 C235 22 225 30 224 49 C224 49 224 69 224 69 C224 69 224 80 224 80 C224 80 224 647 224 647 C224 714 237 712 273 712 C273 712 280 712 280 712 C280 712 283 728 283 728 C283 728 224 728 224 728 C224 728 95 728 95 728 C95 728 36 728 36 728 C37 721 39 718 39 712 C39 712 46 712 46 712 C82 712 95 714 95 647 C95 647 95 80 95 80 C95 13 82 15 46 15 C46 15 39 15 39 15 C39 14 36 0 36 0 C36 0 95 0 95 0 C95 0 224 0 224 0 C224 0 349 0 349 0 C349 0 530 0 530 0 C530 0 535 21 535 21 L535 21 Z M404 664 C424 708 431 735 431 768 C431 782 417 785 380 785 C351 784 347 732 345 676 C345 676 339 564 339 564 C339 564 358 560 358 560 C358 560 404 664 404 664 L404 664 Z " />
<glyph glyph-name="lcaron" unicode="&#x13e;" horiz-adv-x="271" d="M32 672 C65 681 77 692 77 614 C77 614 77 30 77 30 C77 15 68 15 41 15 C41 15 34 15 34 15 C33 11 32 1 32 0 C32 0 237 0 237 0 C237 0 234 15 234 15 C234 15 228 15 228 15 C201 15 192 15 192 30 C192 30 192 642 192 642 C192 642 192 728 192 728 C192 728 172 728 172 728 C172 728 29 687 29 687 C29 687 32 672 32 672 L32 672 Z M303 614 C323 658 330 685 330 718 C330 732 316 735 278 735 C249 734 246 682 243 626 C243 626 237 514 237 514 C237 514 257 510 257 510 C257 510 303 614 303 614 L303 614 Z " />
<glyph glyph-name="Nacute" unicode="&#x143;" horiz-adv-x="713" d="M261 789 C261 789 405 907 405 907 C448 943 464 957 464 966 C464 1004 445 1023 407 1023 C398 1023 385 1006 353 959 C353 959 246 803 246 803 C246 803 261 789 261 789 L261 789 Z M-14 712 C-14 712 9 712 9 712 C17 712 20 713 43 683 C43 683 107 600 107 600 C107 600 105 145 105 145 C105 145 105 145 105 145 C105 11 93 15 60 15 C60 15 38 15 38 15 C37 11 36 1 36 0 C36 0 105 0 105 0 C105 0 144 0 144 0 C144 0 212 0 212 0 C211 3 210 14 210 15 C210 15 189 15 189 15 C159 15 146 13 143 90 C143 90 140 556 140 556 C140 556 429 177 429 177 C429 177 564 0 564 0 C564 0 589 0 589 0 C589 0 597 612 597 612 C597 612 598 612 598 612 C597 715 613 712 657 712 C657 712 664 712 664 712 C665 716 667 727 668 728 C668 728 599 728 599 728 C599 728 560 728 560 728 C560 728 491 728 491 728 C492 721 494 718 494 712 C494 712 501 712 501 712 C540 712 557 714 560 640 C560 640 563 206 563 206 C563 206 529 251 529 251 C529 251 169 728 169 728 C169 728 139 728 139 728 C139 728 107 728 107 728 C107 728 9 728 9 728 C9 728 -16 728 -16 728 C-15 724 -14 713 -14 712 C-14 712 -14 712 -14 712 L-14 712 Z " />
<glyph glyph-name="Ncaron" unicode="&#x147;" horiz-adv-x="713" d="M-14 712 C-14 712 9 712 9 712 C17 712 20 713 43 683 C43 683 107 600 107 600 C107 600 105 145 105 145 C105 145 105 145 105 145 C105 11 93 15 60 15 C60 15 38 15 38 15 C37 11 36 1 36 0 C36 0 105 0 105 0 C105 0 144 0 144 0 C144 0 212 0 212 0 C211 3 210 14 210 15 C210 15 189 15 189 15 C159 15 146 13 143 90 C143 90 140 556 140 556 C140 556 429 177 429 177 C429 177 564 0 564 0 C564 0 589 0 589 0 C589 0 597 612 597 612 C597 612 598 612 598 612 C597 715 613 712 657 712 C657 712 664 712 664 712 C665 716 667 727 668 728 C668 728 599 728 599 728 C599 728 560 728 560 728 C560 728 491 728 491 728 C492 721 494 718 494 712 C494 712 501 712 501 712 C540 712 557 714 560 640 C560 640 563 206 563 206 C563 206 529 251 529 251 C529 251 169 728 169 728 C169 728 139 728 139 728 C139 728 107 728 107 728 C107 728 9 728 9 728 C9 728 -16 728 -16 728 C-15 724 -14 713 -14 712 C-14 712 -14 712 -14 712 L-14 712 Z M352 906 C352 906 491 1023 491 1023 C491 1023 506 1010 506 1010 C506 1010 393 832 393 832 C383 817 367 790 352 791 C337 792 321 816 312 831 C312 831 198 1010 198 1010 C198 1010 213 1023 213 1023 C213 1023 352 906 352 906 L352 906 Z " />
<glyph glyph-name="ncaron" unicode="&#x148;" horiz-adv-x="557" d="M26 411 C58 425 71 435 71 357 C71 357 71 30 71 30 C71 15 62 15 35 15 C35 15 28 15 28 15 C27 11 26 1 26 0 C26 0 231 0 231 0 C231 0 228 15 228 15 C228 15 222 15 222 15 C195 15 186 15 186 30 C186 30 186 353 186 353 C210 407 243 427 309 427 C353 427 363 389 363 284 C363 284 363 30 363 30 C363 15 354 15 327 15 C327 15 320 15 320 15 C319 11 318 1 318 0 C318 0 523 0 523 0 C522 3 521 14 521 15 C521 15 514 15 514 15 C487 15 478 15 478 30 C478 30 478 284 478 284 C478 434 453 488 347 488 C267 488 224 458 186 373 C186 373 186 392 186 392 C186 392 186 478 186 478 C186 478 166 478 166 478 C166 478 23 426 23 426 C23 425 26 411 26 411 L26 411 Z M275 656 C275 656 413 773 413 773 C413 773 429 760 429 760 C429 760 315 582 315 582 C306 567 290 540 274 541 C259 540 244 566 234 581 C234 581 120 760 120 760 C120 760 136 773 136 773 C136 773 275 656 275 656 L275 656 Z " />
<glyph glyph-name="Omacron" unicode="&#x14c;" horiz-adv-x="865" d="M285 868 C285 868 556 868 556 868 C556 868 556 948 556 948 C556 948 285 948 285 948 C285 948 285 868 285 868 L285 868 Z M413 1 C247 1 187 97 187 364 C187 631 248 727 419 727 C599 727 664 631 664 364 C664 97 597 1 413 1 L413 1 Z M40 364 C40 89 138 -10 410 -10 C705 -10 811 89 811 364 C811 639 708 738 420 738 C141 738 40 639 40 364 L40 364 Z " />
<glyph glyph-name="omacron" unicode="&#x14d;" horiz-adv-x="590" d="M153 618 C153 618 425 618 425 618 C425 618 425 698 425 698 C425 698 153 698 153 698 C153 698 153 618 153 618 L153 618 Z M289 1 C193 1 159 64 159 239 C159 414 193 477 289 477 C384 477 418 414 418 239 C418 64 384 1 289 1 L289 1 Z M32 239 C32 56 100 -10 289 -10 C477 -10 545 56 545 239 C545 422 477 488 289 488 C100 488 32 422 32 239 L32 239 Z " />
<glyph glyph-name="Obreve" unicode="&#x14e;" horiz-adv-x="865" d="M288 972 C300 869 335 832 420 832 C506 832 541 868 553 969 C553 969 529 973 529 973 C524 929 495 913 420 913 C346 913 317 929 312 975 C312 975 288 972 288 972 L288 972 Z M413 1 C247 1 187 97 187 364 C187 631 248 727 419 727 C599 727 664 631 664 364 C664 97 597 1 413 1 L413 1 Z M40 364 C40 89 138 -10 410 -10 C705 -10 811 89 811 364 C811 639 708 738 420 738 C141 738 40 639 40 364 L40 364 Z " />
<glyph glyph-name="obreve" unicode="&#x14f;" horiz-adv-x="590" d="M156 722 C168 619 204 582 289 582 C374 582 409 618 422 719 C422 719 397 723 397 723 C392 679 363 663 289 663 C214 663 185 679 180 725 C180 725 156 722 156 722 L156 722 Z M289 1 C193 1 159 64 159 239 C159 414 193 477 289 477 C384 477 418 414 418 239 C418 64 384 1 289 1 L289 1 Z M32 239 C32 56 100 -10 289 -10 C477 -10 545 56 545 239 C545 422 477 488 289 488 C100 488 32 422 32 239 L32 239 Z " />
<glyph glyph-name="Racute" unicode="&#x154;" horiz-adv-x="724" d="M285 789 C285 789 429 907 429 907 C472 943 488 957 488 966 C488 1004 469 1023 431 1023 C422 1023 409 1006 377 959 C377 959 270 803 270 803 C270 803 285 789 285 789 L285 789 Z M52 712 C52 712 58 712 58 712 C94 712 107 714 107 647 C107 647 107 80 107 80 C107 13 94 15 58 15 C58 15 52 15 52 15 C52 12 49 1 48 0 C48 0 295 0 295 0 C295 0 292 15 292 15 C292 15 285 15 285 15 C249 15 236 13 236 80 C236 80 236 337 236 337 C236 337 292 337 292 337 C308 303 358 226 463 73 C522 -13 477 0 715 0 C715 0 715 20 715 20 C639 20 656 11 613 73 C515 217 457 301 429 343 C543 358 587 402 587 521 C587 673 511 728 299 728 C299 728 236 728 236 728 C236 728 48 728 48 728 C49 724 51 713 52 712 C52 712 52 712 52 712 L52 712 Z M236 702 C236 702 261 702 261 702 C396 702 445 661 445 546 C445 396 406 369 299 369 C299 369 236 369 236 369 C236 369 236 647 236 647 C236 647 236 702 236 702 L236 702 Z " />
<glyph glyph-name="Rcaron" unicode="&#x158;" horiz-adv-x="724" d="M52 712 C52 712 58 712 58 712 C94 712 107 714 107 647 C107 647 107 80 107 80 C107 13 94 15 58 15 C58 15 52 15 52 15 C52 12 49 1 48 0 C48 0 295 0 295 0 C295 0 292 15 292 15 C292 15 285 15 285 15 C249 15 236 13 236 80 C236 80 236 337 236 337 C236 337 292 337 292 337 C308 303 358 226 463 73 C522 -13 477 0 715 0 C715 0 715 20 715 20 C639 20 656 11 613 73 C515 217 457 301 429 343 C543 358 587 402 587 521 C587 673 511 728 299 728 C299 728 236 728 236 728 C236 728 48 728 48 728 C49 724 51 713 52 712 C52 712 52 712 52 712 L52 712 Z M276 906 C276 906 415 1023 415 1023 C415 1023 430 1010 430 1010 C430 1010 317 832 317 832 C307 817 291 790 276 791 C261 792 245 816 236 831 C236 831 122 1010 122 1010 C122 1010 137 1023 137 1023 C137 1023 276 906 276 906 L276 906 Z M236 702 C236 702 261 702 261 702 C396 702 445 661 445 546 C445 396 406 369 299 369 C299 369 236 369 236 369 C236 369 236 647 236 647 C236 647 236 702 236 702 L236 702 Z " />
<glyph glyph-name="rcaron" unicode="&#x159;" horiz-adv-x="445" d="M32 411 C64 425 77 435 77 357 C77 357 77 30 77 30 C77 15 68 15 44 15 C44 15 37 15 37 15 C36 11 35 1 35 0 C35 0 240 0 240 0 C239 6 237 10 237 15 C237 15 230 15 230 15 C202 15 192 15 192 30 C192 30 192 373 192 373 C205 417 227 434 270 434 C305 434 313 408 301 336 C292 286 310 268 368 268 C409 268 427 286 436 336 C456 448 426 488 323 488 C247 488 210 462 192 394 C192 394 192 478 192 478 C192 478 172 478 172 478 C172 478 29 426 29 426 C29 425 32 411 32 411 C32 411 32 411 32 411 L32 411 Z M246 656 C246 656 385 773 385 773 C385 773 401 760 401 760 C401 760 287 582 287 582 C277 567 263 540 246 541 C231 540 215 566 206 581 C206 581 92 760 92 760 C92 760 107 773 107 773 C107 773 246 656 246 656 L246 656 Z " />
<glyph glyph-name="Sacute" unicode="&#x15a;" horiz-adv-x="535" d="M397 705 C397 705 396 705 396 705 C363 728 319 738 257 738 C111 738 59 684 59 536 C59 407 92 349 233 297 C362 250 393 219 393 162 C393 45 361 3 272 3 C187 3 138 44 85 159 C85 159 80 157 80 157 C74 168 68 181 63 193 C59 201 58 204 58 204 C57 204 50 206 48 206 C48 206 48 141 48 141 C48 141 48 60 48 60 C62 64 57 61 63 83 C63 80 80 65 128 31 C165 2 211 -10 272 -10 C437 -10 496 46 496 199 C496 320 460 376 310 431 C188 475 159 512 159 585 C159 689 185 727 257 727 C267 727 277 726 286 725 C290 725 293 724 297 724 C298 723 300 723 301 723 C301 723 301 723 301 723 C301 723 286 725 286 725 C286 725 277 727 277 727 C284 726 290 725 297 724 C300 723 303 722 307 722 C307 722 301 723 301 723 C337 713 368 688 394 656 C404 642 412 626 421 608 C421 608 425 610 425 610 C432 598 438 586 443 574 C447 566 448 563 448 563 C453 562 449 562 458 560 C458 560 458 625 458 625 C458 625 458 690 458 690 C444 687 449 690 443 671 C443 672 431 681 397 705 C397 705 397 705 397 705 L397 705 Z M273 789 C273 789 417 907 417 907 C461 943 477 957 477 966 C477 1004 457 1023 419 1023 C411 1023 398 1006 365 959 C365 959 258 803 258 803 C258 803 273 789 273 789 L273 789 Z " />
<glyph glyph-name="Scircumflex" unicode="&#x15c;" horiz-adv-x="535" d="M397 705 C397 705 396 705 396 705 C363 728 319 738 257 738 C111 738 59 684 59 536 C59 407 92 349 233 297 C362 250 393 219 393 162 C393 45 361 3 272 3 C187 3 138 44 85 159 C85 159 80 157 80 157 C74 168 68 181 63 193 C59 201 58 204 58 204 C57 204 50 206 48 206 C48 206 48 141 48 141 C48 141 48 60 48 60 C62 64 57 61 63 83 C63 80 80 65 128 31 C165 2 211 -10 272 -10 C437 -10 496 46 496 199 C496 320 460 376 310 431 C188 475 159 512 159 585 C159 689 185 727 257 727 C267 727 277 726 286 725 C290 725 293 724 297 724 C298 723 300 723 301 723 C301 723 301 723 301 723 C301 723 286 725 286 725 C286 725 277 727 277 727 C284 726 290 725 297 724 C300 723 303 722 307 722 C307 722 301 723 301 723 C337 713 368 688 394 656 C404 642 412 626 421 608 C421 608 425 610 425 610 C432 598 438 586 443 574 C447 566 448 563 448 563 C453 562 449 562 458 560 C458 560 458 625 458 625 C458 625 458 690 458 690 C444 687 449 690 443 671 C443 672 431 681 397 705 C397 705 397 705 397 705 L397 705 Z M264 899 C264 899 403 782 403 782 C403 782 419 796 419 796 C419 796 305 973 305 973 C295 989 281 1015 264 1015 C249 1015 233 989 224 974 C224 974 110 796 110 796 C110 796 125 782 125 782 C125 782 264 899 264 899 L264 899 Z " />
<glyph glyph-name="Scaron" unicode="&#x160;" horiz-adv-x="535" d="M397 705 C397 705 396 705 396 705 C363 728 319 738 257 738 C111 738 59 684 59 536 C59 407 92 349 233 297 C362 250 393 219 393 162 C393 45 361 3 272 3 C187 3 138 44 85 159 C85 159 80 157 80 157 C74 168 68 181 63 193 C59 201 58 204 58 204 C57 204 50 206 48 206 C48 206 48 141 48 141 C48 141 48 60 48 60 C62 64 57 61 63 83 C63 80 80 65 128 31 C165 2 211 -10 272 -10 C437 -10 496 46 496 199 C496 320 460 376 310 431 C188 475 159 512 159 585 C159 689 185 727 257 727 C267 727 277 726 286 725 C290 725 293 724 297 724 C298 723 300 723 301 723 C301 723 301 723 301 723 C301 723 286 725 286 725 C286 725 277 727 277 727 C284 726 290 725 297 724 C300 723 303 722 307 722 C307 722 301 723 301 723 C337 713 368 688 394 656 C404 642 412 626 421 608 C421 608 425 610 425 610 C432 598 438 586 443 574 C447 566 448 563 448 563 C453 562 449 562 458 560 C458 560 458 625 458 625 C458 625 458 690 458 690 C444 687 449 690 443 671 C443 672 431 681 397 705 C397 705 397 705 397 705 L397 705 Z M264 906 C264 906 403 1023 403 1023 C403 1023 419 1010 419 1010 C419 1010 305 832 305 832 C295 817 281 790 264 791 C249 790 233 816 224 831 C224 831 110 1010 110 1010 C110 1010 125 1023 125 1023 C125 1023 264 906 264 906 L264 906 Z " />
<glyph glyph-name="scaron" unicode="&#x161;" horiz-adv-x="424" d="M352 357 C352 357 352 408 352 408 C352 408 352 473 352 473 C348 472 337 469 336 469 C336 469 336 454 336 454 C336 457 322 464 282 479 C282 479 281 479 281 479 C264 485 243 488 217 488 C105 488 65 453 65 355 C65 261 88 221 184 195 C266 173 286 150 286 100 C286 26 266 -1 209 -1 C164 -1 135 26 100 103 C100 103 87 97 87 97 C86 107 85 118 85 129 C85 129 85 137 85 137 C81 138 70 139 69 139 C69 139 69 88 69 88 C69 88 69 40 69 40 C76 41 79 43 85 43 C85 43 85 54 85 54 C85 33 106 11 162 -5 C162 -5 163 -5 163 -5 C177 -8 192 -10 209 -10 C331 -10 375 28 375 132 C375 215 348 252 234 283 C163 302 146 329 146 394 C146 457 165 479 217 479 C264 479 292 456 321 393 C321 393 333 399 333 399 C335 389 336 379 336 368 C336 368 336 359 336 359 C340 358 351 357 352 357 C352 357 352 357 352 357 L352 357 Z M209 656 C209 656 348 773 348 773 C348 773 363 760 363 760 C363 760 250 582 250 582 C240 567 224 540 209 541 C194 542 178 566 169 581 C169 581 55 760 55 760 C55 760 70 773 70 773 C70 773 209 656 209 656 L209 656 Z " />
<glyph glyph-name="Tcaron" unicode="&#x164;" horiz-adv-x="756" d="M95 762 C91 762 83 764 80 764 C75 752 71 740 67 728 C67 728 55 728 55 728 C55 728 55 697 55 697 C48 677 41 658 34 638 C38 639 49 640 50 640 C68 681 59 696 170 696 C170 696 314 696 314 696 C314 696 314 75 314 75 C314 13 301 15 265 15 C265 15 258 15 258 15 C257 10 255 6 255 0 C255 0 502 0 502 0 C501 3 499 14 498 15 C498 15 491 15 491 15 C455 15 442 13 442 75 C442 75 442 696 442 696 C442 696 586 696 586 696 C692 696 694 683 706 640 C710 639 721 638 722 638 C715 657 708 677 701 696 C701 696 701 728 701 728 C701 728 689 728 689 728 C685 740 681 752 677 764 C673 764 665 762 662 762 C670 734 685 728 574 728 C574 728 442 728 442 728 C442 728 314 728 314 728 C314 728 182 728 182 728 C73 728 83 735 95 762 L95 762 Z M378 906 C378 906 517 1023 517 1023 C517 1023 532 1010 532 1010 C532 1010 419 832 419 832 C409 817 395 790 378 791 C363 790 347 816 338 831 C338 831 224 1010 224 1010 C224 1010 239 1023 239 1023 C239 1023 378 906 378 906 L378 906 Z " />
<glyph glyph-name="tcaron" unicode="&#x165;" horiz-adv-x="399" d="M350 478 C350 478 208 478 208 478 C208 478 208 592 208 592 C208 592 200 592 200 592 C200 592 28 427 28 427 C28 427 28 417 28 417 C28 417 93 417 93 417 C93 417 93 178 93 178 C93 12 132 -10 241 -10 C332 -10 372 23 390 116 C390 116 375 119 375 119 C365 64 339 44 277 44 C223 44 204 57 205 152 C205 152 208 417 208 417 C208 417 350 417 350 417 C350 417 350 478 350 478 L350 478 Z M471 614 C491 658 498 685 498 718 C498 732 484 735 446 735 C417 734 414 682 411 626 C411 626 405 514 405 514 C405 514 425 510 425 510 C425 510 471 614 471 614 L471 614 Z " />
<glyph glyph-name="Utilde" unicode="&#x168;" horiz-adv-x="718" d="M224 848 C224 888 234 902 261 902 C327 902 347 837 412 837 C469 837 489 874 489 978 C489 978 482 978 482 978 C482 934 471 918 439 918 C373 918 353 983 287 983 C236 983 217 947 217 848 C217 848 224 848 224 848 L224 848 Z M450 712 C450 712 456 712 456 712 C492 712 505 714 505 647 C505 647 505 195 505 195 C464 105 415 73 322 73 C233 73 201 111 201 215 C201 215 201 647 201 647 C201 647 201 728 201 728 C201 728 13 728 13 728 C14 724 16 713 17 712 C17 712 23 712 23 712 C59 712 72 714 72 647 C72 647 72 215 72 215 C72 50 124 -10 270 -10 C393 -10 455 29 505 137 C505 137 505 105 505 105 C505 105 505 0 505 0 C505 0 526 0 526 0 C526 0 689 53 689 53 C689 53 689 60 689 60 C632 57 634 54 634 105 C634 105 634 647 634 647 C634 647 634 728 634 728 C634 728 446 728 446 728 C447 724 449 713 450 712 L450 712 Z " />
<glyph glyph-name="utilde" unicode="&#x169;" horiz-adv-x="528" d="M125 598 C125 638 135 652 162 652 C228 652 248 587 314 587 C370 587 390 624 390 728 C390 728 384 728 384 728 C384 684 372 668 340 668 C274 668 254 733 189 733 C137 733 119 697 119 598 C119 598 125 598 125 598 L125 598 Z M499 40 C464 35 454 18 454 109 C454 109 454 447 454 447 C454 447 454 478 454 478 C454 478 302 478 302 478 C303 474 304 463 304 462 C304 462 311 462 311 462 C332 462 339 462 339 447 C339 447 339 132 339 132 C319 86 292 70 242 70 C189 70 170 93 170 156 C170 156 170 447 170 447 C170 447 170 478 170 478 C170 478 18 478 18 478 C19 474 20 463 20 462 C20 462 27 462 27 462 C47 462 55 462 55 447 C55 447 55 156 55 156 C55 34 90 -10 188 -10 C260 -10 302 25 339 120 C339 120 339 85 339 85 C339 85 339 -10 339 -10 C339 -10 359 -10 359 -10 C359 -10 502 26 502 26 C502 26 499 40 499 40 L499 40 Z " />
<glyph glyph-name="Umacron" unicode="&#x16a;" horiz-adv-x="718" d="M217 868 C217 868 489 868 489 868 C489 868 489 948 489 948 C489 948 217 948 217 948 C217 948 217 868 217 868 L217 868 Z M450 712 C450 712 456 712 456 712 C492 712 505 714 505 647 C505 647 505 195 505 195 C464 105 415 73 322 73 C233 73 201 111 201 215 C201 215 201 647 201 647 C201 647 201 728 201 728 C201 728 13 728 13 728 C14 724 16 713 17 712 C17 712 23 712 23 712 C59 712 72 714 72 647 C72 647 72 215 72 215 C72 50 124 -10 270 -10 C393 -10 455 29 505 137 C505 137 505 105 505 105 C505 105 505 0 505 0 C505 0 526 0 526 0 C526 0 689 53 689 53 C689 53 689 60 689 60 C632 57 634 54 634 105 C634 105 634 647 634 647 C634 647 634 728 634 728 C634 728 446 728 446 728 C447 724 449 713 450 712 L450 712 Z " />
<glyph glyph-name="umacron" unicode="&#x16b;" horiz-adv-x="528" d="M119 618 C119 618 390 618 390 618 C390 618 390 698 390 698 C390 698 119 698 119 698 C119 698 119 618 119 618 L119 618 Z M499 40 C464 35 454 18 454 109 C454 109 454 447 454 447 C454 447 454 478 454 478 C454 478 302 478 302 478 C303 474 304 463 304 462 C304 462 311 462 311 462 C332 462 339 462 339 447 C339 447 339 132 339 132 C319 86 292 70 242 70 C189 70 170 93 170 156 C170 156 170 447 170 447 C170 447 170 478 170 478 C170 478 18 478 18 478 C19 474 20 463 20 462 C20 462 27 462 27 462 C47 462 55 462 55 447 C55 447 55 156 55 156 C55 34 90 -10 188 -10 C260 -10 302 25 339 120 C339 120 339 85 339 85 C339 85 339 -10 339 -10 C339 -10 359 -10 359 -10 C359 -10 502 26 502 26 C502 26 499 40 499 40 L499 40 Z " />
<glyph glyph-name="Ubreve" unicode="&#x16c;" horiz-adv-x="718" d="M220 972 C233 869 268 832 353 832 C439 832 474 868 486 969 C486 969 462 973 462 973 C457 929 428 913 353 913 C279 913 250 929 245 975 C245 975 220 972 220 972 L220 972 Z M450 712 C450 712 456 712 456 712 C492 712 505 714 505 647 C505 647 505 195 505 195 C464 105 415 73 322 73 C233 73 201 111 201 215 C201 215 201 647 201 647 C201 647 201 728 201 728 C201 728 13 728 13 728 C14 724 16 713 17 712 C17 712 23 712 23 712 C59 712 72 714 72 647 C72 647 72 215 72 215 C72 50 124 -10 270 -10 C393 -10 455 29 505 137 C505 137 505 105 505 105 C505 105 505 0 505 0 C505 0 526 0 526 0 C526 0 689 53 689 53 C689 53 689 60 689 60 C632 57 634 54 634 105 C634 105 634 647 634 647 C634 647 634 728 634 728 C634 728 446 728 446 728 C447 724 449 713 450 712 L450 712 Z " />
<glyph glyph-name="ubreve" unicode="&#x16d;" horiz-adv-x="528" d="M122 722 C134 619 169 582 254 582 C340 582 375 618 387 719 C387 719 363 723 363 723 C358 679 329 663 254 663 C180 663 151 679 146 725 C146 725 122 722 122 722 L122 722 Z M499 40 C464 35 454 18 454 109 C454 109 454 447 454 447 C454 447 454 478 454 478 C454 478 302 478 302 478 C303 474 304 463 304 462 C304 462 311 462 311 462 C332 462 339 462 339 447 C339 447 339 132 339 132 C319 86 292 70 242 70 C189 70 170 93 170 156 C170 156 170 447 170 447 C170 447 170 478 170 478 C170 478 18 478 18 478 C19 474 20 463 20 462 C20 462 27 462 27 462 C47 462 55 462 55 447 C55 447 55 156 55 156 C55 34 90 -10 188 -10 C260 -10 302 25 339 120 C339 120 339 85 339 85 C339 85 339 -10 339 -10 C339 -10 359 -10 359 -10 C359 -10 502 26 502 26 C502 26 499 40 499 40 L499 40 Z " />
<glyph glyph-name="Uring" unicode="&#x16e;" horiz-adv-x="718" d="M353 815 C311 815 289 838 289 883 C289 933 306 951 353 951 C401 951 418 933 418 883 C418 838 396 815 353 815 L353 815 Z M255 883 C255 820 288 788 353 788 C419 788 452 820 452 883 C452 953 426 978 353 978 C281 978 255 953 255 883 L255 883 Z M450 712 C450 712 456 712 456 712 C492 712 505 714 505 647 C505 647 505 195 505 195 C464 105 415 73 322 73 C233 73 201 111 201 215 C201 215 201 647 201 647 C201 647 201 728 201 728 C201 728 13 728 13 728 C14 724 16 713 17 712 C17 712 23 712 23 712 C59 712 72 714 72 647 C72 647 72 215 72 215 C72 50 124 -10 270 -10 C393 -10 455 29 505 137 C505 137 505 105 505 105 C505 105 505 0 505 0 C505 0 526 0 526 0 C526 0 689 53 689 53 C689 53 689 60 689 60 C632 57 634 54 634 105 C634 105 634 647 634 647 C634 647 634 728 634 728 C634 728 446 728 446 728 C447 724 449 713 450 712 L450 712 Z " />
<glyph glyph-name="uring" unicode="&#x16f;" horiz-adv-x="528" d="M254 565 C212 565 190 588 190 633 C190 683 207 701 254 701 C302 701 319 683 319 633 C319 588 297 565 254 565 L254 565 Z M156 633 C156 570 189 538 254 538 C320 538 353 570 353 633 C353 703 327 728 254 728 C182 728 156 703 156 633 L156 633 Z M499 40 C464 35 454 18 454 109 C454 109 454 447 454 447 C454 447 454 478 454 478 C454 478 302 478 302 478 C303 474 304 463 304 462 C304 462 311 462 311 462 C332 462 339 462 339 447 C339 447 339 132 339 132 C319 86 292 70 242 70 C189 70 170 93 170 156 C170 156 170 447 170 447 C170 447 170 478 170 478 C170 478 18 478 18 478 C19 474 20 463 20 462 C20 462 27 462 27 462 C47 462 55 462 55 447 C55 447 55 156 55 156 C55 34 90 -10 188 -10 C260 -10 302 25 339 120 C339 120 339 85 339 85 C339 85 339 -10 339 -10 C339 -10 359 -10 359 -10 C359 -10 502 26 502 26 C502 26 499 40 499 40 L499 40 Z " />
<glyph glyph-name="Wcircumflex" unicode="&#x174;" horiz-adv-x="1044" d="M1018 728 C1018 728 970 728 970 728 C970 728 917 728 917 728 C917 728 827 728 827 728 C828 724 829 713 829 712 C829 712 849 712 849 712 C896 712 914 715 881 592 C881 592 881 592 881 592 C881 592 774 187 774 187 C774 187 774 187 774 187 C774 187 577 656 577 656 C556 714 571 712 605 712 C605 712 624 712 624 712 C625 716 626 727 626 728 C626 728 547 728 547 728 C547 728 398 728 398 728 C398 728 352 728 352 728 C353 724 354 713 354 712 C354 712 376 712 376 712 C397 712 404 713 422 672 C422 672 423 672 423 672 C450 609 478 547 505 485 C505 485 401 161 401 161 C401 161 401 162 401 162 C401 162 208 648 208 648 C184 714 200 712 233 712 C233 712 253 712 253 712 C254 716 255 727 255 728 C255 728 176 728 176 728 C176 728 34 728 34 728 C34 728 4 728 4 728 C5 724 6 713 6 712 C6 712 29 712 29 712 C38 712 40 715 91 592 C91 592 91 592 91 592 C176 391 261 190 346 -10 C346 -10 380 -10 380 -10 C380 -10 530 429 530 429 C594 283 658 137 722 -10 C722 -10 756 -10 756 -10 C756 -10 931 592 931 592 C931 592 931 592 931 592 C933 598 934 603 935 609 C935 609 951 661 951 661 C968 714 977 712 994 712 C994 712 1016 712 1016 712 C1017 716 1018 727 1018 728 C1018 728 1018 728 1018 728 L1018 728 Z M502 899 C502 899 641 782 641 782 C641 782 656 796 656 796 C656 796 543 973 543 973 C533 989 517 1015 502 1015 C487 1015 471 989 462 974 C462 974 348 796 348 796 C348 796 363 782 363 782 C363 782 502 899 502 899 L502 899 Z " />
<glyph glyph-name="Ycircumflex" unicode="&#x176;" horiz-adv-x="682" d="M236 728 C236 728 178 728 178 728 C178 728 27 728 27 728 C27 728 0 728 0 728 C1 724 2 713 2 712 C2 712 24 712 24 712 C33 712 34 715 110 592 C110 592 110 592 110 592 C110 592 286 306 286 306 C286 306 286 75 286 75 C286 13 273 15 237 15 C237 15 230 15 230 15 C229 10 227 6 227 0 C227 0 474 0 474 0 C473 3 471 14 470 15 C470 15 464 15 464 15 C428 15 415 13 415 75 C415 75 415 323 415 323 C415 323 553 592 553 592 C553 592 553 592 553 592 C617 715 621 712 638 712 C638 712 660 712 660 712 C661 716 662 727 662 728 C662 728 622 728 622 728 C622 728 602 728 602 728 C602 728 544 728 544 728 C545 724 546 713 546 712 C546 712 565 712 565 712 C582 712 593 714 572 667 C572 667 545 611 545 611 C543 608 542 605 540 602 C540 602 540 602 540 602 C540 602 411 337 411 337 C411 337 259 592 259 592 C259 592 259 592 259 592 C259 592 259 592 259 593 C259 593 218 661 218 661 C189 714 199 712 216 712 C216 712 234 712 234 712 C235 716 236 727 236 728 L236 728 Z M351 899 C351 899 489 782 489 782 C489 782 505 796 505 796 C505 796 391 973 391 973 C381 989 367 1015 350 1015 C335 1015 319 989 310 974 C310 974 196 796 196 796 C196 796 212 782 212 782 C212 782 351 899 351 899 L351 899 Z " />
<glyph glyph-name="Ydieresis" unicode="&#x178;" horiz-adv-x="682" d="M429 843 C483 843 503 863 503 917 C503 972 483 992 429 992 C374 992 354 972 354 917 C354 863 374 843 429 843 L429 843 Z M272 843 C326 843 346 863 346 917 C346 972 326 992 272 992 C217 992 197 972 197 917 C197 863 217 843 272 843 L272 843 Z M236 728 C236 728 178 728 178 728 C178 728 27 728 27 728 C27 728 0 728 0 728 C1 724 2 713 2 712 C2 712 24 712 24 712 C33 712 34 715 110 592 C110 592 110 592 110 592 C110 592 286 306 286 306 C286 306 286 75 286 75 C286 13 273 15 237 15 C237 15 230 15 230 15 C229 10 227 6 227 0 C227 0 474 0 474 0 C473 3 471 14 470 15 C470 15 464 15 464 15 C428 15 415 13 415 75 C415 75 415 323 415 323 C415 323 553 592 553 592 C553 592 553 592 553 592 C617 715 621 712 638 712 C638 712 660 712 660 712 C661 716 662 727 662 728 C662 728 622 728 622 728 C622 728 602 728 602 728 C602 728 544 728 544 728 C545 724 546 713 546 712 C546 712 565 712 565 712 C582 712 593 714 572 667 C572 667 545 611 545 611 C543 608 542 605 540 602 C540 602 540 602 540 602 C540 602 411 337 411 337 C411 337 259 592 259 592 C259 592 259 592 259 592 C259 592 259 592 259 593 C259 593 218 661 218 661 C189 714 199 712 216 712 C216 712 234 712 234 712 C235 716 236 727 236 728 L236 728 Z " />
<glyph glyph-name="Zacute" unicode="&#x179;" horiz-adv-x="618" d="M339 789 C339 789 484 907 484 907 C527 943 543 957 543 966 C543 1004 524 1023 486 1023 C477 1023 464 1006 431 959 C431 959 325 803 325 803 C325 803 339 789 339 789 L339 789 Z M164 0 C164 0 432 0 432 0 C432 0 587 0 587 0 C598 41 607 81 618 122 C614 121 606 121 602 119 C602 119 591 96 591 96 C576 61 571 44 503 39 C503 39 183 31 183 31 C183 31 591 701 591 701 C591 701 591 728 591 728 C591 728 466 728 466 728 C466 728 235 728 235 728 C235 728 70 728 70 728 C64 684 57 643 52 599 C57 600 71 602 72 603 C72 603 76 619 76 619 C89 673 90 693 231 693 C231 693 231 693 231 693 C231 693 447 698 447 698 C447 698 25 27 25 27 C25 27 25 0 25 0 C25 0 164 0 164 0 L164 0 Z " />
<glyph glyph-name="Zdotaccent" unicode="&#x17b;" horiz-adv-x="618" d="M331 843 C385 843 405 863 405 917 C405 972 385 992 331 992 C276 992 256 972 256 917 C256 863 276 843 331 843 L331 843 Z M164 0 C164 0 432 0 432 0 C432 0 587 0 587 0 C598 41 607 81 618 122 C614 121 606 121 602 119 C602 119 591 96 591 96 C576 61 571 44 503 39 C503 39 183 31 183 31 C183 31 591 701 591 701 C591 701 591 728 591 728 C591 728 466 728 466 728 C466 728 235 728 235 728 C235 728 70 728 70 728 C64 684 57 643 52 599 C57 600 71 602 72 603 C72 603 76 619 76 619 C89 673 90 693 231 693 C231 693 231 693 231 693 C231 693 447 698 447 698 C447 698 25 27 25 27 C25 27 25 0 25 0 C25 0 164 0 164 0 L164 0 Z " />
<glyph glyph-name="zdotaccent" unicode="&#x17c;" horiz-adv-x="456" d="M253 593 C308 593 328 613 328 667 C328 722 308 742 253 742 C199 742 179 722 179 667 C179 613 199 593 253 593 L253 593 Z M111 499 C111 499 109 499 104 500 C104 500 96 500 96 500 C85 462 75 425 66 386 C66 386 72 389 74 389 C74 389 84 396 84 396 C120 422 138 436 173 441 C173 441 280 445 280 445 C280 445 40 27 40 27 C40 27 40 0 40 0 C40 0 161 0 161 0 C161 0 299 0 299 0 C299 0 411 0 411 0 C413 17 415 29 418 46 C420 62 421 74 424 91 C424 91 418 88 418 88 C418 88 407 81 407 81 C365 54 345 41 301 37 C301 37 179 32 179 32 C179 32 416 451 416 451 C416 451 416 478 416 478 C416 478 299 478 299 478 C299 478 126 478 126 478 C109 478 107 486 111 499 C111 499 111 499 111 499 L111 499 Z " />
<glyph glyph-name="Zcaron" unicode="&#x17d;" horiz-adv-x="618" d="M331 906 C331 906 469 1023 469 1023 C469 1023 485 1010 485 1010 C485 1010 371 832 371 832 C362 817 346 790 331 791 C314 790 300 816 290 831 C290 831 176 1010 176 1010 C176 1010 192 1023 192 1023 C192 1023 331 906 331 906 L331 906 Z M164 0 C164 0 432 0 432 0 C432 0 587 0 587 0 C598 41 607 81 618 122 C614 121 606 121 602 119 C602 119 591 96 591 96 C576 61 571 44 503 39 C503 39 183 31 183 31 C183 31 591 701 591 701 C591 701 591 728 591 728 C591 728 466 728 466 728 C466 728 235 728 235 728 C235 728 70 728 70 728 C64 684 57 643 52 599 C57 600 71 602 72 603 C72 603 76 619 76 619 C89 673 90 693 231 693 C231 693 231 693 231 693 C231 693 447 698 447 698 C447 698 25 27 25 27 C25 27 25 0 25 0 C25 0 164 0 164 0 L164 0 Z " />
<glyph glyph-name="zcaron" unicode="&#x17e;" horiz-adv-x="456" d="M111 499 C111 499 109 499 104 500 C104 500 96 500 96 500 C85 462 75 425 66 386 C66 386 72 389 74 389 C74 389 84 396 84 396 C120 422 138 436 173 441 C173 441 280 445 280 445 C280 445 40 27 40 27 C40 27 40 0 40 0 C40 0 161 0 161 0 C161 0 299 0 299 0 C299 0 411 0 411 0 C413 17 415 29 418 46 C420 62 421 74 424 91 C424 91 418 88 418 88 C418 88 407 81 407 81 C365 54 345 41 301 37 C301 37 179 32 179 32 C179 32 416 451 416 451 C416 451 416 478 416 478 C416 478 299 478 299 478 C299 478 126 478 126 478 C109 478 107 486 111 499 C111 499 111 499 111 499 L111 499 Z M254 656 C254 656 392 773 392 773 C392 773 408 760 408 760 C408 760 294 582 294 582 C284 567 270 540 253 541 C238 540 223 566 213 581 C213 581 99 760 99 760 C99 760 115 773 115 773 C115 773 254 656 254 656 L254 656 Z " />
<glyph glyph-name="SmallLetterOwithogon" unicode="&#x1eb;" horiz-adv-x="777" d="M987 -51 C987 -51 984 -48 984 -48 C947 -80 876 -91 719 -91 C580 -91 479 -69 358 -10 C363 -10 367 -10 371 -10 C633 -10 728 67 728 281 C728 494 636 571 381 571 C133 571 44 494 44 281 C44 157 113 80 194 36 C194 36 193 36 193 36 C466 -114 602 -168 706 -168 C810 -168 884 -137 987 -51 L987 -51 Z M373 0 C301 0 176 74 176 281 C176 487 230 561 379 561 C539 561 596 487 596 281 C596 74 537 0 373 0 L373 0 Z " />
<glyph glyph-name="CapitalLetterAwithdo" unicode="&#x226;" horiz-adv-x="697" d="M344 843 C398 843 418 863 418 917 C418 972 398 992 344 992 C289 992 269 972 269 917 C269 863 289 843 344 843 L344 843 Z M424 0 C424 0 498 0 498 0 C498 0 633 0 633 0 C633 0 681 0 681 0 C680 3 679 14 679 15 C679 15 657 15 657 15 C635 15 628 12 589 135 C589 135 589 135 589 135 C589 135 408 688 408 688 C408 688 389 748 389 748 C389 748 375 748 375 748 C349 710 324 695 280 688 C280 688 283 678 283 678 C283 678 283 678 283 678 C283 678 136 165 136 165 C136 165 136 165 136 165 C93 11 80 15 43 15 C43 15 22 15 22 15 C21 11 20 1 20 0 C20 0 89 0 89 0 C89 0 102 0 102 0 C102 0 191 0 191 0 C190 3 189 14 189 15 C189 15 170 15 170 15 C123 15 105 11 148 165 C148 165 148 165 148 165 C148 165 184 293 184 293 C184 293 405 293 405 293 C405 293 455 135 455 135 C455 135 455 135 455 135 C495 12 481 15 446 15 C446 15 426 15 426 15 C425 11 424 1 424 0 L424 0 Z M187 304 C187 304 287 665 287 665 C287 665 402 304 402 304 C402 304 187 304 187 304 L187 304 Z " />
<glyph glyph-name="LETTERSMALLCAPITALG" unicode="&#x262;" horiz-adv-x="712" d="M538 530 C538 530 538 530 538 530 C505 559 462 571 379 571 C134 571 45 494 45 281 C45 67 135 -10 386 -10 C424 -10 455 -8 482 -4 C482 -4 488 -6 488 -6 C488 -6 600 22 600 22 C600 22 600 30 600 30 C622 39 645 49 672 62 C672 62 669 67 669 67 C644 55 623 46 600 38 C600 38 601 168 601 168 C601 230 611 228 639 228 C639 228 646 228 646 228 C646 229 649 243 649 243 C649 243 429 243 429 243 C429 243 432 228 432 228 C432 228 439 228 439 228 C473 228 485 230 485 168 C485 168 486 114 486 114 C484 43 460 18 396 18 C231 18 172 88 172 281 C172 487 228 562 383 562 C417 562 443 558 464 548 C464 548 463 548 463 548 C476 542 490 532 503 519 C529 492 551 450 586 390 C586 390 588 391 588 391 C593 380 599 368 604 356 C608 348 609 345 609 345 C610 344 611 345 619 342 C619 342 619 409 619 409 C619 409 619 474 619 474 C605 471 610 474 604 455 C606 462 589 484 538 530 C538 530 538 530 538 530 L538 530 Z " />
<glyph glyph-name="LETTERSMALLCAPITALI" unicode="&#x26a;" horiz-adv-x="332" d="M277 561 C277 561 43 561 43 561 C43 561 46 546 46 546 C46 546 53 546 53 546 C89 546 102 548 102 486 C102 486 102 75 102 75 C102 13 89 15 53 15 C53 15 46 15 46 15 C45 10 43 6 43 0 C43 0 277 0 277 0 C276 3 274 14 273 15 C273 15 266 15 266 15 C230 15 217 13 217 75 C217 75 217 486 217 486 C217 548 230 546 266 546 C266 546 273 546 273 546 C273 549 276 560 277 561 L277 561 Z " />
<glyph glyph-name="LETTERSMALLCAPITALN" unicode="&#x274;" horiz-adv-x="639" d="M-2 546 C-2 546 21 546 21 546 C30 546 32 547 62 511 C62 511 62 511 62 511 C62 511 107 458 107 458 C107 458 106 145 106 145 C106 145 106 145 106 145 C106 11 94 15 61 15 C61 15 39 15 39 15 C38 11 37 1 37 0 C37 0 106 0 106 0 C106 0 141 0 141 0 C141 0 209 0 209 0 C208 3 207 14 207 15 C207 15 186 15 186 15 C154 15 142 13 140 103 C140 103 140 118 140 118 C140 123 140 129 140 135 C140 135 140 135 140 135 C140 135 137 422 137 422 C137 422 390 123 390 123 C390 123 493 0 493 0 C493 0 517 0 517 0 C517 0 524 482 524 482 C528 548 545 546 583 546 C583 546 590 546 590 546 C590 549 593 560 594 561 C594 561 525 561 525 561 C525 561 491 561 491 561 C491 561 421 561 421 561 C422 555 424 547 425 546 C425 546 432 546 432 546 C475 546 491 549 491 446 C491 446 491 446 491 446 C491 446 493 131 493 131 C493 131 457 177 457 177 C457 177 163 561 163 561 C163 561 136 561 136 561 C136 561 107 561 107 561 C107 561 20 561 20 561 C20 561 -4 561 -4 561 C-3 558 -2 547 -2 546 C-2 546 -2 546 -2 546 L-2 546 Z " />
<glyph glyph-name="LETTERSMALLCAPITALR" unicode="&#x280;" horiz-adv-x="597" d="M55 546 C55 546 62 546 62 546 C98 546 111 548 111 481 C111 481 111 80 111 80 C111 13 98 15 62 15 C62 15 55 15 55 15 C54 10 52 6 52 0 C52 0 286 0 286 0 C285 3 283 14 282 15 C282 15 275 15 275 15 C239 15 226 13 226 80 C226 80 226 255 226 255 C226 255 241 255 241 255 C256 227 296 168 377 56 C425 -10 388 0 587 0 C587 0 587 18 587 18 C533 18 546 11 513 56 C436 162 390 226 365 260 C467 272 507 308 507 401 C507 518 438 561 247 561 C247 561 226 561 226 561 C226 561 52 561 52 561 C52 561 55 546 55 546 C55 546 55 546 55 546 L55 546 Z M226 538 C338 536 379 505 379 423 C379 306 344 284 247 284 C247 284 226 284 226 284 C226 284 226 481 226 481 C226 481 226 538 226 538 L226 538 Z " />
<glyph glyph-name="LETTERSMALLCAPITALY" unicode="&#x28f;" horiz-adv-x="601" d="M225 561 C225 561 167 561 167 561 C167 561 30 561 30 561 C30 561 4 561 4 561 C5 558 6 547 6 546 C6 546 29 546 29 546 C36 546 38 548 71 500 C71 500 251 232 251 232 C251 232 251 75 251 75 C251 13 238 15 202 15 C202 15 195 15 195 15 C195 14 192 0 192 0 C192 0 426 0 426 0 C426 0 423 15 423 15 C423 15 416 15 416 15 C380 15 367 13 367 75 C367 75 367 248 367 248 C367 248 494 475 494 475 C537 548 542 546 556 546 C556 546 578 546 578 546 C579 550 580 560 580 561 C580 561 542 561 542 561 C542 561 523 561 523 561 C523 561 465 561 465 561 C466 558 467 547 467 546 C467 546 486 546 486 546 C504 546 514 548 489 497 C489 497 468 458 468 458 C464 451 460 444 456 436 C456 436 456 436 456 436 C456 436 363 260 363 260 C363 260 255 426 255 426 C255 426 255 426 255 426 C254 427 253 428 253 430 C253 430 220 480 220 480 C177 548 187 546 205 546 C205 546 223 546 223 546 C224 550 225 560 225 561 C225 561 225 561 225 561 L225 561 Z " />
<glyph glyph-name="LETTERSMALLCAPITALB" unicode="&#x299;" horiz-adv-x="569" d="M52 0 C52 0 226 0 226 0 C226 0 346 0 346 0 C481 0 530 1 530 146 C530 244 494 285 397 290 C470 304 498 345 498 428 C498 526 496 561 280 561 C280 561 226 561 226 561 C226 561 52 561 52 561 C52 561 55 546 55 546 C55 546 62 546 62 546 C98 546 111 548 111 481 C111 481 111 80 111 80 C111 13 98 15 62 15 C62 15 55 15 55 15 C54 10 52 6 52 0 L52 0 Z M226 554 C226 554 265 553 265 553 C382 553 383 517 383 415 C383 324 368 291 325 291 C325 291 226 291 226 291 C226 291 226 481 226 481 C226 481 226 554 226 554 L226 554 Z M328 285 C328 285 347 285 347 285 C388 285 403 248 403 146 C403 8 386 7 337 7 C337 7 287 7 287 7 C242 7 226 24 226 69 C226 69 226 80 226 80 C226 80 226 285 226 285 C226 285 328 285 328 285 L328 285 Z " />
<glyph glyph-name="LETTERSMALLCAPITALH" unicode="&#x29c;" horiz-adv-x="730" d="M675 561 C675 561 441 561 441 561 C441 561 444 546 444 546 C444 546 451 546 451 546 C487 546 500 548 500 486 C500 486 500 292 500 292 C500 292 262 292 262 292 C262 292 262 486 262 486 C262 548 275 546 311 546 C311 546 318 546 318 546 C318 549 321 560 322 561 C322 561 88 561 88 561 C88 561 91 546 91 546 C91 546 98 546 98 546 C134 546 147 548 147 486 C147 486 147 75 147 75 C147 13 134 15 98 15 C98 15 91 15 91 15 C90 10 88 6 88 0 C88 0 322 0 322 0 C321 3 319 14 318 15 C318 15 311 15 311 15 C275 15 262 13 262 75 C262 75 262 281 262 281 C262 281 500 281 500 281 C500 281 500 75 500 75 C500 13 487 15 451 15 C451 15 444 15 444 15 C443 10 441 6 441 0 C441 0 675 0 675 0 C674 3 672 14 671 15 C671 15 664 15 664 15 C628 15 615 13 615 75 C615 75 615 486 615 486 C615 548 628 546 664 546 C664 546 671 546 671 546 C671 549 674 560 675 561 L675 561 Z " />
<glyph glyph-name="LETTERSMALLCAPITALL" unicode="&#x29f;" horiz-adv-x="505" d="M461 20 C461 20 461 20 461 20 C469 50 478 80 485 111 C485 111 471 108 469 108 C450 42 458 20 285 20 C228 20 218 28 217 48 C217 48 217 69 217 69 C217 69 217 80 217 80 C217 80 217 481 217 481 C217 548 230 546 266 546 C266 546 273 546 273 546 C273 549 276 560 277 561 C277 561 217 561 217 561 C217 561 102 561 102 561 C102 561 43 561 43 561 C43 561 46 546 46 546 C46 546 53 546 53 546 C89 546 102 548 102 481 C102 481 102 80 102 80 C102 13 89 15 53 15 C53 15 46 15 46 15 C45 10 43 6 43 0 C43 0 102 0 102 0 C102 0 217 0 217 0 C217 0 275 0 275 0 C275 0 456 0 456 0 C456 0 461 20 461 20 L461 20 Z " />
<glyph glyph-name="LETTERSMALLCAPITALA" unicode="&#x1d00;" horiz-adv-x="623" d="M364 0 C364 0 438 0 438 0 C438 0 559 0 559 0 C559 0 606 0 606 0 C605 3 604 14 604 15 C604 15 582 15 582 15 C564 15 556 13 531 79 C531 79 366 534 366 534 C366 534 349 581 349 581 C349 581 337 581 337 581 C316 552 293 540 250 534 C250 534 254 523 254 523 C254 523 142 165 142 165 C142 165 141 165 141 165 C94 11 81 15 44 15 C44 15 22 15 22 15 C21 11 20 1 20 0 C20 0 90 0 90 0 C90 0 101 0 101 0 C101 0 191 0 191 0 C190 3 189 14 189 15 C189 15 169 15 169 15 C126 15 107 12 140 129 C140 129 170 225 170 225 C170 225 359 225 359 225 C359 225 390 135 390 135 C390 135 390 135 390 135 C433 12 420 15 385 15 C385 15 366 15 366 15 C365 11 364 1 364 0 L364 0 Z M173 235 C173 235 258 513 258 513 C258 513 355 235 355 235 C355 235 173 235 173 235 L173 235 Z " />
<glyph glyph-name="LETTERSMALLCAPITALC" unicode="&#x1d04;" horiz-adv-x="661" d="M538 530 C538 530 538 530 538 530 C505 559 462 571 379 571 C134 571 45 494 45 281 C45 67 131 -10 370 -10 C505 -10 561 0 589 24 C594 27 599 30 605 33 C611 36 613 32 613 17 C613 17 620 13 620 13 C620 13 620 80 620 80 C620 80 620 140 620 140 C620 140 610 137 610 137 C603 121 595 106 587 91 C587 91 584 92 584 92 C582 87 581 82 579 78 C559 46 536 20 509 10 C480 2 437 -1 373 -1 C225 -1 172 74 172 281 C172 487 228 562 383 562 C417 562 443 558 464 548 C464 548 463 548 463 548 C476 542 490 532 503 519 C529 492 551 450 586 390 C586 390 588 391 588 391 C593 380 599 368 604 356 C608 348 609 345 609 345 C610 344 611 345 619 342 C619 342 619 409 619 409 C619 409 619 474 619 474 C605 471 610 474 604 455 C606 462 589 484 538 530 C538 530 538 530 538 530 L538 530 Z " />
<glyph glyph-name="LETTERSMALLCAPITALD" unicode="&#x1d05;" horiz-adv-x="746" d="M52 0 C52 0 111 0 111 0 C111 0 226 0 226 0 C226 0 277 0 277 0 C582 0 692 54 692 281 C692 487 617 561 303 561 C303 561 226 561 226 561 C226 561 111 561 111 561 C111 561 52 561 52 561 C52 561 55 546 55 546 C55 546 62 546 62 546 C98 546 111 548 111 481 C111 481 111 80 111 80 C111 13 98 15 62 15 C62 15 55 15 55 15 C54 10 52 6 52 0 L52 0 Z M226 554 C226 554 273 554 273 554 C509 554 565 482 565 281 C565 59 486 7 266 7 C232 7 227 17 226 42 C226 42 226 69 226 69 C226 69 226 80 226 80 C226 80 226 481 226 481 C226 481 226 554 226 554 L226 554 Z " />
<glyph glyph-name="LETTERSMALLCAPITALE" unicode="&#x1d07;" horiz-adv-x="545" d="M469 483 C467 509 465 534 463 561 C463 561 348 561 348 561 C348 561 226 561 226 561 C226 561 111 561 111 561 C111 561 52 561 52 561 C52 561 55 546 55 546 C55 546 62 546 62 546 C98 546 111 548 111 481 C111 481 111 80 111 80 C111 13 98 15 62 15 C62 15 55 15 55 15 C54 10 52 6 52 0 C52 0 111 0 111 0 C111 0 226 0 226 0 C226 0 373 0 373 0 C373 0 488 0 488 0 C491 26 495 52 499 78 C495 77 484 75 483 74 C475 25 482 8 374 8 C374 8 296 8 296 8 C237 8 227 17 226 42 C226 42 226 69 226 69 C226 69 226 80 226 80 C226 80 226 300 226 300 C226 300 288 300 288 300 C391 300 388 282 388 233 C388 233 388 226 388 226 C388 226 402 222 403 221 C403 221 403 300 403 300 C403 300 403 309 403 309 C403 309 403 388 403 388 C396 386 389 384 388 384 C388 384 388 377 388 377 C388 327 391 309 288 309 C288 309 226 309 226 309 C226 309 226 481 226 481 C226 481 226 553 226 553 C226 553 348 553 348 553 C472 553 450 537 453 493 C453 493 453 487 453 487 C456 486 467 483 469 483 L469 483 Z " />
<glyph glyph-name="LETTERSMALLCAPITALJ" unicode="&#x1d0a;" horiz-adv-x="332" d="M277 561 C277 561 43 561 43 561 C43 561 46 546 46 546 C46 546 53 546 53 546 C89 546 102 548 102 486 C102 486 102 -87 102 -87 C101 -210 53 -207 2 -207 C-69 -207 -17 -109 -89 -109 C-129 -109 -144 -124 -144 -164 C-144 -205 -108 -220 -7 -220 C109 -220 218 -230 218 131 C218 131 217 486 217 486 C217 548 230 546 266 546 C266 546 273 546 273 546 C273 549 276 560 277 561 L277 561 Z " />
<glyph glyph-name="LETTERSMALLCAPITALK" unicode="&#x1d0b;" horiz-adv-x="638" d="M617 15 C617 15 593 15 593 15 C580 15 561 34 535 64 C535 64 312 355 312 355 C312 355 454 527 454 527 C474 547 483 546 498 546 C498 546 520 546 520 546 C521 550 522 560 522 561 C522 561 482 561 482 561 C482 561 440 561 440 561 C440 561 363 561 363 561 C364 558 365 547 365 546 C365 546 383 546 383 546 C414 546 429 549 355 449 C355 449 226 281 226 281 C226 281 226 501 226 501 C226 547 239 546 275 546 C275 546 282 546 282 546 C282 549 285 560 286 561 C286 561 226 561 226 561 C226 561 111 561 111 561 C111 561 52 561 52 561 C52 561 55 546 55 546 C55 546 62 546 62 546 C98 546 111 547 111 501 C111 501 111 60 111 60 C111 14 98 15 62 15 C62 15 55 15 55 15 C54 10 52 6 52 0 C52 0 111 0 111 0 C111 0 226 0 226 0 C226 0 286 0 286 0 C285 3 283 14 282 15 C282 15 275 15 275 15 C239 15 226 14 226 60 C226 60 226 281 226 281 C226 281 383 80 383 80 C383 80 383 80 383 80 C454 -11 446 0 446 0 C446 0 584 0 584 0 C584 0 619 0 619 0 C618 3 617 14 617 15 C617 15 617 15 617 15 L617 15 Z " />
<glyph glyph-name="LETTERSMALLCAPITALM" unicode="&#x1d0d;" horiz-adv-x="761" d="M51 546 C51 546 72 546 72 546 C93 546 102 547 120 515 C120 515 104 122 104 122 C98 11 86 15 55 15 C55 15 34 15 34 15 C33 11 32 1 32 0 C32 0 99 0 99 0 C99 0 140 0 140 0 C140 0 209 0 209 0 C208 3 207 14 207 15 C207 15 185 15 185 15 C151 15 138 12 143 135 C143 135 143 135 143 135 C143 135 149 454 149 454 C220 303 291 152 360 0 C360 0 389 0 389 0 C389 0 565 462 565 462 C565 462 578 80 578 80 C578 80 578 80 578 80 C580 13 567 15 529 15 C529 15 522 15 522 15 C522 14 519 0 519 0 C519 0 581 0 581 0 C581 0 697 0 697 0 C697 0 752 0 752 0 C752 0 749 15 749 15 C749 15 742 15 742 15 C713 15 699 14 695 56 C695 56 679 397 679 397 C679 397 680 396 680 396 C675 550 683 546 707 546 C707 546 728 546 728 546 C729 550 730 560 730 561 C730 561 672 561 672 561 C672 561 603 561 603 561 C603 561 562 561 562 561 C562 561 418 160 418 160 C418 160 238 561 238 561 C238 561 151 561 151 561 C151 561 122 561 122 561 C122 561 99 561 99 561 C99 561 49 561 49 561 C50 558 51 547 51 546 C51 546 51 546 51 546 L51 546 Z " />
<glyph glyph-name="LETTERSMALLCAPITALO" unicode="&#x1d0f;" horiz-adv-x="782" d="M373 0 C228 0 176 74 176 281 C176 487 230 561 379 561 C539 561 596 487 596 281 C596 74 537 0 373 0 L373 0 Z M44 281 C44 67 131 -10 371 -10 C633 -10 728 67 728 281 C728 494 636 571 381 571 C133 571 44 494 44 281 L44 281 Z " />
<glyph glyph-name="LETTERSMALLCAPITALP" unicode="&#x1d18;" horiz-adv-x="502" d="M84 546 C84 546 91 546 91 546 C127 546 140 548 140 481 C140 481 140 80 140 80 C140 13 127 15 91 15 C91 15 84 15 84 15 C84 12 81 1 80 0 C80 0 140 0 140 0 C140 0 255 0 255 0 C255 0 314 0 314 0 C314 0 311 15 311 15 C311 15 304 15 304 15 C268 15 255 13 255 80 C255 80 255 248 255 248 C255 248 287 248 287 248 C430 248 482 272 482 401 C482 519 439 561 319 561 C319 561 255 561 255 561 C255 561 140 561 140 561 C140 561 80 561 80 561 C81 558 83 547 84 546 L84 546 Z M255 273 C255 273 255 481 255 481 C255 481 255 541 255 541 C255 541 289 541 289 541 C352 541 374 509 374 421 C374 296 351 273 287 273 C287 273 255 273 255 273 L255 273 Z " />
<glyph glyph-name="LETTERSMALLCAPITALT" unicode="&#x1d1b;" horiz-adv-x="701" d="M94 596 C94 596 86 596 86 596 C81 597 79 597 79 597 C74 585 70 573 65 561 C65 561 55 561 55 561 C55 561 55 533 55 533 C48 514 41 494 34 474 C38 475 49 476 50 476 C68 517 59 532 170 532 C170 532 293 532 293 532 C293 532 293 75 293 75 C293 13 280 15 244 15 C244 15 237 15 237 15 C237 14 234 0 234 0 C234 0 468 0 468 0 C467 6 465 10 465 15 C465 15 458 15 458 15 C422 15 409 13 409 75 C409 75 409 532 409 532 C409 532 532 532 532 532 C643 532 634 517 652 476 C656 475 667 474 668 474 C661 494 654 514 647 533 C647 533 647 561 647 561 C647 561 637 561 637 561 C632 573 628 585 623 597 C623 597 621 597 616 596 C616 596 608 596 608 596 C620 568 630 561 521 561 C521 561 409 561 409 561 C409 561 293 561 293 561 C293 561 181 561 181 561 C72 561 82 568 94 596 C94 596 94 596 94 596 L94 596 Z " />
<glyph glyph-name="LETTERSMALLCAPITALU" unicode="&#x1d1c;" horiz-adv-x="631" d="M375 546 C375 546 382 546 382 546 C418 546 431 548 431 481 C431 481 431 174 431 174 C394 94 352 65 276 65 C214 65 191 101 191 199 C191 199 191 481 191 481 C191 481 191 561 191 561 C191 561 17 561 17 561 C17 561 20 546 20 546 C20 546 27 546 27 546 C63 546 76 548 76 481 C76 481 76 199 76 199 C76 45 117 -10 229 -10 C333 -10 386 25 431 122 C431 122 431 105 431 105 C431 105 431 0 431 0 C431 0 449 0 449 0 C449 0 602 53 602 53 C602 53 602 60 602 60 C545 57 547 54 547 105 C547 105 547 481 547 481 C547 481 547 561 547 561 C547 561 372 561 372 561 C373 555 375 551 375 546 L375 546 Z " />
<glyph glyph-name="LETTERSMALLCAPITALV" unicode="&#x1d20;" horiz-adv-x="672" d="M259 561 C259 561 169 561 169 561 C169 561 36 561 36 561 C36 561 7 561 7 561 C8 558 9 547 9 546 C9 546 32 546 32 546 C39 546 42 547 53 528 C53 528 225 179 225 179 C225 179 318 -10 318 -10 C318 -10 341 -10 341 -10 C341 -10 579 518 579 518 C595 547 604 546 620 546 C620 546 641 546 641 546 C642 550 643 560 643 561 C643 561 598 561 598 561 C598 561 551 561 551 561 C551 561 462 561 462 561 C463 558 464 547 464 546 C464 546 483 546 483 546 C527 546 545 549 501 439 C501 439 395 180 395 180 C395 180 249 426 249 426 C249 426 250 426 250 426 C188 549 203 546 238 546 C238 546 257 546 257 546 C258 550 259 560 259 561 C259 561 259 561 259 561 L259 561 Z " />
<glyph glyph-name="LETTERSMALLCAPITALW" unicode="&#x1d21;" horiz-adv-x="921" d="M894 561 C894 561 846 561 846 561 C846 561 799 561 799 561 C799 561 709 561 709 561 C710 558 711 547 711 546 C711 546 731 546 731 546 C775 546 793 549 764 442 C764 442 682 168 682 168 C682 168 535 456 535 456 C535 456 536 456 536 456 C490 549 504 546 540 546 C540 546 559 546 559 546 C560 550 561 560 561 561 C561 561 482 561 482 561 C482 561 348 561 348 561 C348 561 303 561 303 561 C304 558 305 547 305 546 C305 546 327 546 327 546 C348 546 355 547 375 506 C375 506 375 506 375 506 C397 462 418 418 440 374 C440 374 362 145 362 145 C362 145 362 146 362 146 C362 146 218 449 218 449 C172 549 188 546 223 546 C223 546 242 546 242 546 C243 550 244 560 244 561 C244 561 165 561 165 561 C165 561 38 561 38 561 C38 561 8 561 8 561 C9 558 10 547 10 546 C10 546 33 546 33 546 C42 546 43 549 102 426 C102 426 102 426 102 426 C171 281 240 135 309 -10 C309 -10 339 -10 339 -10 C339 -10 463 327 463 327 C518 215 573 102 629 -10 C629 -10 659 -10 659 -10 C659 -10 802 426 802 426 C802 426 802 426 802 426 C803 429 804 432 805 435 C805 435 824 495 824 495 C844 548 853 546 870 546 C870 546 892 546 892 546 C893 550 894 560 894 561 C894 561 894 561 894 561 L894 561 Z " />
<glyph glyph-name="LETTERSMALLCAPITALZ" unicode="&#x1d22;" horiz-adv-x="564" d="M151 0 C151 0 378 0 378 0 C378 0 533 0 533 0 C542 40 553 79 562 118 C562 118 546 115 546 115 C546 115 536 92 536 92 C520 57 515 40 445 35 C445 35 171 28 171 28 C171 28 537 537 537 537 C537 537 537 561 537 561 C537 561 424 561 424 561 C424 561 235 561 235 561 C235 561 70 561 70 561 C65 520 58 479 53 437 C53 437 73 440 73 440 C73 440 77 456 77 456 C90 510 91 530 231 530 C231 530 231 530 231 530 C231 530 404 534 404 534 C404 534 25 24 25 24 C25 24 25 0 25 0 C25 0 151 0 151 0 L151 0 Z " />
<glyph glyph-name="Wgrave" unicode="&#x1e80;" horiz-adv-x="1044" d="M1018 728 C1018 728 970 728 970 728 C970 728 917 728 917 728 C917 728 827 728 827 728 C828 724 829 713 829 712 C829 712 849 712 849 712 C896 712 914 715 881 592 C881 592 881 592 881 592 C881 592 774 187 774 187 C774 187 774 187 774 187 C774 187 577 656 577 656 C556 714 571 712 605 712 C605 712 624 712 624 712 C625 716 626 727 626 728 C626 728 547 728 547 728 C547 728 398 728 398 728 C398 728 352 728 352 728 C353 724 354 713 354 712 C354 712 376 712 376 712 C397 712 404 713 422 672 C422 672 423 672 423 672 C450 609 478 547 505 485 C505 485 401 161 401 161 C401 161 401 162 401 162 C401 162 208 648 208 648 C184 714 200 712 233 712 C233 712 253 712 253 712 C254 716 255 727 255 728 C255 728 176 728 176 728 C176 728 34 728 34 728 C34 728 4 728 4 728 C5 724 6 713 6 712 C6 712 29 712 29 712 C38 712 40 715 91 592 C91 592 91 592 91 592 C176 391 261 190 346 -10 C346 -10 380 -10 380 -10 C380 -10 530 429 530 429 C594 283 658 137 722 -10 C722 -10 756 -10 756 -10 C756 -10 931 592 931 592 C931 592 931 592 931 592 C933 598 934 603 935 609 C935 609 951 661 951 661 C968 714 977 712 994 712 C994 712 1016 712 1016 712 C1017 716 1018 727 1018 728 C1018 728 1018 728 1018 728 L1018 728 Z M411 959 C380 1006 368 1023 357 1023 C319 1023 300 1004 300 966 C300 955 316 941 359 907 C359 907 503 789 503 789 C503 789 518 803 518 803 C518 803 411 959 411 959 L411 959 Z " />
<glyph glyph-name="Wacute" unicode="&#x1e82;" horiz-adv-x="1044" d="M511 789 C511 789 655 907 655 907 C698 943 714 957 714 966 C714 1004 695 1023 657 1023 C648 1023 635 1006 603 959 C603 959 496 803 496 803 C496 803 511 789 511 789 L511 789 Z M1018 728 C1018 728 970 728 970 728 C970 728 917 728 917 728 C917 728 827 728 827 728 C828 724 829 713 829 712 C829 712 849 712 849 712 C896 712 914 715 881 592 C881 592 881 592 881 592 C881 592 774 187 774 187 C774 187 774 187 774 187 C774 187 577 656 577 656 C556 714 571 712 605 712 C605 712 624 712 624 712 C625 716 626 727 626 728 C626 728 547 728 547 728 C547 728 398 728 398 728 C398 728 352 728 352 728 C353 724 354 713 354 712 C354 712 376 712 376 712 C397 712 404 713 422 672 C422 672 423 672 423 672 C450 609 478 547 505 485 C505 485 401 161 401 161 C401 161 401 162 401 162 C401 162 208 648 208 648 C184 714 200 712 233 712 C233 712 253 712 253 712 C254 716 255 727 255 728 C255 728 176 728 176 728 C176 728 34 728 34 728 C34 728 4 728 4 728 C5 724 6 713 6 712 C6 712 29 712 29 712 C38 712 40 715 91 592 C91 592 91 592 91 592 C176 391 261 190 346 -10 C346 -10 380 -10 380 -10 C380 -10 530 429 530 429 C594 283 658 137 722 -10 C722 -10 756 -10 756 -10 C756 -10 931 592 931 592 C931 592 931 592 931 592 C933 598 934 603 935 609 C935 609 951 661 951 661 C968 714 977 712 994 712 C994 712 1016 712 1016 712 C1017 716 1018 727 1018 728 C1018 728 1018 728 1018 728 L1018 728 Z " />
<glyph glyph-name="Wdieresis" unicode="&#x1e84;" horiz-adv-x="1044" d="M580 843 C635 843 655 863 655 917 C655 972 635 992 580 992 C526 992 506 972 506 917 C506 863 526 843 580 843 L580 843 Z M424 843 C478 843 498 863 498 917 C498 972 478 992 424 992 C369 992 349 972 349 917 C349 863 369 843 424 843 L424 843 Z M1018 728 C1018 728 970 728 970 728 C970 728 917 728 917 728 C917 728 827 728 827 728 C828 724 829 713 829 712 C829 712 849 712 849 712 C896 712 914 715 881 592 C881 592 881 592 881 592 C881 592 774 187 774 187 C774 187 774 187 774 187 C774 187 577 656 577 656 C556 714 571 712 605 712 C605 712 624 712 624 712 C625 716 626 727 626 728 C626 728 547 728 547 728 C547 728 398 728 398 728 C398 728 352 728 352 728 C353 724 354 713 354 712 C354 712 376 712 376 712 C397 712 404 713 422 672 C422 672 423 672 423 672 C450 609 478 547 505 485 C505 485 401 161 401 161 C401 161 401 162 401 162 C401 162 208 648 208 648 C184 714 200 712 233 712 C233 712 253 712 253 712 C254 716 255 727 255 728 C255 728 176 728 176 728 C176 728 34 728 34 728 C34 728 4 728 4 728 C5 724 6 713 6 712 C6 712 29 712 29 712 C38 712 40 715 91 592 C91 592 91 592 91 592 C176 391 261 190 346 -10 C346 -10 380 -10 380 -10 C380 -10 530 429 530 429 C594 283 658 137 722 -10 C722 -10 756 -10 756 -10 C756 -10 931 592 931 592 C931 592 931 592 931 592 C933 598 934 603 935 609 C935 609 951 661 951 661 C968 714 977 712 994 712 C994 712 1016 712 1016 712 C1017 716 1018 727 1018 728 C1018 728 1018 728 1018 728 L1018 728 Z " />
<glyph glyph-name="CapitalLetterEWITHTI" unicode="&#x1ebc;" horiz-adv-x="609" d="M188 848 C188 888 198 902 225 902 C291 902 311 837 377 837 C433 837 453 874 453 978 C453 978 447 978 447 978 C447 934 435 918 403 918 C337 918 317 983 252 983 C200 983 182 947 182 848 C182 848 188 848 188 848 L188 848 Z M533 648 C531 675 529 701 527 728 C527 728 412 728 412 728 C412 728 236 728 236 728 C236 728 107 728 107 728 C107 728 48 728 48 728 C49 724 51 713 52 712 C52 712 58 712 58 712 C94 712 107 714 107 647 C107 647 107 80 107 80 C107 13 94 15 58 15 C58 15 52 15 52 15 C52 12 49 1 48 0 C48 0 107 0 107 0 C107 0 236 0 236 0 C236 0 437 0 437 0 C437 0 552 0 552 0 C556 27 559 51 563 79 C553 77 549 75 547 75 C547 75 547 68 547 68 C540 25 541 9 438 9 C438 9 305 9 305 9 C247 9 237 18 236 43 C236 43 236 69 236 69 C236 69 236 80 236 80 C236 80 236 389 236 389 C236 389 352 389 352 389 C455 389 452 371 452 322 C452 322 452 315 452 315 C457 313 459 314 467 310 C467 310 467 389 467 389 C467 389 467 399 467 399 C467 399 467 478 467 478 C464 478 453 475 452 474 C452 474 452 467 452 467 C452 417 455 399 352 399 C352 399 236 399 236 399 C236 399 236 647 236 647 C236 647 236 719 236 719 C236 719 413 719 413 719 C536 719 514 703 517 659 C517 659 517 652 517 652 C521 651 532 649 533 648 L533 648 Z " />
<glyph glyph-name="Ygrave" unicode="&#x1ef2;" horiz-adv-x="682" d="M236 728 C236 728 178 728 178 728 C178 728 27 728 27 728 C27 728 0 728 0 728 C1 724 2 713 2 712 C2 712 24 712 24 712 C33 712 34 715 110 592 C110 592 110 592 110 592 C110 592 286 306 286 306 C286 306 286 75 286 75 C286 13 273 15 237 15 C237 15 230 15 230 15 C229 10 227 6 227 0 C227 0 474 0 474 0 C473 3 471 14 470 15 C470 15 464 15 464 15 C428 15 415 13 415 75 C415 75 415 323 415 323 C415 323 553 592 553 592 C553 592 553 592 553 592 C617 715 621 712 638 712 C638 712 660 712 660 712 C661 716 662 727 662 728 C662 728 622 728 622 728 C622 728 602 728 602 728 C602 728 544 728 544 728 C545 724 546 713 546 712 C546 712 565 712 565 712 C582 712 593 714 572 667 C572 667 545 611 545 611 C543 608 542 605 540 602 C540 602 540 602 540 602 C540 602 411 337 411 337 C411 337 259 592 259 592 C259 592 259 592 259 592 C259 592 259 592 259 593 C259 593 218 661 218 661 C189 714 199 712 216 712 C216 712 234 712 234 712 C235 716 236 727 236 728 L236 728 Z M260 959 C228 1006 216 1023 205 1023 C167 1023 148 1004 148 966 C148 955 164 941 207 907 C207 907 352 789 352 789 C352 789 366 803 366 803 C366 803 260 959 260 959 L260 959 Z " />
<glyph glyph-name="quoteleft" unicode="&#x2018;" horiz-adv-x="583" d="" />
<glyph glyph-name="quoteright" unicode="&#x2019;" horiz-adv-x="166" d="" />
<glyph glyph-name="quotedblleft" unicode="&#x201c;" horiz-adv-x="583" d="M273 618 C258 618 248 615 241 607 C242 681 261 712 313 726 C313 726 303 738 303 738 C232 719 206 677 206 581 C206 528 224 509 273 509 C314 509 328 523 328 564 C328 604 314 618 273 618 L273 618 Z " />
<glyph glyph-name="quotedblright" unicode="&#x201d;" horiz-adv-x="583" d="M306 640 C304 568 281 535 224 520 C224 520 234 509 234 509 C313 530 341 573 341 671 C341 720 323 738 273 738 C233 738 219 724 219 684 C219 643 233 629 273 629 C288 629 299 632 306 640 C306 640 306 640 306 640 L306 640 Z " />
<glyph glyph-name="Euro" unicode="&#x20ac;" horiz-adv-x="789" d="M750 41 C750 41 750 108 750 108 C750 108 750 169 750 169 C748 168 741 166 739 166 C732 150 725 134 717 119 C717 119 709 121 709 121 C704 104 699 90 693 77 C675 50 656 29 637 21 C637 21 637 21 637 21 C603 6 551 0 465 0 C320 0 253 70 237 257 C237 257 516 257 516 257 C516 257 528 339 528 339 C528 339 233 339 233 339 C233 347 233 355 233 364 C233 373 233 381 233 389 C233 389 528 389 528 389 C528 389 539 471 539 471 C539 471 237 471 237 471 C255 657 324 727 477 727 C605 727 627 674 712 527 C712 527 716 530 716 530 C722 518 728 506 733 494 C737 485 738 482 738 482 C739 482 740 482 749 480 C749 480 749 549 749 549 C749 549 749 614 749 614 C733 606 740 615 733 595 C734 599 718 621 673 671 C632 719 583 738 472 738 C233 738 124 665 98 471 C98 471 67 471 67 471 C67 471 55 389 55 389 C55 389 92 389 92 389 C92 381 92 373 92 364 C92 355 92 347 92 339 C92 339 55 339 55 339 C55 339 43 257 43 257 C43 257 98 257 98 257 C123 63 229 -10 462 -10 C638 -10 695 7 725 51 C725 51 734 60 734 60 C740 66 742 62 742 44 C746 43 747 41 750 41 C750 41 750 41 750 41 L750 41 Z " />
<glyph glyph-name="LETTERSMALLCAPITALF" unicode="&#xa730;" horiz-adv-x="520" d="M470 486 C468 500 468 510 467 523 C465 537 464 547 463 561 C463 561 348 561 348 561 C348 561 226 561 226 561 C226 561 111 561 111 561 C111 561 52 561 52 561 C52 561 55 546 55 546 C55 546 62 546 62 546 C98 546 111 548 111 481 C111 481 111 80 111 80 C111 13 98 15 62 15 C62 15 55 15 55 15 C54 10 52 6 52 0 C52 0 111 0 111 0 C111 0 226 0 226 0 C226 0 286 0 286 0 C285 3 283 14 282 15 C282 15 275 15 275 15 C239 15 226 13 226 80 C226 80 226 291 226 291 C226 291 360 291 360 291 C377 283 378 269 381 248 C381 248 384 223 384 223 C386 222 392 219 393 219 C393 219 393 291 393 291 C393 291 393 300 393 300 C393 300 393 372 393 372 C392 372 384 369 384 369 C384 369 381 344 381 344 C377 312 378 300 278 300 C278 300 226 300 226 300 C226 300 226 481 226 481 C226 481 226 555 226 555 C226 555 268 555 268 555 C454 555 450 539 454 495 C454 495 454 488 454 488 C458 487 469 486 470 486 L470 486 Z " />
<glyph glyph-name="LETTERSMALLCAPITALS" unicode="&#xa731;" horiz-adv-x="479" d="M253 560 C298 552 334 520 362 478 C363 475 365 471 367 467 C367 467 368 468 368 468 C375 457 381 445 386 433 C390 425 391 422 391 422 C396 421 392 421 401 419 C401 419 401 483 401 483 C401 483 401 547 401 547 C401 547 400 547 396 546 C387 542 392 546 386 529 C386 529 374 534 342 550 C315 565 280 571 231 571 C106 571 61 529 61 411 C61 310 89 264 208 220 C320 180 347 157 347 122 C347 34 319 2 243 2 C222 2 203 4 186 10 C152 23 121 56 95 98 C91 106 86 115 82 124 C82 124 81 123 81 123 C75 135 69 146 64 158 C60 166 59 169 59 169 C54 170 58 170 49 172 C49 172 49 108 49 108 C49 108 49 27 49 27 C63 31 58 28 64 50 C63 47 82 36 134 10 C134 10 134 10 134 10 C163 -4 198 -10 243 -10 C388 -10 440 34 440 155 C440 248 409 293 278 341 C176 377 152 404 152 455 C152 534 173 562 231 562 C239 562 246 561 253 560 C253 560 253 560 253 560 C253 560 231 562 231 562 C245 562 257 561 268 559 C268 559 253 560 253 560 L253 560 Z " />
<glyph glyph-name="[namenotfound]" unicode="&#xf078;" horiz-adv-x="652" d="M622 561 C622 561 589 561 589 561 C589 561 537 561 537 561 C537 561 464 561 464 561 C465 558 466 547 466 546 C466 546 483 546 483 546 C513 546 527 550 433 427 C433 427 357 330 357 330 C357 330 288 426 288 426 C288 426 289 426 289 426 C202 549 214 546 241 546 C241 546 259 546 259 546 C260 550 261 560 261 561 C261 561 192 561 192 561 C192 561 56 561 56 561 C56 561 25 561 25 561 C26 558 27 547 27 546 C27 546 49 546 49 546 C61 546 65 549 135 451 C135 451 149 431 149 431 C150 429 151 428 152 426 C152 426 152 426 152 426 C152 426 274 254 274 254 C274 254 129 78 129 78 C74 13 65 15 43 15 C43 15 22 15 22 15 C21 11 20 1 20 0 C20 0 65 0 65 0 C65 0 111 0 111 0 C111 0 212 0 212 0 C211 3 210 14 210 15 C210 15 191 15 191 15 C150 15 126 13 161 66 C161 66 219 141 219 141 C220 142 221 144 222 145 C222 145 222 145 222 145 C222 145 289 233 289 233 C289 233 361 132 361 132 C446 12 434 15 407 15 C407 15 389 15 389 15 C388 11 387 1 387 0 C387 0 455 0 455 0 C455 0 593 0 593 0 C593 0 629 0 629 0 C628 3 627 14 627 15 C627 15 605 15 605 15 C591 15 586 13 532 86 C532 86 364 320 364 320 C364 320 435 396 435 396 C435 396 435 396 435 396 C435 397 436 397 436 398 C436 398 573 543 573 543 C581 546 589 546 598 546 C598 546 620 546 620 546 C621 550 622 560 622 561 C622 561 622 561 622 561 L622 561 Z " />
</font>
</svg>
