<?xml version="1.0" encoding="UTF-8"?>
<svg xmlns="http://www.w3.org/2000/svg" xmlns:xlink="http://www.w3.org/1999/xlink" version="1.2" >
<font id="Myron Light">
<font-face  font-family="Myron" units-per-em="1024" ascent="945" descent="-300" font-style="normal" font-weight="300" font-stretch="normal" cap-height="728" x-height="478" underline-position="0" underline-thickness="0" />
<missing-glyph  horiz-adv-x="472" d="M0 700 C0 700 432 700 432 700 C432 700 432 0 432 0 C432 0 0 0 0 0 C0 0 0 700 0 700 L0 700 Z M50 50 C50 50 382 50 382 50 C382 50 382 650 382 650 C382 650 50 650 50 650 C50 650 50 50 50 50 L50 50 Z " />
<glyph glyph-name="NULL" d="" />
<glyph glyph-name="CR" unicode="&#xd;" horiz-adv-x="256" d="" />
<glyph glyph-name="space" unicode="&#x20;" horiz-adv-x="226" d="" />
<glyph glyph-name="exclam" unicode="&#x21;" horiz-adv-x="201" d="M101 -5 C127 -5 136 4 136 30 C136 57 127 66 101 66 C74 66 65 57 65 30 C65 4 74 -5 101 -5 L101 -5 Z M101 733 C67 733 66 711 70 648 C70 648 96 201 96 201 C96 201 105 201 105 201 C105 201 131 648 131 648 C135 711 134 733 101 733 L101 733 Z " />
<glyph glyph-name="quotedbl" unicode="&#x22;" horiz-adv-x="306" d="M722 728 C703 728 703 716 707 683 C707 683 725 538 725 538 C725 538 731 538 731 538 C731 538 748 683 748 683 C752 716 753 728 734 728 C734 728 722 728 722 728 L722 728 Z " />
<glyph glyph-name="numbersign" unicode="&#x23;" horiz-adv-x="500" d="M370 658 C370 658 341 457 341 457 C341 457 200 457 200 457 C200 457 228 658 228 658 C228 658 222 658 222 658 C222 658 193 457 193 457 C193 457 61 457 61 457 C61 457 55 418 55 418 C55 418 188 418 188 418 C188 418 159 219 159 219 C159 219 25 219 25 219 C25 219 19 181 19 181 C19 181 154 181 154 181 C154 181 128 0 128 0 C128 0 135 0 135 0 C135 0 161 181 161 181 C161 181 302 181 302 181 C302 181 276 0 276 0 C276 0 283 0 283 0 C283 0 309 181 309 181 C309 181 433 181 433 181 C433 181 438 219 438 219 C438 219 314 219 314 219 C314 219 342 418 342 418 C342 418 475 418 475 418 C475 418 480 457 480 457 C480 457 348 457 348 457 C348 457 376 658 376 658 C376 658 370 658 370 658 L370 658 Z M194 418 C194 418 336 418 336 418 C336 418 307 219 307 219 C307 219 166 219 166 219 C166 219 194 418 194 418 L194 418 Z " />
<glyph glyph-name="dollar" unicode="&#x24;" horiz-adv-x="526" d="M296 803 C296 803 296 735 296 735 C279 737 260 738 239 738 C239 738 233 738 233 738 C233 738 233 803 233 803 C233 803 216 803 216 803 C216 803 216 737 216 737 C111 731 73 682 73 560 C73 476 102 425 216 364 C216 364 216 4 216 4 C200 9 185 15 171 23 C138 44 100 112 68 185 C64 193 63 196 63 196 C58 197 62 197 53 199 C53 199 53 144 53 144 C53 144 53 62 53 62 C67 69 61 61 68 86 C68 84 86 69 136 32 C159 15 185 3 216 -3 C216 -3 216 -75 216 -75 C216 -75 233 -75 233 -75 C233 -75 233 -6 233 -6 C250 -9 269 -10 290 -10 C290 -10 296 -10 296 -10 C296 -10 296 -75 296 -75 C296 -75 313 -75 313 -75 C313 -75 313 -10 313 -10 C440 -4 486 47 486 176 C486 273 453 324 313 390 C313 390 313 722 313 722 C360 701 399 645 428 581 C432 573 433 570 433 570 C434 569 435 570 443 567 C443 567 443 623 443 623 C443 623 443 688 443 688 C429 681 435 689 428 669 C428 669 416 679 383 703 C363 717 341 726 313 732 C313 732 313 803 313 803 C313 803 296 803 296 803 L296 803 Z M296 727 C296 727 296 398 296 398 C272 410 251 420 233 430 C233 430 233 733 233 733 C235 733 237 733 239 733 C260 733 279 732 296 728 C296 728 296 728 296 728 C301 727 306 725 311 723 C311 723 296 727 296 727 C296 727 285 730 285 730 C289 730 292 729 296 728 C296 728 296 727 296 727 L296 727 Z M233 355 C246 348 259 342 274 335 C282 331 289 328 296 324 C296 324 296 -4 296 -4 C294 -4 292 -4 290 -4 C269 -4 250 -3 233 1 C233 1 233 355 233 355 L233 355 Z M313 316 C416 262 442 224 442 160 C442 48 408 3 313 -3 C313 -3 313 316 313 316 L313 316 Z M216 440 C138 487 117 525 117 581 C117 683 143 725 216 732 C216 732 216 440 216 440 L216 440 Z " />
<glyph glyph-name="ampersand" unicode="&#x26;" horiz-adv-x="300" d="M311 471 C311 471 316 466 316 466 C428 500 468 539 468 613 C468 705 427 738 315 738 C196 738 153 702 153 603 C153 556 189 521 289 404 C289 404 522 132 522 132 C453 64 374 36 274 36 C147 36 101 84 101 216 C101 345 142 403 256 438 C256 438 247 441 247 441 C101 396 49 333 49 201 C49 46 101 -10 245 -10 C364 -10 455 27 535 117 C535 117 550 99 550 99 C618 19 658 -10 700 -10 C782 -10 816 32 831 148 C831 148 822 151 822 151 C811 63 784 31 721 31 C687 31 654 56 594 125 C594 125 567 157 567 157 C622 233 673 338 724 478 C724 478 712 478 712 478 C662 340 612 240 556 170 C556 170 333 430 333 430 C233 547 197 582 197 630 C197 700 228 726 315 726 C397 726 427 697 427 616 C427 536 396 498 311 471 C311 471 311 471 311 471 L311 471 Z " />
<glyph glyph-name="quotesingle" unicode="&#x27;" horiz-adv-x="195" d="" />
<glyph glyph-name="parenleft" unicode="&#x28;" horiz-adv-x="390" d="M320 738 C145 620 82 493 82 262 C82 40 143 -86 313 -214 C313 -214 316 -209 316 -209 C170 -99 118 26 118 262 C118 505 172 630 323 732 C323 732 320 738 320 738 L320 738 Z " />
<glyph glyph-name="parenright" unicode="&#x29;" horiz-adv-x="390" d="M27 732 C178 634 232 510 232 262 C232 11 180 -114 34 -209 C34 -209 37 -214 37 -214 C207 -105 268 22 268 262 C268 498 205 624 30 738 C30 738 27 732 27 732 L27 732 Z " />
<glyph glyph-name="asterisk" unicode="&#x2a;" horiz-adv-x="268" d="M149 608 C149 608 38 561 38 561 C25 556 23 549 29 538 C36 527 42 526 54 534 C54 534 150 607 150 607 C150 607 135 488 135 488 C133 473 137 468 150 468 C163 468 167 473 165 488 C165 488 150 607 150 607 C150 607 246 534 246 534 C258 525 264 526 271 538 C278 549 275 555 262 561 C262 561 151 608 151 608 C151 608 262 654 262 654 C275 660 278 666 271 677 C264 689 258 690 246 681 C246 681 150 608 150 608 C150 608 165 728 165 728 C167 742 163 747 150 747 C137 747 133 742 135 728 C135 728 150 608 150 608 C150 608 54 681 54 681 C42 690 36 689 29 677 C23 666 25 660 38 654 C38 654 149 608 149 608 L149 608 Z " />
<glyph glyph-name="plus" unicode="&#x2b;" horiz-adv-x="601" d="M281 441 C281 441 281 258 281 258 C281 258 100 258 100 258 C100 258 100 223 100 223 C100 223 281 223 281 223 C281 223 281 40 281 40 C281 40 320 40 320 40 C320 40 320 223 320 223 C320 223 501 223 501 223 C501 223 501 258 501 258 C501 258 320 258 320 258 C320 258 320 441 320 441 C320 441 281 441 281 441 L281 441 Z " />
<glyph glyph-name="comma" unicode="&#x2c;" horiz-adv-x="258" d="M175 51 C178 38 179 22 179 2 C179 -78 149 -107 65 -107 C65 -107 65 -111 65 -111 C155 -111 188 -79 188 10 C188 70 178 100 152 111 C145 114 136 115 125 115 C81 115 65 99 65 55 C65 11 81 -5 125 -5 C161 -5 174 10 175 51 C175 51 175 51 175 51 L175 51 Z " />
<glyph glyph-name="hyphen" unicode="&#x2d;" horiz-adv-x="411" d="M80 264 C80 264 331 264 331 264 C331 264 331 303 331 303 C331 303 80 303 80 303 C80 303 80 264 80 264 L80 264 Z " />
<glyph glyph-name="period" unicode="&#x2e;" horiz-adv-x="195" d="M125 -5 C151 -5 160 4 160 30 C160 57 151 66 125 66 C99 66 90 57 90 30 C90 4 99 -5 125 -5 L125 -5 Z " />
<glyph glyph-name="slash" unicode="&#x2f;" horiz-adv-x="378" d="M319 748 C319 748 37 -80 37 -80 C37 -80 67 -80 67 -80 C67 -80 349 748 349 748 C349 748 319 748 319 748 L319 748 Z " />
<glyph glyph-name="zero" unicode="0" horiz-adv-x="583" d="M294 11 C148 11 73 71 73 239 C73 390 132 467 294 467 C440 467 515 407 515 239 C515 88 456 11 294 11 L294 11 Z M49 239 C49 56 132 -10 294 -10 C474 -10 539 74 539 239 C539 422 456 488 294 488 C114 488 49 404 49 239 L49 239 Z " />
<glyph glyph-name="one" unicode="1" horiz-adv-x="236" d="M200 478 C200 478 37 478 37 478 C37 478 40 462 40 462 C40 462 47 462 47 462 C81 462 93 462 93 447 C93 447 93 30 93 30 C93 15 81 15 47 15 C47 15 40 15 40 15 C39 10 37 6 37 0 C37 0 200 0 200 0 C200 2 197 9 197 15 C197 15 190 15 190 15 C155 15 143 15 143 30 C143 30 143 447 143 447 C143 462 155 462 190 462 C190 462 197 462 197 462 C198 466 198 474 200 478 L200 478 Z " />
<glyph glyph-name="two" unicode="2" horiz-adv-x="508" d="M56 278 C80 404 125 450 224 450 C323 450 359 415 359 316 C359 198 248 130 30 9 C30 9 30 0 30 0 C30 0 303 0 303 0 C303 0 406 0 406 0 C422 25 439 51 454 77 C451 78 441 79 440 79 C423 50 428 44 308 44 C308 44 108 44 108 44 C308 157 409 228 409 328 C409 446 367 488 250 488 C129 488 75 433 45 280 C45 280 56 278 56 278 L56 278 Z " />
<glyph glyph-name="three" unicode="3" horiz-adv-x="390" d="M18 -222 C18 -222 20 -232 20 -232 C263 -206 350 -147 350 -7 C350 111 301 161 166 180 C166 180 161 178 161 178 C302 242 354 284 354 367 C354 456 314 488 204 488 C97 488 49 446 22 328 C22 328 33 325 33 325 C54 419 94 453 184 453 C270 453 301 426 301 349 C301 259 246 224 93 158 C93 158 93 148 93 148 C243 128 297 83 297 -21 C297 -147 223 -201 18 -222 L18 -222 Z " />
<glyph glyph-name="four" unicode="4" horiz-adv-x="584" d="M540 -29 C544 -30 554 -31 555 -31 C556 -21 557 -10 559 0 C559 0 559 0 559 0 C559 0 559 2 559 2 C562 26 566 50 570 75 C566 74 555 73 554 73 C550 43 559 38 439 38 C439 38 396 38 396 38 C396 38 396 507 396 507 C396 507 390 507 390 507 C390 507 15 9 15 9 C15 9 15 0 15 0 C15 0 346 0 346 0 C346 0 346 -220 346 -220 C346 -220 396 -220 396 -220 C396 -220 396 0 396 0 C396 0 484 0 484 0 C551 0 543 -6 540 -29 C540 -29 540 -29 540 -29 L540 -29 Z M61 38 C61 38 346 418 346 418 C346 418 346 38 346 38 C346 38 61 38 61 38 C61 38 61 38 61 38 L61 38 Z " />
<glyph glyph-name="five" unicode="5" horiz-adv-x="409" d="M60 -232 C295 -203 379 -129 379 47 C379 203 303 259 93 259 C93 259 83 259 83 259 C83 259 116 433 116 433 C116 433 322 434 322 434 C322 434 329 476 329 476 C331 488 333 501 336 514 C331 514 323 512 320 512 C316 483 322 478 214 478 C214 478 107 478 107 478 C107 478 57 214 57 214 C57 214 66 207 66 207 C66 207 88 207 88 207 C270 207 335 160 335 30 C335 -131 262 -198 59 -223 C59 -223 60 -232 60 -232 L60 -232 Z " />
<glyph glyph-name="six" unicode="6" horiz-adv-x="548" d="M531 728 C184 654 59 535 59 278 C59 66 119 -10 284 -10 C440 -10 496 54 496 232 C496 386 437 441 274 441 C188 441 139 420 116 367 C146 566 268 664 533 720 C533 720 531 728 531 728 L531 728 Z M108 252 C108 387 151 436 272 436 C400 436 446 383 446 235 C446 59 403 -5 284 -5 C155 -5 108 63 108 252 L108 252 Z " />
<glyph glyph-name="seven" unicode="7" horiz-adv-x="420" d="M99 502 C99 502 91 502 91 502 C86 503 84 503 84 503 C69 468 54 435 38 400 C41 401 53 402 55 402 C66 428 63 437 120 437 C120 437 396 437 396 437 C396 437 404 448 404 448 C404 448 114 -220 114 -220 C114 -220 152 -220 152 -220 C152 -220 416 463 416 463 C416 463 416 478 416 478 C416 478 140 478 140 478 C80 478 91 483 99 502 L99 502 Z " />
<glyph glyph-name="eight" unicode="8" horiz-adv-x="523" d="M222 374 C230 370 239 367 248 363 C393 304 446 286 446 161 C446 38 398 -6 265 -6 C137 -6 91 40 91 169 C91 277 126 334 222 374 L222 374 Z M217 376 C93 327 47 269 47 169 C47 37 105 -10 265 -10 C426 -10 484 41 484 183 C484 315 434 341 298 397 C414 444 457 494 457 580 C457 696 406 738 263 738 C123 738 72 692 72 566 C72 469 111 424 217 376 C217 376 217 376 217 376 L217 376 Z M293 399 C284 403 276 406 267 410 C153 456 112 494 112 585 C112 694 152 734 263 734 C374 734 414 692 414 575 C414 485 381 436 293 399 L293 399 Z " />
<glyph glyph-name="nine" unicode="9" horiz-adv-x="548" d="M17 -250 C364 -176 489 -57 490 199 C489 411 429 488 264 488 C108 488 52 424 52 245 C52 92 111 37 275 37 C360 37 409 58 432 109 C401 -88 279 -186 15 -243 C15 -243 17 -250 17 -250 L17 -250 Z M440 226 C440 91 397 42 276 42 C148 42 102 95 102 243 C102 419 145 483 265 483 C394 483 440 415 440 226 L440 226 Z " />
<glyph glyph-name="colon" unicode="&#x3a;" horiz-adv-x="135" d="M125 363 C151 363 160 372 160 398 C160 424 151 433 125 433 C99 433 90 424 90 398 C90 372 99 363 125 363 L125 363 Z M125 -5 C151 -5 160 4 160 30 C160 57 151 66 125 66 C99 66 90 57 90 30 C90 4 99 -5 125 -5 L125 -5 Z " />
<glyph glyph-name="semicolon" unicode="&#x3b;" horiz-adv-x="258" d="M125 363 C151 363 160 372 160 398 C160 424 151 433 125 433 C99 433 90 424 90 398 C90 372 99 363 125 363 L125 363 Z M175 51 C178 38 179 22 179 2 C179 -78 149 -107 65 -107 C65 -107 65 -111 65 -111 C155 -111 188 -79 188 10 C188 70 178 100 152 111 C145 114 136 115 125 115 C81 115 65 99 65 55 C65 11 81 -5 125 -5 C161 -5 174 10 175 51 C175 51 175 51 175 51 L175 51 Z " />
<glyph glyph-name="equal" unicode="&#x3d;" horiz-adv-x="509" d="M78 200 C78 200 78 178 78 178 C78 178 439 178 439 178 C439 178 439 200 439 200 C439 200 78 200 78 200 L78 200 Z M78 300 C78 300 78 278 78 278 C78 278 439 278 439 278 C439 278 439 300 439 300 C439 300 78 300 78 300 L78 300 Z " />
<glyph glyph-name="question" unicode="&#x3f;" horiz-adv-x="304" d="M125 -5 C151 -5 160 4 160 30 C160 57 151 66 125 66 C99 66 90 57 90 30 C90 4 99 -5 125 -5 L125 -5 Z M121 170 C121 170 125 349 125 349 C229 349 235 373 281 439 C302 468 309 494 309 537 C309 684 266 737 145 737 C110 737 98 727 98 700 C98 682 105 676 125 676 C140 676 148 685 163 685 C260 685 295 644 295 531 C295 507 288 489 270 463 C238 416 238 399 108 399 C108 399 113 170 113 170 C113 170 121 170 121 170 L121 170 Z " />
<glyph glyph-name="at" unicode="&#x40;" horiz-adv-x="1111" d="M1016 0 C934 -176 814 -239 563 -239 C218 -239 94 -110 94 248 C94 605 216 734 556 734 C895 734 1017 626 1017 328 C1017 90 967 4 827 4 C682 4 642 56 680 200 C680 200 747 459 747 459 C747 459 700 459 700 459 C700 459 678 375 678 375 C671 443 637 468 560 468 C362 468 291 394 291 188 C291 59 335 13 455 13 C537 13 586 41 619 116 C617 22 677 -13 818 -13 C993 -13 1056 77 1056 328 C1056 637 923 748 556 748 C188 748 55 615 55 248 C55 -120 190 -252 563 -252 C822 -252 946 -185 1033 0 C1033 0 1016 0 1016 0 L1016 0 Z M669 339 C669 339 633 200 633 200 C602 83 562 41 481 41 C381 41 345 83 345 198 C345 386 402 454 559 454 C640 454 669 424 669 339 L669 339 Z " />
<glyph glyph-name="A" unicode="A" horiz-adv-x="635" d="M438 0 C438 0 512 0 512 0 C512 0 571 0 571 0 C571 0 619 0 619 0 C618 3 617 14 617 15 C617 15 595 15 595 15 C577 15 570 13 546 86 C546 86 359 711 359 711 C359 711 347 748 347 748 C347 748 342 748 342 748 C324 722 313 712 303 711 C303 711 306 701 306 701 C306 701 129 122 129 122 C92 12 78 15 45 15 C45 15 24 15 24 15 C23 11 22 1 22 0 C22 0 91 0 91 0 C91 0 96 0 96 0 C96 0 186 0 186 0 C185 3 184 14 184 15 C184 15 164 15 164 15 C118 15 100 11 147 165 C147 165 146 165 146 165 C146 165 187 298 187 298 C187 298 424 298 424 298 C424 298 472 135 472 135 C472 135 472 135 472 135 C509 12 495 15 460 15 C460 15 440 15 440 15 C439 11 438 1 438 0 L438 0 Z M188 303 C188 303 307 696 307 696 C307 696 423 303 423 303 C423 303 188 303 188 303 L188 303 Z " />
<glyph glyph-name="B" unicode="B" horiz-adv-x="571" d="M67 0 C67 0 182 0 182 0 C182 0 302 0 302 0 C470 0 531 1 531 188 C531 319 482 371 346 375 C470 387 516 438 516 552 C516 681 514 728 259 728 C259 728 182 728 182 728 C182 728 67 728 67 728 C67 728 70 712 70 712 C70 712 77 712 77 712 C113 712 126 714 126 647 C126 647 126 80 126 80 C126 13 113 15 77 15 C77 15 70 15 70 15 C69 10 67 6 67 0 L67 0 Z M182 724 C182 724 251 724 251 724 C458 724 460 677 460 546 C460 420 412 375 281 375 C281 375 182 375 182 375 C182 375 182 647 182 647 C182 647 182 724 182 724 L182 724 Z M282 372 C282 372 315 372 315 372 C429 372 470 323 470 188 C470 5 424 4 297 4 C297 4 247 4 247 4 C199 4 182 21 182 69 C182 69 182 80 182 80 C182 80 182 372 182 372 C182 372 282 372 282 372 L282 372 Z " />
<glyph glyph-name="C" unicode="C" horiz-adv-x="679" d="M634 42 C634 42 634 110 634 110 C634 110 634 163 634 163 C632 162 625 161 624 161 C596 98 562 28 548 18 C514 1 458 -6 362 -6 C186 -6 123 92 123 364 C123 635 189 733 372 733 C432 733 470 724 501 702 C501 702 498 703 498 703 C531 680 577 596 618 503 C622 494 623 491 623 491 C624 491 625 491 634 489 C634 489 634 546 634 546 C634 546 634 611 634 611 C618 605 625 611 618 592 C619 597 603 619 557 669 C517 718 472 738 370 738 C144 738 62 639 62 364 C62 89 141 -10 360 -10 C484 -10 545 0 581 23 C581 23 581 23 581 23 C581 23 581 23 581 23 C593 31 602 41 609 52 C612 55 616 58 619 62 C625 68 627 64 627 46 C629 45 634 42 634 42 L634 42 Z " />
<glyph glyph-name="D" unicode="D" horiz-adv-x="753" d="M67 0 C67 0 126 0 126 0 C126 0 182 0 182 0 C182 0 254 0 254 0 C580 0 698 70 698 364 C698 631 620 728 290 728 C290 728 182 728 182 728 C182 728 126 728 126 728 C126 728 67 728 67 728 C67 728 70 712 70 712 C70 712 77 712 77 712 C113 712 126 714 126 647 C126 647 126 80 126 80 C126 13 113 15 77 15 C77 15 70 15 70 15 C69 10 67 6 67 0 L67 0 Z M182 724 C182 724 276 724 276 724 C568 724 637 629 637 364 C637 73 534 4 249 4 C193 4 183 14 182 40 C182 40 182 69 182 69 C182 69 182 80 182 80 C182 80 182 647 182 647 C182 647 182 724 182 724 L182 724 Z " />
<glyph glyph-name="E" unicode="E" horiz-adv-x="555" d="M478 653 C477 667 476 677 475 691 C475 704 474 714 473 728 C473 728 357 728 357 728 C357 728 182 728 182 728 C182 728 126 728 126 728 C126 728 67 728 67 728 C67 728 70 712 70 712 C70 712 77 712 77 712 C113 712 126 714 126 647 C126 647 126 80 126 80 C126 13 113 15 77 15 C77 15 70 15 70 15 C69 10 67 6 67 0 C67 0 126 0 126 0 C126 0 182 0 182 0 C182 0 382 0 382 0 C382 0 498 0 498 0 C502 25 504 50 508 74 C504 73 493 71 492 70 C485 21 490 4 383 4 C383 4 251 4 251 4 C193 4 183 14 182 40 C182 40 182 69 182 69 C182 69 182 80 182 80 C182 80 182 389 182 389 C182 389 297 389 297 389 C400 389 397 371 397 322 C397 322 397 315 397 315 C403 313 407 313 413 310 C413 310 413 389 413 389 C413 389 413 394 413 394 C413 394 413 472 413 472 C409 471 398 469 397 468 C397 468 397 461 397 461 C397 412 400 394 297 394 C297 394 182 394 182 394 C182 394 182 647 182 647 C182 647 182 724 182 724 C182 724 358 724 358 724 C481 724 458 708 462 664 C462 664 462 657 462 657 C466 656 477 654 478 653 L478 653 Z " />
<glyph glyph-name="F" unicode="F" horiz-adv-x="530" d="M479 656 C477 680 475 704 473 728 C473 728 357 728 357 728 C357 728 182 728 182 728 C182 728 126 728 126 728 C126 728 67 728 67 728 C67 728 70 712 70 712 C70 712 77 712 77 712 C113 712 126 714 126 647 C126 647 126 80 126 80 C126 13 113 15 77 15 C77 15 70 15 70 15 C69 10 67 6 67 0 C67 0 126 0 126 0 C126 0 182 0 182 0 C182 0 241 0 241 0 C240 3 238 14 237 15 C237 15 231 15 231 15 C195 15 182 13 182 80 C182 80 182 385 182 385 C182 385 352 385 352 385 C387 379 387 364 390 337 C390 337 394 312 394 312 C394 312 403 308 403 308 C403 308 403 385 403 385 C403 385 403 389 403 389 C403 389 403 467 403 467 C403 467 395 463 394 462 C394 462 390 438 390 438 C386 402 387 389 287 389 C287 389 182 389 182 389 C182 389 182 647 182 647 C182 647 182 725 182 725 C182 725 278 725 278 725 C469 725 457 710 464 658 C476 656 478 656 479 656 C479 656 479 656 479 656 L479 656 Z " />
<glyph glyph-name="G" unicode="G" horiz-adv-x="725" d="M662 315 C662 315 502 315 502 315 C503 310 505 306 505 300 C505 300 512 300 512 300 C546 300 558 302 558 240 C558 240 560 18 560 18 C560 18 560 18 560 18 C560 18 559 74 559 74 C559 36 531 15 458 8 C458 8 513 10 513 10 C476 6 431 4 371 4 C371 4 458 8 458 8 C434 5 405 4 371 4 C189 4 123 99 123 364 C123 635 189 733 372 733 C432 733 470 724 501 702 C501 702 498 703 498 703 C531 680 577 596 618 503 C622 494 623 491 623 491 C624 491 625 491 634 489 C634 489 634 546 634 546 C634 546 634 611 634 611 C618 605 625 611 618 592 C619 597 603 619 557 669 C517 718 472 738 370 738 C144 738 62 639 62 364 C62 89 143 -10 366 -10 C472 -10 529 -2 589 19 C589 19 614 25 614 25 C614 25 614 28 614 28 C637 38 662 49 690 62 C690 62 689 65 689 65 C661 52 638 41 614 33 C614 33 614 240 614 240 C614 302 624 300 653 300 C653 300 660 300 660 300 C661 303 662 314 662 315 C662 315 662 315 662 315 L662 315 Z " />
<glyph glyph-name="H" unicode="H" horiz-adv-x="734" d="M679 728 C679 728 504 728 504 728 C505 724 507 713 508 712 C508 712 515 712 515 712 C551 712 564 714 564 652 C564 652 564 374 564 374 C564 374 218 374 218 374 C218 374 218 652 218 652 C218 714 231 712 267 712 C267 712 273 712 273 712 C274 716 276 727 277 728 C277 728 103 728 103 728 C103 728 106 712 106 712 C106 712 113 712 113 712 C149 712 162 714 162 652 C162 652 162 75 162 75 C162 13 149 15 113 15 C113 15 106 15 106 15 C105 10 103 6 103 0 C103 0 277 0 277 0 C276 3 274 14 273 15 C273 15 267 15 267 15 C231 15 218 13 218 75 C218 75 218 369 218 369 C218 369 564 369 564 369 C564 369 564 75 564 75 C564 13 551 15 515 15 C515 15 508 15 508 15 C508 12 505 1 504 0 C504 0 679 0 679 0 C678 3 676 14 675 15 C675 15 668 15 668 15 C632 15 619 13 619 75 C619 75 619 652 619 652 C619 714 632 712 668 712 C668 712 675 712 675 712 C676 716 678 727 679 728 L679 728 Z " />
<glyph glyph-name="I" unicode="I" horiz-adv-x="302" d="M247 728 C247 728 73 728 73 728 C73 728 76 712 76 712 C76 712 83 712 83 712 C119 712 132 714 132 652 C132 652 132 75 132 75 C132 13 119 15 83 15 C83 15 76 15 76 15 C75 10 73 6 73 0 C73 0 247 0 247 0 C246 3 244 14 243 15 C243 15 237 15 237 15 C201 15 188 13 188 75 C188 75 188 652 188 652 C188 714 201 712 237 712 C237 712 243 712 243 712 C244 716 246 727 247 728 L247 728 Z " />
<glyph glyph-name="J" unicode="J" horiz-adv-x="302" d="M247 728 C247 728 73 728 73 728 C73 728 76 712 76 712 C76 712 83 712 83 712 C119 712 132 714 132 652 C132 652 132 -31 132 -31 C132 -219 75 -214 15 -214 C-19 -214 6 -167 -29 -167 C-48 -167 -55 -174 -55 -193 C-55 -213 -38 -220 11 -220 C102 -220 188 -229 188 75 C188 75 188 652 188 652 C188 714 201 712 237 712 C237 712 243 712 243 712 C244 716 246 727 247 728 L247 728 Z " />
<glyph glyph-name="K" unicode="K" horiz-adv-x="628" d="M605 15 C605 15 581 15 581 15 C569 15 549 32 522 59 C522 59 224 400 224 400 C224 400 407 621 407 621 C407 621 408 622 408 622 C413 628 417 633 421 638 C421 638 441 662 441 662 C485 714 492 712 511 712 C511 712 533 712 533 712 C534 716 535 727 535 728 C535 728 495 728 495 728 C495 728 473 728 473 728 C473 728 397 728 397 728 C398 724 399 713 399 712 C399 712 416 712 416 712 C444 712 459 714 404 642 C404 642 182 364 182 364 C182 364 182 668 182 668 C182 713 195 712 231 712 C231 712 237 712 237 712 C238 716 240 727 241 728 C241 728 182 728 182 728 C182 728 126 728 126 728 C126 728 67 728 67 728 C67 728 70 712 70 712 C70 712 77 712 77 712 C113 712 126 713 126 668 C126 668 126 60 126 60 C126 14 113 15 77 15 C77 15 70 15 70 15 C69 10 67 6 67 0 C67 0 126 0 126 0 C126 0 182 0 182 0 C182 0 241 0 241 0 C240 3 238 14 237 15 C237 15 231 15 231 15 C195 15 182 14 182 60 C182 60 182 364 182 364 C182 364 432 80 432 80 C432 80 432 80 432 80 C512 -11 503 0 503 0 C503 0 574 0 574 0 C574 0 607 0 607 0 C606 3 605 14 605 15 C605 15 605 15 605 15 L605 15 Z " />
<glyph glyph-name="L" unicode="L" horiz-adv-x="543" d="M499 9 C506 40 514 70 524 101 C521 100 509 98 507 97 C488 32 496 10 319 10 C319 10 257 10 257 10 C199 10 189 19 188 43 C188 43 188 69 188 69 C188 69 188 80 188 80 C188 80 188 647 188 647 C188 714 201 712 237 712 C237 712 243 712 243 712 C244 716 246 727 247 728 C247 728 188 728 188 728 C188 728 132 728 132 728 C132 728 73 728 73 728 C73 728 76 712 76 712 C76 712 83 712 83 712 C119 712 132 714 132 647 C132 647 132 80 132 80 C132 13 119 15 83 15 C83 15 76 15 76 15 C75 10 73 6 73 0 C73 0 132 0 132 0 C132 0 188 0 188 0 C188 0 316 0 316 0 C316 0 497 0 497 0 C497 0 499 9 499 9 L499 9 Z " />
<glyph glyph-name="M" unicode="M" horiz-adv-x="776" d="M55 712 C55 712 76 712 76 712 C98 712 107 713 124 675 C124 675 109 145 109 145 C109 145 109 145 109 145 C105 11 93 15 60 15 C60 15 39 15 39 15 C38 11 37 1 37 0 C37 0 105 0 105 0 C105 0 124 0 124 0 C124 0 193 0 193 0 C192 3 191 14 191 15 C191 15 170 15 170 15 C136 15 124 12 127 135 C127 135 127 135 127 135 C127 135 138 643 138 643 C222 429 306 215 388 0 C388 0 402 0 402 0 C402 0 634 674 634 674 C634 674 651 71 651 71 C651 13 637 15 602 15 C602 15 595 15 595 15 C595 12 592 1 591 0 C591 0 653 0 653 0 C653 0 709 0 709 0 C709 0 765 0 765 0 C765 0 762 15 762 15 C762 15 755 15 755 15 C724 15 711 13 707 59 C707 59 691 564 691 564 C691 564 692 562 692 562 C688 716 697 712 721 712 C721 712 742 712 742 712 C743 716 744 727 744 728 C744 728 686 728 686 728 C686 728 653 728 653 728 C653 728 633 728 633 728 C633 728 413 74 413 74 C413 74 172 728 172 728 C172 728 140 728 140 728 C140 728 126 728 126 728 C126 728 105 728 105 728 C105 728 53 728 53 728 C54 724 55 713 55 712 L55 712 Z " />
<glyph glyph-name="N" unicode="N" horiz-adv-x="680" d="M44 712 C44 712 67 712 67 712 C76 712 78 713 102 677 C102 677 102 678 102 678 C102 678 111 665 111 665 C111 665 110 102 110 102 C107 12 94 15 65 15 C65 15 44 15 44 15 C43 11 42 1 42 0 C42 0 110 0 110 0 C110 0 127 0 127 0 C127 0 196 0 196 0 C195 3 194 14 194 15 C194 15 172 15 172 15 C139 15 127 12 127 135 C127 135 127 135 127 135 C127 135 125 643 125 643 C125 643 500 77 500 77 C500 77 551 0 551 0 C551 0 562 0 562 0 C562 0 565 612 565 612 C565 612 566 612 566 612 C565 715 581 712 625 712 C625 712 632 712 632 712 C633 716 636 727 636 728 C636 728 566 728 566 728 C566 728 550 728 550 728 C550 728 479 728 479 728 C480 724 483 713 483 712 C483 712 490 712 490 712 C534 712 550 715 550 612 C550 612 550 612 550 612 C550 612 551 98 551 98 C551 98 545 107 545 107 C545 107 138 728 138 728 C138 728 125 728 125 728 C125 728 111 728 111 728 C111 728 69 728 69 728 C69 728 42 728 42 728 C43 724 44 713 44 712 L44 712 Z " />
<glyph glyph-name="O" unicode="O" horiz-adv-x="782" d="M380 -5 C193 -5 125 93 125 364 C125 635 195 733 388 733 C591 733 664 635 664 364 C664 93 589 -5 380 -5 L380 -5 Z M61 364 C61 89 145 -10 379 -10 C636 -10 728 89 728 364 C728 639 638 738 389 738 C148 738 61 639 61 364 L61 364 Z " />
<glyph glyph-name="P" unicode="P" horiz-adv-x="514" d="M84 712 C84 712 91 712 91 712 C127 712 140 714 140 647 C140 647 140 80 140 80 C140 13 127 15 91 15 C91 15 84 15 84 15 C84 12 81 1 80 0 C80 0 140 0 140 0 C140 0 195 0 195 0 C195 0 255 0 255 0 C254 3 252 14 251 15 C251 15 244 15 244 15 C208 15 195 13 195 80 C195 80 195 342 195 342 C195 342 241 342 241 342 C427 342 494 370 494 525 C494 674 439 728 286 728 C286 728 195 728 195 728 C195 728 140 728 140 728 C140 728 80 728 80 728 C81 724 83 713 84 712 L84 712 Z M195 354 C195 354 195 647 195 647 C195 647 195 718 195 718 C195 718 272 718 272 718 C397 718 442 669 442 534 C442 382 389 354 241 354 C241 354 195 354 195 354 L195 354 Z " />
<glyph glyph-name="Q" unicode="Q" horiz-adv-x="777" d="M1054 -53 C1054 -53 1053 -51 1053 -51 C1016 -82 943 -93 775 -93 C575 -93 463 -71 362 -9 C368 -10 373 -10 379 -10 C636 -10 728 89 728 364 C728 639 638 738 389 738 C148 738 61 639 61 364 C61 138 197 31 310 0 C310 0 308 0 308 0 C459 -95 581 -130 768 -130 C911 -130 986 -110 1054 -53 L1054 -53 Z M380 -5 C286 -5 125 93 125 364 C125 635 195 733 388 733 C591 733 664 635 664 364 C664 93 589 -5 380 -5 L380 -5 Z " />
<glyph glyph-name="R" unicode="R" horiz-adv-x="631" d="M70 712 C70 712 77 712 77 712 C113 712 126 714 126 647 C126 647 126 80 126 80 C126 13 113 15 77 15 C77 15 70 15 70 15 C69 10 67 6 67 0 C67 0 241 0 241 0 C240 3 238 14 237 15 C237 15 231 15 231 15 C195 15 182 13 182 80 C182 80 182 355 182 355 C182 355 301 355 301 355 C311 328 351 249 444 73 C490 -13 459 0 622 0 C622 0 622 9 622 9 C530 9 550 -2 509 73 C422 238 376 324 359 357 C470 364 512 400 512 524 C512 674 457 728 305 728 C305 728 182 728 182 728 C182 728 67 728 67 728 C67 728 70 712 70 712 L70 712 Z M182 717 C221 717 249 716 288 716 C407 716 450 668 450 535 C450 417 423 380 351 371 C351 372 351 372 351 372 C351 372 343 371 343 371 C332 369 319 369 305 369 C305 369 182 369 182 369 C182 369 182 647 182 647 C182 647 182 717 182 717 L182 717 Z " />
<glyph glyph-name="S" unicode="S" horiz-adv-x="526" d="M311 723 C311 723 285 730 285 730 C294 729 303 726 311 723 C359 702 399 646 428 581 C432 573 433 570 433 570 C434 569 435 570 443 567 C443 567 443 623 443 623 C443 623 443 688 443 688 C429 681 435 689 428 669 C428 669 416 679 383 703 C348 728 303 738 239 738 C117 738 73 691 73 560 C73 463 111 410 274 335 C410 271 442 231 442 160 C442 39 402 -4 290 -4 C242 -4 204 4 171 23 C138 44 100 112 68 185 C64 193 63 196 63 196 C58 197 62 197 53 199 C53 199 53 144 53 144 C53 144 53 62 53 62 C67 69 61 61 68 86 C68 84 86 69 135 32 C135 32 136 32 136 32 C175 2 224 -10 290 -10 C434 -10 486 39 486 176 C486 274 452 325 307 393 C153 465 117 508 117 581 C117 693 149 733 239 733 C280 733 313 728 340 715 C340 715 311 723 311 723 L311 723 Z " />
<glyph glyph-name="T" unicode="T" horiz-adv-x="756" d="M88 762 C84 763 74 764 73 764 C69 752 64 740 60 728 C60 728 55 728 55 728 C55 728 55 714 55 714 C48 695 41 675 34 656 C38 657 49 658 50 658 C68 699 59 714 170 714 C170 714 350 714 350 714 C350 714 350 75 350 75 C350 13 337 15 301 15 C301 15 294 15 294 15 C294 14 291 0 291 0 C291 0 465 0 465 0 C465 0 462 15 462 15 C462 15 455 15 455 15 C419 15 406 13 406 75 C406 75 406 714 406 714 C406 714 586 714 586 714 C692 714 694 701 706 658 C710 657 721 656 722 656 C715 676 708 695 701 714 C701 714 701 728 701 728 C701 728 696 728 696 728 C692 740 687 752 683 764 C679 763 669 762 668 762 C680 735 690 728 581 728 C581 728 406 728 406 728 C406 728 350 728 350 728 C350 728 175 728 175 728 C64 728 80 734 88 762 L88 762 Z " />
<glyph glyph-name="U" unicode="U" horiz-adv-x="609" d="M413 712 C413 712 420 712 420 712 C456 712 469 714 469 647 C469 647 469 170 469 170 C420 64 360 26 242 26 C172 26 147 76 147 215 C147 215 147 647 147 647 C147 647 147 728 147 728 C147 728 32 728 32 728 C32 728 35 712 35 712 C35 712 42 712 42 712 C78 712 91 714 91 647 C91 647 91 215 91 215 C91 50 125 -10 220 -10 C350 -10 416 31 469 145 C469 145 469 105 469 105 C469 105 469 0 469 0 C469 0 478 0 478 0 C478 0 580 53 580 53 C580 53 580 60 580 60 C523 57 525 54 525 105 C525 105 525 647 525 647 C525 647 525 728 525 728 C525 728 410 728 410 728 C411 721 413 718 413 712 L413 712 Z " />
<glyph glyph-name="V" unicode="V" horiz-adv-x="670" d="M208 728 C208 728 118 728 118 728 C118 728 54 728 54 728 C54 728 22 728 22 728 C23 724 24 713 24 712 C24 712 47 712 47 712 C56 712 59 713 73 672 C73 672 74 671 74 671 C74 671 281 78 281 78 C281 78 312 -10 312 -10 C312 -10 323 -10 323 -10 C323 -10 546 592 546 592 C546 592 546 592 546 592 C590 715 597 712 619 712 C619 712 641 712 641 712 C642 716 643 727 643 728 C643 728 596 728 596 728 C596 728 574 728 574 728 C574 728 484 728 484 728 C485 724 486 713 486 712 C486 712 506 712 506 712 C548 712 567 715 533 612 C533 612 312 -10 312 -10 C312 -10 343 78 343 78 C343 78 159 610 159 610 C124 715 142 712 186 712 C186 712 206 712 206 712 C207 716 208 727 208 728 C208 728 208 728 208 728 L208 728 Z " />
<glyph glyph-name="W" unicode="W" horiz-adv-x="962" d="M935 728 C935 728 887 728 887 728 C887 728 865 728 865 728 C865 728 775 728 775 728 C776 724 777 713 777 712 C777 712 797 712 797 712 C842 712 860 715 829 602 C829 602 679 80 679 80 C679 80 679 81 679 81 C679 81 508 658 508 658 C494 714 510 712 544 712 C544 712 564 712 564 712 C565 716 566 727 566 728 C566 728 487 728 487 728 C487 728 422 728 422 728 C422 728 375 728 375 728 C376 724 377 713 377 712 C377 712 398 712 398 712 C416 712 425 713 435 686 C456 619 477 552 498 485 C498 485 323 66 323 66 C323 66 324 71 324 71 C324 71 150 620 150 620 C122 715 137 712 173 712 C173 712 193 712 193 712 C194 716 195 727 195 728 C195 728 116 728 116 728 C116 728 54 728 54 728 C54 728 23 728 23 728 C24 724 25 713 25 712 C25 712 47 712 47 712 C55 712 57 714 84 634 C153 419 222 205 291 -10 C291 -10 305 -10 305 -10 C305 -10 506 458 506 458 C555 302 604 145 653 -10 C653 -10 668 -10 668 -10 C668 -10 847 592 847 592 C847 592 847 592 847 592 C883 715 890 712 912 712 C912 712 933 712 933 712 C934 716 935 727 935 728 C935 728 935 728 935 728 L935 728 Z " />
<glyph glyph-name="X" unicode="X" horiz-adv-x="661" d="M636 728 C636 728 600 728 600 728 C600 728 575 728 575 728 C575 728 501 728 501 728 C502 724 503 713 503 712 C503 712 521 712 521 712 C550 712 565 715 500 611 C500 611 360 396 360 396 C360 396 228 612 228 612 C166 715 179 712 206 712 C206 712 224 712 224 712 C225 716 226 727 226 728 C226 728 157 728 157 728 C157 728 91 728 91 728 C91 728 59 728 59 728 C60 724 61 713 61 712 C61 712 83 712 83 712 C95 712 99 715 161 614 C161 614 321 351 321 351 C321 351 152 101 152 101 C90 12 83 15 59 15 C59 15 37 15 37 15 C36 11 35 1 35 0 C35 0 83 0 83 0 C83 0 105 0 105 0 C105 0 206 0 206 0 C205 3 204 14 204 15 C204 15 185 15 185 15 C139 15 116 12 167 95 C167 95 328 340 328 340 C328 340 473 101 473 101 C525 13 513 15 487 15 C487 15 469 15 469 15 C468 11 467 1 467 0 C467 0 535 0 535 0 C535 0 602 0 602 0 C602 0 640 0 640 0 C639 3 638 14 638 15 C638 15 615 15 615 15 C601 15 596 13 552 81 C552 81 363 391 363 391 C363 391 484 563 484 563 C484 563 484 562 484 562 C486 565 488 568 490 571 C490 571 577 695 577 695 C593 713 601 712 612 712 C612 712 634 712 634 712 C635 716 636 727 636 728 C636 728 636 728 636 728 L636 728 Z " />
<glyph glyph-name="Y" unicode="Y" horiz-adv-x="609" d="M172 728 C172 728 114 728 114 728 C114 728 48 728 48 728 C48 728 20 728 20 728 C21 724 22 713 22 712 C22 712 45 712 45 712 C53 712 55 715 110 619 C110 619 282 319 282 319 C282 319 282 75 282 75 C282 13 269 15 233 15 C233 15 226 15 226 15 C225 10 223 6 223 0 C223 0 397 0 397 0 C396 6 394 10 394 15 C394 15 387 15 387 15 C351 15 338 13 338 75 C338 75 338 327 338 327 C338 327 478 593 478 593 C478 593 478 592 478 592 C543 715 547 712 564 712 C564 712 587 712 587 712 C588 716 589 727 589 728 C589 728 549 728 549 728 C549 728 540 728 540 728 C540 728 482 728 482 728 C483 724 484 713 484 712 C484 712 503 712 503 712 C519 712 529 714 511 673 C511 673 336 334 336 334 C336 334 159 648 159 648 C124 714 134 712 152 712 C152 712 170 712 170 712 C171 716 172 727 172 728 C172 728 172 728 172 728 L172 728 Z " />
<glyph glyph-name="Z" unicode="Z" horiz-adv-x="618" d="M86 0 C86 0 432 0 432 0 C432 0 587 0 587 0 C596 34 604 67 613 102 C613 102 596 99 596 99 C596 99 586 75 586 75 C570 38 565 21 481 17 C481 17 95 13 95 13 C95 13 591 716 591 716 C591 716 591 728 591 728 C591 728 537 728 537 728 C537 728 235 728 235 728 C235 728 70 728 70 728 C65 691 61 656 55 619 C63 620 67 622 75 622 C75 622 79 638 79 638 C90 687 93 708 189 712 C189 712 528 715 528 715 C528 715 25 12 25 12 C25 12 25 0 25 0 C25 0 86 0 86 0 L86 0 Z " />
<glyph glyph-name="bracketleft" unicode="&#x5b;" horiz-adv-x="285" d="M125 713 C125 713 335 713 335 713 C335 713 335 728 335 728 C335 728 125 728 125 728 C125 728 108 728 108 728 C108 728 108 -195 108 -195 C108 -195 125 -195 125 -195 C125 -195 335 -195 335 -195 C335 -195 335 -180 335 -180 C335 -180 125 -180 125 -180 C125 -180 125 713 125 713 L125 713 Z " />
<glyph glyph-name="backslash" unicode="&#x5c;" horiz-adv-x="336" d="M37 748 C37 748 297 -80 297 -80 C297 -80 327 -80 327 -80 C327 -80 67 748 67 748 C67 748 37 748 37 748 L37 748 Z " />
<glyph glyph-name="bracketright" unicode="&#x5d;" horiz-adv-x="288" d="M161 713 C161 713 161 -180 161 -180 C161 -180 -49 -180 -49 -180 C-49 -180 -49 -195 -49 -195 C-49 -195 161 -195 161 -195 C161 -195 178 -195 178 -195 C178 -195 178 728 178 728 C178 728 161 728 161 728 C161 728 -49 728 -49 728 C-49 728 -49 713 -49 713 C-49 713 161 713 161 713 L161 713 Z " />
<glyph glyph-name="underscore" unicode="&#x5f;" horiz-adv-x="412" d="M5 -50 C5 -50 5 -78 5 -78 C5 -78 408 -78 408 -78 C408 -78 408 -50 408 -50 C408 -50 5 -50 5 -50 L5 -50 Z " />
<glyph glyph-name="a" unicode="a" horiz-adv-x="493" d="M504 77 C504 77 493 83 493 83 C486 45 472 31 438 31 C396 31 381 43 381 78 C381 78 381 342 381 342 C381 465 347 488 252 488 C98 488 60 393 73 318 C79 286 86 275 101 275 C133 275 141 290 138 305 C135 325 117 336 114 352 C104 410 132 483 246 483 C309 483 331 464 331 360 C331 360 331 265 331 265 C81 121 53 108 53 76 C53 13 82 -10 161 -10 C238 -10 276 1 331 83 C331 83 331 78 331 78 C331 17 354 -5 418 -5 C470 -5 493 17 504 77 L504 77 Z M331 261 C331 261 331 88 331 88 C289 26 256 17 188 17 C126 17 104 34 104 82 C104 135 127 143 331 261 C331 261 331 261 331 261 L331 261 Z " />
<glyph glyph-name="b" unicode="b" horiz-adv-x="501" d="M28 688 C61 697 73 707 73 630 C73 630 73 0 73 0 C73 0 76 0 76 0 C81 21 86 43 91 65 C137 10 182 -10 259 -10 C404 -10 456 56 456 240 C456 419 402 483 253 483 C196 483 161 460 123 396 C123 396 123 642 123 642 C123 642 123 728 123 728 C123 728 114 728 114 728 C114 728 25 702 25 702 C26 695 26 701 28 688 L28 688 Z M123 388 C158 445 189 466 236 466 C357 466 400 405 400 234 C400 60 363 -3 261 -3 C204 -3 168 16 123 70 C123 70 123 195 123 195 C123 195 123 388 123 388 L123 388 Z " />
<glyph glyph-name="c" unicode="c" horiz-adv-x="448" d="M418 166 C418 166 411 168 411 168 C391 60 351 21 258 21 C143 21 102 83 102 254 C102 417 142 476 253 476 C308 476 337 451 363 383 C370 361 378 353 393 353 C423 353 431 361 423 383 C395 460 351 488 256 488 C105 488 51 419 51 228 C51 53 101 -10 241 -10 C348 -10 395 37 418 166 L418 166 Z " />
<glyph glyph-name="d" unicode="d" horiz-adv-x="544" d="M540 27 C505 17 495 7 495 116 C495 116 495 645 495 645 C495 645 495 728 495 728 C495 728 486 728 486 728 C486 728 397 702 397 702 C398 700 397 699 400 688 C433 697 445 707 445 633 C445 633 445 428 445 428 C412 468 369 488 304 488 C103 488 55 423 55 242 C55 60 114 -5 279 -5 C360 -5 405 15 445 72 C445 72 445 -10 445 -10 C445 -10 454 -10 454 -10 C454 -10 543 12 543 12 C543 12 540 27 540 27 L540 27 Z M445 89 C406 35 367 16 300 16 C157 16 106 80 106 256 C106 415 145 473 310 473 C369 473 410 439 445 374 C445 374 445 105 445 105 C445 105 445 89 445 89 L445 89 Z " />
<glyph glyph-name="e" unicode="e" horiz-adv-x="508" d="M110 339 C110 339 424 339 424 339 C424 339 479 339 479 339 C451 470 404 488 286 488 C113 488 50 418 50 224 C50 52 107 -10 264 -10 C399 -10 454 39 471 176 C471 176 464 177 464 177 C451 64 401 23 276 23 C149 23 103 82 103 244 C103 281 105 312 110 339 L110 339 Z M460 353 C462 353 463 353 465 353 C465 353 460 353 460 353 L460 353 Z M421 353 C421 353 112 350 112 350 C131 441 183 476 283 476 C362 476 395 461 421 353 C421 353 421 353 421 353 L421 353 Z " />
<glyph glyph-name="f" unicode="f" horiz-adv-x="294" d="M50 0 C50 0 196 0 196 0 C196 0 193 15 193 15 C193 15 186 15 186 15 C158 15 148 15 148 30 C148 30 148 451 148 451 C148 451 284 451 284 451 C284 451 284 478 284 478 C284 478 148 478 148 478 C148 654 168 717 253 717 C357 717 251 603 339 603 C379 603 393 617 393 658 C393 713 361 733 270 733 C131 733 98 665 98 478 C98 478 -4 457 -4 457 C-4 457 -4 451 -4 451 C-4 451 98 451 98 451 C98 451 98 30 98 30 C98 15 88 15 60 15 C60 15 53 15 53 15 C53 14 50 0 50 0 L50 0 Z " />
<glyph glyph-name="g" unicode="g" horiz-adv-x="501" d="M134 334 C134 438 165 476 250 476 C335 476 366 438 366 334 C366 229 335 191 250 191 C165 191 134 229 134 334 L134 334 Z M160 17 C165 17 171 17 177 17 C177 17 285 17 285 17 C408 17 425 -11 425 -90 C425 -185 382 -219 262 -219 C139 -219 94 -182 94 -81 C94 -26 112 2 160 17 C160 17 160 17 160 17 L160 17 Z M147 18 C78 0 53 -31 53 -93 C53 -194 108 -230 259 -230 C411 -230 466 -190 466 -79 C466 28 445 67 290 67 C290 67 180 67 180 67 C113 67 89 80 89 118 C89 163 132 180 250 180 C372 180 416 221 416 334 C416 349 415 363 413 376 C432 431 455 452 494 452 C515 452 523 441 523 412 C523 399 529 394 546 394 C561 394 566 400 566 418 C566 458 552 473 515 473 C460 473 431 451 411 392 C396 461 348 488 250 488 C128 488 84 447 84 334 C84 248 110 203 176 187 C92 179 60 154 60 103 C60 48 84 23 147 18 C147 18 147 18 147 18 L147 18 Z " />
<glyph glyph-name="h" unicode="h" horiz-adv-x="511" d="M49 688 C82 697 94 707 94 630 C94 630 94 30 94 30 C94 15 84 15 56 15 C56 15 49 15 49 15 C49 14 46 0 46 0 C46 0 192 0 192 0 C192 0 189 15 189 15 C189 15 182 15 182 15 C154 15 144 15 144 30 C144 30 144 350 144 350 C179 425 215 452 282 452 C355 452 372 423 372 343 C372 343 372 30 372 30 C372 15 362 15 333 15 C333 15 326 15 326 15 C325 11 324 1 324 0 C324 0 469 0 469 0 C468 3 467 14 467 15 C467 15 460 15 460 15 C432 15 422 15 422 30 C422 30 422 343 422 343 C422 449 401 488 311 488 C233 488 189 452 144 354 C144 354 144 642 144 642 C144 642 144 728 144 728 C144 728 135 728 135 728 C135 728 46 702 46 702 C47 695 47 701 49 688 L49 688 Z " />
<glyph glyph-name="i" unicode="i" horiz-adv-x="232" d="M128 593 C152 593 160 601 160 625 C160 649 152 657 128 657 C105 657 96 649 96 625 C96 601 105 593 128 593 L128 593 Z M58 438 C91 447 103 457 103 380 C103 380 103 30 103 30 C103 15 94 15 70 15 C70 15 63 15 63 15 C62 11 61 1 61 0 C61 0 195 0 195 0 C194 3 193 14 193 15 C193 15 186 15 186 15 C162 15 153 15 153 30 C153 30 153 392 153 392 C153 392 153 478 153 478 C153 478 144 478 144 478 C144 478 55 452 55 452 C56 445 56 451 58 438 L58 438 Z " />
<glyph glyph-name="j" unicode="j" horiz-adv-x="233" d="M118 593 C142 593 150 601 150 625 C150 649 142 657 118 657 C95 657 86 649 86 625 C86 601 95 593 118 593 L118 593 Z M48 438 C81 447 93 457 93 380 C93 380 93 29 93 29 C93 -64 81 -105 48 -123 C6 -123 -19 -100 -62 -100 C-95 -100 -107 -111 -107 -140 C-107 -176 -91 -188 -47 -185 C-39 -184 -11 -170 58 -130 C121 -94 143 -52 143 29 C143 29 143 392 143 392 C143 392 143 478 143 478 C143 478 134 478 134 478 C134 478 45 452 45 452 C46 445 46 451 48 438 L48 438 Z " />
<glyph glyph-name="k" unicode="k" horiz-adv-x="453" d="M422 478 C422 478 402 478 402 478 C402 478 383 478 383 478 C383 478 282 478 282 478 C283 474 284 463 284 462 C284 462 302 462 302 462 C343 462 365 465 259 365 C259 365 153 268 153 268 C153 268 153 642 153 642 C153 642 153 728 153 728 C153 728 144 728 144 728 C144 728 55 702 55 702 C56 695 56 701 58 688 C91 697 103 707 103 630 C103 630 103 30 103 30 C103 15 94 15 70 15 C70 15 63 15 63 15 C62 11 61 1 61 0 C61 0 195 0 195 0 C194 3 193 14 193 15 C193 15 186 15 186 15 C162 15 153 15 153 30 C153 30 153 268 153 268 C153 268 332 30 332 30 C332 30 331 30 331 30 C343 15 338 15 325 15 C325 15 309 15 309 15 C308 11 307 1 307 0 C307 0 354 0 354 0 C354 0 418 0 418 0 C418 0 438 0 438 0 C437 3 436 14 436 15 C436 15 412 15 412 15 C409 15 407 15 402 21 C402 21 197 291 197 291 C197 291 361 440 361 440 C361 440 369 447 369 447 C385 462 388 462 397 462 C397 462 420 462 420 462 C421 466 422 477 422 478 C422 478 422 478 422 478 L422 478 Z " />
<glyph glyph-name="l" unicode="l" horiz-adv-x="222" d="M48 688 C81 697 93 707 93 630 C93 630 93 30 93 30 C93 15 84 15 57 15 C57 15 51 15 51 15 C50 10 48 6 48 0 C48 0 188 0 188 0 C187 3 186 14 186 15 C186 15 179 15 179 15 C152 15 143 15 143 30 C143 30 143 642 143 642 C143 642 143 728 143 728 C143 728 134 728 134 728 C134 728 45 702 45 702 C46 695 46 701 48 688 L48 688 Z " />
<glyph glyph-name="m" unicode="m" horiz-adv-x="768" d="M597 0 C597 0 737 0 737 0 C736 6 734 10 734 15 C734 15 727 15 727 15 C699 15 689 14 689 50 C689 50 689 343 689 343 C689 449 674 488 565 488 C496 488 455 455 413 365 C410 454 390 488 289 488 C220 488 180 454 137 359 C137 359 137 392 137 392 C137 392 137 478 137 478 C137 478 128 478 128 478 C128 478 39 445 39 445 C40 440 42 437 42 431 C75 440 87 455 87 377 C87 377 87 50 87 50 C87 14 77 15 49 15 C49 15 42 15 42 15 C42 14 39 0 39 0 C39 0 177 0 177 0 C176 6 174 10 174 15 C174 15 167 15 167 15 C145 15 137 14 137 50 C137 50 137 355 137 355 C169 425 204 451 268 451 C352 451 363 422 363 343 C363 343 363 50 363 50 C363 14 354 15 330 15 C330 15 323 15 323 15 C322 11 321 1 321 0 C321 0 450 0 450 0 C449 3 448 14 448 15 C448 15 441 15 441 15 C420 15 413 14 413 50 C413 50 413 343 413 343 C413 349 413 355 413 361 C444 427 480 451 544 451 C628 451 639 422 639 343 C639 343 639 50 639 50 C639 14 630 15 606 15 C606 15 599 15 599 15 C598 11 597 1 597 0 L597 0 Z " />
<glyph glyph-name="n" unicode="n" horiz-adv-x="492" d="M42 431 C75 440 87 455 87 377 C87 377 87 30 87 30 C87 15 78 15 51 15 C51 15 45 15 45 15 C44 10 42 6 42 0 C42 0 182 0 182 0 C181 3 180 14 180 15 C180 15 173 15 173 15 C146 15 137 15 137 30 C137 30 137 348 137 348 C175 431 210 461 272 461 C346 461 363 431 363 349 C363 349 363 30 363 30 C363 15 354 15 327 15 C327 15 320 15 320 15 C319 11 318 1 318 0 C318 0 458 0 458 0 C457 3 456 14 456 15 C456 15 449 15 449 15 C422 15 413 15 413 30 C413 30 413 349 413 349 C413 451 389 488 289 488 C221 488 180 453 137 357 C137 357 137 392 137 392 C137 392 137 478 137 478 C137 478 128 478 128 478 C128 478 39 445 39 445 C40 440 42 437 42 431 L42 431 Z " />
<glyph glyph-name="o" unicode="o" horiz-adv-x="590" d="M298 -5 C156 -5 105 60 105 239 C105 418 156 483 298 483 C439 483 490 418 490 239 C490 60 439 -5 298 -5 L298 -5 Z M50 239 C50 56 116 -10 298 -10 C479 -10 545 56 545 239 C545 422 479 488 298 488 C116 488 50 422 50 239 L50 239 Z " />
<glyph glyph-name="p" unicode="p" horiz-adv-x="520" d="M43 431 C76 440 88 455 88 377 C88 377 88 -159 88 -159 C88 -206 78 -205 50 -205 C50 -205 43 -205 43 -205 C43 -206 40 -220 40 -220 C40 -220 186 -220 186 -220 C186 -220 183 -205 183 -205 C183 -205 176 -205 176 -205 C148 -205 138 -206 138 -159 C138 -159 138 70 138 70 C155 16 197 -5 273 -5 C422 -5 476 79 476 243 C476 423 422 488 273 488 C199 488 162 462 138 390 C138 390 138 392 138 392 C138 392 138 478 138 478 C138 478 129 478 129 478 C129 478 40 445 40 445 C41 440 43 437 43 431 C43 431 43 431 43 431 L43 431 Z M138 88 C138 88 138 371 138 371 C160 441 191 467 250 467 C376 467 421 403 421 227 C421 76 381 -1 272 -1 C192 -1 152 24 138 88 L138 88 Z " />
<glyph glyph-name="q" unicode="q" horiz-adv-x="557" d="M359 -220 C359 -220 505 -220 505 -220 C504 -214 502 -210 502 -205 C502 -205 495 -205 495 -205 C467 -205 457 -205 457 -190 C457 -190 457 478 457 478 C457 478 454 478 454 478 C454 478 437 418 437 418 C388 469 345 488 276 488 C79 488 33 423 33 242 C33 60 91 -5 253 -5 C306 -5 347 15 407 69 C407 69 407 -190 407 -190 C407 -205 397 -205 368 -205 C368 -205 362 -205 362 -205 C361 -210 359 -214 359 -220 L359 -220 Z M407 388 C407 388 407 86 407 86 C351 35 316 16 274 16 C135 16 85 80 85 256 C85 418 121 476 273 476 C337 476 372 453 407 388 C407 388 407 388 407 388 L407 388 Z " />
<glyph glyph-name="r" unicode="r" horiz-adv-x="339" d="M48 431 C81 440 93 455 93 377 C93 377 93 30 93 30 C93 15 84 15 60 15 C60 15 53 15 53 15 C52 11 51 1 51 0 C51 0 191 0 191 0 C191 0 188 15 188 15 C188 15 181 15 181 15 C153 15 143 15 143 30 C143 30 143 367 143 367 C157 438 188 464 251 464 C278 464 283 438 271 366 C267 345 275 337 300 337 C318 337 326 345 330 366 C345 456 331 488 275 488 C196 488 160 458 143 375 C143 375 143 392 143 392 C143 392 143 478 143 478 C143 478 134 478 134 478 C134 478 45 445 45 445 C46 440 48 437 48 431 C48 431 48 431 48 431 L48 431 Z " />
<glyph glyph-name="s" unicode="s" horiz-adv-x="416" d="M339 363 C339 363 339 406 339 406 C339 406 339 471 339 471 C336 470 325 467 324 467 C324 467 324 452 324 452 C324 455 310 462 271 477 C271 477 271 477 271 477 C251 485 228 488 198 488 C108 488 76 457 76 371 C76 298 103 261 217 220 C307 188 328 159 328 102 C328 23 302 -6 228 -6 C220 -6 212 -6 204 -5 C204 -5 208 -5 208 -5 C204 -5 199 -4 195 -3 C150 4 120 30 93 84 C90 96 89 109 89 122 C89 122 89 131 89 131 C86 132 75 133 74 133 C74 133 74 90 74 90 C74 90 74 42 74 42 C79 43 83 45 89 45 C89 45 89 56 89 56 C89 37 109 16 165 -2 C165 -2 166 -2 166 -2 C184 -8 204 -10 228 -10 C330 -10 367 23 367 116 C367 187 343 221 239 258 C136 295 112 326 112 389 C112 459 135 484 198 484 C211 484 224 483 235 481 C236 481 238 480 239 480 C239 480 198 484 198 484 C211 484 224 483 235 481 C236 481 238 480 240 480 C240 480 239 480 239 480 C274 472 297 453 317 417 C322 403 324 389 324 374 C324 374 324 365 324 365 C328 364 338 363 339 363 C339 363 339 363 339 363 L339 363 Z " />
<glyph glyph-name="t" unicode="t" horiz-adv-x="327" d="M287 478 C287 478 143 478 143 478 C143 478 143 592 143 592 C143 592 139 592 139 592 C139 592 28 478 28 478 C28 478 28 468 28 468 C28 468 93 468 93 468 C93 468 93 123 93 123 C93 6 123 -10 205 -10 C252 -10 282 10 317 64 C317 64 312 68 312 68 C286 28 262 14 220 14 C162 14 141 26 141 112 C141 112 143 451 143 451 C143 451 287 451 287 451 C287 451 287 478 287 478 L287 478 Z " />
<glyph glyph-name="u" unicode="u" horiz-adv-x="463" d="M434 27 C400 17 389 8 389 96 C389 96 389 447 389 447 C389 447 389 478 389 478 C389 478 302 478 302 478 C303 474 304 463 304 462 C304 462 311 462 311 462 C332 462 339 462 339 447 C339 447 339 127 339 127 C309 52 274 25 212 25 C145 25 121 60 121 156 C121 156 121 447 121 447 C121 447 121 478 121 478 C121 478 34 478 34 478 C35 474 36 463 36 462 C36 462 43 462 43 462 C64 462 71 462 71 447 C71 447 71 156 71 156 C71 34 102 -10 188 -10 C260 -10 301 25 339 122 C339 122 339 85 339 85 C339 85 339 -10 339 -10 C339 -10 348 -10 348 -10 C348 -10 437 12 437 12 C437 12 434 27 434 27 L434 27 Z " />
<glyph glyph-name="v" unicode="v" horiz-adv-x="430" d="M413 478 C413 478 370 478 370 478 C370 478 347 478 347 478 C347 478 295 478 295 478 C296 474 297 463 297 462 C297 462 317 462 317 462 C333 462 340 463 337 446 C337 446 213 55 213 55 C213 55 109 450 109 450 C106 463 111 462 120 462 C120 462 141 462 141 462 C142 466 143 477 143 478 C143 478 101 478 101 478 C101 478 46 478 46 478 C46 478 11 478 11 478 C12 474 13 463 13 462 C13 462 36 462 36 462 C47 462 51 463 58 436 C58 436 59 436 59 436 C59 436 192 -10 192 -10 C192 -10 207 -10 207 -10 C207 -10 349 417 349 417 C349 417 350 416 350 416 C364 463 370 462 388 462 C388 462 411 462 411 462 C412 466 413 477 413 478 L413 478 Z " />
<glyph glyph-name="w" unicode="w" horiz-adv-x="699" d="M672 478 C672 478 630 478 630 478 C630 478 607 478 607 478 C607 478 554 478 554 478 C555 474 556 463 556 462 C556 462 576 462 576 462 C594 462 601 463 592 436 C592 436 593 435 593 435 C593 435 463 54 463 54 C463 54 364 455 364 455 C363 463 366 462 372 462 C372 462 393 462 393 462 C394 466 395 477 395 478 C395 478 358 478 358 478 C358 478 302 478 302 478 C302 478 269 478 269 478 C270 474 271 463 271 462 C271 462 294 462 294 462 C303 462 306 463 312 445 C312 445 343 334 343 334 C343 334 343 334 343 334 C343 334 253 55 253 55 C253 55 155 455 155 455 C154 463 157 462 163 462 C163 462 184 462 184 462 C185 466 186 477 186 478 C186 478 149 478 149 478 C149 478 93 478 93 478 C93 478 60 478 60 478 C61 474 62 463 62 462 C62 462 85 462 85 462 C94 462 97 463 103 445 C103 445 232 -10 232 -10 C232 -10 247 -10 247 -10 C247 -10 352 303 352 303 C352 303 441 -10 441 -10 C441 -10 456 -10 456 -10 C456 -10 608 416 608 416 C608 416 608 416 608 416 C624 463 630 462 648 462 C648 462 670 462 670 462 C671 466 672 477 672 478 C672 478 672 478 672 478 L672 478 Z " />
<glyph glyph-name="x" unicode="x" horiz-adv-x="465" d="M32 0 C32 0 63 0 63 0 C63 0 86 0 86 0 C86 0 142 0 142 0 C141 3 140 14 140 15 C140 15 122 15 122 15 C101 15 93 14 123 59 C123 59 122 59 122 59 C122 59 218 214 218 214 C218 214 314 59 314 59 C314 59 313 59 313 59 C341 14 336 15 324 15 C324 15 307 15 307 15 C306 11 305 1 305 0 C305 0 350 0 350 0 C350 0 411 0 411 0 C411 0 438 0 438 0 C437 3 436 14 436 15 C436 15 413 15 413 15 C405 15 403 14 376 57 C376 57 376 57 376 57 C376 57 250 260 250 260 C250 260 339 418 339 418 C339 418 339 418 339 418 C363 463 367 462 381 462 C381 462 404 462 404 462 C405 466 406 477 406 478 C406 478 372 478 372 478 C372 478 350 478 350 478 C350 478 300 478 300 478 C301 474 302 463 302 462 C302 462 320 462 320 462 C336 462 343 463 320 421 C320 421 320 421 320 421 C320 421 243 272 243 272 C243 272 147 427 147 427 C126 463 131 462 142 462 C142 462 159 462 159 462 C160 466 161 477 161 478 C161 478 116 478 116 478 C116 478 55 478 55 478 C55 478 34 478 34 478 C35 474 36 463 36 462 C36 462 59 462 59 462 C63 462 64 463 80 437 C80 437 212 224 212 224 C212 224 102 59 102 59 C102 59 102 59 102 59 C73 14 69 15 56 15 C56 15 34 15 34 15 C33 11 32 1 32 0 C32 0 32 0 32 0 L32 0 Z " />
<glyph glyph-name="y" unicode="y" horiz-adv-x="460" d="M442 478 C442 478 400 478 400 478 C400 478 377 478 377 478 C377 478 325 478 325 478 C326 474 327 463 327 462 C327 462 347 462 347 462 C363 462 371 463 364 440 C364 440 237 55 237 55 C237 55 118 453 118 453 C117 462 122 462 131 462 C131 462 151 462 151 462 C152 466 153 477 153 478 C153 478 111 478 111 478 C111 478 56 478 56 478 C56 478 22 478 22 478 C23 474 24 463 24 462 C24 462 46 462 46 462 C56 462 60 463 67 446 C67 446 215 -10 215 -10 C215 -10 172 -140 172 -140 C166 -158 158 -165 142 -165 C127 -165 128 -147 114 -147 C93 -147 85 -154 85 -172 C85 -195 93 -203 114 -203 C152 -203 169 -190 181 -154 C181 -154 230 -10 230 -10 C230 -10 379 416 379 416 C379 416 379 416 379 416 C394 463 400 462 418 462 C418 462 440 462 440 462 C441 466 442 477 442 478 L442 478 Z " />
<glyph glyph-name="z" unicode="z" horiz-adv-x="446" d="M61 406 C65 407 66 409 69 409 C69 409 79 416 79 416 C127 450 143 462 212 462 C212 462 210 462 210 462 C210 462 346 465 346 465 C346 465 30 12 30 12 C30 12 30 0 30 0 C30 0 83 0 83 0 C83 0 355 0 355 0 C355 0 401 0 401 0 C405 23 407 48 411 71 C405 68 405 68 405 68 C405 68 395 61 395 61 C350 33 330 20 278 16 C278 16 92 13 92 13 C92 13 406 466 406 466 C406 466 406 478 406 478 C406 478 355 478 355 478 C355 478 116 478 116 478 C99 478 97 486 101 499 C101 499 99 499 94 500 C94 500 86 500 86 500 C77 469 70 438 61 406 C61 406 61 406 61 406 L61 406 Z " />
<glyph glyph-name="bar" unicode="&#x7c;" horiz-adv-x="158" d="M60 778 C60 778 60 -250 60 -250 C60 -250 99 -250 99 -250 C99 -250 99 778 99 778 C99 778 60 778 60 778 L60 778 Z " />
<glyph glyph-name="exclamdown" unicode="&#xa1;" horiz-adv-x="201" d="M101 483 C75 483 65 473 65 447 C65 421 75 412 101 412 C127 412 136 421 136 447 C136 473 127 483 101 483 L101 483 Z M101 -255 C135 -255 135 -233 131 -171 C131 -171 105 277 105 277 C105 277 96 277 96 277 C96 277 70 -171 70 -171 C66 -233 67 -255 101 -255 L101 -255 Z " />
<glyph glyph-name="cent" unicode="&#xa2;" horiz-adv-x="448" d="M232 553 C232 553 232 487 232 487 C99 480 51 409 51 228 C51 57 99 -7 232 -10 C232 -10 232 -75 232 -75 C232 -75 250 -75 250 -75 C250 -75 250 -10 250 -10 C351 -7 396 41 418 166 C418 166 411 168 411 168 C391 60 351 21 258 21 C255 21 253 21 250 21 C250 21 250 476 250 476 C251 476 252 476 253 476 C308 476 337 451 363 383 C370 361 378 353 393 353 C423 353 431 361 423 383 C395 460 351 488 256 488 C254 488 252 488 250 488 C250 488 250 553 250 553 C250 553 232 553 232 553 L232 553 Z M232 22 C137 32 102 97 102 254 C102 406 137 468 232 475 C232 475 232 22 232 22 L232 22 Z " />
<glyph glyph-name="questiondown" unicode="&#xbf;" horiz-adv-x="304" d="M180 483 C154 483 145 473 144 447 C145 421 154 412 180 412 C205 412 215 421 215 447 C215 473 205 483 180 483 L180 483 Z M183 308 C183 308 180 128 180 128 C76 129 69 105 24 39 C3 9 -4 -17 -5 -59 C-4 -206 39 -259 160 -260 C194 -259 207 -250 207 -223 C207 -205 199 -198 180 -198 C165 -198 156 -207 141 -207 C45 -207 10 -166 10 -53 C10 -29 16 -11 35 15 C67 62 67 79 197 78 C197 78 192 308 192 308 C192 308 183 308 183 308 L183 308 Z " />
<glyph glyph-name="Agrave" unicode="&#xc0;" horiz-adv-x="635" d="M438 0 C438 0 512 0 512 0 C512 0 571 0 571 0 C571 0 619 0 619 0 C618 3 617 14 617 15 C617 15 595 15 595 15 C577 15 570 13 546 86 C546 86 359 711 359 711 C359 711 347 748 347 748 C347 748 342 748 342 748 C324 722 313 712 303 711 C303 711 306 701 306 701 C306 701 129 122 129 122 C92 12 78 15 45 15 C45 15 24 15 24 15 C23 11 22 1 22 0 C22 0 91 0 91 0 C91 0 96 0 96 0 C96 0 186 0 186 0 C185 3 184 14 184 15 C184 15 164 15 164 15 C118 15 100 11 147 165 C147 165 146 165 146 165 C146 165 187 298 187 298 C187 298 424 298 424 298 C424 298 472 135 472 135 C472 135 472 135 472 135 C509 12 495 15 460 15 C460 15 440 15 440 15 C439 11 438 1 438 0 L438 0 Z M218 937 C173 988 156 1007 150 1007 C133 1007 125 999 125 982 C125 976 144 959 195 914 C195 914 334 791 334 791 C334 791 340 797 340 797 C340 797 218 937 218 937 L218 937 Z M188 303 C188 303 307 696 307 696 C307 696 423 303 423 303 C423 303 188 303 188 303 L188 303 Z " />
<glyph glyph-name="Aacute" unicode="&#xc1;" horiz-adv-x="635" d="M337 791 C337 791 476 914 476 914 C528 960 546 978 546 982 C546 999 538 1007 522 1007 C517 1007 499 988 453 937 C453 937 331 797 331 797 C331 797 337 791 337 791 L337 791 Z M438 0 C438 0 512 0 512 0 C512 0 571 0 571 0 C571 0 619 0 619 0 C618 3 617 14 617 15 C617 15 595 15 595 15 C577 15 570 13 546 86 C546 86 359 711 359 711 C359 711 347 748 347 748 C347 748 342 748 342 748 C324 722 313 712 303 711 C303 711 306 701 306 701 C306 701 129 122 129 122 C92 12 78 15 45 15 C45 15 24 15 24 15 C23 11 22 1 22 0 C22 0 91 0 91 0 C91 0 96 0 96 0 C96 0 186 0 186 0 C185 3 184 14 184 15 C184 15 164 15 164 15 C118 15 100 11 147 165 C147 165 146 165 146 165 C146 165 187 298 187 298 C187 298 424 298 424 298 C424 298 472 135 472 135 C472 135 472 135 472 135 C509 12 495 15 460 15 C460 15 440 15 440 15 C439 11 438 1 438 0 L438 0 Z M188 303 C188 303 307 696 307 696 C307 696 423 303 423 303 C423 303 188 303 188 303 L188 303 Z " />
<glyph glyph-name="Acircumflex" unicode="&#xc2;" horiz-adv-x="635" d="M438 0 C438 0 512 0 512 0 C512 0 571 0 571 0 C571 0 619 0 619 0 C618 3 617 14 617 15 C617 15 595 15 595 15 C577 15 570 13 546 86 C546 86 359 711 359 711 C359 711 347 748 347 748 C347 748 342 748 342 748 C324 722 313 712 303 711 C303 711 306 701 306 701 C306 701 129 122 129 122 C92 12 78 15 45 15 C45 15 24 15 24 15 C23 11 22 1 22 0 C22 0 91 0 91 0 C91 0 96 0 96 0 C96 0 186 0 186 0 C185 3 184 14 184 15 C184 15 164 15 164 15 C118 15 100 11 147 165 C147 165 146 165 146 165 C146 165 187 298 187 298 C187 298 424 298 424 298 C424 298 472 135 472 135 C472 135 472 135 472 135 C509 12 495 15 460 15 C460 15 440 15 440 15 C439 11 438 1 438 0 L438 0 Z M331 955 C331 955 473 785 473 785 C473 785 480 791 480 791 C480 791 348 993 348 993 C344 999 338 1011 331 1011 C324 1011 317 1000 313 993 C313 993 182 791 182 791 C182 791 188 785 188 785 C188 785 331 955 331 955 L331 955 Z M188 303 C188 303 307 696 307 696 C307 696 423 303 423 303 C423 303 188 303 188 303 L188 303 Z " />
<glyph glyph-name="Atilde" unicode="&#xc3;" horiz-adv-x="635" d="M200 848 C200 896 211 914 242 914 C311 914 335 849 405 849 C448 849 464 874 464 944 C464 944 461 944 461 944 C461 900 449 884 416 884 C347 884 323 949 254 949 C213 949 198 922 198 848 C198 848 200 848 200 848 L200 848 Z M438 0 C438 0 512 0 512 0 C512 0 571 0 571 0 C571 0 619 0 619 0 C618 3 617 14 617 15 C617 15 595 15 595 15 C577 15 570 13 546 86 C546 86 359 711 359 711 C359 711 347 748 347 748 C347 748 342 748 342 748 C324 722 313 712 303 711 C303 711 306 701 306 701 C306 701 129 122 129 122 C92 12 78 15 45 15 C45 15 24 15 24 15 C23 11 22 1 22 0 C22 0 91 0 91 0 C91 0 96 0 96 0 C96 0 186 0 186 0 C185 3 184 14 184 15 C184 15 164 15 164 15 C118 15 100 11 147 165 C147 165 146 165 146 165 C146 165 187 298 187 298 C187 298 424 298 424 298 C424 298 472 135 472 135 C472 135 472 135 472 135 C509 12 495 15 460 15 C460 15 440 15 440 15 C439 11 438 1 438 0 L438 0 Z M188 303 C188 303 307 696 307 696 C307 696 423 303 423 303 C423 303 188 303 188 303 L188 303 Z " />
<glyph glyph-name="Adieresis" unicode="&#xc4;" horiz-adv-x="635" d="M399 843 C422 843 431 851 431 875 C431 899 422 907 399 907 C375 907 366 899 366 875 C366 851 375 843 399 843 L399 843 Z M263 843 C286 843 295 851 295 875 C295 899 286 907 263 907 C239 907 230 899 230 875 C230 851 239 843 263 843 L263 843 Z M438 0 C438 0 512 0 512 0 C512 0 571 0 571 0 C571 0 619 0 619 0 C618 3 617 14 617 15 C617 15 595 15 595 15 C577 15 570 13 546 86 C546 86 359 711 359 711 C359 711 347 748 347 748 C347 748 342 748 342 748 C324 722 313 712 303 711 C303 711 306 701 306 701 C306 701 129 122 129 122 C92 12 78 15 45 15 C45 15 24 15 24 15 C23 11 22 1 22 0 C22 0 91 0 91 0 C91 0 96 0 96 0 C96 0 186 0 186 0 C185 3 184 14 184 15 C184 15 164 15 164 15 C118 15 100 11 147 165 C147 165 146 165 146 165 C146 165 187 298 187 298 C187 298 424 298 424 298 C424 298 472 135 472 135 C472 135 472 135 472 135 C509 12 495 15 460 15 C460 15 440 15 440 15 C439 11 438 1 438 0 L438 0 Z M188 303 C188 303 307 696 307 696 C307 696 423 303 423 303 C423 303 188 303 188 303 L188 303 Z " />
<glyph glyph-name="Aring" unicode="&#xc5;" horiz-adv-x="635" d="M331 799 C277 799 249 827 249 883 C249 944 271 966 331 966 C390 966 412 944 412 883 C412 827 384 799 331 799 L331 799 Z M234 883 C234 820 267 788 331 788 C394 788 427 820 427 883 C427 953 401 978 331 978 C260 978 234 953 234 883 L234 883 Z M438 0 C438 0 512 0 512 0 C512 0 571 0 571 0 C571 0 619 0 619 0 C618 3 617 14 617 15 C617 15 595 15 595 15 C577 15 570 13 546 86 C546 86 359 711 359 711 C359 711 347 748 347 748 C347 748 342 748 342 748 C324 722 313 712 303 711 C303 711 306 701 306 701 C306 701 129 122 129 122 C92 12 78 15 45 15 C45 15 24 15 24 15 C23 11 22 1 22 0 C22 0 91 0 91 0 C91 0 96 0 96 0 C96 0 186 0 186 0 C185 3 184 14 184 15 C184 15 164 15 164 15 C118 15 100 11 147 165 C147 165 146 165 146 165 C146 165 187 298 187 298 C187 298 424 298 424 298 C424 298 472 135 472 135 C472 135 472 135 472 135 C509 12 495 15 460 15 C460 15 440 15 440 15 C439 11 438 1 438 0 L438 0 Z M188 303 C188 303 307 696 307 696 C307 696 423 303 423 303 C423 303 188 303 188 303 L188 303 Z " />
<glyph glyph-name="Egrave" unicode="&#xc8;" horiz-adv-x="555" d="M478 653 C477 667 476 677 475 691 C475 704 474 714 473 728 C473 728 357 728 357 728 C357 728 182 728 182 728 C182 728 126 728 126 728 C126 728 67 728 67 728 C67 728 70 712 70 712 C70 712 77 712 77 712 C113 712 126 714 126 647 C126 647 126 80 126 80 C126 13 113 15 77 15 C77 15 70 15 70 15 C69 10 67 6 67 0 C67 0 126 0 126 0 C126 0 182 0 182 0 C182 0 382 0 382 0 C382 0 498 0 498 0 C502 25 504 50 508 74 C504 73 493 71 492 70 C485 21 490 4 383 4 C383 4 251 4 251 4 C193 4 183 14 182 40 C182 40 182 69 182 69 C182 69 182 80 182 80 C182 80 182 389 182 389 C182 389 297 389 297 389 C400 389 397 371 397 322 C397 322 397 315 397 315 C403 313 407 313 413 310 C413 310 413 389 413 389 C413 389 413 394 413 394 C413 394 413 472 413 472 C409 471 398 469 397 468 C397 468 397 461 397 461 C397 412 400 394 297 394 C297 394 182 394 182 394 C182 394 182 647 182 647 C182 647 182 724 182 724 C182 724 358 724 358 724 C481 724 458 708 462 664 C462 664 462 657 462 657 C466 656 477 654 478 653 L478 653 Z M186 937 C142 988 125 1007 118 1007 C102 1007 93 999 93 982 C93 976 112 959 164 914 C164 914 303 791 303 791 C303 791 309 797 309 797 C309 797 186 937 186 937 L186 937 Z " />
<glyph glyph-name="Eacute" unicode="&#xc9;" horiz-adv-x="555" d="M306 791 C306 791 445 914 445 914 C496 960 515 978 515 982 C515 999 507 1007 490 1007 C486 1007 468 988 422 937 C422 937 300 797 300 797 C300 797 306 791 306 791 L306 791 Z M478 653 C477 667 476 677 475 691 C475 704 474 714 473 728 C473 728 357 728 357 728 C357 728 182 728 182 728 C182 728 126 728 126 728 C126 728 67 728 67 728 C67 728 70 712 70 712 C70 712 77 712 77 712 C113 712 126 714 126 647 C126 647 126 80 126 80 C126 13 113 15 77 15 C77 15 70 15 70 15 C69 10 67 6 67 0 C67 0 126 0 126 0 C126 0 182 0 182 0 C182 0 382 0 382 0 C382 0 498 0 498 0 C502 25 504 50 508 74 C504 73 493 71 492 70 C485 21 490 4 383 4 C383 4 251 4 251 4 C193 4 183 14 182 40 C182 40 182 69 182 69 C182 69 182 80 182 80 C182 80 182 389 182 389 C182 389 297 389 297 389 C400 389 397 371 397 322 C397 322 397 315 397 315 C403 313 407 313 413 310 C413 310 413 389 413 389 C413 389 413 394 413 394 C413 394 413 472 413 472 C409 471 398 469 397 468 C397 468 397 461 397 461 C397 412 400 394 297 394 C297 394 182 394 182 394 C182 394 182 647 182 647 C182 647 182 724 182 724 C182 724 358 724 358 724 C481 724 458 708 462 664 C462 664 462 657 462 657 C466 656 477 654 478 653 L478 653 Z " />
<glyph glyph-name="Ecircumflex" unicode="&#xca;" horiz-adv-x="555" d="M478 653 C477 667 476 677 475 691 C475 704 474 714 473 728 C473 728 357 728 357 728 C357 728 182 728 182 728 C182 728 126 728 126 728 C126 728 67 728 67 728 C67 728 70 712 70 712 C70 712 77 712 77 712 C113 712 126 714 126 647 C126 647 126 80 126 80 C126 13 113 15 77 15 C77 15 70 15 70 15 C69 10 67 6 67 0 C67 0 126 0 126 0 C126 0 182 0 182 0 C182 0 382 0 382 0 C382 0 498 0 498 0 C502 25 504 50 508 74 C504 73 493 71 492 70 C485 21 490 4 383 4 C383 4 251 4 251 4 C193 4 183 14 182 40 C182 40 182 69 182 69 C182 69 182 80 182 80 C182 80 182 389 182 389 C182 389 297 389 297 389 C400 389 397 371 397 322 C397 322 397 315 397 315 C403 313 407 313 413 310 C413 310 413 389 413 389 C413 389 413 394 413 394 C413 394 413 472 413 472 C409 471 398 469 397 468 C397 468 397 461 397 461 C397 412 400 394 297 394 C297 394 182 394 182 394 C182 394 182 647 182 647 C182 647 182 724 182 724 C182 724 358 724 358 724 C481 724 458 708 462 664 C462 664 462 657 462 657 C466 656 477 654 478 653 L478 653 Z M300 955 C300 955 442 785 442 785 C442 785 448 791 448 791 C448 791 317 993 317 993 C313 999 306 1011 299 1011 C292 1011 286 1000 282 993 C282 993 150 791 150 791 C150 791 157 785 157 785 C157 785 300 955 300 955 L300 955 Z " />
<glyph glyph-name="Edieresis" unicode="&#xcb;" horiz-adv-x="555" d="M367 843 C391 843 400 851 400 875 C400 899 391 907 367 907 C344 907 335 899 335 875 C335 851 344 843 367 843 L367 843 Z M231 843 C255 843 264 851 264 875 C264 899 255 907 231 907 C208 907 199 899 199 875 C199 851 208 843 231 843 L231 843 Z M478 653 C477 667 476 677 475 691 C475 704 474 714 473 728 C473 728 357 728 357 728 C357 728 182 728 182 728 C182 728 126 728 126 728 C126 728 67 728 67 728 C67 728 70 712 70 712 C70 712 77 712 77 712 C113 712 126 714 126 647 C126 647 126 80 126 80 C126 13 113 15 77 15 C77 15 70 15 70 15 C69 10 67 6 67 0 C67 0 126 0 126 0 C126 0 182 0 182 0 C182 0 382 0 382 0 C382 0 498 0 498 0 C502 25 504 50 508 74 C504 73 493 71 492 70 C485 21 490 4 383 4 C383 4 251 4 251 4 C193 4 183 14 182 40 C182 40 182 69 182 69 C182 69 182 80 182 80 C182 80 182 389 182 389 C182 389 297 389 297 389 C400 389 397 371 397 322 C397 322 397 315 397 315 C403 313 407 313 413 310 C413 310 413 389 413 389 C413 389 413 394 413 394 C413 394 413 472 413 472 C409 471 398 469 397 468 C397 468 397 461 397 461 C397 412 400 394 297 394 C297 394 182 394 182 394 C182 394 182 647 182 647 C182 647 182 724 182 724 C182 724 358 724 358 724 C481 724 458 708 462 664 C462 664 462 657 462 657 C466 656 477 654 478 653 L478 653 Z " />
<glyph glyph-name="Igrave" unicode="&#xcc;" horiz-adv-x="302" d="M247 728 C247 728 73 728 73 728 C73 728 76 712 76 712 C76 712 83 712 83 712 C119 712 132 714 132 652 C132 652 132 75 132 75 C132 13 119 15 83 15 C83 15 76 15 76 15 C75 10 73 6 73 0 C73 0 247 0 247 0 C246 3 244 14 243 15 C243 15 237 15 237 15 C201 15 188 13 188 75 C188 75 188 652 188 652 C188 714 201 712 237 712 C237 712 243 712 243 712 C244 716 246 727 247 728 L247 728 Z M47 937 C2 988 -15 1007 -21 1007 C-38 1007 -46 999 -46 982 C-46 976 -27 959 24 914 C24 914 163 791 163 791 C163 791 169 797 169 797 C169 797 47 937 47 937 L47 937 Z " />
<glyph glyph-name="Iacute" unicode="&#xcd;" horiz-adv-x="302" d="M166 791 C166 791 305 914 305 914 C357 960 375 978 375 982 C375 999 367 1007 351 1007 C346 1007 328 988 282 937 C282 937 160 797 160 797 C160 797 166 791 166 791 L166 791 Z M247 728 C247 728 73 728 73 728 C73 728 76 712 76 712 C76 712 83 712 83 712 C119 712 132 714 132 652 C132 652 132 75 132 75 C132 13 119 15 83 15 C83 15 76 15 76 15 C75 10 73 6 73 0 C73 0 247 0 247 0 C246 3 244 14 243 15 C243 15 237 15 237 15 C201 15 188 13 188 75 C188 75 188 652 188 652 C188 714 201 712 237 712 C237 712 243 712 243 712 C244 716 246 727 247 728 L247 728 Z " />
<glyph glyph-name="Icircumflex" unicode="&#xce;" horiz-adv-x="302" d="M247 728 C247 728 73 728 73 728 C73 728 76 712 76 712 C76 712 83 712 83 712 C119 712 132 714 132 652 C132 652 132 75 132 75 C132 13 119 15 83 15 C83 15 76 15 76 15 C75 10 73 6 73 0 C73 0 247 0 247 0 C246 3 244 14 243 15 C243 15 237 15 237 15 C201 15 188 13 188 75 C188 75 188 652 188 652 C188 714 201 712 237 712 C237 712 243 712 243 712 C244 716 246 727 247 728 L247 728 Z M160 955 C160 955 302 785 302 785 C302 785 309 791 309 791 C309 791 177 993 177 993 C173 999 167 1011 160 1011 C153 1011 146 1000 142 993 C142 993 11 791 11 791 C11 791 17 785 17 785 C17 785 160 955 160 955 L160 955 Z " />
<glyph glyph-name="Idieresis" unicode="&#xcf;" horiz-adv-x="302" d="M228 843 C251 843 260 851 260 875 C260 899 251 907 228 907 C204 907 195 899 195 875 C195 851 204 843 228 843 L228 843 Z M92 843 C115 843 124 851 124 875 C124 899 115 907 92 907 C68 907 59 899 59 875 C59 851 68 843 92 843 L92 843 Z M247 728 C247 728 73 728 73 728 C73 728 76 712 76 712 C76 712 83 712 83 712 C119 712 132 714 132 652 C132 652 132 75 132 75 C132 13 119 15 83 15 C83 15 76 15 76 15 C75 10 73 6 73 0 C73 0 247 0 247 0 C246 3 244 14 243 15 C243 15 237 15 237 15 C201 15 188 13 188 75 C188 75 188 652 188 652 C188 714 201 712 237 712 C237 712 243 712 243 712 C244 716 246 727 247 728 L247 728 Z " />
<glyph glyph-name="Ntilde" unicode="&#xd1;" horiz-adv-x="680" d="M208 848 C208 896 219 914 250 914 C319 914 343 849 413 849 C455 849 471 874 471 944 C471 944 469 944 469 944 C469 900 457 884 424 884 C355 884 331 949 261 949 C220 949 205 922 205 848 C205 848 208 848 208 848 L208 848 Z M44 712 C44 712 67 712 67 712 C76 712 78 713 102 677 C102 677 102 678 102 678 C102 678 111 665 111 665 C111 665 110 102 110 102 C107 12 94 15 65 15 C65 15 44 15 44 15 C43 11 42 1 42 0 C42 0 110 0 110 0 C110 0 127 0 127 0 C127 0 196 0 196 0 C195 3 194 14 194 15 C194 15 172 15 172 15 C139 15 127 12 127 135 C127 135 127 135 127 135 C127 135 125 643 125 643 C125 643 500 77 500 77 C500 77 551 0 551 0 C551 0 562 0 562 0 C562 0 565 612 565 612 C565 612 566 612 566 612 C565 715 581 712 625 712 C625 712 632 712 632 712 C633 716 636 727 636 728 C636 728 566 728 566 728 C566 728 550 728 550 728 C550 728 479 728 479 728 C480 724 483 713 483 712 C483 712 490 712 490 712 C534 712 550 715 550 612 C550 612 550 612 550 612 C550 612 551 98 551 98 C551 98 545 107 545 107 C545 107 138 728 138 728 C138 728 125 728 125 728 C125 728 111 728 111 728 C111 728 69 728 69 728 C69 728 42 728 42 728 C43 724 44 713 44 712 L44 712 Z " />
<glyph glyph-name="Ograve" unicode="&#xd2;" horiz-adv-x="782" d="M380 -5 C193 -5 125 93 125 364 C125 635 195 733 388 733 C591 733 664 635 664 364 C664 93 589 -5 380 -5 L380 -5 Z M61 364 C61 89 145 -10 379 -10 C636 -10 728 89 728 364 C728 639 638 738 389 738 C148 738 61 639 61 364 L61 364 Z M276 937 C232 988 215 1007 208 1007 C192 1007 183 999 183 982 C183 976 202 959 254 914 C254 914 393 791 393 791 C393 791 399 797 399 797 C399 797 276 937 276 937 L276 937 Z " />
<glyph glyph-name="Oacute" unicode="&#xd3;" horiz-adv-x="782" d="M396 791 C396 791 535 914 535 914 C586 960 605 978 605 982 C605 999 597 1007 580 1007 C576 1007 558 988 512 937 C512 937 390 797 390 797 C390 797 396 791 396 791 L396 791 Z M380 -5 C193 -5 125 93 125 364 C125 635 195 733 388 733 C591 733 664 635 664 364 C664 93 589 -5 380 -5 L380 -5 Z M61 364 C61 89 145 -10 379 -10 C636 -10 728 89 728 364 C728 639 638 738 389 738 C148 738 61 639 61 364 L61 364 Z " />
<glyph glyph-name="Ocircumflex" unicode="&#xd4;" horiz-adv-x="782" d="M380 -5 C193 -5 125 93 125 364 C125 635 195 733 388 733 C591 733 664 635 664 364 C664 93 589 -5 380 -5 L380 -5 Z M61 364 C61 89 145 -10 379 -10 C636 -10 728 89 728 364 C728 639 638 738 389 738 C148 738 61 639 61 364 L61 364 Z M390 955 C390 955 532 785 532 785 C532 785 538 791 538 791 C538 791 407 993 407 993 C403 999 396 1011 389 1011 C382 1011 376 1000 372 993 C372 993 240 791 240 791 C240 791 247 785 247 785 C247 785 390 955 390 955 L390 955 Z " />
<glyph glyph-name="Otilde" unicode="&#xd5;" horiz-adv-x="782" d="M259 848 C259 896 270 914 301 914 C370 914 394 849 463 849 C506 849 522 874 522 944 C522 944 519 944 519 944 C519 900 507 884 475 884 C406 884 382 949 312 949 C271 949 256 922 256 848 C256 848 259 848 259 848 L259 848 Z M380 -5 C193 -5 125 93 125 364 C125 635 195 733 388 733 C591 733 664 635 664 364 C664 93 589 -5 380 -5 L380 -5 Z M61 364 C61 89 145 -10 379 -10 C636 -10 728 89 728 364 C728 639 638 738 389 738 C148 738 61 639 61 364 L61 364 Z " />
<glyph glyph-name="Odieresis" unicode="&#xd6;" horiz-adv-x="782" d="M457 843 C481 843 490 851 490 875 C490 899 481 907 457 907 C434 907 425 899 425 875 C425 851 434 843 457 843 L457 843 Z M321 843 C345 843 354 851 354 875 C354 899 345 907 321 907 C298 907 289 899 289 875 C289 851 298 843 321 843 L321 843 Z M380 -5 C193 -5 125 93 125 364 C125 635 195 733 388 733 C591 733 664 635 664 364 C664 93 589 -5 380 -5 L380 -5 Z M61 364 C61 89 145 -10 379 -10 C636 -10 728 89 728 364 C728 639 638 738 389 738 C148 738 61 639 61 364 L61 364 Z " />
<glyph glyph-name="Oslash" unicode="&#xd8;" horiz-adv-x="782" d="M64 -13 C64 -13 137 69 137 69 C187 13 265 -10 379 -10 C636 -10 728 89 728 364 C728 498 706 591 655 650 C655 650 731 735 731 735 C731 735 725 740 725 740 C725 740 650 656 650 656 C596 714 512 738 389 738 C148 738 61 639 61 364 C61 227 82 134 131 75 C131 75 58 -7 58 -7 C58 -7 64 -13 64 -13 L64 -13 Z M380 -5 C274 -5 206 26 167 103 C167 103 624 615 624 615 C652 556 664 475 664 364 C664 93 589 -5 380 -5 C380 -5 380 -5 380 -5 L380 -5 Z M164 111 C137 169 125 252 125 364 C125 635 195 733 388 733 C504 733 578 701 620 622 C620 622 164 111 164 111 L164 111 Z " />
<glyph glyph-name="Ugrave" unicode="&#xd9;" horiz-adv-x="609" d="M413 712 C413 712 420 712 420 712 C456 712 469 714 469 647 C469 647 469 170 469 170 C420 64 360 26 242 26 C172 26 147 76 147 215 C147 215 147 647 147 647 C147 647 147 728 147 728 C147 728 32 728 32 728 C32 728 35 712 35 712 C35 712 42 712 42 712 C78 712 91 714 91 647 C91 647 91 215 91 215 C91 50 125 -10 220 -10 C350 -10 416 31 469 145 C469 145 469 105 469 105 C469 105 469 0 469 0 C469 0 478 0 478 0 C478 0 580 53 580 53 C580 53 580 60 580 60 C523 57 525 54 525 105 C525 105 525 647 525 647 C525 647 525 728 525 728 C525 728 410 728 410 728 C411 721 413 718 413 712 L413 712 Z M195 937 C150 988 133 1007 127 1007 C110 1007 102 999 102 982 C102 976 121 959 172 914 C172 914 311 791 311 791 C311 791 318 797 318 797 C318 797 195 937 195 937 L195 937 Z " />
<glyph glyph-name="Uacute" unicode="&#xda;" horiz-adv-x="609" d="M314 791 C314 791 454 914 454 914 C505 960 524 978 524 982 C524 999 515 1007 499 1007 C495 1007 477 988 431 937 C431 937 308 797 308 797 C308 797 314 791 314 791 L314 791 Z M413 712 C413 712 420 712 420 712 C456 712 469 714 469 647 C469 647 469 170 469 170 C420 64 360 26 242 26 C172 26 147 76 147 215 C147 215 147 647 147 647 C147 647 147 728 147 728 C147 728 32 728 32 728 C32 728 35 712 35 712 C35 712 42 712 42 712 C78 712 91 714 91 647 C91 647 91 215 91 215 C91 50 125 -10 220 -10 C350 -10 416 31 469 145 C469 145 469 105 469 105 C469 105 469 0 469 0 C469 0 478 0 478 0 C478 0 580 53 580 53 C580 53 580 60 580 60 C523 57 525 54 525 105 C525 105 525 647 525 647 C525 647 525 728 525 728 C525 728 410 728 410 728 C411 721 413 718 413 712 L413 712 Z " />
<glyph glyph-name="Ucircumflex" unicode="&#xdb;" horiz-adv-x="609" d="M413 712 C413 712 420 712 420 712 C456 712 469 714 469 647 C469 647 469 170 469 170 C420 64 360 26 242 26 C172 26 147 76 147 215 C147 215 147 647 147 647 C147 647 147 728 147 728 C147 728 32 728 32 728 C32 728 35 712 35 712 C35 712 42 712 42 712 C78 712 91 714 91 647 C91 647 91 215 91 215 C91 50 125 -10 220 -10 C350 -10 416 31 469 145 C469 145 469 105 469 105 C469 105 469 0 469 0 C469 0 478 0 478 0 C478 0 580 53 580 53 C580 53 580 60 580 60 C523 57 525 54 525 105 C525 105 525 647 525 647 C525 647 525 728 525 728 C525 728 410 728 410 728 C411 721 413 718 413 712 L413 712 Z M308 955 C308 955 450 785 450 785 C450 785 457 791 457 791 C457 791 326 993 326 993 C321 999 315 1011 308 1011 C301 1011 295 1000 290 993 C290 993 159 791 159 791 C159 791 166 785 166 785 C166 785 308 955 308 955 L308 955 Z " />
<glyph glyph-name="Udieresis" unicode="&#xdc;" horiz-adv-x="609" d="M376 843 C399 843 408 851 408 875 C408 899 399 907 376 907 C352 907 343 899 343 875 C343 851 352 843 376 843 L376 843 Z M240 843 C263 843 272 851 272 875 C272 899 263 907 240 907 C216 907 207 899 207 875 C207 851 216 843 240 843 L240 843 Z M413 712 C413 712 420 712 420 712 C456 712 469 714 469 647 C469 647 469 170 469 170 C420 64 360 26 242 26 C172 26 147 76 147 215 C147 215 147 647 147 647 C147 647 147 728 147 728 C147 728 32 728 32 728 C32 728 35 712 35 712 C35 712 42 712 42 712 C78 712 91 714 91 647 C91 647 91 215 91 215 C91 50 125 -10 220 -10 C350 -10 416 31 469 145 C469 145 469 105 469 105 C469 105 469 0 469 0 C469 0 478 0 478 0 C478 0 580 53 580 53 C580 53 580 60 580 60 C523 57 525 54 525 105 C525 105 525 647 525 647 C525 647 525 728 525 728 C525 728 410 728 410 728 C411 721 413 718 413 712 L413 712 Z " />
<glyph glyph-name="Yacute" unicode="&#xdd;" horiz-adv-x="609" d="M317 791 C317 791 456 914 456 914 C507 960 526 978 526 982 C526 999 517 1007 501 1007 C497 1007 479 988 433 937 C433 937 310 797 310 797 C310 797 317 791 317 791 L317 791 Z M172 728 C172 728 114 728 114 728 C114 728 48 728 48 728 C48 728 20 728 20 728 C21 724 22 713 22 712 C22 712 45 712 45 712 C53 712 55 715 110 619 C110 619 282 319 282 319 C282 319 282 75 282 75 C282 13 269 15 233 15 C233 15 226 15 226 15 C225 10 223 6 223 0 C223 0 397 0 397 0 C396 6 394 10 394 15 C394 15 387 15 387 15 C351 15 338 13 338 75 C338 75 338 327 338 327 C338 327 478 593 478 593 C478 593 478 592 478 592 C543 715 547 712 564 712 C564 712 587 712 587 712 C588 716 589 727 589 728 C589 728 549 728 549 728 C549 728 540 728 540 728 C540 728 482 728 482 728 C483 724 484 713 484 712 C484 712 503 712 503 712 C519 712 529 714 511 673 C511 673 336 334 336 334 C336 334 159 648 159 648 C124 714 134 712 152 712 C152 712 170 712 170 712 C171 716 172 727 172 728 C172 728 172 728 172 728 L172 728 Z " />
<glyph glyph-name="agrave" unicode="&#xe0;" horiz-adv-x="493" d="M504 77 C504 77 493 83 493 83 C486 45 472 31 438 31 C396 31 381 43 381 78 C381 78 381 342 381 342 C381 465 347 488 252 488 C98 488 60 393 73 318 C79 286 86 275 101 275 C133 275 141 290 138 305 C135 325 117 336 114 352 C104 410 132 483 246 483 C309 483 331 464 331 360 C331 360 331 265 331 265 C81 121 53 108 53 76 C53 13 82 -10 161 -10 C238 -10 276 1 331 83 C331 83 331 78 331 78 C331 17 354 -5 418 -5 C470 -5 493 17 504 77 L504 77 Z M139 687 C95 738 78 757 71 757 C54 757 46 749 46 732 C46 726 65 709 116 664 C116 664 255 541 255 541 C255 541 262 547 262 547 C262 547 139 687 139 687 L139 687 Z M331 261 C331 261 331 88 331 88 C289 26 256 17 188 17 C126 17 104 34 104 82 C104 135 127 143 331 261 C331 261 331 261 331 261 L331 261 Z " />
<glyph glyph-name="aacute" unicode="&#xe1;" horiz-adv-x="493" d="M258 541 C258 541 398 664 398 664 C449 710 468 728 468 732 C468 749 459 757 443 757 C439 757 421 738 375 687 C375 687 252 547 252 547 C252 547 258 541 258 541 L258 541 Z M504 77 C504 77 493 83 493 83 C486 45 472 31 438 31 C396 31 381 43 381 78 C381 78 381 342 381 342 C381 465 347 488 252 488 C98 488 60 393 73 318 C79 286 86 275 101 275 C133 275 141 290 138 305 C135 325 117 336 114 352 C104 410 132 483 246 483 C309 483 331 464 331 360 C331 360 331 265 331 265 C81 121 53 108 53 76 C53 13 82 -10 161 -10 C238 -10 276 1 331 83 C331 83 331 78 331 78 C331 17 354 -5 418 -5 C470 -5 493 17 504 77 L504 77 Z M331 261 C331 261 331 88 331 88 C289 26 256 17 188 17 C126 17 104 34 104 82 C104 135 127 143 331 261 C331 261 331 261 331 261 L331 261 Z " />
<glyph glyph-name="acircumflex" unicode="&#xe2;" horiz-adv-x="493" d="M504 77 C504 77 493 83 493 83 C486 45 472 31 438 31 C396 31 381 43 381 78 C381 78 381 342 381 342 C381 465 347 488 252 488 C98 488 60 393 73 318 C79 286 86 275 101 275 C133 275 141 290 138 305 C135 325 117 336 114 352 C104 410 132 483 246 483 C309 483 331 464 331 360 C331 360 331 265 331 265 C81 121 53 108 53 76 C53 13 82 -10 161 -10 C238 -10 276 1 331 83 C331 83 331 78 331 78 C331 17 354 -5 418 -5 C470 -5 493 17 504 77 L504 77 Z M252 705 C252 705 394 535 394 535 C394 535 401 541 401 541 C401 541 270 743 270 743 C265 749 259 761 252 761 C245 761 239 750 234 743 C234 743 103 541 103 541 C103 541 110 535 110 535 C110 535 252 705 252 705 L252 705 Z M331 261 C331 261 331 88 331 88 C289 26 256 17 188 17 C126 17 104 34 104 82 C104 135 127 143 331 261 C331 261 331 261 331 261 L331 261 Z " />
<glyph glyph-name="atilde" unicode="&#xe3;" horiz-adv-x="493" d="M122 598 C122 646 133 664 163 664 C233 664 257 599 326 599 C369 599 385 624 385 694 C385 694 382 694 382 694 C382 650 370 634 337 634 C268 634 244 699 175 699 C134 699 119 672 119 598 C119 598 122 598 122 598 L122 598 Z M504 77 C504 77 493 83 493 83 C486 45 472 31 438 31 C396 31 381 43 381 78 C381 78 381 342 381 342 C381 465 347 488 252 488 C98 488 60 393 73 318 C79 286 86 275 101 275 C133 275 141 290 138 305 C135 325 117 336 114 352 C104 410 132 483 246 483 C309 483 331 464 331 360 C331 360 331 265 331 265 C81 121 53 108 53 76 C53 13 82 -10 161 -10 C238 -10 276 1 331 83 C331 83 331 78 331 78 C331 17 354 -5 418 -5 C470 -5 493 17 504 77 L504 77 Z M331 261 C331 261 331 88 331 88 C289 26 256 17 188 17 C126 17 104 34 104 82 C104 135 127 143 331 261 C331 261 331 261 331 261 L331 261 Z " />
<glyph glyph-name="adieresis" unicode="&#xe4;" horiz-adv-x="493" d="M320 593 C344 593 352 601 352 625 C352 649 344 657 320 657 C296 657 288 649 288 625 C288 601 296 593 320 593 L320 593 Z M184 593 C208 593 216 601 216 625 C216 649 208 657 184 657 C160 657 152 649 152 625 C152 601 160 593 184 593 L184 593 Z M504 77 C504 77 493 83 493 83 C486 45 472 31 438 31 C396 31 381 43 381 78 C381 78 381 342 381 342 C381 465 347 488 252 488 C98 488 60 393 73 318 C79 286 86 275 101 275 C133 275 141 290 138 305 C135 325 117 336 114 352 C104 410 132 483 246 483 C309 483 331 464 331 360 C331 360 331 265 331 265 C81 121 53 108 53 76 C53 13 82 -10 161 -10 C238 -10 276 1 331 83 C331 83 331 78 331 78 C331 17 354 -5 418 -5 C470 -5 493 17 504 77 L504 77 Z M331 261 C331 261 331 88 331 88 C289 26 256 17 188 17 C126 17 104 34 104 82 C104 135 127 143 331 261 C331 261 331 261 331 261 L331 261 Z " />
<glyph glyph-name="aring" unicode="&#xe5;" horiz-adv-x="493" d="M252 549 C198 549 170 577 170 633 C170 694 192 716 252 716 C312 716 334 694 334 633 C334 577 306 549 252 549 L252 549 Z M155 633 C155 570 188 538 252 538 C315 538 348 570 348 633 C348 703 323 728 252 728 C181 728 155 703 155 633 L155 633 Z M504 77 C504 77 493 83 493 83 C486 45 472 31 438 31 C396 31 381 43 381 78 C381 78 381 342 381 342 C381 465 347 488 252 488 C98 488 60 393 73 318 C79 286 86 275 101 275 C133 275 141 290 138 305 C135 325 117 336 114 352 C104 410 132 483 246 483 C309 483 331 464 331 360 C331 360 331 265 331 265 C81 121 53 108 53 76 C53 13 82 -10 161 -10 C238 -10 276 1 331 83 C331 83 331 78 331 78 C331 17 354 -5 418 -5 C470 -5 493 17 504 77 L504 77 Z M331 261 C331 261 331 88 331 88 C289 26 256 17 188 17 C126 17 104 34 104 82 C104 135 127 143 331 261 C331 261 331 261 331 261 L331 261 Z " />
<glyph glyph-name="egrave" unicode="&#xe8;" horiz-adv-x="508" d="M173 687 C129 738 112 757 105 757 C89 757 80 749 80 732 C80 726 99 709 150 664 C150 664 290 541 290 541 C290 541 296 547 296 547 C296 547 173 687 173 687 L173 687 Z M110 339 C110 339 424 339 424 339 C424 339 479 339 479 339 C451 470 404 488 286 488 C113 488 50 418 50 224 C50 52 107 -10 264 -10 C399 -10 454 39 471 176 C471 176 464 177 464 177 C451 64 401 23 276 23 C149 23 103 82 103 244 C103 281 105 312 110 339 L110 339 Z M460 353 C462 353 463 353 465 353 C465 353 460 353 460 353 L460 353 Z M421 353 C421 353 112 350 112 350 C131 441 183 476 283 476 C362 476 395 461 421 353 C421 353 421 353 421 353 L421 353 Z " />
<glyph glyph-name="eacute" unicode="&#xe9;" horiz-adv-x="508" d="M293 541 C293 541 432 664 432 664 C483 710 502 728 502 732 C502 749 494 757 477 757 C473 757 455 738 409 687 C409 687 286 547 286 547 C286 547 293 541 293 541 L293 541 Z M110 339 C110 339 424 339 424 339 C424 339 479 339 479 339 C451 470 404 488 286 488 C113 488 50 418 50 224 C50 52 107 -10 264 -10 C399 -10 454 39 471 176 C471 176 464 177 464 177 C451 64 401 23 276 23 C149 23 103 82 103 244 C103 281 105 312 110 339 L110 339 Z M460 353 C462 353 463 353 465 353 C465 353 460 353 460 353 L460 353 Z M421 353 C421 353 112 350 112 350 C131 441 183 476 283 476 C362 476 395 461 421 353 C421 353 421 353 421 353 L421 353 Z " />
<glyph glyph-name="ecircumflex" unicode="&#xea;" horiz-adv-x="508" d="M286 704 C286 704 428 535 428 535 C428 535 435 541 435 541 C435 541 304 743 304 743 C299 749 293 761 286 761 C279 761 273 750 269 743 C269 743 137 541 137 541 C137 541 144 535 144 535 C144 535 286 704 286 704 L286 704 Z M110 339 C110 339 424 339 424 339 C424 339 479 339 479 339 C451 470 404 488 286 488 C113 488 50 418 50 224 C50 52 107 -10 264 -10 C399 -10 454 39 471 176 C471 176 464 177 464 177 C451 64 401 23 276 23 C149 23 103 82 103 244 C103 281 105 312 110 339 L110 339 Z M460 353 C462 353 463 353 465 353 C465 353 460 353 460 353 L460 353 Z M421 353 C421 353 112 350 112 350 C131 441 183 476 283 476 C362 476 395 461 421 353 C421 353 421 353 421 353 L421 353 Z " />
<glyph glyph-name="edieresis" unicode="&#xeb;" horiz-adv-x="508" d="M354 593 C378 593 386 601 386 625 C386 649 378 657 354 657 C331 657 322 649 322 625 C322 601 331 593 354 593 L354 593 Z M218 593 C242 593 250 601 250 625 C250 649 242 657 218 657 C195 657 186 649 186 625 C186 601 195 593 218 593 L218 593 Z M110 339 C110 339 424 339 424 339 C424 339 479 339 479 339 C451 470 404 488 286 488 C113 488 50 418 50 224 C50 52 107 -10 264 -10 C399 -10 454 39 471 176 C471 176 464 177 464 177 C451 64 401 23 276 23 C149 23 103 82 103 244 C103 281 105 312 110 339 L110 339 Z M460 353 C462 353 463 353 465 353 C465 353 460 353 460 353 L460 353 Z M421 353 C421 353 112 350 112 350 C131 441 183 476 283 476 C362 476 395 461 421 353 C421 353 421 353 421 353 L421 353 Z " />
<glyph glyph-name="igrave" unicode="&#xec;" horiz-adv-x="253" d="M78 0 C78 0 220 0 220 0 C219 3 218 14 218 15 C218 15 211 15 211 15 C184 15 174 15 174 30 C174 30 174 370 174 370 C174 370 174 478 174 478 C174 478 165 478 165 478 C165 478 80 423 80 423 C80 423 80 415 80 415 C125 417 124 420 124 370 C124 370 124 30 124 30 C124 15 114 15 88 15 C88 15 81 15 81 15 C81 14 78 0 78 0 L78 0 Z M36 687 C-9 738 -26 757 -32 757 C-49 757 -57 749 -57 732 C-57 726 -39 709 13 664 C13 664 152 541 152 541 C152 541 158 547 158 547 C158 547 36 687 36 687 L36 687 Z " />
<glyph glyph-name="iacute" unicode="&#xed;" horiz-adv-x="253" d="M78 0 C78 0 220 0 220 0 C219 3 218 14 218 15 C218 15 211 15 211 15 C184 15 174 15 174 30 C174 30 174 370 174 370 C174 370 174 478 174 478 C174 478 165 478 165 478 C165 478 80 423 80 423 C80 423 80 415 80 415 C125 417 124 420 124 370 C124 370 124 30 124 30 C124 15 114 15 88 15 C88 15 81 15 81 15 C81 14 78 0 78 0 L78 0 Z M36 687 C-9 738 -26 757 -32 757 C-49 757 -57 749 -57 732 C-57 726 -39 709 13 664 C13 664 152 541 152 541 C152 541 158 547 158 547 C158 547 36 687 36 687 L36 687 Z " />
<glyph glyph-name="icircumflex" unicode="&#xee;" horiz-adv-x="253" d="M78 0 C78 0 220 0 220 0 C219 3 218 14 218 15 C218 15 211 15 211 15 C184 15 174 15 174 30 C174 30 174 370 174 370 C174 370 174 478 174 478 C174 478 165 478 165 478 C165 478 80 423 80 423 C80 423 80 415 80 415 C125 417 124 420 124 370 C124 370 124 30 124 30 C124 15 114 15 88 15 C88 15 81 15 81 15 C81 14 78 0 78 0 L78 0 Z M149 705 C149 705 291 535 291 535 C291 535 298 541 298 541 C298 541 166 743 166 743 C162 749 156 761 149 761 C141 761 135 750 131 743 C131 743 -1 541 -1 541 C-1 541 6 535 6 535 C6 535 149 705 149 705 L149 705 Z " />
<glyph glyph-name="idieresis" unicode="&#xef;" horiz-adv-x="253" d="M216 593 C240 593 249 601 249 625 C249 649 240 657 216 657 C193 657 184 649 184 625 C184 601 193 593 216 593 L216 593 Z M81 593 C104 593 113 601 113 625 C113 649 104 657 81 657 C57 657 48 649 48 625 C48 601 57 593 81 593 L81 593 Z M78 0 C78 0 220 0 220 0 C219 3 218 14 218 15 C218 15 211 15 211 15 C184 15 174 15 174 30 C174 30 174 370 174 370 C174 370 174 478 174 478 C174 478 165 478 165 478 C165 478 80 423 80 423 C80 423 80 415 80 415 C125 417 124 420 124 370 C124 370 124 30 124 30 C124 15 114 15 88 15 C88 15 81 15 81 15 C81 14 78 0 78 0 L78 0 Z " />
<glyph glyph-name="ntilde" unicode="&#xf1;" horiz-adv-x="492" d="M120 598 C120 646 131 664 162 664 C231 664 255 599 324 599 C367 599 383 624 383 694 C383 694 380 694 380 694 C380 650 368 634 336 634 C266 634 242 699 173 699 C132 699 117 672 117 598 C117 598 120 598 120 598 L120 598 Z M42 431 C75 440 87 455 87 377 C87 377 87 30 87 30 C87 15 78 15 51 15 C51 15 45 15 45 15 C44 10 42 6 42 0 C42 0 182 0 182 0 C181 3 180 14 180 15 C180 15 173 15 173 15 C146 15 137 15 137 30 C137 30 137 348 137 348 C175 431 210 461 272 461 C346 461 363 431 363 349 C363 349 363 30 363 30 C363 15 354 15 327 15 C327 15 320 15 320 15 C319 11 318 1 318 0 C318 0 458 0 458 0 C457 3 456 14 456 15 C456 15 449 15 449 15 C422 15 413 15 413 30 C413 30 413 349 413 349 C413 451 389 488 289 488 C221 488 180 453 137 357 C137 357 137 392 137 392 C137 392 137 478 137 478 C137 478 128 478 128 478 C128 478 39 445 39 445 C40 440 42 437 42 431 L42 431 Z " />
<glyph glyph-name="ograve" unicode="&#xf2;" horiz-adv-x="590" d="M298 -5 C156 -5 105 60 105 239 C105 418 156 483 298 483 C439 483 490 418 490 239 C490 60 439 -5 298 -5 L298 -5 Z M50 239 C50 56 116 -10 298 -10 C479 -10 545 56 545 239 C545 422 479 488 298 488 C116 488 50 422 50 239 L50 239 Z M185 687 C140 738 123 757 117 757 C100 757 92 749 92 732 C92 726 111 709 162 664 C162 664 301 541 301 541 C301 541 307 547 307 547 C307 547 185 687 185 687 L185 687 Z " />
<glyph glyph-name="oacute" unicode="&#xf3;" horiz-adv-x="590" d="M304 541 C304 541 443 664 443 664 C495 710 514 728 514 732 C514 749 505 757 489 757 C485 757 467 738 421 687 C421 687 298 547 298 547 C298 547 304 541 304 541 L304 541 Z M298 -5 C156 -5 105 60 105 239 C105 418 156 483 298 483 C439 483 490 418 490 239 C490 60 439 -5 298 -5 L298 -5 Z M50 239 C50 56 116 -10 298 -10 C479 -10 545 56 545 239 C545 422 479 488 298 488 C116 488 50 422 50 239 L50 239 Z " />
<glyph glyph-name="ocircumflex" unicode="&#xf4;" horiz-adv-x="590" d="M298 -5 C156 -5 105 60 105 239 C105 418 156 483 298 483 C439 483 490 418 490 239 C490 60 439 -5 298 -5 L298 -5 Z M50 239 C50 56 116 -10 298 -10 C479 -10 545 56 545 239 C545 422 479 488 298 488 C116 488 50 422 50 239 L50 239 Z M298 705 C298 705 440 535 440 535 C440 535 447 541 447 541 C447 541 315 743 315 743 C311 749 305 761 298 761 C291 761 285 750 280 743 C280 743 149 541 149 541 C149 541 155 535 155 535 C155 535 298 705 298 705 L298 705 Z " />
<glyph glyph-name="otilde" unicode="&#xf5;" horiz-adv-x="590" d="M168 598 C168 646 179 664 209 664 C279 664 303 599 372 599 C415 599 431 624 431 694 C431 694 428 694 428 694 C428 650 416 634 383 634 C314 634 290 699 221 699 C180 699 165 672 165 598 C165 598 168 598 168 598 L168 598 Z M298 -5 C156 -5 105 60 105 239 C105 418 156 483 298 483 C439 483 490 418 490 239 C490 60 439 -5 298 -5 L298 -5 Z M50 239 C50 56 116 -10 298 -10 C479 -10 545 56 545 239 C545 422 479 488 298 488 C116 488 50 422 50 239 L50 239 Z " />
<glyph glyph-name="odieresis" unicode="&#xf6;" horiz-adv-x="590" d="M366 593 C389 593 398 601 398 625 C398 649 389 657 366 657 C342 657 333 649 333 625 C333 601 342 593 366 593 L366 593 Z M230 593 C253 593 262 601 262 625 C262 649 253 657 230 657 C206 657 197 649 197 625 C197 601 206 593 230 593 L230 593 Z M298 -5 C156 -5 105 60 105 239 C105 418 156 483 298 483 C439 483 490 418 490 239 C490 60 439 -5 298 -5 L298 -5 Z M50 239 C50 56 116 -10 298 -10 C479 -10 545 56 545 239 C545 422 479 488 298 488 C116 488 50 422 50 239 L50 239 Z " />
<glyph glyph-name="oslash" unicode="&#xf8;" horiz-adv-x="590" d="M52 -12 C52 -12 108 44 108 44 C147 6 208 -10 298 -10 C479 -10 545 56 545 239 C545 329 529 391 491 430 C491 430 547 486 547 486 C547 486 543 490 543 490 C543 490 487 434 487 434 C448 472 387 488 298 488 C116 488 50 422 50 239 C50 149 66 87 104 48 C104 48 48 -8 48 -8 C48 -8 52 -12 52 -12 L52 -12 Z M298 -5 C215 -5 163 17 134 71 C134 71 463 402 463 402 C482 364 490 310 490 239 C490 60 439 -5 298 -5 C298 -5 298 -5 298 -5 L298 -5 Z M132 76 C113 115 105 168 105 239 C105 418 156 483 298 483 C380 483 432 461 461 407 C461 407 132 76 132 76 L132 76 Z " />
<glyph glyph-name="ugrave" unicode="&#xf9;" horiz-adv-x="463" d="M434 27 C400 17 389 8 389 96 C389 96 389 447 389 447 C389 447 389 478 389 478 C389 478 302 478 302 478 C303 474 304 463 304 462 C304 462 311 462 311 462 C332 462 339 462 339 447 C339 447 339 127 339 127 C309 52 274 25 212 25 C145 25 121 60 121 156 C121 156 121 447 121 447 C121 447 121 478 121 478 C121 478 34 478 34 478 C35 474 36 463 36 462 C36 462 43 462 43 462 C64 462 71 462 71 447 C71 447 71 156 71 156 C71 34 102 -10 188 -10 C260 -10 301 25 339 122 C339 122 339 85 339 85 C339 85 339 -10 339 -10 C339 -10 348 -10 348 -10 C348 -10 437 12 437 12 C437 12 434 27 434 27 L434 27 Z M117 687 C73 738 56 757 49 757 C33 757 24 749 24 732 C24 726 43 709 94 664 C94 664 234 541 234 541 C234 541 240 547 240 547 C240 547 117 687 117 687 L117 687 Z " />
<glyph glyph-name="uacute" unicode="&#xfa;" horiz-adv-x="463" d="M237 541 C237 541 376 664 376 664 C427 710 446 728 446 732 C446 749 438 757 421 757 C417 757 399 738 353 687 C353 687 230 547 230 547 C230 547 237 541 237 541 L237 541 Z M434 27 C400 17 389 8 389 96 C389 96 389 447 389 447 C389 447 389 478 389 478 C389 478 302 478 302 478 C303 474 304 463 304 462 C304 462 311 462 311 462 C332 462 339 462 339 447 C339 447 339 127 339 127 C309 52 274 25 212 25 C145 25 121 60 121 156 C121 156 121 447 121 447 C121 447 121 478 121 478 C121 478 34 478 34 478 C35 474 36 463 36 462 C36 462 43 462 43 462 C64 462 71 462 71 447 C71 447 71 156 71 156 C71 34 102 -10 188 -10 C260 -10 301 25 339 122 C339 122 339 85 339 85 C339 85 339 -10 339 -10 C339 -10 348 -10 348 -10 C348 -10 437 12 437 12 C437 12 434 27 434 27 L434 27 Z " />
<glyph glyph-name="ucircumflex" unicode="&#xfb;" horiz-adv-x="463" d="M434 27 C400 17 389 8 389 96 C389 96 389 447 389 447 C389 447 389 478 389 478 C389 478 302 478 302 478 C303 474 304 463 304 462 C304 462 311 462 311 462 C332 462 339 462 339 447 C339 447 339 127 339 127 C309 52 274 25 212 25 C145 25 121 60 121 156 C121 156 121 447 121 447 C121 447 121 478 121 478 C121 478 34 478 34 478 C35 474 36 463 36 462 C36 462 43 462 43 462 C64 462 71 462 71 447 C71 447 71 156 71 156 C71 34 102 -10 188 -10 C260 -10 301 25 339 122 C339 122 339 85 339 85 C339 85 339 -10 339 -10 C339 -10 348 -10 348 -10 C348 -10 437 12 437 12 C437 12 434 27 434 27 L434 27 Z M230 704 C230 704 372 535 372 535 C372 535 379 541 379 541 C379 541 248 743 248 743 C243 749 237 761 230 761 C223 761 217 750 213 743 C213 743 81 541 81 541 C81 541 88 535 88 535 C88 535 230 704 230 704 L230 704 Z " />
<glyph glyph-name="udieresis" unicode="&#xfc;" horiz-adv-x="463" d="M298 593 C322 593 330 601 330 625 C330 649 322 657 298 657 C275 657 266 649 266 625 C266 601 275 593 298 593 L298 593 Z M162 593 C186 593 194 601 194 625 C194 649 186 657 162 657 C139 657 130 649 130 625 C130 601 139 593 162 593 L162 593 Z M434 27 C400 17 389 8 389 96 C389 96 389 447 389 447 C389 447 389 478 389 478 C389 478 302 478 302 478 C303 474 304 463 304 462 C304 462 311 462 311 462 C332 462 339 462 339 447 C339 447 339 127 339 127 C309 52 274 25 212 25 C145 25 121 60 121 156 C121 156 121 447 121 447 C121 447 121 478 121 478 C121 478 34 478 34 478 C35 474 36 463 36 462 C36 462 43 462 43 462 C64 462 71 462 71 447 C71 447 71 156 71 156 C71 34 102 -10 188 -10 C260 -10 301 25 339 122 C339 122 339 85 339 85 C339 85 339 -10 339 -10 C339 -10 348 -10 348 -10 C348 -10 437 12 437 12 C437 12 434 27 434 27 L434 27 Z " />
<glyph glyph-name="ydieresis" unicode="&#xff;" horiz-adv-x="450" d="M302 593 C326 593 334 601 334 625 C334 649 326 657 302 657 C278 657 270 649 270 625 C270 601 278 593 302 593 L302 593 Z M166 593 C190 593 198 601 198 625 C198 649 190 657 166 657 C142 657 134 649 134 625 C134 601 142 593 166 593 L166 593 Z M432 478 C432 478 390 478 390 478 C390 478 367 478 367 478 C367 478 315 478 315 478 C316 474 317 463 317 462 C317 462 337 462 337 462 C353 462 361 463 354 440 C354 440 227 55 227 55 C227 55 108 453 108 453 C107 462 112 462 121 462 C121 462 141 462 141 462 C142 466 143 477 143 478 C143 478 101 478 101 478 C101 478 46 478 46 478 C46 478 12 478 12 478 C13 474 14 463 14 462 C14 462 36 462 36 462 C46 462 50 463 57 446 C57 446 205 -10 205 -10 C205 -10 162 -140 162 -140 C156 -158 148 -165 132 -165 C117 -165 118 -147 104 -147 C83 -147 75 -154 75 -172 C75 -195 83 -203 104 -203 C142 -203 159 -190 171 -154 C171 -154 220 -10 220 -10 C220 -10 369 416 369 416 C369 416 369 416 369 416 C384 463 390 462 408 462 C408 462 430 462 430 462 C431 466 432 477 432 478 L432 478 Z " />
<glyph glyph-name="Amacron" unicode="&#x100;" horiz-adv-x="635" d="M195 879 C195 879 467 879 467 879 C467 879 467 914 467 914 C467 914 195 914 195 914 C195 914 195 879 195 879 L195 879 Z M438 0 C438 0 512 0 512 0 C512 0 571 0 571 0 C571 0 619 0 619 0 C618 3 617 14 617 15 C617 15 595 15 595 15 C577 15 570 13 546 86 C546 86 359 711 359 711 C359 711 347 748 347 748 C347 748 342 748 342 748 C324 722 313 712 303 711 C303 711 306 701 306 701 C306 701 129 122 129 122 C92 12 78 15 45 15 C45 15 24 15 24 15 C23 11 22 1 22 0 C22 0 91 0 91 0 C91 0 96 0 96 0 C96 0 186 0 186 0 C185 3 184 14 184 15 C184 15 164 15 164 15 C118 15 100 11 147 165 C147 165 146 165 146 165 C146 165 187 298 187 298 C187 298 424 298 424 298 C424 298 472 135 472 135 C472 135 472 135 472 135 C509 12 495 15 460 15 C460 15 440 15 440 15 C439 11 438 1 438 0 L438 0 Z M188 303 C188 303 307 696 307 696 C307 696 423 303 423 303 C423 303 188 303 188 303 L188 303 Z " />
<glyph glyph-name="amacron" unicode="&#x101;" horiz-adv-x="493" d="M116 629 C116 629 388 629 388 629 C388 629 388 664 388 664 C388 664 116 664 116 664 C116 664 116 629 116 629 L116 629 Z M504 77 C504 77 493 83 493 83 C486 45 472 31 438 31 C396 31 381 43 381 78 C381 78 381 342 381 342 C381 465 347 488 252 488 C98 488 60 393 73 318 C79 286 86 275 101 275 C133 275 141 290 138 305 C135 325 117 336 114 352 C104 410 132 483 246 483 C309 483 331 464 331 360 C331 360 331 265 331 265 C81 121 53 108 53 76 C53 13 82 -10 161 -10 C238 -10 276 1 331 83 C331 83 331 78 331 78 C331 17 354 -5 418 -5 C470 -5 493 17 504 77 L504 77 Z M331 261 C331 261 331 88 331 88 C289 26 256 17 188 17 C126 17 104 34 104 82 C104 135 127 143 331 261 C331 261 331 261 331 261 L331 261 Z " />
<glyph glyph-name="Abreve" unicode="&#x102;" horiz-adv-x="635" d="M217 972 C221 894 251 866 331 866 C410 866 441 894 445 971 C445 971 434 973 434 973 C432 921 404 902 331 902 C257 902 230 921 227 974 C227 974 217 972 217 972 L217 972 Z M438 0 C438 0 512 0 512 0 C512 0 571 0 571 0 C571 0 619 0 619 0 C618 3 617 14 617 15 C617 15 595 15 595 15 C577 15 570 13 546 86 C546 86 359 711 359 711 C359 711 347 748 347 748 C347 748 342 748 342 748 C324 722 313 712 303 711 C303 711 306 701 306 701 C306 701 129 122 129 122 C92 12 78 15 45 15 C45 15 24 15 24 15 C23 11 22 1 22 0 C22 0 91 0 91 0 C91 0 96 0 96 0 C96 0 186 0 186 0 C185 3 184 14 184 15 C184 15 164 15 164 15 C118 15 100 11 147 165 C147 165 146 165 146 165 C146 165 187 298 187 298 C187 298 424 298 424 298 C424 298 472 135 472 135 C472 135 472 135 472 135 C509 12 495 15 460 15 C460 15 440 15 440 15 C439 11 438 1 438 0 L438 0 Z M188 303 C188 303 307 696 307 696 C307 696 423 303 423 303 C423 303 188 303 188 303 L188 303 Z " />
<glyph glyph-name="abreve" unicode="&#x103;" horiz-adv-x="493" d="M138 722 C142 644 172 616 252 616 C332 616 362 644 366 721 C366 721 356 723 356 723 C353 671 325 652 252 652 C178 652 151 671 148 724 C148 724 138 722 138 722 L138 722 Z M504 77 C504 77 493 83 493 83 C486 45 472 31 438 31 C396 31 381 43 381 78 C381 78 381 342 381 342 C381 465 347 488 252 488 C98 488 60 393 73 318 C79 286 86 275 101 275 C133 275 141 290 138 305 C135 325 117 336 114 352 C104 410 132 483 246 483 C309 483 331 464 331 360 C331 360 331 265 331 265 C81 121 53 108 53 76 C53 13 82 -10 161 -10 C238 -10 276 1 331 83 C331 83 331 78 331 78 C331 17 354 -5 418 -5 C470 -5 493 17 504 77 L504 77 Z M331 261 C331 261 331 88 331 88 C289 26 256 17 188 17 C126 17 104 34 104 82 C104 135 127 143 331 261 C331 261 331 261 331 261 L331 261 Z " />
<glyph glyph-name="Cacute" unicode="&#x106;" horiz-adv-x="679" d="M377 791 C377 791 516 914 516 914 C567 960 586 978 586 982 C586 999 578 1007 561 1007 C557 1007 539 988 493 937 C493 937 371 797 371 797 C371 797 377 791 377 791 L377 791 Z M634 42 C634 42 634 110 634 110 C634 110 634 163 634 163 C632 162 625 161 624 161 C596 98 562 28 548 18 C514 1 458 -6 362 -6 C186 -6 123 92 123 364 C123 635 189 733 372 733 C432 733 470 724 501 702 C501 702 498 703 498 703 C531 680 577 596 618 503 C622 494 623 491 623 491 C624 491 625 491 634 489 C634 489 634 546 634 546 C634 546 634 611 634 611 C618 605 625 611 618 592 C619 597 603 619 557 669 C517 718 472 738 370 738 C144 738 62 639 62 364 C62 89 141 -10 360 -10 C484 -10 545 0 581 23 C581 23 581 23 581 23 C581 23 581 23 581 23 C593 31 602 41 609 52 C612 55 616 58 619 62 C625 68 627 64 627 46 C629 45 634 42 634 42 L634 42 Z " />
<glyph glyph-name="Ccircumflex" unicode="&#x108;" horiz-adv-x="679" d="M634 42 C634 42 634 110 634 110 C634 110 634 163 634 163 C632 162 625 161 624 161 C596 98 562 28 548 18 C514 1 458 -6 362 -6 C186 -6 123 92 123 364 C123 635 189 733 372 733 C432 733 470 724 501 702 C501 702 498 703 498 703 C531 680 577 596 618 503 C622 494 623 491 623 491 C624 491 625 491 634 489 C634 489 634 546 634 546 C634 546 634 611 634 611 C618 605 625 611 618 592 C619 597 603 619 557 669 C517 718 472 738 370 738 C144 738 62 639 62 364 C62 89 141 -10 360 -10 C484 -10 545 0 581 23 C581 23 581 23 581 23 C581 23 581 23 581 23 C593 31 602 41 609 52 C612 55 616 58 619 62 C625 68 627 64 627 46 C629 45 634 42 634 42 L634 42 Z M371 955 C371 955 513 785 513 785 C513 785 519 791 519 791 C519 791 388 993 388 993 C384 999 377 1011 370 1011 C363 1011 357 1000 353 993 C353 993 221 791 221 791 C221 791 228 785 228 785 C228 785 371 955 371 955 L371 955 Z " />
<glyph glyph-name="Cdotaccent" unicode="&#x10a;" horiz-adv-x="679" d="M370 843 C394 843 403 851 403 875 C403 899 394 907 370 907 C347 907 338 899 338 875 C338 851 347 843 370 843 L370 843 Z M634 42 C634 42 634 110 634 110 C634 110 634 163 634 163 C632 162 625 161 624 161 C596 98 562 28 548 18 C514 1 458 -6 362 -6 C186 -6 123 92 123 364 C123 635 189 733 372 733 C432 733 470 724 501 702 C501 702 498 703 498 703 C531 680 577 596 618 503 C622 494 623 491 623 491 C624 491 625 491 634 489 C634 489 634 546 634 546 C634 546 634 611 634 611 C618 605 625 611 618 592 C619 597 603 619 557 669 C517 718 472 738 370 738 C144 738 62 639 62 364 C62 89 141 -10 360 -10 C484 -10 545 0 581 23 C581 23 581 23 581 23 C581 23 581 23 581 23 C593 31 602 41 609 52 C612 55 616 58 619 62 C625 68 627 64 627 46 C629 45 634 42 634 42 L634 42 Z " />
<glyph glyph-name="cdotaccent" unicode="&#x10b;" horiz-adv-x="448" d="M256 593 C280 593 289 601 289 625 C289 649 280 657 256 657 C233 657 224 649 224 625 C224 601 233 593 256 593 L256 593 Z M418 166 C418 166 411 168 411 168 C391 60 351 21 258 21 C143 21 102 83 102 254 C102 417 142 476 253 476 C308 476 337 451 363 383 C370 361 378 353 393 353 C423 353 431 361 423 383 C395 460 351 488 256 488 C105 488 51 419 51 228 C51 53 101 -10 241 -10 C348 -10 395 37 418 166 L418 166 Z " />
<glyph glyph-name="Ccaron" unicode="&#x10c;" horiz-adv-x="679" d="M634 42 C634 42 634 110 634 110 C634 110 634 163 634 163 C632 162 625 161 624 161 C596 98 562 28 548 18 C514 1 458 -6 362 -6 C186 -6 123 92 123 364 C123 635 189 733 372 733 C432 733 470 724 501 702 C501 702 498 703 498 703 C531 680 577 596 618 503 C622 494 623 491 623 491 C624 491 625 491 634 489 C634 489 634 546 634 546 C634 546 634 611 634 611 C618 605 625 611 618 592 C619 597 603 619 557 669 C517 718 472 738 370 738 C144 738 62 639 62 364 C62 89 141 -10 360 -10 C484 -10 545 0 581 23 C581 23 581 23 581 23 C581 23 581 23 581 23 C593 31 602 41 609 52 C612 55 616 58 619 62 C625 68 627 64 627 46 C629 45 634 42 634 42 L634 42 Z M371 851 C371 851 513 1020 513 1020 C513 1020 519 1014 519 1014 C519 1014 388 813 388 813 C384 806 377 794 370 795 C363 796 357 806 353 812 C353 812 221 1014 221 1014 C221 1014 228 1020 228 1020 C228 1020 371 851 371 851 L371 851 Z " />
<glyph glyph-name="ccaron" unicode="&#x10d;" horiz-adv-x="448" d="M418 166 C418 166 411 168 411 168 C391 60 351 21 258 21 C143 21 102 83 102 254 C102 417 142 476 253 476 C308 476 337 451 363 383 C370 361 378 353 393 353 C423 353 431 361 423 383 C395 460 351 488 256 488 C105 488 51 419 51 228 C51 53 101 -10 241 -10 C348 -10 395 37 418 166 L418 166 Z M257 601 C257 601 399 770 399 770 C399 770 405 764 405 764 C405 764 274 563 274 563 C270 556 263 544 256 545 C249 546 243 556 239 562 C239 562 107 764 107 764 C107 764 114 770 114 770 C114 770 257 601 257 601 L257 601 Z " />
<glyph glyph-name="Dcaron" unicode="&#x10e;" horiz-adv-x="753" d="M67 0 C67 0 126 0 126 0 C126 0 182 0 182 0 C182 0 254 0 254 0 C580 0 698 70 698 364 C698 631 620 728 290 728 C290 728 182 728 182 728 C182 728 126 728 126 728 C126 728 67 728 67 728 C67 728 70 712 70 712 C70 712 77 712 77 712 C113 712 126 714 126 647 C126 647 126 80 126 80 C126 13 113 15 77 15 C77 15 70 15 70 15 C69 10 67 6 67 0 L67 0 Z M382 851 C382 851 524 1020 524 1020 C524 1020 530 1014 530 1014 C530 1014 399 813 399 813 C395 806 388 794 381 795 C374 796 368 806 364 812 C364 812 232 1014 232 1014 C232 1014 239 1020 239 1020 C239 1020 382 851 382 851 L382 851 Z M182 724 C182 724 276 724 276 724 C568 724 637 629 637 364 C637 73 534 4 249 4 C193 4 183 14 182 40 C182 40 182 69 182 69 C182 69 182 80 182 80 C182 80 182 647 182 647 C182 647 182 724 182 724 L182 724 Z " />
<glyph glyph-name="dcaron" unicode="&#x10f;" horiz-adv-x="544" d="M540 27 C505 17 495 7 495 116 C495 116 495 645 495 645 C495 645 495 728 495 728 C495 728 486 728 486 728 C486 728 397 702 397 702 C398 700 397 699 400 688 C433 697 445 707 445 633 C445 633 445 428 445 428 C412 468 369 488 304 488 C103 488 55 423 55 242 C55 60 114 -5 279 -5 C360 -5 405 15 445 72 C445 72 445 -10 445 -10 C445 -10 454 -10 454 -10 C454 -10 543 12 543 12 C543 12 540 27 540 27 L540 27 Z M580 624 C596 678 601 705 601 729 C601 736 595 737 578 736 C566 737 560 685 555 630 C555 630 543 519 543 519 C543 519 551 517 551 517 C551 517 580 624 580 624 L580 624 Z M445 89 C406 35 367 16 300 16 C157 16 106 80 106 256 C106 415 145 473 310 473 C369 473 410 439 445 374 C445 374 445 105 445 105 C445 105 445 89 445 89 L445 89 Z " />
<glyph glyph-name="Emacron" unicode="&#x112;" horiz-adv-x="555" d="M163 879 C163 879 435 879 435 879 C435 879 435 914 435 914 C435 914 163 914 163 914 C163 914 163 879 163 879 L163 879 Z M478 653 C477 667 476 677 475 691 C475 704 474 714 473 728 C473 728 357 728 357 728 C357 728 182 728 182 728 C182 728 126 728 126 728 C126 728 67 728 67 728 C67 728 70 712 70 712 C70 712 77 712 77 712 C113 712 126 714 126 647 C126 647 126 80 126 80 C126 13 113 15 77 15 C77 15 70 15 70 15 C69 10 67 6 67 0 C67 0 126 0 126 0 C126 0 182 0 182 0 C182 0 382 0 382 0 C382 0 498 0 498 0 C502 25 504 50 508 74 C504 73 493 71 492 70 C485 21 490 4 383 4 C383 4 251 4 251 4 C193 4 183 14 182 40 C182 40 182 69 182 69 C182 69 182 80 182 80 C182 80 182 389 182 389 C182 389 297 389 297 389 C400 389 397 371 397 322 C397 322 397 315 397 315 C403 313 407 313 413 310 C413 310 413 389 413 389 C413 389 413 394 413 394 C413 394 413 472 413 472 C409 471 398 469 397 468 C397 468 397 461 397 461 C397 412 400 394 297 394 C297 394 182 394 182 394 C182 394 182 647 182 647 C182 647 182 724 182 724 C182 724 358 724 358 724 C481 724 458 708 462 664 C462 664 462 657 462 657 C466 656 477 654 478 653 L478 653 Z " />
<glyph glyph-name="emacron" unicode="&#x113;" horiz-adv-x="508" d="M150 629 C150 629 422 629 422 629 C422 629 422 664 422 664 C422 664 150 664 150 664 C150 664 150 629 150 629 L150 629 Z M110 339 C110 339 424 339 424 339 C424 339 479 339 479 339 C451 470 404 488 286 488 C113 488 50 418 50 224 C50 52 107 -10 264 -10 C399 -10 454 39 471 176 C471 176 464 177 464 177 C451 64 401 23 276 23 C149 23 103 82 103 244 C103 281 105 312 110 339 L110 339 Z M460 353 C462 353 463 353 465 353 C465 353 460 353 460 353 L460 353 Z M421 353 C421 353 112 350 112 350 C131 441 183 476 283 476 C362 476 395 461 421 353 C421 353 421 353 421 353 L421 353 Z " />
<glyph glyph-name="Ebreve" unicode="&#x114;" horiz-adv-x="555" d="M185 972 C189 894 220 866 299 866 C379 866 409 894 413 971 C413 971 403 973 403 973 C400 921 373 902 299 902 C226 902 198 921 196 974 C196 974 185 972 185 972 L185 972 Z M478 653 C477 667 476 677 475 691 C475 704 474 714 473 728 C473 728 357 728 357 728 C357 728 182 728 182 728 C182 728 126 728 126 728 C126 728 67 728 67 728 C67 728 70 712 70 712 C70 712 77 712 77 712 C113 712 126 714 126 647 C126 647 126 80 126 80 C126 13 113 15 77 15 C77 15 70 15 70 15 C69 10 67 6 67 0 C67 0 126 0 126 0 C126 0 182 0 182 0 C182 0 382 0 382 0 C382 0 498 0 498 0 C502 25 504 50 508 74 C504 73 493 71 492 70 C485 21 490 4 383 4 C383 4 251 4 251 4 C193 4 183 14 182 40 C182 40 182 69 182 69 C182 69 182 80 182 80 C182 80 182 389 182 389 C182 389 297 389 297 389 C400 389 397 371 397 322 C397 322 397 315 397 315 C403 313 407 313 413 310 C413 310 413 389 413 389 C413 389 413 394 413 394 C413 394 413 472 413 472 C409 471 398 469 397 468 C397 468 397 461 397 461 C397 412 400 394 297 394 C297 394 182 394 182 394 C182 394 182 647 182 647 C182 647 182 724 182 724 C182 724 358 724 358 724 C481 724 458 708 462 664 C462 664 462 657 462 657 C466 656 477 654 478 653 L478 653 Z " />
<glyph glyph-name="ebreve" unicode="&#x115;" horiz-adv-x="508" d="M172 722 C176 644 206 616 286 616 C366 616 396 644 400 721 C400 721 390 723 390 723 C387 671 360 652 286 652 C213 652 185 671 183 724 C183 724 172 722 172 722 L172 722 Z M110 339 C110 339 424 339 424 339 C424 339 479 339 479 339 C451 470 404 488 286 488 C113 488 50 418 50 224 C50 52 107 -10 264 -10 C399 -10 454 39 471 176 C471 176 464 177 464 177 C451 64 401 23 276 23 C149 23 103 82 103 244 C103 281 105 312 110 339 L110 339 Z M460 353 C462 353 463 353 465 353 C465 353 460 353 460 353 L460 353 Z M421 353 C421 353 112 350 112 350 C131 441 183 476 283 476 C362 476 395 461 421 353 C421 353 421 353 421 353 L421 353 Z " />
<glyph glyph-name="Edotaccent" unicode="&#x116;" horiz-adv-x="555" d="M299 843 C323 843 332 851 332 875 C332 899 323 907 299 907 C276 907 267 899 267 875 C267 851 276 843 299 843 L299 843 Z M478 653 C477 667 476 677 475 691 C475 704 474 714 473 728 C473 728 357 728 357 728 C357 728 182 728 182 728 C182 728 126 728 126 728 C126 728 67 728 67 728 C67 728 70 712 70 712 C70 712 77 712 77 712 C113 712 126 714 126 647 C126 647 126 80 126 80 C126 13 113 15 77 15 C77 15 70 15 70 15 C69 10 67 6 67 0 C67 0 126 0 126 0 C126 0 182 0 182 0 C182 0 382 0 382 0 C382 0 498 0 498 0 C502 25 504 50 508 74 C504 73 493 71 492 70 C485 21 490 4 383 4 C383 4 251 4 251 4 C193 4 183 14 182 40 C182 40 182 69 182 69 C182 69 182 80 182 80 C182 80 182 389 182 389 C182 389 297 389 297 389 C400 389 397 371 397 322 C397 322 397 315 397 315 C403 313 407 313 413 310 C413 310 413 389 413 389 C413 389 413 394 413 394 C413 394 413 472 413 472 C409 471 398 469 397 468 C397 468 397 461 397 461 C397 412 400 394 297 394 C297 394 182 394 182 394 C182 394 182 647 182 647 C182 647 182 724 182 724 C182 724 358 724 358 724 C481 724 458 708 462 664 C462 664 462 657 462 657 C466 656 477 654 478 653 L478 653 Z " />
<glyph glyph-name="edotaccent" unicode="&#x117;" horiz-adv-x="508" d="M286 593 C310 593 318 601 318 625 C318 649 310 657 286 657 C263 657 254 649 254 625 C254 601 263 593 286 593 L286 593 Z M110 339 C110 339 424 339 424 339 C424 339 479 339 479 339 C451 470 404 488 286 488 C113 488 50 418 50 224 C50 52 107 -10 264 -10 C399 -10 454 39 471 176 C471 176 464 177 464 177 C451 64 401 23 276 23 C149 23 103 82 103 244 C103 281 105 312 110 339 L110 339 Z M460 353 C462 353 463 353 465 353 C465 353 460 353 460 353 L460 353 Z M421 353 C421 353 112 350 112 350 C131 441 183 476 283 476 C362 476 395 461 421 353 C421 353 421 353 421 353 L421 353 Z " />
<glyph glyph-name="Ecaron" unicode="&#x11a;" horiz-adv-x="555" d="M478 653 C477 667 476 677 475 691 C475 704 474 714 473 728 C473 728 357 728 357 728 C357 728 182 728 182 728 C182 728 126 728 126 728 C126 728 67 728 67 728 C67 728 70 712 70 712 C70 712 77 712 77 712 C113 712 126 714 126 647 C126 647 126 80 126 80 C126 13 113 15 77 15 C77 15 70 15 70 15 C69 10 67 6 67 0 C67 0 126 0 126 0 C126 0 182 0 182 0 C182 0 382 0 382 0 C382 0 498 0 498 0 C502 25 504 50 508 74 C504 73 493 71 492 70 C485 21 490 4 383 4 C383 4 251 4 251 4 C193 4 183 14 182 40 C182 40 182 69 182 69 C182 69 182 80 182 80 C182 80 182 389 182 389 C182 389 297 389 297 389 C400 389 397 371 397 322 C397 322 397 315 397 315 C403 313 407 313 413 310 C413 310 413 389 413 389 C413 389 413 394 413 394 C413 394 413 472 413 472 C409 471 398 469 397 468 C397 468 397 461 397 461 C397 412 400 394 297 394 C297 394 182 394 182 394 C182 394 182 647 182 647 C182 647 182 724 182 724 C182 724 358 724 358 724 C481 724 458 708 462 664 C462 664 462 657 462 657 C466 656 477 654 478 653 L478 653 Z M300 851 C300 851 442 1020 442 1020 C442 1020 448 1014 448 1014 C448 1014 317 813 317 813 C313 806 306 794 299 795 C292 796 286 806 282 812 C282 812 150 1014 150 1014 C150 1014 157 1020 157 1020 C157 1020 300 851 300 851 L300 851 Z " />
<glyph glyph-name="ecaron" unicode="&#x11b;" horiz-adv-x="508" d="M286 601 C286 601 428 770 428 770 C428 770 435 764 435 764 C435 764 304 563 304 563 C299 556 293 544 286 545 C279 546 273 556 269 562 C269 562 137 764 137 764 C137 764 144 770 144 770 C144 770 286 601 286 601 L286 601 Z M110 339 C110 339 424 339 424 339 C424 339 479 339 479 339 C451 470 404 488 286 488 C113 488 50 418 50 224 C50 52 107 -10 264 -10 C399 -10 454 39 471 176 C471 176 464 177 464 177 C451 64 401 23 276 23 C149 23 103 82 103 244 C103 281 105 312 110 339 L110 339 Z M460 353 C462 353 463 353 465 353 C465 353 460 353 460 353 L460 353 Z M421 353 C421 353 112 350 112 350 C131 441 183 476 283 476 C362 476 395 461 421 353 C421 353 421 353 421 353 L421 353 Z " />
<glyph glyph-name="Gcircumflex" unicode="&#x11c;" horiz-adv-x="725" d="M662 315 C662 315 502 315 502 315 C503 310 505 306 505 300 C505 300 512 300 512 300 C546 300 558 302 558 240 C558 240 560 18 560 18 C560 18 560 18 560 18 C560 18 559 74 559 74 C559 36 531 15 458 8 C458 8 513 10 513 10 C476 6 431 4 371 4 C371 4 458 8 458 8 C434 5 405 4 371 4 C189 4 123 99 123 364 C123 635 189 733 372 733 C432 733 470 724 501 702 C501 702 498 703 498 703 C531 680 577 596 618 503 C622 494 623 491 623 491 C624 491 625 491 634 489 C634 489 634 546 634 546 C634 546 634 611 634 611 C618 605 625 611 618 592 C619 597 603 619 557 669 C517 718 472 738 370 738 C144 738 62 639 62 364 C62 89 143 -10 366 -10 C472 -10 529 -2 589 19 C589 19 614 25 614 25 C614 25 614 28 614 28 C637 38 662 49 690 62 C690 62 689 65 689 65 C661 52 638 41 614 33 C614 33 614 240 614 240 C614 302 624 300 653 300 C653 300 660 300 660 300 C661 303 662 314 662 315 C662 315 662 315 662 315 L662 315 Z M371 955 C371 955 513 785 513 785 C513 785 519 791 519 791 C519 791 388 993 388 993 C384 999 377 1011 370 1011 C363 1011 357 1000 353 993 C353 993 221 791 221 791 C221 791 228 785 228 785 C228 785 371 955 371 955 L371 955 Z " />
<glyph glyph-name="Gbreve" unicode="&#x11e;" horiz-adv-x="725" d="M256 972 C260 894 291 866 370 866 C450 866 480 894 484 971 C484 971 474 973 474 973 C471 921 444 902 370 902 C297 902 269 921 267 974 C267 974 256 972 256 972 L256 972 Z M662 315 C662 315 502 315 502 315 C503 310 505 306 505 300 C505 300 512 300 512 300 C546 300 558 302 558 240 C558 240 560 18 560 18 C560 18 560 18 560 18 C560 18 559 74 559 74 C559 36 531 15 458 8 C458 8 513 10 513 10 C476 6 431 4 371 4 C371 4 458 8 458 8 C434 5 405 4 371 4 C189 4 123 99 123 364 C123 635 189 733 372 733 C432 733 470 724 501 702 C501 702 498 703 498 703 C531 680 577 596 618 503 C622 494 623 491 623 491 C624 491 625 491 634 489 C634 489 634 546 634 546 C634 546 634 611 634 611 C618 605 625 611 618 592 C619 597 603 619 557 669 C517 718 472 738 370 738 C144 738 62 639 62 364 C62 89 143 -10 366 -10 C472 -10 529 -2 589 19 C589 19 614 25 614 25 C614 25 614 28 614 28 C637 38 662 49 690 62 C690 62 689 65 689 65 C661 52 638 41 614 33 C614 33 614 240 614 240 C614 302 624 300 653 300 C653 300 660 300 660 300 C661 303 662 314 662 315 C662 315 662 315 662 315 L662 315 Z " />
<glyph glyph-name="gbreve" unicode="&#x11f;" horiz-adv-x="501" d="M136 722 C140 644 170 616 250 616 C330 616 360 644 364 721 C364 721 353 723 353 723 C351 671 323 652 250 652 C176 652 149 671 146 724 C146 724 136 722 136 722 L136 722 Z M134 334 C134 438 165 476 250 476 C335 476 366 438 366 334 C366 229 335 191 250 191 C165 191 134 229 134 334 L134 334 Z M160 17 C165 17 171 17 177 17 C177 17 285 17 285 17 C408 17 425 -11 425 -90 C425 -185 382 -219 262 -219 C139 -219 94 -182 94 -81 C94 -26 112 2 160 17 C160 17 160 17 160 17 L160 17 Z M147 18 C78 0 53 -31 53 -93 C53 -194 108 -230 259 -230 C411 -230 466 -190 466 -79 C466 28 445 67 290 67 C290 67 180 67 180 67 C113 67 89 80 89 118 C89 163 132 180 250 180 C372 180 416 221 416 334 C416 349 415 363 413 376 C432 431 455 452 494 452 C515 452 523 441 523 412 C523 399 529 394 546 394 C561 394 566 400 566 418 C566 458 552 473 515 473 C460 473 431 451 411 392 C396 461 348 488 250 488 C128 488 84 447 84 334 C84 248 110 203 176 187 C92 179 60 154 60 103 C60 48 84 23 147 18 C147 18 147 18 147 18 L147 18 Z " />
<glyph glyph-name="Gdotaccent" unicode="&#x120;" horiz-adv-x="725" d="M370 843 C394 843 403 851 403 875 C403 899 394 907 370 907 C347 907 338 899 338 875 C338 851 347 843 370 843 L370 843 Z M662 315 C662 315 502 315 502 315 C503 310 505 306 505 300 C505 300 512 300 512 300 C546 300 558 302 558 240 C558 240 560 18 560 18 C560 18 560 18 560 18 C560 18 559 74 559 74 C559 36 531 15 458 8 C458 8 513 10 513 10 C476 6 431 4 371 4 C371 4 458 8 458 8 C434 5 405 4 371 4 C189 4 123 99 123 364 C123 635 189 733 372 733 C432 733 470 724 501 702 C501 702 498 703 498 703 C531 680 577 596 618 503 C622 494 623 491 623 491 C624 491 625 491 634 489 C634 489 634 546 634 546 C634 546 634 611 634 611 C618 605 625 611 618 592 C619 597 603 619 557 669 C517 718 472 738 370 738 C144 738 62 639 62 364 C62 89 143 -10 366 -10 C472 -10 529 -2 589 19 C589 19 614 25 614 25 C614 25 614 28 614 28 C637 38 662 49 690 62 C690 62 689 65 689 65 C661 52 638 41 614 33 C614 33 614 240 614 240 C614 302 624 300 653 300 C653 300 660 300 660 300 C661 303 662 314 662 315 C662 315 662 315 662 315 L662 315 Z " />
<glyph glyph-name="gdotaccent" unicode="&#x121;" horiz-adv-x="501" d="M250 593 C273 593 282 601 282 625 C282 649 273 657 250 657 C226 657 218 649 218 625 C218 601 226 593 250 593 L250 593 Z M134 334 C134 438 165 476 250 476 C335 476 366 438 366 334 C366 229 335 191 250 191 C165 191 134 229 134 334 L134 334 Z M160 17 C165 17 171 17 177 17 C177 17 285 17 285 17 C408 17 425 -11 425 -90 C425 -185 382 -219 262 -219 C139 -219 94 -182 94 -81 C94 -26 112 2 160 17 C160 17 160 17 160 17 L160 17 Z M147 18 C78 0 53 -31 53 -93 C53 -194 108 -230 259 -230 C411 -230 466 -190 466 -79 C466 28 445 67 290 67 C290 67 180 67 180 67 C113 67 89 80 89 118 C89 163 132 180 250 180 C372 180 416 221 416 334 C416 349 415 363 413 376 C432 431 455 452 494 452 C515 452 523 441 523 412 C523 399 529 394 546 394 C561 394 566 400 566 418 C566 458 552 473 515 473 C460 473 431 451 411 392 C396 461 348 488 250 488 C128 488 84 447 84 334 C84 248 110 203 176 187 C92 179 60 154 60 103 C60 48 84 23 147 18 C147 18 147 18 147 18 L147 18 Z " />
<glyph glyph-name="Hcircumflex" unicode="&#x124;" horiz-adv-x="734" d="M679 728 C679 728 504 728 504 728 C505 724 507 713 508 712 C508 712 515 712 515 712 C551 712 564 714 564 652 C564 652 564 374 564 374 C564 374 218 374 218 374 C218 374 218 652 218 652 C218 714 231 712 267 712 C267 712 273 712 273 712 C274 716 276 727 277 728 C277 728 103 728 103 728 C103 728 106 712 106 712 C106 712 113 712 113 712 C149 712 162 714 162 652 C162 652 162 75 162 75 C162 13 149 15 113 15 C113 15 106 15 106 15 C105 10 103 6 103 0 C103 0 277 0 277 0 C276 3 274 14 273 15 C273 15 267 15 267 15 C231 15 218 13 218 75 C218 75 218 369 218 369 C218 369 564 369 564 369 C564 369 564 75 564 75 C564 13 551 15 515 15 C515 15 508 15 508 15 C508 12 505 1 504 0 C504 0 679 0 679 0 C678 3 676 14 675 15 C675 15 668 15 668 15 C632 15 619 13 619 75 C619 75 619 652 619 652 C619 714 632 712 668 712 C668 712 675 712 675 712 C676 716 678 727 679 728 L679 728 Z M391 955 C391 955 533 785 533 785 C533 785 540 791 540 791 C540 791 408 993 408 993 C404 999 398 1011 391 1011 C383 1011 377 1000 373 993 C373 993 242 791 242 791 C242 791 248 785 248 785 C248 785 391 955 391 955 L391 955 Z " />
<glyph glyph-name="Itilde" unicode="&#x128;" horiz-adv-x="302" d="M29 848 C29 896 40 914 71 914 C140 914 164 849 234 849 C277 849 293 874 293 944 C293 944 290 944 290 944 C290 900 278 884 245 884 C176 884 152 949 83 949 C42 949 27 922 27 848 C27 848 29 848 29 848 L29 848 Z M247 728 C247 728 73 728 73 728 C73 728 76 712 76 712 C76 712 83 712 83 712 C119 712 132 714 132 652 C132 652 132 75 132 75 C132 13 119 15 83 15 C83 15 76 15 76 15 C75 10 73 6 73 0 C73 0 247 0 247 0 C246 3 244 14 243 15 C243 15 237 15 237 15 C201 15 188 13 188 75 C188 75 188 652 188 652 C188 714 201 712 237 712 C237 712 243 712 243 712 C244 716 246 727 247 728 L247 728 Z " />
<glyph glyph-name="itilde" unicode="&#x129;" horiz-adv-x="253" d="M18 598 C18 646 29 664 60 664 C129 664 153 599 223 599 C266 599 282 624 282 694 C282 694 279 694 279 694 C279 650 267 634 234 634 C165 634 141 699 72 699 C30 699 15 672 15 598 C15 598 18 598 18 598 L18 598 Z M78 0 C78 0 220 0 220 0 C219 3 218 14 218 15 C218 15 211 15 211 15 C184 15 174 15 174 30 C174 30 174 370 174 370 C174 370 174 478 174 478 C174 478 165 478 165 478 C165 478 80 423 80 423 C80 423 80 415 80 415 C125 417 124 420 124 370 C124 370 124 30 124 30 C124 15 114 15 88 15 C88 15 81 15 81 15 C81 14 78 0 78 0 L78 0 Z " />
<glyph glyph-name="Imacron" unicode="&#x12a;" horiz-adv-x="302" d="M24 879 C24 879 296 879 296 879 C296 879 296 914 296 914 C296 914 24 914 24 914 C24 914 24 879 24 879 L24 879 Z M247 728 C247 728 73 728 73 728 C73 728 76 712 76 712 C76 712 83 712 83 712 C119 712 132 714 132 652 C132 652 132 75 132 75 C132 13 119 15 83 15 C83 15 76 15 76 15 C75 10 73 6 73 0 C73 0 247 0 247 0 C246 3 244 14 243 15 C243 15 237 15 237 15 C201 15 188 13 188 75 C188 75 188 652 188 652 C188 714 201 712 237 712 C237 712 243 712 243 712 C244 716 246 727 247 728 L247 728 Z " />
<glyph glyph-name="imacron" unicode="&#x12b;" horiz-adv-x="253" d="M13 629 C13 629 284 629 284 629 C284 629 284 664 284 664 C284 664 13 664 13 664 C13 664 13 629 13 629 L13 629 Z M78 0 C78 0 220 0 220 0 C219 3 218 14 218 15 C218 15 211 15 211 15 C184 15 174 15 174 30 C174 30 174 370 174 370 C174 370 174 478 174 478 C174 478 165 478 165 478 C165 478 80 423 80 423 C80 423 80 415 80 415 C125 417 124 420 124 370 C124 370 124 30 124 30 C124 15 114 15 88 15 C88 15 81 15 81 15 C81 14 78 0 78 0 L78 0 Z " />
<glyph glyph-name="Ibreve" unicode="&#x12c;" horiz-adv-x="302" d="M46 972 C50 894 80 866 160 866 C239 866 270 894 274 971 C274 971 263 973 263 973 C261 921 233 902 160 902 C86 902 59 921 56 974 C56 974 46 972 46 972 L46 972 Z M247 728 C247 728 73 728 73 728 C73 728 76 712 76 712 C76 712 83 712 83 712 C119 712 132 714 132 652 C132 652 132 75 132 75 C132 13 119 15 83 15 C83 15 76 15 76 15 C75 10 73 6 73 0 C73 0 247 0 247 0 C246 3 244 14 243 15 C243 15 237 15 237 15 C201 15 188 13 188 75 C188 75 188 652 188 652 C188 714 201 712 237 712 C237 712 243 712 243 712 C244 716 246 727 247 728 L247 728 Z " />
<glyph glyph-name="ibreve" unicode="&#x12d;" horiz-adv-x="253" d="M34 722 C39 644 69 616 149 616 C228 616 258 644 263 721 C263 721 252 723 252 723 C249 671 222 652 149 652 C75 652 48 671 45 724 C45 724 34 722 34 722 L34 722 Z M78 0 C78 0 220 0 220 0 C219 3 218 14 218 15 C218 15 211 15 211 15 C184 15 174 15 174 30 C174 30 174 370 174 370 C174 370 174 478 174 478 C174 478 165 478 165 478 C165 478 80 423 80 423 C80 423 80 415 80 415 C125 417 124 420 124 370 C124 370 124 30 124 30 C124 15 114 15 88 15 C88 15 81 15 81 15 C81 14 78 0 78 0 L78 0 Z " />
<glyph glyph-name="Idotaccent" unicode="&#x130;" horiz-adv-x="302" d="M160 843 C183 843 192 851 192 875 C192 899 183 907 160 907 C136 907 127 899 127 875 C127 851 136 843 160 843 L160 843 Z M247 728 C247 728 73 728 73 728 C73 728 76 712 76 712 C76 712 83 712 83 712 C119 712 132 714 132 652 C132 652 132 75 132 75 C132 13 119 15 83 15 C83 15 76 15 76 15 C75 10 73 6 73 0 C73 0 247 0 247 0 C246 3 244 14 243 15 C243 15 237 15 237 15 C201 15 188 13 188 75 C188 75 188 652 188 652 C188 714 201 712 237 712 C237 712 243 712 243 712 C244 716 246 727 247 728 L247 728 Z " />
<glyph glyph-name="dotlessi" unicode="&#x131;" horiz-adv-x="253" d="M78 0 C78 0 220 0 220 0 C219 3 218 14 218 15 C218 15 211 15 211 15 C184 15 174 15 174 30 C174 30 174 370 174 370 C174 370 174 478 174 478 C174 478 165 478 165 478 C165 478 80 423 80 423 C80 423 80 415 80 415 C125 417 124 420 124 370 C124 370 124 30 124 30 C124 15 114 15 88 15 C88 15 81 15 81 15 C81 14 78 0 78 0 L78 0 Z " />
<glyph glyph-name="Jcircumflex" unicode="&#x134;" horiz-adv-x="302" d="M247 728 C247 728 73 728 73 728 C73 728 76 712 76 712 C76 712 83 712 83 712 C119 712 132 714 132 652 C132 652 132 -31 132 -31 C132 -219 75 -214 15 -214 C-19 -214 6 -167 -29 -167 C-48 -167 -55 -174 -55 -193 C-55 -213 -38 -220 11 -220 C102 -220 188 -229 188 75 C188 75 188 652 188 652 C188 714 201 712 237 712 C237 712 243 712 243 712 C244 716 246 727 247 728 L247 728 Z M160 955 C160 955 302 785 302 785 C302 785 309 791 309 791 C309 791 177 993 177 993 C173 999 167 1011 160 1011 C153 1011 146 1000 142 993 C142 993 11 791 11 791 C11 791 17 785 17 785 C17 785 160 955 160 955 L160 955 Z " />
<glyph glyph-name="Lacute" unicode="&#x139;" horiz-adv-x="543" d="M166 791 C166 791 305 914 305 914 C357 960 375 978 375 982 C375 999 367 1007 351 1007 C346 1007 328 988 282 937 C282 937 160 797 160 797 C160 797 166 791 166 791 L166 791 Z M499 9 C506 40 514 70 524 101 C521 100 509 98 507 97 C488 32 496 10 319 10 C319 10 257 10 257 10 C199 10 189 19 188 43 C188 43 188 69 188 69 C188 69 188 80 188 80 C188 80 188 647 188 647 C188 714 201 712 237 712 C237 712 243 712 243 712 C244 716 246 727 247 728 C247 728 188 728 188 728 C188 728 132 728 132 728 C132 728 73 728 73 728 C73 728 76 712 76 712 C76 712 83 712 83 712 C119 712 132 714 132 647 C132 647 132 80 132 80 C132 13 119 15 83 15 C83 15 76 15 76 15 C75 10 73 6 73 0 C73 0 132 0 132 0 C132 0 188 0 188 0 C188 0 316 0 316 0 C316 0 497 0 497 0 C497 0 499 9 499 9 L499 9 Z " />
<glyph glyph-name="Lcaron" unicode="&#x13d;" horiz-adv-x="543" d="M499 9 C506 40 514 70 524 101 C521 100 509 98 507 97 C488 32 496 10 319 10 C319 10 257 10 257 10 C199 10 189 19 188 43 C188 43 188 69 188 69 C188 69 188 80 188 80 C188 80 188 647 188 647 C188 714 201 712 237 712 C237 712 243 712 243 712 C244 716 246 727 247 728 C247 728 188 728 188 728 C188 728 132 728 132 728 C132 728 73 728 73 728 C73 728 76 712 76 712 C76 712 83 712 83 712 C119 712 132 714 132 647 C132 647 132 80 132 80 C132 13 119 15 83 15 C83 15 76 15 76 15 C75 10 73 6 73 0 C73 0 132 0 132 0 C132 0 188 0 188 0 C188 0 316 0 316 0 C316 0 497 0 497 0 C497 0 499 9 499 9 L499 9 Z M343 674 C358 728 363 755 363 779 C363 786 357 787 341 786 C328 787 322 735 317 680 C317 680 305 569 305 569 C305 569 314 567 314 567 C314 567 343 674 343 674 L343 674 Z " />
<glyph glyph-name="lcaron" unicode="&#x13e;" horiz-adv-x="222" d="M48 688 C81 697 93 707 93 630 C93 630 93 30 93 30 C93 15 84 15 57 15 C57 15 51 15 51 15 C50 10 48 6 48 0 C48 0 188 0 188 0 C187 3 186 14 186 15 C186 15 179 15 179 15 C152 15 143 15 143 30 C143 30 143 642 143 642 C143 642 143 728 143 728 C143 728 134 728 134 728 C134 728 45 702 45 702 C46 695 46 701 48 688 L48 688 Z M229 624 C244 678 249 705 249 729 C249 736 243 737 227 736 C214 737 208 685 203 630 C203 630 191 519 191 519 C191 519 200 517 200 517 C200 517 229 624 229 624 L229 624 Z " />
<glyph glyph-name="Nacute" unicode="&#x143;" horiz-adv-x="680" d="M245 791 C245 791 384 914 384 914 C435 960 454 978 454 982 C454 999 446 1007 429 1007 C425 1007 407 988 361 937 C361 937 239 797 239 797 C239 797 245 791 245 791 L245 791 Z M44 712 C44 712 67 712 67 712 C76 712 78 713 102 677 C102 677 102 678 102 678 C102 678 111 665 111 665 C111 665 110 102 110 102 C107 12 94 15 65 15 C65 15 44 15 44 15 C43 11 42 1 42 0 C42 0 110 0 110 0 C110 0 127 0 127 0 C127 0 196 0 196 0 C195 3 194 14 194 15 C194 15 172 15 172 15 C139 15 127 12 127 135 C127 135 127 135 127 135 C127 135 125 643 125 643 C125 643 500 77 500 77 C500 77 551 0 551 0 C551 0 562 0 562 0 C562 0 565 612 565 612 C565 612 566 612 566 612 C565 715 581 712 625 712 C625 712 632 712 632 712 C633 716 636 727 636 728 C636 728 566 728 566 728 C566 728 550 728 550 728 C550 728 479 728 479 728 C480 724 483 713 483 712 C483 712 490 712 490 712 C534 712 550 715 550 612 C550 612 550 612 550 612 C550 612 551 98 551 98 C551 98 545 107 545 107 C545 107 138 728 138 728 C138 728 125 728 125 728 C125 728 111 728 111 728 C111 728 69 728 69 728 C69 728 42 728 42 728 C43 724 44 713 44 712 L44 712 Z " />
<glyph glyph-name="Ncaron" unicode="&#x147;" horiz-adv-x="680" d="M44 712 C44 712 67 712 67 712 C76 712 78 713 102 677 C102 677 102 678 102 678 C102 678 111 665 111 665 C111 665 110 102 110 102 C107 12 94 15 65 15 C65 15 44 15 44 15 C43 11 42 1 42 0 C42 0 110 0 110 0 C110 0 127 0 127 0 C127 0 196 0 196 0 C195 3 194 14 194 15 C194 15 172 15 172 15 C139 15 127 12 127 135 C127 135 127 135 127 135 C127 135 125 643 125 643 C125 643 500 77 500 77 C500 77 551 0 551 0 C551 0 562 0 562 0 C562 0 565 612 565 612 C565 612 566 612 566 612 C565 715 581 712 625 712 C625 712 632 712 632 712 C633 716 636 727 636 728 C636 728 566 728 566 728 C566 728 550 728 550 728 C550 728 479 728 479 728 C480 724 483 713 483 712 C483 712 490 712 490 712 C534 712 550 715 550 612 C550 612 550 612 550 612 C550 612 551 98 551 98 C551 98 545 107 545 107 C545 107 138 728 138 728 C138 728 125 728 125 728 C125 728 111 728 111 728 C111 728 69 728 69 728 C69 728 42 728 42 728 C43 724 44 713 44 712 L44 712 Z M339 851 C339 851 481 1020 481 1020 C481 1020 487 1014 487 1014 C487 1014 356 813 356 813 C352 806 345 794 338 795 C331 796 325 806 321 812 C321 812 189 1014 189 1014 C189 1014 196 1020 196 1020 C196 1020 339 851 339 851 L339 851 Z " />
<glyph glyph-name="ncaron" unicode="&#x148;" horiz-adv-x="492" d="M42 431 C75 440 87 455 87 377 C87 377 87 30 87 30 C87 15 78 15 51 15 C51 15 45 15 45 15 C44 10 42 6 42 0 C42 0 182 0 182 0 C181 3 180 14 180 15 C180 15 173 15 173 15 C146 15 137 15 137 30 C137 30 137 348 137 348 C175 431 210 461 272 461 C346 461 363 431 363 349 C363 349 363 30 363 30 C363 15 354 15 327 15 C327 15 320 15 320 15 C319 11 318 1 318 0 C318 0 458 0 458 0 C457 3 456 14 456 15 C456 15 449 15 449 15 C422 15 413 15 413 30 C413 30 413 349 413 349 C413 451 389 488 289 488 C221 488 180 453 137 357 C137 357 137 392 137 392 C137 392 137 478 137 478 C137 478 128 478 128 478 C128 478 39 445 39 445 C40 440 42 437 42 431 L42 431 Z M250 601 C250 601 392 770 392 770 C392 770 399 764 399 764 C399 764 268 563 268 563 C263 556 257 544 250 545 C243 546 237 556 233 562 C233 562 101 764 101 764 C101 764 108 770 108 770 C108 770 250 601 250 601 L250 601 Z " />
<glyph glyph-name="Omacron" unicode="&#x14c;" horiz-adv-x="782" d="M253 879 C253 879 525 879 525 879 C525 879 525 914 525 914 C525 914 253 914 253 914 C253 914 253 879 253 879 L253 879 Z M380 -5 C193 -5 125 93 125 364 C125 635 195 733 388 733 C591 733 664 635 664 364 C664 93 589 -5 380 -5 L380 -5 Z M61 364 C61 89 145 -10 379 -10 C636 -10 728 89 728 364 C728 639 638 738 389 738 C148 738 61 639 61 364 L61 364 Z " />
<glyph glyph-name="omacron" unicode="&#x14d;" horiz-adv-x="590" d="M162 629 C162 629 434 629 434 629 C434 629 434 664 434 664 C434 664 162 664 162 664 C162 664 162 629 162 629 L162 629 Z M298 -5 C156 -5 105 60 105 239 C105 418 156 483 298 483 C439 483 490 418 490 239 C490 60 439 -5 298 -5 L298 -5 Z M50 239 C50 56 116 -10 298 -10 C479 -10 545 56 545 239 C545 422 479 488 298 488 C116 488 50 422 50 239 L50 239 Z " />
<glyph glyph-name="Obreve" unicode="&#x14e;" horiz-adv-x="782" d="M275 972 C279 894 310 866 389 866 C469 866 499 894 503 971 C503 971 493 973 493 973 C490 921 463 902 389 902 C316 902 288 921 286 974 C286 974 275 972 275 972 L275 972 Z M380 -5 C193 -5 125 93 125 364 C125 635 195 733 388 733 C591 733 664 635 664 364 C664 93 589 -5 380 -5 L380 -5 Z M61 364 C61 89 145 -10 379 -10 C636 -10 728 89 728 364 C728 639 638 738 389 738 C148 738 61 639 61 364 L61 364 Z " />
<glyph glyph-name="obreve" unicode="&#x14f;" horiz-adv-x="590" d="M184 722 C188 644 218 616 298 616 C377 616 408 644 412 721 C412 721 401 723 401 723 C399 671 371 652 298 652 C224 652 197 671 194 724 C194 724 184 722 184 722 L184 722 Z M298 -5 C156 -5 105 60 105 239 C105 418 156 483 298 483 C439 483 490 418 490 239 C490 60 439 -5 298 -5 L298 -5 Z M50 239 C50 56 116 -10 298 -10 C479 -10 545 56 545 239 C545 422 479 488 298 488 C116 488 50 422 50 239 L50 239 Z " />
<glyph glyph-name="Racute" unicode="&#x154;" horiz-adv-x="631" d="M295 791 C295 791 434 914 434 914 C485 960 504 978 504 982 C504 999 496 1007 479 1007 C475 1007 457 988 411 937 C411 937 288 797 288 797 C288 797 295 791 295 791 L295 791 Z M70 712 C70 712 77 712 77 712 C113 712 126 714 126 647 C126 647 126 80 126 80 C126 13 113 15 77 15 C77 15 70 15 70 15 C69 10 67 6 67 0 C67 0 241 0 241 0 C240 3 238 14 237 15 C237 15 231 15 231 15 C195 15 182 13 182 80 C182 80 182 355 182 355 C182 355 301 355 301 355 C311 328 351 249 444 73 C490 -13 459 0 622 0 C622 0 622 9 622 9 C530 9 550 -2 509 73 C422 238 376 324 359 357 C470 364 512 400 512 524 C512 674 457 728 305 728 C305 728 182 728 182 728 C182 728 67 728 67 728 C67 728 70 712 70 712 L70 712 Z M182 717 C221 717 249 716 288 716 C407 716 450 668 450 535 C450 417 423 380 351 371 C351 372 351 372 351 372 C351 372 343 371 343 371 C332 369 319 369 305 369 C305 369 182 369 182 369 C182 369 182 647 182 647 C182 647 182 717 182 717 L182 717 Z " />
<glyph glyph-name="Rcaron" unicode="&#x158;" horiz-adv-x="631" d="M70 712 C70 712 77 712 77 712 C113 712 126 714 126 647 C126 647 126 80 126 80 C126 13 113 15 77 15 C77 15 70 15 70 15 C69 10 67 6 67 0 C67 0 241 0 241 0 C240 3 238 14 237 15 C237 15 231 15 231 15 C195 15 182 13 182 80 C182 80 182 355 182 355 C182 355 301 355 301 355 C311 328 351 249 444 73 C490 -13 459 0 622 0 C622 0 622 9 622 9 C530 9 550 -2 509 73 C422 238 376 324 359 357 C470 364 512 400 512 524 C512 674 457 728 305 728 C305 728 182 728 182 728 C182 728 67 728 67 728 C67 728 70 712 70 712 L70 712 Z M288 851 C288 851 430 1020 430 1020 C430 1020 437 1014 437 1014 C437 1014 306 813 306 813 C301 806 295 794 288 795 C281 796 275 806 270 812 C270 812 139 1014 139 1014 C139 1014 146 1020 146 1020 C146 1020 288 851 288 851 L288 851 Z M182 717 C221 717 249 716 288 716 C407 716 450 668 450 535 C450 417 423 380 351 371 C351 372 351 372 351 372 C351 372 343 371 343 371 C332 369 319 369 305 369 C305 369 182 369 182 369 C182 369 182 647 182 647 C182 647 182 717 182 717 L182 717 Z " />
<glyph glyph-name="rcaron" unicode="&#x159;" horiz-adv-x="339" d="M48 431 C81 440 93 455 93 377 C93 377 93 30 93 30 C93 15 84 15 60 15 C60 15 53 15 53 15 C52 11 51 1 51 0 C51 0 191 0 191 0 C191 0 188 15 188 15 C188 15 181 15 181 15 C153 15 143 15 143 30 C143 30 143 367 143 367 C157 438 188 464 251 464 C278 464 283 438 271 366 C267 345 275 337 300 337 C318 337 326 345 330 366 C345 456 331 488 275 488 C196 488 160 458 143 375 C143 375 143 392 143 392 C143 392 143 478 143 478 C143 478 134 478 134 478 C134 478 45 445 45 445 C46 440 48 437 48 431 C48 431 48 431 48 431 L48 431 Z M207 601 C207 601 349 770 349 770 C349 770 356 764 356 764 C356 764 225 563 225 563 C220 556 214 544 207 545 C200 546 194 556 189 562 C189 562 58 764 58 764 C58 764 65 770 65 770 C65 770 207 601 207 601 L207 601 Z " />
<glyph glyph-name="Sacute" unicode="&#x15a;" horiz-adv-x="526" d="M311 723 C311 723 285 730 285 730 C294 729 303 726 311 723 C359 702 399 646 428 581 C432 573 433 570 433 570 C434 569 435 570 443 567 C443 567 443 623 443 623 C443 623 443 688 443 688 C429 681 435 689 428 669 C428 669 416 679 383 703 C348 728 303 738 239 738 C117 738 73 691 73 560 C73 463 111 410 274 335 C410 271 442 231 442 160 C442 39 402 -4 290 -4 C242 -4 204 4 171 23 C138 44 100 112 68 185 C64 193 63 196 63 196 C58 197 62 197 53 199 C53 199 53 144 53 144 C53 144 53 62 53 62 C67 69 61 61 68 86 C68 84 86 69 135 32 C135 32 136 32 136 32 C175 2 224 -10 290 -10 C434 -10 486 39 486 176 C486 274 452 325 307 393 C153 465 117 508 117 581 C117 693 149 733 239 733 C280 733 313 728 340 715 C340 715 311 723 311 723 L311 723 Z M271 791 C271 791 410 914 410 914 C462 960 480 978 480 982 C480 999 472 1007 456 1007 C451 1007 433 988 387 937 C387 937 265 797 265 797 C265 797 271 791 271 791 L271 791 Z " />
<glyph glyph-name="Scircumflex" unicode="&#x15c;" horiz-adv-x="526" d="M311 723 C311 723 285 730 285 730 C294 729 303 726 311 723 C359 702 399 646 428 581 C432 573 433 570 433 570 C434 569 435 570 443 567 C443 567 443 623 443 623 C443 623 443 688 443 688 C429 681 435 689 428 669 C428 669 416 679 383 703 C348 728 303 738 239 738 C117 738 73 691 73 560 C73 463 111 410 274 335 C410 271 442 231 442 160 C442 39 402 -4 290 -4 C242 -4 204 4 171 23 C138 44 100 112 68 185 C64 193 63 196 63 196 C58 197 62 197 53 199 C53 199 53 144 53 144 C53 144 53 62 53 62 C67 69 61 61 68 86 C68 84 86 69 135 32 C135 32 136 32 136 32 C175 2 224 -10 290 -10 C434 -10 486 39 486 176 C486 274 452 325 307 393 C153 465 117 508 117 581 C117 693 149 733 239 733 C280 733 313 728 340 715 C340 715 311 723 311 723 L311 723 Z M265 955 C265 955 407 785 407 785 C407 785 414 791 414 791 C414 791 282 993 282 993 C278 999 272 1011 265 1011 C258 1011 251 1000 247 993 C247 993 116 791 116 791 C116 791 122 785 122 785 C122 785 265 955 265 955 L265 955 Z " />
<glyph glyph-name="Scaron" unicode="&#x160;" horiz-adv-x="526" d="M311 723 C311 723 285 730 285 730 C294 729 303 726 311 723 C359 702 399 646 428 581 C432 573 433 570 433 570 C434 569 435 570 443 567 C443 567 443 623 443 623 C443 623 443 688 443 688 C429 681 435 689 428 669 C428 669 416 679 383 703 C348 728 303 738 239 738 C117 738 73 691 73 560 C73 463 111 410 274 335 C410 271 442 231 442 160 C442 39 402 -4 290 -4 C242 -4 204 4 171 23 C138 44 100 112 68 185 C64 193 63 196 63 196 C58 197 62 197 53 199 C53 199 53 144 53 144 C53 144 53 62 53 62 C67 69 61 61 68 86 C68 84 86 69 135 32 C135 32 136 32 136 32 C175 2 224 -10 290 -10 C434 -10 486 39 486 176 C486 274 452 325 307 393 C153 465 117 508 117 581 C117 693 149 733 239 733 C280 733 313 728 340 715 C340 715 311 723 311 723 L311 723 Z M265 851 C265 851 407 1020 407 1020 C407 1020 414 1014 414 1014 C414 1014 282 813 282 813 C278 806 272 794 265 795 C258 796 251 806 247 812 C247 812 116 1014 116 1014 C116 1014 122 1020 122 1020 C122 1020 265 851 265 851 L265 851 Z " />
<glyph glyph-name="scaron" unicode="&#x161;" horiz-adv-x="416" d="M339 363 C339 363 339 406 339 406 C339 406 339 471 339 471 C336 470 325 467 324 467 C324 467 324 452 324 452 C324 455 310 462 271 477 C271 477 271 477 271 477 C251 485 228 488 198 488 C108 488 76 457 76 371 C76 298 103 261 217 220 C307 188 328 159 328 102 C328 23 302 -6 228 -6 C220 -6 212 -6 204 -5 C204 -5 208 -5 208 -5 C204 -5 199 -4 195 -3 C150 4 120 30 93 84 C90 96 89 109 89 122 C89 122 89 131 89 131 C86 132 75 133 74 133 C74 133 74 90 74 90 C74 90 74 42 74 42 C79 43 83 45 89 45 C89 45 89 56 89 56 C89 37 109 16 165 -2 C165 -2 166 -2 166 -2 C184 -8 204 -10 228 -10 C330 -10 367 23 367 116 C367 187 343 221 239 258 C136 295 112 326 112 389 C112 459 135 484 198 484 C211 484 224 483 235 481 C236 481 238 480 239 480 C239 480 198 484 198 484 C211 484 224 483 235 481 C236 481 238 480 240 480 C240 480 239 480 239 480 C274 472 297 453 317 417 C322 403 324 389 324 374 C324 374 324 365 324 365 C328 364 338 363 339 363 C339 363 339 363 339 363 L339 363 Z M229 601 C229 601 371 770 371 770 C371 770 377 764 377 764 C377 764 246 563 246 563 C242 556 235 544 228 545 C221 546 215 556 211 562 C211 562 79 764 79 764 C79 764 86 770 86 770 C86 770 229 601 229 601 L229 601 Z " />
<glyph glyph-name="Tcaron" unicode="&#x164;" horiz-adv-x="756" d="M88 762 C84 763 74 764 73 764 C69 752 64 740 60 728 C60 728 55 728 55 728 C55 728 55 714 55 714 C48 695 41 675 34 656 C38 657 49 658 50 658 C68 699 59 714 170 714 C170 714 350 714 350 714 C350 714 350 75 350 75 C350 13 337 15 301 15 C301 15 294 15 294 15 C294 14 291 0 291 0 C291 0 465 0 465 0 C465 0 462 15 462 15 C462 15 455 15 455 15 C419 15 406 13 406 75 C406 75 406 714 406 714 C406 714 586 714 586 714 C692 714 694 701 706 658 C710 657 721 656 722 656 C715 676 708 695 701 714 C701 714 701 728 701 728 C701 728 696 728 696 728 C692 740 687 752 683 764 C679 763 669 762 668 762 C680 735 690 728 581 728 C581 728 406 728 406 728 C406 728 350 728 350 728 C350 728 175 728 175 728 C64 728 80 734 88 762 L88 762 Z M378 851 C378 851 520 1020 520 1020 C520 1020 527 1014 527 1014 C527 1014 396 813 396 813 C391 806 385 794 378 795 C371 796 365 806 361 812 C361 812 229 1014 229 1014 C229 1014 236 1020 236 1020 C236 1020 378 851 378 851 L378 851 Z " />
<glyph glyph-name="tcaron" unicode="&#x165;" horiz-adv-x="327" d="M287 478 C287 478 143 478 143 478 C143 478 143 592 143 592 C143 592 139 592 139 592 C139 592 28 478 28 478 C28 478 28 468 28 468 C28 468 93 468 93 468 C93 468 93 123 93 123 C93 6 123 -10 205 -10 C252 -10 282 10 317 64 C317 64 312 68 312 68 C286 28 262 14 220 14 C162 14 141 26 141 112 C141 112 143 451 143 451 C143 451 287 451 287 451 C287 451 287 478 287 478 L287 478 Z M373 624 C388 678 393 705 393 729 C393 736 387 737 371 736 C358 737 352 685 347 630 C347 630 335 519 335 519 C335 519 344 517 344 517 C344 517 373 624 373 624 L373 624 Z " />
<glyph glyph-name="Utilde" unicode="&#x168;" horiz-adv-x="609" d="M178 848 C178 896 189 914 219 914 C289 914 313 849 382 849 C425 849 441 874 441 944 C441 944 438 944 438 944 C438 900 426 884 393 884 C324 884 300 949 231 949 C190 949 175 922 175 848 C175 848 178 848 178 848 L178 848 Z M413 712 C413 712 420 712 420 712 C456 712 469 714 469 647 C469 647 469 170 469 170 C420 64 360 26 242 26 C172 26 147 76 147 215 C147 215 147 647 147 647 C147 647 147 728 147 728 C147 728 32 728 32 728 C32 728 35 712 35 712 C35 712 42 712 42 712 C78 712 91 714 91 647 C91 647 91 215 91 215 C91 50 125 -10 220 -10 C350 -10 416 31 469 145 C469 145 469 105 469 105 C469 105 469 0 469 0 C469 0 478 0 478 0 C478 0 580 53 580 53 C580 53 580 60 580 60 C523 57 525 54 525 105 C525 105 525 647 525 647 C525 647 525 728 525 728 C525 728 410 728 410 728 C411 721 413 718 413 712 L413 712 Z " />
<glyph glyph-name="utilde" unicode="&#x169;" horiz-adv-x="463" d="M100 598 C100 646 111 664 142 664 C211 664 235 599 304 599 C347 599 363 624 363 694 C363 694 360 694 360 694 C360 650 348 634 316 634 C246 634 222 699 153 699 C112 699 97 672 97 598 C97 598 100 598 100 598 L100 598 Z M434 27 C400 17 389 8 389 96 C389 96 389 447 389 447 C389 447 389 478 389 478 C389 478 302 478 302 478 C303 474 304 463 304 462 C304 462 311 462 311 462 C332 462 339 462 339 447 C339 447 339 127 339 127 C309 52 274 25 212 25 C145 25 121 60 121 156 C121 156 121 447 121 447 C121 447 121 478 121 478 C121 478 34 478 34 478 C35 474 36 463 36 462 C36 462 43 462 43 462 C64 462 71 462 71 447 C71 447 71 156 71 156 C71 34 102 -10 188 -10 C260 -10 301 25 339 122 C339 122 339 85 339 85 C339 85 339 -10 339 -10 C339 -10 348 -10 348 -10 C348 -10 437 12 437 12 C437 12 434 27 434 27 L434 27 Z " />
<glyph glyph-name="Umacron" unicode="&#x16a;" horiz-adv-x="609" d="M172 879 C172 879 444 879 444 879 C444 879 444 914 444 914 C444 914 172 914 172 914 C172 914 172 879 172 879 L172 879 Z M413 712 C413 712 420 712 420 712 C456 712 469 714 469 647 C469 647 469 170 469 170 C420 64 360 26 242 26 C172 26 147 76 147 215 C147 215 147 647 147 647 C147 647 147 728 147 728 C147 728 32 728 32 728 C32 728 35 712 35 712 C35 712 42 712 42 712 C78 712 91 714 91 647 C91 647 91 215 91 215 C91 50 125 -10 220 -10 C350 -10 416 31 469 145 C469 145 469 105 469 105 C469 105 469 0 469 0 C469 0 478 0 478 0 C478 0 580 53 580 53 C580 53 580 60 580 60 C523 57 525 54 525 105 C525 105 525 647 525 647 C525 647 525 728 525 728 C525 728 410 728 410 728 C411 721 413 718 413 712 L413 712 Z " />
<glyph glyph-name="umacron" unicode="&#x16b;" horiz-adv-x="463" d="M94 629 C94 629 366 629 366 629 C366 629 366 664 366 664 C366 664 94 664 94 664 C94 664 94 629 94 629 L94 629 Z M434 27 C400 17 389 8 389 96 C389 96 389 447 389 447 C389 447 389 478 389 478 C389 478 302 478 302 478 C303 474 304 463 304 462 C304 462 311 462 311 462 C332 462 339 462 339 447 C339 447 339 127 339 127 C309 52 274 25 212 25 C145 25 121 60 121 156 C121 156 121 447 121 447 C121 447 121 478 121 478 C121 478 34 478 34 478 C35 474 36 463 36 462 C36 462 43 462 43 462 C64 462 71 462 71 447 C71 447 71 156 71 156 C71 34 102 -10 188 -10 C260 -10 301 25 339 122 C339 122 339 85 339 85 C339 85 339 -10 339 -10 C339 -10 348 -10 348 -10 C348 -10 437 12 437 12 C437 12 434 27 434 27 L434 27 Z " />
<glyph glyph-name="Ubreve" unicode="&#x16c;" horiz-adv-x="609" d="M194 972 C198 894 228 866 308 866 C388 866 418 894 422 971 C422 971 411 973 411 973 C409 921 381 902 308 902 C234 902 207 921 204 974 C204 974 194 972 194 972 L194 972 Z M413 712 C413 712 420 712 420 712 C456 712 469 714 469 647 C469 647 469 170 469 170 C420 64 360 26 242 26 C172 26 147 76 147 215 C147 215 147 647 147 647 C147 647 147 728 147 728 C147 728 32 728 32 728 C32 728 35 712 35 712 C35 712 42 712 42 712 C78 712 91 714 91 647 C91 647 91 215 91 215 C91 50 125 -10 220 -10 C350 -10 416 31 469 145 C469 145 469 105 469 105 C469 105 469 0 469 0 C469 0 478 0 478 0 C478 0 580 53 580 53 C580 53 580 60 580 60 C523 57 525 54 525 105 C525 105 525 647 525 647 C525 647 525 728 525 728 C525 728 410 728 410 728 C411 721 413 718 413 712 L413 712 Z " />
<glyph glyph-name="ubreve" unicode="&#x16d;" horiz-adv-x="463" d="M116 722 C120 644 150 616 230 616 C310 616 340 644 344 721 C344 721 334 723 334 723 C331 671 304 652 230 652 C157 652 129 671 126 724 C126 724 116 722 116 722 L116 722 Z M434 27 C400 17 389 8 389 96 C389 96 389 447 389 447 C389 447 389 478 389 478 C389 478 302 478 302 478 C303 474 304 463 304 462 C304 462 311 462 311 462 C332 462 339 462 339 447 C339 447 339 127 339 127 C309 52 274 25 212 25 C145 25 121 60 121 156 C121 156 121 447 121 447 C121 447 121 478 121 478 C121 478 34 478 34 478 C35 474 36 463 36 462 C36 462 43 462 43 462 C64 462 71 462 71 447 C71 447 71 156 71 156 C71 34 102 -10 188 -10 C260 -10 301 25 339 122 C339 122 339 85 339 85 C339 85 339 -10 339 -10 C339 -10 348 -10 348 -10 C348 -10 437 12 437 12 C437 12 434 27 434 27 L434 27 Z " />
<glyph glyph-name="Uring" unicode="&#x16e;" horiz-adv-x="609" d="M308 799 C254 799 226 827 226 883 C226 944 248 966 308 966 C368 966 390 944 390 883 C390 827 362 799 308 799 L308 799 Z M211 883 C211 820 244 788 308 788 C371 788 404 820 404 883 C404 953 379 978 308 978 C237 978 211 953 211 883 L211 883 Z M413 712 C413 712 420 712 420 712 C456 712 469 714 469 647 C469 647 469 170 469 170 C420 64 360 26 242 26 C172 26 147 76 147 215 C147 215 147 647 147 647 C147 647 147 728 147 728 C147 728 32 728 32 728 C32 728 35 712 35 712 C35 712 42 712 42 712 C78 712 91 714 91 647 C91 647 91 215 91 215 C91 50 125 -10 220 -10 C350 -10 416 31 469 145 C469 145 469 105 469 105 C469 105 469 0 469 0 C469 0 478 0 478 0 C478 0 580 53 580 53 C580 53 580 60 580 60 C523 57 525 54 525 105 C525 105 525 647 525 647 C525 647 525 728 525 728 C525 728 410 728 410 728 C411 721 413 718 413 712 L413 712 Z " />
<glyph glyph-name="uring" unicode="&#x16f;" horiz-adv-x="463" d="M230 549 C176 549 148 577 148 633 C148 694 170 716 230 716 C290 716 312 694 312 633 C312 577 284 549 230 549 L230 549 Z M134 633 C134 570 167 538 230 538 C294 538 327 570 327 633 C327 703 301 728 230 728 C159 728 134 703 134 633 L134 633 Z M434 27 C400 17 389 8 389 96 C389 96 389 447 389 447 C389 447 389 478 389 478 C389 478 302 478 302 478 C303 474 304 463 304 462 C304 462 311 462 311 462 C332 462 339 462 339 447 C339 447 339 127 339 127 C309 52 274 25 212 25 C145 25 121 60 121 156 C121 156 121 447 121 447 C121 447 121 478 121 478 C121 478 34 478 34 478 C35 474 36 463 36 462 C36 462 43 462 43 462 C64 462 71 462 71 447 C71 447 71 156 71 156 C71 34 102 -10 188 -10 C260 -10 301 25 339 122 C339 122 339 85 339 85 C339 85 339 -10 339 -10 C339 -10 348 -10 348 -10 C348 -10 437 12 437 12 C437 12 434 27 434 27 L434 27 Z " />
<glyph glyph-name="Wcircumflex" unicode="&#x174;" horiz-adv-x="962" d="M935 728 C935 728 887 728 887 728 C887 728 865 728 865 728 C865 728 775 728 775 728 C776 724 777 713 777 712 C777 712 797 712 797 712 C842 712 860 715 829 602 C829 602 679 80 679 80 C679 80 679 81 679 81 C679 81 508 658 508 658 C494 714 510 712 544 712 C544 712 564 712 564 712 C565 716 566 727 566 728 C566 728 487 728 487 728 C487 728 422 728 422 728 C422 728 375 728 375 728 C376 724 377 713 377 712 C377 712 398 712 398 712 C416 712 425 713 435 686 C456 619 477 552 498 485 C498 485 323 66 323 66 C323 66 324 71 324 71 C324 71 150 620 150 620 C122 715 137 712 173 712 C173 712 193 712 193 712 C194 716 195 727 195 728 C195 728 116 728 116 728 C116 728 54 728 54 728 C54 728 23 728 23 728 C24 724 25 713 25 712 C25 712 47 712 47 712 C55 712 57 714 84 634 C153 419 222 205 291 -10 C291 -10 305 -10 305 -10 C305 -10 506 458 506 458 C555 302 604 145 653 -10 C653 -10 668 -10 668 -10 C668 -10 847 592 847 592 C847 592 847 592 847 592 C883 715 890 712 912 712 C912 712 933 712 933 712 C934 716 935 727 935 728 C935 728 935 728 935 728 L935 728 Z M471 955 C471 955 613 785 613 785 C613 785 620 791 620 791 C620 791 489 993 489 993 C484 999 478 1011 471 1011 C464 1011 458 1000 453 993 C453 993 322 791 322 791 C322 791 329 785 329 785 C329 785 471 955 471 955 L471 955 Z " />
<glyph glyph-name="Ycircumflex" unicode="&#x176;" horiz-adv-x="609" d="M172 728 C172 728 114 728 114 728 C114 728 48 728 48 728 C48 728 20 728 20 728 C21 724 22 713 22 712 C22 712 45 712 45 712 C53 712 55 715 110 619 C110 619 282 319 282 319 C282 319 282 75 282 75 C282 13 269 15 233 15 C233 15 226 15 226 15 C225 10 223 6 223 0 C223 0 397 0 397 0 C396 6 394 10 394 15 C394 15 387 15 387 15 C351 15 338 13 338 75 C338 75 338 327 338 327 C338 327 478 593 478 593 C478 593 478 592 478 592 C543 715 547 712 564 712 C564 712 587 712 587 712 C588 716 589 727 589 728 C589 728 549 728 549 728 C549 728 540 728 540 728 C540 728 482 728 482 728 C483 724 484 713 484 712 C484 712 503 712 503 712 C519 712 529 714 511 673 C511 673 336 334 336 334 C336 334 159 648 159 648 C124 714 134 712 152 712 C152 712 170 712 170 712 C171 716 172 727 172 728 C172 728 172 728 172 728 L172 728 Z M310 954 C310 954 452 785 452 785 C452 785 459 791 459 791 C459 791 328 993 328 993 C323 999 317 1011 310 1011 C303 1011 297 1000 292 993 C292 993 161 791 161 791 C161 791 168 785 168 785 C168 785 310 954 310 954 L310 954 Z " />
<glyph glyph-name="Ydieresis" unicode="&#x178;" horiz-adv-x="609" d="M378 843 C402 843 410 851 410 875 C410 899 402 907 378 907 C354 907 346 899 346 875 C346 851 354 843 378 843 L378 843 Z M242 843 C266 843 274 851 274 875 C274 899 266 907 242 907 C218 907 210 899 210 875 C210 851 218 843 242 843 L242 843 Z M172 728 C172 728 114 728 114 728 C114 728 48 728 48 728 C48 728 20 728 20 728 C21 724 22 713 22 712 C22 712 45 712 45 712 C53 712 55 715 110 619 C110 619 282 319 282 319 C282 319 282 75 282 75 C282 13 269 15 233 15 C233 15 226 15 226 15 C225 10 223 6 223 0 C223 0 397 0 397 0 C396 6 394 10 394 15 C394 15 387 15 387 15 C351 15 338 13 338 75 C338 75 338 327 338 327 C338 327 478 593 478 593 C478 593 478 592 478 592 C543 715 547 712 564 712 C564 712 587 712 587 712 C588 716 589 727 589 728 C589 728 549 728 549 728 C549 728 540 728 540 728 C540 728 482 728 482 728 C483 724 484 713 484 712 C484 712 503 712 503 712 C519 712 529 714 511 673 C511 673 336 334 336 334 C336 334 159 648 159 648 C124 714 134 712 152 712 C152 712 170 712 170 712 C171 716 172 727 172 728 C172 728 172 728 172 728 L172 728 Z " />
<glyph glyph-name="Zacute" unicode="&#x179;" horiz-adv-x="618" d="M337 791 C337 791 476 914 476 914 C528 960 547 978 547 982 C547 999 538 1007 522 1007 C518 1007 500 988 453 937 C453 937 331 797 331 797 C331 797 337 791 337 791 L337 791 Z M86 0 C86 0 432 0 432 0 C432 0 587 0 587 0 C596 34 604 67 613 102 C613 102 596 99 596 99 C596 99 586 75 586 75 C570 38 565 21 481 17 C481 17 95 13 95 13 C95 13 591 716 591 716 C591 716 591 728 591 728 C591 728 537 728 537 728 C537 728 235 728 235 728 C235 728 70 728 70 728 C65 691 61 656 55 619 C63 620 67 622 75 622 C75 622 79 638 79 638 C90 687 93 708 189 712 C189 712 528 715 528 715 C528 715 25 12 25 12 C25 12 25 0 25 0 C25 0 86 0 86 0 L86 0 Z " />
<glyph glyph-name="Zdotaccent" unicode="&#x17b;" horiz-adv-x="618" d="M331 843 C354 843 363 851 363 875 C363 899 354 907 331 907 C307 907 298 899 298 875 C298 851 307 843 331 843 L331 843 Z M86 0 C86 0 432 0 432 0 C432 0 587 0 587 0 C596 34 604 67 613 102 C613 102 596 99 596 99 C596 99 586 75 586 75 C570 38 565 21 481 17 C481 17 95 13 95 13 C95 13 591 716 591 716 C591 716 591 728 591 728 C591 728 537 728 537 728 C537 728 235 728 235 728 C235 728 70 728 70 728 C65 691 61 656 55 619 C63 620 67 622 75 622 C75 622 79 638 79 638 C90 687 93 708 189 712 C189 712 528 715 528 715 C528 715 25 12 25 12 C25 12 25 0 25 0 C25 0 86 0 86 0 L86 0 Z " />
<glyph glyph-name="zdotaccent" unicode="&#x17c;" horiz-adv-x="456" d="M253 593 C277 593 286 601 286 625 C286 649 277 657 253 657 C230 657 221 649 221 625 C221 601 230 593 253 593 L253 593 Z M71 406 C75 407 76 409 79 409 C79 409 89 416 89 416 C137 450 153 462 222 462 C222 462 220 462 220 462 C220 462 356 465 356 465 C356 465 40 12 40 12 C40 12 40 0 40 0 C40 0 93 0 93 0 C93 0 365 0 365 0 C365 0 411 0 411 0 C415 23 417 48 421 71 C415 68 415 68 415 68 C415 68 405 61 405 61 C360 33 340 20 288 16 C288 16 102 13 102 13 C102 13 416 466 416 466 C416 466 416 478 416 478 C416 478 365 478 365 478 C365 478 126 478 126 478 C109 478 107 486 111 499 C111 499 109 499 104 500 C104 500 96 500 96 500 C87 469 80 438 71 406 C71 406 71 406 71 406 L71 406 Z " />
<glyph glyph-name="Zcaron" unicode="&#x17d;" horiz-adv-x="618" d="M331 851 C331 851 473 1020 473 1020 C473 1020 480 1014 480 1014 C480 1014 348 813 348 813 C344 806 338 794 331 795 C324 796 317 806 313 812 C313 812 182 1014 182 1014 C182 1014 188 1020 188 1020 C188 1020 331 851 331 851 L331 851 Z M86 0 C86 0 432 0 432 0 C432 0 587 0 587 0 C596 34 604 67 613 102 C613 102 596 99 596 99 C596 99 586 75 586 75 C570 38 565 21 481 17 C481 17 95 13 95 13 C95 13 591 716 591 716 C591 716 591 728 591 728 C591 728 537 728 537 728 C537 728 235 728 235 728 C235 728 70 728 70 728 C65 691 61 656 55 619 C63 620 67 622 75 622 C75 622 79 638 79 638 C90 687 93 708 189 712 C189 712 528 715 528 715 C528 715 25 12 25 12 C25 12 25 0 25 0 C25 0 86 0 86 0 L86 0 Z " />
<glyph glyph-name="zcaron" unicode="&#x17e;" horiz-adv-x="456" d="M71 406 C75 407 76 409 79 409 C79 409 89 416 89 416 C137 450 153 462 222 462 C222 462 220 462 220 462 C220 462 356 465 356 465 C356 465 40 12 40 12 C40 12 40 0 40 0 C40 0 93 0 93 0 C93 0 365 0 365 0 C365 0 411 0 411 0 C415 23 417 48 421 71 C415 68 415 68 415 68 C415 68 405 61 405 61 C360 33 340 20 288 16 C288 16 102 13 102 13 C102 13 416 466 416 466 C416 466 416 478 416 478 C416 478 365 478 365 478 C365 478 126 478 126 478 C109 478 107 486 111 499 C111 499 109 499 104 500 C104 500 96 500 96 500 C87 469 80 438 71 406 C71 406 71 406 71 406 L71 406 Z M254 601 C254 601 396 770 396 770 C396 770 402 764 402 764 C402 764 271 563 271 563 C267 556 260 544 253 545 C246 546 240 556 236 562 C236 562 104 764 104 764 C104 764 111 770 111 770 C111 770 254 601 254 601 L254 601 Z " />
<glyph glyph-name="SmallLetterOwithogon" unicode="&#x1eb;" horiz-adv-x="703" d="M912 -53 C912 -53 911 -52 911 -52 C874 -82 812 -93 675 -93 C523 -93 429 -71 324 -9 C331 -10 337 -10 343 -10 C571 -10 653 67 653 281 C653 494 573 571 353 571 C140 571 63 494 63 281 C63 110 176 26 275 0 C427 -93 532 -127 669 -127 C783 -127 847 -107 912 -53 L912 -53 Z M344 -6 C262 -6 120 70 120 281 C120 491 182 567 352 567 C531 567 596 491 596 281 C596 70 529 -6 344 -6 L344 -6 Z " />
<glyph glyph-name="CapitalLetterAwithdo" unicode="&#x226;" horiz-adv-x="635" d="M331 843 C354 843 363 851 363 875 C363 899 354 907 331 907 C307 907 298 899 298 875 C298 851 307 843 331 843 L331 843 Z M438 0 C438 0 512 0 512 0 C512 0 571 0 571 0 C571 0 619 0 619 0 C618 3 617 14 617 15 C617 15 595 15 595 15 C577 15 570 13 546 86 C546 86 359 711 359 711 C359 711 347 748 347 748 C347 748 342 748 342 748 C324 722 313 712 303 711 C303 711 306 701 306 701 C306 701 129 122 129 122 C92 12 78 15 45 15 C45 15 24 15 24 15 C23 11 22 1 22 0 C22 0 91 0 91 0 C91 0 96 0 96 0 C96 0 186 0 186 0 C185 3 184 14 184 15 C184 15 164 15 164 15 C118 15 100 11 147 165 C147 165 146 165 146 165 C146 165 187 298 187 298 C187 298 424 298 424 298 C424 298 472 135 472 135 C472 135 472 135 472 135 C509 12 495 15 460 15 C460 15 440 15 440 15 C439 11 438 1 438 0 L438 0 Z M188 303 C188 303 307 696 307 696 C307 696 423 303 423 303 C423 303 188 303 188 303 L188 303 Z " />
<glyph glyph-name="LETTERSMALLCAPITALG" unicode="&#x262;" horiz-adv-x="652" d="M477 532 C477 532 476 533 476 533 C445 560 405 571 332 571 C134 571 63 494 63 281 C63 67 134 -10 333 -10 C397 -10 441 -5 484 8 C484 8 492 8 492 8 C492 8 541 21 541 21 C541 21 541 28 541 28 C564 37 588 49 617 62 C617 62 616 65 616 65 C588 52 564 41 541 32 C541 32 541 168 541 168 C541 230 551 228 580 228 C580 228 587 228 587 228 C588 232 589 242 589 243 C589 243 435 243 435 243 C435 243 438 228 438 228 C438 228 445 228 445 228 C479 228 491 230 491 168 C491 168 492 57 492 57 C489 26 463 10 403 5 C403 5 426 5 426 5 C401 3 372 2 337 2 C337 2 403 5 403 5 C384 3 362 2 337 2 C176 2 118 76 118 281 C118 491 175 567 334 567 C374 567 403 562 426 552 C426 552 425 552 425 552 C460 537 505 456 545 364 C549 356 550 353 550 353 C551 352 553 353 561 350 C561 350 561 407 561 407 C561 407 561 471 561 471 C545 465 552 473 545 453 C547 461 530 484 477 532 C477 532 477 532 477 532 L477 532 Z " />
<glyph glyph-name="LETTERSMALLCAPITALI" unicode="&#x26a;" horiz-adv-x="299" d="M244 561 C244 561 75 561 75 561 C76 558 78 547 79 546 C79 546 85 546 85 546 C121 546 134 548 134 486 C134 486 134 75 134 75 C134 13 121 15 85 15 C85 15 79 15 79 15 C79 12 76 1 75 0 C75 0 244 0 244 0 C243 6 241 10 241 15 C241 15 234 15 234 15 C198 15 185 13 185 75 C185 75 185 486 185 486 C185 548 198 546 234 546 C234 546 241 546 241 546 C241 547 244 561 244 561 L244 561 Z " />
<glyph glyph-name="LETTERSMALLCAPITALN" unicode="&#x274;" horiz-adv-x="610" d="M50 546 C50 546 73 546 73 546 C79 546 82 547 93 533 C93 533 111 509 111 509 C111 509 111 145 111 145 C111 11 99 15 66 15 C66 15 44 15 44 15 C43 11 42 1 42 0 C42 0 111 0 111 0 C111 0 126 0 126 0 C126 0 194 0 194 0 C193 3 192 14 192 15 C192 15 171 15 171 15 C142 15 129 13 126 92 C126 92 124 491 124 491 C124 491 443 53 443 53 C443 53 482 0 482 0 C482 0 492 0 492 0 C492 0 495 470 495 470 C498 549 515 546 555 546 C555 546 562 546 562 546 C563 551 565 555 565 561 C565 561 496 561 496 561 C496 561 481 561 481 561 C481 561 411 561 411 561 C412 555 414 551 414 546 C414 546 421 546 421 546 C465 546 481 549 481 446 C481 446 481 446 481 446 C481 446 482 63 482 63 C482 63 474 75 474 75 C474 75 136 561 136 561 C136 561 124 561 124 561 C124 561 111 561 111 561 C111 561 73 561 73 561 C73 561 48 561 48 561 C49 558 50 547 50 546 C50 546 50 546 50 546 L50 546 Z " />
<glyph glyph-name="LETTERSMALLCAPITALR" unicode="&#x280;" horiz-adv-x="530" d="M71 546 C71 546 78 546 78 546 C114 546 127 548 127 481 C127 481 127 80 127 80 C127 13 114 15 78 15 C78 15 71 15 71 15 C71 14 68 0 68 0 C68 0 236 0 236 0 C236 0 233 15 233 15 C233 15 226 15 226 15 C190 15 177 13 177 80 C177 80 177 272 177 272 C177 272 249 272 249 272 C258 251 292 190 369 56 C408 -10 381 0 520 0 C520 0 520 8 520 8 C445 8 461 -1 428 56 C355 181 317 247 302 273 C402 279 440 307 440 404 C440 519 390 561 252 561 C252 561 177 561 177 561 C177 561 68 561 68 561 C69 555 71 551 71 546 L71 546 Z M177 551 C177 551 237 551 237 551 C345 551 384 515 384 414 C384 322 359 293 295 286 C294 287 294 287 294 287 C294 287 283 285 283 285 C273 284 263 284 252 284 C252 284 177 284 177 284 C177 284 177 481 177 481 C177 481 177 551 177 551 L177 551 Z " />
<glyph glyph-name="LETTERSMALLCAPITALY" unicode="&#x28f;" horiz-adv-x="535" d="M167 561 C167 561 109 561 109 561 C109 561 50 561 50 561 C50 561 23 561 23 561 C24 558 25 547 25 546 C25 546 48 546 48 546 C55 546 57 548 111 464 C111 464 248 245 248 245 C248 245 248 75 248 75 C248 13 235 15 199 15 C199 15 192 15 192 15 C191 10 189 6 189 0 C189 0 357 0 357 0 C357 0 354 15 354 15 C354 15 347 15 347 15 C311 15 298 13 298 75 C298 75 298 252 298 252 C298 252 418 460 418 460 C470 548 475 546 490 546 C490 546 512 546 512 546 C513 550 514 560 514 561 C514 561 476 561 476 561 C476 561 468 561 468 561 C468 561 410 561 410 561 C411 558 412 547 412 546 C412 546 430 546 430 546 C452 546 462 549 397 436 C397 436 397 435 397 435 C397 435 296 257 296 257 C296 257 192 426 192 426 C192 426 193 426 193 426 C115 549 125 546 147 546 C147 546 165 546 165 546 C166 550 167 560 167 561 L167 561 Z " />
<glyph glyph-name="LETTERSMALLCAPITALB" unicode="&#x299;" horiz-adv-x="486" d="M68 0 C68 0 177 0 177 0 C177 0 297 0 297 0 C407 0 446 1 446 145 C446 251 413 289 322 289 C322 289 319 289 319 289 C402 298 433 337 433 426 C433 525 431 561 231 561 C231 561 177 561 177 561 C177 561 68 561 68 561 C69 555 71 551 71 546 C71 546 78 546 78 546 C114 546 127 548 127 481 C127 481 127 80 127 80 C127 13 114 15 78 15 C78 15 71 15 71 15 C71 14 68 0 68 0 L68 0 Z M177 558 C177 558 225 558 225 558 C382 558 383 522 383 421 C383 324 355 289 277 289 C277 289 177 289 177 289 C177 289 177 481 177 481 C177 481 177 558 177 558 L177 558 Z M278 287 C278 287 312 287 312 287 C370 287 391 249 391 145 C391 4 365 3 293 3 C293 3 243 3 243 3 C195 3 177 21 177 69 C177 69 177 80 177 80 C177 80 177 287 177 287 C177 287 278 287 278 287 L278 287 Z " />
<glyph glyph-name="LETTERSMALLCAPITALH" unicode="&#x29c;" horiz-adv-x="664" d="M609 561 C609 561 441 561 441 561 C441 561 444 546 444 546 C444 546 451 546 451 546 C487 546 500 548 500 486 C500 486 500 289 500 289 C500 289 213 289 213 289 C213 289 213 486 213 486 C213 548 226 546 262 546 C262 546 269 546 269 546 C270 551 272 555 272 561 C272 561 104 561 104 561 C105 555 107 551 107 546 C107 546 114 546 114 546 C150 546 163 548 163 486 C163 486 163 75 163 75 C163 13 150 15 114 15 C114 15 107 15 107 15 C107 14 104 0 104 0 C104 0 272 0 272 0 C272 0 269 15 269 15 C269 15 262 15 262 15 C226 15 213 13 213 75 C213 75 213 284 213 284 C213 284 500 284 500 284 C500 284 500 75 500 75 C500 13 487 15 451 15 C451 15 444 15 444 15 C443 10 441 6 441 0 C441 0 609 0 609 0 C609 0 606 15 606 15 C606 15 599 15 599 15 C563 15 550 13 550 75 C550 75 550 486 550 486 C550 548 563 546 599 546 C599 546 606 546 606 546 C607 551 609 555 609 561 L609 561 Z " />
<glyph glyph-name="LETTERSMALLCAPITALL" unicode="&#x29f;" horiz-adv-x="472" d="M428 7 C437 38 444 69 453 100 C449 99 438 97 437 96 C418 31 424 9 252 9 C196 9 186 19 185 43 C185 43 185 69 185 69 C185 69 185 80 185 80 C185 80 185 481 185 481 C185 548 198 546 234 546 C234 546 241 546 241 546 C241 547 244 561 244 561 C244 561 185 561 185 561 C185 561 134 561 134 561 C134 561 75 561 75 561 C76 558 78 547 79 546 C79 546 85 546 85 546 C121 546 134 548 134 481 C134 481 134 80 134 80 C134 13 121 15 85 15 C85 15 79 15 79 15 C79 12 76 1 75 0 C75 0 134 0 134 0 C134 0 185 0 185 0 C185 0 246 0 246 0 C246 0 426 0 426 0 C426 0 428 7 428 7 L428 7 Z " />
<glyph glyph-name="LETTERSMALLCAPITALA" unicode="&#x1d00;" horiz-adv-x="567" d="M376 0 C376 0 450 0 450 0 C450 0 503 0 503 0 C503 0 550 0 550 0 C549 3 548 14 548 15 C548 15 526 15 526 15 C508 15 500 13 474 88 C474 88 321 549 321 549 C321 549 311 581 311 581 C311 581 305 581 305 581 C290 559 281 551 271 549 C271 549 274 539 274 539 C274 539 274 539 274 539 C274 539 147 165 147 165 C147 165 147 165 147 165 C147 164 146 163 146 162 C146 162 136 133 136 133 C94 12 80 15 46 15 C46 15 24 15 24 15 C23 11 22 1 22 0 C22 0 91 0 91 0 C91 0 96 0 96 0 C96 0 186 0 186 0 C185 3 184 14 184 15 C184 15 164 15 164 15 C118 15 100 11 152 165 C152 165 151 165 151 165 C151 165 173 229 173 229 C173 229 375 229 375 229 C375 229 408 129 408 129 C446 12 431 15 398 15 C398 15 378 15 378 15 C377 11 376 1 376 0 C376 0 376 0 376 0 L376 0 Z M174 233 C174 233 276 535 276 535 C276 535 374 233 374 233 C374 233 174 233 174 233 L174 233 Z " />
<glyph glyph-name="LETTERSMALLCAPITALC" unicode="&#x1d04;" horiz-adv-x="607" d="M477 532 C477 532 476 533 476 533 C445 560 405 571 332 571 C134 571 63 494 63 281 C63 67 132 -10 323 -10 C416 -10 470 -5 502 8 C502 8 503 8 503 8 C503 8 503 8 504 9 C515 13 524 19 531 25 C535 28 541 31 546 34 C552 38 554 34 554 19 C554 19 561 15 561 15 C561 15 561 82 561 82 C561 82 561 135 561 135 C561 135 551 132 551 132 C524 73 491 11 465 5 C465 5 467 5 467 5 C436 -3 392 -6 325 -6 C173 -6 118 70 118 281 C118 491 175 567 334 567 C374 567 403 562 426 552 C426 552 425 552 425 552 C460 537 505 456 545 364 C549 356 550 353 550 353 C551 352 553 353 561 350 C561 350 561 407 561 407 C561 407 561 471 561 471 C545 465 552 473 545 453 C547 461 530 484 477 532 C477 532 477 532 477 532 L477 532 Z " />
<glyph glyph-name="LETTERSMALLCAPITALD" unicode="&#x1d05;" horiz-adv-x="679" d="M68 0 C68 0 127 0 127 0 C127 0 177 0 177 0 C177 0 228 0 228 0 C520 0 625 54 625 281 C625 487 554 561 253 561 C253 561 177 561 177 561 C177 561 127 561 127 561 C127 561 68 561 68 561 C69 555 71 551 71 546 C71 546 78 546 78 546 C114 546 127 548 127 481 C127 481 127 80 127 80 C127 13 114 15 78 15 C78 15 71 15 71 15 C71 14 68 0 68 0 L68 0 Z M177 558 C177 558 241 558 241 558 C506 558 569 484 569 281 C569 56 477 3 223 3 C185 3 178 13 177 39 C177 39 177 69 177 69 C177 69 177 80 177 80 C177 80 177 481 177 481 C177 481 177 558 177 558 L177 558 Z " />
<glyph glyph-name="LETTERSMALLCAPITALE" unicode="&#x1d07;" horiz-adv-x="496" d="M419 487 C417 513 416 537 414 561 C414 561 299 561 299 561 C299 561 177 561 177 561 C177 561 127 561 127 561 C127 561 68 561 68 561 C69 555 71 551 71 546 C71 546 78 546 78 546 C114 546 127 548 127 481 C127 481 127 80 127 80 C127 13 114 15 78 15 C78 15 71 15 71 15 C71 14 68 0 68 0 C68 0 127 0 127 0 C127 0 177 0 177 0 C177 0 324 0 324 0 C324 0 439 0 439 0 C443 25 445 49 450 74 C448 74 435 71 434 70 C427 20 432 3 324 3 C324 3 247 3 247 3 C188 3 178 14 177 40 C177 40 177 69 177 69 C177 69 177 80 177 80 C177 80 177 300 177 300 C177 300 239 300 239 300 C342 300 339 282 339 233 C339 233 339 226 339 226 C339 226 353 222 354 221 C354 221 354 300 354 300 C354 300 354 304 354 304 C354 304 354 383 354 383 C347 381 340 379 339 379 C339 379 339 372 339 372 C339 322 342 304 239 304 C239 304 177 304 177 304 C177 304 177 481 177 481 C177 481 177 558 177 558 C177 558 299 558 299 558 C429 558 397 542 404 491 C407 490 418 488 419 487 L419 487 Z " />
<glyph glyph-name="LETTERSMALLCAPITALJ" unicode="&#x1d0a;" horiz-adv-x="299" d="M244 561 C244 561 75 561 75 561 C76 558 78 547 79 546 C79 546 85 546 85 546 C121 546 134 548 134 486 C134 486 134 -26 134 -26 C134 -219 83 -214 30 -214 C-2 -214 22 -172 -10 -172 C-28 -172 -34 -178 -34 -196 C-34 -214 -18 -220 26 -220 C108 -220 185 -228 185 70 C185 70 185 486 185 486 C185 548 198 546 234 546 C234 546 241 546 241 546 C241 547 244 561 244 561 L244 561 Z " />
<glyph glyph-name="LETTERSMALLCAPITALK" unicode="&#x1d0b;" horiz-adv-x="550" d="M527 15 C527 15 503 15 503 15 C490 15 465 37 431 72 C431 72 215 313 215 313 C215 313 333 455 333 455 C333 455 334 456 334 456 C337 460 340 464 343 468 C343 468 376 507 376 507 C412 548 419 546 437 546 C437 546 459 546 459 546 C460 550 461 560 461 561 C461 561 421 561 421 561 C421 561 403 561 403 561 C403 561 326 561 326 561 C327 558 328 547 328 546 C328 546 346 546 346 546 C378 546 393 549 294 426 C294 426 294 426 294 426 C294 426 177 281 177 281 C177 281 177 501 177 501 C177 547 190 546 226 546 C226 546 233 546 233 546 C234 551 236 555 236 561 C236 561 177 561 177 561 C177 561 127 561 127 561 C127 561 68 561 68 561 C69 555 71 551 71 546 C71 546 78 546 78 546 C114 546 127 547 127 501 C127 501 127 60 127 60 C127 14 114 15 78 15 C78 15 71 15 71 15 C71 14 68 0 68 0 C68 0 127 0 127 0 C127 0 177 0 177 0 C177 0 236 0 236 0 C236 0 233 15 233 15 C233 15 226 15 226 15 C190 15 177 14 177 60 C177 60 177 281 177 281 C177 281 362 80 362 80 C362 80 362 80 362 80 C446 -11 436 0 436 0 C436 0 496 0 496 0 C496 0 529 0 529 0 C528 3 527 14 527 15 C527 15 527 15 527 15 L527 15 Z " />
<glyph glyph-name="LETTERSMALLCAPITALM" unicode="&#x1d0d;" horiz-adv-x="703" d="M56 546 C56 546 78 546 78 546 C98 546 107 547 124 515 C124 515 109 101 109 101 C103 12 90 15 61 15 C61 15 39 15 39 15 C38 11 37 1 37 0 C37 0 105 0 105 0 C105 0 123 0 123 0 C123 0 191 0 191 0 C190 3 189 14 189 15 C189 15 168 15 168 15 C134 15 122 12 127 135 C127 135 127 135 127 135 C127 135 137 489 137 489 C209 326 281 163 354 0 C354 0 367 0 367 0 C367 0 567 520 567 520 C567 520 582 80 582 80 C582 80 582 80 582 80 C585 13 571 15 533 15 C533 15 526 15 526 15 C526 14 523 0 523 0 C523 0 585 0 585 0 C585 0 635 0 635 0 C635 0 691 0 691 0 C691 0 688 15 688 15 C688 15 681 15 681 15 C647 15 634 13 632 80 C632 80 632 80 632 80 C632 80 619 398 619 398 C619 398 620 396 620 396 C615 550 624 546 648 546 C648 546 669 546 669 546 C670 550 671 560 671 561 C671 561 613 561 613 561 C613 561 583 561 583 561 C583 561 566 561 566 561 C566 561 380 69 380 69 C380 69 380 69 380 69 C380 69 166 561 166 561 C166 561 139 561 139 561 C139 561 126 561 126 561 C126 561 105 561 105 561 C105 561 54 561 54 561 C55 558 56 547 56 546 C56 546 56 546 56 546 L56 546 Z " />
<glyph glyph-name="LETTERSMALLCAPITALO" unicode="&#x1d0f;" horiz-adv-x="708" d="M344 -6 C179 -6 120 70 120 281 C120 491 182 567 352 567 C531 567 596 491 596 281 C596 70 529 -6 344 -6 L344 -6 Z M63 281 C63 67 137 -10 343 -10 C571 -10 653 67 653 281 C653 494 573 571 353 571 C140 571 63 494 63 281 L63 281 Z " />
<glyph glyph-name="LETTERSMALLCAPITALP" unicode="&#x1d18;" horiz-adv-x="421" d="M84 546 C84 546 91 546 91 546 C127 546 140 548 140 481 C140 481 140 80 140 80 C140 13 127 15 91 15 C91 15 84 15 84 15 C84 12 81 1 80 0 C80 0 140 0 140 0 C140 0 190 0 190 0 C190 0 249 0 249 0 C248 6 246 10 246 15 C246 15 239 15 239 15 C203 15 190 13 190 80 C190 80 190 262 190 262 C190 262 222 262 222 262 C354 262 402 284 402 404 C402 519 363 561 253 561 C253 561 190 561 190 561 C190 561 140 561 140 561 C140 561 80 561 80 561 C81 558 83 547 84 546 L84 546 Z M190 273 C190 273 190 481 190 481 C190 481 190 552 190 552 C190 552 241 552 241 552 C324 552 354 515 354 412 C354 295 319 273 222 273 C222 273 190 273 190 273 L190 273 Z " />
<glyph glyph-name="LETTERSMALLCAPITALT" unicode="&#x1d1b;" horiz-adv-x="701" d="M88 596 C88 596 80 596 80 596 C75 597 73 597 73 597 C68 585 64 573 59 561 C59 561 55 561 55 561 C55 561 55 550 55 550 C48 530 41 510 34 490 C41 491 44 493 50 493 C50 493 53 499 53 499 C65 535 67 548 170 548 C170 548 326 548 326 548 C326 548 326 75 326 75 C326 13 313 15 277 15 C277 15 270 15 270 15 C269 10 267 6 267 0 C267 0 435 0 435 0 C435 0 432 15 432 15 C432 15 425 15 425 15 C389 15 376 13 376 75 C376 75 376 548 376 548 C376 548 532 548 532 548 C635 548 637 535 649 499 C649 499 652 493 652 493 C652 493 668 490 668 490 C661 510 654 530 647 550 C647 550 647 561 647 561 C647 561 643 561 643 561 C638 573 634 585 629 597 C629 597 627 597 622 596 C622 596 614 596 614 596 C626 568 636 561 527 561 C527 561 376 561 376 561 C376 561 326 561 326 561 C326 561 175 561 175 561 C66 561 76 568 88 596 C88 596 88 596 88 596 L88 596 Z " />
<glyph glyph-name="LETTERSMALLCAPITALU" unicode="&#x1d1c;" horiz-adv-x="533" d="M342 546 C342 546 349 546 349 546 C385 546 398 548 398 481 C398 481 398 152 398 152 C354 56 302 22 203 22 C158 22 142 69 142 199 C142 199 142 481 142 481 C142 481 142 561 142 561 C142 561 33 561 33 561 C34 555 36 551 36 546 C36 546 43 546 43 546 C79 546 92 548 92 481 C92 481 92 199 92 199 C92 45 116 -10 183 -10 C293 -10 350 27 398 129 C398 129 398 105 398 105 C398 105 398 0 398 0 C398 0 406 0 406 0 C406 0 504 53 504 53 C504 53 504 60 504 60 C447 57 449 54 449 105 C449 105 449 481 449 481 C449 481 449 561 449 561 C449 561 339 561 339 561 C340 555 342 551 342 546 L342 546 Z " />
<glyph glyph-name="LETTERSMALLCAPITALV" unicode="&#x1d20;" horiz-adv-x="596" d="M203 561 C203 561 113 561 113 561 C113 561 55 561 55 561 C55 561 25 561 25 561 C26 558 27 547 27 546 C27 546 49 546 49 546 C56 546 59 547 68 528 C68 528 243 78 243 78 C243 78 278 -10 278 -10 C278 -10 288 -10 288 -10 C288 -10 499 504 499 504 C519 548 528 546 544 546 C544 546 566 546 566 546 C567 550 568 560 568 561 C568 561 522 561 522 561 C522 561 502 561 502 561 C502 561 412 561 412 561 C413 558 414 547 414 546 C414 546 433 546 433 546 C479 546 497 549 449 426 C449 426 449 426 449 426 C449 426 278 -10 278 -10 C278 -10 312 78 312 78 C312 78 168 427 168 427 C168 427 169 426 169 426 C121 549 138 546 181 546 C181 546 201 546 201 546 C202 550 203 560 203 561 C203 561 203 561 203 561 L203 561 Z " />
<glyph glyph-name="LETTERSMALLCAPITALW" unicode="&#x1d21;" horiz-adv-x="846" d="M820 561 C820 561 772 561 772 561 C772 561 752 561 752 561 C752 561 662 561 662 561 C663 558 664 547 664 546 C664 546 684 546 684 546 C730 546 748 549 708 426 C708 426 708 426 708 426 C708 426 593 73 593 73 C593 73 593 73 593 73 C593 73 463 456 463 456 C463 456 464 456 464 456 C432 549 447 546 485 546 C485 546 505 546 505 546 C506 550 507 560 507 561 C507 561 428 561 428 561 C428 561 370 561 370 561 C370 561 322 561 322 561 C323 558 324 547 324 546 C324 546 346 546 346 546 C365 546 374 547 386 514 C402 468 418 421 434 374 C434 374 434 374 434 374 C434 374 293 64 293 64 C293 64 160 426 160 426 C160 426 161 426 161 426 C117 549 131 546 169 546 C169 546 188 546 188 546 C189 550 190 560 190 561 C190 561 111 561 111 561 C111 561 56 561 56 561 C56 561 25 561 25 561 C26 558 27 547 27 546 C27 546 49 546 49 546 C58 546 60 549 104 426 C104 426 104 426 104 426 C156 281 208 136 259 -10 C259 -10 272 -10 272 -10 C272 -10 442 352 442 352 C483 232 525 111 566 -10 C566 -10 579 -10 579 -10 C579 -10 726 426 726 426 C726 426 727 426 727 426 C767 549 774 546 796 546 C796 546 818 546 818 546 C819 550 820 560 820 561 C820 561 820 561 820 561 L820 561 Z " />
<glyph glyph-name="LETTERSMALLCAPITALZ" unicode="&#x1d22;" horiz-adv-x="564" d="M80 0 C80 0 378 0 378 0 C378 0 533 0 533 0 C542 34 549 67 558 100 C550 99 557 99 542 97 C542 97 531 73 531 73 C515 36 509 19 427 15 C427 15 90 12 90 12 C90 12 537 550 537 550 C537 550 537 561 537 561 C537 561 488 561 488 561 C488 561 235 561 235 561 C235 561 70 561 70 561 C65 525 61 491 55 454 C63 455 67 457 75 457 C75 457 79 473 79 473 C90 521 93 542 187 547 C187 547 478 549 478 549 C478 549 25 11 25 11 C25 11 25 0 25 0 C25 0 80 0 80 0 L80 0 Z " />
<glyph glyph-name="Wgrave" unicode="&#x1e80;" horiz-adv-x="962" d="M935 728 C935 728 887 728 887 728 C887 728 865 728 865 728 C865 728 775 728 775 728 C776 724 777 713 777 712 C777 712 797 712 797 712 C842 712 860 715 829 602 C829 602 679 80 679 80 C679 80 679 81 679 81 C679 81 508 658 508 658 C494 714 510 712 544 712 C544 712 564 712 564 712 C565 716 566 727 566 728 C566 728 487 728 487 728 C487 728 422 728 422 728 C422 728 375 728 375 728 C376 724 377 713 377 712 C377 712 398 712 398 712 C416 712 425 713 435 686 C456 619 477 552 498 485 C498 485 323 66 323 66 C323 66 324 71 324 71 C324 71 150 620 150 620 C122 715 137 712 173 712 C173 712 193 712 193 712 C194 716 195 727 195 728 C195 728 116 728 116 728 C116 728 54 728 54 728 C54 728 23 728 23 728 C24 724 25 713 25 712 C25 712 47 712 47 712 C55 712 57 714 84 634 C153 419 222 205 291 -10 C291 -10 305 -10 305 -10 C305 -10 506 458 506 458 C555 302 604 145 653 -10 C653 -10 668 -10 668 -10 C668 -10 847 592 847 592 C847 592 847 592 847 592 C883 715 890 712 912 712 C912 712 933 712 933 712 C934 716 935 727 935 728 C935 728 935 728 935 728 L935 728 Z M358 937 C313 988 296 1007 290 1007 C273 1007 265 999 265 982 C265 976 284 959 335 914 C335 914 474 791 474 791 C474 791 481 797 481 797 C481 797 358 937 358 937 L358 937 Z " />
<glyph glyph-name="Wacute" unicode="&#x1e82;" horiz-adv-x="962" d="M477 791 C477 791 617 914 617 914 C668 960 687 978 687 982 C687 999 678 1007 662 1007 C658 1007 640 988 594 937 C594 937 471 797 471 797 C471 797 477 791 477 791 L477 791 Z M935 728 C935 728 887 728 887 728 C887 728 865 728 865 728 C865 728 775 728 775 728 C776 724 777 713 777 712 C777 712 797 712 797 712 C842 712 860 715 829 602 C829 602 679 80 679 80 C679 80 679 81 679 81 C679 81 508 658 508 658 C494 714 510 712 544 712 C544 712 564 712 564 712 C565 716 566 727 566 728 C566 728 487 728 487 728 C487 728 422 728 422 728 C422 728 375 728 375 728 C376 724 377 713 377 712 C377 712 398 712 398 712 C416 712 425 713 435 686 C456 619 477 552 498 485 C498 485 323 66 323 66 C323 66 324 71 324 71 C324 71 150 620 150 620 C122 715 137 712 173 712 C173 712 193 712 193 712 C194 716 195 727 195 728 C195 728 116 728 116 728 C116 728 54 728 54 728 C54 728 23 728 23 728 C24 724 25 713 25 712 C25 712 47 712 47 712 C55 712 57 714 84 634 C153 419 222 205 291 -10 C291 -10 305 -10 305 -10 C305 -10 506 458 506 458 C555 302 604 145 653 -10 C653 -10 668 -10 668 -10 C668 -10 847 592 847 592 C847 592 847 592 847 592 C883 715 890 712 912 712 C912 712 933 712 933 712 C934 716 935 727 935 728 C935 728 935 728 935 728 L935 728 Z " />
<glyph glyph-name="Wdieresis" unicode="&#x1e84;" horiz-adv-x="962" d="M539 843 C562 843 571 851 571 875 C571 899 562 907 539 907 C515 907 507 899 507 875 C507 851 515 843 539 843 L539 843 Z M403 843 C426 843 435 851 435 875 C435 899 426 907 403 907 C379 907 371 899 371 875 C371 851 379 843 403 843 L403 843 Z M935 728 C935 728 887 728 887 728 C887 728 865 728 865 728 C865 728 775 728 775 728 C776 724 777 713 777 712 C777 712 797 712 797 712 C842 712 860 715 829 602 C829 602 679 80 679 80 C679 80 679 81 679 81 C679 81 508 658 508 658 C494 714 510 712 544 712 C544 712 564 712 564 712 C565 716 566 727 566 728 C566 728 487 728 487 728 C487 728 422 728 422 728 C422 728 375 728 375 728 C376 724 377 713 377 712 C377 712 398 712 398 712 C416 712 425 713 435 686 C456 619 477 552 498 485 C498 485 323 66 323 66 C323 66 324 71 324 71 C324 71 150 620 150 620 C122 715 137 712 173 712 C173 712 193 712 193 712 C194 716 195 727 195 728 C195 728 116 728 116 728 C116 728 54 728 54 728 C54 728 23 728 23 728 C24 724 25 713 25 712 C25 712 47 712 47 712 C55 712 57 714 84 634 C153 419 222 205 291 -10 C291 -10 305 -10 305 -10 C305 -10 506 458 506 458 C555 302 604 145 653 -10 C653 -10 668 -10 668 -10 C668 -10 847 592 847 592 C847 592 847 592 847 592 C883 715 890 712 912 712 C912 712 933 712 933 712 C934 716 935 727 935 728 C935 728 935 728 935 728 L935 728 Z " />
<glyph glyph-name="CapitalLetterEWITHTI" unicode="&#x1ebc;" horiz-adv-x="555" d="M169 848 C169 896 180 914 211 914 C280 914 304 849 373 849 C416 849 432 874 432 944 C432 944 429 944 429 944 C429 900 417 884 385 884 C316 884 292 949 222 949 C181 949 166 922 166 848 C166 848 169 848 169 848 L169 848 Z M478 653 C477 667 476 677 475 691 C475 704 474 714 473 728 C473 728 357 728 357 728 C357 728 182 728 182 728 C182 728 126 728 126 728 C126 728 67 728 67 728 C67 728 70 712 70 712 C70 712 77 712 77 712 C113 712 126 714 126 647 C126 647 126 80 126 80 C126 13 113 15 77 15 C77 15 70 15 70 15 C69 10 67 6 67 0 C67 0 126 0 126 0 C126 0 182 0 182 0 C182 0 382 0 382 0 C382 0 498 0 498 0 C502 25 504 50 508 74 C504 73 493 71 492 70 C485 21 490 4 383 4 C383 4 251 4 251 4 C193 4 183 14 182 40 C182 40 182 69 182 69 C182 69 182 80 182 80 C182 80 182 389 182 389 C182 389 297 389 297 389 C400 389 397 371 397 322 C397 322 397 315 397 315 C403 313 407 313 413 310 C413 310 413 389 413 389 C413 389 413 394 413 394 C413 394 413 472 413 472 C409 471 398 469 397 468 C397 468 397 461 397 461 C397 412 400 394 297 394 C297 394 182 394 182 394 C182 394 182 647 182 647 C182 647 182 724 182 724 C182 724 358 724 358 724 C481 724 458 708 462 664 C462 664 462 657 462 657 C466 656 477 654 478 653 L478 653 Z " />
<glyph glyph-name="Ygrave" unicode="&#x1ef2;" horiz-adv-x="609" d="M172 728 C172 728 114 728 114 728 C114 728 48 728 48 728 C48 728 20 728 20 728 C21 724 22 713 22 712 C22 712 45 712 45 712 C53 712 55 715 110 619 C110 619 282 319 282 319 C282 319 282 75 282 75 C282 13 269 15 233 15 C233 15 226 15 226 15 C225 10 223 6 223 0 C223 0 397 0 397 0 C396 6 394 10 394 15 C394 15 387 15 387 15 C351 15 338 13 338 75 C338 75 338 327 338 327 C338 327 478 593 478 593 C478 593 478 592 478 592 C543 715 547 712 564 712 C564 712 587 712 587 712 C588 716 589 727 589 728 C589 728 549 728 549 728 C549 728 540 728 540 728 C540 728 482 728 482 728 C483 724 484 713 484 712 C484 712 503 712 503 712 C519 712 529 714 511 673 C511 673 336 334 336 334 C336 334 159 648 159 648 C124 714 134 712 152 712 C152 712 170 712 170 712 C171 716 172 727 172 728 C172 728 172 728 172 728 L172 728 Z M197 937 C153 988 136 1007 129 1007 C112 1007 104 999 104 982 C104 976 123 959 174 914 C174 914 313 791 313 791 C313 791 320 797 320 797 C320 797 197 937 197 937 L197 937 Z " />
<glyph glyph-name="quoteleft" unicode="&#x2018;" horiz-adv-x="453" d="" />
<glyph glyph-name="quoteright" unicode="&#x2019;" horiz-adv-x="36" d="" />
<glyph glyph-name="quotedblleft" unicode="&#x201c;" horiz-adv-x="453" d="M151 618 C145 618 140 617 137 614 C137 614 137 614 137 614 C137 663 151 693 191 726 C191 726 181 738 181 738 C138 701 122 666 122 604 C122 580 130 571 151 571 C169 571 175 577 175 594 C175 612 169 618 151 618 L151 618 Z " />
<glyph glyph-name="quotedblright" unicode="&#x201d;" horiz-adv-x="453" d="M165 695 C165 632 155 602 132 581 C132 581 143 571 143 571 C171 594 181 630 181 709 C181 730 173 738 151 738 C134 738 128 732 128 714 C128 697 134 691 151 691 C157 691 162 692 165 695 C165 695 165 695 165 695 L165 695 Z " />
<glyph glyph-name="Euro" unicode="&#x20ac;" horiz-adv-x="729" d="M684 42 C684 42 684 110 684 110 C684 110 684 163 684 163 C682 162 675 161 674 161 C646 98 612 28 598 18 C564 1 508 -6 412 -6 C250 -6 184 77 174 303 C174 303 468 303 468 303 C468 303 473 339 473 339 C473 339 173 339 173 339 C173 347 173 355 173 364 C173 373 173 381 173 389 C173 389 473 389 473 389 C473 389 478 425 478 425 C478 425 174 425 174 425 C184 650 253 733 422 733 C482 733 520 724 551 702 C551 702 548 703 548 703 C581 680 627 596 668 503 C672 494 673 491 673 491 C674 491 675 491 684 489 C684 489 684 546 684 546 C684 546 684 611 684 611 C668 605 675 611 668 592 C669 597 653 619 607 669 C567 718 522 738 420 738 C212 738 126 654 114 425 C114 425 60 425 60 425 C60 425 55 389 55 389 C55 389 112 389 112 389 C112 381 112 373 112 364 C112 355 112 347 112 339 C112 339 55 339 55 339 C55 339 50 303 50 303 C50 303 113 303 113 303 C125 74 208 -10 410 -10 C534 -10 595 0 631 23 C631 23 631 23 631 23 C631 23 631 23 631 23 C643 31 652 41 659 52 C662 55 666 58 669 62 C675 68 677 64 677 46 C679 45 684 42 684 42 C684 42 684 42 684 42 L684 42 Z " />
<glyph glyph-name="LETTERSMALLCAPITALF" unicode="&#xa730;" horiz-adv-x="471" d="M421 489 C417 513 416 536 414 561 C414 561 299 561 299 561 C299 561 177 561 177 561 C177 561 127 561 127 561 C127 561 68 561 68 561 C69 555 71 551 71 546 C71 546 78 546 78 546 C114 546 127 548 127 481 C127 481 127 80 127 80 C127 13 114 15 78 15 C78 15 71 15 71 15 C71 14 68 0 68 0 C68 0 127 0 127 0 C127 0 177 0 177 0 C177 0 236 0 236 0 C236 0 233 15 233 15 C233 15 226 15 226 15 C190 15 177 13 177 80 C177 80 177 296 177 296 C177 296 294 296 294 296 C328 290 328 275 332 248 C332 248 335 223 335 223 C337 222 343 219 344 219 C344 219 344 296 344 296 C344 296 344 300 344 300 C344 300 344 378 344 378 C342 377 337 374 335 374 C335 374 332 349 332 349 C328 313 329 300 229 300 C229 300 177 300 177 300 C177 300 177 481 177 481 C177 481 177 558 177 558 C177 558 219 558 219 558 C412 558 398 543 405 492 C405 492 419 489 421 489 C421 489 421 489 421 489 L421 489 Z " />
<glyph glyph-name="LETTERSMALLCAPITALS" unicode="&#xa731;" horiz-adv-x="471" d="M324 552 C324 552 323 552 323 552 C296 565 261 571 215 571 C111 571 74 534 74 432 C74 359 107 318 245 254 C363 200 391 169 391 119 C391 28 356 -5 260 -5 C225 -5 196 -1 172 8 C135 26 98 84 69 151 C65 160 64 163 64 163 C52 165 54 165 53 165 C53 165 53 111 53 111 C53 111 53 29 53 29 C68 33 63 30 69 53 C69 51 88 39 138 13 C138 13 139 13 139 13 C170 -3 209 -10 260 -10 C386 -10 431 28 431 134 C431 208 401 249 275 307 C144 367 113 400 113 451 C113 536 140 567 215 567 C228 567 241 565 252 562 C252 562 215 567 215 567 C245 567 270 564 291 557 C291 557 252 562 252 562 C307 546 347 498 373 440 C377 431 378 428 378 428 C379 428 386 426 388 426 C388 426 388 480 388 480 C388 480 388 545 388 545 C374 542 379 545 373 526 C373 527 360 534 324 552 C324 552 324 552 324 552 L324 552 Z " />
<glyph glyph-name="[namenotfound]" unicode="&#xf078;" horiz-adv-x="587" d="M562 561 C562 561 527 561 527 561 C527 561 504 561 504 561 C504 561 430 561 430 561 C431 558 432 547 432 546 C432 546 450 546 450 546 C482 546 496 550 401 416 C401 416 401 414 401 414 C401 414 324 306 324 306 C324 306 244 426 244 426 C162 549 174 546 203 546 C203 546 221 546 221 546 C222 550 223 560 223 561 C223 561 154 561 154 561 C154 561 95 561 95 561 C95 561 63 561 63 561 C64 558 65 547 65 546 C65 546 87 546 87 546 C99 546 102 548 161 461 C161 461 288 270 288 270 C288 270 152 89 152 89 C93 13 85 15 62 15 C62 15 40 15 40 15 C39 11 38 1 38 0 C38 0 85 0 85 0 C85 0 105 0 105 0 C105 0 205 0 205 0 C204 3 203 14 203 15 C203 15 185 15 185 15 C139 15 116 12 173 93 C173 93 203 134 203 134 C205 137 208 141 211 145 C211 145 210 144 210 144 C210 144 295 260 295 260 C295 260 378 135 378 135 C378 135 378 135 378 135 C460 12 448 15 420 15 C420 15 402 15 402 15 C401 11 400 1 400 0 C400 0 468 0 468 0 C468 0 528 0 528 0 C528 0 565 0 565 0 C564 3 563 14 563 15 C563 15 541 15 541 15 C524 15 520 12 438 135 C438 135 327 302 327 302 C327 302 507 535 507 535 C520 547 528 546 538 546 C538 546 560 546 560 546 C561 550 562 560 562 561 C562 561 562 561 562 561 L562 561 Z " />
</font>
</svg>
