<?xml version="1.0" encoding="UTF-8"?>
<svg xmlns="http://www.w3.org/2000/svg" xmlns:xlink="http://www.w3.org/1999/xlink" version="1.2" >
<font id="Myron Medium">
<font-face  font-family="Myron" units-per-em="1024" ascent="945" descent="-300" font-style="normal" font-weight="500" font-stretch="normal" cap-height="728" x-height="478" underline-position="0" underline-thickness="0" />
<missing-glyph  horiz-adv-x="472" d="M0 700 C0 700 432 700 432 700 C432 700 432 0 432 0 C432 0 0 0 0 0 C0 0 0 700 0 700 L0 700 Z M50 50 C50 50 382 50 382 50 C382 50 382 650 382 650 C382 650 50 650 50 650 C50 650 50 50 50 50 L50 50 Z " />
<glyph glyph-name="NULL" d="" />
<glyph glyph-name="CR" unicode="&#xd;" horiz-adv-x="256" d="" />
<glyph glyph-name="space" unicode="&#x20;" horiz-adv-x="226" d="" />
<glyph glyph-name="exclam" unicode="&#x21;" horiz-adv-x="225" d="M113 -5 C149 -5 162 8 162 44 C162 81 149 94 113 94 C76 94 63 81 63 44 C63 8 76 -5 113 -5 L113 -5 Z M113 733 C64 733 64 707 70 637 C70 637 106 201 106 201 C106 201 119 201 119 201 C119 201 156 637 156 637 C162 707 162 733 113 733 L113 733 Z " />
<glyph glyph-name="quotedbl" unicode="&#x22;" horiz-adv-x="306" d="M719 728 C692 728 693 716 699 683 C699 683 724 538 724 538 C724 538 732 538 732 538 C732 538 757 683 757 683 C762 716 763 728 736 728 C736 728 719 728 719 728 L719 728 Z " />
<glyph glyph-name="numbersign" unicode="&#x23;" horiz-adv-x="503" d="M370 651 C370 651 343 465 343 465 C343 465 204 465 204 465 C204 465 231 651 231 651 C231 651 222 651 222 651 C222 651 195 465 195 465 C195 465 63 465 63 465 C63 465 55 411 55 411 C55 411 187 411 187 411 C187 411 160 227 160 227 C160 227 26 227 26 227 C26 227 18 173 18 173 C18 173 152 173 152 173 C152 173 127 0 127 0 C127 0 136 0 136 0 C136 0 161 173 161 173 C161 173 300 173 300 173 C300 173 275 0 275 0 C275 0 284 0 284 0 C284 0 309 173 309 173 C309 173 433 173 433 173 C433 173 441 227 441 227 C441 227 317 227 317 227 C317 227 344 411 344 411 C344 411 476 411 476 411 C476 411 484 465 484 465 C484 465 352 465 352 465 C352 465 379 651 379 651 C379 651 370 651 370 651 L370 651 Z M196 411 C196 411 335 411 335 411 C335 411 308 227 308 227 C308 227 169 227 169 227 C169 227 196 411 196 411 L196 411 Z " />
<glyph glyph-name="dollar" unicode="&#x24;" horiz-adv-x="529" d="M292 727 C292 727 292 411 292 411 C271 420 253 429 237 438 C237 438 237 731 237 731 C239 731 242 731 244 731 C258 731 270 730 282 729 C284 729 285 729 286 728 C288 728 290 728 292 727 C297 726 302 725 306 723 C306 723 292 727 292 727 C292 727 292 727 292 727 L292 727 Z M292 803 C292 803 292 736 292 736 C277 737 261 738 244 738 C242 738 239 738 237 738 C237 738 237 803 237 803 C237 803 212 803 212 803 C212 803 212 737 212 737 C107 729 69 677 69 552 C69 456 98 402 212 345 C212 345 212 7 212 7 C199 11 187 17 175 24 C138 48 98 115 67 187 C63 196 62 199 62 199 C50 201 52 201 51 201 C51 201 51 143 51 143 C51 143 51 61 51 61 C67 69 60 61 67 85 C67 82 85 68 133 32 C155 15 181 3 212 -3 C212 -3 212 -75 212 -75 C212 -75 237 -75 237 -75 C237 -75 237 -7 237 -7 C252 -9 268 -10 285 -10 C287 -10 290 -10 292 -10 C292 -10 292 -75 292 -75 C292 -75 317 -75 317 -75 C317 -75 317 -9 317 -9 C443 -2 489 52 489 183 C489 288 455 341 317 400 C317 400 317 719 317 719 C366 696 405 642 433 579 C437 571 438 568 438 568 C443 567 439 567 448 565 C448 565 448 624 448 624 C448 624 448 688 448 688 C448 688 447 688 443 687 C434 683 439 687 433 670 C433 670 421 680 387 704 C387 704 386 704 386 704 C367 718 344 727 317 732 C317 732 317 803 317 803 C317 803 292 803 292 803 L292 803 Z M317 721 C317 721 317 722 317 722 C321 721 324 719 328 718 C328 718 317 721 317 721 L317 721 Z M237 334 C245 330 253 327 261 323 C272 318 282 314 292 309 C292 309 292 -2 292 -2 C290 -2 287 -2 285 -2 C268 -2 252 -1 237 2 C237 2 237 334 237 334 L237 334 Z M317 297 C404 253 427 217 427 161 C427 54 397 8 317 0 C317 0 317 297 317 297 L317 297 Z M212 452 C148 491 130 528 130 582 C130 677 152 719 212 729 C212 729 212 452 212 452 L212 452 Z " />
<glyph glyph-name="ampersand" unicode="&#x26;" horiz-adv-x="303" d="M310 472 C310 472 318 464 318 464 C437 500 480 539 480 612 C480 705 436 738 315 738 C193 738 149 702 149 601 C149 551 175 520 244 440 C97 394 44 330 44 200 C44 46 97 -10 245 -10 C361 -10 451 25 529 108 C529 108 541 94 541 94 C606 17 649 -10 700 -10 C784 -10 819 32 833 147 C833 147 821 151 821 151 C811 75 787 47 729 47 C689 47 655 69 603 130 C603 130 575 163 575 163 C629 239 678 342 727 478 C727 478 711 478 711 478 C663 345 614 248 559 181 C559 181 342 435 342 435 C331 448 320 461 310 472 C310 472 310 472 310 472 L310 472 Z M310 472 C237 556 210 587 210 638 C210 699 238 721 315 721 C394 721 423 693 423 616 C423 535 393 497 310 472 L310 472 Z M510 131 C447 78 375 55 286 55 C162 55 117 99 117 221 C117 344 152 402 250 434 C259 423 269 412 280 399 C280 399 510 131 510 131 L510 131 Z " />
<glyph glyph-name="quotesingle" unicode="&#x27;" horiz-adv-x="195" d="" />
<glyph glyph-name="parenleft" unicode="&#x28;" horiz-adv-x="410" d="M320 738 C140 617 75 491 75 262 C75 44 138 -83 313 -214 C313 -214 317 -206 317 -206 C176 -100 125 25 125 262 C125 507 178 631 324 730 C324 730 320 738 320 738 L320 738 Z " />
<glyph glyph-name="parenright" unicode="&#x29;" horiz-adv-x="410" d="M26 730 C172 634 225 510 225 262 C225 10 174 -114 33 -206 C33 -206 37 -214 37 -214 C212 -101 275 25 275 262 C275 495 210 621 30 738 C30 738 26 730 26 730 L26 730 Z " />
<glyph glyph-name="asterisk" unicode="&#x2a;" horiz-adv-x="284" d="M149 608 C149 608 35 566 35 566 C16 559 13 551 23 534 C32 518 41 516 57 529 C57 529 149 606 149 606 C149 606 129 488 129 488 C125 467 131 460 150 460 C169 460 175 467 171 488 C171 488 151 606 151 606 C151 606 243 529 243 529 C259 516 268 517 277 534 C287 550 284 559 265 566 C265 566 151 608 151 608 C151 608 265 649 265 649 C284 656 287 665 277 681 C268 698 259 699 243 686 C243 686 151 609 151 609 C151 609 171 728 171 728 C175 748 169 755 150 755 C131 755 125 748 129 728 C129 728 149 609 149 609 C149 609 57 686 57 686 C41 699 32 698 23 681 C13 665 16 656 35 649 C35 649 149 608 149 608 L149 608 Z " />
<glyph glyph-name="plus" unicode="&#x2b;" horiz-adv-x="601" d="M273 441 C273 441 273 265 273 265 C273 265 100 265 100 265 C100 265 100 215 100 215 C100 215 273 215 273 215 C273 215 273 40 273 40 C273 40 328 40 328 40 C328 40 328 215 328 215 C328 215 501 215 501 215 C501 215 501 265 501 265 C501 265 328 265 328 265 C328 265 328 441 328 441 C328 441 273 441 273 441 L273 441 Z " />
<glyph glyph-name="comma" unicode="&#x2c;" horiz-adv-x="259" d="M174 36 C175 25 176 13 176 -1 C176 -78 147 -106 65 -106 C65 -106 65 -111 65 -111 C156 -111 189 -79 189 11 C189 76 177 106 144 113 C139 114 132 115 125 115 C81 115 65 99 65 55 C65 11 81 -5 125 -5 C156 -5 170 6 174 36 L174 36 Z " />
<glyph glyph-name="hyphen" unicode="&#x2d;" horiz-adv-x="411" d="M80 256 C80 256 331 256 331 256 C331 256 331 311 331 311 C331 311 80 311 80 311 C80 311 80 256 80 256 L80 256 Z " />
<glyph glyph-name="period" unicode="&#x2e;" horiz-adv-x="195" d="M125 -5 C161 -5 174 8 174 44 C174 81 161 94 125 94 C89 94 76 81 76 44 C76 8 89 -5 125 -5 L125 -5 Z " />
<glyph glyph-name="slash" unicode="&#x2f;" horiz-adv-x="384" d="M313 748 C313 748 31 -80 31 -80 C31 -80 73 -80 73 -80 C73 -80 355 748 355 748 C355 748 313 748 313 748 L313 748 Z " />
<glyph glyph-name="zero" unicode="0" horiz-adv-x="585" d="M294 19 C152 19 80 77 80 239 C80 384 137 459 294 459 C436 459 508 401 508 239 C508 93 451 19 294 19 L294 19 Z M47 239 C47 56 131 -10 294 -10 C476 -10 541 74 541 239 C541 422 457 488 294 488 C112 488 47 404 47 239 L47 239 Z " />
<glyph glyph-name="one" unicode="1" horiz-adv-x="256" d="M220 478 C220 478 37 478 37 478 C37 478 40 462 40 462 C40 462 47 462 47 462 C81 462 93 462 93 447 C93 447 93 30 93 30 C93 15 81 15 47 15 C47 15 40 15 40 15 C39 10 37 6 37 0 C37 0 220 0 220 0 C220 2 217 9 217 15 C217 15 210 15 210 15 C175 15 163 15 163 30 C163 30 163 447 163 447 C163 462 175 462 210 462 C210 462 217 462 217 462 C218 466 218 474 220 478 L220 478 Z " />
<glyph glyph-name="two" unicode="2" horiz-adv-x="516" d="M59 278 C81 393 124 434 220 434 C313 434 347 402 347 313 C347 195 240 129 30 12 C30 12 30 0 30 0 C30 0 295 0 295 0 C295 0 409 0 409 0 C409 0 433 38 433 38 C445 57 457 75 469 95 C468 95 457 97 454 97 C437 68 443 62 323 62 C323 62 140 62 140 62 C324 167 417 237 417 329 C417 446 374 488 256 488 C130 488 74 433 44 281 C44 281 59 278 59 278 L59 278 Z " />
<glyph glyph-name="three" unicode="3" horiz-adv-x="404" d="M18 -218 C18 -218 20 -232 20 -232 C274 -206 365 -144 365 -1 C365 122 320 172 195 190 C313 247 358 290 358 368 C358 456 318 488 206 488 C97 488 48 446 21 329 C21 329 36 324 36 324 C56 408 93 438 177 438 C256 438 284 413 284 344 C284 252 234 219 96 160 C96 160 96 146 96 146 C239 126 291 82 291 -21 C291 -145 219 -197 18 -218 L18 -218 Z " />
<glyph glyph-name="four" unicode="4" horiz-adv-x="584" d="M540 -29 C544 -30 554 -31 555 -31 C560 8 566 49 572 90 C568 89 557 88 556 88 C552 59 562 54 442 54 C442 54 396 54 396 54 C396 54 396 507 396 507 C396 507 387 507 387 507 C387 507 15 12 15 12 C15 12 15 0 15 0 C15 0 326 0 326 0 C326 0 326 -220 326 -220 C326 -220 396 -220 396 -220 C396 -220 396 0 396 0 C396 0 484 0 484 0 C551 0 543 -6 540 -29 L540 -29 Z M79 54 C79 54 326 385 326 385 C326 385 326 384 326 384 C326 384 326 54 326 54 C326 54 79 54 79 54 L79 54 Z " />
<glyph glyph-name="five" unicode="5" horiz-adv-x="413" d="M324 512 C320 483 326 478 218 478 C218 478 92 478 92 478 C92 478 43 202 43 202 C43 202 55 191 55 191 C55 191 86 191 86 191 C260 191 322 147 322 25 C322 -131 252 -197 59 -220 C59 -220 60 -233 60 -233 C298 -204 384 -130 384 49 C384 208 307 265 94 265 C94 265 78 264 78 264 C78 264 106 415 106 415 C106 415 323 417 323 417 C323 417 326 435 326 435 C328 445 330 454 332 466 C332 466 334 478 334 478 C334 478 340 514 340 514 C336 513 325 512 324 512 C324 512 324 512 324 512 L324 512 Z " />
<glyph glyph-name="six" unicode="6" horiz-adv-x="548" d="M531 728 C180 653 54 535 54 281 C54 67 114 -10 282 -10 C439 -10 496 54 496 232 C496 386 439 441 280 441 C205 441 158 424 134 381 C168 570 286 664 534 717 C534 717 531 728 531 728 L531 728 Z M123 244 C123 384 164 434 278 434 C387 434 426 381 426 236 C426 60 388 -3 281 -3 C165 -3 123 62 123 244 L123 244 Z " />
<glyph glyph-name="seven" unicode="7" horiz-adv-x="422" d="M92 502 C92 502 85 502 85 502 C79 503 77 503 77 503 C58 462 42 424 24 384 C28 385 39 386 41 386 C52 412 49 421 106 421 C106 421 390 421 390 421 C390 421 398 433 398 433 C398 433 110 -220 110 -220 C110 -220 163 -220 163 -220 C163 -220 417 463 417 463 C417 463 417 478 417 478 C417 478 140 478 140 478 C72 478 83 482 92 502 L92 502 Z " />
<glyph glyph-name="eight" unicode="8" horiz-adv-x="523" d="M208 368 C218 363 229 359 241 354 C380 297 430 281 430 154 C430 37 386 -5 263 -5 C146 -5 104 41 104 169 C104 275 132 331 208 368 L208 368 Z M201 371 C85 322 43 266 43 169 C43 37 101 -10 263 -10 C425 -10 483 42 483 185 C483 320 436 349 309 402 C417 448 457 498 457 580 C457 696 405 738 261 738 C119 738 68 692 68 564 C68 465 104 417 201 371 L201 371 Z M302 405 C291 409 280 414 268 419 C162 462 124 500 124 590 C124 694 160 732 261 732 C361 732 397 690 397 574 C397 487 371 439 302 405 L302 405 Z " />
<glyph glyph-name="nine" unicode="9" horiz-adv-x="548" d="M18 -250 C368 -175 495 -57 495 197 C495 411 434 488 267 488 C110 488 53 424 53 246 C53 92 110 37 269 37 C344 37 391 54 415 97 C381 -93 263 -187 15 -240 C15 -240 18 -250 18 -250 L18 -250 Z M426 234 C426 94 385 44 271 43 C162 44 123 96 122 242 C123 417 161 481 268 481 C384 481 426 415 426 234 L426 234 Z " />
<glyph glyph-name="colon" unicode="&#x3a;" horiz-adv-x="135" d="M125 363 C161 363 174 376 174 412 C174 449 161 462 125 462 C89 462 76 449 76 412 C76 376 89 363 125 363 L125 363 Z M125 -5 C161 -5 174 8 174 44 C174 81 161 94 125 94 C89 94 76 81 76 44 C76 8 89 -5 125 -5 L125 -5 Z " />
<glyph glyph-name="semicolon" unicode="&#x3b;" horiz-adv-x="259" d="M125 363 C161 363 174 376 174 412 C174 449 161 462 125 462 C89 462 76 449 76 412 C76 376 89 363 125 363 L125 363 Z M174 36 C175 25 176 13 176 -1 C176 -78 147 -106 65 -106 C65 -106 65 -111 65 -111 C156 -111 189 -79 189 11 C189 76 177 106 144 113 C139 114 132 115 125 115 C81 115 65 99 65 55 C65 11 81 -5 125 -5 C156 -5 170 6 174 36 L174 36 Z " />
<glyph glyph-name="equal" unicode="&#x3d;" horiz-adv-x="512" d="M81 204 C81 204 81 173 81 173 C81 173 442 173 442 173 C442 173 442 204 442 204 C442 204 81 204 81 204 L81 204 Z M81 304 C81 304 81 273 81 273 C81 273 442 273 442 273 C442 273 442 304 442 304 C442 304 81 304 81 304 L81 304 Z " />
<glyph glyph-name="question" unicode="&#x3f;" horiz-adv-x="301" d="M125 -5 C161 -5 174 8 174 44 C174 81 161 94 125 94 C89 94 76 81 76 44 C76 8 89 -5 125 -5 L125 -5 Z M123 189 C123 189 125 349 125 349 C234 349 240 371 283 434 C304 465 312 492 312 538 C312 684 268 737 145 737 C96 737 79 723 79 686 C79 660 89 651 117 651 C138 651 150 663 170 663 C260 663 292 628 292 529 C292 509 286 493 268 467 C243 432 248 419 101 419 C101 419 111 189 111 189 C111 189 123 189 123 189 L123 189 Z " />
<glyph glyph-name="at" unicode="&#x40;" horiz-adv-x="1123" d="M1014 0 C933 -174 817 -237 574 -237 C233 -237 110 -109 110 248 C110 604 230 733 562 733 C894 733 1014 626 1014 328 C1014 91 965 6 829 6 C700 6 667 57 705 200 C705 200 772 459 772 459 C772 459 706 459 706 459 C706 459 687 385 687 385 C677 445 641 468 566 468 C360 468 286 393 286 185 C286 56 330 10 453 10 C539 10 590 36 625 102 C627 16 685 -18 817 -18 C1001 -18 1068 74 1068 328 C1068 640 934 752 562 752 C189 752 55 618 55 248 C55 -123 192 -257 574 -257 C827 -257 950 -189 1038 0 C1038 0 1014 0 1014 0 L1014 0 Z M675 339 C675 339 639 200 639 200 C609 89 570 49 489 49 C396 49 362 89 362 199 C362 383 416 449 565 449 C646 449 675 420 675 339 L675 339 Z " />
<glyph glyph-name="A" unicode="A" horiz-adv-x="654" d="M434 0 C434 0 508 0 508 0 C508 0 590 0 590 0 C590 0 638 0 638 0 C637 3 636 14 636 15 C636 15 614 15 614 15 C596 15 588 13 562 90 C562 90 374 704 374 704 C374 704 360 748 360 748 C360 748 352 748 352 748 C331 719 316 707 296 704 C296 704 299 694 299 694 C299 694 299 694 299 694 C299 694 127 123 127 123 C91 12 78 15 44 15 C44 15 23 15 23 15 C22 11 21 1 21 0 C21 0 90 0 90 0 C90 0 98 0 98 0 C98 0 188 0 188 0 C187 3 186 14 186 15 C186 15 166 15 166 15 C119 15 101 11 147 165 C147 165 147 165 147 165 C147 165 186 296 186 296 C186 296 419 296 419 296 C419 296 467 135 467 135 C467 135 467 135 467 135 C504 12 490 15 456 15 C456 15 436 15 436 15 C435 11 434 1 434 0 L434 0 Z M188 303 C188 303 302 686 302 686 C302 686 417 303 417 303 C417 303 188 303 188 303 L188 303 Z " />
<glyph glyph-name="B" unicode="B" horiz-adv-x="599" d="M61 0 C61 0 198 0 198 0 C198 0 318 0 318 0 C496 0 560 1 560 188 C560 315 511 368 378 375 C494 389 538 441 538 553 C538 682 536 728 275 728 C275 728 198 728 198 728 C198 728 61 728 61 728 C62 721 64 718 64 712 C64 712 71 712 71 712 C107 712 120 714 120 647 C120 647 120 80 120 80 C120 13 107 15 71 15 C71 15 64 15 64 15 C64 14 61 0 61 0 L61 0 Z M198 723 C198 723 265 723 265 723 C458 723 460 676 460 544 C460 421 417 376 297 376 C297 376 198 376 198 376 C198 376 198 647 198 647 C198 647 198 723 198 723 L198 723 Z M300 371 C300 371 327 371 327 371 C435 371 474 322 474 188 C474 6 431 5 312 5 C312 5 262 5 262 5 C215 5 198 22 198 69 C198 69 198 80 198 80 C198 80 198 371 198 371 C198 371 300 371 300 371 L300 371 Z " />
<glyph glyph-name="C" unicode="C" horiz-adv-x="698" d="M654 42 C654 42 654 109 654 109 C654 109 654 165 654 165 C654 165 644 162 644 162 C618 101 584 36 564 20 C530 3 475 -4 378 -4 C205 -4 142 93 142 364 C142 634 207 731 389 731 C447 731 485 721 515 699 C554 669 599 587 638 500 C642 491 643 488 643 488 C644 488 645 488 654 486 C654 486 654 547 654 547 C654 547 654 611 654 611 C638 605 645 613 638 593 C639 598 622 621 574 673 C535 719 488 738 386 738 C143 738 55 639 55 364 C55 89 140 -10 376 -10 C503 -10 566 0 602 24 C602 24 602 24 602 24 C602 24 602 24 602 24 C613 32 621 40 628 50 C628 50 639 61 639 61 C645 68 647 64 647 46 C648 45 653 42 654 42 L654 42 Z " />
<glyph glyph-name="D" unicode="D" horiz-adv-x="776" d="M61 0 C61 0 120 0 120 0 C120 0 198 0 198 0 C198 0 271 0 271 0 C602 0 721 70 721 364 C721 631 642 728 307 728 C307 728 198 728 198 728 C198 728 120 728 120 728 C120 728 61 728 61 728 C62 721 64 718 64 712 C64 712 71 712 71 712 C107 712 120 714 120 647 C120 647 120 80 120 80 C120 13 107 15 71 15 C71 15 64 15 64 15 C64 14 61 0 61 0 L61 0 Z M198 723 C198 723 287 723 287 723 C568 723 635 628 635 364 C635 74 536 5 263 5 C209 5 199 15 198 40 C198 40 198 69 198 69 C198 69 198 80 198 80 C198 80 198 647 198 647 C198 647 198 723 198 723 L198 723 Z " />
<glyph glyph-name="E" unicode="E" horiz-adv-x="571" d="M509 72 C502 22 508 5 400 5 C400 5 268 5 268 5 C209 5 199 15 198 41 C198 41 198 69 198 69 C198 69 198 80 198 80 C198 80 198 389 198 389 C198 389 314 389 314 389 C417 389 414 371 414 322 C414 322 414 315 414 315 C420 313 424 313 430 310 C430 310 430 389 430 389 C430 389 430 395 430 395 C430 395 430 474 430 474 C426 473 415 471 414 470 C414 470 414 463 414 463 C414 413 417 395 314 395 C314 395 198 395 198 395 C198 395 198 647 198 647 C198 647 198 722 198 722 C198 722 375 722 375 722 C498 722 476 706 479 663 C479 663 479 656 479 656 C483 655 494 652 495 652 C494 666 493 676 492 690 C492 704 491 714 490 728 C490 728 374 728 374 728 C374 728 198 728 198 728 C198 728 120 728 120 728 C120 728 61 728 61 728 C62 721 64 718 64 712 C64 712 71 712 71 712 C107 712 120 714 120 647 C120 647 120 80 120 80 C120 13 107 15 71 15 C71 15 64 15 64 15 C64 14 61 0 61 0 C61 0 120 0 120 0 C120 0 198 0 198 0 C198 0 399 0 399 0 C399 0 515 0 515 0 C519 25 523 51 525 76 C525 76 511 72 509 72 L509 72 Z " />
<glyph glyph-name="F" unicode="F" horiz-adv-x="546" d="M496 654 C494 680 492 702 490 728 C490 728 374 728 374 728 C374 728 198 728 198 728 C198 728 120 728 120 728 C120 728 61 728 61 728 C62 721 64 718 64 712 C64 712 71 712 71 712 C107 712 120 714 120 647 C120 647 120 80 120 80 C120 13 107 15 71 15 C71 15 64 15 64 15 C64 14 61 0 61 0 C61 0 120 0 120 0 C120 0 198 0 198 0 C198 0 257 0 257 0 C257 0 254 15 254 15 C254 15 247 15 247 15 C211 15 198 13 198 80 C198 80 198 383 198 383 C198 383 377 383 377 383 C403 376 404 361 407 337 C407 337 411 312 411 312 C411 312 420 308 420 308 C420 308 420 383 420 383 C420 383 420 389 420 389 C420 389 420 465 420 465 C418 464 412 461 411 461 C411 461 407 436 407 436 C403 401 404 389 304 389 C304 389 198 389 198 389 C198 389 198 647 198 647 C198 647 198 723 198 723 C198 723 295 723 295 723 C480 723 476 707 480 664 C480 664 480 657 480 657 C480 657 496 654 496 654 L496 654 Z " />
<glyph glyph-name="G" unicode="G" horiz-adv-x="746" d="M683 315 C683 315 500 315 500 315 C501 310 503 306 503 300 C503 300 510 300 510 300 C544 300 556 302 556 240 C556 240 557 82 557 82 C552 29 506 9 392 9 C208 9 142 103 142 364 C142 634 207 731 389 731 C447 731 485 721 515 699 C554 669 599 587 638 500 C642 491 643 488 643 488 C644 488 645 488 654 486 C654 486 654 547 654 547 C654 547 654 611 654 611 C638 605 645 613 638 593 C639 598 622 621 574 673 C535 719 488 738 386 738 C143 738 55 639 55 364 C55 89 142 -10 385 -10 C492 -10 549 -2 609 19 C609 19 634 25 634 25 C634 25 634 29 634 29 C657 38 681 49 709 62 C709 62 707 66 707 66 C680 53 657 43 634 35 C634 35 635 240 635 240 C635 302 645 300 673 300 C673 300 680 300 680 300 C680 300 683 315 683 315 C683 315 683 315 683 315 L683 315 Z " />
<glyph glyph-name="H" unicode="H" horiz-adv-x="756" d="M701 728 C701 728 504 728 504 728 C505 724 507 713 508 712 C508 712 515 712 515 712 C551 712 564 714 564 652 C564 652 564 375 564 375 C564 375 234 375 234 375 C234 375 234 652 234 652 C234 714 247 712 283 712 C283 712 290 712 290 712 C291 719 293 722 293 728 C293 728 97 728 97 728 C98 721 100 718 100 712 C100 712 107 712 107 712 C143 712 156 714 156 652 C156 652 156 75 156 75 C156 13 143 15 107 15 C107 15 100 15 100 15 C100 14 97 0 97 0 C97 0 293 0 293 0 C293 0 290 15 290 15 C290 15 283 15 283 15 C247 15 234 13 234 75 C234 75 234 368 234 368 C234 368 564 368 564 368 C564 368 564 75 564 75 C564 13 551 15 515 15 C515 15 508 15 508 15 C508 12 505 1 504 0 C504 0 701 0 701 0 C700 6 698 10 698 15 C698 15 691 15 691 15 C655 15 642 13 642 75 C642 75 642 652 642 652 C642 714 655 712 691 712 C691 712 698 712 698 712 C698 712 701 728 701 728 L701 728 Z " />
<glyph glyph-name="I" unicode="I" horiz-adv-x="313" d="M258 728 C258 728 61 728 61 728 C62 724 64 713 65 712 C65 712 72 712 72 712 C107 712 120 714 120 652 C120 652 120 75 120 75 C120 13 107 15 72 15 C72 15 65 15 65 15 C65 12 62 1 61 0 C61 0 258 0 258 0 C257 6 255 10 255 15 C255 15 248 15 248 15 C212 15 199 13 199 75 C199 75 199 652 199 652 C199 714 212 712 248 712 C248 712 255 712 255 712 C255 712 258 728 258 728 L258 728 Z " />
<glyph glyph-name="J" unicode="J" horiz-adv-x="313" d="M258 728 C258 728 61 728 61 728 C62 724 64 713 65 712 C65 712 72 712 72 712 C107 712 120 714 120 652 C120 652 120 -52 120 -52 C120 -216 65 -211 6 -211 C-43 -211 -7 -145 -56 -145 C-83 -145 -93 -155 -93 -182 C-93 -210 -68 -220 0 -220 C102 -220 199 -229 199 96 C199 96 199 652 199 652 C199 714 212 712 248 712 C248 712 255 712 255 712 C255 712 258 728 258 728 L258 728 Z " />
<glyph glyph-name="K" unicode="K" horiz-adv-x="659" d="M637 15 C637 15 612 15 612 15 C600 15 582 30 558 57 C558 57 258 414 258 414 C258 414 428 621 428 621 C428 621 430 622 430 622 C503 715 509 712 532 712 C532 712 554 712 554 712 C555 716 556 727 556 728 C556 728 516 728 516 728 C516 728 486 728 486 728 C486 728 409 728 409 728 C410 724 411 713 411 712 C411 712 429 712 429 712 C457 712 472 714 408 629 C408 629 198 364 198 364 C198 364 198 668 198 668 C198 713 211 712 247 712 C247 712 254 712 254 712 C255 719 257 722 257 728 C257 728 198 728 198 728 C198 728 120 728 120 728 C120 728 61 728 61 728 C62 721 64 718 64 712 C64 712 71 712 71 712 C107 712 120 713 120 668 C120 668 120 60 120 60 C120 14 107 15 71 15 C71 15 64 15 64 15 C64 14 61 0 61 0 C61 0 120 0 120 0 C120 0 198 0 198 0 C198 0 257 0 257 0 C257 0 254 15 254 15 C254 15 247 15 247 15 C211 15 198 14 198 60 C198 60 198 364 198 364 C198 364 438 80 438 80 C438 80 437 80 437 80 C514 -11 505 0 505 0 C505 0 605 0 605 0 C605 0 639 0 639 0 C638 3 637 14 637 15 C637 15 637 15 637 15 L637 15 Z " />
<glyph glyph-name="L" unicode="L" horiz-adv-x="554" d="M510 12 C518 42 525 73 535 104 C533 104 518 101 518 101 C518 101 517 94 517 94 C501 35 500 13 330 13 C330 13 268 13 268 13 C210 13 200 22 199 44 C199 44 199 69 199 69 C199 69 199 80 199 80 C199 80 199 647 199 647 C199 714 212 712 248 712 C248 712 255 712 255 712 C255 712 258 728 258 728 C258 728 199 728 199 728 C199 728 120 728 120 728 C120 728 61 728 61 728 C62 724 64 713 65 712 C65 712 72 712 72 712 C107 712 120 714 120 647 C120 647 120 80 120 80 C120 13 107 15 72 15 C72 15 65 15 65 15 C65 12 62 1 61 0 C61 0 120 0 120 0 C120 0 199 0 199 0 C199 0 326 0 326 0 C326 0 507 0 507 0 C507 0 510 12 510 12 L510 12 Z " />
<glyph glyph-name="M" unicode="M" horiz-adv-x="796" d="M53 712 C53 712 75 712 75 712 C96 712 105 713 123 674 C123 674 107 145 107 145 C107 145 107 145 107 145 C103 11 91 15 58 15 C58 15 37 15 37 15 C36 11 35 1 35 0 C35 0 103 0 103 0 C103 0 130 0 130 0 C130 0 199 0 199 0 C198 3 197 14 197 15 C197 15 175 15 175 15 C141 15 129 12 133 135 C133 135 133 135 133 135 C133 135 142 629 142 629 C225 419 308 209 391 0 C391 0 410 0 410 0 C410 0 634 652 634 652 C634 652 649 69 649 69 C649 13 636 15 600 15 C600 15 593 15 593 15 C593 14 590 0 590 0 C590 0 651 0 651 0 C651 0 730 0 730 0 C730 0 786 0 786 0 C786 0 783 15 783 15 C783 15 776 15 776 15 C745 15 732 13 728 59 C728 59 711 588 711 588 C709 716 718 712 741 712 C741 712 763 712 763 712 C764 716 765 727 765 728 C765 728 707 728 707 728 C707 728 660 728 660 728 C660 728 632 728 632 728 C632 728 425 102 425 102 C425 102 425 103 425 103 C425 103 197 728 197 728 C197 728 144 728 144 728 C144 728 125 728 125 728 C125 728 103 728 103 728 C103 728 51 728 51 728 C52 724 53 713 53 712 C53 712 53 712 53 712 L53 712 Z " />
<glyph glyph-name="N" unicode="N" horiz-adv-x="691" d="M27 712 C27 712 49 712 49 712 C58 712 60 713 85 677 C85 677 86 678 86 678 C86 678 110 643 110 643 C110 643 109 145 109 145 C109 145 109 145 109 145 C109 11 97 15 64 15 C64 15 42 15 42 15 C41 11 40 1 40 0 C40 0 109 0 109 0 C109 0 132 0 132 0 C132 0 201 0 201 0 C200 3 199 14 199 15 C199 15 177 15 177 15 C144 15 132 12 132 135 C132 135 131 135 131 135 C131 135 129 615 129 615 C129 615 480 108 480 108 C480 108 555 0 555 0 C555 0 571 0 571 0 C571 0 575 637 575 637 C578 715 595 712 635 712 C635 712 642 712 642 712 C643 716 645 727 646 728 C646 728 576 728 576 728 C576 728 553 728 553 728 C553 728 483 728 483 728 C484 724 486 713 487 712 C487 712 494 712 494 712 C537 712 553 715 553 612 C553 612 553 612 553 612 C553 612 555 134 555 134 C555 134 543 150 543 150 C543 150 148 728 148 728 C148 728 129 728 129 728 C129 728 110 728 110 728 C110 728 51 728 51 728 C51 728 25 728 25 728 C26 724 27 713 27 712 C27 712 27 712 27 712 L27 712 Z " />
<glyph glyph-name="O" unicode="O" horiz-adv-x="808" d="M390 -3 C209 -3 144 94 144 364 C144 634 211 731 398 731 C593 731 664 634 664 364 C664 94 591 -3 390 -3 L390 -3 Z M55 364 C55 89 143 -10 389 -10 C657 -10 753 89 753 364 C753 639 659 738 399 738 C146 738 55 639 55 364 L55 364 Z " />
<glyph glyph-name="P" unicode="P" horiz-adv-x="541" d="M84 712 C84 712 91 712 91 712 C127 712 140 714 140 647 C140 647 140 80 140 80 C140 13 127 15 91 15 C91 15 84 15 84 15 C84 12 81 1 80 0 C80 0 140 0 140 0 C140 0 218 0 218 0 C218 0 277 0 277 0 C276 6 274 10 274 15 C274 15 267 15 267 15 C231 15 218 13 218 80 C218 80 218 338 218 338 C218 338 263 338 263 338 C453 338 522 367 522 524 C522 674 465 728 308 728 C308 728 218 728 218 728 C218 728 140 728 140 728 C140 728 80 728 80 728 C81 724 83 713 84 712 L84 712 Z M218 354 C218 354 218 647 218 647 C218 647 218 714 218 714 C218 714 289 714 289 714 C406 714 448 667 448 537 C448 382 399 354 263 354 C263 354 218 354 218 354 L218 354 Z " />
<glyph glyph-name="Q" unicode="Q" horiz-adv-x="803" d="M1080 -52 C1080 -52 1078 -50 1078 -50 C1041 -81 965 -92 790 -92 C591 -92 474 -70 368 -9 C375 -10 382 -10 389 -10 C657 -10 753 89 753 364 C753 639 659 738 399 738 C146 738 55 639 55 364 C55 158 173 51 284 10 C284 10 284 10 284 10 C468 -104 600 -145 781 -145 C920 -145 999 -120 1080 -52 L1080 -52 Z M390 -3 C300 -3 144 94 144 364 C144 634 211 731 398 731 C593 731 664 634 664 364 C664 94 591 -3 390 -3 L390 -3 Z " />
<glyph glyph-name="R" unicode="R" horiz-adv-x="673" d="M64 712 C64 712 71 712 71 712 C107 712 120 714 120 647 C120 647 120 80 120 80 C120 13 107 15 71 15 C71 15 64 15 64 15 C64 14 61 0 61 0 C61 0 257 0 257 0 C257 0 254 15 254 15 C254 15 247 15 247 15 C211 15 198 13 198 80 C198 80 198 349 198 349 C198 349 299 349 299 349 C311 319 356 240 456 73 C508 -13 471 0 663 0 C663 0 663 12 663 12 C570 12 590 1 548 73 C454 230 403 316 381 352 C493 362 535 401 535 523 C535 674 474 728 303 728 C303 728 198 728 198 728 C198 728 61 728 61 728 C62 721 64 718 64 712 L64 712 Z M198 712 C198 712 280 712 280 712 C404 712 449 666 449 538 C449 395 410 369 303 369 C303 369 198 369 198 369 C198 369 198 647 198 647 C198 647 198 712 198 712 L198 712 Z " />
<glyph glyph-name="S" unicode="S" horiz-adv-x="529" d="M386 704 C352 728 307 738 244 738 C115 738 69 689 69 552 C69 444 106 389 261 323 C395 266 427 228 427 161 C427 41 389 -2 285 -2 C241 -2 205 6 175 24 C138 48 98 115 67 187 C63 196 62 199 62 199 C50 201 51 201 51 201 C51 201 51 143 51 143 C51 143 51 61 51 61 C67 69 60 61 67 85 C67 82 85 68 133 32 C172 2 220 -10 285 -10 C435 -10 489 41 489 183 C489 290 454 343 308 404 C164 466 130 507 130 582 C130 692 160 731 244 731 C258 731 270 730 283 729 C284 729 285 729 286 728 C293 727 300 726 306 723 C306 723 386 704 386 704 L386 704 Z M286 728 C301 726 315 723 328 718 C328 718 306 723 306 723 C360 704 403 646 433 579 C437 571 438 568 438 568 C443 567 439 567 448 565 C448 565 448 624 448 624 C448 624 448 688 448 688 C448 688 447 688 443 687 C434 683 439 687 433 670 C433 670 421 680 286 728 L286 728 Z " />
<glyph glyph-name="T" unicode="T" horiz-adv-x="756" d="M90 762 C86 763 76 764 75 764 C71 752 67 740 63 728 C63 728 55 728 55 728 C55 728 55 708 55 708 C55 708 56 708 56 708 C49 689 41 669 34 650 C38 651 49 652 50 652 C68 693 59 708 170 708 C170 708 339 708 339 708 C339 708 339 75 339 75 C339 13 326 15 290 15 C290 15 283 15 283 15 C282 10 280 6 280 0 C280 0 476 0 476 0 C476 0 473 15 473 15 C473 15 466 15 466 15 C430 15 417 13 417 75 C417 75 417 708 417 708 C417 708 586 708 586 708 C692 708 694 695 706 652 C710 651 721 650 722 650 C715 670 708 689 701 708 C701 708 701 728 701 728 C701 728 694 728 694 728 C690 740 686 752 681 764 C677 763 667 762 666 762 C678 735 688 728 579 728 C579 728 417 728 417 728 C417 728 339 728 339 728 C339 728 178 728 178 728 C66 728 82 734 90 762 C90 762 90 762 90 762 L90 762 Z " />
<glyph glyph-name="U" unicode="U" horiz-adv-x="643" d="M424 712 C424 712 431 712 431 712 C467 712 480 714 480 647 C480 647 480 178 480 178 C433 76 376 40 267 40 C190 40 163 86 163 215 C163 215 163 647 163 647 C163 647 163 728 163 728 C163 728 26 728 26 728 C27 721 29 718 29 712 C29 712 36 712 36 712 C72 712 85 714 85 647 C85 647 85 215 85 215 C85 50 125 -10 235 -10 C363 -10 428 30 480 142 C480 142 480 105 480 105 C480 105 480 0 480 0 C480 0 493 0 493 0 C493 0 614 53 614 53 C614 53 614 60 614 60 C557 57 559 54 559 105 C559 105 559 647 559 647 C559 647 559 728 559 728 C559 728 421 728 421 728 C422 721 424 718 424 712 L424 712 Z " />
<glyph glyph-name="V" unicode="V" horiz-adv-x="696" d="M227 728 C227 728 137 728 137 728 C137 728 47 728 47 728 C47 728 16 728 16 728 C17 724 18 713 18 712 C18 712 41 712 41 712 C50 712 53 713 68 672 C68 672 68 672 68 672 C68 672 280 110 280 110 C280 110 326 -10 326 -10 C326 -10 341 -10 341 -10 C341 -10 570 592 570 592 C570 592 571 592 571 592 C615 715 622 712 645 712 C645 712 667 712 667 712 C668 716 669 727 669 728 C669 728 622 728 622 728 C622 728 591 728 591 728 C591 728 501 728 501 728 C502 724 503 713 503 712 C503 712 523 712 523 712 C568 712 586 715 542 592 C542 592 542 592 542 592 C542 592 326 -10 326 -10 C326 -10 369 110 369 110 C369 110 184 602 184 602 C143 715 161 712 205 712 C205 712 225 712 225 712 C226 716 227 727 227 728 C227 728 227 728 227 728 L227 728 Z " />
<glyph glyph-name="W" unicode="W" horiz-adv-x="987" d="M961 728 C961 728 913 728 913 728 C913 728 881 728 881 728 C881 728 791 728 791 728 C792 724 793 713 793 712 C793 712 813 712 813 712 C857 712 875 715 847 607 C847 607 709 114 709 114 C709 114 531 650 531 650 C512 714 528 712 563 712 C563 712 583 712 583 712 C584 716 585 727 585 728 C585 728 505 728 505 728 C505 728 415 728 415 728 C415 728 368 728 368 728 C369 724 370 713 370 712 C370 712 391 712 391 712 C412 712 420 713 434 672 C434 672 435 672 435 672 C457 609 479 547 500 485 C500 485 500 485 500 485 C500 485 350 98 350 98 C350 98 350 99 350 99 C350 99 181 592 181 592 C181 592 181 592 181 592 C137 715 152 712 192 712 C192 712 211 712 211 712 C212 716 213 727 213 728 C213 728 134 728 134 728 C134 728 48 728 48 728 C48 728 17 728 17 728 C18 724 19 713 19 712 C19 712 42 712 42 712 C50 712 52 714 79 640 C155 424 231 206 308 -10 C308 -10 328 -10 328 -10 C328 -10 513 450 513 450 C567 297 621 144 674 -10 C674 -10 695 -10 695 -10 C695 -10 873 592 873 592 C873 592 873 592 873 592 C874 595 875 599 876 602 C876 602 890 650 890 650 C910 714 918 712 937 712 C937 712 959 712 959 712 C960 716 961 727 961 728 C961 728 961 728 961 728 L961 728 Z " />
<glyph glyph-name="X" unicode="X" horiz-adv-x="683" d="M657 728 C657 728 621 728 621 728 C621 728 586 728 586 728 C586 728 512 728 512 728 C513 724 514 713 514 712 C514 712 533 712 533 712 C561 712 576 715 514 620 C514 620 371 405 371 405 C371 405 255 592 255 592 C255 592 255 592 255 592 C178 715 190 712 219 712 C219 712 237 712 237 712 C238 716 239 727 239 728 C239 728 170 728 170 728 C170 728 78 728 78 728 C78 728 46 728 46 728 C47 724 48 713 48 712 C48 712 70 712 70 712 C83 712 86 715 162 592 C162 592 163 592 163 592 C163 592 316 345 316 345 C316 345 156 115 156 115 C156 115 156 115 156 115 C85 12 78 15 53 15 C53 15 31 15 31 15 C30 11 29 1 29 0 C29 0 76 0 76 0 C76 0 107 0 107 0 C107 0 208 0 208 0 C207 3 206 14 206 15 C206 15 187 15 187 15 C133 15 111 11 204 145 C204 145 203 144 203 144 C203 144 326 330 326 330 C326 330 448 134 448 134 C523 12 511 15 482 15 C482 15 464 15 464 15 C463 11 462 1 462 0 C462 0 531 0 531 0 C531 0 624 0 624 0 C624 0 662 0 662 0 C661 3 660 14 660 15 C660 15 637 15 637 15 C623 15 618 13 576 78 C576 78 376 398 376 398 C376 398 498 562 498 562 C498 562 498 562 498 562 C499 564 501 566 502 568 C502 568 601 701 601 701 C614 713 622 712 633 712 C633 712 655 712 655 712 C656 716 657 727 657 728 C657 728 657 728 657 728 L657 728 Z " />
<glyph glyph-name="Y" unicode="Y" horiz-adv-x="631" d="M192 728 C192 728 134 728 134 728 C134 728 42 728 42 728 C42 728 14 728 14 728 C15 724 16 713 16 712 C16 712 39 712 39 712 C48 712 49 715 121 592 C121 592 121 592 121 592 C121 592 283 315 283 315 C283 315 283 75 283 75 C283 13 270 15 234 15 C234 15 227 15 227 15 C227 14 224 0 224 0 C224 0 421 0 421 0 C420 3 418 14 417 15 C417 15 410 15 410 15 C374 15 361 13 361 75 C361 75 361 326 361 326 C361 326 501 592 501 592 C501 592 501 592 501 592 C566 715 570 712 587 712 C587 712 609 712 609 712 C610 716 611 727 611 728 C611 728 572 728 572 728 C572 728 559 728 559 728 C559 728 501 728 501 728 C502 724 503 713 503 712 C503 712 522 712 522 712 C540 712 550 714 526 662 C526 662 496 604 496 604 C496 603 495 603 495 602 C495 602 495 602 495 602 C495 602 359 334 359 334 C359 334 171 662 171 662 C145 714 155 712 172 712 C172 712 190 712 190 712 C191 716 192 727 192 728 C192 728 192 728 192 728 L192 728 Z " />
<glyph glyph-name="Z" unicode="Z" horiz-adv-x="618" d="M110 0 C110 0 432 0 432 0 C432 0 587 0 587 0 C587 0 614 108 614 108 C607 107 604 105 598 105 C598 105 588 81 588 81 C571 45 567 28 493 23 C493 23 122 18 122 18 C122 18 591 711 591 711 C591 711 591 728 591 728 C591 728 515 728 515 728 C515 728 235 728 235 728 C235 728 70 728 70 728 C64 689 59 651 54 613 C62 614 66 616 74 616 C74 616 78 632 78 632 C90 682 92 703 196 706 C196 706 503 710 503 710 C503 710 25 16 25 16 C25 16 25 0 25 0 C25 0 110 0 110 0 L110 0 Z " />
<glyph glyph-name="bracketleft" unicode="&#x5b;" horiz-adv-x="290" d="M131 707 C131 707 341 707 341 707 C341 707 341 728 341 728 C341 728 131 728 131 728 C131 728 106 728 106 728 C106 728 106 -195 106 -195 C106 -195 131 -195 131 -195 C131 -195 341 -195 341 -195 C341 -195 341 -174 341 -174 C341 -174 131 -174 131 -174 C131 -174 131 707 131 707 L131 707 Z " />
<glyph glyph-name="backslash" unicode="&#x5c;" horiz-adv-x="342" d="M31 748 C31 748 291 -80 291 -80 C291 -80 333 -80 333 -80 C333 -80 73 748 73 748 C73 748 31 748 31 748 L31 748 Z " />
<glyph glyph-name="bracketright" unicode="&#x5d;" horiz-adv-x="293" d="M159 707 C159 707 159 -174 159 -174 C159 -174 -51 -174 -51 -174 C-51 -174 -51 -195 -51 -195 C-51 -195 159 -195 159 -195 C159 -195 184 -195 184 -195 C184 -195 184 728 184 728 C184 728 159 728 159 728 C159 728 -51 728 -51 728 C-51 728 -51 707 -51 707 C-51 707 159 707 159 707 L159 707 Z " />
<glyph glyph-name="underscore" unicode="&#x5f;" horiz-adv-x="412" d="M5 -50 C5 -50 5 -89 5 -89 C5 -89 408 -89 408 -89 C408 -89 408 -50 408 -50 C408 -50 5 -50 5 -50 L5 -50 Z " />
<glyph glyph-name="a" unicode="a" horiz-adv-x="494" d="M504 91 C504 91 492 98 492 98 C485 59 470 45 437 45 C396 45 381 57 381 89 C381 89 381 340 381 340 C381 465 346 488 250 488 C94 488 55 393 68 318 C76 274 86 258 107 258 C145 258 155 279 151 301 C147 326 131 341 127 364 C118 416 142 481 242 481 C293 481 311 463 311 366 C311 366 311 264 311 264 C74 129 48 116 48 81 C48 14 76 -10 156 -10 C224 -10 258 1 311 79 C314 18 341 -5 408 -5 C466 -5 492 21 504 91 C504 91 504 91 504 91 L504 91 Z M311 259 C311 259 311 89 311 89 C311 88 311 87 311 86 C275 34 248 27 193 27 C139 27 119 43 119 88 C119 153 138 160 311 259 L311 259 Z " />
<glyph glyph-name="b" unicode="b" horiz-adv-x="521" d="M23 683 C56 692 68 702 68 625 C68 625 68 0 68 0 C68 0 72 0 72 0 C72 0 95 65 95 65 C141 10 186 -10 264 -10 C421 -10 477 56 477 241 C477 419 422 483 269 483 C210 483 174 461 138 403 C138 403 138 642 138 642 C138 642 138 728 138 728 C138 728 126 728 126 728 C126 728 20 697 20 697 C22 690 23 686 23 683 C23 683 23 683 23 683 L23 683 Z M138 391 C170 441 199 460 246 460 C358 460 398 400 398 233 C398 62 363 0 267 0 C202 0 168 19 138 70 C138 70 138 195 138 195 C138 195 138 391 138 391 L138 391 Z " />
<glyph glyph-name="c" unicode="c" horiz-adv-x="464" d="M434 166 C434 166 424 168 424 168 C406 69 368 33 280 33 C161 33 118 93 118 259 C118 416 157 472 267 472 C309 472 333 448 356 383 C368 351 379 340 399 340 C441 340 452 351 441 383 C413 460 368 488 271 488 C106 488 46 419 46 226 C46 53 102 -10 256 -10 C363 -10 411 37 434 166 L434 166 Z " />
<glyph glyph-name="d" unicode="d" horiz-adv-x="544" d="M540 31 C505 21 495 11 495 120 C495 120 495 645 495 645 C495 645 495 728 495 728 C495 728 483 728 483 728 C483 728 377 697 377 697 C379 686 380 686 380 683 C413 692 425 702 425 628 C425 628 425 444 425 444 C394 473 351 488 289 488 C96 488 50 422 50 241 C50 60 107 -5 265 -5 C342 -5 386 15 425 68 C425 68 425 -10 425 -10 C425 -10 437 -10 437 -10 C437 -10 543 16 543 16 C542 22 540 26 540 31 C540 31 540 31 540 31 L540 31 Z M425 93 C388 43 353 24 294 24 C168 24 122 87 122 260 C122 412 156 467 297 467 C355 467 392 436 425 375 C425 375 425 105 425 105 C425 105 425 93 425 93 L425 93 Z " />
<glyph glyph-name="e" unicode="e" horiz-adv-x="509" d="M124 339 C124 339 402 339 402 339 C402 339 479 339 479 339 C451 470 404 488 284 488 C108 488 45 418 45 222 C45 52 102 -10 262 -10 C399 -10 455 39 472 176 C472 176 463 177 463 177 C450 73 402 36 279 36 C161 36 118 93 118 251 C118 285 120 314 124 339 L124 339 Z M449 359 C452 359 456 359 460 359 C460 359 449 359 449 359 L449 359 Z M397 358 C397 358 127 355 127 355 C145 439 191 472 280 472 C344 472 373 458 397 358 C397 358 397 358 397 358 L397 358 Z " />
<glyph glyph-name="f" unicode="f" horiz-adv-x="309" d="M45 0 C45 0 211 0 211 0 C211 0 208 15 208 15 C208 15 201 15 201 15 C173 15 163 15 163 30 C163 30 163 441 163 441 C163 441 299 441 299 441 C299 441 299 478 299 478 C299 478 163 478 163 478 C163 649 182 711 261 711 C356 711 274 603 354 603 C394 603 408 617 408 658 C408 713 376 733 285 733 C130 733 93 665 93 478 C93 478 -4 449 -4 449 C-4 449 -4 441 -4 441 C-4 441 93 441 93 441 C93 441 93 30 93 30 C93 15 83 15 55 15 C55 15 48 15 48 15 C48 14 45 0 45 0 L45 0 Z " />
<glyph glyph-name="g" unicode="g" horiz-adv-x="501" d="M149 334 C149 435 175 471 247 471 C320 471 346 435 346 334 C346 233 320 196 247 196 C175 196 149 233 149 334 L149 334 Z M153 8 C160 7 167 7 174 7 C174 7 282 7 282 7 C393 7 408 -18 408 -89 C408 -181 369 -214 261 -214 C147 -214 106 -178 106 -78 C106 -31 119 -6 153 8 L153 8 Z M136 9 C72 -9 49 -38 49 -94 C49 -194 104 -230 257 -230 C411 -230 466 -188 466 -72 C466 37 445 77 290 77 C290 77 178 77 178 77 C119 77 98 89 98 122 C98 165 138 180 247 180 C371 180 416 221 416 334 C416 353 415 370 412 385 C435 428 455 444 485 444 C500 444 505 435 505 409 C505 391 514 385 538 385 C559 385 566 394 566 418 C566 458 552 473 514 473 C465 473 435 454 408 403 C390 464 341 488 247 488 C124 488 79 447 79 334 C79 252 103 208 163 190 C86 180 57 153 57 101 C57 43 79 17 136 9 C136 9 136 9 136 9 L136 9 Z " />
<glyph glyph-name="h" unicode="h" horiz-adv-x="541" d="M44 683 C77 692 89 702 89 625 C89 625 89 30 89 30 C89 15 79 15 51 15 C51 15 44 15 44 15 C44 14 41 0 41 0 C41 0 207 0 207 0 C207 0 204 15 204 15 C204 15 197 15 197 15 C169 15 159 15 159 30 C159 30 159 353 159 353 C188 415 224 438 295 438 C365 438 382 407 382 323 C382 323 382 30 382 30 C382 15 372 15 343 15 C343 15 336 15 336 15 C335 11 334 1 334 0 C334 0 499 0 499 0 C498 3 497 14 497 15 C497 15 490 15 490 15 C462 15 452 15 452 30 C452 30 452 323 452 323 C452 444 430 488 335 488 C248 488 202 454 159 359 C159 359 159 642 159 642 C159 642 159 728 159 728 C159 728 147 728 147 728 C147 728 41 697 41 697 C43 690 44 686 44 683 L44 683 Z " />
<glyph glyph-name="i" unicode="i" horiz-adv-x="247" d="M133 593 C166 593 178 605 178 638 C178 671 166 683 133 683 C100 683 88 671 88 638 C88 605 100 593 133 593 L133 593 Z M53 433 C86 442 98 452 98 375 C98 375 98 30 98 30 C98 15 89 15 65 15 C65 15 58 15 58 15 C57 11 56 1 56 0 C56 0 210 0 210 0 C209 3 208 14 208 15 C208 15 201 15 201 15 C177 15 168 15 168 30 C168 30 168 392 168 392 C168 392 168 478 168 478 C168 478 156 478 156 478 C156 478 50 447 50 447 C52 440 53 436 53 433 L53 433 Z " />
<glyph glyph-name="j" unicode="j" horiz-adv-x="248" d="M123 593 C156 593 168 605 168 638 C168 671 156 683 123 683 C90 683 78 671 78 638 C78 605 90 593 123 593 L123 593 Z M43 433 C76 442 88 452 88 375 C88 375 88 41 88 41 C88 -57 75 -100 39 -121 C-1 -121 -27 -100 -67 -100 C-100 -100 -112 -111 -112 -140 C-112 -176 -96 -188 -52 -185 C-44 -184 -16 -170 53 -130 C130 -85 158 -40 158 41 C158 41 158 392 158 392 C158 392 158 478 158 478 C158 478 146 478 146 478 C146 478 40 447 40 447 C42 440 43 436 43 433 L43 433 Z " />
<glyph glyph-name="k" unicode="k" horiz-adv-x="501" d="M462 478 C462 478 443 478 443 478 C443 478 417 478 417 478 C417 478 316 478 316 478 C317 474 318 463 318 462 C318 462 335 462 335 462 C376 462 398 465 274 358 C274 358 168 268 168 268 C168 268 168 642 168 642 C168 642 168 728 168 728 C168 728 156 728 156 728 C156 728 50 697 50 697 C52 690 53 686 53 683 C86 692 98 702 98 625 C98 625 98 30 98 30 C98 15 89 15 65 15 C65 15 58 15 58 15 C57 11 56 1 56 0 C56 0 210 0 210 0 C209 3 208 14 208 15 C208 15 201 15 201 15 C177 15 168 15 168 30 C168 30 168 268 168 268 C168 268 354 30 354 30 C354 30 353 30 353 30 C365 15 360 15 348 15 C348 15 331 15 331 15 C330 11 329 1 329 0 C329 0 377 0 377 0 C377 0 466 0 466 0 C466 0 485 0 485 0 C484 3 483 14 483 15 C483 15 459 15 459 15 C456 15 455 15 450 20 C450 20 231 299 231 299 C231 299 397 439 397 439 C397 439 408 447 408 447 C426 462 428 462 437 462 C437 462 460 462 460 462 C461 466 462 477 462 478 L462 478 Z " />
<glyph glyph-name="l" unicode="l" horiz-adv-x="237" d="M43 683 C76 692 88 702 88 625 C88 625 88 30 88 30 C88 15 79 15 52 15 C52 15 46 15 46 15 C45 10 43 6 43 0 C43 0 203 0 203 0 C202 3 201 14 201 15 C201 15 194 15 194 15 C167 15 158 15 158 30 C158 30 158 642 158 642 C158 642 158 728 158 728 C158 728 146 728 146 728 C146 728 40 697 40 697 C42 690 43 686 43 683 L43 683 Z " />
<glyph glyph-name="m" unicode="m" horiz-adv-x="793" d="M602 0 C602 0 762 0 762 0 C761 6 759 10 759 15 C759 15 752 15 752 15 C724 15 714 14 714 50 C714 50 714 323 714 323 C714 444 699 488 588 488 C514 488 472 457 432 370 C427 456 402 488 307 488 C234 488 193 455 152 364 C152 364 152 392 152 392 C152 392 152 478 152 478 C152 478 140 478 140 478 C140 478 34 439 34 439 C35 434 37 431 37 425 C70 434 82 449 82 371 C82 371 82 50 82 50 C82 14 72 15 44 15 C44 15 37 15 37 15 C37 14 34 0 34 0 C34 0 192 0 192 0 C191 6 189 10 189 15 C189 15 182 15 182 15 C160 15 152 14 152 50 C152 50 152 358 152 358 C178 415 211 436 278 436 C353 436 363 406 363 323 C363 323 363 50 363 50 C363 14 354 15 330 15 C330 15 323 15 323 15 C322 11 321 1 321 0 C321 0 470 0 470 0 C469 3 468 14 468 15 C468 15 461 15 461 15 C440 15 433 14 433 50 C433 50 433 323 433 323 C433 338 433 352 432 365 C458 417 492 436 559 436 C634 436 644 406 644 323 C644 323 644 50 644 50 C644 14 635 15 611 15 C611 15 604 15 604 15 C603 11 602 1 602 0 L602 0 Z " />
<glyph glyph-name="n" unicode="n" horiz-adv-x="512" d="M37 425 C70 434 82 449 82 371 C82 371 82 30 82 30 C82 15 73 15 46 15 C46 15 40 15 40 15 C39 10 37 6 37 0 C37 0 197 0 197 0 C196 3 195 14 195 15 C195 15 188 15 188 15 C161 15 152 15 152 30 C152 30 152 350 152 350 C186 424 221 451 284 451 C348 451 363 419 363 329 C363 329 363 30 363 30 C363 15 354 15 327 15 C327 15 320 15 320 15 C319 11 318 1 318 0 C318 0 478 0 478 0 C477 3 476 14 476 15 C476 15 469 15 469 15 C442 15 433 15 433 30 C433 30 433 329 433 329 C433 446 409 488 307 488 C235 488 194 455 152 362 C152 362 152 392 152 392 C152 392 152 478 152 478 C152 478 140 478 140 478 C140 478 34 439 34 439 C35 434 37 431 37 425 L37 425 Z " />
<glyph glyph-name="o" unicode="o" horiz-adv-x="590" d="M295 -3 C168 -3 122 61 122 239 C122 417 168 481 295 481 C422 481 468 417 468 239 C468 61 422 -3 295 -3 L295 -3 Z M45 239 C45 56 111 -10 295 -10 C479 -10 545 56 545 239 C545 422 479 488 295 488 C111 488 45 422 45 239 L45 239 Z " />
<glyph glyph-name="p" unicode="p" horiz-adv-x="541" d="M38 425 C71 434 83 449 83 371 C83 371 83 -159 83 -159 C83 -206 73 -205 45 -205 C45 -205 38 -205 38 -205 C38 -206 35 -220 35 -220 C35 -220 201 -220 201 -220 C201 -220 198 -205 198 -205 C198 -205 191 -205 191 -205 C163 -205 153 -206 153 -159 C153 -159 153 58 153 58 C173 13 216 -5 290 -5 C441 -5 496 79 496 244 C496 423 441 488 290 488 C215 488 177 463 153 396 C153 396 153 478 153 478 C153 478 141 478 141 478 C141 478 35 439 35 439 C36 434 38 431 38 425 C38 425 38 425 38 425 L38 425 Z M153 81 C153 81 153 368 153 368 C175 434 205 458 258 458 C376 458 419 396 419 222 C419 75 384 0 288 0 C210 0 169 23 153 81 L153 81 Z " />
<glyph glyph-name="q" unicode="q" horiz-adv-x="557" d="M339 -220 C339 -220 505 -220 505 -220 C504 -214 502 -210 502 -205 C502 -205 495 -205 495 -205 C467 -205 457 -205 457 -190 C457 -190 457 478 457 478 C457 478 453 478 453 478 C453 478 429 418 429 418 C380 469 337 488 269 488 C74 488 28 422 28 241 C28 60 84 -5 241 -5 C290 -5 329 14 387 67 C387 67 387 -190 387 -190 C387 -205 377 -205 348 -205 C348 -205 341 -205 341 -205 C340 -209 339 -219 339 -220 L339 -220 Z M387 377 C387 377 387 91 387 91 C334 42 302 24 270 24 C145 24 100 87 100 260 C100 416 132 472 265 472 C317 472 349 447 387 377 L387 377 Z " />
<glyph glyph-name="r" unicode="r" horiz-adv-x="372" d="M43 425 C76 434 88 449 88 371 C88 371 88 30 88 30 C88 15 79 15 55 15 C55 15 48 15 48 15 C47 11 46 1 46 0 C46 0 206 0 206 0 C206 0 203 15 203 15 C203 15 196 15 196 15 C168 15 158 15 158 30 C158 30 158 369 158 369 C172 431 200 455 257 455 C286 455 293 429 280 357 C275 327 286 316 321 316 C346 316 357 327 362 357 C380 453 360 488 290 488 C212 488 175 459 158 381 C158 381 158 392 158 392 C158 392 158 478 158 478 C158 478 146 478 146 478 C146 478 40 439 40 439 C41 434 43 431 43 425 L43 425 Z " />
<glyph glyph-name="s" unicode="s" horiz-adv-x="419" d="M343 361 C343 361 343 406 343 406 C343 406 343 471 343 471 C336 470 333 468 327 468 C327 468 327 452 327 452 C327 455 316 461 284 473 C264 483 238 488 204 488 C108 488 73 456 73 366 C73 284 99 246 207 212 C294 185 315 158 315 101 C315 23 290 -5 222 -5 C215 -5 208 -5 201 -4 C201 -4 211 -4 211 -4 C202 -4 194 -3 187 -1 C146 9 119 38 91 98 C91 98 90 98 90 98 C89 106 88 115 88 124 C88 124 88 133 88 133 C84 134 73 135 72 135 C72 135 72 90 72 90 C72 90 72 42 72 42 C76 43 87 44 88 44 C88 44 88 56 88 56 C88 37 106 16 158 -1 C176 -7 197 -10 222 -10 C330 -10 369 25 369 121 C369 197 344 232 238 266 C144 295 122 325 122 390 C122 458 144 482 204 482 C214 482 224 481 232 480 C232 480 204 482 204 482 C215 482 226 481 235 480 C235 480 232 480 232 480 C275 473 300 449 324 398 C324 398 325 398 325 398 C326 390 327 381 327 372 C327 372 327 363 327 363 C331 362 342 361 343 361 C343 361 343 361 343 361 L343 361 Z " />
<glyph glyph-name="t" unicode="t" horiz-adv-x="349" d="M306 478 C306 478 163 478 163 478 C163 478 163 592 163 592 C163 592 158 592 158 592 C158 592 28 461 28 461 C28 461 28 451 28 451 C28 451 93 451 93 451 C93 451 93 140 93 140 C93 8 126 -10 216 -10 C274 -10 307 14 340 80 C340 80 331 84 331 84 C309 39 284 23 238 23 C181 23 160 35 161 124 C161 124 163 441 163 441 C163 441 306 441 306 441 C306 441 306 478 306 478 L306 478 Z " />
<glyph glyph-name="u" unicode="u" horiz-adv-x="483" d="M454 31 C420 21 409 12 409 100 C409 100 409 447 409 447 C409 447 409 478 409 478 C409 478 302 478 302 478 C303 474 304 463 304 462 C304 462 311 462 311 462 C332 462 339 462 339 447 C339 447 339 128 339 128 C312 63 280 39 221 39 C159 39 136 70 136 156 C136 156 136 447 136 447 C136 447 136 478 136 478 C136 478 29 478 29 478 C30 474 31 463 31 462 C31 462 38 462 38 462 C59 462 66 462 66 447 C66 447 66 156 66 156 C66 34 98 -10 188 -10 C260 -10 302 25 339 121 C339 121 339 85 339 85 C339 85 339 -10 339 -10 C339 -10 351 -10 351 -10 C351 -10 457 16 457 16 C457 16 454 31 454 31 L454 31 Z " />
<glyph glyph-name="v" unicode="v" horiz-adv-x="453" d="M436 478 C436 478 394 478 394 478 C394 478 362 478 362 478 C362 478 309 478 309 478 C310 474 311 463 311 462 C311 462 331 462 331 462 C350 462 357 463 347 432 C347 432 347 432 347 432 C347 432 234 80 234 80 C234 80 125 452 125 452 C123 463 128 462 137 462 C137 462 157 462 157 462 C158 466 159 477 159 478 C159 478 117 478 117 478 C117 478 40 478 40 478 C40 478 6 478 6 478 C7 474 8 463 8 462 C8 462 31 462 31 462 C39 462 44 463 49 452 C49 452 205 -10 205 -10 C205 -10 225 -10 225 -10 C225 -10 381 442 381 442 C391 463 398 462 412 462 C412 462 434 462 434 462 C435 466 436 477 436 478 C436 478 436 478 436 478 L436 478 Z " />
<glyph glyph-name="w" unicode="w" horiz-adv-x="739" d="M711 478 C711 478 670 478 670 478 C670 478 637 478 637 478 C637 478 584 478 584 478 C585 474 586 463 586 462 C586 462 606 462 606 462 C625 462 632 463 622 436 C622 436 622 436 622 436 C622 436 499 79 499 79 C499 79 396 443 396 443 C396 443 396 443 396 443 C396 443 396 444 396 444 C396 444 392 456 392 456 C391 463 395 462 401 462 C401 462 421 462 421 462 C422 466 423 477 423 478 C423 478 386 478 386 478 C386 478 307 478 307 478 C307 478 275 478 275 478 C276 474 277 463 277 462 C277 462 300 462 300 462 C308 462 311 463 316 451 C316 451 355 333 355 333 C355 333 239 -10 239 -10 C239 -10 269 80 269 80 C269 80 162 451 162 451 C159 463 162 462 169 462 C169 462 189 462 189 462 C190 466 191 477 191 478 C191 478 154 478 154 478 C154 478 76 478 76 478 C76 478 44 478 44 478 C45 474 46 463 46 462 C46 462 69 462 69 462 C77 462 80 463 85 450 C85 450 239 -10 239 -10 C239 -10 260 -10 260 -10 C260 -10 368 294 368 294 C368 294 468 -10 468 -10 C468 -10 489 -10 489 -10 C489 -10 655 437 655 437 C666 463 672 462 687 462 C687 462 709 462 709 462 C710 466 711 477 711 478 C711 478 711 478 711 478 L711 478 Z " />
<glyph glyph-name="x" unicode="x" horiz-adv-x="486" d="M25 0 C25 0 57 0 57 0 C57 0 89 0 89 0 C89 0 144 0 144 0 C143 3 142 14 142 15 C142 15 124 15 124 15 C109 15 100 15 107 30 C107 30 216 208 216 208 C216 208 309 59 309 59 C309 59 309 59 309 59 C337 14 332 15 321 15 C321 15 303 15 303 15 C302 11 301 1 301 0 C301 0 346 0 346 0 C346 0 432 0 432 0 C432 0 459 0 459 0 C458 3 457 14 457 15 C457 15 434 15 434 15 C427 15 424 14 411 34 C411 34 264 270 264 270 C264 270 359 418 359 418 C359 418 360 418 360 418 C362 422 364 425 366 428 C366 428 378 447 378 447 C389 463 394 462 405 462 C405 462 428 462 428 462 C429 466 430 477 430 478 C430 478 398 478 398 478 C398 478 366 478 366 478 C366 478 316 478 316 478 C317 474 318 463 318 462 C318 462 335 462 335 462 C351 462 358 463 332 421 C332 421 333 421 333 421 C333 421 254 286 254 286 C254 286 156 444 156 444 C146 463 151 462 160 462 C160 462 177 462 177 462 C178 466 179 477 179 478 C179 478 135 478 135 478 C135 478 49 478 49 478 C49 478 27 478 27 478 C28 474 29 463 29 462 C29 462 53 462 53 462 C57 462 58 463 80 428 C80 428 80 428 80 428 C80 428 208 223 208 223 C208 223 94 55 94 55 C66 14 62 15 49 15 C49 15 27 15 27 15 C26 11 25 1 25 0 C25 0 25 0 25 0 L25 0 Z " />
<glyph glyph-name="y" unicode="y" horiz-adv-x="483" d="M465 478 C465 478 424 478 424 478 C424 478 392 478 392 478 C392 478 339 478 339 478 C340 474 341 463 341 462 C341 462 361 462 361 462 C379 462 386 463 376 432 C376 432 376 432 376 432 C376 432 228 -10 228 -10 C228 -10 258 80 258 80 C258 80 141 436 141 436 C141 436 141 436 141 436 C140 438 139 440 139 442 C139 442 138 446 138 446 C132 463 137 462 147 462 C147 462 167 462 167 462 C168 466 169 477 169 478 C169 478 127 478 127 478 C127 478 50 478 50 478 C50 478 17 478 17 478 C18 474 19 463 19 462 C19 462 41 462 41 462 C50 462 54 463 60 450 C60 450 228 -10 228 -10 C228 -10 184 -140 184 -140 C178 -158 170 -165 154 -165 C133 -165 135 -140 114 -140 C85 -140 74 -149 74 -175 C74 -207 85 -218 116 -218 C161 -218 182 -202 197 -159 C197 -159 248 -10 248 -10 C248 -10 402 416 402 416 C402 416 402 416 402 416 C417 463 423 462 441 462 C441 462 463 462 463 462 C464 466 465 477 465 478 L465 478 Z " />
<glyph glyph-name="z" unicode="z" horiz-adv-x="446" d="M101 499 C101 499 99 499 94 500 C94 500 86 500 86 500 C77 466 68 433 59 400 C63 401 64 403 67 403 C67 403 77 410 77 410 C126 444 141 456 210 456 C210 456 209 456 209 456 C209 456 322 459 322 459 C322 459 30 16 30 16 C30 16 30 0 30 0 C30 0 104 0 104 0 C104 0 335 0 335 0 C335 0 401 0 401 0 C401 0 412 77 412 77 C412 77 406 74 406 74 C406 74 395 67 395 67 C350 39 331 26 279 22 C279 22 116 18 116 18 C116 18 406 461 406 461 C406 461 406 478 406 478 C406 478 335 478 335 478 C335 478 116 478 116 478 C99 478 97 486 101 499 L101 499 Z " />
<glyph glyph-name="bar" unicode="&#x7c;" horiz-adv-x="174" d="M60 778 C60 778 60 -250 60 -250 C60 -250 114 -250 114 -250 C114 -250 114 778 114 778 C114 778 60 778 60 778 L60 778 Z " />
<glyph glyph-name="exclamdown" unicode="&#xa1;" horiz-adv-x="225" d="M113 483 C77 483 64 470 63 433 C64 397 77 384 113 384 C149 384 163 397 162 433 C163 470 149 483 113 483 L113 483 Z M113 -255 C161 -255 162 -230 156 -159 C156 -159 119 277 119 277 C119 277 106 277 106 277 C106 277 70 -159 70 -159 C64 -230 64 -255 113 -255 L113 -255 Z " />
<glyph glyph-name="cent" unicode="&#xa2;" horiz-adv-x="464" d="M244 553 C244 553 244 487 244 487 C99 480 46 408 46 226 C46 58 99 -7 244 -10 C244 -10 244 -75 244 -75 C244 -75 268 -75 268 -75 C268 -75 268 -10 268 -10 C367 -6 412 42 434 166 C434 166 424 168 424 168 C406 69 368 33 280 33 C276 33 272 33 268 33 C268 33 268 472 268 472 C309 472 333 447 356 383 C368 351 379 340 399 340 C441 340 452 351 441 383 C413 460 368 488 271 488 C270 488 269 488 268 488 C268 488 268 553 268 553 C268 553 244 553 244 553 L244 553 Z M244 35 C152 47 118 111 118 259 C118 405 152 463 244 471 C244 471 244 35 244 35 L244 35 Z " />
<glyph glyph-name="questiondown" unicode="&#xbf;" horiz-adv-x="301" d="M177 483 C141 483 128 470 127 433 C128 397 141 384 177 384 C213 384 226 397 226 433 C226 470 213 483 177 483 L177 483 Z M179 288 C179 288 177 128 177 128 C68 129 62 106 18 44 C-3 13 -10 -15 -11 -60 C-10 -207 34 -259 157 -260 C205 -259 223 -246 223 -208 C223 -182 213 -173 185 -173 C164 -173 152 -185 131 -186 C42 -185 10 -150 10 -52 C10 -32 16 -15 34 10 C59 46 54 59 201 58 C201 58 191 288 191 288 C191 288 179 288 179 288 L179 288 Z " />
<glyph glyph-name="Agrave" unicode="&#xc0;" horiz-adv-x="654" d="M434 0 C434 0 508 0 508 0 C508 0 590 0 590 0 C590 0 638 0 638 0 C637 3 636 14 636 15 C636 15 614 15 614 15 C596 15 588 13 562 90 C562 90 374 704 374 704 C374 704 360 748 360 748 C360 748 352 748 352 748 C331 719 316 707 296 704 C296 704 299 694 299 694 C299 694 299 694 299 694 C299 694 127 123 127 123 C91 12 78 15 44 15 C44 15 23 15 23 15 C22 11 21 1 21 0 C21 0 90 0 90 0 C90 0 98 0 98 0 C98 0 188 0 188 0 C187 3 186 14 186 15 C186 15 166 15 166 15 C119 15 101 11 147 165 C147 165 147 165 147 165 C147 165 186 296 186 296 C186 296 419 296 419 296 C419 296 467 135 467 135 C467 135 467 135 467 135 C504 12 490 15 456 15 C456 15 436 15 436 15 C435 11 434 1 434 0 L434 0 Z M229 944 C188 994 173 1012 165 1012 C142 1012 130 1000 130 977 C130 969 148 953 197 912 C197 912 338 791 338 791 C338 791 346 799 346 799 C346 799 229 944 229 944 L229 944 Z M188 303 C188 303 302 686 302 686 C302 686 417 303 417 303 C417 303 188 303 188 303 L188 303 Z " />
<glyph glyph-name="Aacute" unicode="&#xc1;" horiz-adv-x="654" d="M342 791 C342 791 483 912 483 912 C531 955 549 971 549 977 C549 1000 537 1012 514 1012 C509 1012 493 994 451 944 C451 944 333 799 333 799 C333 799 342 791 342 791 L342 791 Z M434 0 C434 0 508 0 508 0 C508 0 590 0 590 0 C590 0 638 0 638 0 C637 3 636 14 636 15 C636 15 614 15 614 15 C596 15 588 13 562 90 C562 90 374 704 374 704 C374 704 360 748 360 748 C360 748 352 748 352 748 C331 719 316 707 296 704 C296 704 299 694 299 694 C299 694 299 694 299 694 C299 694 127 123 127 123 C91 12 78 15 44 15 C44 15 23 15 23 15 C22 11 21 1 21 0 C21 0 90 0 90 0 C90 0 98 0 98 0 C98 0 188 0 188 0 C187 3 186 14 186 15 C186 15 166 15 166 15 C119 15 101 11 147 165 C147 165 147 165 147 165 C147 165 186 296 186 296 C186 296 419 296 419 296 C419 296 467 135 467 135 C467 135 467 135 467 135 C504 12 490 15 456 15 C456 15 436 15 436 15 C435 11 434 1 434 0 L434 0 Z M188 303 C188 303 302 686 302 686 C302 686 417 303 417 303 C417 303 188 303 188 303 L188 303 Z " />
<glyph glyph-name="Acircumflex" unicode="&#xc2;" horiz-adv-x="654" d="M434 0 C434 0 508 0 508 0 C508 0 590 0 590 0 C590 0 638 0 638 0 C637 3 636 14 636 15 C636 15 614 15 614 15 C596 15 588 13 562 90 C562 90 374 704 374 704 C374 704 360 748 360 748 C360 748 352 748 352 748 C331 719 316 707 296 704 C296 704 299 694 299 694 C299 694 299 694 299 694 C299 694 127 123 127 123 C91 12 78 15 44 15 C44 15 23 15 23 15 C22 11 21 1 21 0 C21 0 90 0 90 0 C90 0 98 0 98 0 C98 0 188 0 188 0 C187 3 186 14 186 15 C186 15 166 15 166 15 C119 15 101 11 147 165 C147 165 147 165 147 165 C147 165 186 296 186 296 C186 296 419 296 419 296 C419 296 467 135 467 135 C467 135 467 135 467 135 C504 12 490 15 456 15 C456 15 436 15 436 15 C435 11 434 1 434 0 L434 0 Z M335 936 C335 936 476 785 476 785 C476 785 485 792 485 792 C485 792 359 987 359 987 C353 996 344 1012 335 1012 C325 1012 316 996 310 987 C310 987 184 792 184 792 C184 792 193 785 193 785 C193 785 335 936 335 936 L335 936 Z M188 303 C188 303 302 686 302 686 C302 686 417 303 417 303 C417 303 188 303 188 303 L188 303 Z " />
<glyph glyph-name="Atilde" unicode="&#xc3;" horiz-adv-x="654" d="M205 848 C205 893 216 910 245 910 C313 910 336 845 404 845 C452 845 469 874 469 955 C469 955 465 955 465 955 C465 911 453 895 420 895 C352 895 329 960 261 960 C217 960 201 930 201 848 C201 848 205 848 205 848 L205 848 Z M434 0 C434 0 508 0 508 0 C508 0 590 0 590 0 C590 0 638 0 638 0 C637 3 636 14 636 15 C636 15 614 15 614 15 C596 15 588 13 562 90 C562 90 374 704 374 704 C374 704 360 748 360 748 C360 748 352 748 352 748 C331 719 316 707 296 704 C296 704 299 694 299 694 C299 694 299 694 299 694 C299 694 127 123 127 123 C91 12 78 15 44 15 C44 15 23 15 23 15 C22 11 21 1 21 0 C21 0 90 0 90 0 C90 0 98 0 98 0 C98 0 188 0 188 0 C187 3 186 14 186 15 C186 15 166 15 166 15 C119 15 101 11 147 165 C147 165 147 165 147 165 C147 165 186 296 186 296 C186 296 419 296 419 296 C419 296 467 135 467 135 C467 135 467 135 467 135 C504 12 490 15 456 15 C456 15 436 15 436 15 C435 11 434 1 434 0 L434 0 Z M188 303 C188 303 302 686 302 686 C302 686 417 303 417 303 C417 303 188 303 188 303 L188 303 Z " />
<glyph glyph-name="Adieresis" unicode="&#xc4;" horiz-adv-x="654" d="M406 843 C439 843 451 855 451 888 C451 921 439 933 406 933 C373 933 361 921 361 888 C361 855 373 843 406 843 L406 843 Z M263 843 C297 843 309 855 309 888 C309 921 297 933 263 933 C230 933 218 921 218 888 C218 855 230 843 263 843 L263 843 Z M434 0 C434 0 508 0 508 0 C508 0 590 0 590 0 C590 0 638 0 638 0 C637 3 636 14 636 15 C636 15 614 15 614 15 C596 15 588 13 562 90 C562 90 374 704 374 704 C374 704 360 748 360 748 C360 748 352 748 352 748 C331 719 316 707 296 704 C296 704 299 694 299 694 C299 694 299 694 299 694 C299 694 127 123 127 123 C91 12 78 15 44 15 C44 15 23 15 23 15 C22 11 21 1 21 0 C21 0 90 0 90 0 C90 0 98 0 98 0 C98 0 188 0 188 0 C187 3 186 14 186 15 C186 15 166 15 166 15 C119 15 101 11 147 165 C147 165 147 165 147 165 C147 165 186 296 186 296 C186 296 419 296 419 296 C419 296 467 135 467 135 C467 135 467 135 467 135 C504 12 490 15 456 15 C456 15 436 15 436 15 C435 11 434 1 434 0 L434 0 Z M188 303 C188 303 302 686 302 686 C302 686 417 303 417 303 C417 303 188 303 188 303 L188 303 Z " />
<glyph glyph-name="Aring" unicode="&#xc5;" horiz-adv-x="654" d="M335 804 C284 804 258 831 258 883 C258 940 278 961 335 961 C391 961 411 940 411 883 C411 831 385 804 335 804 L335 804 Z M238 883 C238 820 271 788 335 788 C399 788 432 820 432 883 C432 953 406 978 335 978 C264 978 238 953 238 883 L238 883 Z M434 0 C434 0 508 0 508 0 C508 0 590 0 590 0 C590 0 638 0 638 0 C637 3 636 14 636 15 C636 15 614 15 614 15 C596 15 588 13 562 90 C562 90 374 704 374 704 C374 704 360 748 360 748 C360 748 352 748 352 748 C331 719 316 707 296 704 C296 704 299 694 299 694 C299 694 299 694 299 694 C299 694 127 123 127 123 C91 12 78 15 44 15 C44 15 23 15 23 15 C22 11 21 1 21 0 C21 0 90 0 90 0 C90 0 98 0 98 0 C98 0 188 0 188 0 C187 3 186 14 186 15 C186 15 166 15 166 15 C119 15 101 11 147 165 C147 165 147 165 147 165 C147 165 186 296 186 296 C186 296 419 296 419 296 C419 296 467 135 467 135 C467 135 467 135 467 135 C504 12 490 15 456 15 C456 15 436 15 436 15 C435 11 434 1 434 0 L434 0 Z M188 303 C188 303 302 686 302 686 C302 686 417 303 417 303 C417 303 188 303 188 303 L188 303 Z " />
<glyph glyph-name="Egrave" unicode="&#xc8;" horiz-adv-x="571" d="M509 72 C502 22 508 5 400 5 C400 5 268 5 268 5 C209 5 199 15 198 41 C198 41 198 69 198 69 C198 69 198 80 198 80 C198 80 198 389 198 389 C198 389 314 389 314 389 C417 389 414 371 414 322 C414 322 414 315 414 315 C420 313 424 313 430 310 C430 310 430 389 430 389 C430 389 430 395 430 395 C430 395 430 474 430 474 C426 473 415 471 414 470 C414 470 414 463 414 463 C414 413 417 395 314 395 C314 395 198 395 198 395 C198 395 198 647 198 647 C198 647 198 722 198 722 C198 722 375 722 375 722 C498 722 476 706 479 663 C479 663 479 656 479 656 C483 655 494 652 495 652 C494 666 493 676 492 690 C492 704 491 714 490 728 C490 728 374 728 374 728 C374 728 198 728 198 728 C198 728 120 728 120 728 C120 728 61 728 61 728 C62 721 64 718 64 712 C64 712 71 712 71 712 C107 712 120 714 120 647 C120 647 120 80 120 80 C120 13 107 15 71 15 C71 15 64 15 64 15 C64 14 61 0 61 0 C61 0 120 0 120 0 C120 0 198 0 198 0 C198 0 399 0 399 0 C399 0 515 0 515 0 C519 25 523 51 525 76 C525 76 511 72 509 72 L509 72 Z M199 944 C159 994 143 1012 135 1012 C112 1012 100 1000 100 977 C100 969 118 953 167 912 C167 912 308 791 308 791 C308 791 316 799 316 799 C316 799 199 944 199 944 L199 944 Z " />
<glyph glyph-name="Eacute" unicode="&#xc9;" horiz-adv-x="571" d="M312 791 C312 791 453 912 453 912 C501 955 519 971 519 977 C519 1000 507 1012 484 1012 C479 1012 463 994 421 944 C421 944 303 799 303 799 C303 799 312 791 312 791 L312 791 Z M509 72 C502 22 508 5 400 5 C400 5 268 5 268 5 C209 5 199 15 198 41 C198 41 198 69 198 69 C198 69 198 80 198 80 C198 80 198 389 198 389 C198 389 314 389 314 389 C417 389 414 371 414 322 C414 322 414 315 414 315 C420 313 424 313 430 310 C430 310 430 389 430 389 C430 389 430 395 430 395 C430 395 430 474 430 474 C426 473 415 471 414 470 C414 470 414 463 414 463 C414 413 417 395 314 395 C314 395 198 395 198 395 C198 395 198 647 198 647 C198 647 198 722 198 722 C198 722 375 722 375 722 C498 722 476 706 479 663 C479 663 479 656 479 656 C483 655 494 652 495 652 C494 666 493 676 492 690 C492 704 491 714 490 728 C490 728 374 728 374 728 C374 728 198 728 198 728 C198 728 120 728 120 728 C120 728 61 728 61 728 C62 721 64 718 64 712 C64 712 71 712 71 712 C107 712 120 714 120 647 C120 647 120 80 120 80 C120 13 107 15 71 15 C71 15 64 15 64 15 C64 14 61 0 61 0 C61 0 120 0 120 0 C120 0 198 0 198 0 C198 0 399 0 399 0 C399 0 515 0 515 0 C519 25 523 51 525 76 C525 76 511 72 509 72 L509 72 Z " />
<glyph glyph-name="Ecircumflex" unicode="&#xca;" horiz-adv-x="571" d="M509 72 C502 22 508 5 400 5 C400 5 268 5 268 5 C209 5 199 15 198 41 C198 41 198 69 198 69 C198 69 198 80 198 80 C198 80 198 389 198 389 C198 389 314 389 314 389 C417 389 414 371 414 322 C414 322 414 315 414 315 C420 313 424 313 430 310 C430 310 430 389 430 389 C430 389 430 395 430 395 C430 395 430 474 430 474 C426 473 415 471 414 470 C414 470 414 463 414 463 C414 413 417 395 314 395 C314 395 198 395 198 395 C198 395 198 647 198 647 C198 647 198 722 198 722 C198 722 375 722 375 722 C498 722 476 706 479 663 C479 663 479 656 479 656 C483 655 494 652 495 652 C494 666 493 676 492 690 C492 704 491 714 490 728 C490 728 374 728 374 728 C374 728 198 728 198 728 C198 728 120 728 120 728 C120 728 61 728 61 728 C62 721 64 718 64 712 C64 712 71 712 71 712 C107 712 120 714 120 647 C120 647 120 80 120 80 C120 13 107 15 71 15 C71 15 64 15 64 15 C64 14 61 0 61 0 C61 0 120 0 120 0 C120 0 198 0 198 0 C198 0 399 0 399 0 C399 0 515 0 515 0 C519 25 523 51 525 76 C525 76 511 72 509 72 L509 72 Z M305 936 C305 936 446 785 446 785 C446 785 455 792 455 792 C455 792 330 987 330 987 C324 996 314 1012 305 1012 C295 1012 286 996 280 987 C280 987 154 792 154 792 C154 792 164 785 164 785 C164 785 305 936 305 936 L305 936 Z " />
<glyph glyph-name="Edieresis" unicode="&#xcb;" horiz-adv-x="571" d="M376 843 C409 843 421 855 421 888 C421 921 409 933 376 933 C343 933 331 921 331 888 C331 855 343 843 376 843 L376 843 Z M234 843 C267 843 279 855 279 888 C279 921 267 933 234 933 C200 933 188 921 188 888 C188 855 200 843 234 843 L234 843 Z M509 72 C502 22 508 5 400 5 C400 5 268 5 268 5 C209 5 199 15 198 41 C198 41 198 69 198 69 C198 69 198 80 198 80 C198 80 198 389 198 389 C198 389 314 389 314 389 C417 389 414 371 414 322 C414 322 414 315 414 315 C420 313 424 313 430 310 C430 310 430 389 430 389 C430 389 430 395 430 395 C430 395 430 474 430 474 C426 473 415 471 414 470 C414 470 414 463 414 463 C414 413 417 395 314 395 C314 395 198 395 198 395 C198 395 198 647 198 647 C198 647 198 722 198 722 C198 722 375 722 375 722 C498 722 476 706 479 663 C479 663 479 656 479 656 C483 655 494 652 495 652 C494 666 493 676 492 690 C492 704 491 714 490 728 C490 728 374 728 374 728 C374 728 198 728 198 728 C198 728 120 728 120 728 C120 728 61 728 61 728 C62 721 64 718 64 712 C64 712 71 712 71 712 C107 712 120 714 120 647 C120 647 120 80 120 80 C120 13 107 15 71 15 C71 15 64 15 64 15 C64 14 61 0 61 0 C61 0 120 0 120 0 C120 0 198 0 198 0 C198 0 399 0 399 0 C399 0 515 0 515 0 C519 25 523 51 525 76 C525 76 511 72 509 72 L509 72 Z " />
<glyph glyph-name="Igrave" unicode="&#xcc;" horiz-adv-x="313" d="M258 728 C258 728 61 728 61 728 C62 724 64 713 65 712 C65 712 72 712 72 712 C107 712 120 714 120 652 C120 652 120 75 120 75 C120 13 107 15 72 15 C72 15 65 15 65 15 C65 12 62 1 61 0 C61 0 258 0 258 0 C257 6 255 10 255 15 C255 15 248 15 248 15 C212 15 199 13 199 75 C199 75 199 652 199 652 C199 714 212 712 248 712 C248 712 255 712 255 712 C255 712 258 728 258 728 L258 728 Z M54 944 C13 994 -2 1012 -10 1012 C-33 1012 -45 1000 -45 977 C-45 969 -27 953 22 912 C22 912 162 791 162 791 C162 791 171 799 171 799 C171 799 54 944 54 944 L54 944 Z " />
<glyph glyph-name="Iacute" unicode="&#xcd;" horiz-adv-x="313" d="M167 791 C167 791 308 912 308 912 C356 955 374 971 374 977 C374 1000 362 1012 339 1012 C333 1012 317 994 276 944 C276 944 158 799 158 799 C158 799 167 791 167 791 L167 791 Z M258 728 C258 728 61 728 61 728 C62 724 64 713 65 712 C65 712 72 712 72 712 C107 712 120 714 120 652 C120 652 120 75 120 75 C120 13 107 15 72 15 C72 15 65 15 65 15 C65 12 62 1 61 0 C61 0 258 0 258 0 C257 6 255 10 255 15 C255 15 248 15 248 15 C212 15 199 13 199 75 C199 75 199 652 199 652 C199 714 212 712 248 712 C248 712 255 712 255 712 C255 712 258 728 258 728 L258 728 Z " />
<glyph glyph-name="Icircumflex" unicode="&#xce;" horiz-adv-x="313" d="M258 728 C258 728 61 728 61 728 C62 724 64 713 65 712 C65 712 72 712 72 712 C107 712 120 714 120 652 C120 652 120 75 120 75 C120 13 107 15 72 15 C72 15 65 15 65 15 C65 12 62 1 61 0 C61 0 258 0 258 0 C257 6 255 10 255 15 C255 15 248 15 248 15 C212 15 199 13 199 75 C199 75 199 652 199 652 C199 714 212 712 248 712 C248 712 255 712 255 712 C255 712 258 728 258 728 L258 728 Z M160 936 C160 936 301 785 301 785 C301 785 310 792 310 792 C310 792 184 987 184 987 C178 996 169 1012 160 1012 C150 1012 141 996 135 987 C135 987 9 792 9 792 C9 792 18 785 18 785 C18 785 160 936 160 936 L160 936 Z " />
<glyph glyph-name="Idieresis" unicode="&#xcf;" horiz-adv-x="313" d="M231 843 C264 843 276 855 276 888 C276 921 264 933 231 933 C198 933 186 921 186 888 C186 855 198 843 231 843 L231 843 Z M88 843 C122 843 134 855 134 888 C134 921 122 933 88 933 C55 933 43 921 43 888 C43 855 55 843 88 843 L88 843 Z M258 728 C258 728 61 728 61 728 C62 724 64 713 65 712 C65 712 72 712 72 712 C107 712 120 714 120 652 C120 652 120 75 120 75 C120 13 107 15 72 15 C72 15 65 15 65 15 C65 12 62 1 61 0 C61 0 258 0 258 0 C257 6 255 10 255 15 C255 15 248 15 248 15 C212 15 199 13 199 75 C199 75 199 652 199 652 C199 714 212 712 248 712 C248 712 255 712 255 712 C255 712 258 728 258 728 L258 728 Z " />
<glyph glyph-name="Ntilde" unicode="&#xd1;" horiz-adv-x="691" d="M213 848 C213 893 224 910 253 910 C321 910 344 845 412 845 C459 845 476 874 476 955 C476 955 472 955 472 955 C472 911 460 895 428 895 C360 895 337 960 269 960 C225 960 209 930 209 848 C209 848 213 848 213 848 L213 848 Z M27 712 C27 712 49 712 49 712 C58 712 60 713 85 677 C85 677 86 678 86 678 C86 678 110 643 110 643 C110 643 109 145 109 145 C109 145 109 145 109 145 C109 11 97 15 64 15 C64 15 42 15 42 15 C41 11 40 1 40 0 C40 0 109 0 109 0 C109 0 132 0 132 0 C132 0 201 0 201 0 C200 3 199 14 199 15 C199 15 177 15 177 15 C144 15 132 12 132 135 C132 135 131 135 131 135 C131 135 129 615 129 615 C129 615 480 108 480 108 C480 108 555 0 555 0 C555 0 571 0 571 0 C571 0 575 637 575 637 C578 715 595 712 635 712 C635 712 642 712 642 712 C643 716 645 727 646 728 C646 728 576 728 576 728 C576 728 553 728 553 728 C553 728 483 728 483 728 C484 724 486 713 487 712 C487 712 494 712 494 712 C537 712 553 715 553 612 C553 612 553 612 553 612 C553 612 555 134 555 134 C555 134 543 150 543 150 C543 150 148 728 148 728 C148 728 129 728 129 728 C129 728 110 728 110 728 C110 728 51 728 51 728 C51 728 25 728 25 728 C26 724 27 713 27 712 C27 712 27 712 27 712 L27 712 Z " />
<glyph glyph-name="Ograve" unicode="&#xd2;" horiz-adv-x="808" d="M390 -3 C209 -3 144 94 144 364 C144 634 211 731 398 731 C593 731 664 634 664 364 C664 94 591 -3 390 -3 L390 -3 Z M55 364 C55 89 143 -10 389 -10 C657 -10 753 89 753 364 C753 639 659 738 399 738 C146 738 55 639 55 364 L55 364 Z M293 944 C253 994 237 1012 229 1012 C206 1012 194 1000 194 977 C194 969 212 953 261 912 C261 912 402 791 402 791 C402 791 410 799 410 799 C410 799 293 944 293 944 L293 944 Z " />
<glyph glyph-name="Oacute" unicode="&#xd3;" horiz-adv-x="808" d="M406 791 C406 791 547 912 547 912 C595 955 613 971 613 977 C613 1000 601 1012 579 1012 C573 1012 557 994 515 944 C515 944 397 799 397 799 C397 799 406 791 406 791 L406 791 Z M390 -3 C209 -3 144 94 144 364 C144 634 211 731 398 731 C593 731 664 634 664 364 C664 94 591 -3 390 -3 L390 -3 Z M55 364 C55 89 143 -10 389 -10 C657 -10 753 89 753 364 C753 639 659 738 399 738 C146 738 55 639 55 364 L55 364 Z " />
<glyph glyph-name="Ocircumflex" unicode="&#xd4;" horiz-adv-x="808" d="M390 -3 C209 -3 144 94 144 364 C144 634 211 731 398 731 C593 731 664 634 664 364 C664 94 591 -3 390 -3 L390 -3 Z M55 364 C55 89 143 -10 389 -10 C657 -10 753 89 753 364 C753 639 659 738 399 738 C146 738 55 639 55 364 L55 364 Z M399 936 C399 936 540 785 540 785 C540 785 550 792 550 792 C550 792 424 987 424 987 C418 996 408 1012 399 1012 C389 1012 380 996 374 987 C374 987 248 792 248 792 C248 792 258 785 258 785 C258 785 399 936 399 936 L399 936 Z " />
<glyph glyph-name="Otilde" unicode="&#xd5;" horiz-adv-x="808" d="M269 848 C269 893 280 910 309 910 C377 910 400 845 468 845 C516 845 533 874 533 955 C533 955 529 955 529 955 C529 911 517 895 484 895 C416 895 393 960 325 960 C281 960 265 930 265 848 C265 848 269 848 269 848 L269 848 Z M390 -3 C209 -3 144 94 144 364 C144 634 211 731 398 731 C593 731 664 634 664 364 C664 94 591 -3 390 -3 L390 -3 Z M55 364 C55 89 143 -10 389 -10 C657 -10 753 89 753 364 C753 639 659 738 399 738 C146 738 55 639 55 364 L55 364 Z " />
<glyph glyph-name="Odieresis" unicode="&#xd6;" horiz-adv-x="808" d="M470 843 C503 843 515 855 515 888 C515 921 503 933 470 933 C437 933 425 921 425 888 C425 855 437 843 470 843 L470 843 Z M328 843 C361 843 373 855 373 888 C373 921 361 933 328 933 C294 933 282 921 282 888 C282 855 294 843 328 843 L328 843 Z M390 -3 C209 -3 144 94 144 364 C144 634 211 731 398 731 C593 731 664 634 664 364 C664 94 591 -3 390 -3 L390 -3 Z M55 364 C55 89 143 -10 389 -10 C657 -10 753 89 753 364 C753 639 659 738 399 738 C146 738 55 639 55 364 L55 364 Z " />
<glyph glyph-name="Oslash" unicode="&#xd8;" horiz-adv-x="808" d="M59 -14 C59 -14 135 68 135 68 C188 13 270 -10 389 -10 C657 -10 753 89 753 364 C753 498 731 590 678 649 C678 649 757 734 757 734 C757 734 749 742 749 742 C749 742 670 658 670 658 C614 714 526 738 399 738 C146 738 55 639 55 364 C55 229 76 136 127 77 C127 77 50 -6 50 -6 C50 -6 59 -14 59 -14 L59 -14 Z M390 -3 C283 -3 216 31 180 115 C180 115 631 599 631 599 C654 542 664 465 664 364 C664 94 591 -3 390 -3 C390 -3 390 -3 390 -3 L390 -3 Z M175 128 C153 184 144 262 144 364 C144 634 211 731 398 731 C515 731 587 696 626 611 C626 611 175 128 175 128 L175 128 Z " />
<glyph glyph-name="Ugrave" unicode="&#xd9;" horiz-adv-x="643" d="M424 712 C424 712 431 712 431 712 C467 712 480 714 480 647 C480 647 480 178 480 178 C433 76 376 40 267 40 C190 40 163 86 163 215 C163 215 163 647 163 647 C163 647 163 728 163 728 C163 728 26 728 26 728 C27 721 29 718 29 712 C29 712 36 712 36 712 C72 712 85 714 85 647 C85 647 85 215 85 215 C85 50 125 -10 235 -10 C363 -10 428 30 480 142 C480 142 480 105 480 105 C480 105 480 0 480 0 C480 0 493 0 493 0 C493 0 614 53 614 53 C614 53 614 60 614 60 C557 57 559 54 559 105 C559 105 559 647 559 647 C559 647 559 728 559 728 C559 728 421 728 421 728 C422 721 424 718 424 712 L424 712 Z M216 944 C176 994 160 1012 152 1012 C129 1012 117 1000 117 977 C117 969 135 953 184 912 C184 912 325 791 325 791 C325 791 333 799 333 799 C333 799 216 944 216 944 L216 944 Z " />
<glyph glyph-name="Uacute" unicode="&#xda;" horiz-adv-x="643" d="M329 791 C329 791 470 912 470 912 C518 955 536 971 536 977 C536 1000 524 1012 501 1012 C496 1012 480 994 438 944 C438 944 320 799 320 799 C320 799 329 791 329 791 L329 791 Z M424 712 C424 712 431 712 431 712 C467 712 480 714 480 647 C480 647 480 178 480 178 C433 76 376 40 267 40 C190 40 163 86 163 215 C163 215 163 647 163 647 C163 647 163 728 163 728 C163 728 26 728 26 728 C27 721 29 718 29 712 C29 712 36 712 36 712 C72 712 85 714 85 647 C85 647 85 215 85 215 C85 50 125 -10 235 -10 C363 -10 428 30 480 142 C480 142 480 105 480 105 C480 105 480 0 480 0 C480 0 493 0 493 0 C493 0 614 53 614 53 C614 53 614 60 614 60 C557 57 559 54 559 105 C559 105 559 647 559 647 C559 647 559 728 559 728 C559 728 421 728 421 728 C422 721 424 718 424 712 L424 712 Z " />
<glyph glyph-name="Ucircumflex" unicode="&#xdb;" horiz-adv-x="643" d="M424 712 C424 712 431 712 431 712 C467 712 480 714 480 647 C480 647 480 178 480 178 C433 76 376 40 267 40 C190 40 163 86 163 215 C163 215 163 647 163 647 C163 647 163 728 163 728 C163 728 26 728 26 728 C27 721 29 718 29 712 C29 712 36 712 36 712 C72 712 85 714 85 647 C85 647 85 215 85 215 C85 50 125 -10 235 -10 C363 -10 428 30 480 142 C480 142 480 105 480 105 C480 105 480 0 480 0 C480 0 493 0 493 0 C493 0 614 53 614 53 C614 53 614 60 614 60 C557 57 559 54 559 105 C559 105 559 647 559 647 C559 647 559 728 559 728 C559 728 421 728 421 728 C422 721 424 718 424 712 L424 712 Z M322 936 C322 936 463 785 463 785 C463 785 472 792 472 792 C472 792 347 987 347 987 C341 996 331 1012 322 1012 C312 1012 303 996 297 987 C297 987 171 792 171 792 C171 792 181 785 181 785 C181 785 322 936 322 936 L322 936 Z " />
<glyph glyph-name="Udieresis" unicode="&#xdc;" horiz-adv-x="643" d="M393 843 C426 843 438 855 438 888 C438 921 426 933 393 933 C360 933 348 921 348 888 C348 855 360 843 393 843 L393 843 Z M251 843 C284 843 296 855 296 888 C296 921 284 933 251 933 C217 933 205 921 205 888 C205 855 217 843 251 843 L251 843 Z M424 712 C424 712 431 712 431 712 C467 712 480 714 480 647 C480 647 480 178 480 178 C433 76 376 40 267 40 C190 40 163 86 163 215 C163 215 163 647 163 647 C163 647 163 728 163 728 C163 728 26 728 26 728 C27 721 29 718 29 712 C29 712 36 712 36 712 C72 712 85 714 85 647 C85 647 85 215 85 215 C85 50 125 -10 235 -10 C363 -10 428 30 480 142 C480 142 480 105 480 105 C480 105 480 0 480 0 C480 0 493 0 493 0 C493 0 614 53 614 53 C614 53 614 60 614 60 C557 57 559 54 559 105 C559 105 559 647 559 647 C559 647 559 728 559 728 C559 728 421 728 421 728 C422 721 424 718 424 712 L424 712 Z " />
<glyph glyph-name="Yacute" unicode="&#xdd;" horiz-adv-x="631" d="M330 791 C330 791 470 912 470 912 C519 955 537 971 537 977 C537 1000 525 1012 502 1012 C496 1012 480 994 438 944 C438 944 321 799 321 799 C321 799 330 791 330 791 L330 791 Z M192 728 C192 728 134 728 134 728 C134 728 42 728 42 728 C42 728 14 728 14 728 C15 724 16 713 16 712 C16 712 39 712 39 712 C48 712 49 715 121 592 C121 592 121 592 121 592 C121 592 283 315 283 315 C283 315 283 75 283 75 C283 13 270 15 234 15 C234 15 227 15 227 15 C227 14 224 0 224 0 C224 0 421 0 421 0 C420 3 418 14 417 15 C417 15 410 15 410 15 C374 15 361 13 361 75 C361 75 361 326 361 326 C361 326 501 592 501 592 C501 592 501 592 501 592 C566 715 570 712 587 712 C587 712 609 712 609 712 C610 716 611 727 611 728 C611 728 572 728 572 728 C572 728 559 728 559 728 C559 728 501 728 501 728 C502 724 503 713 503 712 C503 712 522 712 522 712 C540 712 550 714 526 662 C526 662 496 604 496 604 C496 603 495 603 495 602 C495 602 495 602 495 602 C495 602 359 334 359 334 C359 334 171 662 171 662 C145 714 155 712 172 712 C172 712 190 712 190 712 C191 716 192 727 192 728 C192 728 192 728 192 728 L192 728 Z " />
<glyph glyph-name="agrave" unicode="&#xe0;" horiz-adv-x="494" d="M504 91 C504 91 492 98 492 98 C485 59 470 45 437 45 C396 45 381 57 381 89 C381 89 381 340 381 340 C381 465 346 488 250 488 C94 488 55 393 68 318 C76 274 86 258 107 258 C145 258 155 279 151 301 C147 326 131 341 127 364 C118 416 142 481 242 481 C293 481 311 463 311 366 C311 366 311 264 311 264 C74 129 48 116 48 81 C48 14 76 -10 156 -10 C224 -10 258 1 311 79 C314 18 341 -5 408 -5 C466 -5 492 21 504 91 C504 91 504 91 504 91 L504 91 Z M144 694 C104 744 88 762 80 762 C57 762 45 750 45 727 C45 719 63 703 112 662 C112 662 253 541 253 541 C253 541 261 549 261 549 C261 549 144 694 144 694 L144 694 Z M311 259 C311 259 311 89 311 89 C311 88 311 87 311 86 C275 34 248 27 193 27 C139 27 119 43 119 88 C119 153 138 160 311 259 L311 259 Z " />
<glyph glyph-name="aacute" unicode="&#xe1;" horiz-adv-x="494" d="M257 541 C257 541 398 662 398 662 C446 705 464 721 464 727 C464 750 452 762 429 762 C424 762 408 744 366 694 C366 694 248 549 248 549 C248 549 257 541 257 541 L257 541 Z M504 91 C504 91 492 98 492 98 C485 59 470 45 437 45 C396 45 381 57 381 89 C381 89 381 340 381 340 C381 465 346 488 250 488 C94 488 55 393 68 318 C76 274 86 258 107 258 C145 258 155 279 151 301 C147 326 131 341 127 364 C118 416 142 481 242 481 C293 481 311 463 311 366 C311 366 311 264 311 264 C74 129 48 116 48 81 C48 14 76 -10 156 -10 C224 -10 258 1 311 79 C314 18 341 -5 408 -5 C466 -5 492 21 504 91 C504 91 504 91 504 91 L504 91 Z M311 259 C311 259 311 89 311 89 C311 88 311 87 311 86 C275 34 248 27 193 27 C139 27 119 43 119 88 C119 153 138 160 311 259 L311 259 Z " />
<glyph glyph-name="acircumflex" unicode="&#xe2;" horiz-adv-x="494" d="M504 91 C504 91 492 98 492 98 C485 59 470 45 437 45 C396 45 381 57 381 89 C381 89 381 340 381 340 C381 465 346 488 250 488 C94 488 55 393 68 318 C76 274 86 258 107 258 C145 258 155 279 151 301 C147 326 131 341 127 364 C118 416 142 481 242 481 C293 481 311 463 311 366 C311 366 311 264 311 264 C74 129 48 116 48 81 C48 14 76 -10 156 -10 C224 -10 258 1 311 79 C314 18 341 -5 408 -5 C466 -5 492 21 504 91 C504 91 504 91 504 91 L504 91 Z M250 686 C250 686 391 535 391 535 C391 535 400 542 400 542 C400 542 275 737 275 737 C268 746 259 762 250 762 C240 762 231 746 225 737 C225 737 99 542 99 542 C99 542 109 535 109 535 C109 535 250 686 250 686 L250 686 Z M311 259 C311 259 311 89 311 89 C311 88 311 87 311 86 C275 34 248 27 193 27 C139 27 119 43 119 88 C119 153 138 160 311 259 L311 259 Z " />
<glyph glyph-name="atilde" unicode="&#xe3;" horiz-adv-x="494" d="M120 598 C120 643 131 660 160 660 C228 660 251 595 319 595 C367 595 384 624 384 705 C384 705 380 705 380 705 C380 661 368 645 335 645 C267 645 244 710 176 710 C132 710 116 680 116 598 C116 598 120 598 120 598 L120 598 Z M504 91 C504 91 492 98 492 98 C485 59 470 45 437 45 C396 45 381 57 381 89 C381 89 381 340 381 340 C381 465 346 488 250 488 C94 488 55 393 68 318 C76 274 86 258 107 258 C145 258 155 279 151 301 C147 326 131 341 127 364 C118 416 142 481 242 481 C293 481 311 463 311 366 C311 366 311 264 311 264 C74 129 48 116 48 81 C48 14 76 -10 156 -10 C224 -10 258 1 311 79 C314 18 341 -5 408 -5 C466 -5 492 21 504 91 C504 91 504 91 504 91 L504 91 Z M311 259 C311 259 311 89 311 89 C311 88 311 87 311 86 C275 34 248 27 193 27 C139 27 119 43 119 88 C119 153 138 160 311 259 L311 259 Z " />
<glyph glyph-name="adieresis" unicode="&#xe4;" horiz-adv-x="494" d="M321 593 C354 593 366 605 366 638 C366 671 354 683 321 683 C288 683 276 671 276 638 C276 605 288 593 321 593 L321 593 Z M179 593 C212 593 224 605 224 638 C224 671 212 683 179 683 C145 683 133 671 133 638 C133 605 145 593 179 593 L179 593 Z M504 91 C504 91 492 98 492 98 C485 59 470 45 437 45 C396 45 381 57 381 89 C381 89 381 340 381 340 C381 465 346 488 250 488 C94 488 55 393 68 318 C76 274 86 258 107 258 C145 258 155 279 151 301 C147 326 131 341 127 364 C118 416 142 481 242 481 C293 481 311 463 311 366 C311 366 311 264 311 264 C74 129 48 116 48 81 C48 14 76 -10 156 -10 C224 -10 258 1 311 79 C314 18 341 -5 408 -5 C466 -5 492 21 504 91 C504 91 504 91 504 91 L504 91 Z M311 259 C311 259 311 89 311 89 C311 88 311 87 311 86 C275 34 248 27 193 27 C139 27 119 43 119 88 C119 153 138 160 311 259 L311 259 Z " />
<glyph glyph-name="aring" unicode="&#xe5;" horiz-adv-x="494" d="M250 554 C199 554 173 581 173 633 C173 690 193 711 250 711 C306 711 326 690 326 633 C326 581 300 554 250 554 L250 554 Z M153 633 C153 570 186 538 250 538 C314 538 347 570 347 633 C347 703 321 728 250 728 C179 728 153 703 153 633 L153 633 Z M504 91 C504 91 492 98 492 98 C485 59 470 45 437 45 C396 45 381 57 381 89 C381 89 381 340 381 340 C381 465 346 488 250 488 C94 488 55 393 68 318 C76 274 86 258 107 258 C145 258 155 279 151 301 C147 326 131 341 127 364 C118 416 142 481 242 481 C293 481 311 463 311 366 C311 366 311 264 311 264 C74 129 48 116 48 81 C48 14 76 -10 156 -10 C224 -10 258 1 311 79 C314 18 341 -5 408 -5 C466 -5 492 21 504 91 C504 91 504 91 504 91 L504 91 Z M311 259 C311 259 311 89 311 89 C311 88 311 87 311 86 C275 34 248 27 193 27 C139 27 119 43 119 88 C119 153 138 160 311 259 L311 259 Z " />
<glyph glyph-name="egrave" unicode="&#xe8;" horiz-adv-x="509" d="M178 694 C138 744 122 762 114 762 C91 762 79 750 79 727 C79 719 97 703 146 662 C146 662 287 541 287 541 C287 541 295 549 295 549 C295 549 178 694 178 694 L178 694 Z M124 339 C124 339 402 339 402 339 C402 339 479 339 479 339 C451 470 404 488 284 488 C108 488 45 418 45 222 C45 52 102 -10 262 -10 C399 -10 455 39 472 176 C472 176 463 177 463 177 C450 73 402 36 279 36 C161 36 118 93 118 251 C118 285 120 314 124 339 L124 339 Z M449 359 C452 359 456 359 460 359 C460 359 449 359 449 359 L449 359 Z M397 358 C397 358 127 355 127 355 C145 439 191 472 280 472 C344 472 373 458 397 358 C397 358 397 358 397 358 L397 358 Z " />
<glyph glyph-name="eacute" unicode="&#xe9;" horiz-adv-x="509" d="M291 541 C291 541 432 662 432 662 C480 705 498 721 498 727 C498 750 486 762 464 762 C458 762 442 744 400 694 C400 694 282 549 282 549 C282 549 291 541 291 541 L291 541 Z M124 339 C124 339 402 339 402 339 C402 339 479 339 479 339 C451 470 404 488 284 488 C108 488 45 418 45 222 C45 52 102 -10 262 -10 C399 -10 455 39 472 176 C472 176 463 177 463 177 C450 73 402 36 279 36 C161 36 118 93 118 251 C118 285 120 314 124 339 L124 339 Z M449 359 C452 359 456 359 460 359 C460 359 449 359 449 359 L449 359 Z M397 358 C397 358 127 355 127 355 C145 439 191 472 280 472 C344 472 373 458 397 358 C397 358 397 358 397 358 L397 358 Z " />
<glyph glyph-name="ecircumflex" unicode="&#xea;" horiz-adv-x="509" d="M284 686 C284 686 425 535 425 535 C425 535 435 542 435 542 C435 542 309 737 309 737 C303 746 293 762 284 762 C274 762 265 746 259 737 C259 737 133 542 133 542 C133 542 143 535 143 535 C143 535 284 686 284 686 L284 686 Z M124 339 C124 339 402 339 402 339 C402 339 479 339 479 339 C451 470 404 488 284 488 C108 488 45 418 45 222 C45 52 102 -10 262 -10 C399 -10 455 39 472 176 C472 176 463 177 463 177 C450 73 402 36 279 36 C161 36 118 93 118 251 C118 285 120 314 124 339 L124 339 Z M449 359 C452 359 456 359 460 359 C460 359 449 359 449 359 L449 359 Z M397 358 C397 358 127 355 127 355 C145 439 191 472 280 472 C344 472 373 458 397 358 C397 358 397 358 397 358 L397 358 Z " />
<glyph glyph-name="edieresis" unicode="&#xeb;" horiz-adv-x="509" d="M355 593 C388 593 400 605 400 638 C400 671 388 683 355 683 C322 683 310 671 310 638 C310 605 322 593 355 593 L355 593 Z M213 593 C246 593 258 605 258 638 C258 671 246 683 213 683 C179 683 167 671 167 638 C167 605 179 593 213 593 L213 593 Z M124 339 C124 339 402 339 402 339 C402 339 479 339 479 339 C451 470 404 488 284 488 C108 488 45 418 45 222 C45 52 102 -10 262 -10 C399 -10 455 39 472 176 C472 176 463 177 463 177 C450 73 402 36 279 36 C161 36 118 93 118 251 C118 285 120 314 124 339 L124 339 Z M449 359 C452 359 456 359 460 359 C460 359 449 359 449 359 L449 359 Z M397 358 C397 358 127 355 127 355 C145 439 191 472 280 472 C344 472 373 458 397 358 C397 358 397 358 397 358 L397 358 Z " />
<glyph glyph-name="igrave" unicode="&#xec;" horiz-adv-x="268" d="M73 0 C73 0 235 0 235 0 C234 3 233 14 233 15 C233 15 226 15 226 15 C199 15 189 15 189 30 C189 30 189 370 189 370 C189 370 189 478 189 478 C189 478 176 478 176 478 C176 478 75 423 75 423 C75 423 75 415 75 415 C120 417 119 420 119 370 C119 370 119 30 119 30 C119 15 109 15 83 15 C83 15 76 15 76 15 C76 14 73 0 73 0 L73 0 Z M48 694 C7 744 -8 762 -16 762 C-39 762 -51 750 -51 727 C-51 719 -33 703 15 662 C15 662 156 541 156 541 C156 541 165 549 165 549 C165 549 48 694 48 694 L48 694 Z " />
<glyph glyph-name="iacute" unicode="&#xed;" horiz-adv-x="268" d="M73 0 C73 0 235 0 235 0 C234 3 233 14 233 15 C233 15 226 15 226 15 C199 15 189 15 189 30 C189 30 189 370 189 370 C189 370 189 478 189 478 C189 478 176 478 176 478 C176 478 75 423 75 423 C75 423 75 415 75 415 C120 417 119 420 119 370 C119 370 119 30 119 30 C119 15 109 15 83 15 C83 15 76 15 76 15 C76 14 73 0 73 0 L73 0 Z M48 694 C7 744 -8 762 -16 762 C-39 762 -51 750 -51 727 C-51 719 -33 703 15 662 C15 662 156 541 156 541 C156 541 165 549 165 549 C165 549 48 694 48 694 L48 694 Z " />
<glyph glyph-name="icircumflex" unicode="&#xee;" horiz-adv-x="268" d="M73 0 C73 0 235 0 235 0 C234 3 233 14 233 15 C233 15 226 15 226 15 C199 15 189 15 189 30 C189 30 189 370 189 370 C189 370 189 478 189 478 C189 478 176 478 176 478 C176 478 75 423 75 423 C75 423 75 415 75 415 C120 417 119 420 119 370 C119 370 119 30 119 30 C119 15 109 15 83 15 C83 15 76 15 76 15 C76 14 73 0 73 0 L73 0 Z M154 686 C154 686 295 535 295 535 C295 535 304 542 304 542 C304 542 178 737 178 737 C172 746 163 762 154 762 C144 762 135 746 129 737 C129 737 3 542 3 542 C3 542 12 535 12 535 C12 535 154 686 154 686 L154 686 Z " />
<glyph glyph-name="idieresis" unicode="&#xef;" horiz-adv-x="268" d="M225 593 C258 593 270 605 270 638 C270 671 258 683 225 683 C191 683 179 671 179 638 C179 605 191 593 225 593 L225 593 Z M82 593 C116 593 128 605 128 638 C128 671 116 683 82 683 C49 683 37 671 37 638 C37 605 49 593 82 593 L82 593 Z M73 0 C73 0 235 0 235 0 C234 3 233 14 233 15 C233 15 226 15 226 15 C199 15 189 15 189 30 C189 30 189 370 189 370 C189 370 189 478 189 478 C189 478 176 478 176 478 C176 478 75 423 75 423 C75 423 75 415 75 415 C120 417 119 420 119 370 C119 370 119 30 119 30 C119 15 109 15 83 15 C83 15 76 15 76 15 C76 14 73 0 73 0 L73 0 Z " />
<glyph glyph-name="ntilde" unicode="&#xf1;" horiz-adv-x="512" d="M128 598 C128 643 139 660 168 660 C236 660 259 595 327 595 C374 595 391 624 391 705 C391 705 387 705 387 705 C387 661 375 645 343 645 C275 645 252 710 184 710 C140 710 124 680 124 598 C124 598 128 598 128 598 L128 598 Z M37 425 C70 434 82 449 82 371 C82 371 82 30 82 30 C82 15 73 15 46 15 C46 15 40 15 40 15 C39 10 37 6 37 0 C37 0 197 0 197 0 C196 3 195 14 195 15 C195 15 188 15 188 15 C161 15 152 15 152 30 C152 30 152 350 152 350 C186 424 221 451 284 451 C348 451 363 419 363 329 C363 329 363 30 363 30 C363 15 354 15 327 15 C327 15 320 15 320 15 C319 11 318 1 318 0 C318 0 478 0 478 0 C477 3 476 14 476 15 C476 15 469 15 469 15 C442 15 433 15 433 30 C433 30 433 329 433 329 C433 446 409 488 307 488 C235 488 194 455 152 362 C152 362 152 392 152 392 C152 392 152 478 152 478 C152 478 140 478 140 478 C140 478 34 439 34 439 C35 434 37 431 37 425 L37 425 Z " />
<glyph glyph-name="ograve" unicode="&#xf2;" horiz-adv-x="590" d="M295 -3 C168 -3 122 61 122 239 C122 417 168 481 295 481 C422 481 468 417 468 239 C468 61 422 -3 295 -3 L295 -3 Z M45 239 C45 56 111 -10 295 -10 C479 -10 545 56 545 239 C545 422 479 488 295 488 C111 488 45 422 45 239 L45 239 Z M189 694 C149 744 133 762 125 762 C102 762 90 750 90 727 C90 719 108 703 157 662 C157 662 298 541 298 541 C298 541 307 549 307 549 C307 549 189 694 189 694 L189 694 Z " />
<glyph glyph-name="oacute" unicode="&#xf3;" horiz-adv-x="590" d="M302 541 C302 541 443 662 443 662 C492 705 510 721 510 727 C510 750 498 762 475 762 C469 762 453 744 411 694 C411 694 293 549 293 549 C293 549 302 541 302 541 L302 541 Z M295 -3 C168 -3 122 61 122 239 C122 417 168 481 295 481 C422 481 468 417 468 239 C468 61 422 -3 295 -3 L295 -3 Z M45 239 C45 56 111 -10 295 -10 C479 -10 545 56 545 239 C545 422 479 488 295 488 C111 488 45 422 45 239 L45 239 Z " />
<glyph glyph-name="ocircumflex" unicode="&#xf4;" horiz-adv-x="590" d="M295 -3 C168 -3 122 61 122 239 C122 417 168 481 295 481 C422 481 468 417 468 239 C468 61 422 -3 295 -3 L295 -3 Z M45 239 C45 56 111 -10 295 -10 C479 -10 545 56 545 239 C545 422 479 488 295 488 C111 488 45 422 45 239 L45 239 Z M295 686 C295 686 436 535 436 535 C436 535 446 542 446 542 C446 542 320 737 320 737 C314 746 304 762 295 762 C285 762 276 746 270 737 C270 737 144 542 144 542 C144 542 154 535 154 535 C154 535 295 686 295 686 L295 686 Z " />
<glyph glyph-name="otilde" unicode="&#xf5;" horiz-adv-x="590" d="M165 598 C165 643 176 660 205 660 C273 660 297 595 365 595 C412 595 429 624 429 705 C429 705 425 705 425 705 C425 661 413 645 381 645 C313 645 289 710 221 710 C177 710 161 680 161 598 C161 598 165 598 165 598 L165 598 Z M295 -3 C168 -3 122 61 122 239 C122 417 168 481 295 481 C422 481 468 417 468 239 C468 61 422 -3 295 -3 L295 -3 Z M45 239 C45 56 111 -10 295 -10 C479 -10 545 56 545 239 C545 422 479 488 295 488 C111 488 45 422 45 239 L45 239 Z " />
<glyph glyph-name="odieresis" unicode="&#xf6;" horiz-adv-x="590" d="M366 593 C399 593 411 605 411 638 C411 671 399 683 366 683 C333 683 321 671 321 638 C321 605 333 593 366 593 L366 593 Z M224 593 C257 593 269 605 269 638 C269 671 257 683 224 683 C190 683 178 671 178 638 C178 605 190 593 224 593 L224 593 Z M295 -3 C168 -3 122 61 122 239 C122 417 168 481 295 481 C422 481 468 417 468 239 C468 61 422 -3 295 -3 L295 -3 Z M45 239 C45 56 111 -10 295 -10 C479 -10 545 56 545 239 C545 422 479 488 295 488 C111 488 45 422 45 239 L45 239 Z " />
<glyph glyph-name="oslash" unicode="&#xf8;" horiz-adv-x="590" d="M47 -13 C47 -13 104 43 104 43 C143 6 205 -10 295 -10 C479 -10 545 56 545 239 C545 328 529 390 492 429 C492 429 548 485 548 485 C548 485 542 491 542 491 C542 491 486 435 486 435 C446 472 385 488 295 488 C111 488 45 422 45 239 C45 150 61 88 98 49 C98 49 42 -7 42 -7 C42 -7 47 -13 47 -13 L47 -13 Z M295 -3 C216 -3 168 22 144 83 C144 83 449 387 449 387 C462 350 468 302 468 239 C468 61 422 -3 295 -3 C295 -3 295 -3 295 -3 L295 -3 Z M141 91 C128 128 122 176 122 239 C122 417 168 481 295 481 C374 481 421 456 446 395 C446 395 141 91 141 91 L141 91 Z " />
<glyph glyph-name="ugrave" unicode="&#xf9;" horiz-adv-x="483" d="M454 31 C420 21 409 12 409 100 C409 100 409 447 409 447 C409 447 409 478 409 478 C409 478 302 478 302 478 C303 474 304 463 304 462 C304 462 311 462 311 462 C332 462 339 462 339 447 C339 447 339 128 339 128 C312 63 280 39 221 39 C159 39 136 70 136 156 C136 156 136 447 136 447 C136 447 136 478 136 478 C136 478 29 478 29 478 C30 474 31 463 31 462 C31 462 38 462 38 462 C59 462 66 462 66 447 C66 447 66 156 66 156 C66 34 98 -10 188 -10 C260 -10 302 25 339 121 C339 121 339 85 339 85 C339 85 339 -10 339 -10 C339 -10 351 -10 351 -10 C351 -10 457 16 457 16 C457 16 454 31 454 31 L454 31 Z M132 694 C91 744 76 762 68 762 C45 762 33 750 33 727 C33 719 51 703 100 662 C100 662 240 541 240 541 C240 541 249 549 249 549 C249 549 132 694 132 694 L132 694 Z " />
<glyph glyph-name="uacute" unicode="&#xfa;" horiz-adv-x="483" d="M245 541 C245 541 386 662 386 662 C434 705 452 721 452 727 C452 750 440 762 417 762 C411 762 395 744 354 694 C354 694 236 549 236 549 C236 549 245 541 245 541 L245 541 Z M454 31 C420 21 409 12 409 100 C409 100 409 447 409 447 C409 447 409 478 409 478 C409 478 302 478 302 478 C303 474 304 463 304 462 C304 462 311 462 311 462 C332 462 339 462 339 447 C339 447 339 128 339 128 C312 63 280 39 221 39 C159 39 136 70 136 156 C136 156 136 447 136 447 C136 447 136 478 136 478 C136 478 29 478 29 478 C30 474 31 463 31 462 C31 462 38 462 38 462 C59 462 66 462 66 447 C66 447 66 156 66 156 C66 34 98 -10 188 -10 C260 -10 302 25 339 121 C339 121 339 85 339 85 C339 85 339 -10 339 -10 C339 -10 351 -10 351 -10 C351 -10 457 16 457 16 C457 16 454 31 454 31 L454 31 Z " />
<glyph glyph-name="ucircumflex" unicode="&#xfb;" horiz-adv-x="483" d="M454 31 C420 21 409 12 409 100 C409 100 409 447 409 447 C409 447 409 478 409 478 C409 478 302 478 302 478 C303 474 304 463 304 462 C304 462 311 462 311 462 C332 462 339 462 339 447 C339 447 339 128 339 128 C312 63 280 39 221 39 C159 39 136 70 136 156 C136 156 136 447 136 447 C136 447 136 478 136 478 C136 478 29 478 29 478 C30 474 31 463 31 462 C31 462 38 462 38 462 C59 462 66 462 66 447 C66 447 66 156 66 156 C66 34 98 -10 188 -10 C260 -10 302 25 339 121 C339 121 339 85 339 85 C339 85 339 -10 339 -10 C339 -10 351 -10 351 -10 C351 -10 457 16 457 16 C457 16 454 31 454 31 L454 31 Z M238 686 C238 686 379 535 379 535 C379 535 388 542 388 542 C388 542 262 737 262 737 C256 746 247 762 238 762 C228 762 219 746 213 737 C213 737 87 542 87 542 C87 542 96 535 96 535 C96 535 238 686 238 686 L238 686 Z " />
<glyph glyph-name="udieresis" unicode="&#xfc;" horiz-adv-x="483" d="M309 593 C342 593 354 605 354 638 C354 671 342 683 309 683 C275 683 263 671 263 638 C263 605 275 593 309 593 L309 593 Z M166 593 C200 593 212 605 212 638 C212 671 200 683 166 683 C133 683 121 671 121 638 C121 605 133 593 166 593 L166 593 Z M454 31 C420 21 409 12 409 100 C409 100 409 447 409 447 C409 447 409 478 409 478 C409 478 302 478 302 478 C303 474 304 463 304 462 C304 462 311 462 311 462 C332 462 339 462 339 447 C339 447 339 128 339 128 C312 63 280 39 221 39 C159 39 136 70 136 156 C136 156 136 447 136 447 C136 447 136 478 136 478 C136 478 29 478 29 478 C30 474 31 463 31 462 C31 462 38 462 38 462 C59 462 66 462 66 447 C66 447 66 156 66 156 C66 34 98 -10 188 -10 C260 -10 302 25 339 121 C339 121 339 85 339 85 C339 85 339 -10 339 -10 C339 -10 351 -10 351 -10 C351 -10 457 16 457 16 C457 16 454 31 454 31 L454 31 Z " />
<glyph glyph-name="ydieresis" unicode="&#xff;" horiz-adv-x="473" d="M321 593 C354 593 366 605 366 638 C366 671 354 683 321 683 C287 683 275 671 275 638 C275 605 287 593 321 593 L321 593 Z M178 593 C211 593 223 605 223 638 C223 671 211 683 178 683 C145 683 133 671 133 638 C133 605 145 593 178 593 L178 593 Z M455 478 C455 478 414 478 414 478 C414 478 382 478 382 478 C382 478 329 478 329 478 C330 474 331 463 331 462 C331 462 351 462 351 462 C369 462 376 463 366 432 C366 432 366 432 366 432 C366 432 218 -10 218 -10 C218 -10 248 80 248 80 C248 80 131 436 131 436 C131 436 131 436 131 436 C130 438 129 440 129 442 C129 442 128 446 128 446 C122 463 127 462 137 462 C137 462 157 462 157 462 C158 466 159 477 159 478 C159 478 117 478 117 478 C117 478 40 478 40 478 C40 478 7 478 7 478 C8 474 9 463 9 462 C9 462 31 462 31 462 C40 462 44 463 50 450 C50 450 218 -10 218 -10 C218 -10 174 -140 174 -140 C168 -158 160 -165 144 -165 C123 -165 125 -140 104 -140 C75 -140 64 -149 64 -175 C64 -207 75 -218 106 -218 C151 -218 172 -202 187 -159 C187 -159 238 -10 238 -10 C238 -10 392 416 392 416 C392 416 392 416 392 416 C407 463 413 462 431 462 C431 462 453 462 453 462 C454 466 455 477 455 478 L455 478 Z " />
<glyph glyph-name="Amacron" unicode="&#x100;" horiz-adv-x="654" d="M199 876 C199 876 471 876 471 876 C471 876 471 924 471 924 C471 924 199 924 199 924 C199 924 199 876 199 876 L199 876 Z M434 0 C434 0 508 0 508 0 C508 0 590 0 590 0 C590 0 638 0 638 0 C637 3 636 14 636 15 C636 15 614 15 614 15 C596 15 588 13 562 90 C562 90 374 704 374 704 C374 704 360 748 360 748 C360 748 352 748 352 748 C331 719 316 707 296 704 C296 704 299 694 299 694 C299 694 299 694 299 694 C299 694 127 123 127 123 C91 12 78 15 44 15 C44 15 23 15 23 15 C22 11 21 1 21 0 C21 0 90 0 90 0 C90 0 98 0 98 0 C98 0 188 0 188 0 C187 3 186 14 186 15 C186 15 166 15 166 15 C119 15 101 11 147 165 C147 165 147 165 147 165 C147 165 186 296 186 296 C186 296 419 296 419 296 C419 296 467 135 467 135 C467 135 467 135 467 135 C504 12 490 15 456 15 C456 15 436 15 436 15 C435 11 434 1 434 0 L434 0 Z M188 303 C188 303 302 686 302 686 C302 686 417 303 417 303 C417 303 188 303 188 303 L188 303 Z " />
<glyph glyph-name="amacron" unicode="&#x101;" horiz-adv-x="494" d="M114 626 C114 626 386 626 386 626 C386 626 386 674 386 674 C386 674 114 674 114 674 C114 674 114 626 114 626 L114 626 Z M504 91 C504 91 492 98 492 98 C485 59 470 45 437 45 C396 45 381 57 381 89 C381 89 381 340 381 340 C381 465 346 488 250 488 C94 488 55 393 68 318 C76 274 86 258 107 258 C145 258 155 279 151 301 C147 326 131 341 127 364 C118 416 142 481 242 481 C293 481 311 463 311 366 C311 366 311 264 311 264 C74 129 48 116 48 81 C48 14 76 -10 156 -10 C224 -10 258 1 311 79 C314 18 341 -5 408 -5 C466 -5 492 21 504 91 C504 91 504 91 504 91 L504 91 Z M311 259 C311 259 311 89 311 89 C311 88 311 87 311 86 C275 34 248 27 193 27 C139 27 119 43 119 88 C119 153 138 160 311 259 L311 259 Z " />
<glyph glyph-name="Abreve" unicode="&#x102;" horiz-adv-x="654" d="M215 972 C221 887 253 856 335 856 C417 856 448 886 455 971 C455 971 440 973 440 973 C436 923 408 905 335 905 C261 905 234 923 230 974 C230 974 215 972 215 972 L215 972 Z M434 0 C434 0 508 0 508 0 C508 0 590 0 590 0 C590 0 638 0 638 0 C637 3 636 14 636 15 C636 15 614 15 614 15 C596 15 588 13 562 90 C562 90 374 704 374 704 C374 704 360 748 360 748 C360 748 352 748 352 748 C331 719 316 707 296 704 C296 704 299 694 299 694 C299 694 299 694 299 694 C299 694 127 123 127 123 C91 12 78 15 44 15 C44 15 23 15 23 15 C22 11 21 1 21 0 C21 0 90 0 90 0 C90 0 98 0 98 0 C98 0 188 0 188 0 C187 3 186 14 186 15 C186 15 166 15 166 15 C119 15 101 11 147 165 C147 165 147 165 147 165 C147 165 186 296 186 296 C186 296 419 296 419 296 C419 296 467 135 467 135 C467 135 467 135 467 135 C504 12 490 15 456 15 C456 15 436 15 436 15 C435 11 434 1 434 0 L434 0 Z M188 303 C188 303 302 686 302 686 C302 686 417 303 417 303 C417 303 188 303 188 303 L188 303 Z " />
<glyph glyph-name="abreve" unicode="&#x103;" horiz-adv-x="494" d="M130 722 C136 637 168 606 250 606 C332 606 363 636 370 721 C370 721 355 723 355 723 C351 673 323 655 250 655 C176 655 149 673 145 724 C145 724 130 722 130 722 L130 722 Z M504 91 C504 91 492 98 492 98 C485 59 470 45 437 45 C396 45 381 57 381 89 C381 89 381 340 381 340 C381 465 346 488 250 488 C94 488 55 393 68 318 C76 274 86 258 107 258 C145 258 155 279 151 301 C147 326 131 341 127 364 C118 416 142 481 242 481 C293 481 311 463 311 366 C311 366 311 264 311 264 C74 129 48 116 48 81 C48 14 76 -10 156 -10 C224 -10 258 1 311 79 C314 18 341 -5 408 -5 C466 -5 492 21 504 91 C504 91 504 91 504 91 L504 91 Z M311 259 C311 259 311 89 311 89 C311 88 311 87 311 86 C275 34 248 27 193 27 C139 27 119 43 119 88 C119 153 138 160 311 259 L311 259 Z " />
<glyph glyph-name="Cacute" unicode="&#x106;" horiz-adv-x="698" d="M394 791 C394 791 534 912 534 912 C583 955 601 971 601 977 C601 1000 589 1012 566 1012 C560 1012 544 994 502 944 C502 944 385 799 385 799 C385 799 394 791 394 791 L394 791 Z M654 42 C654 42 654 109 654 109 C654 109 654 165 654 165 C654 165 644 162 644 162 C618 101 584 36 564 20 C530 3 475 -4 378 -4 C205 -4 142 93 142 364 C142 634 207 731 389 731 C447 731 485 721 515 699 C554 669 599 587 638 500 C642 491 643 488 643 488 C644 488 645 488 654 486 C654 486 654 547 654 547 C654 547 654 611 654 611 C638 605 645 613 638 593 C639 598 622 621 574 673 C535 719 488 738 386 738 C143 738 55 639 55 364 C55 89 140 -10 376 -10 C503 -10 566 0 602 24 C602 24 602 24 602 24 C602 24 602 24 602 24 C613 32 621 40 628 50 C628 50 639 61 639 61 C645 68 647 64 647 46 C648 45 653 42 654 42 L654 42 Z " />
<glyph glyph-name="Ccircumflex" unicode="&#x108;" horiz-adv-x="698" d="M654 42 C654 42 654 109 654 109 C654 109 654 165 654 165 C654 165 644 162 644 162 C618 101 584 36 564 20 C530 3 475 -4 378 -4 C205 -4 142 93 142 364 C142 634 207 731 389 731 C447 731 485 721 515 699 C554 669 599 587 638 500 C642 491 643 488 643 488 C644 488 645 488 654 486 C654 486 654 547 654 547 C654 547 654 611 654 611 C638 605 645 613 638 593 C639 598 622 621 574 673 C535 719 488 738 386 738 C143 738 55 639 55 364 C55 89 140 -10 376 -10 C503 -10 566 0 602 24 C602 24 602 24 602 24 C602 24 602 24 602 24 C613 32 621 40 628 50 C628 50 639 61 639 61 C645 68 647 64 647 46 C648 45 653 42 654 42 L654 42 Z M387 936 C387 936 528 785 528 785 C528 785 537 792 537 792 C537 792 411 987 411 987 C405 996 396 1012 386 1012 C377 1012 368 996 362 987 C362 987 236 792 236 792 C236 792 245 785 245 785 C245 785 387 936 387 936 L387 936 Z " />
<glyph glyph-name="Cdotaccent" unicode="&#x10a;" horiz-adv-x="698" d="M386 843 C420 843 432 855 432 888 C432 921 420 933 386 933 C353 933 341 921 341 888 C341 855 353 843 386 843 L386 843 Z M654 42 C654 42 654 109 654 109 C654 109 654 165 654 165 C654 165 644 162 644 162 C618 101 584 36 564 20 C530 3 475 -4 378 -4 C205 -4 142 93 142 364 C142 634 207 731 389 731 C447 731 485 721 515 699 C554 669 599 587 638 500 C642 491 643 488 643 488 C644 488 645 488 654 486 C654 486 654 547 654 547 C654 547 654 611 654 611 C638 605 645 613 638 593 C639 598 622 621 574 673 C535 719 488 738 386 738 C143 738 55 639 55 364 C55 89 140 -10 376 -10 C503 -10 566 0 602 24 C602 24 602 24 602 24 C602 24 602 24 602 24 C613 32 621 40 628 50 C628 50 639 61 639 61 C645 68 647 64 647 46 C648 45 653 42 654 42 L654 42 Z " />
<glyph glyph-name="cdotaccent" unicode="&#x10b;" horiz-adv-x="464" d="M271 593 C304 593 316 605 316 638 C316 671 304 683 271 683 C238 683 226 671 226 638 C226 605 238 593 271 593 L271 593 Z M434 166 C434 166 424 168 424 168 C406 69 368 33 280 33 C161 33 118 93 118 259 C118 416 157 472 267 472 C309 472 333 448 356 383 C368 351 379 340 399 340 C441 340 452 351 441 383 C413 460 368 488 271 488 C106 488 46 419 46 226 C46 53 102 -10 256 -10 C363 -10 411 37 434 166 L434 166 Z " />
<glyph glyph-name="Ccaron" unicode="&#x10c;" horiz-adv-x="698" d="M654 42 C654 42 654 109 654 109 C654 109 654 165 654 165 C654 165 644 162 644 162 C618 101 584 36 564 20 C530 3 475 -4 378 -4 C205 -4 142 93 142 364 C142 634 207 731 389 731 C447 731 485 721 515 699 C554 669 599 587 638 500 C642 491 643 488 643 488 C644 488 645 488 654 486 C654 486 654 547 654 547 C654 547 654 611 654 611 C638 605 645 613 638 593 C639 598 622 621 574 673 C535 719 488 738 386 738 C143 738 55 639 55 364 C55 89 140 -10 376 -10 C503 -10 566 0 602 24 C602 24 602 24 602 24 C602 24 602 24 602 24 C613 32 621 40 628 50 C628 50 639 61 639 61 C645 68 647 64 647 46 C648 45 653 42 654 42 L654 42 Z M387 869 C387 869 528 1021 528 1021 C528 1021 537 1013 537 1013 C537 1013 411 819 411 819 C405 809 396 793 386 793 C377 793 368 809 362 818 C362 818 236 1013 236 1013 C236 1013 245 1021 245 1021 C245 1021 387 869 387 869 L387 869 Z " />
<glyph glyph-name="ccaron" unicode="&#x10d;" horiz-adv-x="464" d="M434 166 C434 166 424 168 424 168 C406 69 368 33 280 33 C161 33 118 93 118 259 C118 416 157 472 267 472 C309 472 333 448 356 383 C368 351 379 340 399 340 C441 340 452 351 441 383 C413 460 368 488 271 488 C106 488 46 419 46 226 C46 53 102 -10 256 -10 C363 -10 411 37 434 166 L434 166 Z M271 619 C271 619 412 771 412 771 C412 771 422 763 422 763 C422 763 296 569 296 569 C290 559 280 543 271 543 C261 543 252 559 246 568 C246 568 120 763 120 763 C120 763 130 771 130 771 C130 771 271 619 271 619 L271 619 Z " />
<glyph glyph-name="Dcaron" unicode="&#x10e;" horiz-adv-x="776" d="M61 0 C61 0 120 0 120 0 C120 0 198 0 198 0 C198 0 271 0 271 0 C602 0 721 70 721 364 C721 631 642 728 307 728 C307 728 198 728 198 728 C198 728 120 728 120 728 C120 728 61 728 61 728 C62 721 64 718 64 712 C64 712 71 712 71 712 C107 712 120 714 120 647 C120 647 120 80 120 80 C120 13 107 15 71 15 C71 15 64 15 64 15 C64 14 61 0 61 0 L61 0 Z M378 869 C378 869 519 1021 519 1021 C519 1021 528 1013 528 1013 C528 1013 402 819 402 819 C396 809 387 793 378 793 C368 793 359 809 353 818 C353 818 227 1013 227 1013 C227 1013 236 1021 236 1021 C236 1021 378 869 378 869 L378 869 Z M198 723 C198 723 287 723 287 723 C568 723 635 628 635 364 C635 74 536 5 263 5 C209 5 199 15 198 40 C198 40 198 69 198 69 C198 69 198 80 198 80 C198 80 198 647 198 647 C198 647 198 723 198 723 L198 723 Z " />
<glyph glyph-name="dcaron" unicode="&#x10f;" horiz-adv-x="544" d="M540 31 C505 21 495 11 495 120 C495 120 495 645 495 645 C495 645 495 728 495 728 C495 728 483 728 483 728 C483 728 377 697 377 697 C379 686 380 686 380 683 C413 692 425 702 425 628 C425 628 425 444 425 444 C394 473 351 488 289 488 C96 488 50 422 50 241 C50 60 107 -5 265 -5 C342 -5 386 15 425 68 C425 68 425 -10 425 -10 C425 -10 437 -10 437 -10 C437 -10 543 16 543 16 C542 22 540 26 540 31 C540 31 540 31 540 31 L540 31 Z M588 621 C605 670 611 698 611 726 C611 735 603 736 579 736 C561 736 556 684 552 629 C552 629 542 517 542 517 C542 517 554 515 554 515 C554 515 588 621 588 621 L588 621 Z M425 93 C388 43 353 24 294 24 C168 24 122 87 122 260 C122 412 156 467 297 467 C355 467 392 436 425 375 C425 375 425 105 425 105 C425 105 425 93 425 93 L425 93 Z " />
<glyph glyph-name="Emacron" unicode="&#x112;" horiz-adv-x="571" d="M169 876 C169 876 441 876 441 876 C441 876 441 924 441 924 C441 924 169 924 169 924 C169 924 169 876 169 876 L169 876 Z M509 72 C502 22 508 5 400 5 C400 5 268 5 268 5 C209 5 199 15 198 41 C198 41 198 69 198 69 C198 69 198 80 198 80 C198 80 198 389 198 389 C198 389 314 389 314 389 C417 389 414 371 414 322 C414 322 414 315 414 315 C420 313 424 313 430 310 C430 310 430 389 430 389 C430 389 430 395 430 395 C430 395 430 474 430 474 C426 473 415 471 414 470 C414 470 414 463 414 463 C414 413 417 395 314 395 C314 395 198 395 198 395 C198 395 198 647 198 647 C198 647 198 722 198 722 C198 722 375 722 375 722 C498 722 476 706 479 663 C479 663 479 656 479 656 C483 655 494 652 495 652 C494 666 493 676 492 690 C492 704 491 714 490 728 C490 728 374 728 374 728 C374 728 198 728 198 728 C198 728 120 728 120 728 C120 728 61 728 61 728 C62 721 64 718 64 712 C64 712 71 712 71 712 C107 712 120 714 120 647 C120 647 120 80 120 80 C120 13 107 15 71 15 C71 15 64 15 64 15 C64 14 61 0 61 0 C61 0 120 0 120 0 C120 0 198 0 198 0 C198 0 399 0 399 0 C399 0 515 0 515 0 C519 25 523 51 525 76 C525 76 511 72 509 72 L509 72 Z " />
<glyph glyph-name="emacron" unicode="&#x113;" horiz-adv-x="509" d="M148 626 C148 626 420 626 420 626 C420 626 420 674 420 674 C420 674 148 674 148 674 C148 674 148 626 148 626 L148 626 Z M124 339 C124 339 402 339 402 339 C402 339 479 339 479 339 C451 470 404 488 284 488 C108 488 45 418 45 222 C45 52 102 -10 262 -10 C399 -10 455 39 472 176 C472 176 463 177 463 177 C450 73 402 36 279 36 C161 36 118 93 118 251 C118 285 120 314 124 339 L124 339 Z M449 359 C452 359 456 359 460 359 C460 359 449 359 449 359 L449 359 Z M397 358 C397 358 127 355 127 355 C145 439 191 472 280 472 C344 472 373 458 397 358 C397 358 397 358 397 358 L397 358 Z " />
<glyph glyph-name="Ebreve" unicode="&#x114;" horiz-adv-x="571" d="M185 972 C191 887 223 856 305 856 C387 856 418 886 425 971 C425 971 410 973 410 973 C406 923 378 905 305 905 C231 905 204 923 200 974 C200 974 185 972 185 972 L185 972 Z M509 72 C502 22 508 5 400 5 C400 5 268 5 268 5 C209 5 199 15 198 41 C198 41 198 69 198 69 C198 69 198 80 198 80 C198 80 198 389 198 389 C198 389 314 389 314 389 C417 389 414 371 414 322 C414 322 414 315 414 315 C420 313 424 313 430 310 C430 310 430 389 430 389 C430 389 430 395 430 395 C430 395 430 474 430 474 C426 473 415 471 414 470 C414 470 414 463 414 463 C414 413 417 395 314 395 C314 395 198 395 198 395 C198 395 198 647 198 647 C198 647 198 722 198 722 C198 722 375 722 375 722 C498 722 476 706 479 663 C479 663 479 656 479 656 C483 655 494 652 495 652 C494 666 493 676 492 690 C492 704 491 714 490 728 C490 728 374 728 374 728 C374 728 198 728 198 728 C198 728 120 728 120 728 C120 728 61 728 61 728 C62 721 64 718 64 712 C64 712 71 712 71 712 C107 712 120 714 120 647 C120 647 120 80 120 80 C120 13 107 15 71 15 C71 15 64 15 64 15 C64 14 61 0 61 0 C61 0 120 0 120 0 C120 0 198 0 198 0 C198 0 399 0 399 0 C399 0 515 0 515 0 C519 25 523 51 525 76 C525 76 511 72 509 72 L509 72 Z " />
<glyph glyph-name="ebreve" unicode="&#x115;" horiz-adv-x="509" d="M164 722 C170 637 202 606 284 606 C366 606 397 636 404 721 C404 721 389 723 389 723 C385 673 357 655 284 655 C210 655 183 673 179 724 C179 724 164 722 164 722 L164 722 Z M124 339 C124 339 402 339 402 339 C402 339 479 339 479 339 C451 470 404 488 284 488 C108 488 45 418 45 222 C45 52 102 -10 262 -10 C399 -10 455 39 472 176 C472 176 463 177 463 177 C450 73 402 36 279 36 C161 36 118 93 118 251 C118 285 120 314 124 339 L124 339 Z M449 359 C452 359 456 359 460 359 C460 359 449 359 449 359 L449 359 Z M397 358 C397 358 127 355 127 355 C145 439 191 472 280 472 C344 472 373 458 397 358 C397 358 397 358 397 358 L397 358 Z " />
<glyph glyph-name="Edotaccent" unicode="&#x116;" horiz-adv-x="571" d="M305 843 C338 843 350 855 350 888 C350 921 338 933 305 933 C272 933 260 921 260 888 C260 855 272 843 305 843 L305 843 Z M509 72 C502 22 508 5 400 5 C400 5 268 5 268 5 C209 5 199 15 198 41 C198 41 198 69 198 69 C198 69 198 80 198 80 C198 80 198 389 198 389 C198 389 314 389 314 389 C417 389 414 371 414 322 C414 322 414 315 414 315 C420 313 424 313 430 310 C430 310 430 389 430 389 C430 389 430 395 430 395 C430 395 430 474 430 474 C426 473 415 471 414 470 C414 470 414 463 414 463 C414 413 417 395 314 395 C314 395 198 395 198 395 C198 395 198 647 198 647 C198 647 198 722 198 722 C198 722 375 722 375 722 C498 722 476 706 479 663 C479 663 479 656 479 656 C483 655 494 652 495 652 C494 666 493 676 492 690 C492 704 491 714 490 728 C490 728 374 728 374 728 C374 728 198 728 198 728 C198 728 120 728 120 728 C120 728 61 728 61 728 C62 721 64 718 64 712 C64 712 71 712 71 712 C107 712 120 714 120 647 C120 647 120 80 120 80 C120 13 107 15 71 15 C71 15 64 15 64 15 C64 14 61 0 61 0 C61 0 120 0 120 0 C120 0 198 0 198 0 C198 0 399 0 399 0 C399 0 515 0 515 0 C519 25 523 51 525 76 C525 76 511 72 509 72 L509 72 Z " />
<glyph glyph-name="edotaccent" unicode="&#x117;" horiz-adv-x="509" d="M284 593 C317 593 329 605 329 638 C329 671 317 683 284 683 C251 683 239 671 239 638 C239 605 251 593 284 593 L284 593 Z M124 339 C124 339 402 339 402 339 C402 339 479 339 479 339 C451 470 404 488 284 488 C108 488 45 418 45 222 C45 52 102 -10 262 -10 C399 -10 455 39 472 176 C472 176 463 177 463 177 C450 73 402 36 279 36 C161 36 118 93 118 251 C118 285 120 314 124 339 L124 339 Z M449 359 C452 359 456 359 460 359 C460 359 449 359 449 359 L449 359 Z M397 358 C397 358 127 355 127 355 C145 439 191 472 280 472 C344 472 373 458 397 358 C397 358 397 358 397 358 L397 358 Z " />
<glyph glyph-name="Ecaron" unicode="&#x11a;" horiz-adv-x="571" d="M509 72 C502 22 508 5 400 5 C400 5 268 5 268 5 C209 5 199 15 198 41 C198 41 198 69 198 69 C198 69 198 80 198 80 C198 80 198 389 198 389 C198 389 314 389 314 389 C417 389 414 371 414 322 C414 322 414 315 414 315 C420 313 424 313 430 310 C430 310 430 389 430 389 C430 389 430 395 430 395 C430 395 430 474 430 474 C426 473 415 471 414 470 C414 470 414 463 414 463 C414 413 417 395 314 395 C314 395 198 395 198 395 C198 395 198 647 198 647 C198 647 198 722 198 722 C198 722 375 722 375 722 C498 722 476 706 479 663 C479 663 479 656 479 656 C483 655 494 652 495 652 C494 666 493 676 492 690 C492 704 491 714 490 728 C490 728 374 728 374 728 C374 728 198 728 198 728 C198 728 120 728 120 728 C120 728 61 728 61 728 C62 721 64 718 64 712 C64 712 71 712 71 712 C107 712 120 714 120 647 C120 647 120 80 120 80 C120 13 107 15 71 15 C71 15 64 15 64 15 C64 14 61 0 61 0 C61 0 120 0 120 0 C120 0 198 0 198 0 C198 0 399 0 399 0 C399 0 515 0 515 0 C519 25 523 51 525 76 C525 76 511 72 509 72 L509 72 Z M305 869 C305 869 446 1021 446 1021 C446 1021 455 1013 455 1013 C455 1013 330 819 330 819 C324 809 314 793 305 793 C295 793 286 809 280 818 C280 818 154 1013 154 1013 C154 1013 164 1021 164 1021 C164 1021 305 869 305 869 L305 869 Z " />
<glyph glyph-name="ecaron" unicode="&#x11b;" horiz-adv-x="509" d="M284 619 C284 619 425 771 425 771 C425 771 435 763 435 763 C435 763 309 569 309 569 C303 559 293 543 284 543 C274 543 265 559 259 568 C259 568 133 763 133 763 C133 763 143 771 143 771 C143 771 284 619 284 619 L284 619 Z M124 339 C124 339 402 339 402 339 C402 339 479 339 479 339 C451 470 404 488 284 488 C108 488 45 418 45 222 C45 52 102 -10 262 -10 C399 -10 455 39 472 176 C472 176 463 177 463 177 C450 73 402 36 279 36 C161 36 118 93 118 251 C118 285 120 314 124 339 L124 339 Z M449 359 C452 359 456 359 460 359 C460 359 449 359 449 359 L449 359 Z M397 358 C397 358 127 355 127 355 C145 439 191 472 280 472 C344 472 373 458 397 358 C397 358 397 358 397 358 L397 358 Z " />
<glyph glyph-name="Gcircumflex" unicode="&#x11c;" horiz-adv-x="746" d="M683 315 C683 315 500 315 500 315 C501 310 503 306 503 300 C503 300 510 300 510 300 C544 300 556 302 556 240 C556 240 557 82 557 82 C552 29 506 9 392 9 C208 9 142 103 142 364 C142 634 207 731 389 731 C447 731 485 721 515 699 C554 669 599 587 638 500 C642 491 643 488 643 488 C644 488 645 488 654 486 C654 486 654 547 654 547 C654 547 654 611 654 611 C638 605 645 613 638 593 C639 598 622 621 574 673 C535 719 488 738 386 738 C143 738 55 639 55 364 C55 89 142 -10 385 -10 C492 -10 549 -2 609 19 C609 19 634 25 634 25 C634 25 634 29 634 29 C657 38 681 49 709 62 C709 62 707 66 707 66 C680 53 657 43 634 35 C634 35 635 240 635 240 C635 302 645 300 673 300 C673 300 680 300 680 300 C680 300 683 315 683 315 C683 315 683 315 683 315 L683 315 Z M387 936 C387 936 528 785 528 785 C528 785 537 792 537 792 C537 792 411 987 411 987 C405 996 396 1012 386 1012 C377 1012 368 996 362 987 C362 987 236 792 236 792 C236 792 245 785 245 785 C245 785 387 936 387 936 L387 936 Z " />
<glyph glyph-name="Gbreve" unicode="&#x11e;" horiz-adv-x="746" d="M267 972 C273 887 305 856 386 856 C468 856 500 886 506 971 C506 971 492 973 492 973 C488 923 460 905 386 905 C313 905 285 923 281 974 C281 974 267 972 267 972 L267 972 Z M683 315 C683 315 500 315 500 315 C501 310 503 306 503 300 C503 300 510 300 510 300 C544 300 556 302 556 240 C556 240 557 82 557 82 C552 29 506 9 392 9 C208 9 142 103 142 364 C142 634 207 731 389 731 C447 731 485 721 515 699 C554 669 599 587 638 500 C642 491 643 488 643 488 C644 488 645 488 654 486 C654 486 654 547 654 547 C654 547 654 611 654 611 C638 605 645 613 638 593 C639 598 622 621 574 673 C535 719 488 738 386 738 C143 738 55 639 55 364 C55 89 142 -10 385 -10 C492 -10 549 -2 609 19 C609 19 634 25 634 25 C634 25 634 29 634 29 C657 38 681 49 709 62 C709 62 707 66 707 66 C680 53 657 43 634 35 C634 35 635 240 635 240 C635 302 645 300 673 300 C673 300 680 300 680 300 C680 300 683 315 683 315 C683 315 683 315 683 315 L683 315 Z " />
<glyph glyph-name="gbreve" unicode="&#x11f;" horiz-adv-x="501" d="M128 722 C134 637 166 606 247 606 C329 606 361 636 367 721 C367 721 353 723 353 723 C349 673 321 655 247 655 C174 655 146 673 142 724 C142 724 128 722 128 722 L128 722 Z M149 334 C149 435 175 471 247 471 C320 471 346 435 346 334 C346 233 320 196 247 196 C175 196 149 233 149 334 L149 334 Z M153 8 C160 7 167 7 174 7 C174 7 282 7 282 7 C393 7 408 -18 408 -89 C408 -181 369 -214 261 -214 C147 -214 106 -178 106 -78 C106 -31 119 -6 153 8 L153 8 Z M136 9 C72 -9 49 -38 49 -94 C49 -194 104 -230 257 -230 C411 -230 466 -188 466 -72 C466 37 445 77 290 77 C290 77 178 77 178 77 C119 77 98 89 98 122 C98 165 138 180 247 180 C371 180 416 221 416 334 C416 353 415 370 412 385 C435 428 455 444 485 444 C500 444 505 435 505 409 C505 391 514 385 538 385 C559 385 566 394 566 418 C566 458 552 473 514 473 C465 473 435 454 408 403 C390 464 341 488 247 488 C124 488 79 447 79 334 C79 252 103 208 163 190 C86 180 57 153 57 101 C57 43 79 17 136 9 C136 9 136 9 136 9 L136 9 Z " />
<glyph glyph-name="Gdotaccent" unicode="&#x120;" horiz-adv-x="746" d="M386 843 C420 843 432 855 432 888 C432 921 420 933 386 933 C353 933 341 921 341 888 C341 855 353 843 386 843 L386 843 Z M683 315 C683 315 500 315 500 315 C501 310 503 306 503 300 C503 300 510 300 510 300 C544 300 556 302 556 240 C556 240 557 82 557 82 C552 29 506 9 392 9 C208 9 142 103 142 364 C142 634 207 731 389 731 C447 731 485 721 515 699 C554 669 599 587 638 500 C642 491 643 488 643 488 C644 488 645 488 654 486 C654 486 654 547 654 547 C654 547 654 611 654 611 C638 605 645 613 638 593 C639 598 622 621 574 673 C535 719 488 738 386 738 C143 738 55 639 55 364 C55 89 142 -10 385 -10 C492 -10 549 -2 609 19 C609 19 634 25 634 25 C634 25 634 29 634 29 C657 38 681 49 709 62 C709 62 707 66 707 66 C680 53 657 43 634 35 C634 35 635 240 635 240 C635 302 645 300 673 300 C673 300 680 300 680 300 C680 300 683 315 683 315 C683 315 683 315 683 315 L683 315 Z " />
<glyph glyph-name="gdotaccent" unicode="&#x121;" horiz-adv-x="501" d="M247 593 C281 593 293 605 293 638 C293 671 281 683 247 683 C214 683 202 671 202 638 C202 605 214 593 247 593 L247 593 Z M149 334 C149 435 175 471 247 471 C320 471 346 435 346 334 C346 233 320 196 247 196 C175 196 149 233 149 334 L149 334 Z M153 8 C160 7 167 7 174 7 C174 7 282 7 282 7 C393 7 408 -18 408 -89 C408 -181 369 -214 261 -214 C147 -214 106 -178 106 -78 C106 -31 119 -6 153 8 L153 8 Z M136 9 C72 -9 49 -38 49 -94 C49 -194 104 -230 257 -230 C411 -230 466 -188 466 -72 C466 37 445 77 290 77 C290 77 178 77 178 77 C119 77 98 89 98 122 C98 165 138 180 247 180 C371 180 416 221 416 334 C416 353 415 370 412 385 C435 428 455 444 485 444 C500 444 505 435 505 409 C505 391 514 385 538 385 C559 385 566 394 566 418 C566 458 552 473 514 473 C465 473 435 454 408 403 C390 464 341 488 247 488 C124 488 79 447 79 334 C79 252 103 208 163 190 C86 180 57 153 57 101 C57 43 79 17 136 9 C136 9 136 9 136 9 L136 9 Z " />
<glyph glyph-name="Hcircumflex" unicode="&#x124;" horiz-adv-x="756" d="M701 728 C701 728 504 728 504 728 C505 724 507 713 508 712 C508 712 515 712 515 712 C551 712 564 714 564 652 C564 652 564 375 564 375 C564 375 234 375 234 375 C234 375 234 652 234 652 C234 714 247 712 283 712 C283 712 290 712 290 712 C291 719 293 722 293 728 C293 728 97 728 97 728 C98 721 100 718 100 712 C100 712 107 712 107 712 C143 712 156 714 156 652 C156 652 156 75 156 75 C156 13 143 15 107 15 C107 15 100 15 100 15 C100 14 97 0 97 0 C97 0 293 0 293 0 C293 0 290 15 290 15 C290 15 283 15 283 15 C247 15 234 13 234 75 C234 75 234 368 234 368 C234 368 564 368 564 368 C564 368 564 75 564 75 C564 13 551 15 515 15 C515 15 508 15 508 15 C508 12 505 1 504 0 C504 0 701 0 701 0 C700 6 698 10 698 15 C698 15 691 15 691 15 C655 15 642 13 642 75 C642 75 642 652 642 652 C642 714 655 712 691 712 C691 712 698 712 698 712 C698 712 701 728 701 728 L701 728 Z M399 936 C399 936 540 785 540 785 C540 785 550 792 550 792 C550 792 424 987 424 987 C418 996 408 1012 399 1012 C389 1012 380 996 374 987 C374 987 248 792 248 792 C248 792 258 785 258 785 C258 785 399 936 399 936 L399 936 Z " />
<glyph glyph-name="Itilde" unicode="&#x128;" horiz-adv-x="313" d="M30 848 C30 893 41 910 70 910 C138 910 161 845 229 845 C276 845 293 874 293 955 C293 955 290 955 290 955 C290 911 278 895 245 895 C177 895 154 960 86 960 C42 960 26 930 26 848 C26 848 30 848 30 848 L30 848 Z M258 728 C258 728 61 728 61 728 C62 724 64 713 65 712 C65 712 72 712 72 712 C107 712 120 714 120 652 C120 652 120 75 120 75 C120 13 107 15 72 15 C72 15 65 15 65 15 C65 12 62 1 61 0 C61 0 258 0 258 0 C257 6 255 10 255 15 C255 15 248 15 248 15 C212 15 199 13 199 75 C199 75 199 652 199 652 C199 714 212 712 248 712 C248 712 255 712 255 712 C255 712 258 728 258 728 L258 728 Z " />
<glyph glyph-name="itilde" unicode="&#x129;" horiz-adv-x="268" d="M24 598 C24 643 35 660 64 660 C132 660 155 595 223 595 C270 595 287 624 287 705 C287 705 283 705 283 705 C283 661 271 645 239 645 C171 645 148 710 80 710 C36 710 20 680 20 598 C20 598 24 598 24 598 L24 598 Z M73 0 C73 0 235 0 235 0 C234 3 233 14 233 15 C233 15 226 15 226 15 C199 15 189 15 189 30 C189 30 189 370 189 370 C189 370 189 478 189 478 C189 478 176 478 176 478 C176 478 75 423 75 423 C75 423 75 415 75 415 C120 417 119 420 119 370 C119 370 119 30 119 30 C119 15 109 15 83 15 C83 15 76 15 76 15 C76 14 73 0 73 0 L73 0 Z " />
<glyph glyph-name="Imacron" unicode="&#x12a;" horiz-adv-x="313" d="M24 876 C24 876 296 876 296 876 C296 876 296 924 296 924 C296 924 24 924 24 924 C24 924 24 876 24 876 L24 876 Z M258 728 C258 728 61 728 61 728 C62 724 64 713 65 712 C65 712 72 712 72 712 C107 712 120 714 120 652 C120 652 120 75 120 75 C120 13 107 15 72 15 C72 15 65 15 65 15 C65 12 62 1 61 0 C61 0 258 0 258 0 C257 6 255 10 255 15 C255 15 248 15 248 15 C212 15 199 13 199 75 C199 75 199 652 199 652 C199 714 212 712 248 712 C248 712 255 712 255 712 C255 712 258 728 258 728 L258 728 Z " />
<glyph glyph-name="imacron" unicode="&#x12b;" horiz-adv-x="268" d="M18 626 C18 626 289 626 289 626 C289 626 289 674 289 674 C289 674 18 674 18 674 C18 674 18 626 18 626 L18 626 Z M73 0 C73 0 235 0 235 0 C234 3 233 14 233 15 C233 15 226 15 226 15 C199 15 189 15 189 30 C189 30 189 370 189 370 C189 370 189 478 189 478 C189 478 176 478 176 478 C176 478 75 423 75 423 C75 423 75 415 75 415 C120 417 119 420 119 370 C119 370 119 30 119 30 C119 15 109 15 83 15 C83 15 76 15 76 15 C76 14 73 0 73 0 L73 0 Z " />
<glyph glyph-name="Ibreve" unicode="&#x12c;" horiz-adv-x="313" d="M40 972 C46 887 78 856 160 856 C241 856 273 886 279 971 C279 971 265 973 265 973 C261 923 233 905 160 905 C86 905 58 923 54 974 C54 974 40 972 40 972 L40 972 Z M258 728 C258 728 61 728 61 728 C62 724 64 713 65 712 C65 712 72 712 72 712 C107 712 120 714 120 652 C120 652 120 75 120 75 C120 13 107 15 72 15 C72 15 65 15 65 15 C65 12 62 1 61 0 C61 0 258 0 258 0 C257 6 255 10 255 15 C255 15 248 15 248 15 C212 15 199 13 199 75 C199 75 199 652 199 652 C199 714 212 712 248 712 C248 712 255 712 255 712 C255 712 258 728 258 728 L258 728 Z " />
<glyph glyph-name="ibreve" unicode="&#x12d;" horiz-adv-x="268" d="M34 722 C40 637 72 606 154 606 C235 606 267 636 273 721 C273 721 259 723 259 723 C255 673 227 655 154 655 C80 655 52 673 48 724 C48 724 34 722 34 722 L34 722 Z M73 0 C73 0 235 0 235 0 C234 3 233 14 233 15 C233 15 226 15 226 15 C199 15 189 15 189 30 C189 30 189 370 189 370 C189 370 189 478 189 478 C189 478 176 478 176 478 C176 478 75 423 75 423 C75 423 75 415 75 415 C120 417 119 420 119 370 C119 370 119 30 119 30 C119 15 109 15 83 15 C83 15 76 15 76 15 C76 14 73 0 73 0 L73 0 Z " />
<glyph glyph-name="Idotaccent" unicode="&#x130;" horiz-adv-x="313" d="M160 843 C193 843 205 855 205 888 C205 921 193 933 160 933 C126 933 114 921 114 888 C114 855 126 843 160 843 L160 843 Z M258 728 C258 728 61 728 61 728 C62 724 64 713 65 712 C65 712 72 712 72 712 C107 712 120 714 120 652 C120 652 120 75 120 75 C120 13 107 15 72 15 C72 15 65 15 65 15 C65 12 62 1 61 0 C61 0 258 0 258 0 C257 6 255 10 255 15 C255 15 248 15 248 15 C212 15 199 13 199 75 C199 75 199 652 199 652 C199 714 212 712 248 712 C248 712 255 712 255 712 C255 712 258 728 258 728 L258 728 Z " />
<glyph glyph-name="dotlessi" unicode="&#x131;" horiz-adv-x="268" d="M73 0 C73 0 235 0 235 0 C234 3 233 14 233 15 C233 15 226 15 226 15 C199 15 189 15 189 30 C189 30 189 370 189 370 C189 370 189 478 189 478 C189 478 176 478 176 478 C176 478 75 423 75 423 C75 423 75 415 75 415 C120 417 119 420 119 370 C119 370 119 30 119 30 C119 15 109 15 83 15 C83 15 76 15 76 15 C76 14 73 0 73 0 L73 0 Z " />
<glyph glyph-name="Jcircumflex" unicode="&#x134;" horiz-adv-x="313" d="M258 728 C258 728 61 728 61 728 C62 724 64 713 65 712 C65 712 72 712 72 712 C107 712 120 714 120 652 C120 652 120 -52 120 -52 C120 -216 65 -211 6 -211 C-43 -211 -7 -145 -56 -145 C-83 -145 -93 -155 -93 -182 C-93 -210 -68 -220 0 -220 C102 -220 199 -229 199 96 C199 96 199 652 199 652 C199 714 212 712 248 712 C248 712 255 712 255 712 C255 712 258 728 258 728 L258 728 Z M160 936 C160 936 301 785 301 785 C301 785 310 792 310 792 C310 792 184 987 184 987 C178 996 169 1012 160 1012 C150 1012 141 996 135 987 C135 987 9 792 9 792 C9 792 18 785 18 785 C18 785 160 936 160 936 L160 936 Z " />
<glyph glyph-name="Lacute" unicode="&#x139;" horiz-adv-x="554" d="M167 791 C167 791 308 912 308 912 C356 955 374 971 374 977 C374 1000 362 1012 339 1012 C333 1012 317 994 276 944 C276 944 158 799 158 799 C158 799 167 791 167 791 L167 791 Z M510 12 C518 42 525 73 535 104 C533 104 518 101 518 101 C518 101 517 94 517 94 C501 35 500 13 330 13 C330 13 268 13 268 13 C210 13 200 22 199 44 C199 44 199 69 199 69 C199 69 199 80 199 80 C199 80 199 647 199 647 C199 714 212 712 248 712 C248 712 255 712 255 712 C255 712 258 728 258 728 C258 728 199 728 199 728 C199 728 120 728 120 728 C120 728 61 728 61 728 C62 724 64 713 65 712 C65 712 72 712 72 712 C107 712 120 714 120 647 C120 647 120 80 120 80 C120 13 107 15 72 15 C72 15 65 15 65 15 C65 12 62 1 61 0 C61 0 120 0 120 0 C120 0 199 0 199 0 C199 0 326 0 326 0 C326 0 507 0 507 0 C507 0 510 12 510 12 L510 12 Z " />
<glyph glyph-name="Lcaron" unicode="&#x13d;" horiz-adv-x="554" d="M510 12 C518 42 525 73 535 104 C533 104 518 101 518 101 C518 101 517 94 517 94 C501 35 500 13 330 13 C330 13 268 13 268 13 C210 13 200 22 199 44 C199 44 199 69 199 69 C199 69 199 80 199 80 C199 80 199 647 199 647 C199 714 212 712 248 712 C248 712 255 712 255 712 C255 712 258 728 258 728 C258 728 199 728 199 728 C199 728 120 728 120 728 C120 728 61 728 61 728 C62 724 64 713 65 712 C65 712 72 712 72 712 C107 712 120 714 120 647 C120 647 120 80 120 80 C120 13 107 15 72 15 C72 15 65 15 65 15 C65 12 62 1 61 0 C61 0 120 0 120 0 C120 0 199 0 199 0 C199 0 326 0 326 0 C326 0 507 0 507 0 C507 0 510 12 510 12 L510 12 Z M362 671 C378 720 384 748 384 776 C384 785 376 786 353 786 C335 786 330 734 325 679 C325 679 315 567 315 567 C315 567 327 565 327 565 C327 565 362 671 362 671 L362 671 Z " />
<glyph glyph-name="lcaron" unicode="&#x13e;" horiz-adv-x="237" d="M43 683 C76 692 88 702 88 625 C88 625 88 30 88 30 C88 15 79 15 52 15 C52 15 46 15 46 15 C45 10 43 6 43 0 C43 0 203 0 203 0 C202 3 201 14 201 15 C201 15 194 15 194 15 C167 15 158 15 158 30 C158 30 158 642 158 642 C158 642 158 728 158 728 C158 728 146 728 146 728 C146 728 40 697 40 697 C42 690 43 686 43 683 L43 683 Z M251 621 C268 670 274 698 274 726 C274 735 266 736 242 736 C225 736 220 684 215 629 C215 629 205 517 205 517 C205 517 217 515 217 515 C217 515 251 621 251 621 L251 621 Z " />
<glyph glyph-name="Nacute" unicode="&#x143;" horiz-adv-x="691" d="M250 791 C250 791 391 912 391 912 C439 955 457 971 457 977 C457 1000 445 1012 422 1012 C416 1012 400 994 359 944 C359 944 241 799 241 799 C241 799 250 791 250 791 L250 791 Z M27 712 C27 712 49 712 49 712 C58 712 60 713 85 677 C85 677 86 678 86 678 C86 678 110 643 110 643 C110 643 109 145 109 145 C109 145 109 145 109 145 C109 11 97 15 64 15 C64 15 42 15 42 15 C41 11 40 1 40 0 C40 0 109 0 109 0 C109 0 132 0 132 0 C132 0 201 0 201 0 C200 3 199 14 199 15 C199 15 177 15 177 15 C144 15 132 12 132 135 C132 135 131 135 131 135 C131 135 129 615 129 615 C129 615 480 108 480 108 C480 108 555 0 555 0 C555 0 571 0 571 0 C571 0 575 637 575 637 C578 715 595 712 635 712 C635 712 642 712 642 712 C643 716 645 727 646 728 C646 728 576 728 576 728 C576 728 553 728 553 728 C553 728 483 728 483 728 C484 724 486 713 487 712 C487 712 494 712 494 712 C537 712 553 715 553 612 C553 612 553 612 553 612 C553 612 555 134 555 134 C555 134 543 150 543 150 C543 150 148 728 148 728 C148 728 129 728 129 728 C129 728 110 728 110 728 C110 728 51 728 51 728 C51 728 25 728 25 728 C26 724 27 713 27 712 C27 712 27 712 27 712 L27 712 Z " />
<glyph glyph-name="Ncaron" unicode="&#x147;" horiz-adv-x="691" d="M27 712 C27 712 49 712 49 712 C58 712 60 713 85 677 C85 677 86 678 86 678 C86 678 110 643 110 643 C110 643 109 145 109 145 C109 145 109 145 109 145 C109 11 97 15 64 15 C64 15 42 15 42 15 C41 11 40 1 40 0 C40 0 109 0 109 0 C109 0 132 0 132 0 C132 0 201 0 201 0 C200 3 199 14 199 15 C199 15 177 15 177 15 C144 15 132 12 132 135 C132 135 131 135 131 135 C131 135 129 615 129 615 C129 615 480 108 480 108 C480 108 555 0 555 0 C555 0 571 0 571 0 C571 0 575 637 575 637 C578 715 595 712 635 712 C635 712 642 712 642 712 C643 716 645 727 646 728 C646 728 576 728 576 728 C576 728 553 728 553 728 C553 728 483 728 483 728 C484 724 486 713 487 712 C487 712 494 712 494 712 C537 712 553 715 553 612 C553 612 553 612 553 612 C553 612 555 134 555 134 C555 134 543 150 543 150 C543 150 148 728 148 728 C148 728 129 728 129 728 C129 728 110 728 110 728 C110 728 51 728 51 728 C51 728 25 728 25 728 C26 724 27 713 27 712 C27 712 27 712 27 712 L27 712 Z M343 869 C343 869 484 1021 484 1021 C484 1021 493 1013 493 1013 C493 1013 367 819 367 819 C361 809 352 793 343 793 C333 793 324 809 318 818 C318 818 192 1013 192 1013 C192 1013 201 1021 201 1021 C201 1021 343 869 343 869 L343 869 Z " />
<glyph glyph-name="ncaron" unicode="&#x148;" horiz-adv-x="512" d="M37 425 C70 434 82 449 82 371 C82 371 82 30 82 30 C82 15 73 15 46 15 C46 15 40 15 40 15 C39 10 37 6 37 0 C37 0 197 0 197 0 C196 3 195 14 195 15 C195 15 188 15 188 15 C161 15 152 15 152 30 C152 30 152 350 152 350 C186 424 221 451 284 451 C348 451 363 419 363 329 C363 329 363 30 363 30 C363 15 354 15 327 15 C327 15 320 15 320 15 C319 11 318 1 318 0 C318 0 478 0 478 0 C477 3 476 14 476 15 C476 15 469 15 469 15 C442 15 433 15 433 30 C433 30 433 329 433 329 C433 446 409 488 307 488 C235 488 194 455 152 362 C152 362 152 392 152 392 C152 392 152 478 152 478 C152 478 140 478 140 478 C140 478 34 439 34 439 C35 434 37 431 37 425 L37 425 Z M258 619 C258 619 399 771 399 771 C399 771 408 763 408 763 C408 763 282 569 282 569 C276 559 267 543 258 543 C248 543 239 559 233 568 C233 568 107 763 107 763 C107 763 116 771 116 771 C116 771 258 619 258 619 L258 619 Z " />
<glyph glyph-name="Omacron" unicode="&#x14c;" horiz-adv-x="808" d="M263 876 C263 876 535 876 535 876 C535 876 535 924 535 924 C535 924 263 924 263 924 C263 924 263 876 263 876 L263 876 Z M390 -3 C209 -3 144 94 144 364 C144 634 211 731 398 731 C593 731 664 634 664 364 C664 94 591 -3 390 -3 L390 -3 Z M55 364 C55 89 143 -10 389 -10 C657 -10 753 89 753 364 C753 639 659 738 399 738 C146 738 55 639 55 364 L55 364 Z " />
<glyph glyph-name="omacron" unicode="&#x14d;" horiz-adv-x="590" d="M159 626 C159 626 431 626 431 626 C431 626 431 674 431 674 C431 674 159 674 159 674 C159 674 159 626 159 626 L159 626 Z M295 -3 C168 -3 122 61 122 239 C122 417 168 481 295 481 C422 481 468 417 468 239 C468 61 422 -3 295 -3 L295 -3 Z M45 239 C45 56 111 -10 295 -10 C479 -10 545 56 545 239 C545 422 479 488 295 488 C111 488 45 422 45 239 L45 239 Z " />
<glyph glyph-name="Obreve" unicode="&#x14e;" horiz-adv-x="808" d="M279 972 C285 887 317 856 399 856 C481 856 512 886 519 971 C519 971 504 973 504 973 C500 923 472 905 399 905 C325 905 298 923 294 974 C294 974 279 972 279 972 L279 972 Z M390 -3 C209 -3 144 94 144 364 C144 634 211 731 398 731 C593 731 664 634 664 364 C664 94 591 -3 390 -3 L390 -3 Z M55 364 C55 89 143 -10 389 -10 C657 -10 753 89 753 364 C753 639 659 738 399 738 C146 738 55 639 55 364 L55 364 Z " />
<glyph glyph-name="obreve" unicode="&#x14f;" horiz-adv-x="590" d="M175 722 C182 637 213 606 295 606 C377 606 409 636 415 721 C415 721 400 723 400 723 C396 673 368 655 295 655 C221 655 194 673 190 724 C190 724 175 722 175 722 L175 722 Z M295 -3 C168 -3 122 61 122 239 C122 417 168 481 295 481 C422 481 468 417 468 239 C468 61 422 -3 295 -3 L295 -3 Z M45 239 C45 56 111 -10 295 -10 C479 -10 545 56 545 239 C545 422 479 488 295 488 C111 488 45 422 45 239 L45 239 Z " />
<glyph glyph-name="Racute" unicode="&#x154;" horiz-adv-x="673" d="M292 791 C292 791 432 912 432 912 C481 955 499 971 499 977 C499 1000 487 1012 464 1012 C458 1012 442 994 400 944 C400 944 283 799 283 799 C283 799 292 791 292 791 L292 791 Z M64 712 C64 712 71 712 71 712 C107 712 120 714 120 647 C120 647 120 80 120 80 C120 13 107 15 71 15 C71 15 64 15 64 15 C64 14 61 0 61 0 C61 0 257 0 257 0 C257 0 254 15 254 15 C254 15 247 15 247 15 C211 15 198 13 198 80 C198 80 198 349 198 349 C198 349 299 349 299 349 C311 319 356 240 456 73 C508 -13 471 0 663 0 C663 0 663 12 663 12 C570 12 590 1 548 73 C454 230 403 316 381 352 C493 362 535 401 535 523 C535 674 474 728 303 728 C303 728 198 728 198 728 C198 728 61 728 61 728 C62 721 64 718 64 712 L64 712 Z M198 712 C198 712 280 712 280 712 C404 712 449 666 449 538 C449 395 410 369 303 369 C303 369 198 369 198 369 C198 369 198 647 198 647 C198 647 198 712 198 712 L198 712 Z " />
<glyph glyph-name="Rcaron" unicode="&#x158;" horiz-adv-x="673" d="M64 712 C64 712 71 712 71 712 C107 712 120 714 120 647 C120 647 120 80 120 80 C120 13 107 15 71 15 C71 15 64 15 64 15 C64 14 61 0 61 0 C61 0 257 0 257 0 C257 0 254 15 254 15 C254 15 247 15 247 15 C211 15 198 13 198 80 C198 80 198 349 198 349 C198 349 299 349 299 349 C311 319 356 240 456 73 C508 -13 471 0 663 0 C663 0 663 12 663 12 C570 12 590 1 548 73 C454 230 403 316 381 352 C493 362 535 401 535 523 C535 674 474 728 303 728 C303 728 198 728 198 728 C198 728 61 728 61 728 C62 721 64 718 64 712 L64 712 Z M285 869 C285 869 426 1021 426 1021 C426 1021 435 1013 435 1013 C435 1013 309 819 309 819 C303 809 294 793 284 793 C275 793 266 809 260 818 C260 818 134 1013 134 1013 C134 1013 143 1021 143 1021 C143 1021 285 869 285 869 L285 869 Z M198 712 C198 712 280 712 280 712 C404 712 449 666 449 538 C449 395 410 369 303 369 C303 369 198 369 198 369 C198 369 198 647 198 647 C198 647 198 712 198 712 L198 712 Z " />
<glyph glyph-name="rcaron" unicode="&#x159;" horiz-adv-x="372" d="M43 425 C76 434 88 449 88 371 C88 371 88 30 88 30 C88 15 79 15 55 15 C55 15 48 15 48 15 C47 11 46 1 46 0 C46 0 206 0 206 0 C206 0 203 15 203 15 C203 15 196 15 196 15 C168 15 158 15 158 30 C158 30 158 369 158 369 C172 431 200 455 257 455 C286 455 293 429 280 357 C275 327 286 316 321 316 C346 316 357 327 362 357 C380 453 360 488 290 488 C212 488 175 459 158 381 C158 381 158 392 158 392 C158 392 158 478 158 478 C158 478 146 478 146 478 C146 478 40 439 40 439 C41 434 43 431 43 425 L43 425 Z M219 620 C219 620 360 771 360 771 C360 771 370 763 370 763 C370 763 244 569 244 569 C238 559 229 543 219 543 C209 543 200 559 195 568 C195 568 68 763 68 763 C68 763 78 771 78 771 C78 771 219 620 219 620 L219 620 Z " />
<glyph glyph-name="Sacute" unicode="&#x15a;" horiz-adv-x="529" d="M386 704 C352 728 307 738 244 738 C115 738 69 689 69 552 C69 444 106 389 261 323 C395 266 427 228 427 161 C427 41 389 -2 285 -2 C241 -2 205 6 175 24 C138 48 98 115 67 187 C63 196 62 199 62 199 C50 201 51 201 51 201 C51 201 51 143 51 143 C51 143 51 61 51 61 C67 69 60 61 67 85 C67 82 85 68 133 32 C172 2 220 -10 285 -10 C435 -10 489 41 489 183 C489 290 454 343 308 404 C164 466 130 507 130 582 C130 692 160 731 244 731 C258 731 270 730 283 729 C284 729 285 729 286 728 C293 727 300 726 306 723 C306 723 386 704 386 704 L386 704 Z M286 728 C301 726 315 723 328 718 C328 718 306 723 306 723 C360 704 403 646 433 579 C437 571 438 568 438 568 C443 567 439 567 448 565 C448 565 448 624 448 624 C448 624 448 688 448 688 C448 688 447 688 443 687 C434 683 439 687 433 670 C433 670 421 680 286 728 L286 728 Z M272 791 C272 791 412 912 412 912 C461 955 479 971 479 977 C479 1000 467 1012 444 1012 C438 1012 422 994 380 944 C380 944 263 799 263 799 C263 799 272 791 272 791 L272 791 Z " />
<glyph glyph-name="Scircumflex" unicode="&#x15c;" horiz-adv-x="529" d="M386 704 C352 728 307 738 244 738 C115 738 69 689 69 552 C69 444 106 389 261 323 C395 266 427 228 427 161 C427 41 389 -2 285 -2 C241 -2 205 6 175 24 C138 48 98 115 67 187 C63 196 62 199 62 199 C50 201 51 201 51 201 C51 201 51 143 51 143 C51 143 51 61 51 61 C67 69 60 61 67 85 C67 82 85 68 133 32 C172 2 220 -10 285 -10 C435 -10 489 41 489 183 C489 290 454 343 308 404 C164 466 130 507 130 582 C130 692 160 731 244 731 C258 731 270 730 283 729 C284 729 285 729 286 728 C293 727 300 726 306 723 C306 723 386 704 386 704 L386 704 Z M286 728 C301 726 315 723 328 718 C328 718 306 723 306 723 C360 704 403 646 433 579 C437 571 438 568 438 568 C443 567 439 567 448 565 C448 565 448 624 448 624 C448 624 448 688 448 688 C448 688 447 688 443 687 C434 683 439 687 433 670 C433 670 421 680 286 728 L286 728 Z M265 936 C265 936 406 785 406 785 C406 785 415 792 415 792 C415 792 289 987 289 987 C283 996 274 1012 264 1012 C255 1012 246 996 240 987 C240 987 114 792 114 792 C114 792 123 785 123 785 C123 785 265 936 265 936 L265 936 Z " />
<glyph glyph-name="Scaron" unicode="&#x160;" horiz-adv-x="529" d="M386 704 C352 728 307 738 244 738 C115 738 69 689 69 552 C69 444 106 389 261 323 C395 266 427 228 427 161 C427 41 389 -2 285 -2 C241 -2 205 6 175 24 C138 48 98 115 67 187 C63 196 62 199 62 199 C50 201 51 201 51 201 C51 201 51 143 51 143 C51 143 51 61 51 61 C67 69 60 61 67 85 C67 82 85 68 133 32 C172 2 220 -10 285 -10 C435 -10 489 41 489 183 C489 290 454 343 308 404 C164 466 130 507 130 582 C130 692 160 731 244 731 C258 731 270 730 283 729 C284 729 285 729 286 728 C293 727 300 726 306 723 C306 723 386 704 386 704 L386 704 Z M286 728 C301 726 315 723 328 718 C328 718 306 723 306 723 C360 704 403 646 433 579 C437 571 438 568 438 568 C443 567 439 567 448 565 C448 565 448 624 448 624 C448 624 448 688 448 688 C448 688 447 688 443 687 C434 683 439 687 433 670 C433 670 421 680 286 728 L286 728 Z M265 869 C265 869 406 1021 406 1021 C406 1021 415 1013 415 1013 C415 1013 289 819 289 819 C283 809 274 793 264 793 C255 793 246 809 240 818 C240 818 114 1013 114 1013 C114 1013 123 1021 123 1021 C123 1021 265 869 265 869 L265 869 Z " />
<glyph glyph-name="scaron" unicode="&#x161;" horiz-adv-x="419" d="M343 361 C343 361 343 406 343 406 C343 406 343 471 343 471 C336 470 333 468 327 468 C327 468 327 452 327 452 C327 455 316 461 284 473 C264 483 238 488 204 488 C108 488 73 456 73 366 C73 284 99 246 207 212 C294 185 315 158 315 101 C315 23 290 -5 222 -5 C215 -5 208 -5 201 -4 C201 -4 211 -4 211 -4 C202 -4 194 -3 187 -1 C146 9 119 38 91 98 C91 98 90 98 90 98 C89 106 88 115 88 124 C88 124 88 133 88 133 C84 134 73 135 72 135 C72 135 72 90 72 90 C72 90 72 42 72 42 C76 43 87 44 88 44 C88 44 88 56 88 56 C88 37 106 16 158 -1 C176 -7 197 -10 222 -10 C330 -10 369 25 369 121 C369 197 344 232 238 266 C144 295 122 325 122 390 C122 458 144 482 204 482 C214 482 224 481 232 480 C232 480 204 482 204 482 C215 482 226 481 235 480 C235 480 232 480 232 480 C275 473 300 449 324 398 C324 398 325 398 325 398 C326 390 327 381 327 372 C327 372 327 363 327 363 C331 362 342 361 343 361 C343 361 343 361 343 361 L343 361 Z M223 619 C223 619 364 771 364 771 C364 771 373 763 373 763 C373 763 247 569 247 569 C241 559 232 543 222 543 C213 543 204 559 198 568 C198 568 72 763 72 763 C72 763 81 771 81 771 C81 771 223 619 223 619 L223 619 Z " />
<glyph glyph-name="Tcaron" unicode="&#x164;" horiz-adv-x="756" d="M90 762 C86 763 76 764 75 764 C71 752 67 740 63 728 C63 728 55 728 55 728 C55 728 55 708 55 708 C55 708 56 708 56 708 C49 689 41 669 34 650 C38 651 49 652 50 652 C68 693 59 708 170 708 C170 708 339 708 339 708 C339 708 339 75 339 75 C339 13 326 15 290 15 C290 15 283 15 283 15 C282 10 280 6 280 0 C280 0 476 0 476 0 C476 0 473 15 473 15 C473 15 466 15 466 15 C430 15 417 13 417 75 C417 75 417 708 417 708 C417 708 586 708 586 708 C692 708 694 695 706 652 C710 651 721 650 722 650 C715 670 708 689 701 708 C701 708 701 728 701 728 C701 728 694 728 694 728 C690 740 686 752 681 764 C677 763 667 762 666 762 C678 735 688 728 579 728 C579 728 417 728 417 728 C417 728 339 728 339 728 C339 728 178 728 178 728 C66 728 82 734 90 762 C90 762 90 762 90 762 L90 762 Z M378 870 C378 870 519 1021 519 1021 C519 1021 529 1013 529 1013 C529 1013 403 819 403 819 C397 809 388 793 378 793 C369 793 360 809 354 818 C354 818 227 1013 227 1013 C227 1013 237 1021 237 1021 C237 1021 378 870 378 870 L378 870 Z " />
<glyph glyph-name="tcaron" unicode="&#x165;" horiz-adv-x="349" d="M306 478 C306 478 163 478 163 478 C163 478 163 592 163 592 C163 592 158 592 158 592 C158 592 28 461 28 461 C28 461 28 451 28 451 C28 451 93 451 93 451 C93 451 93 140 93 140 C93 8 126 -10 216 -10 C274 -10 307 14 340 80 C340 80 331 84 331 84 C309 39 284 23 238 23 C181 23 160 35 161 124 C161 124 163 441 163 441 C163 441 306 441 306 441 C306 441 306 478 306 478 L306 478 Z M403 621 C419 670 425 698 425 726 C425 735 417 736 394 736 C376 736 371 684 367 629 C367 629 357 517 357 517 C357 517 369 515 369 515 C369 515 403 621 403 621 L403 621 Z " />
<glyph glyph-name="Utilde" unicode="&#x168;" horiz-adv-x="643" d="M192 848 C192 893 203 910 232 910 C300 910 323 845 391 845 C439 845 456 874 456 955 C456 955 452 955 452 955 C452 911 440 895 407 895 C339 895 316 960 248 960 C204 960 188 930 188 848 C188 848 192 848 192 848 L192 848 Z M424 712 C424 712 431 712 431 712 C467 712 480 714 480 647 C480 647 480 178 480 178 C433 76 376 40 267 40 C190 40 163 86 163 215 C163 215 163 647 163 647 C163 647 163 728 163 728 C163 728 26 728 26 728 C27 721 29 718 29 712 C29 712 36 712 36 712 C72 712 85 714 85 647 C85 647 85 215 85 215 C85 50 125 -10 235 -10 C363 -10 428 30 480 142 C480 142 480 105 480 105 C480 105 480 0 480 0 C480 0 493 0 493 0 C493 0 614 53 614 53 C614 53 614 60 614 60 C557 57 559 54 559 105 C559 105 559 647 559 647 C559 647 559 728 559 728 C559 728 421 728 421 728 C422 721 424 718 424 712 L424 712 Z " />
<glyph glyph-name="utilde" unicode="&#x169;" horiz-adv-x="483" d="M108 598 C108 643 119 660 148 660 C216 660 239 595 307 595 C354 595 371 624 371 705 C371 705 367 705 367 705 C367 661 355 645 323 645 C255 645 232 710 164 710 C120 710 104 680 104 598 C104 598 108 598 108 598 L108 598 Z M454 31 C420 21 409 12 409 100 C409 100 409 447 409 447 C409 447 409 478 409 478 C409 478 302 478 302 478 C303 474 304 463 304 462 C304 462 311 462 311 462 C332 462 339 462 339 447 C339 447 339 128 339 128 C312 63 280 39 221 39 C159 39 136 70 136 156 C136 156 136 447 136 447 C136 447 136 478 136 478 C136 478 29 478 29 478 C30 474 31 463 31 462 C31 462 38 462 38 462 C59 462 66 462 66 447 C66 447 66 156 66 156 C66 34 98 -10 188 -10 C260 -10 302 25 339 121 C339 121 339 85 339 85 C339 85 339 -10 339 -10 C339 -10 351 -10 351 -10 C351 -10 457 16 457 16 C457 16 454 31 454 31 L454 31 Z " />
<glyph glyph-name="Umacron" unicode="&#x16a;" horiz-adv-x="643" d="M186 876 C186 876 458 876 458 876 C458 876 458 924 458 924 C458 924 186 924 186 924 C186 924 186 876 186 876 L186 876 Z M424 712 C424 712 431 712 431 712 C467 712 480 714 480 647 C480 647 480 178 480 178 C433 76 376 40 267 40 C190 40 163 86 163 215 C163 215 163 647 163 647 C163 647 163 728 163 728 C163 728 26 728 26 728 C27 721 29 718 29 712 C29 712 36 712 36 712 C72 712 85 714 85 647 C85 647 85 215 85 215 C85 50 125 -10 235 -10 C363 -10 428 30 480 142 C480 142 480 105 480 105 C480 105 480 0 480 0 C480 0 493 0 493 0 C493 0 614 53 614 53 C614 53 614 60 614 60 C557 57 559 54 559 105 C559 105 559 647 559 647 C559 647 559 728 559 728 C559 728 421 728 421 728 C422 721 424 718 424 712 L424 712 Z " />
<glyph glyph-name="umacron" unicode="&#x16b;" horiz-adv-x="483" d="M102 626 C102 626 374 626 374 626 C374 626 374 674 374 674 C374 674 102 674 102 674 C102 674 102 626 102 626 L102 626 Z M454 31 C420 21 409 12 409 100 C409 100 409 447 409 447 C409 447 409 478 409 478 C409 478 302 478 302 478 C303 474 304 463 304 462 C304 462 311 462 311 462 C332 462 339 462 339 447 C339 447 339 128 339 128 C312 63 280 39 221 39 C159 39 136 70 136 156 C136 156 136 447 136 447 C136 447 136 478 136 478 C136 478 29 478 29 478 C30 474 31 463 31 462 C31 462 38 462 38 462 C59 462 66 462 66 447 C66 447 66 156 66 156 C66 34 98 -10 188 -10 C260 -10 302 25 339 121 C339 121 339 85 339 85 C339 85 339 -10 339 -10 C339 -10 351 -10 351 -10 C351 -10 457 16 457 16 C457 16 454 31 454 31 L454 31 Z " />
<glyph glyph-name="Ubreve" unicode="&#x16c;" horiz-adv-x="643" d="M202 972 C208 887 240 856 322 856 C404 856 435 886 442 971 C442 971 427 973 427 973 C423 923 395 905 322 905 C248 905 221 923 217 974 C217 974 202 972 202 972 L202 972 Z M424 712 C424 712 431 712 431 712 C467 712 480 714 480 647 C480 647 480 178 480 178 C433 76 376 40 267 40 C190 40 163 86 163 215 C163 215 163 647 163 647 C163 647 163 728 163 728 C163 728 26 728 26 728 C27 721 29 718 29 712 C29 712 36 712 36 712 C72 712 85 714 85 647 C85 647 85 215 85 215 C85 50 125 -10 235 -10 C363 -10 428 30 480 142 C480 142 480 105 480 105 C480 105 480 0 480 0 C480 0 493 0 493 0 C493 0 614 53 614 53 C614 53 614 60 614 60 C557 57 559 54 559 105 C559 105 559 647 559 647 C559 647 559 728 559 728 C559 728 421 728 421 728 C422 721 424 718 424 712 L424 712 Z " />
<glyph glyph-name="ubreve" unicode="&#x16d;" horiz-adv-x="483" d="M118 722 C124 637 156 606 238 606 C319 606 351 636 357 721 C357 721 343 723 343 723 C339 673 311 655 238 655 C164 655 136 673 132 724 C132 724 118 722 118 722 L118 722 Z M454 31 C420 21 409 12 409 100 C409 100 409 447 409 447 C409 447 409 478 409 478 C409 478 302 478 302 478 C303 474 304 463 304 462 C304 462 311 462 311 462 C332 462 339 462 339 447 C339 447 339 128 339 128 C312 63 280 39 221 39 C159 39 136 70 136 156 C136 156 136 447 136 447 C136 447 136 478 136 478 C136 478 29 478 29 478 C30 474 31 463 31 462 C31 462 38 462 38 462 C59 462 66 462 66 447 C66 447 66 156 66 156 C66 34 98 -10 188 -10 C260 -10 302 25 339 121 C339 121 339 85 339 85 C339 85 339 -10 339 -10 C339 -10 351 -10 351 -10 C351 -10 457 16 457 16 C457 16 454 31 454 31 L454 31 Z " />
<glyph glyph-name="Uring" unicode="&#x16e;" horiz-adv-x="643" d="M322 804 C271 804 245 831 245 883 C245 940 265 961 322 961 C378 961 398 940 398 883 C398 831 372 804 322 804 L322 804 Z M225 883 C225 820 258 788 322 788 C386 788 419 820 419 883 C419 953 393 978 322 978 C251 978 225 953 225 883 L225 883 Z M424 712 C424 712 431 712 431 712 C467 712 480 714 480 647 C480 647 480 178 480 178 C433 76 376 40 267 40 C190 40 163 86 163 215 C163 215 163 647 163 647 C163 647 163 728 163 728 C163 728 26 728 26 728 C27 721 29 718 29 712 C29 712 36 712 36 712 C72 712 85 714 85 647 C85 647 85 215 85 215 C85 50 125 -10 235 -10 C363 -10 428 30 480 142 C480 142 480 105 480 105 C480 105 480 0 480 0 C480 0 493 0 493 0 C493 0 614 53 614 53 C614 53 614 60 614 60 C557 57 559 54 559 105 C559 105 559 647 559 647 C559 647 559 728 559 728 C559 728 421 728 421 728 C422 721 424 718 424 712 L424 712 Z " />
<glyph glyph-name="uring" unicode="&#x16f;" horiz-adv-x="483" d="M238 554 C187 554 161 581 161 633 C161 690 181 711 238 711 C294 711 314 690 314 633 C314 581 288 554 238 554 L238 554 Z M141 633 C141 570 174 538 238 538 C302 538 335 570 335 633 C335 703 309 728 238 728 C167 728 141 703 141 633 L141 633 Z M454 31 C420 21 409 12 409 100 C409 100 409 447 409 447 C409 447 409 478 409 478 C409 478 302 478 302 478 C303 474 304 463 304 462 C304 462 311 462 311 462 C332 462 339 462 339 447 C339 447 339 128 339 128 C312 63 280 39 221 39 C159 39 136 70 136 156 C136 156 136 447 136 447 C136 447 136 478 136 478 C136 478 29 478 29 478 C30 474 31 463 31 462 C31 462 38 462 38 462 C59 462 66 462 66 447 C66 447 66 156 66 156 C66 34 98 -10 188 -10 C260 -10 302 25 339 121 C339 121 339 85 339 85 C339 85 339 -10 339 -10 C339 -10 351 -10 351 -10 C351 -10 457 16 457 16 C457 16 454 31 454 31 L454 31 Z " />
<glyph glyph-name="Wcircumflex" unicode="&#x174;" horiz-adv-x="987" d="M961 728 C961 728 913 728 913 728 C913 728 881 728 881 728 C881 728 791 728 791 728 C792 724 793 713 793 712 C793 712 813 712 813 712 C857 712 875 715 847 607 C847 607 709 114 709 114 C709 114 531 650 531 650 C512 714 528 712 563 712 C563 712 583 712 583 712 C584 716 585 727 585 728 C585 728 505 728 505 728 C505 728 415 728 415 728 C415 728 368 728 368 728 C369 724 370 713 370 712 C370 712 391 712 391 712 C412 712 420 713 434 672 C434 672 435 672 435 672 C457 609 479 547 500 485 C500 485 500 485 500 485 C500 485 350 98 350 98 C350 98 350 99 350 99 C350 99 181 592 181 592 C181 592 181 592 181 592 C137 715 152 712 192 712 C192 712 211 712 211 712 C212 716 213 727 213 728 C213 728 134 728 134 728 C134 728 48 728 48 728 C48 728 17 728 17 728 C18 724 19 713 19 712 C19 712 42 712 42 712 C50 712 52 714 79 640 C155 424 231 206 308 -10 C308 -10 328 -10 328 -10 C328 -10 513 450 513 450 C567 297 621 144 674 -10 C674 -10 695 -10 695 -10 C695 -10 873 592 873 592 C873 592 873 592 873 592 C874 595 875 599 876 602 C876 602 890 650 890 650 C910 714 918 712 937 712 C937 712 959 712 959 712 C960 716 961 727 961 728 C961 728 961 728 961 728 L961 728 Z M481 936 C481 936 622 785 622 785 C622 785 631 792 631 792 C631 792 505 987 505 987 C499 996 490 1012 480 1012 C471 1012 462 996 456 987 C456 987 330 792 330 792 C330 792 339 785 339 785 C339 785 481 936 481 936 L481 936 Z " />
<glyph glyph-name="Ycircumflex" unicode="&#x176;" horiz-adv-x="631" d="M192 728 C192 728 134 728 134 728 C134 728 42 728 42 728 C42 728 14 728 14 728 C15 724 16 713 16 712 C16 712 39 712 39 712 C48 712 49 715 121 592 C121 592 121 592 121 592 C121 592 283 315 283 315 C283 315 283 75 283 75 C283 13 270 15 234 15 C234 15 227 15 227 15 C227 14 224 0 224 0 C224 0 421 0 421 0 C420 3 418 14 417 15 C417 15 410 15 410 15 C374 15 361 13 361 75 C361 75 361 326 361 326 C361 326 501 592 501 592 C501 592 501 592 501 592 C566 715 570 712 587 712 C587 712 609 712 609 712 C610 716 611 727 611 728 C611 728 572 728 572 728 C572 728 559 728 559 728 C559 728 501 728 501 728 C502 724 503 713 503 712 C503 712 522 712 522 712 C540 712 550 714 526 662 C526 662 496 604 496 604 C496 603 495 603 495 602 C495 602 495 602 495 602 C495 602 359 334 359 334 C359 334 171 662 171 662 C145 714 155 712 172 712 C172 712 190 712 190 712 C191 716 192 727 192 728 C192 728 192 728 192 728 L192 728 Z M323 936 C323 936 464 785 464 785 C464 785 473 792 473 792 C473 792 347 987 347 987 C341 996 332 1012 322 1012 C313 1012 304 996 298 987 C298 987 172 792 172 792 C172 792 181 785 181 785 C181 785 323 936 323 936 L323 936 Z " />
<glyph glyph-name="Ydieresis" unicode="&#x178;" horiz-adv-x="631" d="M394 843 C427 843 439 855 439 888 C439 921 427 933 394 933 C360 933 348 921 348 888 C348 855 360 843 394 843 L394 843 Z M251 843 C284 843 296 855 296 888 C296 921 284 933 251 933 C218 933 206 921 206 888 C206 855 218 843 251 843 L251 843 Z M192 728 C192 728 134 728 134 728 C134 728 42 728 42 728 C42 728 14 728 14 728 C15 724 16 713 16 712 C16 712 39 712 39 712 C48 712 49 715 121 592 C121 592 121 592 121 592 C121 592 283 315 283 315 C283 315 283 75 283 75 C283 13 270 15 234 15 C234 15 227 15 227 15 C227 14 224 0 224 0 C224 0 421 0 421 0 C420 3 418 14 417 15 C417 15 410 15 410 15 C374 15 361 13 361 75 C361 75 361 326 361 326 C361 326 501 592 501 592 C501 592 501 592 501 592 C566 715 570 712 587 712 C587 712 609 712 609 712 C610 716 611 727 611 728 C611 728 572 728 572 728 C572 728 559 728 559 728 C559 728 501 728 501 728 C502 724 503 713 503 712 C503 712 522 712 522 712 C540 712 550 714 526 662 C526 662 496 604 496 604 C496 603 495 603 495 602 C495 602 495 602 495 602 C495 602 359 334 359 334 C359 334 171 662 171 662 C145 714 155 712 172 712 C172 712 190 712 190 712 C191 716 192 727 192 728 C192 728 192 728 192 728 L192 728 Z " />
<glyph glyph-name="Zacute" unicode="&#x179;" horiz-adv-x="618" d="M338 791 C338 791 479 912 479 912 C527 955 545 971 545 977 C545 1000 533 1012 510 1012 C504 1012 488 994 447 944 C447 944 329 799 329 799 C329 799 338 791 338 791 L338 791 Z M110 0 C110 0 432 0 432 0 C432 0 587 0 587 0 C587 0 614 108 614 108 C607 107 604 105 598 105 C598 105 588 81 588 81 C571 45 567 28 493 23 C493 23 122 18 122 18 C122 18 591 711 591 711 C591 711 591 728 591 728 C591 728 515 728 515 728 C515 728 235 728 235 728 C235 728 70 728 70 728 C64 689 59 651 54 613 C62 614 66 616 74 616 C74 616 78 632 78 632 C90 682 92 703 196 706 C196 706 503 710 503 710 C503 710 25 16 25 16 C25 16 25 0 25 0 C25 0 110 0 110 0 L110 0 Z " />
<glyph glyph-name="Zdotaccent" unicode="&#x17b;" horiz-adv-x="618" d="M331 843 C364 843 376 855 376 888 C376 921 364 933 331 933 C297 933 285 921 285 888 C285 855 297 843 331 843 L331 843 Z M110 0 C110 0 432 0 432 0 C432 0 587 0 587 0 C587 0 614 108 614 108 C607 107 604 105 598 105 C598 105 588 81 588 81 C571 45 567 28 493 23 C493 23 122 18 122 18 C122 18 591 711 591 711 C591 711 591 728 591 728 C591 728 515 728 515 728 C515 728 235 728 235 728 C235 728 70 728 70 728 C64 689 59 651 54 613 C62 614 66 616 74 616 C74 616 78 632 78 632 C90 682 92 703 196 706 C196 706 503 710 503 710 C503 710 25 16 25 16 C25 16 25 0 25 0 C25 0 110 0 110 0 L110 0 Z " />
<glyph glyph-name="zdotaccent" unicode="&#x17c;" horiz-adv-x="456" d="M253 593 C287 593 299 605 299 638 C299 671 287 683 253 683 C220 683 208 671 208 638 C208 605 220 593 253 593 L253 593 Z M111 499 C111 499 109 499 104 500 C104 500 96 500 96 500 C87 466 78 433 69 400 C73 401 74 403 77 403 C77 403 87 410 87 410 C136 444 151 456 220 456 C220 456 219 456 219 456 C219 456 332 459 332 459 C332 459 40 16 40 16 C40 16 40 0 40 0 C40 0 114 0 114 0 C114 0 345 0 345 0 C345 0 411 0 411 0 C411 0 422 77 422 77 C422 77 416 74 416 74 C416 74 405 67 405 67 C360 39 341 26 289 22 C289 22 126 18 126 18 C126 18 416 461 416 461 C416 461 416 478 416 478 C416 478 345 478 345 478 C345 478 126 478 126 478 C109 478 107 486 111 499 L111 499 Z " />
<glyph glyph-name="Zcaron" unicode="&#x17d;" horiz-adv-x="618" d="M331 869 C331 869 472 1021 472 1021 C472 1021 481 1013 481 1013 C481 1013 355 819 355 819 C349 809 340 793 331 793 C321 793 312 809 306 818 C306 818 180 1013 180 1013 C180 1013 189 1021 189 1021 C189 1021 331 869 331 869 L331 869 Z M110 0 C110 0 432 0 432 0 C432 0 587 0 587 0 C587 0 614 108 614 108 C607 107 604 105 598 105 C598 105 588 81 588 81 C571 45 567 28 493 23 C493 23 122 18 122 18 C122 18 591 711 591 711 C591 711 591 728 591 728 C591 728 515 728 515 728 C515 728 235 728 235 728 C235 728 70 728 70 728 C64 689 59 651 54 613 C62 614 66 616 74 616 C74 616 78 632 78 632 C90 682 92 703 196 706 C196 706 503 710 503 710 C503 710 25 16 25 16 C25 16 25 0 25 0 C25 0 110 0 110 0 L110 0 Z " />
<glyph glyph-name="zcaron" unicode="&#x17e;" horiz-adv-x="456" d="M111 499 C111 499 109 499 104 500 C104 500 96 500 96 500 C87 466 78 433 69 400 C73 401 74 403 77 403 C77 403 87 410 87 410 C136 444 151 456 220 456 C220 456 219 456 219 456 C219 456 332 459 332 459 C332 459 40 16 40 16 C40 16 40 0 40 0 C40 0 114 0 114 0 C114 0 345 0 345 0 C345 0 411 0 411 0 C411 0 422 77 422 77 C422 77 416 74 416 74 C416 74 405 67 405 67 C360 39 341 26 289 22 C289 22 126 18 126 18 C126 18 416 461 416 461 C416 461 416 478 416 478 C416 478 345 478 345 478 C345 478 126 478 126 478 C109 478 107 486 111 499 L111 499 Z M254 619 C254 619 395 771 395 771 C395 771 404 763 404 763 C404 763 278 569 278 569 C272 559 263 543 253 543 C244 543 235 559 229 568 C229 568 103 763 103 763 C103 763 112 771 112 771 C112 771 254 619 254 619 L254 619 Z " />
<glyph glyph-name="SmallLetterOwithogon" unicode="&#x1eb;" horiz-adv-x="726" d="M935 -52 C935 -52 933 -50 933 -50 C896 -81 831 -92 689 -92 C538 -92 440 -70 330 -9 C338 -10 345 -10 352 -10 C590 -10 676 67 676 281 C676 494 593 571 362 571 C138 571 57 494 57 281 C57 124 157 41 253 8 C436 -101 549 -140 680 -140 C791 -140 859 -117 935 -52 L935 -52 Z M353 -4 C273 -4 137 71 137 281 C137 490 196 565 360 565 C534 565 596 490 596 281 C596 71 532 -4 353 -4 L353 -4 Z " />
<glyph glyph-name="CapitalLetterAwithdo" unicode="&#x226;" horiz-adv-x="654" d="M335 843 C368 843 380 855 380 888 C380 921 368 933 335 933 C301 933 289 921 289 888 C289 855 301 843 335 843 L335 843 Z M434 0 C434 0 508 0 508 0 C508 0 590 0 590 0 C590 0 638 0 638 0 C637 3 636 14 636 15 C636 15 614 15 614 15 C596 15 588 13 562 90 C562 90 374 704 374 704 C374 704 360 748 360 748 C360 748 352 748 352 748 C331 719 316 707 296 704 C296 704 299 694 299 694 C299 694 299 694 299 694 C299 694 127 123 127 123 C91 12 78 15 44 15 C44 15 23 15 23 15 C22 11 21 1 21 0 C21 0 90 0 90 0 C90 0 98 0 98 0 C98 0 188 0 188 0 C187 3 186 14 186 15 C186 15 166 15 166 15 C119 15 101 11 147 165 C147 165 147 165 147 165 C147 165 186 296 186 296 C186 296 419 296 419 296 C419 296 467 135 467 135 C467 135 467 135 467 135 C504 12 490 15 456 15 C456 15 436 15 436 15 C435 11 434 1 434 0 L434 0 Z M188 303 C188 303 302 686 302 686 C302 686 417 303 417 303 C417 303 188 303 188 303 L188 303 Z " />
<glyph glyph-name="LETTERSMALLCAPITALG" unicode="&#x262;" horiz-adv-x="671" d="M607 243 C607 243 433 243 433 243 C433 243 436 228 436 228 C436 228 443 228 443 228 C477 228 489 230 489 168 C489 168 491 15 491 15 C491 15 491 15 491 15 C491 15 490 82 490 82 C490 27 454 7 355 7 C193 7 135 79 135 281 C135 490 192 565 349 565 C393 565 423 559 448 545 C485 519 527 444 563 362 C567 354 568 351 568 351 C575 349 569 350 579 348 C579 348 579 407 579 407 C579 407 579 472 579 472 C579 472 578 472 574 470 C564 468 569 471 563 453 C565 461 549 484 500 528 C468 558 426 571 347 571 C135 571 58 494 58 281 C58 67 135 -10 349 -10 C407 -10 448 -6 487 4 C487 4 491 4 491 4 C491 4 491 5 491 5 C491 5 491 5 491 5 C491 5 491 4 491 4 C491 4 559 21 559 21 C559 21 559 28 559 28 C581 38 606 49 634 62 C634 62 633 65 633 65 C605 52 582 41 559 33 C559 33 560 168 560 168 C560 230 570 228 598 228 C598 228 605 228 605 228 C606 232 607 242 607 243 C607 243 607 243 607 243 L607 243 Z " />
<glyph glyph-name="LETTERSMALLCAPITALI" unicode="&#x26a;" horiz-adv-x="309" d="M254 561 C254 561 65 561 65 561 C66 555 68 551 68 546 C68 546 75 546 75 546 C111 546 124 548 124 486 C124 486 124 75 124 75 C124 13 111 15 75 15 C75 15 68 15 68 15 C68 14 65 0 65 0 C65 0 254 0 254 0 C253 6 251 10 251 15 C251 15 244 15 244 15 C208 15 195 13 195 75 C195 75 195 486 195 486 C195 548 208 546 244 546 C244 546 251 546 251 546 C251 547 254 561 254 561 L254 561 Z " />
<glyph glyph-name="LETTERSMALLCAPITALN" unicode="&#x274;" horiz-adv-x="619" d="M34 546 C34 546 57 546 57 546 C66 546 68 547 95 511 C95 511 95 511 95 511 C95 511 110 492 110 492 C110 492 109 103 109 103 C106 12 93 15 64 15 C64 15 43 15 43 15 C42 11 41 1 41 0 C41 0 109 0 109 0 C109 0 130 0 130 0 C130 0 199 0 199 0 C198 3 197 14 197 15 C197 15 176 15 176 15 C142 15 130 12 130 135 C130 135 130 135 130 135 C130 135 128 468 128 468 C128 468 428 75 428 75 C428 75 486 0 486 0 C486 0 500 0 500 0 C500 0 504 446 504 446 C504 446 504 446 504 446 C504 447 504 448 504 450 C504 450 504 458 504 458 C505 549 522 546 563 546 C563 546 570 546 570 546 C572 553 574 560 574 561 C574 561 505 561 505 561 C505 561 484 561 484 561 C484 561 414 561 414 561 C415 555 417 547 418 546 C418 546 425 546 425 546 C468 546 484 549 484 446 C484 446 484 446 484 446 C484 446 486 85 486 85 C486 85 471 106 471 106 C471 106 144 561 144 561 C144 561 128 561 128 561 C128 561 110 561 110 561 C110 561 57 561 57 561 C57 561 32 561 32 561 C33 558 34 547 34 546 C34 546 34 546 34 546 L34 546 Z " />
<glyph glyph-name="LETTERSMALLCAPITALR" unicode="&#x280;" horiz-adv-x="550" d="M66 546 C66 546 73 546 73 546 C109 546 122 548 122 481 C122 481 122 80 122 80 C122 13 109 15 73 15 C73 15 66 15 66 15 C65 10 63 6 63 0 C63 0 252 0 252 0 C251 3 249 14 248 15 C248 15 241 15 241 15 C205 15 192 13 192 80 C192 80 192 267 192 267 C192 267 246 267 246 267 C256 244 292 183 372 56 C413 -10 383 0 541 0 C541 0 541 11 541 11 C472 11 487 3 454 56 C380 174 339 240 321 269 C422 277 460 307 460 403 C460 519 405 561 251 561 C251 561 192 561 192 561 C192 561 63 561 63 561 C63 561 66 546 66 546 L66 546 Z M192 547 C192 547 230 547 230 547 C342 547 383 512 383 416 C383 304 348 284 251 284 C251 284 192 284 192 284 C192 284 192 481 192 481 C192 481 192 547 192 547 L192 547 Z " />
<glyph glyph-name="LETTERSMALLCAPITALY" unicode="&#x28f;" horiz-adv-x="555" d="M185 561 C185 561 127 561 127 561 C127 561 44 561 44 561 C44 561 17 561 17 561 C18 558 19 547 19 546 C19 546 42 546 42 546 C49 546 51 548 91 488 C91 488 249 241 249 241 C249 241 249 75 249 75 C249 13 236 15 200 15 C200 15 193 15 193 15 C192 10 190 6 190 0 C190 0 378 0 378 0 C378 0 375 15 375 15 C375 15 368 15 368 15 C332 15 319 13 319 75 C319 75 319 251 319 251 C319 251 419 426 419 426 C419 426 419 426 419 426 C489 549 493 546 510 546 C510 546 533 546 533 546 C534 550 535 560 535 561 C535 561 496 561 496 561 C496 561 485 561 485 561 C485 561 427 561 427 561 C428 558 429 547 429 546 C429 546 447 546 447 546 C470 546 480 549 415 436 C415 436 415 435 415 435 C415 435 317 257 317 257 C317 257 211 426 211 426 C211 426 212 426 212 426 C133 549 143 546 165 546 C165 546 183 546 183 546 C184 550 185 560 185 561 C185 561 185 561 185 561 L185 561 Z " />
<glyph glyph-name="LETTERSMALLCAPITALB" unicode="&#x299;" horiz-adv-x="512" d="M63 0 C63 0 192 0 192 0 C192 0 312 0 312 0 C430 0 472 1 472 145 C472 247 439 286 350 290 C425 301 453 342 453 426 C453 525 451 561 246 561 C246 561 192 561 192 561 C192 561 63 561 63 561 C63 561 66 546 66 546 C66 546 73 546 73 546 C109 546 122 548 122 481 C122 481 122 80 122 80 C122 13 109 15 73 15 C73 15 66 15 66 15 C65 10 63 6 63 0 L63 0 Z M192 556 C192 556 237 556 237 556 C382 556 383 520 383 419 C383 324 359 290 291 290 C291 290 192 290 192 290 C192 290 192 481 192 481 C192 481 192 556 192 556 L192 556 Z M294 286 C294 286 323 286 323 286 C376 286 395 249 395 145 C395 5 372 4 307 4 C307 4 257 4 257 4 C209 4 192 21 192 69 C192 69 192 80 192 80 C192 80 192 286 192 286 C192 286 294 286 294 286 L294 286 Z " />
<glyph glyph-name="LETTERSMALLCAPITALH" unicode="&#x29c;" horiz-adv-x="684" d="M629 561 C629 561 441 561 441 561 C441 561 444 546 444 546 C444 546 451 546 451 546 C487 546 500 548 500 486 C500 486 500 290 500 290 C500 290 228 290 228 290 C228 290 228 486 228 486 C228 548 241 546 277 546 C277 546 284 546 284 546 C284 549 287 560 288 561 C288 561 99 561 99 561 C99 561 102 546 102 546 C102 546 109 546 109 546 C145 546 158 548 158 486 C158 486 158 75 158 75 C158 13 145 15 109 15 C109 15 102 15 102 15 C101 10 99 6 99 0 C99 0 288 0 288 0 C287 3 285 14 284 15 C284 15 277 15 277 15 C241 15 228 13 228 75 C228 75 228 283 228 283 C228 283 500 283 500 283 C500 283 500 75 500 75 C500 13 487 15 451 15 C451 15 444 15 444 15 C443 10 441 6 441 0 C441 0 629 0 629 0 C629 0 626 15 626 15 C626 15 619 15 619 15 C583 15 570 13 570 75 C570 75 570 486 570 486 C570 548 583 546 619 546 C619 546 626 546 626 546 C627 551 629 555 629 561 L629 561 Z " />
<glyph glyph-name="LETTERSMALLCAPITALL" unicode="&#x29f;" horiz-adv-x="483" d="M438 12 C446 42 453 72 463 103 C454 102 453 100 447 100 C428 34 434 12 262 12 C206 12 196 21 195 44 C195 44 195 69 195 69 C195 69 195 80 195 80 C195 80 195 481 195 481 C195 548 208 546 244 546 C244 546 251 546 251 546 C251 547 254 561 254 561 C254 561 195 561 195 561 C195 561 124 561 124 561 C124 561 65 561 65 561 C66 555 68 551 68 546 C68 546 75 546 75 546 C111 546 124 548 124 481 C124 481 124 80 124 80 C124 13 111 15 75 15 C75 15 68 15 68 15 C68 14 65 0 65 0 C65 0 124 0 124 0 C124 0 195 0 195 0 C195 0 255 0 255 0 C255 0 435 0 435 0 C435 0 438 12 438 12 L438 12 Z " />
<glyph glyph-name="LETTERSMALLCAPITALA" unicode="&#x1d00;" horiz-adv-x="584" d="M372 0 C372 0 446 0 446 0 C446 0 520 0 520 0 C520 0 567 0 567 0 C566 3 565 14 565 15 C565 15 544 15 544 15 C525 15 517 13 487 96 C487 96 335 544 335 544 C335 544 323 581 323 581 C323 581 315 581 315 581 C298 557 285 547 265 544 C265 544 268 534 268 534 C268 534 268 534 268 534 C268 534 146 165 146 165 C146 165 145 165 145 165 C95 11 83 15 45 15 C45 15 24 15 24 15 C23 11 22 1 22 0 C22 0 91 0 91 0 C91 0 97 0 97 0 C97 0 187 0 187 0 C186 3 185 14 185 15 C185 15 165 15 165 15 C119 15 101 11 152 165 C152 165 151 165 151 165 C151 165 172 228 172 228 C172 228 370 228 370 228 C370 228 401 135 401 135 C401 135 401 135 401 135 C442 12 429 15 394 15 C394 15 374 15 374 15 C373 11 372 1 372 0 L372 0 Z M174 234 C174 234 270 528 270 528 C270 528 368 234 368 234 C368 234 174 234 174 234 L174 234 Z " />
<glyph glyph-name="LETTERSMALLCAPITALC" unicode="&#x1d04;" horiz-adv-x="623" d="M579 14 C579 14 579 82 579 82 C579 82 579 137 579 137 C576 136 573 134 569 134 C543 77 511 19 481 7 C451 -1 407 -5 340 -5 C189 -5 135 71 135 281 C135 490 192 565 349 565 C393 565 423 559 448 545 C485 519 527 444 563 362 C567 354 568 351 568 351 C575 349 569 350 579 348 C579 348 579 407 579 407 C579 407 579 472 579 472 C579 472 578 472 574 470 C564 468 569 471 563 453 C565 461 549 484 500 528 C468 558 426 571 347 571 C135 571 58 494 58 281 C58 67 132 -10 338 -10 C468 -10 521 0 549 25 C553 28 559 31 564 34 C570 38 572 33 572 18 C574 17 579 14 579 14 L579 14 Z " />
<glyph glyph-name="LETTERSMALLCAPITALD" unicode="&#x1d05;" horiz-adv-x="700" d="M63 0 C63 0 122 0 122 0 C122 0 192 0 192 0 C192 0 243 0 243 0 C539 0 645 54 645 281 C645 487 573 561 269 561 C269 561 192 561 192 561 C192 561 122 561 122 561 C122 561 63 561 63 561 C63 561 66 546 66 546 C66 546 73 546 73 546 C109 546 122 548 122 481 C122 481 122 80 122 80 C122 13 109 15 73 15 C73 15 66 15 66 15 C65 10 63 6 63 0 L63 0 Z M192 556 C192 556 251 557 251 557 C507 557 568 484 568 281 C568 58 480 5 236 5 C199 5 193 14 192 39 C192 39 192 69 192 69 C192 69 192 80 192 80 C192 80 192 481 192 481 C192 481 192 556 192 556 L192 556 Z " />
<glyph glyph-name="LETTERSMALLCAPITALE" unicode="&#x1d07;" horiz-adv-x="511" d="M435 486 C431 512 431 536 429 561 C429 561 314 561 314 561 C314 561 192 561 192 561 C192 561 122 561 122 561 C122 561 63 561 63 561 C63 561 66 546 66 546 C66 546 73 546 73 546 C109 546 122 548 122 481 C122 481 122 80 122 80 C122 13 109 15 73 15 C73 15 66 15 66 15 C65 10 63 6 63 0 C63 0 122 0 122 0 C122 0 192 0 192 0 C192 0 339 0 339 0 C339 0 454 0 454 0 C458 25 461 49 465 75 C461 74 450 72 449 71 C442 22 448 5 340 5 C340 5 262 5 262 5 C203 5 193 15 192 41 C192 41 192 69 192 69 C192 69 192 80 192 80 C192 80 192 300 192 300 C192 300 254 300 254 300 C357 300 354 282 354 233 C354 233 354 226 354 226 C354 226 368 222 369 221 C369 221 369 300 369 300 C369 300 369 306 369 306 C369 306 369 384 369 384 C365 383 355 381 354 380 C354 380 354 373 354 373 C354 324 357 306 254 306 C254 306 192 306 192 306 C192 306 192 481 192 481 C192 481 192 556 192 556 C192 556 314 556 314 556 C444 556 412 540 419 490 C422 489 433 486 435 486 L435 486 Z " />
<glyph glyph-name="LETTERSMALLCAPITALJ" unicode="&#x1d0a;" horiz-adv-x="309" d="M254 561 C254 561 65 561 65 561 C66 555 68 551 68 546 C68 546 75 546 75 546 C111 546 124 548 124 486 C124 486 124 -45 124 -45 C124 -217 74 -212 21 -212 C-22 -212 9 -153 -34 -153 C-58 -153 -67 -162 -67 -186 C-67 -211 -45 -220 16 -220 C108 -220 195 -229 195 89 C195 89 195 486 195 486 C195 548 208 546 244 546 C244 546 251 546 251 546 C251 547 254 561 254 561 L254 561 Z " />
<glyph glyph-name="LETTERSMALLCAPITALK" unicode="&#x1d0b;" horiz-adv-x="577" d="M555 15 C555 15 531 15 531 15 C517 15 490 40 455 80 C455 80 455 80 455 80 C455 80 245 327 245 327 C245 327 352 455 352 455 C352 455 353 456 353 456 C355 459 358 462 360 464 C360 464 403 517 403 517 C431 547 439 546 456 546 C456 546 478 546 478 546 C479 550 480 560 480 561 C480 561 440 561 440 561 C440 561 414 561 414 561 C414 561 338 561 338 561 C339 558 340 547 340 546 C340 546 357 546 357 546 C388 546 403 549 322 445 C322 445 192 281 192 281 C192 281 192 501 192 501 C192 547 205 546 241 546 C241 546 248 546 248 546 C248 549 251 560 252 561 C252 561 192 561 192 561 C192 561 122 561 122 561 C122 561 63 561 63 561 C63 561 66 546 66 546 C66 546 73 546 73 546 C109 546 122 547 122 501 C122 501 122 60 122 60 C122 14 109 15 73 15 C73 15 66 15 66 15 C65 10 63 6 63 0 C63 0 122 0 122 0 C122 0 192 0 192 0 C192 0 252 0 252 0 C251 3 249 14 248 15 C248 15 241 15 241 15 C205 15 192 14 192 60 C192 60 192 281 192 281 C192 281 369 80 369 80 C369 80 368 80 368 80 C448 -11 439 0 439 0 C439 0 523 0 523 0 C523 0 557 0 557 0 C556 3 555 14 555 15 L555 15 Z " />
<glyph glyph-name="LETTERSMALLCAPITALM" unicode="&#x1d0d;" horiz-adv-x="721" d="M54 546 C54 546 76 546 76 546 C96 546 105 547 123 515 C123 515 107 108 107 108 C101 12 89 15 59 15 C59 15 37 15 37 15 C36 11 35 1 35 0 C35 0 103 0 103 0 C103 0 128 0 128 0 C128 0 197 0 197 0 C196 3 195 14 195 15 C195 15 173 15 173 15 C139 15 127 12 132 135 C132 135 132 135 132 135 C132 135 141 477 141 477 C212 318 284 159 356 0 C356 0 374 0 374 0 C374 0 567 503 567 503 C567 503 581 80 581 80 C581 80 581 80 581 80 C583 13 570 15 532 15 C532 15 525 15 525 15 C525 14 522 0 522 0 C522 0 584 0 584 0 C584 0 654 0 654 0 C654 0 710 0 710 0 C710 0 707 15 707 15 C707 15 700 15 700 15 C665 15 653 13 651 80 C651 80 651 80 651 80 C651 80 637 434 637 434 C635 549 644 546 666 546 C666 546 688 546 688 546 C689 550 690 560 690 561 C690 561 632 561 632 561 C632 561 589 561 589 561 C589 561 565 561 565 561 C565 561 392 96 392 96 C392 96 392 97 392 97 C392 97 188 561 188 561 C188 561 143 561 143 561 C143 561 125 561 125 561 C125 561 103 561 103 561 C103 561 52 561 52 561 C53 558 54 547 54 546 C54 546 54 546 54 546 L54 546 Z " />
<glyph glyph-name="LETTERSMALLCAPITALO" unicode="&#x1d0f;" horiz-adv-x="731" d="M353 -4 C194 -4 137 71 137 281 C137 490 196 565 360 565 C534 565 596 490 596 281 C596 71 532 -4 353 -4 L353 -4 Z M57 281 C57 67 135 -10 352 -10 C590 -10 676 67 676 281 C676 494 593 571 362 571 C138 571 57 494 57 281 L57 281 Z " />
<glyph glyph-name="LETTERSMALLCAPITALP" unicode="&#x1d18;" horiz-adv-x="446" d="M84 546 C84 546 91 546 91 546 C127 546 140 548 140 481 C140 481 140 80 140 80 C140 13 127 15 91 15 C91 15 84 15 84 15 C84 12 81 1 80 0 C80 0 140 0 140 0 C140 0 210 0 210 0 C210 0 269 0 269 0 C269 0 266 15 266 15 C266 15 259 15 259 15 C223 15 210 13 210 80 C210 80 210 258 210 258 C210 258 242 258 242 258 C377 258 426 280 426 403 C426 519 386 561 273 561 C273 561 210 561 210 561 C210 561 140 561 140 561 C140 561 80 561 80 561 C81 558 83 547 84 546 L84 546 Z M210 273 C210 273 210 481 210 481 C210 481 210 549 210 549 C210 549 256 549 256 549 C332 549 360 513 360 415 C360 295 329 273 242 273 C242 273 210 273 210 273 L210 273 Z " />
<glyph glyph-name="LETTERSMALLCAPITALT" unicode="&#x1d1b;" horiz-adv-x="701" d="M89 596 C89 596 82 596 82 596 C76 597 74 597 74 597 C70 585 66 573 61 561 C61 561 55 561 55 561 C55 561 55 544 55 544 C48 524 41 505 34 485 C34 485 50 488 50 488 C50 488 53 494 53 494 C65 530 67 543 170 543 C170 543 316 543 316 543 C316 543 316 75 316 75 C316 13 303 15 267 15 C267 15 260 15 260 15 C259 10 257 6 257 0 C257 0 445 0 445 0 C445 0 442 15 442 15 C442 15 435 15 435 15 C399 15 386 13 386 75 C386 75 386 543 386 543 C386 543 532 543 532 543 C635 543 637 530 649 494 C649 494 652 488 652 488 C659 487 662 485 668 485 C661 505 654 525 647 544 C647 544 647 561 647 561 C647 561 641 561 641 561 C636 573 632 585 627 597 C627 597 626 597 620 596 C620 596 612 596 612 596 C624 568 635 561 525 561 C525 561 386 561 386 561 C386 561 316 561 316 561 C316 561 177 561 177 561 C66 561 81 567 89 596 C89 596 89 596 89 596 L89 596 Z " />
<glyph glyph-name="LETTERSMALLCAPITALU" unicode="&#x1d1c;" horiz-adv-x="563" d="M353 546 C353 546 359 546 359 546 C395 546 408 548 408 481 C408 481 408 159 408 159 C366 68 318 35 226 35 C175 35 157 78 157 199 C157 199 157 481 157 481 C157 481 157 561 157 561 C157 561 28 561 28 561 C28 561 31 546 31 546 C31 546 38 546 38 546 C74 546 87 548 87 481 C87 481 87 199 87 199 C87 45 116 -10 197 -10 C306 -10 362 26 408 127 C408 127 408 105 408 105 C408 105 408 0 408 0 C408 0 420 0 420 0 C420 0 534 53 534 53 C534 53 534 60 534 60 C477 57 479 54 479 105 C479 105 479 481 479 481 C479 481 479 561 479 561 C479 561 349 561 349 561 C350 558 352 547 353 546 L353 546 Z " />
<glyph glyph-name="LETTERSMALLCAPITALV" unicode="&#x1d20;" horiz-adv-x="619" d="M220 561 C220 561 130 561 130 561 C130 561 49 561 49 561 C49 561 19 561 19 561 C20 558 21 547 21 546 C21 546 44 546 44 546 C50 546 54 546 61 533 C61 533 240 109 240 109 C240 109 290 -10 290 -10 C290 -10 304 -10 304 -10 C304 -10 518 498 518 498 C542 548 550 546 567 546 C567 546 589 546 589 546 C590 550 591 560 591 561 C591 561 545 561 545 561 C545 561 517 561 517 561 C517 561 427 561 427 561 C428 558 429 547 429 546 C429 546 449 546 449 546 C494 546 512 549 463 426 C463 426 463 426 463 426 C463 426 338 110 338 110 C338 110 191 429 191 429 C141 549 157 546 199 546 C199 546 218 546 218 546 C219 550 220 560 220 561 C220 561 220 561 220 561 L220 561 Z " />
<glyph glyph-name="LETTERSMALLCAPITALW" unicode="&#x1d21;" horiz-adv-x="869" d="M843 561 C843 561 795 561 795 561 C795 561 766 561 766 561 C766 561 676 561 676 561 C677 558 678 547 678 546 C678 546 698 546 698 546 C744 546 762 549 723 426 C723 426 723 426 723 426 C723 426 621 103 621 103 C621 103 476 479 476 479 C452 548 467 546 502 546 C502 546 522 546 522 546 C523 550 524 560 524 561 C524 561 445 561 445 561 C445 561 363 561 363 561 C363 561 316 561 316 561 C317 558 318 547 318 546 C318 546 340 546 340 546 C358 546 366 547 378 522 C397 473 417 423 436 374 C436 374 315 86 315 86 C315 86 316 89 316 89 C316 89 182 426 182 426 C182 426 182 426 182 426 C134 549 148 546 185 546 C185 546 205 546 205 546 C206 550 207 560 207 561 C207 561 128 561 128 561 C128 561 50 561 50 561 C50 561 20 561 20 561 C21 558 22 547 22 546 C22 546 44 546 44 546 C53 546 55 549 103 426 C103 426 103 426 103 426 C160 281 218 135 275 -10 C275 -10 293 -10 293 -10 C293 -10 447 345 447 345 C493 227 540 109 585 -10 C585 -10 604 -10 604 -10 C604 -10 750 426 750 426 C750 426 750 426 750 426 C751 429 752 433 753 436 C753 436 768 480 768 480 C792 548 800 546 819 546 C819 546 841 546 841 546 C842 550 843 560 843 561 C843 561 843 561 843 561 L843 561 Z " />
<glyph glyph-name="LETTERSMALLCAPITALZ" unicode="&#x1d22;" horiz-adv-x="564" d="M75 452 C75 452 78 468 78 468 C91 519 92 540 210 542 C210 542 223 542 223 542 C226 542 230 542 233 542 C233 542 233 542 233 542 C233 542 455 545 455 545 C455 545 25 15 25 15 C25 15 25 0 25 0 C25 0 101 0 101 0 C101 0 378 0 378 0 C378 0 533 0 533 0 C542 35 550 70 559 106 C557 106 549 103 543 103 C543 103 533 79 533 79 C515 39 511 23 410 20 C410 20 389 20 389 20 C387 20 384 20 382 20 C382 20 382 20 382 20 C382 20 114 16 114 16 C114 16 537 546 537 546 C537 546 537 561 537 561 C537 561 468 561 468 561 C468 561 235 561 235 561 C235 561 70 561 70 561 C70 561 62 505 62 505 C59 484 57 469 54 449 C54 449 75 452 75 452 C75 452 75 452 75 452 L75 452 Z " />
<glyph glyph-name="Wgrave" unicode="&#x1e80;" horiz-adv-x="987" d="M961 728 C961 728 913 728 913 728 C913 728 881 728 881 728 C881 728 791 728 791 728 C792 724 793 713 793 712 C793 712 813 712 813 712 C857 712 875 715 847 607 C847 607 709 114 709 114 C709 114 531 650 531 650 C512 714 528 712 563 712 C563 712 583 712 583 712 C584 716 585 727 585 728 C585 728 505 728 505 728 C505 728 415 728 415 728 C415 728 368 728 368 728 C369 724 370 713 370 712 C370 712 391 712 391 712 C412 712 420 713 434 672 C434 672 435 672 435 672 C457 609 479 547 500 485 C500 485 500 485 500 485 C500 485 350 98 350 98 C350 98 350 99 350 99 C350 99 181 592 181 592 C181 592 181 592 181 592 C137 715 152 712 192 712 C192 712 211 712 211 712 C212 716 213 727 213 728 C213 728 134 728 134 728 C134 728 48 728 48 728 C48 728 17 728 17 728 C18 724 19 713 19 712 C19 712 42 712 42 712 C50 712 52 714 79 640 C155 424 231 206 308 -10 C308 -10 328 -10 328 -10 C328 -10 513 450 513 450 C567 297 621 144 674 -10 C674 -10 695 -10 695 -10 C695 -10 873 592 873 592 C873 592 873 592 873 592 C874 595 875 599 876 602 C876 602 890 650 890 650 C910 714 918 712 937 712 C937 712 959 712 959 712 C960 716 961 727 961 728 C961 728 961 728 961 728 L961 728 Z M374 944 C334 994 319 1012 311 1012 C288 1012 276 1000 276 977 C276 969 294 953 342 912 C342 912 483 791 483 791 C483 791 492 799 492 799 C492 799 374 944 374 944 L374 944 Z " />
<glyph glyph-name="Wacute" unicode="&#x1e82;" horiz-adv-x="987" d="M488 791 C488 791 628 912 628 912 C677 955 695 971 695 977 C695 1000 683 1012 660 1012 C654 1012 638 994 596 944 C596 944 479 799 479 799 C479 799 488 791 488 791 L488 791 Z M961 728 C961 728 913 728 913 728 C913 728 881 728 881 728 C881 728 791 728 791 728 C792 724 793 713 793 712 C793 712 813 712 813 712 C857 712 875 715 847 607 C847 607 709 114 709 114 C709 114 531 650 531 650 C512 714 528 712 563 712 C563 712 583 712 583 712 C584 716 585 727 585 728 C585 728 505 728 505 728 C505 728 415 728 415 728 C415 728 368 728 368 728 C369 724 370 713 370 712 C370 712 391 712 391 712 C412 712 420 713 434 672 C434 672 435 672 435 672 C457 609 479 547 500 485 C500 485 500 485 500 485 C500 485 350 98 350 98 C350 98 350 99 350 99 C350 99 181 592 181 592 C181 592 181 592 181 592 C137 715 152 712 192 712 C192 712 211 712 211 712 C212 716 213 727 213 728 C213 728 134 728 134 728 C134 728 48 728 48 728 C48 728 17 728 17 728 C18 724 19 713 19 712 C19 712 42 712 42 712 C50 712 52 714 79 640 C155 424 231 206 308 -10 C308 -10 328 -10 328 -10 C328 -10 513 450 513 450 C567 297 621 144 674 -10 C674 -10 695 -10 695 -10 C695 -10 873 592 873 592 C873 592 873 592 873 592 C874 595 875 599 876 602 C876 602 890 650 890 650 C910 714 918 712 937 712 C937 712 959 712 959 712 C960 716 961 727 961 728 C961 728 961 728 961 728 L961 728 Z " />
<glyph glyph-name="Wdieresis" unicode="&#x1e84;" horiz-adv-x="987" d="M552 843 C585 843 597 855 597 888 C597 921 585 933 552 933 C518 933 506 921 506 888 C506 855 518 843 552 843 L552 843 Z M409 843 C443 843 455 855 455 888 C455 921 443 933 409 933 C376 933 364 921 364 888 C364 855 376 843 409 843 L409 843 Z M961 728 C961 728 913 728 913 728 C913 728 881 728 881 728 C881 728 791 728 791 728 C792 724 793 713 793 712 C793 712 813 712 813 712 C857 712 875 715 847 607 C847 607 709 114 709 114 C709 114 531 650 531 650 C512 714 528 712 563 712 C563 712 583 712 583 712 C584 716 585 727 585 728 C585 728 505 728 505 728 C505 728 415 728 415 728 C415 728 368 728 368 728 C369 724 370 713 370 712 C370 712 391 712 391 712 C412 712 420 713 434 672 C434 672 435 672 435 672 C457 609 479 547 500 485 C500 485 500 485 500 485 C500 485 350 98 350 98 C350 98 350 99 350 99 C350 99 181 592 181 592 C181 592 181 592 181 592 C137 715 152 712 192 712 C192 712 211 712 211 712 C212 716 213 727 213 728 C213 728 134 728 134 728 C134 728 48 728 48 728 C48 728 17 728 17 728 C18 724 19 713 19 712 C19 712 42 712 42 712 C50 712 52 714 79 640 C155 424 231 206 308 -10 C308 -10 328 -10 328 -10 C328 -10 513 450 513 450 C567 297 621 144 674 -10 C674 -10 695 -10 695 -10 C695 -10 873 592 873 592 C873 592 873 592 873 592 C874 595 875 599 876 602 C876 602 890 650 890 650 C910 714 918 712 937 712 C937 712 959 712 959 712 C960 716 961 727 961 728 C961 728 961 728 961 728 L961 728 Z " />
<glyph glyph-name="CapitalLetterEWITHTI" unicode="&#x1ebc;" horiz-adv-x="571" d="M175 848 C175 893 186 910 215 910 C283 910 306 845 374 845 C422 845 439 874 439 955 C439 955 435 955 435 955 C435 911 423 895 390 895 C322 895 299 960 231 960 C187 960 171 930 171 848 C171 848 175 848 175 848 L175 848 Z M509 72 C502 22 508 5 400 5 C400 5 268 5 268 5 C209 5 199 15 198 41 C198 41 198 69 198 69 C198 69 198 80 198 80 C198 80 198 389 198 389 C198 389 314 389 314 389 C417 389 414 371 414 322 C414 322 414 315 414 315 C420 313 424 313 430 310 C430 310 430 389 430 389 C430 389 430 395 430 395 C430 395 430 474 430 474 C426 473 415 471 414 470 C414 470 414 463 414 463 C414 413 417 395 314 395 C314 395 198 395 198 395 C198 395 198 647 198 647 C198 647 198 722 198 722 C198 722 375 722 375 722 C498 722 476 706 479 663 C479 663 479 656 479 656 C483 655 494 652 495 652 C494 666 493 676 492 690 C492 704 491 714 490 728 C490 728 374 728 374 728 C374 728 198 728 198 728 C198 728 120 728 120 728 C120 728 61 728 61 728 C62 721 64 718 64 712 C64 712 71 712 71 712 C107 712 120 714 120 647 C120 647 120 80 120 80 C120 13 107 15 71 15 C71 15 64 15 64 15 C64 14 61 0 61 0 C61 0 120 0 120 0 C120 0 198 0 198 0 C198 0 399 0 399 0 C399 0 515 0 515 0 C519 25 523 51 525 76 C525 76 511 72 509 72 L509 72 Z " />
<glyph glyph-name="Ygrave" unicode="&#x1ef2;" horiz-adv-x="631" d="M192 728 C192 728 134 728 134 728 C134 728 42 728 42 728 C42 728 14 728 14 728 C15 724 16 713 16 712 C16 712 39 712 39 712 C48 712 49 715 121 592 C121 592 121 592 121 592 C121 592 283 315 283 315 C283 315 283 75 283 75 C283 13 270 15 234 15 C234 15 227 15 227 15 C227 14 224 0 224 0 C224 0 421 0 421 0 C420 3 418 14 417 15 C417 15 410 15 410 15 C374 15 361 13 361 75 C361 75 361 326 361 326 C361 326 501 592 501 592 C501 592 501 592 501 592 C566 715 570 712 587 712 C587 712 609 712 609 712 C610 716 611 727 611 728 C611 728 572 728 572 728 C572 728 559 728 559 728 C559 728 501 728 501 728 C502 724 503 713 503 712 C503 712 522 712 522 712 C540 712 550 714 526 662 C526 662 496 604 496 604 C496 603 495 603 495 602 C495 602 495 602 495 602 C495 602 359 334 359 334 C359 334 171 662 171 662 C145 714 155 712 172 712 C172 712 190 712 190 712 C191 716 192 727 192 728 C192 728 192 728 192 728 L192 728 Z M216 944 C176 994 161 1012 153 1012 C130 1012 118 1000 118 977 C118 969 136 953 184 912 C184 912 325 791 325 791 C325 791 334 799 334 799 C334 799 216 944 216 944 L216 944 Z " />
<glyph glyph-name="quoteleft" unicode="&#x2018;" horiz-adv-x="493" d="" />
<glyph glyph-name="quoteright" unicode="&#x2019;" horiz-adv-x="76" d="" />
<glyph glyph-name="quotedblleft" unicode="&#x201c;" horiz-adv-x="493" d="M189 618 C180 618 173 616 169 612 C169 660 185 689 228 726 C228 726 219 738 219 738 C167 694 148 657 148 597 C148 564 159 552 189 552 C213 552 222 561 222 585 C222 609 213 618 189 618 L189 618 Z " />
<glyph glyph-name="quotedblright" unicode="&#x201d;" horiz-adv-x="493" d="M209 679 C208 623 195 591 160 562 C160 562 171 552 171 552 C214 588 230 626 230 697 C230 727 219 738 189 738 C165 738 156 729 156 705 C156 681 165 672 189 672 C198 672 205 674 209 679 L209 679 Z " />
<glyph glyph-name="Euro" unicode="&#x20ac;" horiz-adv-x="748" d="M704 42 C704 42 704 109 704 109 C704 109 704 165 704 165 C704 165 694 162 694 162 C668 101 634 36 614 20 C580 3 525 -4 428 -4 C272 -4 205 75 194 289 C194 289 483 289 483 289 C483 289 490 339 490 339 C490 339 192 339 192 339 C192 347 192 355 192 364 C192 373 192 381 192 389 C192 389 490 389 490 389 C490 389 497 439 497 439 C497 439 194 439 194 439 C206 652 275 731 439 731 C497 731 535 721 565 699 C604 669 649 587 688 500 C692 491 693 488 693 488 C694 488 695 488 704 486 C704 486 704 547 704 547 C704 547 704 611 704 611 C688 605 695 613 688 593 C689 598 672 621 624 673 C585 719 538 738 436 738 C217 738 123 657 108 439 C108 439 62 439 62 439 C62 439 55 389 55 389 C55 389 105 389 105 389 C105 381 105 373 105 364 C105 355 105 347 105 339 C105 339 55 339 55 339 C55 339 48 289 48 289 C48 289 107 289 107 289 C123 71 213 -10 426 -10 C553 -10 616 0 652 24 C652 24 652 24 652 24 C652 24 652 24 652 24 C663 32 671 40 678 50 C678 50 689 61 689 61 C695 68 697 64 697 46 C698 45 703 42 704 42 C704 42 704 42 704 42 L704 42 Z " />
<glyph glyph-name="LETTERSMALLCAPITALF" unicode="&#xa730;" horiz-adv-x="486" d="M436 488 C434 501 433 511 433 525 C431 538 430 548 429 561 C429 561 314 561 314 561 C314 561 192 561 192 561 C192 561 122 561 122 561 C122 561 63 561 63 561 C63 561 66 546 66 546 C66 546 73 546 73 546 C109 546 122 548 122 481 C122 481 122 80 122 80 C122 13 109 15 73 15 C73 15 66 15 66 15 C65 10 63 6 63 0 C63 0 122 0 122 0 C122 0 192 0 192 0 C192 0 252 0 252 0 C251 3 249 14 248 15 C248 15 241 15 241 15 C205 15 192 13 192 80 C192 80 192 295 192 295 C192 295 313 295 313 295 C343 288 344 273 347 248 C347 248 350 223 350 223 C352 222 358 219 359 219 C359 219 359 295 359 295 C359 295 359 300 359 300 C359 300 359 376 359 376 C359 376 350 372 350 372 C350 372 347 347 347 347 C343 313 344 300 244 300 C244 300 192 300 192 300 C192 300 192 481 192 481 C192 481 192 557 192 557 C192 557 234 557 234 557 C428 557 413 542 420 491 C420 491 434 488 436 488 C436 488 436 488 436 488 L436 488 Z " />
<glyph glyph-name="LETTERSMALLCAPITALS" unicode="&#xa731;" horiz-adv-x="473" d="M328 552 C328 552 328 552 328 552 C301 565 267 571 220 571 C110 571 70 532 70 426 C70 343 101 300 234 244 C350 195 378 166 378 120 C378 30 345 -3 255 -3 C227 -3 203 0 182 6 C182 6 185 6 185 6 C141 19 99 82 67 153 C63 162 62 165 62 165 C61 165 54 167 52 167 C52 167 52 110 52 110 C52 110 52 28 52 28 C67 35 60 28 67 52 C67 50 85 39 137 12 C137 12 138 12 138 12 C168 -3 206 -10 255 -10 C387 -10 434 30 434 141 C434 222 404 264 276 317 C154 368 125 399 125 453 C125 535 150 565 220 565 C231 565 242 564 253 561 C253 561 220 565 220 565 C244 565 265 563 283 557 C283 557 253 561 253 561 C309 547 350 497 377 438 C381 429 382 426 382 426 C383 426 390 424 392 424 C392 424 392 481 392 481 C392 481 392 546 392 546 C379 543 383 545 377 527 C377 528 364 534 328 552 L328 552 Z " />
<glyph glyph-name="[namenotfound]" unicode="&#xf078;" horiz-adv-x="607" d="M581 561 C581 561 546 561 546 561 C546 561 514 561 514 561 C514 561 440 561 440 561 C441 558 442 547 442 546 C442 546 460 546 460 546 C492 546 506 550 408 416 C408 416 408 416 408 416 C408 416 334 314 334 314 C334 314 258 426 258 426 C258 426 258 426 258 426 C174 549 186 546 214 546 C214 546 232 546 232 546 C233 550 234 560 234 561 C234 561 166 561 166 561 C166 561 83 561 83 561 C83 561 51 561 51 561 C52 558 53 547 53 546 C53 546 76 546 76 546 C87 546 90 548 150 462 C150 462 284 265 284 265 C284 265 138 78 138 78 C86 13 78 15 56 15 C56 15 35 15 35 15 C34 11 33 1 33 0 C33 0 78 0 78 0 C78 0 107 0 107 0 C107 0 207 0 207 0 C206 3 205 14 205 15 C205 15 187 15 187 15 C144 15 121 12 165 79 C165 79 293 252 293 252 C293 252 372 135 372 135 C372 135 372 135 372 135 C456 12 444 15 416 15 C416 15 398 15 398 15 C397 11 396 1 396 0 C396 0 464 0 464 0 C464 0 548 0 548 0 C548 0 585 0 585 0 C584 3 583 14 583 15 C583 15 561 15 561 15 C545 15 540 13 485 92 C485 92 338 308 338 308 C338 308 529 540 529 540 C539 547 546 546 556 546 C556 546 579 546 579 546 C580 550 581 560 581 561 C581 561 581 561 581 561 L581 561 Z " />
</font>
</svg>
