<?xml version="1.0" encoding="UTF-8"?>
<svg xmlns="http://www.w3.org/2000/svg" xmlns:xlink="http://www.w3.org/1999/xlink" version="1.2" >
<font id="Pierson Regular">
<font-face  font-family="Pierson" units-per-em="1024" ascent="975" descent="-300" font-style="normal" font-weight="400" font-stretch="normal" cap-height="1044" x-height="488" underline-position="-125" underline-thickness="50" />
<missing-glyph  horiz-adv-x="100" d="" />
<glyph glyph-name="NULL" d="" />
<glyph glyph-name="CR" unicode="&#xd;" horiz-adv-x="256" d="" />
<glyph glyph-name="space" unicode="&#x20;" horiz-adv-x="362" d="" />
<glyph glyph-name="exclam" unicode="&#x21;" horiz-adv-x="244" d="M122 -5 C157 -5 182 20 182 55 C182 90 157 115 122 115 C87 115 62 90 62 55 C62 20 87 -5 122 -5 L122 -5 Z M122 755 C83 755 64 711 70 650 L114 210 L130 210 L174 650 C180 711 161 755 122 755 L122 755 Z " />
<glyph glyph-name="quotedbl" unicode="&#x22;" horiz-adv-x="414" d="M212 750 C193 750 182 731 187 705 L217 560 L227 560 L257 705 C262 731 251 750 232 750 L212 750 L212 750 Z M92 750 C73 750 62 731 67 705 L97 560 L107 560 L137 705 C142 731 131 750 112 750 L92 750 L92 750 Z " />
<glyph glyph-name="numbersign" unicode="&#x23;" horiz-adv-x="649" d="M471 667 L445 493 L241 493 L267 667 L259 667 L233 493 L67 493 L58 427 L223 427 L194 233 L26 233 L16 167 L184 167 L159 0 L167 0 L192 167 L396 167 L371 0 L379 0 L404 167 L572 167 L581 233 L414 233 L443 427 L620 427 L629 493 L453 493 L479 667 L471 667 L471 667 Z M231 427 L435 427 L406 233 L202 233 L231 427 L231 427 Z " />
<glyph glyph-name="dollar" unicode="&#x24;" horiz-adv-x="641" d="M68 46 L72 58 C78 74 109 67 146 45 C181 24 221 8 264 -1 L264 -75 L294 -75 L294 -7 C310 -9 327 -10 344 -10 L344 -75 L374 -75 L374 -9 C507 2 601 85 601 196 C601 283 518 375 374 428 L374 744 C443 726 498 679 529 615 L539 596 L561 596 L561 708 L544 708 L539 703 C528 690 462 727 446 733 C435 739 424 744 412 748 L410 744 C399 747 387 750 375 752 L375 824 L345 824 L345 756 C329 758 312 759 295 759 L295 824 L265 824 L265 758 C148 747 65 668 65 562 C65 486 137 402 265 343 L265 9 C243 15 222 24 202 35 C158 59 108 116 83 172 L74 193 L51 193 L51 45 L68 46 L68 46 Z M66 153 L66 153 L66 153 L66 153 Z M295 330 C311 324 329 318 345 312 L345 -2 C328 -2 311 0 294 3 L295 330 L295 330 Z M374 299 C468 256 521 207 521 168 C521 80 461 14 374 2 L374 299 L374 299 Z M294 463 L294 756 C311 756 328 755 344 752 L344 441 C326 448 309 455 293 462 L294 463 L294 463 Z M263 477 C185 519 142 564 142 601 C142 680 192 739 263 751 L263 477 L263 477 Z " />
<glyph glyph-name="ampersand" unicode="&#x26;" horiz-adv-x="289" d="M326 465 C421 496 489 556 489 611 C489 697 416 760 315 760 C216 760 145 692 145 599 C145 560 182 507 237 439 C122 401 40 301 40 199 C40 78 126 -10 245 -10 C329 -10 420 40 504 126 C514 114 524 102 534 90 C583 32 652 -10 699 -10 C766 -10 823 56 834 146 L819 151 C812 98 777 59 734 59 C697 59 645 91 608 134 C591 154 575 173 560 191 C626 275 685 381 729 500 L709 500 C668 386 609 286 543 211 C393 388 362 421 325 465 L326 465 L326 465 Z M317 475 C259 546 219 602 219 644 C219 700 259 740 314 740 C375 740 419 688 419 616 C419 555 377 497 317 475 L317 475 Z M482 152 C420 99 355 69 294 69 C198 69 129 134 129 224 C129 317 177 401 245 431 C294 372 317 349 484 152 L482 152 L482 152 Z " />
<glyph glyph-name="quotesingle" unicode="&#x27;" horiz-adv-x="245" d="M92 750 C73 750 62 731 67 705 L97 560 L107 560 L137 705 C142 731 131 750 112 750 L92 750 L92 750 Z " />
<glyph glyph-name="parenleft" unicode="&#x28;" horiz-adv-x="680" d="M320 760 C192 674 100 469 100 273 C100 84 189 -121 313 -214 L318 -205 C226 -136 160 65 160 273 C160 485 229 685 325 750 L320 760 L320 760 Z " />
<glyph glyph-name="parenright" unicode="&#x29;" horiz-adv-x="680" d="M25 750 C156 665 250 465 250 273 C250 78 158 -122 32 -204 L37 -214 C195 -111 310 93 310 273 C310 450 192 655 30 760 L25 750 L25 750 Z " />
<glyph glyph-name="asterisk" unicode="&#x2a;" horiz-adv-x="296" d="M272 664 C290 671 297 688 288 704 C278 720 260 723 246 710 C246 710 265 678 273 665 L272 664 L272 664 Z M243 545 C257 533 275 536 285 552 C294 568 287 585 269 591 C269 591 251 557 243 545 L243 545 Z M36 591 C-5 574 33 516 64 545 L62 547 L148 624 L124 511 C115 468 185 468 176 511 L152 628 L240 548 L266 593 L155 630 L269 667 L243 712 L152 630 L151 630 L151 630 L176 750 C185 793 115 793 124 750 L149 631 L60 711 L60 711 C46 723 28 720 19 704 C10 687 17 670 35 664 L33 666 L149 628 L149 627 L36 590 L36 591 L36 591 Z " />
<glyph glyph-name="plus" unicode="&#x2b;" horiz-adv-x="710" d="M322 505 L322 280 L100 280 L100 220 L322 220 L322 -5 L388 -5 L388 220 L610 220 L610 280 L388 280 L388 505 L322 505 L322 505 Z " />
<glyph glyph-name="comma" unicode="&#x2c;" horiz-adv-x="260" d="M171 31 C190 -46 139 -106 65 -106 L65 -111 C138 -111 190 -60 190 11 C190 61 171 100 143 111 C138 113 132 114 126 114 C91 114 66 89 66 54 C66 19 91 -6 126 -6 C148 -6 165 8 172 30 L171 31 L171 31 Z " />
<glyph glyph-name="hyphen" unicode="&#x2d;" horiz-adv-x="520" d="M80 250 L440 250 L440 320 L80 320 L80 250 L80 250 Z " />
<glyph glyph-name="period" unicode="&#x2e;" horiz-adv-x="195" d="M125 -5 C160 -5 185 20 185 55 C185 90 160 115 125 115 C90 115 65 90 65 55 C65 20 90 -5 125 -5 L125 -5 Z " />
<glyph glyph-name="slash" unicode="&#x2f;" horiz-adv-x="389" d="M309 770 L27 -80 L77 -80 L359 770 L309 770 L309 770 Z " />
<glyph glyph-name="zero" unicode="0" horiz-adv-x="610" d="M85 250 C85 367 177 475 305 475 C420 475 525 381 525 250 C525 133 433 25 305 25 C190 25 85 120 85 250 L85 250 Z M45 250 C45 99 169 -10 305 -10 C456 -10 565 114 565 250 C565 401 441 510 305 510 C154 510 45 386 45 250 L45 250 Z " />
<glyph glyph-name="one" unicode="1" horiz-adv-x="224" d="M194 20 C170 20 155 37 155 70 L155 430 C155 463 170 480 194 480 L194 500 L31 500 L31 480 C55 480 70 463 70 430 L70 70 C70 37 55 20 31 20 L31 0 L194 0 L194 20 L194 20 Z " />
<glyph glyph-name="two" unicode="2" horiz-adv-x="631" d="M482 75 L203 75 C155 75 86 13 33 2 C294 134 531 277 531 345 C531 441 442 510 320 510 C184 510 68 419 44 294 L61 290 C78 380 169 445 276 445 C375 445 446 395 446 325 C446 251 241 123 18 9 L29 1 C25 0 21 0 17 0 L519 0 L562 69 C568 78 574 86 579 93 C575 93 566 94 566 94 C555 83 524 75 481 75 L482 75 L482 75 Z " />
<glyph glyph-name="three" unicode="3" horiz-adv-x="524" d="M17 -215 L20 -232 C289 -204 484 -103 484 7 C484 103 351 174 162 181 C344 262 469 339 469 387 C469 459 384 511 266 511 C145 511 41 444 20 352 L39 347 C53 407 134 451 232 451 C317 451 379 412 379 358 C379 311 261 240 99 171 L99 154 C101 155 103 156 105 157 C103 155 101 154 99 154 C270 130 394 59 394 -16 C394 -108 236 -191 17 -214 L17 -215 L17 -215 Z " />
<glyph glyph-name="four" unicode="4" horiz-adv-x="791" d="M700 65 L505 65 L505 530 L494 530 L15 15 L15 0 L420 0 L420 -220 L505 -220 L505 0 L691 0 C717 0 740 -3 744 -8 L746 -9 C746 -9 739 -9 759 -10 L765 -10 C766 2 769 21 771 33 L770 33 C773 49 776 72 778 88 C771 88 759 89 759 89 C750 75 730 65 700 65 L700 65 Z M102 65 L420 402 L420 65 L102 65 L102 65 Z " />
<glyph glyph-name="five" unicode="5" horiz-adv-x="525" d="M370 500 L111 500 L31 201 L47 187 L85 187 C280 187 421 117 421 21 C421 -92 269 -192 59 -218 L60 -234 C312 -203 495 -84 495 50 C495 182 327 277 94 277 L83 277 L127 424 L432 426 L445 500 C446 503 447 506 448 509 L429 509 C420 504 400 500 371 500 L370 500 L370 500 Z " />
<glyph glyph-name="six" unicode="6" horiz-adv-x="658" d="M640 750 C298 750 50 557 50 291 C50 116 170 -10 336 -10 C492 -10 605 95 605 239 C605 368 491 462 333 462 C252 462 186 428 150 374 C204 591 394 737 643 737 L640 750 L640 750 Z M135 246 C135 367 217 455 330 455 C440 455 520 366 520 243 C520 100 442 -4 335 -4 C219 -4 135 101 135 246 L135 246 Z " />
<glyph glyph-name="seven" unicode="7" horiz-adv-x="531" d="M119 434 L486 434 L500 452 L116 -220 L181 -220 L526 485 L526 500 L155 500 C129 500 106 500 101 501 L80 501 C79 500 78 499 77 498 L61 468 L58 468 C52 455 43 435 37 422 C41 422 55 421 55 421 C67 429 89 435 119 435 L119 434 L119 434 Z " />
<glyph glyph-name="eight" unicode="8" horiz-adv-x="632" d="M242 376 C259 369 276 362 294 356 C429 314 526 269 526 207 C526 83 437 -6 315 -6 C198 -6 114 69 114 173 C114 261 165 339 242 375 L242 376 L242 376 Z M230 380 C117 340 40 259 40 172 C40 65 156 -12 315 -12 C476 -12 592 65 592 171 C592 296 508 365 385 414 C493 451 566 522 566 596 C566 690 460 758 313 758 C169 758 65 682 65 578 C65 498 131 426 230 380 L230 380 Z M375 418 C357 425 339 431 320 437 C212 471 133 537 133 610 C133 694 210 755 317 755 C419 755 493 685 493 588 C493 516 446 451 375 419 L375 418 L375 418 Z " />
<glyph glyph-name="nine" unicode="9" horiz-adv-x="658" d="M18 -250 C360 -250 608 -57 608 209 C608 384 488 510 322 510 C166 510 53 405 53 261 C53 132 167 38 325 38 C406 38 472 72 508 126 C454 -91 264 -237 15 -237 L18 -250 L18 -250 Z M523 254 C523 133 441 45 328 45 C218 45 138 134 138 257 C138 400 216 504 323 504 C439 504 523 399 523 254 L523 254 Z " />
<glyph glyph-name="colon" unicode="&#x3a;" horiz-adv-x="135" d="M125 385 C160 385 185 410 185 445 C185 480 160 505 125 505 C90 505 65 480 65 445 C65 410 90 385 125 385 L125 385 Z M125 -5 C160 -5 185 20 185 55 C185 90 160 115 125 115 C90 115 65 90 65 55 C65 20 90 -5 125 -5 L125 -5 Z " />
<glyph glyph-name="semicolon" unicode="&#x3b;" horiz-adv-x="260" d="M125 385 C160 385 185 410 185 445 C185 480 160 505 125 505 C90 505 65 480 65 445 C65 410 90 385 125 385 L125 385 Z M171 31 C190 -46 139 -106 65 -106 L65 -111 C138 -111 190 -60 190 11 C190 61 171 100 143 111 C138 113 132 114 126 114 C91 114 66 89 66 54 C66 19 91 -6 126 -6 C148 -6 165 8 172 30 L171 31 L171 31 Z " />
<glyph glyph-name="equal" unicode="&#x3d;" horiz-adv-x="623" d="M83 219 L83 181 L553 181 L553 219 L83 219 L83 219 Z M83 319 L83 281 L553 281 L553 319 L83 319 L83 319 Z " />
<glyph glyph-name="question" unicode="&#x3f;" horiz-adv-x="299" d="M125 -5 C160 -5 185 20 185 55 C185 90 160 115 125 115 C90 115 65 90 65 55 C65 20 90 -5 125 -5 L125 -5 Z M125 210 L125 360 C215 360 252 395 285 444 C302 470 315 516 315 555 C315 674 244 760 145 760 C99 760 65 734 65 697 C65 673 84 655 111 655 C130 655 157 670 176 670 C242 670 289 618 289 545 C289 530 279 505 266 485 C248 459 218 440 97 440 C105 437 110 210 110 210 L125 210 L125 210 Z M97 440 L97 440 L97 440 L97 440 Z " />
<glyph glyph-name="at" unicode="&#x40;" horiz-adv-x="1294" d="M1176 0 C1112 -138 894 -238 658 -238 C347 -238 122 -29 122 259 C122 546 343 754 647 754 C952 754 1173 581 1173 343 C1173 148 1090 7 975 7 C875 7 823 88 851 200 L921 480 L840 480 L820 399 C799 453 736 489 655 489 C462 489 323 364 323 191 C323 84 412 7 536 7 C633 7 720 52 764 121 C775 34 848 -23 959 -23 C1121 -23 1238 130 1238 342 C1238 594 989 777 646 777 C303 777 54 559 54 258 C54 -39 315 -254 676 -254 C913 -254 1135 -148 1203 -1 L1176 0 L1176 0 Z M808 355 L769 199 C748 115 668 54 578 54 C483 54 415 118 415 207 C415 357 515 465 652 465 C742 465 808 418 809 355 L808 355 L808 355 Z " />
<glyph glyph-name="A" unicode="A" horiz-adv-x="754" d="M117 125 L117 125 L180 293 L489 293 C510 237 532 180 552 125 C574 67 562 25 523 25 L511 25 L511 0 L745 0 L745 25 L737 25 C713 25 679 67 657 125 L657 125 L426 720 C426 720 413 770 407 770 L397 770 C401 747 371 726 326 720 L330 710 L110 125 C88 67 41 25 -3 25 L-17 25 L-17 0 L159 0 L159 25 L147 25 C108 25 95 67 117 125 L117 125 Z M182 300 L332 703 L485 300 L182 300 L182 300 Z " />
<glyph glyph-name="B" unicode="B" horiz-adv-x="767" d="M311 2 L261 2 C225 2 199 39 199 91 L199 385 L299 385 C313 385 327 385 340 386 C501 382 617 303 617 195 C617 44 488 2 311 2 L311 2 Z M319 0 C556 0 727 42 727 195 C727 301 587 380 388 390 C573 407 700 478 700 571 C700 675 618 751 323 751 L61 751 L61 726 C85 726 100 709 100 676 L100 76 C100 43 85 26 61 26 L61 1 L319 0 L319 0 Z M297 391 L200 391 L200 746 L313 746 C538 746 600 668 600 561 C600 462 473 391 297 391 L297 391 Z " />
<glyph glyph-name="C" unicode="C" horiz-adv-x="852" d="M808 47 L808 175 L786 175 L776 157 C753 113 703 64 659 41 C605 13 540 -4 461 -4 C286 -4 160 155 160 375 C160 595 292 754 474 754 C555 754 615 738 664 711 C705 689 752 639 776 592 L786 574 L808 574 L808 699 L791 699 L786 691 C780 680 752 688 719 706 C663 739 587 759 471 759 C226 759 49 597 49 374 C49 151 221 -11 458 -11 C571 -11 654 10 716 44 C749 61 779 67 785 54 L790 45 L808 47 L808 47 Z M795 129 L795 129 L795 129 L795 129 Z " />
<glyph glyph-name="D" unicode="D" horiz-adv-x="919" d="M307 5 C213 5 199 37 199 80 L199 745 L352 745 C608 745 754 590 754 375 C754 139 566 5 307 5 L307 5 Z M60 730 C84 730 99 713 99 680 L99 70 C99 37 84 20 60 20 L60 0 L315 0 C633 0 864 136 864 375 C864 593 686 750 373 750 L60 750 L60 730 L60 730 Z " />
<glyph glyph-name="E" unicode="E" horiz-adv-x="673" d="M624 0 C624 4 636 74 638 84 L621 84 L615 72 C594 33 535 5 474 5 L279 5 C209 5 199 37 199 80 L199 385 L413 385 C459 385 503 353 517 309 L521 296 L538 296 L538 385 L539 385 L539 391 L538 391 L538 480 L521 480 L517 467 C503 423 459 391 413 391 L199 391 L199 745 L474 745 C521 745 569 713 588 669 L594 656 L611 656 C607 683 602 721 599 748 L599 750 L40 750 L40 730 L49 730 C78 730 99 701 99 660 L99 90 C99 49 78 20 49 20 L40 20 L40 0 L624 0 L624 0 Z " />
<glyph glyph-name="F" unicode="F" horiz-adv-x="648" d="M40 730 L49 730 C78 730 99 701 99 660 L99 90 C99 49 78 20 49 20 L40 20 L40 0 L258 0 L258 20 L249 20 C220 20 199 49 199 90 L199 385 L404 385 C450 385 494 353 508 309 L512 296 L529 296 L529 480 L512 480 L508 467 C494 423 450 391 404 391 L199 391 L199 746 L475 746 C521 746 569 714 588 670 L594 657 L611 657 C608 683 603 722 600 748 L599 748 L599 750 L40 750 L40 730 L40 730 Z " />
<glyph glyph-name="G" unicode="G" horiz-adv-x="887" d="M791 700 L786 692 C780 681 752 689 719 707 C663 740 587 760 471 760 C226 760 49 598 49 375 C49 152 222 -10 460 -10 C647 -10 772 20 862 62 L860 66 C840 57 817 49 790 42 L790 216 C790 265 808 301 832 301 L839 301 L839 326 L641 326 L641 301 L648 301 C672 301 690 265 690 216 C690 183 690 147 690 115 C681 54 594 12 477 12 C293 12 159 165 159 377 C159 597 291 756 473 756 C554 756 614 740 663 713 C704 691 751 641 775 594 L785 576 L807 576 L807 701 L791 700 L791 700 Z M606 15 C567 12 524 11 476 11 C507 11 560 13 605 15 L606 15 L606 15 Z " />
<glyph glyph-name="H" unicode="H" horiz-adv-x="874" d="M814 20 C790 20 775 37 775 70 L775 680 C775 713 790 730 814 730 L814 750 L636 750 L636 730 C660 730 675 713 675 680 L675 390 L235 390 L235 680 C235 713 250 730 274 730 L274 750 L96 750 L96 730 C120 730 135 713 135 680 L135 70 C135 37 120 20 96 20 L96 0 L274 0 L274 20 C250 20 235 37 235 70 L235 383 L675 383 L675 70 C675 37 660 20 636 20 L636 0 L814 0 L814 20 L814 20 Z " />
<glyph glyph-name="I" unicode="I" horiz-adv-x="293" d="M233 20 C209 20 194 37 194 70 L194 680 C194 713 209 730 233 730 L233 750 L55 750 L55 730 C79 730 94 713 94 680 L94 70 C94 37 79 20 55 20 L55 0 L233 0 L233 20 L233 20 Z " />
<glyph glyph-name="J" unicode="J" horiz-adv-x="293" d="M233 750 L55 750 L55 730 C79 730 94 713 94 680 L94 -72 C94 -185 11 -211 -45 -211 C-93 -211 -72 -131 -120 -131 C-146 -131 -165 -150 -165 -176 C-165 -202 -117 -220 -51 -220 C48 -220 194 -157 194 116 L194 680 C194 713 209 730 233 730 L233 750 L233 750 Z " />
<glyph glyph-name="K" unicode="K" horiz-adv-x="802" d="M695 750 L506 750 L506 730 L519 730 C561 730 547 691 488 636 L199 376 L199 681 C199 714 214 731 238 731 L238 751 L60 751 L60 731 C84 731 99 714 99 681 L99 71 C99 38 84 21 60 21 L60 1 L238 1 L238 21 C214 21 199 38 199 71 L199 376 L619 1 L780 1 L780 21 C754 21 721 39 686 71 L686 71 L290 430 L572 676 C617 713 658 732 695 732 L695 750 L695 750 Z " />
<glyph glyph-name="L" unicode="L" horiz-adv-x="670" d="M233 750 L55 750 L55 730 C79 730 94 713 94 680 L94 70 C94 37 79 20 55 20 L55 0 L641 0 L641 13 C646 38 652 71 657 95 L640 95 L634 83 C613 44 554 16 493 16 L275 16 C205 16 195 42 195 79 L195 679 C195 712 210 729 234 729 L233 750 L233 750 Z " />
<glyph glyph-name="M" unicode="M" horiz-adv-x="920" d="M885 750 L751 750 L494 121 L205 750 L55 750 L55 730 C76 730 91 721 107 700 C100 490 94 279 87 69 C86 36 71 19 47 19 L47 -1 L160 -1 L160 19 C137 19 123 32 121 61 L131 652 C236 434 341 216 445 -2 L470 -2 L753 670 C758 470 764 269 769 69 C770 36 756 19 732 19 L732 -1 L910 -1 L910 19 C886 19 871 36 870 69 L870 69 L850 686 C851 716 864 730 887 730 L885 750 L885 750 Z " />
<glyph glyph-name="N" unicode="N" horiz-adv-x="806" d="M-4 730 C21 730 46 715 74 686 L93 665 L92 70 C92 37 77 20 53 20 L53 0 L161 0 L161 20 C137 20 122 37 122 70 L122 70 L119 636 C306 424 493 212 680 0 L700 0 L707 687 C710 716 724 730 747 730 L747 750 L639 750 L639 730 C663 730 678 713 678 680 L678 680 L679 152 C500 351 321 550 142 749 L-4 749 L-4 730 L-4 730 Z " />
<glyph glyph-name="O" unicode="O" horiz-adv-x="963" d="M159 375 C159 594 291 753 473 753 C663 753 800 594 800 375 C800 156 659 -3 465 -3 C288 -3 159 156 159 375 L159 375 Z M50 375 C50 152 224 -10 464 -10 C722 -10 908 152 908 375 C908 598 726 760 474 760 C228 760 50 598 50 375 L50 375 Z " />
<glyph glyph-name="P" unicode="P" horiz-adv-x="724" d="M263 20 C239 20 224 37 224 70 L224 344 L296 344 C533 344 704 409 704 539 C704 661 563 750 369 750 L85 750 L85 730 C109 730 124 713 124 680 L124 70 C124 37 109 20 85 20 L85 0 L263 0 L263 20 L263 20 Z M224 365 L224 733 L344 733 C498 733 610 658 610 555 C610 428 478 365 296 365 L224 365 L224 365 Z " />
<glyph glyph-name="Q" unicode="Q" horiz-adv-x="958" d="M1370 -51 L1368 -48 C1338 -73 1175 -91 979 -91 C744 -91 509 -56 400 -6 C421 -9 442 -10 464 -10 C722 -10 908 152 908 375 C908 598 726 760 474 760 C228 760 50 598 50 375 C50 212 143 81 287 23 C470 -81 755 -156 967 -156 C1128 -156 1297 -112 1370 -51 L1370 -51 Z M159 375 C159 594 291 753 473 753 C663 753 800 594 800 375 C800 153 656 -7 458 -7 C285 -7 159 153 159 375 L159 375 Z " />
<glyph glyph-name="R" unicode="R" horiz-adv-x="814" d="M60 730 C84 730 99 713 99 680 L99 70 C99 37 84 20 60 20 L60 0 L238 0 L238 20 C214 20 199 37 199 70 L199 355 L388 355 C408 317 476 210 564 80 C614 6 631 0 804 0 L804 20 C727 20 718 24 681 80 C592 213 521 319 491 363 C602 384 676 442 676 538 C676 661 557 750 393 750 L61 750 L60 730 L60 730 Z M200 380 L200 730 L363 730 C480 730 565 658 565 558 C565 439 493 380 393 380 L200 380 L200 380 Z " />
<glyph glyph-name="S" unicode="S" horiz-adv-x="641" d="M544 708 L539 703 C528 690 462 727 446 733 C435 739 424 744 412 748 L410 744 C374 754 334 759 293 759 C161 759 65 676 65 562 C65 476 156 380 316 322 C447 274 522 213 522 166 C522 68 448 -3 346 -3 C296 -3 246 11 202 35 C158 59 108 116 83 172 L74 193 L51 193 L51 45 L69 45 L73 57 C79 73 110 66 147 44 C203 10 274 -11 346 -11 C494 -11 602 76 602 195 C602 281 520 374 376 426 C228 480 144 548 144 600 C144 689 207 753 293 753 C335 753 376 745 412 731 C457 712 506 664 530 614 L540 595 L562 595 L562 707 L544 708 L544 708 Z M66 153 L66 153 L66 153 L66 153 Z " />
<glyph glyph-name="T" unicode="T" horiz-adv-x="864" d="M343 0 L521 0 L521 20 C497 20 482 37 482 70 L482 725 L681 725 C730 725 787 697 817 658 L826 646 L843 646 C833 670 820 702 810 728 L810 750 L55 750 L55 749 C55 748 55 747 55 746 L56 748 L56 730 C45 704 32 670 22 645 L39 645 L48 657 C77 696 134 724 183 724 L383 724 L383 69 C383 36 368 19 344 19 L343 0 L343 0 Z M811 746 C813 743 814 739 815 737 L811 746 L811 746 Z M55 747 C53 744 52 740 51 738 L55 747 L55 747 Z " />
<glyph glyph-name="U" unicode="U" horiz-adv-x="780" d="M750 44 C728 37 711 49 711 83 L711 750 L572 750 L572 730 C596 730 611 713 611 680 L611 208 C569 119 466 54 366 54 C249 54 164 131 164 238 L164 750 L25 750 L25 730 C49 730 64 713 64 680 L64 238 C64 94 174 -10 326 -10 C445 -10 564 63 611 163 L611 0 L661 0 L711 13 C711 16 748 24 750 25 L750 44 L750 44 Z " />
<glyph glyph-name="V" unicode="V" horiz-adv-x="852" d="M81 632 C182 418 283 203 385 -11 L405 -11 L714 636 C743 692 772 724 800 724 L800 749 L624 749 L624 724 L638 724 C681 724 696 687 676 635 L439 109 L195 633 C173 687 182 725 219 725 L230 725 L230 750 L9 750 L9 725 C28 725 54 690 82 633 L81 632 L81 632 Z " />
<glyph glyph-name="W" unicode="W" horiz-adv-x="1250" d="M567 645 L567 645 L631 500 L442 121 L199 646 C199 646 165 726 206 726 L214 726 L214 751 L22 751 L22 726 C41 726 60 702 81 660 C180 437 279 214 378 -9 L403 -9 L647 466 C717 308 787 150 857 -9 L882 -9 C960 209 1037 428 1115 646 C1131 692 1161 726 1185 726 L1192 726 L1192 751 L1014 751 L1014 726 L1027 726 C1069 726 1091 697 1081 656 L907 140 L674 657 C659 698 671 727 704 727 L715 727 L715 752 L498 752 L498 727 C522 727 545 697 568 647 L567 645 L567 645 Z " />
<glyph glyph-name="X" unicode="X" horiz-adv-x="874" d="M199 20 L190 20 C160 20 156 41 179 71 L402 340 C472 252 543 163 612 75 C637 43 640 20 619 20 L613 20 L613 0 L799 0 L799 20 C785 20 765 36 741 63 L465 410 L721 676 C755 710 790 729 821 729 L821 749 L667 749 L667 729 L676 729 C706 729 709 707 684 676 L461 415 C393 501 323 588 255 674 C230 706 227 729 248 729 L254 729 L254 749 L69 749 L69 729 C83 729 103 714 126 687 L390 355 C309 261 228 167 146 73 C115 37 82 18 49 18 L49 -2 L200 -2 L199 20 L199 20 Z " />
<glyph glyph-name="Y" unicode="Y" horiz-adv-x="808" d="M303 0 L521 0 L521 20 L512 20 C483 20 462 49 462 90 L462 336 L688 675 C711 710 741 730 773 730 L773 750 L645 750 L645 730 L656 730 C687 730 695 708 676 677 L458 344 C378 454 296 565 217 675 C194 707 193 730 215 730 L221 730 L221 750 L35 750 L35 730 C51 730 74 709 99 675 L99 675 L360 322 L360 90 C360 49 339 20 310 20 L301 20 L303 0 L303 0 Z " />
<glyph glyph-name="Z" unicode="Z" horiz-adv-x="719" d="M78 643 L83 655 C99 693 153 721 212 724 L590 729 L25 20 L25 0 L696 0 L703 30 L702 30 C706 46 713 74 721 109 L704 109 L697 97 C674 58 613 29 552 28 L145 22 L700 730 L700 750 L70 750 L67 722 L68 722 C67 706 65 678 62 643 L78 643 L78 643 Z " />
<glyph glyph-name="bracketleft" unicode="&#x5b;" horiz-adv-x="295" d="M135 725 L345 725 L345 750 L105 750 L105 -195 L345 -195 L345 -170 L135 -170 L135 725 L135 725 Z " />
<glyph glyph-name="backslash" unicode="&#x5c;" horiz-adv-x="347" d="M27 770 L287 -80 L337 -80 L77 770 L27 770 L27 770 Z " />
<glyph glyph-name="bracketright" unicode="&#x5d;" horiz-adv-x="298" d="M158 725 L158 -170 L-52 -170 L-52 -195 L188 -195 L188 750 L-52 750 L-52 725 L158 725 L158 725 Z " />
<glyph glyph-name="asciicircum" unicode="&#x5e;" horiz-adv-x="452" d="M256 755 C250 764 235 785 226 785 C217 785 202 764 196 755 L74 566 L86 556 L226 695 L367 556 L378 566 L256 755 L256 755 Z " />
<glyph glyph-name="underscore" unicode="&#x5f;" horiz-adv-x="657" d="M5 -50 L5 -97 L652 -97 L652 -50 L5 -50 L5 -50 Z " />
<glyph glyph-name="grave" unicode="&#x60;" horiz-adv-x="452" d="M22 746 C22 738 49 713 86 682 L228 562 L239 573 L125 721 C96 760 71 788 64 788 C42 788 22 768 22 746 L22 746 Z " />
<glyph glyph-name="a" unicode="a" horiz-adv-x="602" d="M612 103 L604 106 C599 77 574 56 544 56 C513 56 490 75 490 102 L490 355 C490 458 415 510 312 510 C169 510 65 412 65 360 C65 325 86 300 114 300 C140 300 159 326 159 343 C159 360 139 386 139 403 C139 438 208 503 304 503 C363 503 405 464 405 386 L405 266 C124 216 45 187 45 89 C45 32 105 -9 189 -9 C245 -9 322 20 405 86 C412 33 453 -4 507 -4 C556 -4 599 41 610 104 L612 103 L612 103 Z M403 262 L403 103 C403 99 403 95 403 91 C352 53 289 36 232 36 C172 36 128 62 128 98 C128 197 188 224 403 262 L403 262 Z " />
<glyph glyph-name="b" unicode="b" horiz-adv-x="646" d="M10 721 C22 713 29 689 29 661 L29 0 L34 0 L66 68 C116 21 205 -10 305 -10 C477 -10 601 100 601 253 C601 399 476 505 303 505 C240 505 163 472 114 424 L114 750 L72 750 C60 747 45 743 31 739 L28 739 L28 738 C21 736 14 734 8 732 L10 721 L10 721 Z M112 111 L112 410 C154 450 220 478 274 478 C407 478 503 379 503 242 C503 103 420 2 306 2 C218 2 140 48 112 112 L112 111 L112 111 Z " />
<glyph glyph-name="c" unicode="c" horiz-adv-x="615" d="M585 128 L582 129 C552 61 453 11 347 11 C223 11 133 121 133 273 C133 408 227 505 356 505 C418 505 479 463 500 405 C509 381 527 363 543 363 C576 363 594 381 585 405 C563 466 467 510 358 510 C176 510 45 395 45 236 C45 93 167 -10 335 -10 C444 -10 549 48 585 128 L585 128 Z " />
<glyph glyph-name="d" unicode="d" horiz-adv-x="644" d="M587 11 L590 11 L590 12 C604 16 618 20 629 23 L629 43 C606 35 590 46 590 81 L590 751 L548 751 L505 740 L505 739 C498 737 491 735 485 733 L485 721 C497 713 504 689 504 661 L504 421 C470 471 406 510 338 510 C150 510 44 401 44 251 C44 103 154 -5 307 -5 C386 -5 467 27 504 72 L504 1 L547 1 C557 6 573 8 586 11 L587 11 L587 11 Z M504 375 L504 80 C477 51 411 30 342 30 C220 30 131 132 131 274 C131 396 210 485 348 485 C419 485 486 432 504 375 L504 375 Z " />
<glyph glyph-name="e" unicode="e" horiz-adv-x="662" d="M143 340 L632 340 C611 458 504 510 368 510 C181 510 45 425 45 231 C45 91 168 -10 339 -10 C468 -10 584 50 614 134 L611 135 C585 64 474 13 347 13 C224 13 135 119 135 266 C135 293 138 318 143 340 L143 340 Z M537 346 L144 345 C171 455 256 505 367 505 C448 505 516 457 537 346 L537 346 Z " />
<glyph glyph-name="f" unicode="f" horiz-adv-x="395" d="M178 20 C167 20 159 24 159 35 L159 455 L385 455 L385 500 L159 500 C159 633 219 729 324 729 C387 729 453 635 506 635 C532 635 551 654 551 680 C551 724 469 755 355 755 C176 755 74 648 74 500 L-20 465 L-20 455 L74 455 L74 35 C74 24 66 20 55 20 L55 0 L178 0 L178 20 L178 20 Z " />
<glyph glyph-name="g" unicode="g" horiz-adv-x="609" d="M631 479 C631 509 608 530 576 530 C541 530 500 497 477 453 C437 488 375 509 301 509 C171 509 76 442 76 349 C76 266 150 203 257 189 C138 182 56 148 56 103 C56 50 103 10 171 0 C97 -22 46 -61 46 -98 C46 -176 157 -233 311 -233 C464 -233 575 -165 575 -71 C575 17 507 81 351 81 L209 81 C149 81 105 100 105 127 C105 161 187 185 301 185 C432 185 526 253 526 347 C526 386 509 420 480 447 C490 463 508 474 526 474 C546 474 575 439 595 439 C616 439 631 455 631 476 L631 479 L631 479 Z M300 190 C219 190 160 256 160 347 C160 437 219 502 300 502 C381 502 440 437 440 347 C440 256 381 190 300 190 L300 190 Z M178 -2 C186 -3 195 -3 204 -3 L341 -3 C454 -3 504 -40 504 -91 C504 -170 423 -228 311 -228 C198 -228 116 -165 116 -78 C116 -47 141 -17 178 -1 L178 -2 L178 -2 Z " />
<glyph glyph-name="h" unicode="h" horiz-adv-x="598" d="M19 721 C31 713 38 689 38 661 L38 35 C38 24 30 20 19 20 L19 0 L142 0 L142 20 C131 20 123 24 123 35 L123 376 C156 419 243 450 330 450 C415 450 464 400 464 330 L464 35 C464 24 456 20 445 20 L445 0 L568 0 L568 20 C557 20 549 24 549 35 L549 330 C549 434 487 510 379 510 C286 510 178 458 123 385 L123 750 L81 750 C69 747 54 743 40 739 L37 739 L37 738 C30 736 23 734 17 732 L19 721 L19 721 Z " />
<glyph glyph-name="i" unicode="i" horiz-adv-x="182" d="M91 615 C123 615 146 638 146 670 C146 702 123 725 91 725 C59 725 36 702 36 670 C36 638 59 615 91 615 L91 615 Z M29 471 C41 463 48 439 48 411 L48 35 C48 24 40 20 29 20 L29 0 L152 0 L152 20 C141 20 133 24 133 35 L133 500 L91 500 C79 497 64 493 50 489 L47 489 L47 488 C40 486 33 484 27 482 L29 471 L29 471 Z " />
<glyph glyph-name="j" unicode="j" horiz-adv-x="224" d="M92 614 C124 614 147 637 147 669 C147 701 124 724 92 724 C60 724 37 701 37 669 C37 637 60 614 92 614 L92 614 Z M30 471 C42 463 49 439 49 411 L49 50 C49 -35 30 -108 4 -123 C-28 -123 -74 -100 -106 -100 C-132 -100 -151 -117 -151 -140 C-151 -168 -126 -187 -91 -185 C-85 -185 -41 -162 14 -130 C84 -90 134 -14 134 50 L134 500 L92 500 C80 497 65 493 51 489 L48 489 L48 488 C41 486 34 484 28 482 L30 471 L30 471 Z " />
<glyph glyph-name="k" unicode="k" horiz-adv-x="582" d="M559 19 C558 19 551 24 541 32 L215 317 L388 413 L390 413 C463 454 519 478 546 478 L546 498 L541 498 L543 499 L518 499 L516 498 L389 498 L389 478 L403 478 C442 478 418 448 346 403 L123 279 L123 749 L81 749 C69 746 54 742 40 738 L37 738 L37 737 C30 735 23 733 17 731 L17 719 C29 711 36 687 36 659 L36 33 C36 22 28 18 17 18 L17 -2 L140 -2 L140 18 C129 18 121 22 121 33 L121 278 L386 57 L385 57 C413 34 433 17 433 17 C436 1 438 -1 439 -3 L577 -3 C577 -3 577 -3 576 -2 L577 -2 C573 2 560 16 558 17 L559 19 L559 19 Z M518 -3 L517 -2 L518 -3 L518 -3 Z " />
<glyph glyph-name="l" unicode="l" horiz-adv-x="172" d="M19 721 C31 713 38 689 38 661 L38 35 C38 24 30 20 19 20 L19 0 L142 0 L142 20 C131 20 123 24 123 35 L123 750 L81 750 C69 747 54 743 40 739 L37 739 L37 738 C30 736 23 734 17 732 L19 721 L19 721 Z " />
<glyph glyph-name="m" unicode="m" horiz-adv-x="980" d="M19 471 C31 463 38 439 38 411 L38 35 C38 24 30 20 19 20 L19 0 L142 0 L142 20 C131 20 123 24 123 35 L123 381 C152 419 231 447 310 447 C402 447 442 398 442 330 L442 35 C442 24 434 20 423 20 L423 0 L546 0 L546 20 C535 20 527 24 527 35 L527 330 C527 348 525 365 522 381 C551 419 632 447 714 447 C806 447 846 398 846 330 L846 34 C846 23 838 19 827 19 L827 -1 L950 -1 L950 19 C939 19 931 23 931 34 L931 330 C931 434 876 510 749 510 C670 510 575 460 522 390 L522 381 C506 458 450 510 345 510 C269 510 176 460 123 390 L123 500 L81 500 C69 497 54 493 40 489 L37 489 L37 488 C30 486 23 484 17 482 L19 471 L19 471 Z " />
<glyph glyph-name="n" unicode="n" horiz-adv-x="576" d="M19 471 C31 463 38 439 38 411 L38 35 C38 24 30 20 19 20 L19 0 L142 0 L142 20 C131 20 123 24 123 35 L123 362 C170 423 252 468 318 468 C397 468 442 402 442 311 L442 35 C442 24 434 20 423 20 L423 0 L546 0 L546 20 C535 20 527 24 527 35 L527 311 C527 426 461 510 345 510 C275 510 182 454 123 376 L123 500 L81 500 C69 497 54 493 40 489 L37 489 L37 488 C30 486 23 484 17 482 L19 471 L19 471 Z " />
<glyph glyph-name="o" unicode="o" horiz-adv-x="703" d="M139 250 C139 397 228 503 352 503 C475 503 564 397 564 250 C564 103 475 -3 352 -3 C228 -3 139 103 139 250 L139 250 Z M45 250 C45 99 174 -10 352 -10 C529 -10 658 99 658 250 C658 401 529 510 352 510 C174 510 45 401 45 250 L45 250 Z " />
<glyph glyph-name="p" unicode="p" horiz-adv-x="646" d="M4 471 C16 463 23 439 23 411 L23 -185 C23 -196 15 -200 4 -200 L4 -220 L127 -220 L127 -200 C116 -200 108 -196 108 -185 L108 38 C153 11 212 -5 276 -5 C465 -5 601 120 601 257 C601 404 477 510 305 510 C222 510 143 481 108 439 L108 500 L66 500 C54 497 39 493 25 489 L22 489 L22 488 C15 486 8 484 2 482 L4 471 L4 471 Z M106 129 L106 404 C139 445 202 474 264 474 C404 474 506 371 506 229 C506 117 411 15 279 15 C199 15 126 63 106 129 L106 129 Z " />
<glyph glyph-name="q" unicode="q" horiz-adv-x="595" d="M590 -200 C579 -200 571 -196 571 -185 L571 500 L566 500 L538 440 L533 435 C488 480 412 509 329 509 C139 509 31 400 31 250 C31 102 144 -6 301 -6 C380 -6 454 21 487 60 L487 -186 C487 -197 479 -201 468 -201 L468 -221 L591 -221 L590 -200 L590 -200 Z M487 388 L487 90 C458 55 398 30 337 30 C211 30 120 133 120 275 C120 400 194 491 325 491 C396 491 462 448 488 388 L487 388 L487 388 Z " />
<glyph glyph-name="r" unicode="r" horiz-adv-x="482" d="M20 471 C32 463 39 439 39 411 L39 35 C39 24 31 20 20 20 L20 0 L143 0 L143 20 C132 20 124 24 124 35 L124 373 C164 429 234 469 294 469 C339 469 372 454 372 434 C372 405 393 384 422 384 C451 384 472 405 472 434 C472 478 414 509 334 509 C261 509 174 458 124 385 L124 499 L82 499 C70 496 55 492 41 488 L38 488 L38 487 C31 485 24 483 18 481 L20 471 L20 471 Z " />
<glyph glyph-name="s" unicode="s" horiz-adv-x="518" d="M335 500 L334 498 C306 506 274 510 241 510 C135 510 59 455 59 380 C59 316 129 251 252 218 C348 192 402 148 402 106 C402 42 347 -5 270 -5 C235 -5 200 4 169 20 C132 39 93 82 78 122 L74 131 L60 131 L60 45 L74 45 L77 48 C77 48 139 21 163 9 L163 9 C195 -3 232 -10 270 -10 C385 -10 468 49 468 130 C468 190 403 251 289 282 C181 311 119 362 119 409 C119 465 170 505 241 505 C273 505 304 499 331 488 L331 488 C376 470 414 431 428 388 L442 388 L442 464 L429 464 L425 463 C428 464 398 476 354 492 C354 491 336 499 334 500 L335 500 L335 500 Z " />
<glyph glyph-name="t" unicode="t" horiz-adv-x="434" d="M389 500 L191 500 L191 620 L185 620 L41 466 L41 456 L106 456 L106 160 C106 42 173 -10 265 -10 C335 -10 402 35 424 96 L414 100 C399 59 348 30 291 30 C232 30 189 64 189 141 L191 455 L389 455 L389 500 L389 500 Z " />
<glyph glyph-name="u" unicode="u" horiz-adv-x="641" d="M576 11 L579 11 L579 12 C589 15 599 18 608 20 L608 40 C589 35 579 49 579 82 L579 500 L537 500 L537 501 L475 501 L475 481 C486 481 494 477 494 466 L494 132 C466 83 381 49 284 49 C199 49 137 101 137 173 L137 500 L33 500 L33 480 C44 480 52 476 52 465 L52 173 C52 67 133 -10 244 -10 C354 -10 456 45 493 123 L493 -1 L536 -1 C546 4 562 6 575 10 L576 11 L576 11 Z " />
<glyph glyph-name="v" unicode="v" horiz-adv-x="585" d="M543 500 L476 500 L476 480 C482 480 477 463 465 436 L303 91 L145 439 C134 465 130 481 136 481 L136 501 L14 501 L14 481 C27 481 42 460 58 426 L58 426 L256 -9 L281 -9 C353 136 425 281 497 426 C514 460 530 481 543 481 L543 500 L543 500 Z " />
<glyph glyph-name="w" unicode="w" horiz-adv-x="898" d="M138 500 L14 500 L14 480 C26 480 39 464 53 436 L254 -10 L279 -10 L447 315 L582 -10 L607 -10 L825 436 C840 464 854 481 866 481 L866 501 L798 501 L798 481 C804 481 801 467 792 444 L634 99 L494 435 C484 462 480 479 487 479 L487 499 L362 499 L362 479 C375 479 390 458 404 424 L404 424 C414 399 425 373 434 348 L306 89 C256 200 205 312 155 423 C141 456 134 478 141 478 L138 500 L138 500 Z " />
<glyph glyph-name="x" unicode="x" horiz-adv-x="607" d="M551 500 L493 500 L493 480 C493 480 472 457 442 425 L442 425 L315 288 L173 452 C158 469 149 480 150 480 L150 500 L25 500 L25 480 C38 480 62 459 92 425 L92 425 L253 239 L91 75 C58 42 31 20 18 20 C18 19 17 5 17 0 L75 0 L75 20 L269 222 L419 49 C434 32 443 21 442 21 L442 1 L567 1 L567 21 C554 21 530 42 500 76 L500 76 L332 270 C382 322 431 374 481 426 C513 460 539 481 552 481 L551 500 L551 500 Z " />
<glyph glyph-name="y" unicode="y" horiz-adv-x="641" d="M163 500 L45 500 L45 480 C57 480 74 462 93 433 L371 -2 C351 -53 332 -105 313 -157 C305 -179 290 -195 286 -195 C264 -195 258 -166 236 -166 C210 -166 191 -185 191 -211 C191 -240 212 -261 241 -261 C266 -261 313 -222 334 -168 L394 -11 C449 139 504 288 559 437 C571 464 581 479 594 479 L594 499 L524 499 L524 479 L526 479 C532 479 528 456 518 424 L518 424 L408 88 L193 424 C173 456 160 478 165 478 L163 500 L163 500 Z " />
<glyph glyph-name="z" unicode="z" horiz-adv-x="565" d="M62 487 L62 488 L62 487 L62 487 Z M61 485 C61 485 53 457 43 418 L62 418 L69 426 C89 450 135 469 180 473 L419 478 L40 20 L40 0 L520 0 L520 15 L522 15 C522 15 525 43 529 82 L510 82 L504 74 C488 50 445 31 400 28 L149 23 L526 481 L526 501 L72 501 L72 486 L61 485 L61 485 Z M62 487 L63 488 L62 487 L62 487 Z " />
<glyph glyph-name="bar" unicode="&#x7c;" horiz-adv-x="186" d="M60 800 L60 -250 L126 -250 L126 800 L60 800 L60 800 Z " />
<glyph glyph-name="asciitilde" unicode="&#x7e;" horiz-adv-x="452" d="M20 310 C20 345 48 370 87 370 C161 370 267 305 341 305 C396 305 436 355 436 425 L432 425 C432 390 402 365 361 365 C287 365 180 430 106 430 C54 430 16 380 16 310 L20 310 L20 310 Z " />
<glyph glyph-name="exclamdown" unicode="&#xa1;" horiz-adv-x="244" d="M122 505 C87 505 62 480 62 445 C62 410 87 385 122 385 C157 385 182 410 182 445 C182 480 157 505 122 505 L122 505 Z M122 -255 C161 -255 180 -211 174 -150 C174 -150 130 162 130 290 L114 290 C114 162 70 -150 70 -150 C64 -211 83 -255 122 -255 L122 -255 Z " />
<glyph glyph-name="cent" unicode="&#xa2;" horiz-adv-x="615" d="M328 575 L328 509 C162 497 45 386 45 236 C45 95 164 -7 328 -10 L328 -75 L358 -75 L358 -9 C458 -2 551 53 584 127 L581 128 C552 62 459 13 357 10 L357 504 C418 503 478 461 499 404 C508 380 526 362 542 362 C575 362 593 380 584 404 C562 465 466 509 357 509 L357 574 L328 575 L328 575 Z M327 11 C213 22 132 128 132 272 C132 397 213 489 327 502 L327 11 L327 11 Z " />
<glyph glyph-name="acute" unicode="&#xb4;" horiz-adv-x="452" d="M234 562 L376 682 C413 714 440 740 440 746 C440 768 420 788 398 788 C392 788 368 760 337 721 L223 573 L234 562 L234 562 Z " />
<glyph glyph-name="questiondown" unicode="&#xbf;" horiz-adv-x="299" d="M174 505 C139 505 114 480 114 445 C114 410 139 385 174 385 C209 385 234 410 234 445 C234 480 209 505 174 505 L174 505 Z M174 290 L174 140 C84 140 47 105 14 56 C-3 30 -16 -16 -16 -55 C-16 -174 55 -260 154 -260 C200 -260 234 -234 234 -197 C234 -173 215 -155 188 -155 C169 -155 142 -170 123 -170 C57 -170 10 -118 10 -45 C10 -30 20 -5 33 15 C51 41 81 60 202 60 C194 63 189 290 189 290 L174 290 L174 290 Z M202 60 L202 60 L202 60 L202 60 Z " />
<glyph glyph-name="Agrave" unicode="&#xc0;" horiz-adv-x="754" d="M117 125 L117 125 L180 293 L489 293 C510 237 532 180 552 125 C574 67 562 25 523 25 L511 25 L511 0 L745 0 L745 25 L737 25 C713 25 679 67 657 125 L657 125 L426 720 C426 720 413 770 407 770 L397 770 C401 747 371 726 326 720 L330 710 L110 125 C88 67 41 25 -3 25 L-17 25 L-17 0 L159 0 L159 25 L147 25 C108 25 95 67 117 125 L117 125 Z M172 996 C172 988 199 963 236 932 L378 812 L389 823 L275 971 C246 1010 221 1038 214 1038 C192 1038 172 1018 172 996 L172 996 Z M182 300 L332 703 L485 300 L182 300 L182 300 Z " />
<glyph glyph-name="Aacute" unicode="&#xc1;" horiz-adv-x="754" d="M384 812 L526 932 C563 964 590 990 590 996 C590 1018 570 1038 548 1038 C542 1038 518 1010 487 971 L373 823 L384 812 L384 812 Z M117 125 L117 125 L180 293 L489 293 C510 237 532 180 552 125 C574 67 562 25 523 25 L511 25 L511 0 L745 0 L745 25 L737 25 C713 25 679 67 657 125 L657 125 L426 720 C426 720 413 770 407 770 L397 770 C401 747 371 726 326 720 L330 710 L110 125 C88 67 41 25 -3 25 L-17 25 L-17 0 L159 0 L159 25 L147 25 C108 25 95 67 117 125 L117 125 Z M182 300 L332 703 L485 300 L182 300 L182 300 Z " />
<glyph glyph-name="Acircumflex" unicode="&#xc2;" horiz-adv-x="754" d="M117 125 L117 125 L180 293 L489 293 C510 237 532 180 552 125 C574 67 562 25 523 25 L511 25 L511 0 L745 0 L745 25 L737 25 C713 25 679 67 657 125 L657 125 L426 720 C426 720 413 770 407 770 L397 770 C401 747 371 726 326 720 L330 710 L110 125 C88 67 41 25 -3 25 L-17 25 L-17 0 L159 0 L159 25 L147 25 C108 25 95 67 117 125 L117 125 Z M406 1005 C400 1014 385 1035 376 1035 C367 1035 352 1014 346 1005 L224 816 L236 806 L376 945 L516 806 L528 816 L406 1005 L406 1005 Z M182 300 L332 703 L485 300 L182 300 L182 300 Z " />
<glyph glyph-name="Atilde" unicode="&#xc3;" horiz-adv-x="754" d="M170 870 C170 905 198 930 237 930 C311 930 417 865 491 865 C546 865 586 915 586 985 L582 985 C582 950 552 925 511 925 C437 925 330 990 256 990 C204 990 166 940 166 870 L170 870 L170 870 Z M117 125 L117 125 L180 293 L489 293 C510 237 532 180 552 125 C574 67 562 25 523 25 L511 25 L511 0 L745 0 L745 25 L737 25 C713 25 679 67 657 125 L657 125 L426 720 C426 720 413 770 407 770 L397 770 C401 747 371 726 326 720 L330 710 L110 125 C88 67 41 25 -3 25 L-17 25 L-17 0 L159 0 L159 25 L147 25 C108 25 95 67 117 125 L117 125 Z M182 300 L332 703 L485 300 L182 300 L182 300 Z " />
<glyph glyph-name="Adieresis" unicode="&#xc4;" horiz-adv-x="754" d="M458 865 C490 865 513 888 513 920 C513 952 490 975 458 975 C426 975 403 952 403 920 C403 888 426 865 458 865 L458 865 Z M294 865 C326 865 349 888 349 920 C349 952 326 975 294 975 C262 975 239 952 239 920 C239 888 262 865 294 865 L294 865 Z M117 125 L117 125 L180 293 L489 293 C510 237 532 180 552 125 C574 67 562 25 523 25 L511 25 L511 0 L745 0 L745 25 L737 25 C713 25 679 67 657 125 L657 125 L426 720 C426 720 413 770 407 770 L397 770 C401 747 371 726 326 720 L330 710 L110 125 C88 67 41 25 -3 25 L-17 25 L-17 0 L159 0 L159 25 L147 25 C108 25 95 67 117 125 L117 125 Z M182 300 L332 703 L485 300 L182 300 L182 300 Z " />
<glyph glyph-name="Aring" unicode="&#xc5;" horiz-adv-x="754" d="M304 905 C304 949 334 980 376 980 C418 980 449 949 449 905 C449 866 414 830 376 830 C338 830 304 866 304 905 L304 905 Z M279 905 C279 855 325 810 376 810 C427 810 474 855 474 905 C474 960 433 1000 376 1000 C320 1000 279 960 279 905 L279 905 Z M117 125 L117 125 L180 293 L489 293 C510 237 532 180 552 125 C574 67 562 25 523 25 L511 25 L511 0 L745 0 L745 25 L737 25 C713 25 679 67 657 125 L657 125 L426 720 C426 720 413 770 407 770 L397 770 C401 747 371 726 326 720 L330 710 L110 125 C88 67 41 25 -3 25 L-17 25 L-17 0 L159 0 L159 25 L147 25 C108 25 95 67 117 125 L117 125 Z M182 300 L332 703 L485 300 L182 300 L182 300 Z " />
<glyph glyph-name="Egrave" unicode="&#xc8;" horiz-adv-x="673" d="M144 996 C144 988 171 963 208 932 L350 812 L361 823 L247 971 C218 1010 193 1038 186 1038 C164 1038 144 1018 144 996 L144 996 Z M624 0 C624 4 636 74 638 84 L621 84 L615 72 C594 33 535 5 474 5 L279 5 C209 5 199 37 199 80 L199 385 L413 385 C459 385 503 353 517 309 L521 296 L538 296 L538 385 L539 385 L539 391 L538 391 L538 480 L521 480 L517 467 C503 423 459 391 413 391 L199 391 L199 745 L474 745 C521 745 569 713 588 669 L594 656 L611 656 C607 683 602 721 599 748 L599 750 L40 750 L40 730 L49 730 C78 730 99 701 99 660 L99 90 C99 49 78 20 49 20 L40 20 L40 0 L624 0 L624 0 Z " />
<glyph glyph-name="Eacute" unicode="&#xc9;" horiz-adv-x="673" d="M356 812 L498 932 C535 964 562 990 562 996 C562 1018 542 1038 520 1038 C514 1038 490 1010 459 971 L345 823 L356 812 L356 812 Z M624 0 C624 4 636 74 638 84 L621 84 L615 72 C594 33 535 5 474 5 L279 5 C209 5 199 37 199 80 L199 385 L413 385 C459 385 503 353 517 309 L521 296 L538 296 L538 385 L539 385 L539 391 L538 391 L538 480 L521 480 L517 467 C503 423 459 391 413 391 L199 391 L199 745 L474 745 C521 745 569 713 588 669 L594 656 L611 656 C607 683 602 721 599 748 L599 750 L40 750 L40 730 L49 730 C78 730 99 701 99 660 L99 90 C99 49 78 20 49 20 L40 20 L40 0 L624 0 L624 0 Z " />
<glyph glyph-name="Ecircumflex" unicode="&#xca;" horiz-adv-x="673" d="M378 1005 C372 1014 357 1035 348 1035 C339 1035 324 1014 318 1005 L196 816 L208 806 L348 945 L488 806 L500 816 L378 1005 L378 1005 Z M624 0 C624 4 636 74 638 84 L621 84 L615 72 C594 33 535 5 474 5 L279 5 C209 5 199 37 199 80 L199 385 L413 385 C459 385 503 353 517 309 L521 296 L538 296 L538 385 L539 385 L539 391 L538 391 L538 480 L521 480 L517 467 C503 423 459 391 413 391 L199 391 L199 745 L474 745 C521 745 569 713 588 669 L594 656 L611 656 C607 683 602 721 599 748 L599 750 L40 750 L40 730 L49 730 C78 730 99 701 99 660 L99 90 C99 49 78 20 49 20 L40 20 L40 0 L624 0 L624 0 Z " />
<glyph glyph-name="Edieresis" unicode="&#xcb;" horiz-adv-x="673" d="M430 865 C462 865 485 888 485 920 C485 952 462 975 430 975 C398 975 375 952 375 920 C375 888 398 865 430 865 L430 865 Z M266 865 C298 865 321 888 321 920 C321 952 298 975 266 975 C234 975 211 952 211 920 C211 888 234 865 266 865 L266 865 Z M624 0 C624 4 636 74 638 84 L621 84 L615 72 C594 33 535 5 474 5 L279 5 C209 5 199 37 199 80 L199 385 L413 385 C459 385 503 353 517 309 L521 296 L538 296 L538 385 L539 385 L539 391 L538 391 L538 480 L521 480 L517 467 C503 423 459 391 413 391 L199 391 L199 745 L474 745 C521 745 569 713 588 669 L594 656 L611 656 C607 683 602 721 599 748 L599 750 L40 750 L40 730 L49 730 C78 730 99 701 99 660 L99 90 C99 49 78 20 49 20 L40 20 L40 0 L624 0 L624 0 Z " />
<glyph glyph-name="Igrave" unicode="&#xcc;" horiz-adv-x="293" d="M-60 996 C-60 988 -33 963 4 932 L146 812 L157 823 L43 971 C14 1010 -11 1038 -18 1038 C-40 1038 -60 1018 -60 996 L-60 996 Z M233 20 C209 20 194 37 194 70 L194 680 C194 713 209 730 233 730 L233 750 L55 750 L55 730 C79 730 94 713 94 680 L94 70 C94 37 79 20 55 20 L55 0 L233 0 L233 20 L233 20 Z " />
<glyph glyph-name="Iacute" unicode="&#xcd;" horiz-adv-x="293" d="M152 812 L294 932 C331 964 358 990 358 996 C358 1018 338 1038 316 1038 C310 1038 286 1010 255 971 L141 823 L152 812 L152 812 Z M233 20 C209 20 194 37 194 70 L194 680 C194 713 209 730 233 730 L233 750 L55 750 L55 730 C79 730 94 713 94 680 L94 70 C94 37 79 20 55 20 L55 0 L233 0 L233 20 L233 20 Z " />
<glyph glyph-name="Icircumflex" unicode="&#xce;" horiz-adv-x="293" d="M174 1005 C168 1014 153 1035 144 1035 C135 1035 120 1014 114 1005 L-8 816 L4 806 L144 945 L284 806 L296 816 L174 1005 L174 1005 Z M233 20 C209 20 194 37 194 70 L194 680 C194 713 209 730 233 730 L233 750 L55 750 L55 730 C79 730 94 713 94 680 L94 70 C94 37 79 20 55 20 L55 0 L233 0 L233 20 L233 20 Z " />
<glyph glyph-name="Idieresis" unicode="&#xcf;" horiz-adv-x="293" d="M226 865 C258 865 281 888 281 920 C281 952 258 975 226 975 C194 975 171 952 171 920 C171 888 194 865 226 865 L226 865 Z M62 865 C94 865 117 888 117 920 C117 952 94 975 62 975 C30 975 7 952 7 920 C7 888 30 865 62 865 L62 865 Z M233 20 C209 20 194 37 194 70 L194 680 C194 713 209 730 233 730 L233 750 L55 750 L55 730 C79 730 94 713 94 680 L94 70 C94 37 79 20 55 20 L55 0 L233 0 L233 20 L233 20 Z " />
<glyph glyph-name="Ntilde" unicode="&#xd1;" horiz-adv-x="806" d="M194 870 C194 905 222 930 260 930 C334 930 440 865 514 865 C569 865 609 915 609 985 L605 985 C605 950 575 925 534 925 C460 925 354 990 280 990 C228 990 190 940 190 870 L194 870 L194 870 Z M-4 730 C21 730 46 715 74 686 L93 665 L92 70 C92 37 77 20 53 20 L53 0 L161 0 L161 20 C137 20 122 37 122 70 L122 70 L119 636 C306 424 493 212 680 0 L700 0 L707 687 C710 716 724 730 747 730 L747 750 L639 750 L639 730 C663 730 678 713 678 680 L678 680 L679 152 C500 351 321 550 142 749 L-4 749 L-4 730 L-4 730 Z " />
<glyph glyph-name="Ograve" unicode="&#xd2;" horiz-adv-x="963" d="M159 375 C159 594 291 753 473 753 C663 753 800 594 800 375 C800 156 659 -3 465 -3 C288 -3 159 156 159 375 L159 375 Z M50 375 C50 152 224 -10 464 -10 C722 -10 908 152 908 375 C908 598 726 760 474 760 C228 760 50 598 50 375 L50 375 Z M270 996 C270 988 297 963 334 932 L476 812 L487 823 L373 971 C344 1010 319 1038 312 1038 C290 1038 270 1018 270 996 L270 996 Z " />
<glyph glyph-name="Oacute" unicode="&#xd3;" horiz-adv-x="963" d="M482 812 L624 932 C661 964 688 990 688 996 C688 1018 668 1038 646 1038 C640 1038 616 1010 585 971 L471 823 L482 812 L482 812 Z M159 375 C159 594 291 753 473 753 C663 753 800 594 800 375 C800 156 659 -3 465 -3 C288 -3 159 156 159 375 L159 375 Z M50 375 C50 152 224 -10 464 -10 C722 -10 908 152 908 375 C908 598 726 760 474 760 C228 760 50 598 50 375 L50 375 Z " />
<glyph glyph-name="Ocircumflex" unicode="&#xd4;" horiz-adv-x="963" d="M159 375 C159 594 291 753 473 753 C663 753 800 594 800 375 C800 156 659 -3 465 -3 C288 -3 159 156 159 375 L159 375 Z M50 375 C50 152 224 -10 464 -10 C722 -10 908 152 908 375 C908 598 726 760 474 760 C228 760 50 598 50 375 L50 375 Z M504 1005 C498 1014 483 1035 474 1035 C465 1035 450 1014 444 1005 L322 816 L334 806 L474 945 L614 806 L626 816 L504 1005 L504 1005 Z " />
<glyph glyph-name="Otilde" unicode="&#xd5;" horiz-adv-x="963" d="M268 870 C268 905 296 930 335 930 C409 930 515 865 589 865 C644 865 684 915 684 985 L680 985 C680 950 650 925 609 925 C535 925 428 990 354 990 C302 990 264 940 264 870 L268 870 L268 870 Z M159 375 C159 594 291 753 473 753 C663 753 800 594 800 375 C800 156 659 -3 465 -3 C288 -3 159 156 159 375 L159 375 Z M50 375 C50 152 224 -10 464 -10 C722 -10 908 152 908 375 C908 598 726 760 474 760 C228 760 50 598 50 375 L50 375 Z " />
<glyph glyph-name="Odieresis" unicode="&#xd6;" horiz-adv-x="963" d="M556 865 C588 865 611 888 611 920 C611 952 588 975 556 975 C524 975 501 952 501 920 C501 888 524 865 556 865 L556 865 Z M392 865 C424 865 447 888 447 920 C447 952 424 975 392 975 C360 975 337 952 337 920 C337 888 360 865 392 865 L392 865 Z M159 375 C159 594 291 753 473 753 C663 753 800 594 800 375 C800 156 659 -3 465 -3 C288 -3 159 156 159 375 L159 375 Z M50 375 C50 152 224 -10 464 -10 C722 -10 908 152 908 375 C908 598 726 760 474 760 C228 760 50 598 50 375 L50 375 Z " />
<glyph glyph-name="Oslash" unicode="&#xd8;" horiz-adv-x="963" d="M54 -14 C54 -14 97 24 174 93 C247 28 348 -10 465 -10 C723 -10 909 152 909 375 C909 484 865 579 791 647 C831 682 872 718 914 755 L906 763 C864 726 823 689 783 653 C706 719 599 758 475 758 C229 758 51 596 51 373 C51 263 94 167 166 99 C90 31 47 -7 47 -7 L54 -14 L54 -14 Z M735 610 C519 416 339 254 217 145 C181 207 160 285 160 373 C160 592 292 751 474 751 C584 751 676 697 734 609 L735 610 L735 610 Z M740 599 C778 537 800 459 800 372 C800 153 659 -6 465 -6 C363 -6 277 47 222 134 C343 243 523 405 739 599 L740 599 L740 599 Z " />
<glyph glyph-name="Ugrave" unicode="&#xd9;" horiz-adv-x="780" d="M184 996 C184 988 211 963 248 932 L390 812 L400 823 L287 971 C258 1010 234 1038 226 1038 C204 1038 184 1018 184 996 L184 996 Z M750 44 C728 37 711 49 711 83 L711 750 L572 750 L572 730 C596 730 611 713 611 680 L611 208 C569 119 466 54 366 54 C249 54 164 131 164 238 L164 750 L25 750 L25 730 C49 730 64 713 64 680 L64 238 C64 94 174 -10 326 -10 C445 -10 564 63 611 163 L611 0 L661 0 L711 13 C711 16 748 24 750 25 L750 44 L750 44 Z " />
<glyph glyph-name="Uacute" unicode="&#xda;" horiz-adv-x="780" d="M395 812 L537 932 C574 964 601 990 601 996 C601 1018 581 1038 559 1038 C553 1038 528 1010 498 971 L385 823 L395 812 L395 812 Z M750 44 C728 37 711 49 711 83 L711 750 L572 750 L572 730 C596 730 611 713 611 680 L611 208 C569 119 466 54 366 54 C249 54 164 131 164 238 L164 750 L25 750 L25 730 C49 730 64 713 64 680 L64 238 C64 94 174 -10 326 -10 C445 -10 564 63 611 163 L611 0 L661 0 L711 13 C711 16 748 24 750 25 L750 44 L750 44 Z " />
<glyph glyph-name="Ucircumflex" unicode="&#xdb;" horiz-adv-x="780" d="M418 1005 C412 1014 397 1035 388 1035 C379 1035 364 1014 358 1005 L236 816 L247 806 L387 945 L528 806 L539 816 L418 1005 L418 1005 Z M750 44 C728 37 711 49 711 83 L711 750 L572 750 L572 730 C596 730 611 713 611 680 L611 208 C569 119 466 54 366 54 C249 54 164 131 164 238 L164 750 L25 750 L25 730 C49 730 64 713 64 680 L64 238 C64 94 174 -10 326 -10 C445 -10 564 63 611 163 L611 0 L661 0 L711 13 C711 16 748 24 750 25 L750 44 L750 44 Z " />
<glyph glyph-name="Udieresis" unicode="&#xdc;" horiz-adv-x="780" d="M469 865 C501 865 524 888 524 920 C524 952 501 975 469 975 C437 975 414 952 414 920 C414 888 437 865 469 865 L469 865 Z M306 865 C338 865 361 888 361 920 C361 952 338 975 306 975 C274 975 251 952 251 920 C251 888 274 865 306 865 L306 865 Z M750 44 C728 37 711 49 711 83 L711 750 L572 750 L572 730 C596 730 611 713 611 680 L611 208 C569 119 466 54 366 54 C249 54 164 131 164 238 L164 750 L25 750 L25 730 C49 730 64 713 64 680 L64 238 C64 94 174 -10 326 -10 C445 -10 564 63 611 163 L611 0 L661 0 L711 13 C711 16 748 24 750 25 L750 44 L750 44 Z " />
<glyph glyph-name="Yacute" unicode="&#xdd;" horiz-adv-x="756" d="M394 812 L536 932 C573 964 600 990 600 996 C600 1018 580 1038 558 1038 C552 1038 528 1010 497 971 L383 823 L394 812 L394 812 Z M277 0 L495 0 L495 20 L486 20 C457 20 436 49 436 90 L436 336 L662 675 C685 710 715 730 747 730 L747 750 L619 750 L619 730 L630 730 C661 730 669 708 650 677 L432 344 C352 454 270 565 191 675 C168 707 167 730 189 730 L195 730 L195 750 L9 750 L9 730 C25 730 48 709 73 675 L73 675 L334 322 L334 90 C334 49 313 20 284 20 L275 20 L277 0 L277 0 Z " />
<glyph glyph-name="agrave" unicode="&#xe0;" horiz-adv-x="602" d="M612 103 L604 106 C599 77 574 56 544 56 C513 56 490 75 490 102 L490 355 C490 458 415 510 312 510 C169 510 65 412 65 360 C65 325 86 300 114 300 C140 300 159 326 159 343 C159 360 139 386 139 403 C139 438 208 503 304 503 C363 503 405 464 405 386 L405 266 C124 216 45 187 45 89 C45 32 105 -9 189 -9 C245 -9 322 20 405 86 C412 33 453 -4 507 -4 C556 -4 599 41 610 104 L612 103 L612 103 Z M106 747 C106 739 133 714 170 683 L312 563 L323 574 L209 722 C180 761 155 789 148 789 C126 789 106 769 106 747 L106 747 Z M403 262 L403 103 C403 99 403 95 403 91 C352 53 289 36 232 36 C172 36 128 62 128 98 C128 197 188 224 403 262 L403 262 Z " />
<glyph glyph-name="aacute" unicode="&#xe1;" horiz-adv-x="602" d="M320 562 L462 682 C499 714 526 740 526 746 C526 768 506 788 484 788 C478 788 454 760 423 721 L309 573 L320 562 L320 562 Z M612 103 L604 106 C599 77 574 56 544 56 C513 56 490 75 490 102 L490 355 C490 458 415 510 312 510 C169 510 65 412 65 360 C65 325 86 300 114 300 C140 300 159 326 159 343 C159 360 139 386 139 403 C139 438 208 503 304 503 C363 503 405 464 405 386 L405 266 C124 216 45 187 45 89 C45 32 105 -9 189 -9 C245 -9 322 20 405 86 C412 33 453 -4 507 -4 C556 -4 599 41 610 104 L612 103 L612 103 Z M403 262 L403 103 C403 99 403 95 403 91 C352 53 289 36 232 36 C172 36 128 62 128 98 C128 197 188 224 403 262 L403 262 Z " />
<glyph glyph-name="acircumflex" unicode="&#xe2;" horiz-adv-x="602" d="M612 103 L604 106 C599 77 574 56 544 56 C513 56 490 75 490 102 L490 355 C490 458 415 510 312 510 C169 510 65 412 65 360 C65 325 86 300 114 300 C140 300 159 326 159 343 C159 360 139 386 139 403 C139 438 208 503 304 503 C363 503 405 464 405 386 L405 266 C124 216 45 187 45 89 C45 32 105 -9 189 -9 C245 -9 322 20 405 86 C412 33 453 -4 507 -4 C556 -4 599 41 610 104 L612 103 L612 103 Z M340 756 C334 765 319 786 310 786 C301 786 286 765 280 756 L158 567 L170 557 L310 696 L450 557 L462 567 L340 756 L340 756 Z M403 262 L403 103 C403 99 403 95 403 91 C352 53 289 36 232 36 C172 36 128 62 128 98 C128 197 188 224 403 262 L403 262 Z " />
<glyph glyph-name="atilde" unicode="&#xe3;" horiz-adv-x="602" d="M106 620 C106 655 134 680 173 680 C247 680 353 615 427 615 C482 615 522 665 522 735 L518 735 C518 700 488 675 447 675 C373 675 266 740 192 740 C140 740 102 690 102 620 L106 620 L106 620 Z M612 103 L604 106 C599 77 574 56 544 56 C513 56 490 75 490 102 L490 355 C490 458 415 510 312 510 C169 510 65 412 65 360 C65 325 86 300 114 300 C140 300 159 326 159 343 C159 360 139 386 139 403 C139 438 208 503 304 503 C363 503 405 464 405 386 L405 266 C124 216 45 187 45 89 C45 32 105 -9 189 -9 C245 -9 322 20 405 86 C412 33 453 -4 507 -4 C556 -4 599 41 610 104 L612 103 L612 103 Z M403 262 L403 103 C403 99 403 95 403 91 C352 53 289 36 232 36 C172 36 128 62 128 98 C128 197 188 224 403 262 L403 262 Z " />
<glyph glyph-name="adieresis" unicode="&#xe4;" horiz-adv-x="602" d="M394 615 C426 615 449 638 449 670 C449 702 426 725 394 725 C362 725 339 702 339 670 C339 638 362 615 394 615 L394 615 Z M230 615 C262 615 285 638 285 670 C285 702 262 725 230 725 C198 725 175 702 175 670 C175 638 198 615 230 615 L230 615 Z M612 103 L604 106 C599 77 574 56 544 56 C513 56 490 75 490 102 L490 355 C490 458 415 510 312 510 C169 510 65 412 65 360 C65 325 86 300 114 300 C140 300 159 326 159 343 C159 360 139 386 139 403 C139 438 208 503 304 503 C363 503 405 464 405 386 L405 266 C124 216 45 187 45 89 C45 32 105 -9 189 -9 C245 -9 322 20 405 86 C412 33 453 -4 507 -4 C556 -4 599 41 610 104 L612 103 L612 103 Z M403 262 L403 103 C403 99 403 95 403 91 C352 53 289 36 232 36 C172 36 128 62 128 98 C128 197 188 224 403 262 L403 262 Z " />
<glyph glyph-name="aring" unicode="&#xe5;" horiz-adv-x="602" d="M240 655 C240 699 270 730 312 730 C354 730 385 699 385 655 C385 616 350 580 312 580 C274 580 240 616 240 655 L240 655 Z M215 655 C215 605 261 560 312 560 C363 560 410 605 410 655 C410 710 369 750 312 750 C256 750 215 710 215 655 L215 655 Z M612 103 L604 106 C599 77 574 56 544 56 C513 56 490 75 490 102 L490 355 C490 458 415 510 312 510 C169 510 65 412 65 360 C65 325 86 300 114 300 C140 300 159 326 159 343 C159 360 139 386 139 403 C139 438 208 503 304 503 C363 503 405 464 405 386 L405 266 C124 216 45 187 45 89 C45 32 105 -9 189 -9 C245 -9 322 20 405 86 C412 33 453 -4 507 -4 C556 -4 599 41 610 104 L612 103 L612 103 Z M403 262 L403 103 C403 99 403 95 403 91 C352 53 289 36 232 36 C172 36 128 62 128 98 C128 197 188 224 403 262 L403 262 Z " />
<glyph glyph-name="egrave" unicode="&#xe8;" horiz-adv-x="662" d="M164 746 C164 738 191 713 228 682 L370 562 L381 573 L267 721 C238 760 213 788 206 788 C184 788 164 768 164 746 L164 746 Z M143 340 L632 340 C611 458 504 510 368 510 C181 510 45 425 45 231 C45 91 168 -10 339 -10 C468 -10 584 50 614 134 L611 135 C585 64 474 13 347 13 C224 13 135 119 135 266 C135 293 138 318 143 340 L143 340 Z M537 346 L144 345 C171 455 256 505 367 505 C448 505 516 457 537 346 L537 346 Z " />
<glyph glyph-name="eacute" unicode="&#xe9;" horiz-adv-x="662" d="M376 562 L518 682 C555 714 582 740 582 746 C582 768 562 788 540 788 C534 788 510 760 479 721 L365 573 L376 562 L376 562 Z M143 340 L632 340 C611 458 504 510 368 510 C181 510 45 425 45 231 C45 91 168 -10 339 -10 C468 -10 584 50 614 134 L611 135 C585 64 474 13 347 13 C224 13 135 119 135 266 C135 293 138 318 143 340 L143 340 Z M537 346 L144 345 C171 455 256 505 367 505 C448 505 516 457 537 346 L537 346 Z " />
<glyph glyph-name="ecircumflex" unicode="&#xea;" horiz-adv-x="662" d="M398 755 C392 764 377 785 368 785 C359 785 344 764 338 755 L216 566 L228 556 L368 695 L508 556 L520 566 L398 755 L398 755 Z M143 340 L632 340 C611 458 504 510 368 510 C181 510 45 425 45 231 C45 91 168 -10 339 -10 C468 -10 584 50 614 134 L611 135 C585 64 474 13 347 13 C224 13 135 119 135 266 C135 293 138 318 143 340 L143 340 Z M537 346 L144 345 C171 455 256 505 367 505 C448 505 516 457 537 346 L537 346 Z " />
<glyph glyph-name="edieresis" unicode="&#xeb;" horiz-adv-x="662" d="M450 615 C482 615 505 638 505 670 C505 702 482 725 450 725 C418 725 395 702 395 670 C395 638 418 615 450 615 L450 615 Z M286 615 C318 615 341 638 341 670 C341 702 318 725 286 725 C254 725 231 702 231 670 C231 638 254 615 286 615 L286 615 Z M143 340 L632 340 C611 458 504 510 368 510 C181 510 45 425 45 231 C45 91 168 -10 339 -10 C468 -10 584 50 614 134 L611 135 C585 64 474 13 347 13 C224 13 135 119 135 266 C135 293 138 318 143 340 L143 340 Z M537 346 L144 345 C171 455 256 505 367 505 C448 505 516 457 537 346 L537 346 Z " />
<glyph glyph-name="igrave" unicode="&#xec;" horiz-adv-x="228" d="M-82 745 C-82 737 -55 712 -18 681 L124 561 L134 572 L21 720 C-8 759 -32 787 -40 787 C-62 787 -82 767 -82 745 L-82 745 Z M60 463 C70 465 79 464 79 452 L79 34 C79 23 71 19 60 19 L60 -1 L183 -1 L183 19 C172 19 164 23 164 34 L164 499 L122 499 C110 496 95 492 81 488 L78 488 L78 487 C71 485 64 483 58 481 L60 463 L60 463 Z " />
<glyph glyph-name="iacute" unicode="&#xed;" horiz-adv-x="228" d="M-82 745 C-82 737 -55 712 -18 681 L124 561 L134 572 L21 720 C-8 759 -32 787 -40 787 C-62 787 -82 767 -82 745 L-82 745 Z M60 463 C70 465 79 464 79 452 L79 34 C79 23 71 19 60 19 L60 -1 L183 -1 L183 19 C172 19 164 23 164 34 L164 499 L122 499 C110 496 95 492 81 488 L78 488 L78 487 C71 485 64 483 58 481 L60 463 L60 463 Z " />
<glyph glyph-name="icircumflex" unicode="&#xee;" horiz-adv-x="228" d="M152 754 C146 763 131 784 122 784 C113 784 98 763 92 754 L-30 565 L-19 555 L121 694 L262 555 L273 565 L152 754 L152 754 Z M60 463 C70 465 79 464 79 452 L79 34 C79 23 71 19 60 19 L60 -1 L183 -1 L183 19 C172 19 164 23 164 34 L164 499 L122 499 C110 496 95 492 81 488 L78 488 L78 487 C71 485 64 483 58 481 L60 463 L60 463 Z " />
<glyph glyph-name="idieresis" unicode="&#xef;" horiz-adv-x="228" d="M203 614 C235 614 258 637 258 669 C258 701 235 724 203 724 C171 724 148 701 148 669 C148 637 171 614 203 614 L203 614 Z M40 614 C72 614 95 637 95 669 C95 701 72 724 40 724 C8 724 -15 701 -15 669 C-15 637 8 614 40 614 L40 614 Z M60 463 C70 465 79 464 79 452 L79 34 C79 23 71 19 60 19 L60 -1 L183 -1 L183 19 C172 19 164 23 164 34 L164 499 L122 499 C110 496 95 492 81 488 L78 488 L78 487 C71 485 64 483 58 481 L60 463 L60 463 Z " />
<glyph glyph-name="ntilde" unicode="&#xf1;" horiz-adv-x="576" d="M77 619 C77 654 105 679 143 679 C217 679 323 614 397 614 C452 614 492 664 492 734 L488 734 C488 699 458 674 417 674 C343 674 237 739 163 739 C111 739 73 689 73 619 L77 619 L77 619 Z M19 471 C31 463 38 439 38 411 L38 35 C38 24 30 20 19 20 L19 0 L142 0 L142 20 C131 20 123 24 123 35 L123 362 C170 423 252 468 318 468 C397 468 442 402 442 311 L442 35 C442 24 434 20 423 20 L423 0 L546 0 L546 20 C535 20 527 24 527 35 L527 311 C527 426 461 510 345 510 C275 510 182 454 123 376 L123 500 L81 500 C69 497 54 493 40 489 L37 489 L37 488 C30 486 23 484 17 482 L19 471 L19 471 Z " />
<glyph glyph-name="ograve" unicode="&#xf2;" horiz-adv-x="703" d="M139 250 C139 397 228 503 352 503 C475 503 564 397 564 250 C564 103 475 -3 352 -3 C228 -3 139 103 139 250 L139 250 Z M45 250 C45 99 174 -10 352 -10 C529 -10 658 99 658 250 C658 401 529 510 352 510 C174 510 45 401 45 250 L45 250 Z M148 746 C148 738 175 713 212 682 L354 562 L365 573 L251 721 C222 760 197 788 190 788 C168 788 148 768 148 746 L148 746 Z " />
<glyph glyph-name="oacute" unicode="&#xf3;" horiz-adv-x="703" d="M360 562 L502 682 C539 714 566 740 566 746 C566 768 546 788 524 788 C518 788 494 760 463 721 L349 573 L360 562 L360 562 Z M139 250 C139 397 228 503 352 503 C475 503 564 397 564 250 C564 103 475 -3 352 -3 C228 -3 139 103 139 250 L139 250 Z M45 250 C45 99 174 -10 352 -10 C529 -10 658 99 658 250 C658 401 529 510 352 510 C174 510 45 401 45 250 L45 250 Z " />
<glyph glyph-name="ocircumflex" unicode="&#xf4;" horiz-adv-x="703" d="M139 250 C139 397 228 503 352 503 C475 503 564 397 564 250 C564 103 475 -3 352 -3 C228 -3 139 103 139 250 L139 250 Z M45 250 C45 99 174 -10 352 -10 C529 -10 658 99 658 250 C658 401 529 510 352 510 C174 510 45 401 45 250 L45 250 Z M382 755 C376 764 361 785 352 785 C343 785 328 764 322 755 L200 566 L212 556 L352 695 L492 556 L504 566 L382 755 L382 755 Z " />
<glyph glyph-name="otilde" unicode="&#xf5;" horiz-adv-x="703" d="M146 620 C146 655 174 680 213 680 C287 680 393 615 467 615 C522 615 562 665 562 735 L558 735 C558 700 528 675 487 675 C413 675 306 740 232 740 C180 740 142 690 142 620 L146 620 L146 620 Z M139 250 C139 397 228 503 352 503 C475 503 564 397 564 250 C564 103 475 -3 352 -3 C228 -3 139 103 139 250 L139 250 Z M45 250 C45 99 174 -10 352 -10 C529 -10 658 99 658 250 C658 401 529 510 352 510 C174 510 45 401 45 250 L45 250 Z " />
<glyph glyph-name="odieresis" unicode="&#xf6;" horiz-adv-x="703" d="M434 615 C466 615 489 638 489 670 C489 702 466 725 434 725 C402 725 379 702 379 670 C379 638 402 615 434 615 L434 615 Z M270 615 C302 615 325 638 325 670 C325 702 302 725 270 725 C238 725 215 702 215 670 C215 638 238 615 270 615 L270 615 Z M139 250 C139 397 228 503 352 503 C475 503 564 397 564 250 C564 103 475 -3 352 -3 C228 -3 139 103 139 250 L139 250 Z M45 250 C45 99 174 -10 352 -10 C529 -10 658 99 658 250 C658 401 529 510 352 510 C174 510 45 401 45 250 L45 250 Z " />
<glyph glyph-name="oslash" unicode="&#xf8;" horiz-adv-x="703" d="M48 -13 C48 -13 79 13 135 60 C189 15 265 -11 352 -11 C529 -11 658 98 658 249 C658 323 627 387 575 433 C603 457 632 481 661 506 L655 512 C625 487 596 462 568 438 C514 482 439 508 352 508 C174 508 45 399 45 248 C45 174 76 110 128 64 C73 17 42 -9 42 -9 L48 -13 L48 -13 Z M525 401 C381 278 260 175 175 103 C153 143 140 193 140 248 C140 395 229 501 353 501 C427 501 489 463 526 401 L525 401 L525 401 Z M530 394 C552 354 565 304 565 249 C565 102 476 -4 353 -4 C279 -4 217 34 179 96 C264 168 385 271 530 394 L530 394 Z " />
<glyph glyph-name="ugrave" unicode="&#xf9;" horiz-adv-x="605" d="M94 747 C94 739 121 714 158 683 L300 563 L310 574 L197 722 C168 761 144 789 136 789 C114 789 94 769 94 747 L94 747 Z M558 11 L561 11 L561 12 C571 15 581 18 590 20 L590 40 C571 35 561 49 561 82 L561 500 L519 500 L519 501 L457 501 L457 481 C468 481 476 477 476 466 L476 132 C448 83 363 49 266 49 C181 49 119 101 119 173 L119 500 L15 500 L15 480 C26 480 34 476 34 465 L34 173 C34 67 115 -10 226 -10 C336 -10 438 45 475 123 L475 -1 L518 -1 C528 4 544 6 557 10 L558 11 L558 11 Z " />
<glyph glyph-name="uacute" unicode="&#xfa;" horiz-adv-x="605" d="M305 563 L447 683 C484 715 511 741 511 747 C511 769 491 789 469 789 C463 789 438 761 408 722 L295 574 L305 563 L305 563 Z M558 11 L561 11 L561 12 C571 15 581 18 590 20 L590 40 C571 35 561 49 561 82 L561 500 L519 500 L519 501 L457 501 L457 481 C468 481 476 477 476 466 L476 132 C448 83 363 49 266 49 C181 49 119 101 119 173 L119 500 L15 500 L15 480 C26 480 34 476 34 465 L34 173 C34 67 115 -10 226 -10 C336 -10 438 45 475 123 L475 -1 L518 -1 C528 4 544 6 557 10 L558 11 L558 11 Z " />
<glyph glyph-name="ucircumflex" unicode="&#xfb;" horiz-adv-x="605" d="M328 756 C322 765 307 786 298 786 C289 786 274 765 268 756 L146 567 L157 557 L297 696 L438 557 L449 567 L328 756 L328 756 Z M558 11 L561 11 L561 12 C571 15 581 18 590 20 L590 40 C571 35 561 49 561 82 L561 500 L519 500 L519 501 L457 501 L457 481 C468 481 476 477 476 466 L476 132 C448 83 363 49 266 49 C181 49 119 101 119 173 L119 500 L15 500 L15 480 C26 480 34 476 34 465 L34 173 C34 67 115 -10 226 -10 C336 -10 438 45 475 123 L475 -1 L518 -1 C528 4 544 6 557 10 L558 11 L558 11 Z " />
<glyph glyph-name="udieresis" unicode="&#xfc;" horiz-adv-x="605" d="M379 616 C411 616 434 639 434 671 C434 703 411 726 379 726 C347 726 324 703 324 671 C324 639 347 616 379 616 L379 616 Z M216 616 C248 616 271 639 271 671 C271 703 248 726 216 726 C184 726 161 703 161 671 C161 639 184 616 216 616 L216 616 Z M558 11 L561 11 L561 12 C571 15 581 18 590 20 L590 40 C571 35 561 49 561 82 L561 500 L519 500 L519 501 L457 501 L457 481 C468 481 476 477 476 466 L476 132 C448 83 363 49 266 49 C181 49 119 101 119 173 L119 500 L15 500 L15 480 C26 480 34 476 34 465 L34 173 C34 67 115 -10 226 -10 C336 -10 438 45 475 123 L475 -1 L518 -1 C528 4 544 6 557 10 L558 11 L558 11 Z " />
<glyph glyph-name="ydieresis" unicode="&#xff;" horiz-adv-x="578" d="M398 615 C430 615 453 638 453 670 C453 702 430 725 398 725 C366 725 343 702 343 670 C343 638 366 615 398 615 L398 615 Z M234 615 C266 615 289 638 289 670 C289 702 266 725 234 725 C202 725 179 702 179 670 C179 638 202 615 234 615 L234 615 Z M136 500 L18 500 L18 480 C30 480 47 462 66 433 L344 -2 C324 -53 305 -105 286 -157 C278 -179 263 -195 259 -195 C237 -195 231 -166 209 -166 C183 -166 164 -185 164 -211 C164 -240 185 -261 214 -261 C239 -261 286 -222 307 -168 L367 -11 C422 139 477 288 532 437 C544 464 554 479 567 479 L567 499 L497 499 L497 479 L499 479 C505 479 501 456 491 424 L491 424 L381 88 L166 424 C146 456 133 478 138 478 L136 500 L136 500 Z " />
<glyph glyph-name="Amacron" unicode="&#x100;" horiz-adv-x="754" d="M159 895 L593 895 L593 954 L159 954 L159 895 L159 895 Z M117 125 L117 125 L180 293 L489 293 C510 237 532 180 552 125 C574 67 562 25 523 25 L511 25 L511 0 L745 0 L745 25 L737 25 C713 25 679 67 657 125 L657 125 L426 720 C426 720 413 770 407 770 L397 770 C401 747 371 726 326 720 L330 710 L110 125 C88 67 41 25 -3 25 L-17 25 L-17 0 L159 0 L159 25 L147 25 C108 25 95 67 117 125 L117 125 Z M182 300 L332 703 L485 300 L182 300 L182 300 Z " />
<glyph glyph-name="amacron" unicode="&#x101;" horiz-adv-x="602" d="M95 645 L529 645 L529 704 L95 704 L95 645 L95 645 Z M612 103 L604 106 C599 77 574 56 544 56 C513 56 490 75 490 102 L490 355 C490 458 415 510 312 510 C169 510 65 412 65 360 C65 325 86 300 114 300 C140 300 159 326 159 343 C159 360 139 386 139 403 C139 438 208 503 304 503 C363 503 405 464 405 386 L405 266 C124 216 45 187 45 89 C45 32 105 -9 189 -9 C245 -9 322 20 405 86 C412 33 453 -4 507 -4 C556 -4 599 41 610 104 L612 103 L612 103 Z M403 262 L403 103 C403 99 403 95 403 91 C352 53 289 36 232 36 C172 36 128 62 128 98 C128 197 188 224 403 262 L403 262 Z " />
<glyph glyph-name="Abreve" unicode="&#x102;" horiz-adv-x="754" d="M192 994 C198 922 276 870 376 870 C477 870 554 921 560 992 L542 995 C539 957 469 930 376 930 C283 930 213 958 210 997 L192 994 L192 994 Z M117 125 L117 125 L180 293 L489 293 C510 237 532 180 552 125 C574 67 562 25 523 25 L511 25 L511 0 L745 0 L745 25 L737 25 C713 25 679 67 657 125 L657 125 L426 720 C426 720 413 770 407 770 L397 770 C401 747 371 726 326 720 L330 710 L110 125 C88 67 41 25 -3 25 L-17 25 L-17 0 L159 0 L159 25 L147 25 C108 25 95 67 117 125 L117 125 Z M182 300 L332 703 L485 300 L182 300 L182 300 Z " />
<glyph glyph-name="abreve" unicode="&#x103;" horiz-adv-x="602" d="M128 744 C134 672 212 620 312 620 C413 620 490 671 496 742 L478 745 C475 707 405 680 312 680 C219 680 149 708 146 747 L128 744 L128 744 Z M612 103 L604 106 C599 77 574 56 544 56 C513 56 490 75 490 102 L490 355 C490 458 415 510 312 510 C169 510 65 412 65 360 C65 325 86 300 114 300 C140 300 159 326 159 343 C159 360 139 386 139 403 C139 438 208 503 304 503 C363 503 405 464 405 386 L405 266 C124 216 45 187 45 89 C45 32 105 -9 189 -9 C245 -9 322 20 405 86 C412 33 453 -4 507 -4 C556 -4 599 41 610 104 L612 103 L612 103 Z M403 262 L403 103 C403 99 403 95 403 91 C352 53 289 36 232 36 C172 36 128 62 128 98 C128 197 188 224 403 262 L403 262 Z " />
<glyph glyph-name="Cacute" unicode="&#x106;" horiz-adv-x="852" d="M480 812 L622 932 C659 964 686 990 686 996 C686 1018 666 1038 644 1038 C638 1038 614 1010 583 971 L469 823 L480 812 L480 812 Z M808 47 L808 175 L786 175 L776 157 C753 113 703 64 659 41 C605 13 540 -4 461 -4 C286 -4 160 155 160 375 C160 595 292 754 474 754 C555 754 615 738 664 711 C705 689 752 639 776 592 L786 574 L808 574 L808 699 L791 699 L786 691 C780 680 752 688 719 706 C663 739 587 759 471 759 C226 759 49 597 49 374 C49 151 221 -11 458 -11 C571 -11 654 10 716 44 C749 61 779 67 785 54 L790 45 L808 47 L808 47 Z M795 129 L795 129 L795 129 L795 129 Z " />
<glyph glyph-name="Ccircumflex" unicode="&#x108;" horiz-adv-x="852" d="M808 47 L808 175 L786 175 L776 157 C753 113 703 64 659 41 C605 13 540 -4 461 -4 C286 -4 160 155 160 375 C160 595 292 754 474 754 C555 754 615 738 664 711 C705 689 752 639 776 592 L786 574 L808 574 L808 699 L791 699 L786 691 C780 680 752 688 719 706 C663 739 587 759 471 759 C226 759 49 597 49 374 C49 151 221 -11 458 -11 C571 -11 654 10 716 44 C749 61 779 67 785 54 L790 45 L808 47 L808 47 Z M501 1003 C495 1012 480 1033 471 1033 C462 1033 447 1012 441 1003 L319 814 L331 804 L471 943 L611 804 L623 814 L501 1003 L501 1003 Z M795 129 L795 129 L795 129 L795 129 Z " />
<glyph glyph-name="Cdot" unicode="&#x10a;" horiz-adv-x="852" d="M472 865 C504 865 527 888 527 920 C527 952 504 975 472 975 C440 975 417 952 417 920 C417 888 440 865 472 865 L472 865 Z M808 47 L808 175 L786 175 L776 157 C753 113 703 64 659 41 C605 13 540 -4 461 -4 C286 -4 160 155 160 375 C160 595 292 754 474 754 C555 754 615 738 664 711 C705 689 752 639 776 592 L786 574 L808 574 L808 699 L791 699 L786 691 C780 680 752 688 719 706 C663 739 587 759 471 759 C226 759 49 597 49 374 C49 151 221 -11 458 -11 C571 -11 654 10 716 44 C749 61 779 67 785 54 L790 45 L808 47 L808 47 Z M795 129 L795 129 L795 129 L795 129 Z " />
<glyph glyph-name="cdot" unicode="&#x10b;" horiz-adv-x="615" d="M358 615 C390 615 413 638 413 670 C413 702 390 725 358 725 C326 725 303 702 303 670 C303 638 326 615 358 615 L358 615 Z M585 128 L582 129 C552 61 453 11 347 11 C223 11 133 121 133 273 C133 408 227 505 356 505 C418 505 479 463 500 405 C509 381 527 363 543 363 C576 363 594 381 585 405 C563 466 467 510 358 510 C176 510 45 395 45 236 C45 93 167 -10 335 -10 C444 -10 549 48 585 128 L585 128 Z " />
<glyph glyph-name="Ccaron" unicode="&#x10c;" horiz-adv-x="852" d="M612 1044 L472 905 L332 1044 L320 1034 L442 845 C448 836 463 815 472 815 C481 815 496 836 502 845 L624 1034 L612 1044 L612 1044 Z M808 47 L808 175 L786 175 L776 157 C753 113 703 64 659 41 C605 13 540 -4 461 -4 C286 -4 160 155 160 375 C160 595 292 754 474 754 C555 754 615 738 664 711 C705 689 752 639 776 592 L786 574 L808 574 L808 699 L791 699 L786 691 C780 680 752 688 719 706 C663 739 587 759 471 759 C226 759 49 597 49 374 C49 151 221 -11 458 -11 C571 -11 654 10 716 44 C749 61 779 67 785 54 L790 45 L808 47 L808 47 Z M795 129 L795 129 L795 129 L795 129 Z " />
<glyph glyph-name="ccaron" unicode="&#x10d;" horiz-adv-x="615" d="M498 794 L358 655 L218 794 L206 784 L328 595 C334 586 349 565 358 565 C367 565 382 586 388 595 L510 784 L498 794 L498 794 Z M585 128 L582 129 C552 61 453 11 347 11 C223 11 133 121 133 273 C133 408 227 505 356 505 C418 505 479 463 500 405 C509 381 527 363 543 363 C576 363 594 381 585 405 C563 466 467 510 358 510 C176 510 45 395 45 236 C45 93 167 -10 335 -10 C444 -10 549 48 585 128 L585 128 Z " />
<glyph glyph-name="Dcaron" unicode="&#x10e;" horiz-adv-x="919" d="M567 1044 L426 905 L286 1044 L275 1034 L397 845 C403 836 418 815 427 815 C436 815 451 836 457 845 L578 1034 L567 1044 L567 1044 Z M307 5 C213 5 199 37 199 80 L199 745 L352 745 C608 745 754 590 754 375 C754 139 566 5 307 5 L307 5 Z M60 730 C84 730 99 713 99 680 L99 70 C99 37 84 20 60 20 L60 0 L315 0 C633 0 864 136 864 375 C864 593 686 750 373 750 L60 750 L60 730 L60 730 Z " />
<glyph glyph-name="dcaron" unicode="&#x10f;" horiz-adv-x="644" d="M686 757 C668 757 655 693 650 649 L636 538 L651 535 L695 640 C712 679 724 723 724 745 C724 753 708 757 686 757 L686 757 Z M587 11 L590 11 L590 12 C604 16 618 20 629 23 L629 43 C606 35 590 46 590 81 L590 751 L548 751 L505 740 L505 739 C498 737 491 735 485 733 L485 721 C497 713 504 689 504 661 L504 421 C470 471 406 510 338 510 C150 510 44 401 44 251 C44 103 154 -5 307 -5 C386 -5 467 27 504 72 L504 1 L547 1 C557 6 573 8 586 11 L587 11 L587 11 Z M504 375 L504 80 C477 51 411 30 342 30 C220 30 131 132 131 274 C131 396 210 485 348 485 C419 485 486 432 504 375 L504 375 Z " />
<glyph glyph-name="Emacron" unicode="&#x112;" horiz-adv-x="673" d="M131 895 L565 895 L565 954 L131 954 L131 895 L131 895 Z M624 0 C624 4 636 74 638 84 L621 84 L615 72 C594 33 535 5 474 5 L279 5 C209 5 199 37 199 80 L199 385 L413 385 C459 385 503 353 517 309 L521 296 L538 296 L538 385 L539 385 L539 391 L538 391 L538 480 L521 480 L517 467 C503 423 459 391 413 391 L199 391 L199 745 L474 745 C521 745 569 713 588 669 L594 656 L611 656 C607 683 602 721 599 748 L599 750 L40 750 L40 730 L49 730 C78 730 99 701 99 660 L99 90 C99 49 78 20 49 20 L40 20 L40 0 L624 0 L624 0 Z " />
<glyph glyph-name="emacron" unicode="&#x113;" horiz-adv-x="662" d="M151 645 L585 645 L585 704 L151 704 L151 645 L151 645 Z M143 340 L632 340 C611 458 504 510 368 510 C181 510 45 425 45 231 C45 91 168 -10 339 -10 C468 -10 584 50 614 134 L611 135 C585 64 474 13 347 13 C224 13 135 119 135 266 C135 293 138 318 143 340 L143 340 Z M537 346 L144 345 C171 455 256 505 367 505 C448 505 516 457 537 346 L537 346 Z " />
<glyph glyph-name="Ebreve" unicode="&#x114;" horiz-adv-x="673" d="M164 994 C170 922 248 870 348 870 C449 870 526 921 532 992 L514 995 C511 957 441 930 348 930 C255 930 185 958 182 997 L164 994 L164 994 Z M624 0 C624 4 636 74 638 84 L621 84 L615 72 C594 33 535 5 474 5 L279 5 C209 5 199 37 199 80 L199 385 L413 385 C459 385 503 353 517 309 L521 296 L538 296 L538 385 L539 385 L539 391 L538 391 L538 480 L521 480 L517 467 C503 423 459 391 413 391 L199 391 L199 745 L474 745 C521 745 569 713 588 669 L594 656 L611 656 C607 683 602 721 599 748 L599 750 L40 750 L40 730 L49 730 C78 730 99 701 99 660 L99 90 C99 49 78 20 49 20 L40 20 L40 0 L624 0 L624 0 Z " />
<glyph glyph-name="ebreve" unicode="&#x115;" horiz-adv-x="662" d="M184 744 C190 672 268 620 368 620 C469 620 546 671 552 742 L534 745 C531 707 461 680 368 680 C275 680 205 708 202 747 L184 744 L184 744 Z M143 340 L632 340 C611 458 504 510 368 510 C181 510 45 425 45 231 C45 91 168 -10 339 -10 C468 -10 584 50 614 134 L611 135 C585 64 474 13 347 13 C224 13 135 119 135 266 C135 293 138 318 143 340 L143 340 Z M537 346 L144 345 C171 455 256 505 367 505 C448 505 516 457 537 346 L537 346 Z " />
<glyph glyph-name="Edot" unicode="&#x116;" horiz-adv-x="673" d="M348 865 C380 865 403 888 403 920 C403 952 380 975 348 975 C316 975 293 952 293 920 C293 888 316 865 348 865 L348 865 Z M624 0 C624 4 636 74 638 84 L621 84 L615 72 C594 33 535 5 474 5 L279 5 C209 5 199 37 199 80 L199 385 L413 385 C459 385 503 353 517 309 L521 296 L538 296 L538 385 L539 385 L539 391 L538 391 L538 480 L521 480 L517 467 C503 423 459 391 413 391 L199 391 L199 745 L474 745 C521 745 569 713 588 669 L594 656 L611 656 C607 683 602 721 599 748 L599 750 L40 750 L40 730 L49 730 C78 730 99 701 99 660 L99 90 C99 49 78 20 49 20 L40 20 L40 0 L624 0 L624 0 Z " />
<glyph glyph-name="edot" unicode="&#x117;" horiz-adv-x="662" d="M368 615 C400 615 423 638 423 670 C423 702 400 725 368 725 C336 725 313 702 313 670 C313 638 336 615 368 615 L368 615 Z M143 340 L632 340 C611 458 504 510 368 510 C181 510 45 425 45 231 C45 91 168 -10 339 -10 C468 -10 584 50 614 134 L611 135 C585 64 474 13 347 13 C224 13 135 119 135 266 C135 293 138 318 143 340 L143 340 Z M537 346 L144 345 C171 455 256 505 367 505 C448 505 516 457 537 346 L537 346 Z " />
<glyph glyph-name="Ecaron" unicode="&#x11a;" horiz-adv-x="673" d="M488 1044 L348 905 L208 1044 L196 1034 L318 845 C324 836 339 815 348 815 C357 815 372 836 378 845 L500 1034 L488 1044 L488 1044 Z M624 0 C624 4 636 74 638 84 L621 84 L615 72 C594 33 535 5 474 5 L279 5 C209 5 199 37 199 80 L199 385 L413 385 C459 385 503 353 517 309 L521 296 L538 296 L538 385 L539 385 L539 391 L538 391 L538 480 L521 480 L517 467 C503 423 459 391 413 391 L199 391 L199 745 L474 745 C521 745 569 713 588 669 L594 656 L611 656 C607 683 602 721 599 748 L599 750 L40 750 L40 730 L49 730 C78 730 99 701 99 660 L99 90 C99 49 78 20 49 20 L40 20 L40 0 L624 0 L624 0 Z " />
<glyph glyph-name="ecaron" unicode="&#x11b;" horiz-adv-x="662" d="M508 794 L368 655 L228 794 L216 784 L338 595 C344 586 359 565 368 565 C377 565 392 586 398 595 L520 784 L508 794 L508 794 Z M143 340 L632 340 C611 458 504 510 368 510 C181 510 45 425 45 231 C45 91 168 -10 339 -10 C468 -10 584 50 614 134 L611 135 C585 64 474 13 347 13 C224 13 135 119 135 266 C135 293 138 318 143 340 L143 340 Z M537 346 L144 345 C171 455 256 505 367 505 C448 505 516 457 537 346 L537 346 Z " />
<glyph glyph-name="Gcircumflex" unicode="&#x11c;" horiz-adv-x="887" d="M791 700 L786 692 C780 681 752 689 719 707 C663 740 587 760 471 760 C226 760 49 598 49 375 C49 152 222 -10 460 -10 C647 -10 772 20 862 62 L860 66 C840 57 817 49 790 42 L790 216 C790 265 808 301 832 301 L839 301 L839 326 L641 326 L641 301 L648 301 C672 301 690 265 690 216 C690 183 690 147 690 115 C681 54 594 12 477 12 C293 12 159 165 159 377 C159 597 291 756 473 756 C554 756 614 740 663 713 C704 691 751 641 775 594 L785 576 L807 576 L807 701 L791 700 L791 700 Z M501 1006 C495 1015 480 1036 471 1036 C462 1036 447 1015 441 1006 L319 817 L331 807 L471 946 L611 807 L623 817 L501 1006 L501 1006 Z M606 15 C567 12 524 11 476 11 C507 11 560 13 605 15 L606 15 L606 15 Z " />
<glyph glyph-name="Gbreve" unicode="&#x11e;" horiz-adv-x="887" d="M288 994 C294 922 372 870 472 870 C573 870 650 921 656 992 L638 995 C635 957 565 930 472 930 C379 930 309 958 306 997 L288 994 L288 994 Z M791 700 L786 692 C780 681 752 689 719 707 C663 740 587 760 471 760 C226 760 49 598 49 375 C49 152 222 -10 460 -10 C647 -10 772 20 862 62 L860 66 C840 57 817 49 790 42 L790 216 C790 265 808 301 832 301 L839 301 L839 326 L641 326 L641 301 L648 301 C672 301 690 265 690 216 C690 183 690 147 690 115 C681 54 594 12 477 12 C293 12 159 165 159 377 C159 597 291 756 473 756 C554 756 614 740 663 713 C704 691 751 641 775 594 L785 576 L807 576 L807 701 L791 700 L791 700 Z M606 15 C567 12 524 11 476 11 C507 11 560 13 605 15 L606 15 L606 15 Z " />
<glyph glyph-name="gbreve" unicode="&#x11f;" horiz-adv-x="609" d="M116 744 C122 672 200 620 300 620 C401 620 478 671 484 742 L466 745 C463 707 393 680 300 680 C207 680 137 708 134 747 L116 744 L116 744 Z M631 479 C631 509 608 530 576 530 C541 530 500 497 477 453 C437 488 375 509 301 509 C171 509 76 442 76 349 C76 266 150 203 257 189 C138 182 56 148 56 103 C56 50 103 10 171 0 C97 -22 46 -61 46 -98 C46 -176 157 -233 311 -233 C464 -233 575 -165 575 -71 C575 17 507 81 351 81 L209 81 C149 81 105 100 105 127 C105 161 187 185 301 185 C432 185 526 253 526 347 C526 386 509 420 480 447 C490 463 508 474 526 474 C546 474 575 439 595 439 C616 439 631 455 631 476 L631 479 L631 479 Z M300 190 C219 190 160 256 160 347 C160 437 219 502 300 502 C381 502 440 437 440 347 C440 256 381 190 300 190 L300 190 Z M178 -2 C186 -3 195 -3 204 -3 L341 -3 C454 -3 504 -40 504 -91 C504 -170 423 -228 311 -228 C198 -228 116 -165 116 -78 C116 -47 141 -17 178 -1 L178 -2 L178 -2 Z " />
<glyph glyph-name="Gdot" unicode="&#x120;" horiz-adv-x="887" d="M472 865 C504 865 527 888 527 920 C527 952 504 975 472 975 C440 975 417 952 417 920 C417 888 440 865 472 865 L472 865 Z M791 700 L786 692 C780 681 752 689 719 707 C663 740 587 760 471 760 C226 760 49 598 49 375 C49 152 222 -10 460 -10 C647 -10 772 20 862 62 L860 66 C840 57 817 49 790 42 L790 216 C790 265 808 301 832 301 L839 301 L839 326 L641 326 L641 301 L648 301 C672 301 690 265 690 216 C690 183 690 147 690 115 C681 54 594 12 477 12 C293 12 159 165 159 377 C159 597 291 756 473 756 C554 756 614 740 663 713 C704 691 751 641 775 594 L785 576 L807 576 L807 701 L791 700 L791 700 Z M606 15 C567 12 524 11 476 11 C507 11 560 13 605 15 L606 15 L606 15 Z " />
<glyph glyph-name="gdot" unicode="&#x121;" horiz-adv-x="609" d="M300 615 C332 615 355 638 355 670 C355 702 332 725 300 725 C268 725 245 702 245 670 C245 638 268 615 300 615 L300 615 Z M631 479 C631 509 608 530 576 530 C541 530 500 497 477 453 C437 488 375 509 301 509 C171 509 76 442 76 349 C76 266 150 203 257 189 C138 182 56 148 56 103 C56 50 103 10 171 0 C97 -22 46 -61 46 -98 C46 -176 157 -233 311 -233 C464 -233 575 -165 575 -71 C575 17 507 81 351 81 L209 81 C149 81 105 100 105 127 C105 161 187 185 301 185 C432 185 526 253 526 347 C526 386 509 420 480 447 C490 463 508 474 526 474 C546 474 575 439 595 439 C616 439 631 455 631 476 L631 479 L631 479 Z M300 190 C219 190 160 256 160 347 C160 437 219 502 300 502 C381 502 440 437 440 347 C440 256 381 190 300 190 L300 190 Z M178 -2 C186 -3 195 -3 204 -3 L341 -3 C454 -3 504 -40 504 -91 C504 -170 423 -228 311 -228 C198 -228 116 -165 116 -78 C116 -47 141 -17 178 -1 L178 -2 L178 -2 Z " />
<glyph glyph-name="Hcircumflex" unicode="&#x124;" horiz-adv-x="874" d="M485 1005 C479 1014 464 1035 455 1035 C446 1035 431 1014 425 1005 L303 816 L315 806 L455 945 L595 806 L607 816 L485 1005 L485 1005 Z M814 20 C790 20 775 37 775 70 L775 680 C775 713 790 730 814 730 L814 750 L636 750 L636 730 C660 730 675 713 675 680 L675 390 L235 390 L235 680 C235 713 250 730 274 730 L274 750 L96 750 L96 730 C120 730 135 713 135 680 L135 70 C135 37 120 20 96 20 L96 0 L274 0 L274 20 C250 20 235 37 235 70 L235 383 L675 383 L675 70 C675 37 660 20 636 20 L636 0 L814 0 L814 20 L814 20 Z " />
<glyph glyph-name="Itilde" unicode="&#x128;" horiz-adv-x="293" d="M-62 870 C-62 905 -34 930 5 930 C79 930 185 865 259 865 C314 865 354 915 354 985 L350 985 C350 950 320 925 279 925 C205 925 98 990 24 990 C-28 990 -66 940 -66 870 L-62 870 L-62 870 Z M233 20 C209 20 194 37 194 70 L194 680 C194 713 209 730 233 730 L233 750 L55 750 L55 730 C79 730 94 713 94 680 L94 70 C94 37 79 20 55 20 L55 0 L233 0 L233 20 L233 20 Z " />
<glyph glyph-name="itilde" unicode="&#x129;" horiz-adv-x="228" d="M-84 619 C-84 654 -56 679 -18 679 C56 679 162 614 236 614 C291 614 331 664 331 734 L327 734 C327 699 297 674 256 674 C182 674 76 739 2 739 C-50 739 -88 689 -88 619 L-84 619 L-84 619 Z M60 463 C70 465 79 464 79 452 L79 34 C79 23 71 19 60 19 L60 -1 L183 -1 L183 19 C172 19 164 23 164 34 L164 499 L122 499 C110 496 95 492 81 488 L78 488 L78 487 C71 485 64 483 58 481 L60 463 L60 463 Z " />
<glyph glyph-name="Imacron" unicode="&#x12a;" horiz-adv-x="293" d="M-73 895 L361 895 L361 954 L-73 954 L-73 895 L-73 895 Z M233 20 C209 20 194 37 194 70 L194 680 C194 713 209 730 233 730 L233 750 L55 750 L55 730 C79 730 94 713 94 680 L94 70 C94 37 79 20 55 20 L55 0 L233 0 L233 20 L233 20 Z " />
<glyph glyph-name="imacron" unicode="&#x12b;" horiz-adv-x="228" d="M-96 644 L339 644 L339 703 L-96 703 L-96 644 L-96 644 Z M60 463 C70 465 79 464 79 452 L79 34 C79 23 71 19 60 19 L60 -1 L183 -1 L183 19 C172 19 164 23 164 34 L164 499 L122 499 C110 496 95 492 81 488 L78 488 L78 487 C71 485 64 483 58 481 L60 463 L60 463 Z " />
<glyph glyph-name="Ibreve" unicode="&#x12c;" horiz-adv-x="293" d="M-40 994 C-34 922 44 870 144 870 C245 870 322 921 328 992 L310 995 C307 957 237 930 144 930 C51 930 -19 958 -22 997 L-40 994 L-40 994 Z M233 20 C209 20 194 37 194 70 L194 680 C194 713 209 730 233 730 L233 750 L55 750 L55 730 C79 730 94 713 94 680 L94 70 C94 37 79 20 55 20 L55 0 L233 0 L233 20 L233 20 Z " />
<glyph glyph-name="ibreve" unicode="&#x12d;" horiz-adv-x="228" d="M-62 743 C-56 671 22 619 122 619 C223 619 300 670 306 741 L288 744 C285 706 215 679 122 679 C29 679 -42 707 -45 746 L-62 743 L-62 743 Z M60 463 C70 465 79 464 79 452 L79 34 C79 23 71 19 60 19 L60 -1 L183 -1 L183 19 C172 19 164 23 164 34 L164 499 L122 499 C110 496 95 492 81 488 L78 488 L78 487 C71 485 64 483 58 481 L60 463 L60 463 Z " />
<glyph glyph-name="Idot" unicode="&#x130;" horiz-adv-x="293" d="M144 865 C176 865 199 888 199 920 C199 952 176 975 144 975 C112 975 89 952 89 920 C89 888 112 865 144 865 L144 865 Z M233 20 C209 20 194 37 194 70 L194 680 C194 713 209 730 233 730 L233 750 L55 750 L55 730 C79 730 94 713 94 680 L94 70 C94 37 79 20 55 20 L55 0 L233 0 L233 20 L233 20 Z " />
<glyph glyph-name="dotlessi" unicode="&#x131;" horiz-adv-x="228" d="M60 463 C70 465 79 464 79 452 L79 34 C79 23 71 19 60 19 L60 -1 L183 -1 L183 19 C172 19 164 23 164 34 L164 499 L122 499 C110 496 95 492 81 488 L78 488 L78 487 C71 485 64 483 58 481 L60 463 L60 463 Z " />
<glyph glyph-name="Jcircumflex" unicode="&#x134;" horiz-adv-x="293" d="M174 1005 C168 1014 153 1035 144 1035 C135 1035 120 1014 114 1005 L-8 816 L4 806 L144 945 L284 806 L296 816 L174 1005 L174 1005 Z M233 750 L55 750 L55 730 C79 730 94 713 94 680 L94 -72 C94 -185 11 -211 -45 -211 C-93 -211 -72 -131 -120 -131 C-146 -131 -165 -150 -165 -176 C-165 -202 -117 -220 -51 -220 C48 -220 194 -157 194 116 L194 680 C194 713 209 730 233 730 L233 750 L233 750 Z " />
<glyph glyph-name="Lacute" unicode="&#x139;" horiz-adv-x="670" d="M152 812 L294 932 C331 964 358 990 358 996 C358 1018 338 1038 316 1038 C310 1038 286 1010 255 971 L141 823 L152 812 L152 812 Z M233 750 L55 750 L55 730 C79 730 94 713 94 680 L94 70 C94 37 79 20 55 20 L55 0 L641 0 L641 13 C646 38 652 71 657 95 L640 95 L634 83 C613 44 554 16 493 16 L275 16 C205 16 195 42 195 79 L195 679 C195 712 210 729 234 729 L233 750 L233 750 Z " />
<glyph glyph-name="Lcaron" unicode="&#x13d;" horiz-adv-x="670" d="M345 808 C327 808 314 744 309 700 L295 589 L309 586 L353 691 C370 731 383 775 383 796 C383 804 367 808 345 808 L345 808 Z M233 750 L55 750 L55 730 C79 730 94 713 94 680 L94 70 C94 37 79 20 55 20 L55 0 L641 0 L641 13 C646 38 652 71 657 95 L640 95 L634 83 C613 44 554 16 493 16 L275 16 C205 16 195 42 195 79 L195 679 C195 712 210 729 234 729 L233 750 L233 750 Z " />
<glyph glyph-name="lcaron" unicode="&#x13e;" horiz-adv-x="172" d="M219 757 C201 757 188 693 183 649 L169 538 L184 535 L228 640 C245 679 257 723 257 745 C257 753 241 757 219 757 L219 757 Z M19 721 C31 713 38 689 38 661 L38 35 C38 24 30 20 19 20 L19 0 L142 0 L142 20 C131 20 123 24 123 35 L123 750 L81 750 C69 747 54 743 40 739 L37 739 L37 738 C30 736 23 734 17 732 L19 721 L19 721 Z " />
<glyph glyph-name="Nacute" unicode="&#x143;" horiz-adv-x="806" d="M307 812 L449 932 C486 964 513 990 513 996 C513 1018 493 1038 471 1038 C465 1038 440 1010 410 971 L297 823 L307 812 L307 812 Z M-4 730 C21 730 46 715 74 686 L93 665 L92 70 C92 37 77 20 53 20 L53 0 L161 0 L161 20 C137 20 122 37 122 70 L122 70 L119 636 C306 424 493 212 680 0 L700 0 L707 687 C710 716 724 730 747 730 L747 750 L639 750 L639 730 C663 730 678 713 678 680 L678 680 L679 152 C500 351 321 550 142 749 L-4 749 L-4 730 L-4 730 Z " />
<glyph glyph-name="Ncaron" unicode="&#x147;" horiz-adv-x="806" d="M540 1044 L399 905 L259 1044 L248 1034 L370 845 C376 836 391 815 400 815 C409 815 424 836 430 845 L551 1034 L540 1044 L540 1044 Z M-4 730 C21 730 46 715 74 686 L93 665 L92 70 C92 37 77 20 53 20 L53 0 L161 0 L161 20 C137 20 122 37 122 70 L122 70 L119 636 C306 424 493 212 680 0 L700 0 L707 687 C710 716 724 730 747 730 L747 750 L639 750 L639 730 C663 730 678 713 678 680 L678 680 L679 152 C500 351 321 550 142 749 L-4 749 L-4 730 L-4 730 Z " />
<glyph glyph-name="ncaron" unicode="&#x148;" horiz-adv-x="576" d="M423 793 L282 654 L142 793 L131 783 L253 594 C259 585 274 564 283 564 C292 564 307 585 313 594 L434 783 L423 793 L423 793 Z M19 471 C31 463 38 439 38 411 L38 35 C38 24 30 20 19 20 L19 0 L142 0 L142 20 C131 20 123 24 123 35 L123 362 C170 423 252 468 318 468 C397 468 442 402 442 311 L442 35 C442 24 434 20 423 20 L423 0 L546 0 L546 20 C535 20 527 24 527 35 L527 311 C527 426 461 510 345 510 C275 510 182 454 123 376 L123 500 L81 500 C69 497 54 493 40 489 L37 489 L37 488 C30 486 23 484 17 482 L19 471 L19 471 Z " />
<glyph glyph-name="Omacron" unicode="&#x14c;" horiz-adv-x="963" d="M257 895 L691 895 L691 954 L257 954 L257 895 L257 895 Z M159 375 C159 594 291 753 473 753 C663 753 800 594 800 375 C800 156 659 -3 465 -3 C288 -3 159 156 159 375 L159 375 Z M50 375 C50 152 224 -10 464 -10 C722 -10 908 152 908 375 C908 598 726 760 474 760 C228 760 50 598 50 375 L50 375 Z " />
<glyph glyph-name="omacron" unicode="&#x14d;" horiz-adv-x="703" d="M135 645 L569 645 L569 704 L135 704 L135 645 L135 645 Z M139 250 C139 397 228 503 352 503 C475 503 564 397 564 250 C564 103 475 -3 352 -3 C228 -3 139 103 139 250 L139 250 Z M45 250 C45 99 174 -10 352 -10 C529 -10 658 99 658 250 C658 401 529 510 352 510 C174 510 45 401 45 250 L45 250 Z " />
<glyph glyph-name="Obreve" unicode="&#x14e;" horiz-adv-x="963" d="M290 994 C296 922 374 870 474 870 C575 870 652 921 658 992 L640 995 C637 957 567 930 474 930 C381 930 311 958 308 997 L290 994 L290 994 Z M159 375 C159 594 291 753 473 753 C663 753 800 594 800 375 C800 156 659 -3 465 -3 C288 -3 159 156 159 375 L159 375 Z M50 375 C50 152 224 -10 464 -10 C722 -10 908 152 908 375 C908 598 726 760 474 760 C228 760 50 598 50 375 L50 375 Z " />
<glyph glyph-name="obreve" unicode="&#x14f;" horiz-adv-x="703" d="M168 744 C174 672 252 620 352 620 C453 620 530 671 536 742 L518 745 C515 707 445 680 352 680 C259 680 189 708 186 747 L168 744 L168 744 Z M139 250 C139 397 228 503 352 503 C475 503 564 397 564 250 C564 103 475 -3 352 -3 C228 -3 139 103 139 250 L139 250 Z M45 250 C45 99 174 -10 352 -10 C529 -10 658 99 658 250 C658 401 529 510 352 510 C174 510 45 401 45 250 L45 250 Z " />
<glyph glyph-name="Racute" unicode="&#x154;" horiz-adv-x="814" d="M339 812 L481 932 C518 964 545 990 545 996 C545 1018 525 1038 503 1038 C497 1038 472 1010 442 971 L329 823 L339 812 L339 812 Z M60 730 C84 730 99 713 99 680 L99 70 C99 37 84 20 60 20 L60 0 L238 0 L238 20 C214 20 199 37 199 70 L199 355 L388 355 C408 317 476 210 564 80 C614 6 631 0 804 0 L804 20 C727 20 718 24 681 80 C592 213 521 319 491 363 C602 384 676 442 676 538 C676 661 557 750 393 750 L61 750 L60 730 L60 730 Z M200 380 L200 730 L363 730 C480 730 565 658 565 558 C565 439 493 380 393 380 L200 380 L200 380 Z " />
<glyph glyph-name="Rcaron" unicode="&#x158;" horiz-adv-x="814" d="M472 1044 L331 905 L191 1044 L180 1034 L302 845 C308 836 323 815 332 815 C341 815 356 836 362 845 L483 1034 L472 1044 L472 1044 Z M60 730 C84 730 99 713 99 680 L99 70 C99 37 84 20 60 20 L60 0 L238 0 L238 20 C214 20 199 37 199 70 L199 355 L388 355 C408 317 476 210 564 80 C614 6 631 0 804 0 L804 20 C727 20 718 24 681 80 C592 213 521 319 491 363 C602 384 676 442 676 538 C676 661 557 750 393 750 L61 750 L60 730 L60 730 Z M200 380 L200 730 L363 730 C480 730 565 658 565 558 C565 439 493 380 393 380 L200 380 L200 380 Z " />
<glyph glyph-name="rcaron" unicode="&#x159;" horiz-adv-x="482" d="M388 793 L248 654 L108 793 L96 783 L218 594 C224 585 239 564 248 564 C257 564 272 585 278 594 L400 783 L388 793 L388 793 Z M20 471 C32 463 39 439 39 411 L39 35 C39 24 31 20 20 20 L20 0 L143 0 L143 20 C132 20 124 24 124 35 L124 373 C164 429 234 469 294 469 C339 469 372 454 372 434 C372 405 393 384 422 384 C451 384 472 405 472 434 C472 478 414 509 334 509 C261 509 174 458 124 385 L124 499 L82 499 C70 496 55 492 41 488 L38 488 L38 487 C31 485 24 483 18 481 L20 471 L20 471 Z " />
<glyph glyph-name="Sacute" unicode="&#x15a;" horiz-adv-x="641" d="M326 812 L468 932 C505 964 532 990 532 996 C532 1018 512 1038 490 1038 C484 1038 459 1010 429 971 L316 823 L326 812 L326 812 Z M544 708 L539 703 C528 690 462 727 446 733 C435 739 424 744 412 748 L410 744 C374 754 334 759 293 759 C161 759 65 676 65 562 C65 476 156 380 316 322 C447 274 522 213 522 166 C522 68 448 -3 346 -3 C296 -3 246 11 202 35 C158 59 108 116 83 172 L74 193 L51 193 L51 45 L69 45 L73 57 C79 73 110 66 147 44 C203 10 274 -11 346 -11 C494 -11 602 76 602 195 C602 281 520 374 376 426 C228 480 144 548 144 600 C144 689 207 753 293 753 C335 753 376 745 412 731 C457 712 506 664 530 614 L540 595 L562 595 L562 707 L544 708 L544 708 Z M66 153 L66 153 L66 153 L66 153 Z " />
<glyph glyph-name="Scircumflex" unicode="&#x15c;" horiz-adv-x="641" d="M544 708 L539 703 C528 690 462 727 446 733 C435 739 424 744 412 748 L410 744 C374 754 334 759 293 759 C161 759 65 676 65 562 C65 476 156 380 316 322 C447 274 522 213 522 166 C522 68 448 -3 346 -3 C296 -3 246 11 202 35 C158 59 108 116 83 172 L74 193 L51 193 L51 45 L69 45 L73 57 C79 73 110 66 147 44 C203 10 274 -11 346 -11 C494 -11 602 76 602 195 C602 281 520 374 376 426 C228 480 144 548 144 600 C144 689 207 753 293 753 C335 753 376 745 412 731 C457 712 506 664 530 614 L540 595 L562 595 L562 707 L544 708 L544 708 Z M350 1004 C344 1013 329 1034 320 1034 C311 1034 296 1013 290 1004 L168 815 L179 805 L319 944 L460 805 L471 815 L350 1004 L350 1004 Z M66 153 L66 153 L66 153 L66 153 Z " />
<glyph glyph-name="Scaron" unicode="&#x160;" horiz-adv-x="641" d="M459 1044 L318 905 L178 1044 L167 1034 L289 845 C295 836 310 815 319 815 C328 815 343 836 349 845 L470 1034 L459 1044 L459 1044 Z M544 708 L539 703 C528 690 462 727 446 733 C435 739 424 744 412 748 L410 744 C374 754 334 759 293 759 C161 759 65 676 65 562 C65 476 156 380 316 322 C447 274 522 213 522 166 C522 68 448 -3 346 -3 C296 -3 246 11 202 35 C158 59 108 116 83 172 L74 193 L51 193 L51 45 L69 45 L73 57 C79 73 110 66 147 44 C203 10 274 -11 346 -11 C494 -11 602 76 602 195 C602 281 520 374 376 426 C228 480 144 548 144 600 C144 689 207 753 293 753 C335 753 376 745 412 731 C457 712 506 664 530 614 L540 595 L562 595 L562 707 L544 708 L544 708 Z M66 153 L66 153 L66 153 L66 153 Z " />
<glyph glyph-name="scaron" unicode="&#x161;" horiz-adv-x="518" d="M410 794 L270 655 L130 794 L118 784 L240 595 C246 586 261 565 270 565 C279 565 294 586 300 595 L422 784 L410 794 L410 794 Z M335 500 L334 498 C306 506 274 510 241 510 C135 510 59 455 59 380 C59 316 129 251 252 218 C348 192 402 148 402 106 C402 42 347 -5 270 -5 C235 -5 200 4 169 20 C132 39 93 82 78 122 L74 131 L60 131 L60 45 L74 45 L77 48 C77 48 139 21 163 9 L163 9 C195 -3 232 -10 270 -10 C385 -10 468 49 468 130 C468 190 403 251 289 282 C181 311 119 362 119 409 C119 465 170 505 241 505 C273 505 304 499 331 488 L331 488 C376 470 414 431 428 388 L442 388 L442 464 L429 464 L425 463 C428 464 398 476 354 492 C354 491 336 499 334 500 L335 500 L335 500 Z " />
<glyph glyph-name="Tcaron" unicode="&#x164;" horiz-adv-x="864" d="M571 1044 L431 905 L291 1044 L279 1034 L401 845 C407 836 422 815 431 815 C440 815 455 836 461 845 L583 1034 L571 1044 L571 1044 Z M343 0 L521 0 L521 20 C497 20 482 37 482 70 L482 725 L681 725 C730 725 787 697 817 658 L826 646 L843 646 C833 670 820 702 810 728 L810 750 L55 750 L55 749 C55 748 55 747 55 746 L56 748 L56 730 C45 704 32 670 22 645 L39 645 L48 657 C77 696 134 724 183 724 L383 724 L383 69 C383 36 368 19 344 19 L343 0 L343 0 Z M811 746 C813 743 814 739 815 737 L811 746 L811 746 Z M55 747 C53 744 52 740 51 738 L55 747 L55 747 Z " />
<glyph glyph-name="tcaron" unicode="&#x165;" horiz-adv-x="434" d="M389 500 L191 500 L191 620 L185 620 L41 466 L41 456 L106 456 L106 160 C106 42 173 -10 265 -10 C335 -10 402 35 424 96 L414 100 C399 59 348 30 291 30 C232 30 189 64 189 141 L191 455 L389 455 L389 500 L389 500 Z M490 758 C472 758 459 694 454 650 L440 539 L455 536 L499 641 C516 680 528 724 528 746 C528 754 512 758 490 758 L490 758 Z " />
<glyph glyph-name="Utilde" unicode="&#x168;" horiz-adv-x="780" d="M182 870 C182 905 210 930 248 930 C322 930 428 865 502 865 C557 865 597 915 597 985 L593 985 C593 950 563 925 522 925 C448 925 342 990 268 990 C216 990 178 940 178 870 L182 870 L182 870 Z M750 44 C728 37 711 49 711 83 L711 750 L572 750 L572 730 C596 730 611 713 611 680 L611 208 C569 119 466 54 366 54 C249 54 164 131 164 238 L164 750 L25 750 L25 730 C49 730 64 713 64 680 L64 238 C64 94 174 -10 326 -10 C445 -10 564 63 611 163 L611 0 L661 0 L711 13 C711 16 748 24 750 25 L750 44 L750 44 Z " />
<glyph glyph-name="utilde" unicode="&#x169;" horiz-adv-x="605" d="M92 621 C92 656 120 681 158 681 C232 681 338 616 412 616 C467 616 507 666 507 736 L503 736 C503 701 473 676 432 676 C358 676 252 741 178 741 C126 741 88 691 88 621 L92 621 L92 621 Z M558 11 L561 11 L561 12 C571 15 581 18 590 20 L590 40 C571 35 561 49 561 82 L561 500 L519 500 L519 501 L457 501 L457 481 C468 481 476 477 476 466 L476 132 C448 83 363 49 266 49 C181 49 119 101 119 173 L119 500 L15 500 L15 480 C26 480 34 476 34 465 L34 173 C34 67 115 -10 226 -10 C336 -10 438 45 475 123 L475 -1 L518 -1 C528 4 544 6 557 10 L558 11 L558 11 Z " />
<glyph glyph-name="Umacron" unicode="&#x16a;" horiz-adv-x="780" d="M170 895 L605 895 L605 954 L170 954 L170 895 L170 895 Z M750 44 C728 37 711 49 711 83 L711 750 L572 750 L572 730 C596 730 611 713 611 680 L611 208 C569 119 466 54 366 54 C249 54 164 131 164 238 L164 750 L25 750 L25 730 C49 730 64 713 64 680 L64 238 C64 94 174 -10 326 -10 C445 -10 564 63 611 163 L611 0 L661 0 L711 13 C711 16 748 24 750 25 L750 44 L750 44 Z " />
<glyph glyph-name="umacron" unicode="&#x16b;" horiz-adv-x="605" d="M80 646 L515 646 L515 705 L80 705 L80 646 L80 646 Z M558 11 L561 11 L561 12 C571 15 581 18 590 20 L590 40 C571 35 561 49 561 82 L561 500 L519 500 L519 501 L457 501 L457 481 C468 481 476 477 476 466 L476 132 C448 83 363 49 266 49 C181 49 119 101 119 173 L119 500 L15 500 L15 480 C26 480 34 476 34 465 L34 173 C34 67 115 -10 226 -10 C336 -10 438 45 475 123 L475 -1 L518 -1 C528 4 544 6 557 10 L558 11 L558 11 Z " />
<glyph glyph-name="Ubreve" unicode="&#x16c;" horiz-adv-x="780" d="M204 994 C210 922 288 870 388 870 C489 870 566 921 572 992 L554 995 C551 957 481 930 388 930 C295 930 224 958 221 997 L204 994 L204 994 Z M750 44 C728 37 711 49 711 83 L711 750 L572 750 L572 730 C596 730 611 713 611 680 L611 208 C569 119 466 54 366 54 C249 54 164 131 164 238 L164 750 L25 750 L25 730 C49 730 64 713 64 680 L64 238 C64 94 174 -10 326 -10 C445 -10 564 63 611 163 L611 0 L661 0 L711 13 C711 16 748 24 750 25 L750 44 L750 44 Z " />
<glyph glyph-name="ubreve" unicode="&#x16d;" horiz-adv-x="605" d="M114 745 C120 673 198 621 298 621 C399 621 476 672 482 743 L464 746 C461 708 391 681 298 681 C205 681 134 709 131 748 L114 745 L114 745 Z M558 11 L561 11 L561 12 C571 15 581 18 590 20 L590 40 C571 35 561 49 561 82 L561 500 L519 500 L519 501 L457 501 L457 481 C468 481 476 477 476 466 L476 132 C448 83 363 49 266 49 C181 49 119 101 119 173 L119 500 L15 500 L15 480 C26 480 34 476 34 465 L34 173 C34 67 115 -10 226 -10 C336 -10 438 45 475 123 L475 -1 L518 -1 C528 4 544 6 557 10 L558 11 L558 11 Z " />
<glyph glyph-name="Uring" unicode="&#x16e;" horiz-adv-x="780" d="M315 905 C315 949 346 980 388 980 C430 980 460 949 460 905 C460 866 426 830 388 830 C350 830 315 866 315 905 L315 905 Z M290 905 C290 855 337 810 388 810 C439 810 485 855 485 905 C485 960 444 1000 388 1000 C331 1000 290 960 290 905 L290 905 Z M750 44 C728 37 711 49 711 83 L711 750 L572 750 L572 730 C596 730 611 713 611 680 L611 208 C569 119 466 54 366 54 C249 54 164 131 164 238 L164 750 L25 750 L25 730 C49 730 64 713 64 680 L64 238 C64 94 174 -10 326 -10 C445 -10 564 63 611 163 L611 0 L661 0 L711 13 C711 16 748 24 750 25 L750 44 L750 44 Z " />
<glyph glyph-name="uring" unicode="&#x16f;" horiz-adv-x="605" d="M225 656 C225 700 256 731 298 731 C340 731 370 700 370 656 C370 617 336 581 298 581 C260 581 225 617 225 656 L225 656 Z M200 656 C200 606 247 561 298 561 C349 561 395 606 395 656 C395 711 354 751 298 751 C241 751 200 711 200 656 L200 656 Z M558 11 L561 11 L561 12 C571 15 581 18 590 20 L590 40 C571 35 561 49 561 82 L561 500 L519 500 L519 501 L457 501 L457 481 C468 481 476 477 476 466 L476 132 C448 83 363 49 266 49 C181 49 119 101 119 173 L119 500 L15 500 L15 480 C26 480 34 476 34 465 L34 173 C34 67 115 -10 226 -10 C336 -10 438 45 475 123 L475 -1 L518 -1 C528 4 544 6 557 10 L558 11 L558 11 Z " />
<glyph glyph-name="Wcircumflex" unicode="&#x174;" horiz-adv-x="1197" d="M553 645 L553 645 L617 500 L428 121 L185 646 C185 646 151 726 192 726 L200 726 L200 751 L8 751 L8 726 C27 726 46 702 67 660 C166 437 265 214 364 -9 L389 -9 L633 466 C703 308 773 150 843 -9 L868 -9 C946 209 1023 428 1101 646 C1117 692 1147 726 1171 726 L1178 726 L1178 751 L1000 751 L1000 726 L1013 726 C1055 726 1077 697 1067 656 L893 140 L660 657 C645 698 657 727 690 727 L701 727 L701 752 L484 752 L484 727 C508 727 531 697 554 647 L553 645 L553 645 Z M614 1007 C608 1016 593 1037 584 1037 C575 1037 560 1016 554 1007 L432 818 L443 808 L583 947 L724 808 L735 818 L614 1007 L614 1007 Z " />
<glyph glyph-name="Ycircumflex" unicode="&#x176;" horiz-adv-x="756" d="M277 0 L495 0 L495 20 L486 20 C457 20 436 49 436 90 L436 336 L662 675 C685 710 715 730 747 730 L747 750 L619 750 L619 730 L630 730 C661 730 669 708 650 677 L432 344 C352 454 270 565 191 675 C168 707 167 730 189 730 L195 730 L195 750 L9 750 L9 730 C25 730 48 709 73 675 L73 675 L334 322 L334 90 C334 49 313 20 284 20 L275 20 L277 0 L277 0 Z M414 1005 C408 1014 393 1035 384 1035 C375 1035 360 1014 354 1005 L232 816 L244 806 L384 945 L524 806 L536 816 L414 1005 L414 1005 Z " />
<glyph glyph-name="Ydieresis" unicode="&#x178;" horiz-adv-x="756" d="M468 865 C500 865 523 888 523 920 C523 952 500 975 468 975 C436 975 413 952 413 920 C413 888 436 865 468 865 L468 865 Z M304 865 C336 865 359 888 359 920 C359 952 336 975 304 975 C272 975 249 952 249 920 C249 888 272 865 304 865 L304 865 Z M277 0 L495 0 L495 20 L486 20 C457 20 436 49 436 90 L436 336 L662 675 C685 710 715 730 747 730 L747 750 L619 750 L619 730 L630 730 C661 730 669 708 650 677 L432 344 C352 454 270 565 191 675 C168 707 167 730 189 730 L195 730 L195 750 L9 750 L9 730 C25 730 48 709 73 675 L73 675 L334 322 L334 90 C334 49 313 20 284 20 L275 20 L277 0 L277 0 Z " />
<glyph glyph-name="Zacute" unicode="&#x179;" horiz-adv-x="719" d="M393 812 L535 932 C572 964 599 990 599 996 C599 1018 579 1038 557 1038 C551 1038 527 1010 496 971 L382 823 L393 812 L393 812 Z M78 643 L83 655 C99 693 153 721 212 724 L590 729 L25 20 L25 0 L696 0 L703 30 L702 30 C706 46 713 74 721 109 L704 109 L697 97 C674 58 613 29 552 28 L145 22 L700 730 L700 750 L70 750 L67 722 L68 722 C67 706 65 678 62 643 L78 643 L78 643 Z " />
<glyph glyph-name="Zdot" unicode="&#x17b;" horiz-adv-x="719" d="M385 865 C417 865 440 888 440 920 C440 952 417 975 385 975 C353 975 330 952 330 920 C330 888 353 865 385 865 L385 865 Z M78 643 L83 655 C99 693 153 721 212 724 L590 729 L25 20 L25 0 L696 0 L703 30 L702 30 C706 46 713 74 721 109 L704 109 L697 97 C674 58 613 29 552 28 L145 22 L700 730 L700 750 L70 750 L67 722 L68 722 C67 706 65 678 62 643 L78 643 L78 643 Z " />
<glyph glyph-name="zdot" unicode="&#x17c;" horiz-adv-x="565" d="M297 615 C329 615 352 638 352 670 C352 702 329 725 297 725 C265 725 242 702 242 670 C242 638 265 615 297 615 L297 615 Z M62 487 L62 488 L62 487 L62 487 Z M61 485 C61 485 53 457 43 418 L62 418 L69 426 C89 450 135 469 180 473 L419 478 L40 20 L40 0 L520 0 L520 15 L522 15 C522 15 525 43 529 82 L510 82 L504 74 C488 50 445 31 400 28 L149 23 L526 481 L526 501 L72 501 L72 486 L61 485 L61 485 Z M62 487 L63 488 L62 487 L62 487 Z " />
<glyph glyph-name="Zcaron" unicode="&#x17d;" horiz-adv-x="719" d="M525 1044 L385 905 L245 1044 L233 1034 L355 845 C361 836 376 815 385 815 C394 815 409 836 415 845 L537 1034 L525 1044 L525 1044 Z M78 643 L83 655 C99 693 153 721 212 724 L590 729 L25 20 L25 0 L696 0 L703 30 L702 30 C706 46 713 74 721 109 L704 109 L697 97 C674 58 613 29 552 28 L145 22 L700 730 L700 750 L70 750 L67 722 L68 722 C67 706 65 678 62 643 L78 643 L78 643 Z " />
<glyph glyph-name="zcaron" unicode="&#x17e;" horiz-adv-x="565" d="M437 794 L297 655 L157 794 L145 784 L267 595 C273 586 288 565 297 565 C306 565 321 586 327 595 L449 784 L437 794 L437 794 Z M62 487 L62 488 L62 487 L62 487 Z M61 485 C61 485 53 457 43 418 L62 418 L69 426 C89 450 135 469 180 473 L419 478 L40 20 L40 0 L520 0 L520 15 L522 15 C522 15 525 43 529 82 L510 82 L504 74 C488 50 445 31 400 28 L149 23 L526 481 L526 501 L72 501 L72 486 L61 485 L61 485 Z M62 487 L63 488 L62 487 L62 487 Z " />
<glyph glyph-name="oogonek" unicode="&#x1eb;" horiz-adv-x="838" d="M1142 -51 L1140 -49 C1111 -73 977 -91 820 -91 C643 -91 450 -56 347 -6 C366 -8 385 -9 405 -9 C627 -9 787 118 787 293 C787 468 631 594 415 594 C204 594 52 468 52 293 C52 170 126 70 241 22 C414 -77 653 -149 809 -149 C933 -149 1073 -107 1141 -50 L1142 -51 L1142 -51 Z M149 293 C149 464 260 588 413 588 C573 588 689 464 689 293 C689 120 567 -6 399 -6 C254 -6 149 120 149 293 L149 293 Z " />
<glyph glyph-name="Adotabove" unicode="&#x226;" horiz-adv-x="754" d="M376 865 C408 865 431 888 431 920 C431 952 408 975 376 975 C344 975 321 952 321 920 C321 888 344 865 376 865 L376 865 Z M117 125 L117 125 L180 293 L489 293 C510 237 532 180 552 125 C574 67 562 25 523 25 L511 25 L511 0 L745 0 L745 25 L737 25 C713 25 679 67 657 125 L657 125 L426 720 C426 720 413 770 407 770 L397 770 C401 747 371 726 326 720 L330 710 L110 125 C88 67 41 25 -3 25 L-17 25 L-17 0 L159 0 L159 25 L147 25 C108 25 95 67 117 125 L117 125 Z M182 300 L332 703 L485 300 L182 300 L182 300 Z " />
<glyph glyph-name="G_sc" unicode="&#x262;" horiz-adv-x="768" d="M673 561 L668 553 C663 542 634 546 600 561 C584 568 563 574 545 581 L544 580 C508 589 464 594 409 594 C201 594 51 468 51 293 C51 118 200 -9 405 -9 C503 -9 586 6 658 29 L670 32 L670 33 C696 42 720 52 743 63 L741 67 C720 57 696 48 670 40 L670 144 C670 193 688 229 712 229 L719 229 L719 254 L531 254 L531 229 L538 229 C562 229 580 193 580 144 L581 144 C581 130 581 116 581 103 C577 48 510 8 418 8 C262 8 149 127 149 292 C149 464 259 588 410 588 C467 588 512 579 549 563 C590 544 633 501 656 456 L666 438 L688 438 L688 561 L673 561 L673 561 Z M445 8 C436 8 427 8 418 8 C426 8 435 8 445 8 L445 8 Z " />
<glyph glyph-name="I_sc" unicode="&#x26a;" horiz-adv-x="288" d="M228 20 C204 20 189 37 189 70 L189 513 C189 546 204 563 228 563 L228 583 L60 583 L60 563 C84 563 99 546 99 513 L99 70 C99 37 84 20 60 20 L60 0 L228 0 L228 20 L228 20 Z " />
<glyph glyph-name="N_sc" unicode="&#x274;" horiz-adv-x="692" d="M53 0 L158 0 L158 20 C134 20 119 37 119 70 L119 70 L117 485 C268 323 419 162 569 0 L587 0 L593 519 C595 549 610 563 633 563 L633 583 L528 583 L528 563 C552 563 567 546 567 513 L567 513 L568 102 C424 262 281 423 137 583 L4 583 L4 563 C30 563 60 545 90 513 L90 513 L93 509 L91 70 L91 70 C91 37 76 20 52 20 L53 0 L53 0 Z " />
<glyph glyph-name="R_sc" unicode="&#x280;" horiz-adv-x="689" d="M63 563 C87 563 102 546 102 513 L102 70 C102 37 87 20 63 20 L63 0 L231 0 L231 20 C207 20 192 37 192 70 L192 273 L306 273 C326 243 386 162 463 62 C508 4 523 0 679 0 L679 18 C608 18 600 21 568 62 C490 163 427 244 399 280 C495 297 558 343 558 418 C558 514 453 583 308 583 L63 583 L63 563 L63 563 Z M192 296 L192 565 L281 565 C384 565 459 510 459 435 C459 342 396 296 308 296 L192 296 L192 296 Z " />
<glyph glyph-name="Y_sc" unicode="&#x28f;" horiz-adv-x="637" d="M188 583 L14 583 L14 563 C30 563 49 546 74 516 L280 248 L280 90 C280 49 259 20 230 20 L221 20 L221 0 L429 0 L429 20 L420 20 C391 20 370 49 370 90 L370 261 L545 515 C570 547 598 563 628 563 L628 583 L503 583 L503 563 L514 563 C545 563 553 540 531 508 L531 508 L368 267 C307 347 246 428 185 508 C161 540 159 563 181 563 L187 563 L188 583 L188 583 Z " />
<glyph glyph-name="B_sc" unicode="&#x299;" horiz-adv-x="630" d="M305 2 L255 2 C218 2 192 39 192 91 L192 299 L292 299 C304 299 315 299 326 300 C422 298 491 237 491 152 C491 35 413 2 305 2 L305 2 Z M312 0 C473 0 590 33 590 152 C590 235 496 297 363 304 C483 319 565 373 565 444 C565 525 503 583 278 583 L63 583 L63 558 C87 558 102 541 102 508 L102 75 C102 42 87 25 63 25 L63 0 L312 0 L312 0 Z M290 304 L192 304 L192 579 L269 579 C431 579 476 518 476 434 C476 359 398 304 290 304 L290 304 Z " />
<glyph glyph-name="H_sc" unicode="&#x29c;" horiz-adv-x="763" d="M703 20 C679 20 664 37 664 70 L664 513 C664 546 679 563 703 563 L703 583 L535 583 L535 563 C559 563 574 546 574 513 L574 304 L228 304 L228 513 C228 546 243 563 267 563 L267 583 L99 583 L99 563 C123 563 138 546 138 513 L138 70 C138 37 123 20 99 20 L99 0 L267 0 L267 20 C243 20 228 37 228 70 L228 298 L574 298 L574 70 C574 37 559 20 535 20 L535 0 L703 0 L703 20 L703 20 Z " />
<glyph glyph-name="L_sc" unicode="&#x29f;" horiz-adv-x="557" d="M228 583 L60 583 L60 563 C84 563 99 546 99 513 L99 70 C99 37 84 20 60 20 L60 0 L528 0 L528 7 C533 32 540 69 544 94 L527 94 L521 82 C500 43 441 15 380 15 L269 15 C199 15 189 42 189 80 L189 513 C189 546 204 563 228 563 L228 583 L228 583 Z " />
<glyph glyph-name="circumflex" unicode="&#x2c6;" horiz-adv-x="452" d="M256 755 C250 764 235 785 226 785 C217 785 202 764 196 755 L74 566 L86 556 L226 695 L367 556 L378 566 L256 755 L256 755 Z " />
<glyph glyph-name="caron" unicode="&#x2c7;" horiz-adv-x="452" d="M367 794 L226 655 L86 794 L74 784 L196 595 C202 586 217 565 226 565 C235 565 250 586 256 595 L378 784 L367 794 L367 794 Z " />
<glyph glyph-name="firsttonechinese" unicode="&#x2c9;" horiz-adv-x="452" d="M9 645 L443 645 L443 704 L9 704 L9 645 L9 645 Z " />
<glyph glyph-name="breve" unicode="&#x2d8;" horiz-adv-x="452" d="M42 744 C48 672 126 620 226 620 C327 620 404 671 410 742 L392 745 C389 707 319 680 226 680 C133 680 63 708 60 747 L42 744 L42 744 Z " />
<glyph glyph-name="dotaccent" unicode="&#x2d9;" horiz-adv-x="452" d="M226 615 C258 615 281 638 281 670 C281 702 258 725 226 725 C194 725 171 702 171 670 C171 638 194 615 226 615 L226 615 Z " />
<glyph glyph-name="ring" unicode="&#x2da;" horiz-adv-x="452" d="M154 655 C154 699 184 730 226 730 C268 730 299 699 299 655 C299 616 264 580 226 580 C188 580 154 616 154 655 L154 655 Z M129 655 C129 605 175 560 226 560 C277 560 324 605 324 655 C324 710 283 750 226 750 C170 750 129 710 129 655 L129 655 Z " />
<glyph glyph-name="A_sc" unicode="&#x1d00;" horiz-adv-x="645" d="M119 125 L119 125 L159 227 L411 227 L456 116 C475 63 463 25 426 25 L414 25 L414 0 L636 0 L636 25 L629 25 C605 25 570 67 546 125 L546 125 L367 562 C367 562 355 603 350 603 L341 603 C344 585 317 568 277 562 L281 552 C225 410 169 267 113 125 C90 67 42 25 -2 25 L-15 25 L-15 0 L160 0 L160 25 L148 25 C109 25 97 67 120 125 L119 125 L119 125 Z M162 233 L284 546 L410 233 L162 233 L162 233 Z " />
<glyph glyph-name="C_sc" unicode="&#x1d04;" horiz-adv-x="735" d="M600 561 C584 568 563 574 545 581 L544 580 C508 589 464 594 409 594 C201 594 51 468 51 293 C51 118 197 -9 398 -9 C454 -9 501 -3 541 7 L542 5 C560 12 581 19 598 26 L598 26 C634 42 664 44 669 32 L674 22 L691 22 L691 95 L600 561 L600 561 Z M555 26 C513 7 463 -4 403 -4 C258 -4 153 121 153 293 C153 465 263 589 414 589 C471 589 516 580 553 564 L555 26 L555 26 Z " />
<glyph glyph-name="D_sc" unicode="&#x1d05;" horiz-adv-x="800" d="M266 5 C202 5 192 37 192 80 L192 579 C192 579 295 579 295 578 C519 578 646 458 646 292 C646 109 486 5 266 5 L266 5 Z M63 563 C87 563 102 546 102 513 L102 70 C102 37 87 20 63 20 L63 0 L273 0 C547 0 745 106 745 292 C745 461 589 583 314 583 L63 583 L63 563 L63 563 Z " />
<glyph glyph-name="E_sc" unicode="&#x1d07;" horiz-adv-x="579" d="M530 0 C530 4 542 74 544 84 L527 84 L521 72 C500 33 441 5 380 5 L272 5 C202 5 192 37 192 80 L192 299 L319 299 C365 299 409 267 423 223 L427 210 L444 210 L444 299 L445 299 L445 305 L444 305 L444 394 L427 394 L423 381 C409 337 365 305 319 305 L192 305 L192 578 L380 578 C427 578 475 546 494 502 L500 489 L517 489 C513 516 508 554 505 581 L505 583 L43 583 L43 563 L52 563 C81 563 102 534 102 493 L102 90 C102 49 81 20 52 20 L43 20 L43 0 L530 0 L530 0 Z " />
<glyph glyph-name="J_sc" unicode="&#x1d0a;" horiz-adv-x="288" d="M228 583 L60 583 L60 563 C84 563 99 546 99 513 L99 -63 C99 -184 28 -212 -21 -212 C-64 -212 -45 -140 -88 -140 C-112 -140 -129 -157 -129 -180 C-129 -203 -86 -220 -27 -220 C61 -220 189 -159 189 107 L189 513 C189 546 204 563 228 563 L228 583 L228 583 Z " />
<glyph glyph-name="K_sc" unicode="&#x1d0b;" horiz-adv-x="673" d="M577 583 L394 583 L394 563 L407 563 C448 563 438 525 384 472 L192 292 L192 513 C192 546 207 563 231 563 L231 583 L63 583 L63 563 C87 563 102 546 102 513 L102 70 C102 37 87 20 63 20 L63 0 L231 0 L231 20 C207 20 192 37 192 70 L192 292 L517 0 L652 0 L652 20 C626 20 594 38 560 70 L560 70 L271 342 L451 503 C497 542 540 563 578 563 L577 583 L577 583 Z " />
<glyph glyph-name="M_sc" unicode="&#x1d0d;" horiz-adv-x="803" d="M623 0 L790 0 L790 20 C767 20 753 35 750 64 C744 214 738 364 733 513 C732 546 745 563 769 563 L769 583 L644 583 L442 117 L195 583 L58 583 L58 563 C78 563 92 555 108 536 L89 63 C86 34 72 20 49 20 L49 0 L158 0 L158 20 C134 20 120 37 121 70 L121 70 L131 500 L392 0 L415 0 L647 517 L662 63 C661 34 648 21 625 21 L623 0 L623 0 Z " />
<glyph glyph-name="O_sc" unicode="&#x1d0f;" horiz-adv-x="843" d="M150 292 C150 463 261 587 414 587 C574 587 690 463 690 292 C690 120 571 -4 407 -4 C258 -4 150 120 150 292 L150 292 Z M53 292 C53 117 201 -10 406 -10 C628 -10 788 117 788 292 C788 467 632 593 416 593 C205 593 53 467 53 292 L53 292 Z " />
<glyph glyph-name="P_sc" unicode="&#x1d18;" horiz-adv-x="575" d="M253 20 C229 20 214 37 214 70 L214 265 L265 265 C433 265 555 316 555 419 C555 514 454 583 315 583 L85 583 L85 563 C109 563 124 546 124 513 L124 70 C124 37 109 20 85 20 L85 0 L253 0 L253 20 L253 20 Z M214 284 L214 568 L293 568 C396 568 470 511 470 433 C470 334 384 284 265 284 L214 284 L214 284 Z " />
<glyph glyph-name="T_sc" unicode="&#x1d1b;" horiz-adv-x="777" d="M723 579 L723 580 L723 579 L723 579 Z M725 573 L726 571 C726 571 726 572 726 573 L725 573 L725 573 Z M51 573 L55 583 L56 583 L56 582 C54 579 52 576 51 573 L51 573 Z M51 573 L51 573 L51 573 Z M306 1 L474 1 L474 21 C450 21 435 38 435 71 L435 562 L594 562 C644 562 701 534 731 495 L740 483 L757 483 C747 506 734 538 724 563 L724 580 C724 581 724 582 724 583 L724 584 L57 584 L57 570 C47 544 33 508 22 483 L39 483 L48 495 C78 534 135 562 184 562 L346 562 L346 71 C346 38 331 21 307 21 L306 1 L306 1 Z M725 581 L725 584 L724 584 L725 581 L725 581 Z " />
<glyph glyph-name="U_sc" unicode="&#x1d1c;" horiz-adv-x="657" d="M28 562 C52 562 67 545 67 512 L67 212 C67 83 141 -10 243 -10 C351 -10 458 52 498 137 L498 0 L543 0 C567 6 603 16 627 22 L627 42 C605 35 588 47 588 81 L588 583 L498 583 L498 582 L459 582 L459 562 C483 562 498 545 498 512 L498 178 C463 103 371 48 280 48 C209 48 157 117 157 212 L157 583 L67 583 L67 582 L28 582 L28 562 L28 562 Z " />
<glyph glyph-name="V_sc" unicode="&#x1d20;" horiz-adv-x="707" d="M83 475 C165 313 247 151 330 -10 L348 -10 C427 146 506 302 585 458 C614 516 651 558 673 558 L680 558 L680 583 L508 583 L508 558 L522 558 C565 558 579 522 559 471 L392 121 L195 470 C169 522 175 558 209 558 L220 558 L220 583 L11 583 L11 558 C30 558 53 527 82 475 L83 475 L83 475 Z " />
<glyph glyph-name="W_sc" unicode="&#x1d21;" horiz-adv-x="1011" d="M79 478 L79 478 C157 315 235 153 312 -10 L335 -10 L336 -5 L527 360 C585 237 643 114 701 -9 L724 -9 C786 154 848 317 911 479 C929 525 959 559 983 559 L991 559 L991 584 L817 584 L817 559 L830 559 C874 559 894 527 880 483 L750 125 C691 243 631 361 573 478 C550 524 558 558 593 558 L604 558 L604 583 L399 583 L399 558 C421 558 442 533 465 490 L513 388 L371 108 L181 478 C157 524 158 558 184 558 L191 558 L191 583 L11 583 L11 558 C30 558 54 527 77 478 L79 478 L79 478 Z " />
<glyph glyph-name="Z_sc" unicode="&#x1d22;" horiz-adv-x="632" d="M78 479 L83 491 C99 529 153 557 212 560 L511 564 L24 18 L24 0 L608 0 L611 13 C611 13 620 52 632 106 L615 106 L608 94 C585 55 524 26 464 24 L134 19 L612 564 L612 582 L69 582 L68 570 C68 570 65 531 60 478 L78 479 L78 479 Z " />
<glyph glyph-name="Wgrave" unicode="&#x1e80;" horiz-adv-x="1197" d="M553 645 L553 645 L617 500 L428 121 L185 646 C185 646 151 726 192 726 L200 726 L200 751 L8 751 L8 726 C27 726 46 702 67 660 C166 437 265 214 364 -9 L389 -9 L633 466 C703 308 773 150 843 -9 L868 -9 C946 209 1023 428 1101 646 C1117 692 1147 726 1171 726 L1178 726 L1178 751 L1000 751 L1000 726 L1013 726 C1055 726 1077 697 1067 656 L893 140 L660 657 C645 698 657 727 690 727 L701 727 L701 752 L484 752 L484 727 C508 727 531 697 554 647 L553 645 L553 645 Z M380 998 C380 990 407 965 444 934 L586 814 L596 825 L483 973 C454 1012 430 1040 422 1040 C400 1040 380 1020 380 998 L380 998 Z " />
<glyph glyph-name="Wacute" unicode="&#x1e82;" horiz-adv-x="1197" d="M590 812 L732 932 C769 964 796 990 796 996 C796 1018 776 1038 754 1038 C748 1038 723 1010 693 971 L580 823 L590 812 L590 812 Z M553 645 L553 645 L617 500 L428 121 L185 646 C185 646 151 726 192 726 L200 726 L200 751 L8 751 L8 726 C27 726 46 702 67 660 C166 437 265 214 364 -9 L389 -9 L633 466 C703 308 773 150 843 -9 L868 -9 C946 209 1023 428 1101 646 C1117 692 1147 726 1171 726 L1178 726 L1178 751 L1000 751 L1000 726 L1013 726 C1055 726 1077 697 1067 656 L893 140 L660 657 C645 698 657 727 690 727 L701 727 L701 752 L484 752 L484 727 C508 727 531 697 554 647 L553 645 L553 645 Z " />
<glyph glyph-name="Wdieresis" unicode="&#x1e84;" horiz-adv-x="1197" d="M664 865 C696 865 719 888 719 920 C719 952 696 975 664 975 C632 975 609 952 609 920 C609 888 632 865 664 865 L664 865 Z M501 865 C533 865 556 888 556 920 C556 952 533 975 501 975 C469 975 446 952 446 920 C446 888 469 865 501 865 L501 865 Z M553 645 L553 645 L617 500 L428 121 L185 646 C185 646 151 726 192 726 L200 726 L200 751 L8 751 L8 726 C27 726 46 702 67 660 C166 437 265 214 364 -9 L389 -9 L633 466 C703 308 773 150 843 -9 L868 -9 C946 209 1023 428 1101 646 C1117 692 1147 726 1171 726 L1178 726 L1178 751 L1000 751 L1000 726 L1013 726 C1055 726 1077 697 1067 656 L893 140 L660 657 C645 698 657 727 690 727 L701 727 L701 752 L484 752 L484 727 C508 727 531 697 554 647 L553 645 L553 645 Z " />
<glyph glyph-name="Etilde" unicode="&#x1ebc;" horiz-adv-x="673" d="M142 870 C142 905 170 930 209 930 C283 930 389 865 463 865 C518 865 558 915 558 985 L554 985 C554 950 524 925 483 925 C409 925 302 990 228 990 C176 990 138 940 138 870 L142 870 L142 870 Z M624 0 C624 4 636 74 638 84 L621 84 L615 72 C594 33 535 5 474 5 L279 5 C209 5 199 37 199 80 L199 385 L413 385 C459 385 503 353 517 309 L521 296 L538 296 L538 385 L539 385 L539 391 L538 391 L538 480 L521 480 L517 467 C503 423 459 391 413 391 L199 391 L199 745 L474 745 C521 745 569 713 588 669 L594 656 L611 656 C607 683 602 721 599 748 L599 750 L40 750 L40 730 L49 730 C78 730 99 701 99 660 L99 90 C99 49 78 20 49 20 L40 20 L40 0 L624 0 L624 0 Z " />
<glyph glyph-name="Ygrave" unicode="&#x1ef2;" horiz-adv-x="756" d="M277 0 L495 0 L495 20 L486 20 C457 20 436 49 436 90 L436 336 L662 675 C685 710 715 730 747 730 L747 750 L619 750 L619 730 L630 730 C661 730 669 708 650 677 L432 344 C352 454 270 565 191 675 C168 707 167 730 189 730 L195 730 L195 750 L9 750 L9 730 C25 730 48 709 73 675 L73 675 L334 322 L334 90 C334 49 313 20 284 20 L275 20 L277 0 L277 0 Z M180 996 C180 988 207 963 244 932 L386 812 L397 823 L283 971 C254 1010 229 1038 222 1038 C200 1038 180 1018 180 996 L180 996 Z " />
<glyph glyph-name="quoteleft" unicode="&#x2018;" horiz-adv-x="838" d="M90 640 C80 640 72 635 66 627 C64 687 93 739 130 749 L120 760 C74 748 40 686 40 614 C40 583 61 560 90 560 C142 560 142 640 90 640 L90 640 Z " />
<glyph glyph-name="quoteright" unicode="&#x2019;" horiz-adv-x="171" d="M102 693 C101 631 76 580 41 571 L52 560 C96 572 127 635 127 711 C127 739 106 760 77 760 C25 760 25 680 77 680 C87 680 95 685 101 693 L102 693 L102 693 Z " />
<glyph glyph-name="quotedblleft" unicode="&#x201c;" horiz-adv-x="838" d="M217 640 C207 640 199 635 193 627 C191 687 220 739 257 749 L247 760 C201 748 167 686 167 614 C167 583 188 560 217 560 C269 560 269 640 217 640 L217 640 Z M78 640 C68 640 60 635 54 627 C52 687 81 739 118 749 L108 760 C62 748 28 686 28 614 C28 583 49 560 78 560 C130 560 130 640 78 640 L78 640 Z " />
<glyph glyph-name="quotedblright" unicode="&#x201d;" horiz-adv-x="838" d="M241 693 C240 631 215 580 180 571 L191 560 C235 572 266 635 266 711 C266 739 245 760 216 760 C164 760 164 680 216 680 C226 680 234 685 240 693 L241 693 L241 693 Z M101 693 C100 631 75 580 40 571 L51 560 C95 572 126 635 126 711 C126 739 105 760 76 760 C24 760 24 680 76 680 C86 680 94 685 100 693 L101 693 L101 693 Z " />
<glyph glyph-name="Euro" unicode="&#x20ac;" horiz-adv-x="902" d="M843 700 L839 691 C834 679 810 683 780 701 C723 737 645 760 522 760 C310 760 149 638 110 461 L65 461 L56 400 L102 400 C101 384 101 367 102 351 L56 351 L47 290 L110 290 C148 113 305 -9 510 -9 C628 -9 714 14 777 51 C809 69 836 72 841 58 L845 48 L860 48 L860 121 L848 131 L848 131 L860 120 L860 175 L839 175 L831 159 C809 116 760 68 717 44 C662 14 595 -4 513 -4 C362 -4 247 115 219 289 L583 289 L591 350 L213 350 C212 366 212 383 213 399 L591 399 L600 460 L219 460 C249 634 369 753 526 753 C609 753 671 736 721 708 L721 707 C763 683 809 635 831 591 L839 574 L860 574 L860 699 L843 700 L843 700 Z " />
<glyph glyph-name="F_sc" unicode="&#xa730;" horiz-adv-x="554" d="M43 563 L52 563 C81 563 102 534 102 493 L102 90 C102 49 81 20 52 20 L43 20 L43 0 L251 0 L251 20 L242 20 C213 20 192 49 192 90 L192 299 L310 299 C356 299 400 267 414 223 L418 210 L435 210 L435 394 L418 394 L414 381 C400 337 356 305 310 305 L192 305 L192 579 L380 579 C426 579 474 547 493 503 L499 490 L516 490 C513 516 508 555 505 581 L505 583 L43 583 L43 563 L43 563 Z " />
<glyph glyph-name="S_sc" unicode="&#xa731;" horiz-adv-x="552" d="M311 597 L309 589 C291 592 272 593 253 593 C144 593 65 527 65 436 C65 372 138 296 268 245 C377 202 439 156 439 126 C439 51 379 -3 295 -3 C263 -3 231 3 202 14 C155 33 104 84 80 138 L71 158 L48 158 L48 11 L66 11 L70 24 C75 41 108 39 148 20 C148 20 196 -1 201 -3 L202 0 C231 -8 262 -12 294 -12 C419 -12 510 56 510 150 C510 215 442 288 321 336 C202 383 135 434 135 469 C135 537 184 586 252 586 C257 586 306 583 305 580 C356 569 412 524 437 472 L447 453 L469 453 L469 564 L452 564 L447 558 C442 551 415 554 384 567 C359 577 335 589 308 595 L311 597 L311 597 Z " />
<glyph glyph-name="X_sc" unicode="&#xf078;" horiz-adv-x="691" d="M675 583 L526 583 L526 563 L535 563 C562 563 566 544 544 516 L374 327 L216 517 C196 544 196 563 215 563 L221 563 L221 583 L47 583 L47 563 C64 563 87 542 116 508 L116 508 L310 275 C248 208 187 141 125 74 C92 38 57 19 24 19 L24 -1 L170 -1 L170 19 L161 19 C110 19 157 74 157 74 L321 260 L484 64 C504 37 504 18 485 18 L479 18 L479 -2 L653 -2 L653 18 C636 18 613 39 584 73 L584 73 L379 320 L577 514 C612 545 643 561 674 561 L675 583 L675 583 Z " />
</font>
</svg>
