<?xml version="1.0" encoding="UTF-8"?>
<svg xmlns="http://www.w3.org/2000/svg" xmlns:xlink="http://www.w3.org/1999/xlink" version="1.2" >
<font id="Pierson Thin">
<font-face  font-family="Pierson" units-per-em="1024" ascent="975" descent="-300" font-style="normal" font-weight="100" font-stretch="normal" cap-height="1041" x-height="488" underline-position="-125" underline-thickness="50" />
<missing-glyph  horiz-adv-x="100" d="" />
<glyph glyph-name="NULL" d="" />
<glyph glyph-name="CR" unicode="&#xd;" horiz-adv-x="256" d="" />
<glyph glyph-name="space" unicode="&#x20;" horiz-adv-x="362" d="" />
<glyph glyph-name="exclam" unicode="&#x21;" horiz-adv-x="164" d="M102 15 C102 41 62 41 62 15 C62 -11 102 -11 102 15 L102 15 Z M82 755 C73 755 69 727 70 688 L80 210 L84 210 L94 688 C95 727 91 755 82 755 L82 755 Z " />
<glyph glyph-name="quotedbl" unicode="&#x22;" horiz-adv-x="414" d="M220 750 C215 750 213 731 214 705 L221 560 L223 560 L230 705 C229 733 232 752 220 750 L220 750 Z M100 750 C95 750 93 731 94 705 L101 560 L103 560 L110 705 C109 733 112 752 100 750 L100 750 Z " />
<glyph glyph-name="numbersign" unicode="&#x23;" horiz-adv-x="639" d="M471 692 L440 468 L229 468 L260 692 L258 692 L227 468 L61 468 L59 452 L225 452 L192 208 L23 208 L21 192 L189 192 L163 0 L165 0 L191 192 L402 192 L376 0 L378 0 L404 192 L574 192 L576 208 L407 208 L440 452 L617 452 L619 468 L442 468 L473 692 L471 692 L471 692 Z M227 452 L438 452 L405 208 L194 208 L227 452 L227 452 Z " />
<glyph glyph-name="dollar" unicode="&#x24;" horiz-adv-x="630" d="M73 48 L77 60 C83 75 110 72 144 53 C181 29 218 12 272 0 L272 -75 L287 -75 L287 -3 C308 -7 330 -9 352 -10 L352 -75 L367 -75 L367 -10 C497 -9 591 67 591 171 C591 239 507 323 367 389 L367 748 C431 734 490 688 514 627 L524 604 L546 604 L546 706 L529 706 L524 701 C519 695 494 702 465 717 C441 729 412 740 383 748 L383 747 C377 748 371 749 365 750 L365 824 L350 824 L350 753 C329 757 307 759 285 760 L285 825 L270 825 L270 760 C159 759 78 687 78 588 C78 542 146 475 270 407 L270 4 C250 9 230 15 211 23 C160 44 107 102 86 161 L77 187 L54 187 L54 49 L73 48 L73 48 Z M285 399 C305 388 327 377 350 366 L350 -7 C328 -6 306 -3 285 1 L285 399 L285 399 Z M365 360 C497 297 571 221 571 165 C571 66 484 -6 365 -7 L365 360 L365 360 Z M285 430 L285 759 C307 758 329 756 350 752 L350 397 C327 408 305 419 285 430 L285 430 Z M270 438 C158 501 97 560 97 598 C97 690 170 758 270 759 L270 438 L270 438 Z " />
<glyph glyph-name="ampersand" unicode="&#x26;" horiz-adv-x="281" d="M311 471 L314 468 C392 492 449 553 449 614 C449 699 393 760 315 760 C225 760 160 696 160 607 C160 583 220 510 302 412 C302 412 385 317 518 160 C434 65 341 9 257 9 C153 9 78 93 78 210 C78 312 151 408 252 439 L248 440 C137 406 57 307 57 203 C57 79 136 -10 245 -10 C335 -10 434 52 523 155 C536 140 549 124 563 108 C620 40 677 -9 700 -9 C762 -9 816 58 827 150 L823 151 C813 67 764 7 708 7 C688 7 635 54 581 118 C565 137 550 155 536 172 C608 259 672 373 719 502 L714 502 C667 374 603 262 532 177 C402 331 321 423 321 423 C238 522 178 595 178 619 C178 698 236 756 316 756 C384 756 434 697 434 616 C434 554 383 494 312 472 L311 471 L311 471 Z " />
<glyph glyph-name="quotesingle" unicode="&#x27;" horiz-adv-x="245" d="M100 750 C95 750 93 731 94 705 L101 560 L103 560 L110 705 C109 733 112 752 100 750 L100 750 Z " />
<glyph glyph-name="parenleft" unicode="&#x28;" horiz-adv-x="615" d="M320 760 C192 674 100 469 100 273 C100 84 189 -121 313 -214 L314 -212 C198 -125 114 79 114 273 C114 473 201 677 321 758 L320 760 L320 760 Z " />
<glyph glyph-name="parenright" unicode="&#x29;" horiz-adv-x="615" d="M29 758 C157 675 250 471 250 273 C250 72 160 -131 36 -212 L37 -214 C169 -128 264 76 264 273 C264 467 166 672 30 760 L29 758 L29 758 Z " />
<glyph glyph-name="asterisk" unicode="&#x2a;" horiz-adv-x="246" d="M260 687 C269 691 264 700 255 695 C255 695 259 690 261 686 L260 687 L260 687 Z M53 566 L52 564 L151 628 L145 509 C145 498 157 498 157 509 L151 628 L152 629 L252 565 L253 567 C253 567 257 574 258 575 L152 629 C117 611 80 593 46 574 C37 569 45 561 53 567 L53 566 L53 566 Z M153 630 L260 685 L254 695 L153 630 L153 630 Z M254 565 L253 567 C254 566 254 566 254 565 L254 565 Z M254 566 C263 561 265 571 258 576 C258 576 255 570 254 567 L254 566 L254 566 Z M50 695 L50 695 C41 702 35 692 44 688 L43 686 L150 631 L50 695 L50 695 Z M150 631 L156 751 C156 762 144 762 144 751 L150 631 L150 631 Z " />
<glyph glyph-name="plus" unicode="&#x2b;" horiz-adv-x="710" d="M347 505 L347 257 L100 257 L100 243 L347 243 L347 -5 L363 -5 L363 243 L610 243 L610 257 L363 257 L363 505 L347 505 L347 505 Z " />
<glyph glyph-name="comma" unicode="&#x2c;" horiz-adv-x="257" d="M175 59 C205 -30 152 -109 65 -109 L65 -110 C136 -110 187 -60 187 9 C187 41 180 69 168 88 C159 104 144 114 125 114 C90 114 65 89 65 54 C65 19 90 -6 125 -6 C155 -6 177 21 175 58 L175 59 L175 59 Z " />
<glyph glyph-name="hyphen" unicode="&#x2d;" horiz-adv-x="520" d="M80 277 L440 277 L440 293 L80 293 L80 277 L80 277 Z " />
<glyph glyph-name="period" unicode="&#x2e;" horiz-adv-x="195" d="M145 15 C145 41 105 41 105 15 C105 -11 145 -11 145 15 L145 15 Z " />
<glyph glyph-name="slash" unicode="&#x2f;" horiz-adv-x="370" d="M328 770 L46 -80 L58 -80 L340 770 L328 770 L328 770 Z " />
<glyph glyph-name="zero" unicode="0" horiz-adv-x="602" d="M62 250 C62 382 164 502 305 502 C432 502 548 396 548 250 C548 118 446 -2 305 -2 C178 -2 62 104 62 250 L62 250 Z M53 250 C53 99 173 -10 305 -10 C451 -10 557 114 557 250 C557 401 437 510 305 510 C159 510 53 386 53 250 L53 250 Z " />
<glyph glyph-name="one" unicode="1" horiz-adv-x="159" d="M129 20 C105 20 90 37 90 70 L90 430 C90 463 105 480 129 480 L129 500 L31 500 L31 480 C55 480 70 463 70 430 L70 70 C70 37 55 20 31 20 L31 0 L129 0 L129 20 L129 20 Z " />
<glyph glyph-name="two" unicode="2" horiz-adv-x="605" d="M436 18 L71 18 C59 18 43 3 30 0 C278 126 504 266 504 341 C504 439 418 510 300 510 C177 510 70 419 46 293 L50 292 C73 410 173 495 289 495 C402 495 484 429 484 337 C484 260 265 124 26 2 L29 0 L509 0 L520 18 C524 24 529 31 533 36 C529 36 520 37 520 37 C509 26 478 18 435 18 L436 18 L436 18 Z " />
<glyph glyph-name="three" unicode="3" horiz-adv-x="491" d="M19 -228 L20 -232 C270 -206 451 -113 451 -11 C451 89 300 161 92 162 C303 252 456 337 456 383 C456 457 374 511 261 511 C145 511 45 444 24 351 L28 350 C48 435 142 497 253 497 C359 497 435 446 435 376 C435 331 289 249 88 164 L88 160 L88 160 L88 160 C286 132 430 59 430 -15 C430 -113 257 -202 19 -227 L19 -228 L19 -228 Z " />
<glyph glyph-name="four" unicode="4" horiz-adv-x="791" d="M693 15 L505 15 L505 530 L502 530 L15 4 L15 0 L485 0 L485 -220 L505 -220 L505 0 L691 0 C717 0 740 -3 744 -8 L746 -9 C746 -9 739 -9 759 -10 L765 -10 C765 -1 770 25 771 38 C764 38 752 39 752 39 C743 25 723 15 693 15 L693 15 Z M34 15 L485 500 L485 15 L34 15 L34 15 Z " />
<glyph glyph-name="five" unicode="5" horiz-adv-x="511" d="M356 500 L158 500 L78 242 L82 239 C302 239 464 158 464 38 C464 -87 294 -198 60 -227 L60 -231 C304 -201 481 -85 481 45 C481 171 317 260 91 260 L162 482 L428 483 L431 500 C432 503 433 506 434 509 L415 509 C406 504 386 500 357 500 L356 500 L356 500 Z " />
<glyph glyph-name="six" unicode="6" horiz-adv-x="656" d="M640 750 C307 750 66 554 66 283 C66 113 183 -10 344 -10 C495 -10 605 95 605 240 C605 368 482 460 311 460 C199 460 113 406 89 326 C117 573 340 746 641 746 L640 750 L640 750 Z M86 271 C86 379 180 458 310 458 C470 458 585 366 585 240 C585 95 484 -10 344 -10 C194 -10 86 108 86 271 L86 271 Z " />
<glyph glyph-name="seven" unicode="7" horiz-adv-x="527" d="M76 493 L75 493 C72 487 68 478 65 471 C69 471 83 470 83 470 C95 478 117 484 147 484 L521 484 L129 -221 L144 -221 L523 484 L523 499 L157 499 C131 499 106 499 101 500 L80 500 C79 497 77 495 76 492 L76 493 L76 493 Z " />
<glyph glyph-name="eight" unicode="8" horiz-adv-x="634" d="M297 394 C302 392 307 390 312 388 C466 339 578 282 578 187 C578 73 471 -10 323 -10 C177 -10 71 67 71 173 C71 274 166 366 297 393 L297 394 L297 394 Z M293 394 C154 364 54 272 54 173 C54 66 167 -11 323 -11 C480 -11 594 69 594 179 C594 288 487 350 337 400 C470 429 565 509 565 594 C565 689 463 758 321 758 C180 758 78 685 78 584 C78 509 167 437 293 393 L293 394 L293 394 Z M334 401 C329 403 324 405 319 407 C189 448 95 519 95 593 C95 689 191 758 323 758 C454 758 549 689 549 594 C549 508 459 428 334 402 L334 401 L334 401 Z " />
<glyph glyph-name="nine" unicode="9" horiz-adv-x="656" d="M16 -250 C349 -250 590 -54 590 217 C590 387 473 510 312 510 C161 510 51 405 51 260 C51 132 174 40 345 40 C457 40 543 94 567 174 C539 -73 316 -246 15 -246 L16 -250 L16 -250 Z M570 229 C570 121 476 42 346 42 C186 42 71 134 71 260 C71 405 172 510 312 510 C462 510 570 392 570 229 L570 229 Z " />
<glyph glyph-name="colon" unicode="&#x3a;" horiz-adv-x="135" d="M145 405 C145 431 105 431 105 405 C105 379 145 379 145 405 L145 405 Z M145 15 C145 41 105 41 105 15 C105 -11 145 -11 145 15 L145 15 Z " />
<glyph glyph-name="semicolon" unicode="&#x3b;" horiz-adv-x="257" d="M145 405 C145 431 105 431 105 405 C105 379 145 379 145 405 L145 405 Z M175 59 C205 -30 152 -109 65 -109 L65 -110 C136 -110 187 -60 187 9 C187 41 180 69 168 88 C159 104 144 114 125 114 C90 114 65 89 65 54 C65 19 90 -6 125 -6 C155 -6 177 21 175 58 L175 59 L175 59 Z " />
<glyph glyph-name="equal" unicode="&#x3d;" horiz-adv-x="613" d="M73 204 L73 196 L543 196 L543 204 L73 204 L73 204 Z M73 304 L73 296 L543 296 L543 304 L73 304 L73 304 Z " />
<glyph glyph-name="question" unicode="&#x3f;" horiz-adv-x="309" d="M145 15 C145 41 105 41 105 15 C105 -11 145 -11 145 15 L145 15 Z M119 145 C119 145 122 359 125 360 C199 360 239 402 278 460 C294 483 305 521 305 551 C305 672 238 760 145 760 C134 760 126 754 126 745 C126 739 131 735 137 735 C141 735 148 739 152 739 C237 739 299 659 299 549 C299 525 288 491 273 469 C238 417 201 380 118 380 C116 379 115 145 115 145 L119 145 L119 145 Z " />
<glyph glyph-name="at" unicode="&#x40;" horiz-adv-x="1256" d="M1181 0 C1116 -140 884 -241 628 -241 C305 -241 71 -31 71 259 C71 549 305 759 628 759 C952 759 1186 584 1186 343 C1186 145 1095 2 969 2 C825 2 741 85 770 200 L840 480 L821 480 L793 369 C786 440 722 490 635 490 C463 490 339 369 339 201 C339 94 424 17 542 17 C629 17 710 77 745 163 C741 64 828 -4 965 -4 C1101 -4 1200 142 1200 344 C1200 588 959 765 627 765 C295 765 54 553 54 260 C54 -32 297 -243 632 -243 C888 -243 1121 -141 1187 1 L1181 0 L1181 0 Z M789 357 L750 201 C725 101 642 29 552 29 C441 29 360 103 360 206 C360 368 475 485 634 485 C724 485 789 431 790 357 L789 357 L789 357 Z " />
<glyph glyph-name="A" unicode="A" horiz-adv-x="690" d="M116 125 L116 125 L184 297 L511 297 L577 112 C592 61 577 25 540 25 L528 25 L528 0 L682 0 L682 25 L675 25 C652 25 622 62 601 114 L376 743 C376 743 369 770 366 770 L364 770 C367 756 362 744 353 743 L357 732 L112 116 C88 62 42 24 0 24 L-13 24 L-13 -1 L157 -1 L157 24 L145 24 C106 24 95 66 118 124 L116 125 L116 125 Z M186 297 L358 730 L512 297 L186 297 L186 297 Z " />
<glyph glyph-name="B" unicode="B" horiz-adv-x="669" d="M260 1 L210 1 C171 1 142 39 142 91 L142 385 L283 385 C469 385 604 304 604 193 C604 43 460 1 260 1 L260 1 Z M262 0 C475 0 629 42 629 193 C629 305 485 386 287 386 C484 396 623 470 623 569 C623 675 545 751 265 751 L79 751 L79 726 C103 726 118 709 118 676 L118 76 C118 43 103 26 79 26 L79 1 L262 0 L262 0 Z M241 387 L142 387 L142 750 L263 750 C526 750 599 673 599 567 C599 463 449 387 241 387 L241 387 Z " />
<glyph glyph-name="C" unicode="C" horiz-adv-x="788" d="M740 51 L740 163 L718 163 L708 141 C688 95 641 48 595 27 C542 5 479 -8 402 -8 C224 -8 95 153 95 376 C95 598 229 759 415 759 C496 759 557 746 606 724 C647 702 688 656 708 610 L718 588 L740 588 L740 697 L723 697 L718 689 C712 680 688 685 658 702 C602 738 528 760 415 760 C215 760 71 598 71 375 C71 152 210 -10 402 -10 C508 -10 588 12 649 47 C683 66 712 72 718 60 L723 51 L740 51 L740 51 Z " />
<glyph glyph-name="D" unicode="D" horiz-adv-x="841" d="M256 1 C157 1 142 34 142 80 L142 749 L311 749 C597 749 760 592 760 375 C760 136 548 1 256 1 L256 1 Z M79 730 C103 730 118 713 118 680 L118 70 C118 37 103 20 79 20 L79 0 L258 0 C564 0 786 136 786 375 C786 593 616 750 316 750 L79 750 L79 730 L79 730 Z " />
<glyph glyph-name="E" unicode="E" horiz-adv-x="616" d="M59 730 L68 730 C97 730 118 701 118 660 L118 90 C118 49 97 20 68 20 L59 20 L59 0 L567 0 C571 23 577 57 581 80 L564 80 L558 68 C537 29 478 1 417 1 L222 1 C152 1 142 34 142 80 L142 385 L357 385 C403 385 447 353 461 309 L465 296 L482 296 L482 475 L465 475 L461 462 C447 418 403 386 357 386 L142 386 L142 749 L417 749 C463 749 511 717 530 673 L536 660 L553 660 C550 686 545 724 542 750 L59 750 L59 730 L59 730 Z " />
<glyph glyph-name="F" unicode="F" horiz-adv-x="591" d="M59 730 L68 730 C97 730 118 701 118 660 L118 90 C118 49 97 20 68 20 L59 20 L59 0 L201 0 L201 20 L192 20 C163 20 142 49 142 90 L142 385 L347 385 C393 385 437 353 451 309 L455 296 L472 296 L472 475 L455 475 L451 462 C437 418 393 386 347 386 L142 386 L142 749 L417 749 C463 749 511 717 530 673 L536 660 L553 660 C550 686 545 724 542 750 L59 750 L59 730 L59 730 Z " />
<glyph glyph-name="G" unicode="G" horiz-adv-x="816" d="M723 696 L718 688 C712 679 688 684 658 701 C602 737 528 759 415 759 C215 759 71 597 71 374 C71 151 208 -11 398 -11 C582 -11 707 20 798 62 L798 63 C712 23 589 -6 402 -6 C516 -6 609 6 658 24 C594 14 465 -5 402 -5 C225 -5 96 155 96 375 C96 597 230 758 416 758 C497 758 558 745 607 723 C648 701 689 655 709 609 L719 587 L741 587 L741 696 L723 696 L723 696 Z M660 25 C685 34 699 45 699 57 L699 32 C699 32 684 29 661 25 L660 25 L660 25 Z M699 31 L722 35 L722 215 C722 264 740 300 764 300 L771 300 L771 325 L650 325 L650 300 L657 300 C681 300 699 264 699 215 L699 31 L699 31 Z " />
<glyph glyph-name="H" unicode="H" horiz-adv-x="798" d="M738 20 C714 20 699 37 699 70 L699 680 C699 713 714 730 738 730 L738 750 L637 750 L637 730 C661 730 676 713 676 680 L676 385 L178 385 L178 680 C178 713 193 730 217 730 L217 750 L115 750 L115 730 C139 730 154 713 154 680 L154 70 C154 37 139 20 115 20 L115 0 L217 0 L217 20 C193 20 178 37 178 70 L178 383 L676 383 L676 70 C676 37 661 20 637 20 L637 0 L738 0 L738 20 L738 20 Z " />
<glyph glyph-name="I" unicode="I" horiz-adv-x="255" d="M195 20 C171 20 156 37 156 70 L156 680 C156 713 171 730 195 730 L195 750 L93 750 L93 730 C117 730 132 713 132 680 L132 70 C132 37 117 20 93 20 L93 0 L195 0 L195 20 L195 20 Z " />
<glyph glyph-name="J" unicode="J" horiz-adv-x="255" d="M195 750 L93 750 L93 730 C117 730 132 713 132 680 L132 0 C132 -177 46 -218 -12 -218 C-23 -218 -19 -199 -30 -199 C-36 -199 -40 -204 -40 -210 C-40 -216 -29 -220 -13 -220 C56 -220 156 -170 156 44 L156 680 C156 713 171 730 195 730 L195 750 L195 750 Z " />
<glyph glyph-name="K" unicode="K" horiz-adv-x="690" d="M181 750 L79 750 L79 730 C103 730 118 713 118 680 L118 70 C118 37 103 20 79 20 L79 0 L181 0 L181 20 C157 20 142 37 142 70 L142 375 L617 0 L665 0 L665 20 C639 20 604 38 564 70 L564 70 L164 387 L494 671 C541 710 584 730 622 730 L622 750 L467 750 L467 730 L480 730 C522 730 504 688 437 630 L143 375 L143 680 C143 713 158 730 182 730 L181 750 L181 750 Z " />
<glyph glyph-name="L" unicode="L" horiz-adv-x="632" d="M195 750 L93 750 L93 730 C117 730 132 713 132 680 L132 70 C132 37 117 20 93 20 L93 0 L603 0 L603 2 C607 25 613 60 617 83 L600 83 L594 71 C573 32 514 4 453 4 L236 4 C166 4 156 36 156 80 L156 680 C156 713 171 730 195 730 L195 750 L195 750 Z " />
<glyph glyph-name="M" unicode="M" horiz-adv-x="852" d="M444 0 L445 5 L756 733 C761 512 767 291 772 71 C773 38 759 21 735 21 L735 1 L837 1 L837 21 C813 21 798 37 796 69 L779 681 C778 714 792 731 816 731 L816 751 L755 751 L449 29 L119 751 L61 751 L61 731 C81 731 95 723 110 703 L92 70 C90 38 75 22 51 22 L51 2 L137 2 L137 22 C113 22 99 39 100 72 L100 72 L116 694 C117 693 122 682 123 682 C228 455 332 228 437 2 L444 0 L444 0 Z " />
<glyph glyph-name="N" unicode="N" horiz-adv-x="772" d="M55 730 C71 730 81 726 97 714 L96 69 L96 69 C96 36 81 19 57 19 L57 -1 L143 -1 L143 19 C119 19 104 36 104 69 L104 69 L103 709 C112 702 121 694 129 685 C308 457 487 229 666 0 L671 0 L673 680 L673 680 C673 713 688 730 712 730 L712 750 L626 750 L626 730 C650 730 665 713 665 680 L666 38 L660 46 L109 750 L55 750 L55 730 L55 730 Z " />
<glyph glyph-name="O" unicode="O" horiz-adv-x="880" d="M96 375 C96 597 242 758 443 758 C649 758 799 597 799 375 C799 153 645 -8 433 -8 C238 -8 96 153 96 375 L96 375 Z M71 375 C71 152 223 -10 433 -10 C660 -10 825 152 825 375 C825 598 665 760 443 760 C227 760 71 598 71 375 L71 375 Z " />
<glyph glyph-name="P" unicode="P" horiz-adv-x="630" d="M187 20 C163 20 148 37 148 70 L148 360 L220 360 C446 360 610 421 610 542 C610 663 477 750 293 750 L85 750 L85 730 C109 730 124 713 124 680 L124 70 C124 37 109 20 85 20 L85 0 L187 0 L187 20 L187 20 Z M148 365 L148 746 L287 746 C462 746 588 662 588 546 C588 425 433 365 220 365 L148 365 L148 365 Z " />
<glyph glyph-name="Q" unicode="Q" horiz-adv-x="875" d="M1287 -54 L1287 -53 C1259 -77 1112 -94 938 -94 C724 -94 505 -59 414 -10 C653 -21 825 148 825 374 C825 597 665 759 443 759 C227 759 71 597 71 374 C71 165 204 10 393 -9 L391 -9 C497 -67 725 -110 936 -110 C1102 -110 1249 -87 1287 -55 L1287 -54 L1287 -54 Z M412 -9 L406 -9 C225 5 97 161 97 374 C97 596 243 757 444 757 C650 757 800 596 800 374 C800 151 646 -10 433 -10 C428 -10 418 -11 414 -9 L412 -9 L412 -9 Z " />
<glyph glyph-name="R" unicode="R" horiz-adv-x="670" d="M79 730 C103 730 118 713 118 680 L118 70 C118 37 103 20 79 20 L79 0 L181 0 L181 20 C157 20 142 37 142 70 L142 374 L398 374 C406 353 456 234 522 81 C554 7 564 1 660 1 L660 6 C587 6 579 11 549 81 C484 233 434 348 422 375 C524 382 596 438 596 542 C596 663 513 750 399 750 L79 750 L79 730 L79 730 Z M399 380 L142 380 L142 745 L392 745 C496 745 571 661 571 546 C571 436 501 380 399 380 L399 380 Z " />
<glyph glyph-name="S" unicode="S" horiz-adv-x="630" d="M73 48 L77 60 C83 75 110 72 144 53 C161 42 180 32 200 23 C201 22 211 17 211 18 C257 0 309 -10 362 -10 C494 -10 589 66 589 171 C589 237 509 322 369 387 C195 468 97 549 97 597 C97 690 171 758 273 758 C311 758 348 753 382 744 C436 730 491 681 512 627 L522 604 L544 604 L544 706 L527 706 L522 701 C517 695 492 702 463 717 C439 729 410 740 381 748 L381 747 C347 755 310 760 272 760 C159 760 77 688 77 588 C77 532 177 445 354 363 C492 299 570 221 570 164 C570 64 482 -8 361 -8 C308 -8 256 3 210 22 C159 43 106 101 85 160 L76 186 L53 186 L53 48 L73 48 L73 48 Z " />
<glyph glyph-name="T" unicode="T" horiz-adv-x="864" d="M55 750 L55 749 L55 750 L55 750 Z M54 748 C54 747 54 747 54 746 L54 748 L54 748 Z M810 749 L55 749 L55 746 C45 722 31 688 21 664 L38 664 L47 676 C77 715 134 743 183 743 L421 743 L421 69 C421 36 406 19 382 19 L382 -1 L483 -1 L483 19 C459 19 444 36 444 69 L444 743 L681 743 C730 743 787 715 817 676 L826 664 L843 664 C834 688 820 722 810 746 L810 749 L810 749 Z " />
<glyph glyph-name="U" unicode="U" horiz-adv-x="666" d="M636 34 C614 27 597 39 597 73 L597 750 L534 750 L534 730 C558 730 573 713 573 680 L573 182 C525 79 404 5 285 5 C182 5 107 103 107 238 L107 750 L44 750 L44 730 C68 730 83 713 83 680 L83 238 C83 94 164 -10 276 -10 C399 -10 524 66 573 171 L573 0 L585 0 L597 3 C597 5 634 13 636 14 L636 34 L636 34 Z " />
<glyph glyph-name="V" unicode="V" horiz-adv-x="738" d="M615 625 L615 625 L353 26 L120 631 C101 685 114 724 151 724 L163 724 L163 749 L26 749 L26 724 L31 724 C44 724 68 689 89 638 C172 422 254 205 337 -11 L342 -11 C436 201 529 413 623 624 C649 682 683 724 705 724 L711 724 L711 749 L565 749 L565 724 L579 724 C625 724 639 682 614 624 L615 625 L615 625 Z " />
<glyph glyph-name="W" unicode="W" horiz-adv-x="1112" d="M561 645 L561 645 C576 597 592 548 606 500 L327 29 L110 645 C94 691 102 725 129 725 L137 725 L137 750 L26 750 L26 725 C45 725 61 702 78 660 C153 437 228 213 304 -10 L310 -10 L609 492 C662 325 716 158 768 -10 L774 -10 C854 208 933 427 1014 645 C1031 691 1061 725 1085 725 L1092 725 L1092 750 L943 750 L943 725 L956 725 C1001 725 1021 691 1004 645 L1004 645 L783 32 C718 236 652 441 588 645 C573 691 589 725 627 725 L638 725 L638 750 L502 750 L502 725 C525 725 544 695 560 645 L561 645 L561 645 Z " />
<glyph glyph-name="X" unicode="X" horiz-adv-x="734" d="M603 0 L699 0 L699 20 C683 20 665 35 642 63 L397 387 L634 679 C662 711 692 728 723 728 L723 748 L600 748 L600 728 L609 728 C640 728 645 705 620 673 L620 673 L396 387 C324 482 251 578 180 673 C156 705 154 728 176 728 L182 728 L182 748 L86 748 L86 728 C102 728 120 713 143 685 L379 373 L131 66 C103 35 74 19 44 19 L44 -1 L166 -1 L166 19 L157 19 C126 19 122 42 147 74 L147 74 L382 369 C456 271 531 172 604 74 C628 42 630 19 608 19 L602 19 L603 0 L603 0 Z " />
<glyph glyph-name="Y" unicode="Y" horiz-adv-x="680" d="M129 750 L32 750 L32 730 C46 730 64 715 85 688 L332 335 L332 89 C332 48 311 19 282 19 L273 19 L273 -1 L414 -1 L414 19 L405 19 C376 19 355 48 355 89 L355 338 C432 450 508 562 585 674 C610 710 640 729 672 729 L672 749 L554 749 L554 729 L564 729 C595 729 603 707 583 676 L354 339 L119 678 C100 708 101 729 122 729 L129 729 L129 750 L129 750 Z " />
<glyph glyph-name="Z" unicode="Z" horiz-adv-x="719" d="M79 664 L84 676 C101 715 157 743 219 743 L219 743 L674 744 L25 4 L25 -1 L696 -1 L698 6 L697 6 C699 16 706 46 715 84 L698 84 L691 72 C668 33 607 6 547 5 L54 4 L701 744 L701 749 L71 749 L71 746 C70 746 68 712 64 663 L79 664 L79 664 Z " />
<glyph glyph-name="bracketleft" unicode="&#x5b;" horiz-adv-x="277" d="M117 744 L327 744 L327 750 L110 750 L110 -195 L327 -195 L327 -189 L117 -189 L117 744 L117 744 Z " />
<glyph glyph-name="backslash" unicode="&#x5c;" horiz-adv-x="328" d="M46 770 L306 -80 L318 -80 L58 770 L46 770 L46 770 Z " />
<glyph glyph-name="bracketright" unicode="&#x5d;" horiz-adv-x="280" d="M163 744 L163 -189 L-47 -189 L-47 -195 L170 -195 L170 750 L-47 750 L-47 744 L163 744 L163 744 Z " />
<glyph glyph-name="asciicircum" unicode="&#x5e;" horiz-adv-x="452" d="M233 774 C230 782 223 782 220 774 L80 561 L83 559 L227 758 L371 559 L374 561 L233 774 L233 774 Z " />
<glyph glyph-name="underscore" unicode="&#x5f;" horiz-adv-x="657" d="M5 -50 L5 -61 L652 -61 L652 -50 L5 -50 L5 -50 Z " />
<glyph glyph-name="grave" unicode="&#x60;" horiz-adv-x="452" d="M19 762 C19 759 51 730 94 690 L230 564 L233 567 L103 699 C62 741 31 772 29 772 C24 772 19 767 19 762 L19 762 Z " />
<glyph glyph-name="a" unicode="a" horiz-adv-x="601" d="M611 57 L606 59 C601 30 577 9 549 9 C515 9 490 32 490 64 L490 361 C490 460 418 510 318 510 C181 510 81 412 81 360 C81 352 85 346 91 346 C106 346 116 352 116 356 C116 361 96 370 96 373 C96 420 188 508 316 508 C405 508 470 461 470 368 L470 267 C150 210 61 179 61 74 C61 25 123 -10 208 -10 C279 -10 373 21 470 92 L470 63 C470 23 500 -6 541 -6 C575 -6 605 20 611 56 L611 57 L611 57 Z M470 265 L470 93 C382 29 291 1 219 1 C139 1 81 33 81 76 C81 181 166 212 470 266 L470 265 L470 265 Z " />
<glyph glyph-name="b" unicode="b" horiz-adv-x="563" d="M10 731 C22 723 29 699 29 671 L29 125 L25 125 C26 121 27 117 29 113 L29 74 L29 -1 L30 -1 L39 74 L49 74 L49 79 C92 25 177 -11 272 -11 C415 -11 519 99 519 250 C519 397 400 504 236 504 C182 504 104 462 50 404 L50 749 C35 749 23 745 11 742 L10 731 L10 731 Z M50 110 L50 401 C102 457 178 498 230 498 C384 498 496 393 496 247 C496 99 402 -8 273 -8 C171 -8 80 41 50 111 L50 110 L50 110 Z " />
<glyph glyph-name="c" unicode="c" horiz-adv-x="546" d="M516 128 L515 128 C481 51 378 -5 270 -5 C151 -5 64 104 64 254 C64 402 159 509 289 509 C387 509 474 465 496 405 C498 399 502 395 506 395 C514 395 518 399 516 405 C494 466 399 510 290 510 C148 510 45 397 45 242 C45 96 138 -10 267 -10 C376 -10 480 48 516 128 L516 128 Z " />
<glyph glyph-name="d" unicode="d" horiz-adv-x="628" d="M613 34 C590 26 574 37 574 72 L574 750 L564 750 L554 747 C554 746 536 743 535 743 L535 731 C547 723 554 699 554 671 L554 391 C527 455 451 511 372 511 C163 511 45 404 45 257 C45 106 168 -4 337 -4 C428 -4 518 31 554 79 L554 0 L564 0 L613 14 L613 34 L613 34 Z M554 375 L554 80 C521 36 434 4 345 4 C183 4 65 112 65 262 C65 403 177 505 374 505 C456 505 533 443 554 376 L554 375 L554 375 Z " />
<glyph glyph-name="e" unicode="e" horiz-adv-x="645" d="M79 340 L615 340 C594 458 490 510 359 510 C177 510 45 427 45 238 C45 94 165 -10 330 -10 C458 -10 572 51 603 135 L602 135 C572 54 459 -5 332 -5 C178 -5 66 100 66 246 C66 281 71 312 79 340 L79 340 Z M592 342 L80 341 C116 457 222 509 359 509 C476 509 570 459 592 342 L592 342 Z " />
<glyph glyph-name="f" unicode="f" horiz-adv-x="346" d="M129 20 C118 20 110 24 110 35 L110 489 L336 489 L336 500 L110 500 C110 644 178 749 298 749 C353 749 411 635 457 635 C483 635 502 654 502 680 C502 724 420 755 306 755 C168 755 90 648 90 500 L-20 491 L-20 489 L90 489 L90 35 C90 24 82 20 71 20 L71 0 L129 0 L129 20 L129 20 Z " />
<glyph glyph-name="g" unicode="g" horiz-adv-x="610" d="M614 454 C566 454 528 431 516 397 C491 465 411 510 307 510 C181 510 90 443 90 350 C90 262 170 197 284 189 C154 186 63 154 63 110 C63 67 123 35 206 33 C120 13 58 -38 58 -89 C58 -170 166 -228 316 -228 C466 -228 574 -168 574 -86 C574 -5 507 54 352 54 L216 54 C134 54 75 80 75 117 C75 159 172 190 307 190 C433 190 524 258 524 352 C524 367 522 382 517 396 C528 424 560 443 602 443 C607 443 613 435 618 435 C631 435 626 456 612 456 L614 454 L614 454 Z M206 34 C209 34 212 34 215 34 L350 34 C494 34 557 -18 557 -91 C557 -170 456 -227 316 -227 C176 -227 74 -167 74 -84 C74 -34 129 15 207 34 L206 34 L206 34 Z M307 191 C193 191 110 259 110 352 C110 444 193 511 307 511 C421 511 504 444 504 352 C504 259 421 191 307 191 L307 191 Z " />
<glyph glyph-name="h" unicode="h" horiz-adv-x="500" d="M35 731 C47 723 54 699 54 671 L54 35 C54 24 46 20 35 20 L35 0 L93 0 L93 20 C82 20 74 24 74 35 L74 367 C131 442 221 496 289 496 C380 496 431 454 431 395 L431 35 C431 24 423 20 412 20 L412 0 L470 0 L470 20 C459 20 451 24 451 35 L451 395 C451 462 396 510 300 510 C231 510 136 451 74 369 L74 750 C59 750 47 746 35 743 L35 731 L35 731 Z " />
<glyph glyph-name="i" unicode="i" horiz-adv-x="133" d="M94 635 C94 661 54 661 54 635 C54 609 94 609 94 635 L94 635 Z M45 481 C57 473 64 449 64 421 L64 35 C64 24 56 20 45 20 L45 0 L103 0 L103 20 C92 20 84 24 84 35 L84 500 C69 500 57 496 45 493 L45 481 L45 481 Z " />
<glyph glyph-name="j" unicode="j" horiz-adv-x="159" d="M79 636 C79 662 39 662 39 636 C39 610 79 610 79 636 L79 636 Z M30 481 C42 473 49 449 49 421 L49 12 C49 -57 33 -116 12 -128 C-22 -128 -72 -100 -106 -100 C-132 -100 -151 -117 -151 -140 C-151 -168 -126 -187 -91 -185 C-85 -185 -41 -162 14 -130 C46 -112 69 -52 69 12 L69 500 C54 500 42 496 30 493 L30 481 L30 481 Z " />
<glyph glyph-name="k" unicode="k" horiz-adv-x="422" d="M419 501 L275 501 L275 481 L290 481 C339 481 311 439 224 381 L226 381 L75 280 L75 750 C60 750 48 746 36 743 L36 731 C48 723 55 699 55 671 L55 35 C55 24 47 20 36 20 L36 0 L94 0 L94 20 C83 20 75 24 75 35 L75 280 L368 20 C368 19 371 1 371 1 L389 1 L390 0 L418 0 L417 1 L418 1 C416 3 404 17 400 21 C396 21 372 41 339 71 L338 71 L94 290 L318 439 C365 467 395 481 418 481 L419 501 L419 501 Z " />
<glyph glyph-name="l" unicode="l" horiz-adv-x="123" d="M35 731 C47 723 54 699 54 671 L54 35 C54 24 46 20 35 20 L35 0 L93 0 L93 20 C82 20 74 24 74 35 L74 750 C59 750 47 746 35 743 L35 731 L35 731 Z " />
<glyph glyph-name="m" unicode="m" horiz-adv-x="899" d="M35 481 C47 473 54 449 54 421 L54 35 C54 24 46 20 35 20 L35 0 L93 0 L93 20 C82 20 74 24 74 35 L74 372 C128 443 214 495 279 495 C392 495 442 453 442 395 L442 35 C442 24 434 20 423 20 L423 0 L481 0 L481 20 C470 20 462 24 462 35 L462 373 C516 443 602 494 667 494 C780 494 830 452 830 394 L830 35 C830 24 822 20 811 20 L811 0 L830 0 L830 -1 L850 -1 L850 0 L869 0 L869 20 C858 20 850 24 850 35 L850 394 C850 461 797 509 675 509 C611 509 522 453 462 375 L462 395 C462 462 409 510 287 510 C223 510 134 453 74 374 L74 500 C59 500 47 496 35 493 L35 481 L35 481 Z " />
<glyph glyph-name="n" unicode="n" horiz-adv-x="511" d="M35 481 C47 473 54 449 54 421 L54 35 C54 24 46 20 35 20 L35 0 L93 0 L93 20 C82 20 74 24 74 35 L74 356 C137 440 224 500 281 500 C384 500 442 421 442 311 L442 35 C442 24 434 20 423 20 L423 0 L481 0 L481 20 C470 20 462 24 462 35 L462 311 C462 426 399 510 287 510 C230 510 141 447 74 359 L74 500 C59 500 47 496 35 493 L35 481 L35 481 Z " />
<glyph glyph-name="o" unicode="o" horiz-adv-x="685" d="M67 250 C67 400 183 508 343 508 C503 508 618 400 618 250 C618 100 503 -8 343 -8 C183 -8 67 100 67 250 L67 250 Z M45 250 C45 99 170 -10 343 -10 C515 -10 640 99 640 250 C640 401 515 510 343 510 C170 510 45 401 45 250 L45 250 Z " />
<glyph glyph-name="p" unicode="p" horiz-adv-x="580" d="M20 481 C32 473 39 449 39 421 L39 -185 C39 -196 31 -200 20 -200 L20 -220 L78 -220 L78 -200 C67 -200 59 -196 59 -185 L59 88 C93 32 155 -5 220 -5 C403 -5 535 118 535 252 C535 402 415 510 249 510 C168 510 89 476 59 429 L59 501 C44 501 32 497 20 494 L20 481 L20 481 Z M59 131 L59 421 C89 468 164 502 240 502 C398 502 513 394 513 245 C513 117 390 0 221 0 C150 0 82 55 59 130 L59 131 L59 131 Z " />
<glyph glyph-name="q" unicode="q" horiz-adv-x="606" d="M601 -200 C590 -200 582 -196 582 -185 L582 500 L581 500 L574 440 L562 428 L562 415 C521 472 436 510 341 510 C150 510 42 403 42 256 C42 105 169 -5 345 -5 C444 -5 534 27 562 71 L562 -186 C562 -197 554 -201 543 -201 L543 -221 L601 -221 L601 -200 L601 -200 Z M562 387 L562 77 C535 33 449 2 353 2 C184 2 62 110 62 260 C62 402 163 504 340 504 C442 504 532 456 562 388 L562 387 L562 387 Z " />
<glyph glyph-name="r" unicode="r" horiz-adv-x="375" d="M36 481 C48 473 55 449 55 421 L55 35 C55 24 47 20 36 20 L36 0 L94 0 L94 20 C83 20 75 24 75 35 L75 375 C123 448 207 501 276 501 C314 501 342 486 342 466 C342 451 365 450 365 466 C365 492 331 510 285 510 C213 510 125 455 75 378 L75 500 C60 500 48 496 36 493 L36 481 L36 481 Z " />
<glyph glyph-name="s" unicode="s" horiz-adv-x="506" d="M304 501 L304 500 C277 506 248 509 218 509 C130 509 66 461 66 395 C66 351 144 291 281 241 C382 204 440 151 440 107 C440 39 375 -10 285 -10 C248 -10 212 -4 180 7 C131 24 88 67 78 108 L75 123 L61 123 L61 45 L75 45 L78 48 C79 49 107 36 146 18 C146 18 176 5 179 4 L179 5 C212 -6 249 -12 287 -12 C386 -12 458 40 458 112 C458 160 398 217 292 256 C158 305 82 361 82 401 C82 462 140 507 220 507 C250 507 279 503 305 496 L305 495 C357 482 402 444 411 405 L414 391 L428 391 L428 459 L415 459 L411 458 C419 461 336 491 307 498 L304 501 L304 501 Z " />
<glyph glyph-name="t" unicode="t" horiz-adv-x="363" d="M326 500 L126 500 L126 620 L125 620 L41 500 L41 490 L106 490 L106 103 C106 24 158 -10 230 -10 C272 -10 323 13 353 45 L351 46 C326 19 277 -1 236 -1 C172 -1 126 29 126 98 L126 489 L326 489 L326 500 L326 500 Z " />
<glyph glyph-name="u" unicode="u" horiz-adv-x="540" d="M525 31 C506 26 496 40 496 73 L496 500 L457 500 L457 480 C468 480 476 476 476 465 L476 127 C441 55 343 4 236 4 C140 4 71 75 71 173 L71 500 L32 500 L32 480 C43 480 51 476 51 465 L51 173 C51 67 125 -10 227 -10 C338 -10 440 46 478 126 L478 0 L488 0 C499 3 516 8 527 11 L525 31 L525 31 Z " />
<glyph glyph-name="v" unicode="v" horiz-adv-x="465" d="M451 500 L413 500 L413 480 C420 480 413 458 398 425 L398 425 L210 18 L66 443 C59 467 58 480 66 480 L66 500 L13 500 L13 480 C25 480 39 459 51 425 L51 425 L199 -10 L205 -10 L408 425 C424 459 440 480 453 480 L451 500 L451 500 Z " />
<glyph glyph-name="w" unicode="w" horiz-adv-x="697" d="M339 500 L284 500 L284 480 C297 480 307 464 316 435 C323 407 332 378 339 350 L177 -10 L183 -10 L342 340 L439 -10 L444 -10 L645 438 C659 465 671 480 683 480 L683 500 L644 500 L644 480 C651 480 645 458 631 425 L454 22 L342 425 C342 425 323 480 340 480 L339 500 L339 500 Z M67 500 L12 500 L12 480 C25 480 36 459 47 425 L48 425 L179 -10 L192 20 L66 443 C60 467 59 480 67 480 L67 500 L67 500 Z " />
<glyph glyph-name="x" unicode="x" horiz-adv-x="491" d="M62 500 L17 500 L17 480 C29 480 47 465 71 438 L239 239 C186 184 133 129 80 74 C47 40 21 19 8 19 L8 -1 L36 -1 L36 19 C40 24 88 74 88 74 L241 235 C286 181 333 127 377 74 C404 42 423 19 422 19 L422 -1 L467 -1 L467 19 C455 19 437 34 413 61 L255 247 C300 306 345 366 391 425 C417 459 439 480 452 480 L452 500 L420 500 L420 480 C422 480 406 457 382 425 L382 425 L251 252 C202 310 152 368 104 425 C77 457 58 480 59 480 L62 500 L62 500 Z " />
<glyph glyph-name="y" unicode="y" horiz-adv-x="485" d="M65 500 L15 500 L15 480 C27 480 40 466 55 440 L284 -4 C265 -58 247 -113 229 -167 C224 -183 209 -194 202 -194 C181 -194 174 -184 153 -184 C132 -184 116 -200 116 -221 C116 -244 133 -260 157 -260 C174 -260 216 -222 234 -169 C263 -84 292 1 321 87 C359 200 397 314 436 426 C448 460 461 481 474 481 L474 501 L434 501 L434 481 L436 481 C442 481 438 458 428 426 C428 426 306 55 294 22 C225 156 155 291 86 425 C70 458 61 480 67 480 L65 500 L65 500 Z " />
<glyph glyph-name="z" unicode="z" horiz-adv-x="565" d="M46 441 L65 441 L72 449 C92 473 137 491 182 494 L501 495 L41 5 L41 0 L521 0 L521 3 C523 3 525 26 528 59 L509 59 L503 51 C487 27 445 9 401 6 L67 5 L526 495 L526 500 L64 500 L64 497 L62 497 C58 479 54 467 47 441 L46 441 L46 441 Z M63 500 C63 500 63 499 62 497 L63 500 L63 500 Z M59 487 L59 486 L59 486 L59 487 L59 487 Z M62 495 L62 496 C61 496 61 496 61 495 L62 495 L62 495 Z " />
<glyph glyph-name="bar" unicode="&#x7c;" horiz-adv-x="136" d="M60 800 L60 -250 L76 -250 L76 800 L60 800 L60 800 Z " />
<glyph glyph-name="asciitilde" unicode="&#x7e;" horiz-adv-x="452" d="M19 310 C19 351 49 381 91 381 C168 381 280 316 357 316 C402 316 434 348 434 391 L433 391 C433 356 403 331 361 331 C284 331 172 396 95 396 C51 396 19 360 19 310 L19 310 Z " />
<glyph glyph-name="exclamdown" unicode="&#xa1;" horiz-adv-x="164" d="M62 485 C62 459 102 459 102 485 C102 511 62 511 62 485 L62 485 Z M82 -255 C91 -255 95 -227 94 -188 C94 -188 84 151 84 290 L80 290 C80 151 70 -188 70 -188 C69 -227 73 -255 82 -255 L82 -255 Z " />
<glyph glyph-name="cent" unicode="&#xa2;" horiz-adv-x="546" d="M268 575 L268 509 C137 498 45 389 45 242 C45 95 138 -10 268 -10 L268 -75 L282 -75 L282 -10 C385 -5 481 51 515 127 L514 127 C481 53 384 -2 280 -6 L280 508 C381 511 472 465 494 404 C496 398 500 394 504 394 C512 394 516 398 514 404 C492 466 392 513 280 510 L280 575 L268 575 L268 575 Z M266 -5 C148 -4 62 105 62 254 C62 394 147 497 266 508 L266 -5 L266 -5 Z " />
<glyph glyph-name="acute" unicode="&#xb4;" horiz-adv-x="452" d="M232 564 L368 690 C412 731 443 761 443 762 C443 767 438 772 433 772 C433 772 402 741 359 699 L229 567 L232 564 L232 564 Z " />
<glyph glyph-name="questiondown" unicode="&#xbf;" horiz-adv-x="309" d="M164 485 C164 459 204 459 204 485 C204 511 164 511 164 485 L164 485 Z M190 355 C190 355 187 141 184 140 C110 140 70 98 31 40 C15 17 4 -21 4 -51 C4 -172 71 -260 164 -260 C175 -260 183 -254 183 -245 C183 -239 178 -235 172 -235 C168 -235 161 -239 157 -239 C72 -239 10 -159 10 -49 C10 -25 21 9 36 31 C71 83 108 120 191 120 C193 121 194 355 194 355 L190 355 L190 355 Z " />
<glyph glyph-name="Agrave" unicode="&#xc0;" horiz-adv-x="690" d="M116 125 L116 125 L184 297 L511 297 L577 112 C592 61 577 25 540 25 L528 25 L528 0 L682 0 L682 25 L675 25 C652 25 622 62 601 114 L376 743 C376 743 369 770 366 770 L364 770 C367 756 362 744 353 743 L357 732 L112 116 C88 62 42 24 0 24 L-13 24 L-13 -1 L157 -1 L157 24 L145 24 C106 24 95 66 118 124 L116 125 L116 125 Z M157 1011 C157 1009 189 979 233 939 L370 813 L372 816 L242 948 C201 990 170 1021 167 1021 C162 1021 157 1016 157 1011 L157 1011 Z M186 297 L358 730 L512 297 L186 297 L186 297 Z " />
<glyph glyph-name="Aacute" unicode="&#xc1;" horiz-adv-x="690" d="M369 814 L506 940 C550 981 582 1012 582 1012 C582 1017 577 1022 572 1022 C571 1022 540 991 497 949 L367 817 L369 814 L369 814 Z M116 125 L116 125 L184 297 L511 297 L577 112 C592 61 577 25 540 25 L528 25 L528 0 L682 0 L682 25 L675 25 C652 25 622 62 601 114 L376 743 C376 743 369 770 366 770 L364 770 C367 756 362 744 353 743 L357 732 L112 116 C88 62 42 24 0 24 L-13 24 L-13 -1 L157 -1 L157 24 L145 24 C106 24 95 66 118 124 L116 125 L116 125 Z M186 297 L358 730 L512 297 L186 297 L186 297 Z " />
<glyph glyph-name="Acircumflex" unicode="&#xc2;" horiz-adv-x="690" d="M116 125 L116 125 L184 297 L511 297 L577 112 C592 61 577 25 540 25 L528 25 L528 0 L682 0 L682 25 L675 25 C652 25 622 62 601 114 L376 743 C376 743 369 770 366 770 L364 770 C367 756 362 744 353 743 L357 732 L112 116 C88 62 42 24 0 24 L-13 24 L-13 -1 L157 -1 L157 24 L145 24 C106 24 95 66 118 124 L116 125 L116 125 Z M373 1023 C370 1032 361 1031 358 1023 L219 810 L222 808 L366 1006 L509 808 L512 810 L373 1023 L373 1023 Z M186 297 L358 730 L512 297 L186 297 L186 297 Z " />
<glyph glyph-name="Atilde" unicode="&#xc3;" horiz-adv-x="690" d="M157 870 C157 911 187 941 228 941 C305 941 416 876 493 876 C538 876 571 908 571 951 L570 951 C570 916 539 891 497 891 C420 891 310 956 233 956 C188 956 156 920 156 870 L157 870 L157 870 Z M116 125 L116 125 L184 297 L511 297 L577 112 C592 61 577 25 540 25 L528 25 L528 0 L682 0 L682 25 L675 25 C652 25 622 62 601 114 L376 743 C376 743 369 770 366 770 L364 770 C367 756 362 744 353 743 L357 732 L112 116 C88 62 42 24 0 24 L-13 24 L-13 -1 L157 -1 L157 24 L145 24 C106 24 95 66 118 124 L116 125 L116 125 Z M186 297 L358 730 L512 297 L186 297 L186 297 Z " />
<glyph glyph-name="Adieresis" unicode="&#xc4;" horiz-adv-x="690" d="M449 885 C449 911 409 911 409 885 C409 859 449 859 449 885 L449 885 Z M318 885 C318 911 278 911 278 885 C278 859 318 859 318 885 L318 885 Z M116 125 L116 125 L184 297 L511 297 L577 112 C592 61 577 25 540 25 L528 25 L528 0 L682 0 L682 25 L675 25 C652 25 622 62 601 114 L376 743 C376 743 369 770 366 770 L364 770 C367 756 362 744 353 743 L357 732 L112 116 C88 62 42 24 0 24 L-13 24 L-13 -1 L157 -1 L157 24 L145 24 C106 24 95 66 118 124 L116 125 L116 125 Z M186 297 L358 730 L512 297 L186 297 L186 297 Z " />
<glyph glyph-name="Aring" unicode="&#xc5;" horiz-adv-x="690" d="M274 905 C274 957 312 995 364 995 C416 995 453 957 453 905 C453 858 410 815 364 815 C317 815 274 858 274 905 L274 905 Z M268 905 C268 855 314 810 364 810 C414 810 459 855 459 905 C459 960 419 1000 364 1000 C308 1000 268 960 268 905 L268 905 Z M116 125 L116 125 L184 297 L511 297 L577 112 C592 61 577 25 540 25 L528 25 L528 0 L682 0 L682 25 L675 25 C652 25 622 62 601 114 L376 743 C376 743 369 770 366 770 L364 770 C367 756 362 744 353 743 L357 732 L112 116 C88 62 42 24 0 24 L-13 24 L-13 -1 L157 -1 L157 24 L145 24 C106 24 95 66 118 124 L116 125 L116 125 Z M186 297 L358 730 L512 297 L186 297 L186 297 Z " />
<glyph glyph-name="Egrave" unicode="&#xc8;" horiz-adv-x="616" d="M123 1012 C123 1009 155 980 198 940 L334 814 L337 817 L207 949 C166 991 135 1022 133 1022 C128 1022 123 1017 123 1012 L123 1012 Z M59 730 L68 730 C97 730 118 701 118 660 L118 90 C118 49 97 20 68 20 L59 20 L59 0 L567 0 C571 23 577 57 581 80 L564 80 L558 68 C537 29 478 1 417 1 L222 1 C152 1 142 34 142 80 L142 385 L357 385 C403 385 447 353 461 309 L465 296 L482 296 L482 475 L465 475 L461 462 C447 418 403 386 357 386 L142 386 L142 749 L417 749 C463 749 511 717 530 673 L536 660 L553 660 C550 686 545 724 542 750 L59 750 L59 730 L59 730 Z " />
<glyph glyph-name="Eacute" unicode="&#xc9;" horiz-adv-x="616" d="M463 949 L333 817 L336 814 L472 940 L463 949 L463 949 Z M59 730 L68 730 C97 730 118 701 118 660 L118 90 C118 49 97 20 68 20 L59 20 L59 0 L567 0 C571 23 577 57 581 80 L564 80 L558 68 C537 29 478 1 417 1 L222 1 C152 1 142 34 142 80 L142 385 L357 385 C403 385 447 353 461 309 L465 296 L482 296 L482 475 L465 475 L461 462 C447 418 403 386 357 386 L142 386 L142 749 L417 749 C463 749 511 717 530 673 L536 660 L553 660 C550 686 545 724 542 750 L59 750 L59 730 L59 730 Z " />
<glyph glyph-name="Ecircumflex" unicode="&#xca;" horiz-adv-x="616" d="M337 1024 C334 1032 327 1032 324 1024 L184 811 L187 809 L331 1008 L475 809 L478 811 L337 1024 L337 1024 Z M60 730 L69 730 C98 730 119 701 119 660 L119 90 C119 49 98 20 69 20 L60 20 L60 0 L568 0 C572 23 578 57 582 80 L565 80 L559 68 C538 29 479 1 418 1 L223 1 C153 1 143 34 143 80 L143 385 L358 385 C404 385 448 353 462 309 L466 296 L483 296 L483 475 L466 475 L462 462 C448 418 404 386 358 386 L143 386 L143 749 L418 749 C464 749 512 717 531 673 L537 660 L554 660 C551 686 546 724 543 750 L60 750 L60 730 L60 730 Z " />
<glyph glyph-name="Edieresis" unicode="&#xcb;" horiz-adv-x="616" d="M415 885 C415 911 375 911 375 885 C375 859 415 859 415 885 L415 885 Z M285 885 C285 911 245 911 245 885 C245 859 285 859 285 885 L285 885 Z M59 730 L68 730 C97 730 118 701 118 660 L118 90 C118 49 97 20 68 20 L59 20 L59 0 L567 0 C571 23 577 57 581 80 L564 80 L558 68 C537 29 478 1 417 1 L222 1 C152 1 142 34 142 80 L142 385 L357 385 C403 385 447 353 461 309 L465 296 L482 296 L482 475 L465 475 L461 462 C447 418 403 386 357 386 L142 386 L142 749 L417 749 C463 749 511 717 530 673 L536 660 L553 660 C550 686 545 724 542 750 L59 750 L59 730 L59 730 Z " />
<glyph glyph-name="Igrave" unicode="&#xcc;" horiz-adv-x="255" d="M-63 1012 C-63 1009 -31 980 12 940 L148 814 L151 817 L21 949 C-20 991 -51 1022 -53 1022 C-58 1022 -63 1017 -63 1012 L-63 1012 Z M195 20 C171 20 156 37 156 70 L156 680 C156 713 171 730 195 730 L195 750 L93 750 L93 730 C117 730 132 713 132 680 L132 70 C132 37 117 20 93 20 L93 0 L195 0 L195 20 L195 20 Z " />
<glyph glyph-name="Iacute" unicode="&#xcd;" horiz-adv-x="255" d="M150 814 L286 940 C330 981 361 1011 361 1012 C361 1017 356 1022 351 1022 C351 1022 320 991 277 949 L147 817 L150 814 L150 814 Z M195 20 C171 20 156 37 156 70 L156 680 C156 713 171 730 195 730 L195 750 L93 750 L93 730 C117 730 132 713 132 680 L132 70 C132 37 117 20 93 20 L93 0 L195 0 L195 20 L195 20 Z " />
<glyph glyph-name="Icircumflex" unicode="&#xce;" horiz-adv-x="255" d="M151 1024 C148 1032 141 1032 138 1024 L-2 811 L1 809 L145 1008 L289 809 L292 811 L151 1024 L151 1024 Z M196 20 C172 20 157 37 157 70 L157 680 C157 713 172 730 196 730 L196 750 L94 750 L94 730 C118 730 133 713 133 680 L133 70 C133 37 118 20 94 20 L94 0 L196 0 L196 20 L196 20 Z " />
<glyph glyph-name="Idieresis" unicode="&#xcf;" horiz-adv-x="255" d="M229 885 C229 911 189 911 189 885 C189 859 229 859 229 885 L229 885 Z M99 885 C99 911 59 911 59 885 C59 859 99 859 99 885 L99 885 Z M195 20 C171 20 156 37 156 70 L156 680 C156 713 171 730 195 730 L195 750 L93 750 L93 730 C117 730 132 713 132 680 L132 70 C132 37 117 20 93 20 L93 0 L195 0 L195 20 L195 20 Z " />
<glyph glyph-name="Ntilde" unicode="&#xd1;" horiz-adv-x="772" d="M178 870 C178 911 208 941 249 941 C326 941 438 876 515 876 C560 876 593 908 593 951 L592 951 C592 916 561 891 519 891 C442 891 331 956 254 956 C209 956 177 920 177 870 L178 870 L178 870 Z M55 730 C71 730 81 726 97 714 L96 69 L96 69 C96 36 81 19 57 19 L57 -1 L143 -1 L143 19 C119 19 104 36 104 69 L104 69 L103 709 C112 702 121 694 129 685 C308 457 487 229 666 0 L671 0 L673 680 L673 680 C673 713 688 730 712 730 L712 750 L626 750 L626 730 C650 730 665 713 665 680 L666 38 L660 46 L109 750 L55 750 L55 730 L55 730 Z " />
<glyph glyph-name="Ograve" unicode="&#xd2;" horiz-adv-x="880" d="M96 375 C96 597 242 758 443 758 C649 758 799 597 799 375 C799 153 645 -8 433 -8 C238 -8 96 153 96 375 L96 375 Z M71 375 C71 152 223 -10 433 -10 C660 -10 825 152 825 375 C825 598 665 760 443 760 C227 760 71 598 71 375 L71 375 Z M236 1012 C236 1009 268 980 311 940 L447 814 L450 817 L320 949 C279 991 248 1022 246 1022 C241 1022 236 1017 236 1012 L236 1012 Z " />
<glyph glyph-name="Oacute" unicode="&#xd3;" horiz-adv-x="880" d="M449 814 L585 940 C629 981 660 1011 660 1012 C660 1017 655 1022 650 1022 C650 1022 619 991 576 949 L446 817 L449 814 L449 814 Z M96 375 C96 597 242 758 443 758 C649 758 799 597 799 375 C799 153 645 -8 433 -8 C238 -8 96 153 96 375 L96 375 Z M71 375 C71 152 223 -10 433 -10 C660 -10 825 152 825 375 C825 598 665 760 443 760 C227 760 71 598 71 375 L71 375 Z " />
<glyph glyph-name="Ocircumflex" unicode="&#xd4;" horiz-adv-x="880" d="M96 375 C96 597 242 758 443 758 C649 758 799 597 799 375 C799 153 645 -8 433 -8 C238 -8 96 153 96 375 L96 375 Z M71 375 C71 152 223 -10 433 -10 C660 -10 825 152 825 375 C825 598 665 760 443 760 C227 760 71 598 71 375 L71 375 Z M450 1024 C447 1032 440 1032 437 1024 L297 811 L300 809 L444 1008 L588 809 L591 811 L450 1024 L450 1024 Z " />
<glyph glyph-name="Otilde" unicode="&#xd5;" horiz-adv-x="880" d="M236 870 C236 911 266 941 307 941 C384 941 496 876 573 876 C618 876 651 908 651 951 L650 951 C650 916 619 891 577 891 C500 891 389 956 312 956 C267 956 235 920 235 870 L236 870 L236 870 Z M96 375 C96 597 242 758 443 758 C649 758 799 597 799 375 C799 153 645 -8 433 -8 C238 -8 96 153 96 375 L96 375 Z M71 375 C71 152 223 -10 433 -10 C660 -10 825 152 825 375 C825 598 665 760 443 760 C227 760 71 598 71 375 L71 375 Z " />
<glyph glyph-name="Odieresis" unicode="&#xd6;" horiz-adv-x="880" d="M528 885 C528 911 488 911 488 885 C488 859 528 859 528 885 L528 885 Z M398 885 C398 911 358 911 358 885 C358 859 398 859 398 885 L398 885 Z M96 375 C96 597 242 758 443 758 C649 758 799 597 799 375 C799 153 645 -8 433 -8 C238 -8 96 153 96 375 L96 375 Z M71 375 C71 152 223 -10 433 -10 C660 -10 825 152 825 375 C825 598 665 760 443 760 C227 760 71 598 71 375 L71 375 Z " />
<glyph glyph-name="Oslash" unicode="&#xd8;" horiz-adv-x="880" d="M72 -11 C72 -11 109 27 176 95 C240 29 329 -10 432 -10 C659 -10 824 152 824 375 C824 486 785 582 718 650 C753 686 789 723 826 760 L824 762 C787 725 751 688 716 652 C648 720 553 760 442 760 C226 760 70 598 70 375 C70 263 108 166 173 98 C106 30 68 -8 68 -8 L72 -11 L72 -11 Z M704 642 C478 411 293 223 182 110 C126 177 93 270 93 377 C93 599 239 760 440 760 C547 760 639 716 703 643 L704 642 L704 642 Z M705 641 C762 574 796 483 796 378 C796 156 642 -5 430 -5 C330 -5 244 37 184 108 C295 221 480 409 706 640 L705 641 L705 641 Z " />
<glyph glyph-name="Ugrave" unicode="&#xd9;" horiz-adv-x="666" d="M133 1012 C133 1009 165 980 208 940 L344 814 L347 817 L217 949 C176 991 145 1022 143 1022 C138 1022 133 1017 133 1012 L133 1012 Z M636 34 C614 27 597 39 597 73 L597 750 L534 750 L534 730 C558 730 573 713 573 680 L573 182 C525 79 404 5 285 5 C182 5 107 103 107 238 L107 750 L44 750 L44 730 C68 730 83 713 83 680 L83 238 C83 94 164 -10 276 -10 C399 -10 524 66 573 171 L573 0 L585 0 L597 3 C597 5 634 13 636 14 L636 34 L636 34 Z " />
<glyph glyph-name="Uacute" unicode="&#xda;" horiz-adv-x="666" d="M346 814 L482 940 C526 981 557 1011 557 1012 C557 1017 552 1022 547 1022 C547 1022 516 991 473 949 L343 817 L346 814 L346 814 Z M636 34 C614 27 597 39 597 73 L597 750 L534 750 L534 730 C558 730 573 713 573 680 L573 182 C525 79 404 5 285 5 C182 5 107 103 107 238 L107 750 L44 750 L44 730 C68 730 83 713 83 680 L83 238 C83 94 164 -10 276 -10 C399 -10 524 66 573 171 L573 0 L585 0 L597 3 C597 5 634 13 636 14 L636 34 L636 34 Z " />
<glyph glyph-name="Ucircumflex" unicode="&#xdb;" horiz-adv-x="666" d="M347 1024 C344 1032 337 1032 334 1024 L194 811 L197 809 L341 1008 L485 809 L488 811 L347 1024 L347 1024 Z M637 34 C615 27 598 39 598 73 L598 750 L535 750 L535 730 C559 730 574 713 574 680 L574 182 C526 79 405 5 286 5 C183 5 108 103 108 238 L108 750 L45 750 L45 730 C69 730 84 713 84 680 L84 238 C84 94 165 -10 277 -10 C400 -10 525 66 574 171 L574 0 L586 0 L598 3 C598 5 635 13 637 14 L637 34 L637 34 Z " />
<glyph glyph-name="Udieresis" unicode="&#xdc;" horiz-adv-x="666" d="M425 885 C425 911 385 911 385 885 C385 859 425 859 425 885 L425 885 Z M295 885 C295 911 255 911 255 885 C255 859 295 859 295 885 L295 885 Z M636 34 C614 27 597 39 597 73 L597 750 L534 750 L534 730 C558 730 573 713 573 680 L573 182 C525 79 404 5 285 5 C182 5 107 103 107 238 L107 750 L44 750 L44 730 C68 730 83 713 83 680 L83 238 C83 94 164 -10 276 -10 C399 -10 524 66 573 171 L573 0 L585 0 L597 3 C597 5 634 13 636 14 L636 34 L636 34 Z " />
<glyph glyph-name="Yacute" unicode="&#xdd;" horiz-adv-x="680" d="M349 814 L486 940 C530 981 562 1012 562 1012 C562 1017 557 1022 552 1022 C551 1022 520 991 477 949 L347 817 L349 814 L349 814 Z M129 750 L32 750 L32 730 C46 730 64 715 85 688 L332 335 L332 89 C332 48 311 19 282 19 L273 19 L273 -1 L414 -1 L414 19 L405 19 C376 19 355 48 355 89 L355 338 C432 450 508 562 585 674 C610 710 640 729 672 729 L672 749 L554 749 L554 729 L564 729 C595 729 603 707 583 676 L354 339 L119 678 C100 708 101 729 122 729 L129 729 L129 750 L129 750 Z " />
<glyph glyph-name="agrave" unicode="&#xe0;" horiz-adv-x="601" d="M611 57 L606 59 C601 30 577 9 549 9 C515 9 490 32 490 64 L490 361 C490 460 418 510 318 510 C181 510 81 412 81 360 C81 352 85 346 91 346 C106 346 116 352 116 356 C116 361 96 370 96 373 C96 420 188 508 316 508 C405 508 470 461 470 368 L470 267 C150 210 61 179 61 74 C61 25 123 -10 208 -10 C279 -10 373 21 470 92 L470 63 C470 23 500 -6 541 -6 C575 -6 605 20 611 56 L611 57 L611 57 Z M111 761 C111 758 143 729 186 689 L322 563 L325 566 L195 698 C154 740 123 771 121 771 C116 771 111 766 111 761 L111 761 Z M470 265 L470 93 C382 29 291 1 219 1 C139 1 81 33 81 76 C81 181 166 212 470 266 L470 265 L470 265 Z " />
<glyph glyph-name="aacute" unicode="&#xe1;" horiz-adv-x="601" d="M324 564 L460 690 C504 731 535 761 535 762 C535 767 530 772 525 772 C525 772 494 741 451 699 L321 567 L324 564 L324 564 Z M611 57 L606 59 C601 30 577 9 549 9 C515 9 490 32 490 64 L490 361 C490 460 418 510 318 510 C181 510 81 412 81 360 C81 352 85 346 91 346 C106 346 116 352 116 356 C116 361 96 370 96 373 C96 420 188 508 316 508 C405 508 470 461 470 368 L470 267 C150 210 61 179 61 74 C61 25 123 -10 208 -10 C279 -10 373 21 470 92 L470 63 C470 23 500 -6 541 -6 C575 -6 605 20 611 56 L611 57 L611 57 Z M470 265 L470 93 C382 29 291 1 219 1 C139 1 81 33 81 76 C81 181 166 212 470 266 L470 265 L470 265 Z " />
<glyph glyph-name="acircumflex" unicode="&#xe2;" horiz-adv-x="601" d="M611 57 L606 59 C601 30 577 9 549 9 C515 9 490 32 490 64 L490 361 C490 460 418 510 318 510 C181 510 81 412 81 360 C81 352 85 346 91 346 C106 346 116 352 116 356 C116 361 96 370 96 373 C96 420 188 508 316 508 C405 508 470 461 470 368 L470 267 C150 210 61 179 61 74 C61 25 123 -10 208 -10 C279 -10 373 21 470 92 L470 63 C470 23 500 -6 541 -6 C575 -6 605 20 611 56 L611 57 L611 57 Z M325 773 C322 781 315 781 312 773 L172 560 L175 558 L319 757 L463 558 L466 560 L325 773 L325 773 Z M471 265 L471 93 C383 29 292 1 220 1 C140 1 82 33 82 76 C82 181 167 212 471 266 L471 265 L471 265 Z " />
<glyph glyph-name="atilde" unicode="&#xe3;" horiz-adv-x="601" d="M111 620 C111 661 141 691 182 691 C259 691 371 626 448 626 C493 626 526 658 526 701 L525 701 C525 666 494 641 452 641 C375 641 264 706 187 706 C142 706 110 670 110 620 L111 620 L111 620 Z M611 57 L606 59 C601 30 577 9 549 9 C515 9 490 32 490 64 L490 361 C490 460 418 510 318 510 C181 510 81 412 81 360 C81 352 85 346 91 346 C106 346 116 352 116 356 C116 361 96 370 96 373 C96 420 188 508 316 508 C405 508 470 461 470 368 L470 267 C150 210 61 179 61 74 C61 25 123 -10 208 -10 C279 -10 373 21 470 92 L470 63 C470 23 500 -6 541 -6 C575 -6 605 20 611 56 L611 57 L611 57 Z M470 265 L470 93 C382 29 291 1 219 1 C139 1 81 33 81 76 C81 181 166 212 470 266 L470 265 L470 265 Z " />
<glyph glyph-name="adieresis" unicode="&#xe4;" horiz-adv-x="601" d="M403 635 C403 661 363 661 363 635 C363 609 403 609 403 635 L403 635 Z M273 635 C273 661 233 661 233 635 C233 609 273 609 273 635 L273 635 Z M611 57 L606 59 C601 30 577 9 549 9 C515 9 490 32 490 64 L490 361 C490 460 418 510 318 510 C181 510 81 412 81 360 C81 352 85 346 91 346 C106 346 116 352 116 356 C116 361 96 370 96 373 C96 420 188 508 316 508 C405 508 470 461 470 368 L470 267 C150 210 61 179 61 74 C61 25 123 -10 208 -10 C279 -10 373 21 470 92 L470 63 C470 23 500 -6 541 -6 C575 -6 605 20 611 56 L611 57 L611 57 Z M470 265 L470 93 C382 29 291 1 219 1 C139 1 81 33 81 76 C81 181 166 212 470 266 L470 265 L470 265 Z " />
<glyph glyph-name="aring" unicode="&#xe5;" horiz-adv-x="601" d="M229 655 C229 707 266 745 318 745 C370 745 407 707 407 655 C407 608 364 565 318 565 C272 565 229 608 229 655 L229 655 Z M223 655 C223 605 268 560 318 560 C368 560 413 605 413 655 C413 710 373 750 318 750 C263 750 223 710 223 655 L223 655 Z M611 57 L606 59 C601 30 577 9 549 9 C515 9 490 32 490 64 L490 361 C490 460 418 510 318 510 C181 510 81 412 81 360 C81 352 85 346 91 346 C106 346 116 352 116 356 C116 361 96 370 96 373 C96 420 188 508 316 508 C405 508 470 461 470 368 L470 267 C150 210 61 179 61 74 C61 25 123 -10 208 -10 C279 -10 373 21 470 92 L470 63 C470 23 500 -6 541 -6 C575 -6 605 20 611 56 L611 57 L611 57 Z M470 265 L470 93 C382 29 291 1 219 1 C139 1 81 33 81 76 C81 181 166 212 470 266 L470 265 L470 265 Z " />
<glyph glyph-name="egrave" unicode="&#xe8;" horiz-adv-x="645" d="M152 762 C152 759 184 730 227 690 L363 564 L366 567 L236 699 C195 741 164 772 162 772 C157 772 152 767 152 762 L152 762 Z M79 340 L615 340 C594 458 490 510 359 510 C177 510 45 427 45 238 C45 94 165 -10 330 -10 C458 -10 572 51 603 135 L602 135 C572 54 459 -5 332 -5 C178 -5 66 100 66 246 C66 281 71 312 79 340 L79 340 Z M592 342 L80 341 C116 457 222 509 359 509 C476 509 570 459 592 342 L592 342 Z " />
<glyph glyph-name="eacute" unicode="&#xe9;" horiz-adv-x="645" d="M365 564 L501 690 C545 731 576 761 576 762 C576 767 571 772 566 772 C566 772 535 741 492 699 L362 567 L365 564 L365 564 Z M79 340 L615 340 C594 458 490 510 359 510 C177 510 45 427 45 238 C45 94 165 -10 330 -10 C458 -10 572 51 603 135 L602 135 C572 54 459 -5 332 -5 C178 -5 66 100 66 246 C66 281 71 312 79 340 L79 340 Z M592 342 L80 341 C116 457 222 509 359 509 C476 509 570 459 592 342 L592 342 Z " />
<glyph glyph-name="ecircumflex" unicode="&#xea;" horiz-adv-x="645" d="M366 774 C363 782 356 782 353 774 L213 561 L216 559 L360 758 L504 559 L507 561 L366 774 L366 774 Z M80 340 L616 340 C595 458 491 510 360 510 C178 510 46 427 46 238 C46 94 166 -10 331 -10 C459 -10 573 51 604 135 L603 135 C573 54 460 -5 333 -5 C179 -5 67 100 67 246 C67 281 72 312 80 340 L80 340 Z M593 342 L81 341 C117 457 223 509 360 509 C477 509 571 459 593 342 L593 342 Z " />
<glyph glyph-name="edieresis" unicode="&#xeb;" horiz-adv-x="645" d="M444 635 C444 661 404 661 404 635 C404 609 444 609 444 635 L444 635 Z M314 635 C314 661 274 661 274 635 C274 609 314 609 314 635 L314 635 Z M79 340 L615 340 C594 458 490 510 359 510 C177 510 45 427 45 238 C45 94 165 -10 330 -10 C458 -10 572 51 603 135 L602 135 C572 54 459 -5 332 -5 C178 -5 66 100 66 246 C66 281 71 312 79 340 L79 340 Z M592 342 L80 341 C116 457 222 509 359 509 C476 509 570 459 592 342 L592 342 Z " />
<glyph glyph-name="igrave" unicode="&#xec;" horiz-adv-x="179" d="M-102 763 C-102 760 -70 731 -27 691 L109 565 L112 568 L-18 700 C-59 742 -90 773 -92 773 C-97 773 -102 768 -102 763 L-102 763 Z M76 473 C86 475 95 474 95 462 L95 34 C95 23 87 19 76 19 L76 -1 L134 -1 L134 19 C123 19 115 23 115 34 L115 499 C100 499 88 495 76 492 L76 473 L76 473 Z " />
<glyph glyph-name="iacute" unicode="&#xed;" horiz-adv-x="179" d="M-102 763 C-102 760 -70 731 -27 691 L109 565 L112 568 L-18 700 C-59 742 -90 773 -92 773 C-97 773 -102 768 -102 763 L-102 763 Z M76 473 C86 475 95 474 95 462 L95 34 C95 23 87 19 76 19 L76 -1 L134 -1 L134 19 C123 19 115 23 115 34 L115 499 C100 499 88 495 76 492 L76 473 L76 473 Z " />
<glyph glyph-name="icircumflex" unicode="&#xee;" horiz-adv-x="179" d="M112 775 C109 783 102 783 99 775 L-41 562 L-38 560 L106 759 L250 560 L253 562 L112 775 L112 775 Z M77 473 C87 475 96 474 96 462 L96 34 C96 23 88 19 77 19 L77 -1 L135 -1 L135 19 C124 19 116 23 116 34 L116 499 C101 499 89 495 77 492 L77 473 L77 473 Z " />
<glyph glyph-name="idieresis" unicode="&#xef;" horiz-adv-x="179" d="M190 636 C190 662 150 662 150 636 C150 610 190 610 190 636 L190 636 Z M60 636 C60 662 20 662 20 636 C20 610 60 610 60 636 L60 636 Z M76 473 C86 475 95 474 95 462 L95 34 C95 23 87 19 76 19 L76 -1 L134 -1 L134 19 C123 19 115 23 115 34 L115 499 C100 499 88 495 76 492 L76 473 L76 473 Z " />
<glyph glyph-name="ntilde" unicode="&#xf1;" horiz-adv-x="511" d="M51 621 C51 662 81 692 122 692 C199 692 311 627 388 627 C433 627 466 659 466 702 L465 702 C465 667 434 642 392 642 C315 642 204 707 127 707 C82 707 50 671 50 621 L51 621 L51 621 Z M35 481 C47 473 54 449 54 421 L54 35 C54 24 46 20 35 20 L35 0 L93 0 L93 20 C82 20 74 24 74 35 L74 356 C137 440 224 500 281 500 C384 500 442 421 442 311 L442 35 C442 24 434 20 423 20 L423 0 L481 0 L481 20 C470 20 462 24 462 35 L462 311 C462 426 399 510 287 510 C230 510 141 447 74 359 L74 500 C59 500 47 496 35 493 L35 481 L35 481 Z " />
<glyph glyph-name="ograve" unicode="&#xf2;" horiz-adv-x="685" d="M67 250 C67 400 183 508 343 508 C503 508 618 400 618 250 C618 100 503 -8 343 -8 C183 -8 67 100 67 250 L67 250 Z M45 250 C45 99 170 -10 343 -10 C515 -10 640 99 640 250 C640 401 515 510 343 510 C170 510 45 401 45 250 L45 250 Z M136 762 C136 759 168 730 211 690 L347 564 L350 567 L220 699 C179 741 148 772 146 772 C141 772 136 767 136 762 L136 762 Z " />
<glyph glyph-name="oacute" unicode="&#xf3;" horiz-adv-x="685" d="M349 564 L485 690 C529 731 560 761 560 762 C560 767 555 772 550 772 C550 772 519 741 476 699 L346 567 L349 564 L349 564 Z M67 250 C67 400 183 508 343 508 C503 508 618 400 618 250 C618 100 503 -8 343 -8 C183 -8 67 100 67 250 L67 250 Z M45 250 C45 99 170 -10 343 -10 C515 -10 640 99 640 250 C640 401 515 510 343 510 C170 510 45 401 45 250 L45 250 Z " />
<glyph glyph-name="ocircumflex" unicode="&#xf4;" horiz-adv-x="685" d="M67 250 C67 400 183 508 343 508 C503 508 618 400 618 250 C618 100 503 -8 343 -8 C183 -8 67 100 67 250 L67 250 Z M45 250 C45 99 170 -10 343 -10 C515 -10 640 99 640 250 C640 401 515 510 343 510 C170 510 45 401 45 250 L45 250 Z M350 774 C347 782 340 782 337 774 L197 561 L200 559 L344 758 L488 559 L491 561 L350 774 L350 774 Z " />
<glyph glyph-name="otilde" unicode="&#xf5;" horiz-adv-x="685" d="M136 620 C136 661 166 691 207 691 C284 691 396 626 473 626 C518 626 551 658 551 701 L550 701 C550 666 519 641 477 641 C400 641 289 706 212 706 C167 706 135 670 135 620 L136 620 L136 620 Z M67 250 C67 400 183 508 343 508 C503 508 618 400 618 250 C618 100 503 -8 343 -8 C183 -8 67 100 67 250 L67 250 Z M45 250 C45 99 170 -10 343 -10 C515 -10 640 99 640 250 C640 401 515 510 343 510 C170 510 45 401 45 250 L45 250 Z " />
<glyph glyph-name="odieresis" unicode="&#xf6;" horiz-adv-x="685" d="M428 635 C428 661 388 661 388 635 C388 609 428 609 428 635 L428 635 Z M298 635 C298 661 258 661 258 635 C258 609 298 609 298 635 L298 635 Z M67 250 C67 400 183 508 343 508 C503 508 618 400 618 250 C618 100 503 -8 343 -8 C183 -8 67 100 67 250 L67 250 Z M45 250 C45 99 170 -10 343 -10 C515 -10 640 99 640 250 C640 401 515 510 343 510 C170 510 45 401 45 250 L45 250 Z " />
<glyph glyph-name="oslash" unicode="&#xf8;" horiz-adv-x="685" d="M46 -11 C46 -11 76 15 130 62 C183 16 257 -11 343 -11 C515 -11 640 98 640 249 C640 324 609 389 557 435 C584 459 612 483 641 508 L639 510 C610 485 582 460 555 436 C502 482 428 509 343 509 C170 509 45 400 45 249 C45 174 76 109 128 63 C74 16 44 -10 44 -10 L46 -11 L46 -11 Z M546 429 C369 275 224 149 136 72 C92 117 66 179 66 250 C66 400 182 508 342 508 C425 508 496 479 545 430 L546 429 L546 429 Z M547 428 C591 383 617 321 617 250 C617 100 502 -8 342 -8 C259 -8 188 21 139 70 C227 147 372 273 549 427 L547 428 L547 428 Z " />
<glyph glyph-name="ugrave" unicode="&#xf9;" horiz-adv-x="540" d="M66 762 C66 759 98 730 141 690 L277 564 L280 567 L150 699 C109 741 78 772 76 772 C71 772 66 767 66 762 L66 762 Z M525 31 C506 26 496 40 496 73 L496 500 L457 500 L457 480 C468 480 476 476 476 465 L476 127 C441 55 343 4 236 4 C140 4 71 75 71 173 L71 500 L32 500 L32 480 C43 480 51 476 51 465 L51 173 C51 67 125 -10 227 -10 C338 -10 440 46 478 126 L478 0 L488 0 C499 3 516 8 527 11 L525 31 L525 31 Z " />
<glyph glyph-name="uacute" unicode="&#xfa;" horiz-adv-x="540" d="M279 564 L415 690 C459 731 490 761 490 762 C490 767 485 772 480 772 C480 772 449 741 406 699 L276 567 L279 564 L279 564 Z M525 31 C506 26 496 40 496 73 L496 500 L457 500 L457 480 C468 480 476 476 476 465 L476 127 C441 55 343 4 236 4 C140 4 71 75 71 173 L71 500 L32 500 L32 480 C43 480 51 476 51 465 L51 173 C51 67 125 -10 227 -10 C338 -10 440 46 478 126 L478 0 L488 0 C499 3 516 8 527 11 L525 31 L525 31 Z " />
<glyph glyph-name="ucircumflex" unicode="&#xfb;" horiz-adv-x="540" d="M280 774 C277 782 270 782 267 774 L127 561 L130 559 L274 758 L418 559 L421 561 L280 774 L280 774 Z M526 31 C507 26 497 40 497 73 L497 500 L458 500 L458 480 C469 480 477 476 477 465 L477 127 C442 55 344 4 237 4 C141 4 72 75 72 173 L72 500 L33 500 L33 480 C44 480 52 476 52 465 L52 173 C52 67 126 -10 228 -10 C339 -10 441 46 479 126 L479 0 L489 0 C500 3 517 8 528 11 L526 31 L526 31 Z " />
<glyph glyph-name="udieresis" unicode="&#xfc;" horiz-adv-x="540" d="M358 635 C358 661 318 661 318 635 C318 609 358 609 358 635 L358 635 Z M228 635 C228 661 188 661 188 635 C188 609 228 609 228 635 L228 635 Z M525 31 C506 26 496 40 496 73 L496 500 L457 500 L457 480 C468 480 476 476 476 465 L476 127 C441 55 343 4 236 4 C140 4 71 75 71 173 L71 500 L32 500 L32 480 C43 480 51 476 51 465 L51 173 C51 67 125 -10 227 -10 C338 -10 440 46 478 126 L478 0 L488 0 C499 3 516 8 527 11 L525 31 L525 31 Z " />
<glyph glyph-name="ydieresis" unicode="&#xff;" horiz-adv-x="485" d="M334 635 C334 661 294 661 294 635 C294 609 334 609 334 635 L334 635 Z M204 635 C204 661 164 661 164 635 C164 609 204 609 204 635 L204 635 Z M65 500 L15 500 L15 480 C27 480 40 466 55 440 L284 -4 C265 -58 247 -113 229 -167 C224 -183 209 -194 202 -194 C181 -194 174 -184 153 -184 C132 -184 116 -200 116 -221 C116 -244 133 -260 157 -260 C174 -260 216 -222 234 -169 C263 -84 292 1 321 87 C359 200 397 314 436 426 C448 460 461 481 474 481 L474 501 L434 501 L434 481 L436 481 C442 481 438 458 428 426 C428 426 306 55 294 22 C225 156 155 291 86 425 C70 458 61 480 67 480 L65 500 L65 500 Z " />
<glyph glyph-name="Amacron" unicode="&#x100;" horiz-adv-x="690" d="M146 907 L581 907 L581 920 L146 920 L146 907 L146 907 Z M116 125 L116 125 L184 297 L511 297 L577 112 C592 61 577 25 540 25 L528 25 L528 0 L682 0 L682 25 L675 25 C652 25 622 62 601 114 L376 743 C376 743 369 770 366 770 L364 770 C367 756 362 744 353 743 L357 732 L112 116 C88 62 42 24 0 24 L-13 24 L-13 -1 L157 -1 L157 24 L145 24 C106 24 95 66 118 124 L116 125 L116 125 Z M186 297 L358 730 L512 297 L186 297 L186 297 Z " />
<glyph glyph-name="amacron" unicode="&#x101;" horiz-adv-x="601" d="M101 657 L535 657 L535 670 L101 670 L101 657 L101 657 Z M611 57 L606 59 C601 30 577 9 549 9 C515 9 490 32 490 64 L490 361 C490 460 418 510 318 510 C181 510 81 412 81 360 C81 352 85 346 91 346 C106 346 116 352 116 356 C116 361 96 370 96 373 C96 420 188 508 316 508 C405 508 470 461 470 368 L470 267 C150 210 61 179 61 74 C61 25 123 -10 208 -10 C279 -10 373 21 470 92 L470 63 C470 23 500 -6 541 -6 C575 -6 605 20 611 56 L611 57 L611 57 Z M470 265 L470 93 C382 29 291 1 219 1 C139 1 81 33 81 76 C81 181 166 212 470 266 L470 265 L470 265 Z " />
<glyph glyph-name="Abreve" unicode="&#x102;" horiz-adv-x="690" d="M198 995 C199 942 269 904 364 904 C458 904 527 942 528 994 L524 995 C523 951 456 919 364 919 C272 919 204 951 203 995 L198 995 L198 995 Z M116 125 L116 125 L184 297 L511 297 L577 112 C592 61 577 25 540 25 L528 25 L528 0 L682 0 L682 25 L675 25 C652 25 622 62 601 114 L376 743 C376 743 369 770 366 770 L364 770 C367 756 362 744 353 743 L357 732 L112 116 C88 62 42 24 0 24 L-13 24 L-13 -1 L157 -1 L157 24 L145 24 C106 24 95 66 118 124 L116 125 L116 125 Z M186 297 L358 730 L512 297 L186 297 L186 297 Z " />
<glyph glyph-name="abreve" unicode="&#x103;" horiz-adv-x="601" d="M153 745 C154 692 223 654 318 654 C413 654 482 692 483 744 L479 745 C478 701 410 669 318 669 C226 669 158 701 157 745 L153 745 L153 745 Z M611 57 L606 59 C601 30 577 9 549 9 C515 9 490 32 490 64 L490 361 C490 460 418 510 318 510 C181 510 81 412 81 360 C81 352 85 346 91 346 C106 346 116 352 116 356 C116 361 96 370 96 373 C96 420 188 508 316 508 C405 508 470 461 470 368 L470 267 C150 210 61 179 61 74 C61 25 123 -10 208 -10 C279 -10 373 21 470 92 L470 63 C470 23 500 -6 541 -6 C575 -6 605 20 611 56 L611 57 L611 57 Z M470 265 L470 93 C382 29 291 1 219 1 C139 1 81 33 81 76 C81 181 166 212 470 266 L470 265 L470 265 Z " />
<glyph glyph-name="Cacute" unicode="&#x106;" horiz-adv-x="788" d="M421 814 L557 940 C601 981 632 1011 632 1012 C632 1017 627 1022 622 1022 C622 1022 591 991 548 949 L418 817 L421 814 L421 814 Z M740 51 L740 163 L718 163 L708 141 C688 95 641 48 595 27 C542 5 479 -8 402 -8 C224 -8 95 153 95 376 C95 598 229 759 415 759 C496 759 557 746 606 724 C647 702 688 656 708 610 L718 588 L740 588 L740 697 L723 697 L718 689 C712 680 688 685 658 702 C602 738 528 760 415 760 C215 760 71 598 71 375 C71 152 210 -10 402 -10 C508 -10 588 12 649 47 C683 66 712 72 718 60 L723 51 L740 51 L740 51 Z " />
<glyph glyph-name="Ccircumflex" unicode="&#x108;" horiz-adv-x="788" d="M422 1024 C419 1032 412 1032 409 1024 L269 811 L272 809 L416 1008 L560 809 L563 811 L422 1024 L422 1024 Z M741 51 L741 163 L719 163 L709 141 C689 95 642 48 596 27 C543 5 480 -8 403 -8 C225 -8 96 153 96 376 C96 598 230 759 416 759 C497 759 558 746 607 724 C648 702 689 656 709 610 L719 588 L741 588 L741 697 L724 697 L719 689 C713 680 689 685 659 702 C603 738 529 760 416 760 C216 760 72 598 72 375 C72 152 211 -10 403 -10 C509 -10 589 12 650 47 C684 66 713 72 719 60 L724 51 L741 51 L741 51 Z " />
<glyph glyph-name="Cdot" unicode="&#x10a;" horiz-adv-x="788" d="M435 885 C435 911 395 911 395 885 C395 859 435 859 435 885 L435 885 Z M740 51 L740 163 L718 163 L708 141 C688 95 641 48 595 27 C542 5 479 -8 402 -8 C224 -8 95 153 95 376 C95 598 229 759 415 759 C496 759 557 746 606 724 C647 702 688 656 708 610 L718 588 L740 588 L740 697 L723 697 L718 689 C712 680 688 685 658 702 C602 738 528 760 415 760 C215 760 71 598 71 375 C71 152 210 -10 402 -10 C508 -10 588 12 649 47 C683 66 712 72 718 60 L723 51 L740 51 L740 51 Z " />
<glyph glyph-name="cdot" unicode="&#x10b;" horiz-adv-x="546" d="M310 635 C310 661 270 661 270 635 C270 609 310 609 310 635 L310 635 Z M516 128 L515 128 C481 51 378 -5 270 -5 C151 -5 64 104 64 254 C64 402 159 509 289 509 C387 509 474 465 496 405 C498 399 502 395 506 395 C514 395 518 399 516 405 C494 466 399 510 290 510 C148 510 45 397 45 242 C45 96 138 -10 267 -10 C376 -10 480 48 516 128 L516 128 Z " />
<glyph glyph-name="Ccaron" unicode="&#x10c;" horiz-adv-x="788" d="M559 1041 L415 842 L271 1041 L268 1039 L408 826 C411 818 418 818 421 826 L561 1039 L559 1041 L559 1041 Z M739 51 L739 163 L717 163 L707 141 C687 95 640 48 594 27 C541 5 478 -8 401 -8 C223 -8 94 153 94 376 C94 598 228 759 414 759 C495 759 556 746 605 724 C646 702 687 656 707 610 L717 588 L739 588 L739 697 L722 697 L717 689 C711 680 687 685 657 702 C601 738 527 760 414 760 C214 760 70 598 70 375 C70 152 209 -10 401 -10 C507 -10 587 12 648 47 C682 66 711 72 717 60 L722 51 L739 51 L739 51 Z " />
<glyph glyph-name="ccaron" unicode="&#x10d;" horiz-adv-x="546" d="M434 791 L290 592 L146 791 L143 789 L283 576 C286 568 293 568 296 576 L436 789 L434 791 L434 791 Z M515 128 L514 128 C480 51 377 -5 269 -5 C150 -5 63 104 63 254 C63 402 158 509 288 509 C386 509 473 465 495 405 C497 399 501 395 505 395 C513 395 517 399 515 405 C493 466 398 510 289 510 C147 510 44 397 44 242 C44 96 137 -10 266 -10 C375 -10 479 48 515 128 L515 128 Z " />
<glyph glyph-name="Dcaron" unicode="&#x10e;" horiz-adv-x="841" d="M583 1041 L439 842 L295 1041 L292 1039 L432 826 C435 818 442 818 445 826 L585 1039 L583 1041 L583 1041 Z M255 1 C156 1 141 34 141 80 L141 749 L310 749 C596 749 759 592 759 375 C759 136 547 1 255 1 L255 1 Z M78 730 C102 730 117 713 117 680 L117 70 C117 37 102 20 78 20 L78 0 L257 0 C563 0 785 136 785 375 C785 593 615 750 315 750 L78 750 L78 730 L78 730 Z " />
<glyph glyph-name="dcaron" unicode="&#x10f;" horiz-adv-x="628" d="M666 759 C662 759 650 697 643 654 L623 543 L627 542 L653 651 C666 702 675 746 675 756 C675 758 671 759 666 759 L666 759 Z M613 34 C590 26 574 37 574 72 L574 750 L564 750 L554 747 C554 746 536 743 535 743 L535 731 C547 723 554 699 554 671 L554 391 C527 455 451 511 372 511 C163 511 45 404 45 257 C45 106 168 -4 337 -4 C428 -4 518 31 554 79 L554 0 L564 0 L613 14 L613 34 L613 34 Z M554 375 L554 80 C521 36 434 4 345 4 C183 4 65 112 65 262 C65 403 177 505 374 505 C456 505 533 443 554 376 L554 375 L554 375 Z " />
<glyph glyph-name="Emacron" unicode="&#x112;" horiz-adv-x="616" d="M113 907 L547 907 L547 920 L113 920 L113 907 L113 907 Z M59 730 L68 730 C97 730 118 701 118 660 L118 90 C118 49 97 20 68 20 L59 20 L59 0 L567 0 C571 23 577 57 581 80 L564 80 L558 68 C537 29 478 1 417 1 L222 1 C152 1 142 34 142 80 L142 385 L357 385 C403 385 447 353 461 309 L465 296 L482 296 L482 475 L465 475 L461 462 C447 418 403 386 357 386 L142 386 L142 749 L417 749 C463 749 511 717 530 673 L536 660 L553 660 C550 686 545 724 542 750 L59 750 L59 730 L59 730 Z " />
<glyph glyph-name="emacron" unicode="&#x113;" horiz-adv-x="645" d="M142 657 L576 657 L576 670 L142 670 L142 657 L142 657 Z M79 340 L615 340 C594 458 490 510 359 510 C177 510 45 427 45 238 C45 94 165 -10 330 -10 C458 -10 572 51 603 135 L602 135 C572 54 459 -5 332 -5 C178 -5 66 100 66 246 C66 281 71 312 79 340 L79 340 Z M592 342 L80 341 C116 457 222 509 359 509 C476 509 570 459 592 342 L592 342 Z " />
<glyph glyph-name="Ebreve" unicode="&#x114;" horiz-adv-x="616" d="M165 995 C166 942 235 904 330 904 C425 904 494 942 495 994 L491 995 C490 951 422 919 330 919 C238 919 170 951 169 995 L165 995 L165 995 Z M59 730 L68 730 C97 730 118 701 118 660 L118 90 C118 49 97 20 68 20 L59 20 L59 0 L567 0 C571 23 577 57 581 80 L564 80 L558 68 C537 29 478 1 417 1 L222 1 C152 1 142 34 142 80 L142 385 L357 385 C403 385 447 353 461 309 L465 296 L482 296 L482 475 L465 475 L461 462 C447 418 403 386 357 386 L142 386 L142 749 L417 749 C463 749 511 717 530 673 L536 660 L553 660 C550 686 545 724 542 750 L59 750 L59 730 L59 730 Z " />
<glyph glyph-name="ebreve" unicode="&#x115;" horiz-adv-x="645" d="M194 745 C195 692 264 654 359 654 C454 654 523 692 524 744 L520 745 C519 701 451 669 359 669 C267 669 199 701 198 745 L194 745 L194 745 Z M79 340 L615 340 C594 458 490 510 359 510 C177 510 45 427 45 238 C45 94 165 -10 330 -10 C458 -10 572 51 603 135 L602 135 C572 54 459 -5 332 -5 C178 -5 66 100 66 246 C66 281 71 312 79 340 L79 340 Z M592 342 L80 341 C116 457 222 509 359 509 C476 509 570 459 592 342 L592 342 Z " />
<glyph glyph-name="Edot" unicode="&#x116;" horiz-adv-x="616" d="M350 885 C350 911 310 911 310 885 C310 859 350 859 350 885 L350 885 Z M59 730 L68 730 C97 730 118 701 118 660 L118 90 C118 49 97 20 68 20 L59 20 L59 0 L567 0 C571 23 577 57 581 80 L564 80 L558 68 C537 29 478 1 417 1 L222 1 C152 1 142 34 142 80 L142 385 L357 385 C403 385 447 353 461 309 L465 296 L482 296 L482 475 L465 475 L461 462 C447 418 403 386 357 386 L142 386 L142 749 L417 749 C463 749 511 717 530 673 L536 660 L553 660 C550 686 545 724 542 750 L59 750 L59 730 L59 730 Z " />
<glyph glyph-name="edot" unicode="&#x117;" horiz-adv-x="645" d="M379 635 C379 661 339 661 339 635 C339 609 379 609 379 635 L379 635 Z M79 340 L615 340 C594 458 490 510 359 510 C177 510 45 427 45 238 C45 94 165 -10 330 -10 C458 -10 572 51 603 135 L602 135 C572 54 459 -5 332 -5 C178 -5 66 100 66 246 C66 281 71 312 79 340 L79 340 Z M592 342 L80 341 C116 457 222 509 359 509 C476 509 570 459 592 342 L592 342 Z " />
<glyph glyph-name="Ecaron" unicode="&#x11a;" horiz-adv-x="616" d="M474 1041 L330 842 L186 1041 L183 1039 L323 826 C326 818 333 818 336 826 L476 1039 L474 1041 L474 1041 Z M58 730 L67 730 C96 730 117 701 117 660 L117 90 C117 49 96 20 67 20 L58 20 L58 0 L566 0 C570 23 576 57 580 80 L563 80 L557 68 C536 29 477 1 416 1 L221 1 C151 1 141 34 141 80 L141 385 L356 385 C402 385 446 353 460 309 L464 296 L481 296 L481 475 L464 475 L460 462 C446 418 402 386 356 386 L141 386 L141 749 L416 749 C462 749 510 717 529 673 L535 660 L552 660 C549 686 544 724 541 750 L58 750 L58 730 L58 730 Z " />
<glyph glyph-name="ecaron" unicode="&#x11b;" horiz-adv-x="645" d="M503 791 L359 592 L215 791 L212 789 L352 576 C355 568 362 568 365 576 L505 789 L503 791 L503 791 Z M78 340 L614 340 C593 458 489 510 358 510 C176 510 44 427 44 238 C44 94 164 -10 329 -10 C457 -10 571 51 602 135 L601 135 C571 54 458 -5 331 -5 C177 -5 65 100 65 246 C65 281 70 312 78 340 L78 340 Z M591 342 L79 341 C115 457 221 509 358 509 C475 509 569 459 591 342 L591 342 Z " />
<glyph glyph-name="Gcircumflex" unicode="&#x11c;" horiz-adv-x="816" d="M422 1024 C419 1032 412 1032 409 1024 L269 811 L272 809 L416 1008 L560 809 L563 811 L422 1024 L422 1024 Z M724 696 L719 688 C713 679 689 684 659 701 C603 737 529 759 416 759 C216 759 72 597 72 374 C72 151 209 -11 399 -11 C583 -11 708 20 799 62 L799 63 C713 23 590 -6 403 -6 C517 -6 610 6 659 24 C595 14 466 -5 403 -5 C226 -5 97 155 97 375 C97 597 231 758 417 758 C498 758 559 745 608 723 C649 701 690 655 710 609 L720 587 L742 587 L742 696 L724 696 L724 696 Z M661 25 C686 34 700 45 700 57 L700 32 C700 32 685 29 662 25 L661 25 L661 25 Z M700 31 L723 35 L723 215 C723 264 741 300 765 300 L772 300 L772 325 L651 325 L651 300 L658 300 C682 300 700 264 700 215 L700 31 L700 31 Z " />
<glyph glyph-name="Gbreve" unicode="&#x11e;" horiz-adv-x="816" d="M250 995 C251 942 320 904 415 904 C510 904 579 942 580 994 L576 995 C575 951 507 919 415 919 C323 919 255 951 254 995 L250 995 L250 995 Z M723 696 L718 688 C712 679 688 684 658 701 C602 737 528 759 415 759 C215 759 71 597 71 374 C71 151 208 -11 398 -11 C582 -11 707 20 798 62 L798 63 C712 23 589 -6 402 -6 C516 -6 609 6 658 24 C594 14 465 -5 402 -5 C225 -5 96 155 96 375 C96 597 230 758 416 758 C497 758 558 745 607 723 C648 701 689 655 709 609 L719 587 L741 587 L741 696 L723 696 L723 696 Z M660 25 C685 34 699 45 699 57 L699 32 C699 32 684 29 661 25 L660 25 L660 25 Z M699 31 L722 35 L722 215 C722 264 740 300 764 300 L771 300 L771 325 L650 325 L650 300 L657 300 C681 300 699 264 699 215 L699 31 L699 31 Z " />
<glyph glyph-name="gbreve" unicode="&#x11f;" horiz-adv-x="610" d="M143 745 C144 692 213 654 308 654 C403 654 472 692 473 744 L469 745 C468 701 400 669 308 669 C216 669 148 701 147 745 L143 745 L143 745 Z M614 454 C566 454 528 431 516 397 C491 465 411 510 307 510 C181 510 90 443 90 350 C90 262 170 197 284 189 C154 186 63 154 63 110 C63 67 123 35 206 33 C120 13 58 -38 58 -89 C58 -170 166 -228 316 -228 C466 -228 574 -168 574 -86 C574 -5 507 54 352 54 L216 54 C134 54 75 80 75 117 C75 159 172 190 307 190 C433 190 524 258 524 352 C524 367 522 382 517 396 C528 424 560 443 602 443 C607 443 613 435 618 435 C631 435 626 456 612 456 L614 454 L614 454 Z M206 34 C209 34 212 34 215 34 L350 34 C494 34 557 -18 557 -91 C557 -170 456 -227 316 -227 C176 -227 74 -167 74 -84 C74 -34 129 15 207 34 L206 34 L206 34 Z M307 191 C193 191 110 259 110 352 C110 444 193 511 307 511 C421 511 504 444 504 352 C504 259 421 191 307 191 L307 191 Z " />
<glyph glyph-name="Gdot" unicode="&#x120;" horiz-adv-x="816" d="M435 885 C435 911 395 911 395 885 C395 859 435 859 435 885 L435 885 Z M723 696 L718 688 C712 679 688 684 658 701 C602 737 528 759 415 759 C215 759 71 597 71 374 C71 151 208 -11 398 -11 C582 -11 707 20 798 62 L798 63 C712 23 589 -6 402 -6 C516 -6 609 6 658 24 C594 14 465 -5 402 -5 C225 -5 96 155 96 375 C96 597 230 758 416 758 C497 758 558 745 607 723 C648 701 689 655 709 609 L719 587 L741 587 L741 696 L723 696 L723 696 Z M660 25 C685 34 699 45 699 57 L699 32 C699 32 684 29 661 25 L660 25 L660 25 Z M699 31 L722 35 L722 215 C722 264 740 300 764 300 L771 300 L771 325 L650 325 L650 300 L657 300 C681 300 699 264 699 215 L699 31 L699 31 Z " />
<glyph glyph-name="gdot" unicode="&#x121;" horiz-adv-x="610" d="M328 635 C328 661 288 661 288 635 C288 609 328 609 328 635 L328 635 Z M614 454 C566 454 528 431 516 397 C491 465 411 510 307 510 C181 510 90 443 90 350 C90 262 170 197 284 189 C154 186 63 154 63 110 C63 67 123 35 206 33 C120 13 58 -38 58 -89 C58 -170 166 -228 316 -228 C466 -228 574 -168 574 -86 C574 -5 507 54 352 54 L216 54 C134 54 75 80 75 117 C75 159 172 190 307 190 C433 190 524 258 524 352 C524 367 522 382 517 396 C528 424 560 443 602 443 C607 443 613 435 618 435 C631 435 626 456 612 456 L614 454 L614 454 Z M206 34 C209 34 212 34 215 34 L350 34 C494 34 557 -18 557 -91 C557 -170 456 -227 316 -227 C176 -227 74 -167 74 -84 C74 -34 129 15 207 34 L206 34 L206 34 Z M307 191 C193 191 110 259 110 352 C110 444 193 511 307 511 C421 511 504 444 504 352 C504 259 421 191 307 191 L307 191 Z " />
<glyph glyph-name="Hcircumflex" unicode="&#x124;" horiz-adv-x="798" d="M434 1024 C431 1033 422 1032 419 1024 L280 811 L283 809 L427 1007 L570 809 L573 811 L434 1024 L434 1024 Z M738 20 C714 20 699 37 699 70 L699 680 C699 713 714 730 738 730 L738 750 L637 750 L637 730 C661 730 676 713 676 680 L676 385 L178 385 L178 680 C178 713 193 730 217 730 L217 750 L115 750 L115 730 C139 730 154 713 154 680 L154 70 C154 37 139 20 115 20 L115 0 L217 0 L217 20 C193 20 178 37 178 70 L178 383 L676 383 L676 70 C676 37 661 20 637 20 L637 0 L738 0 L738 20 L738 20 Z " />
<glyph glyph-name="Itilde" unicode="&#x128;" horiz-adv-x="255" d="M-63 870 C-63 911 -33 941 8 941 C85 941 197 876 274 876 C319 876 352 908 352 951 L351 951 C351 916 320 891 278 891 C201 891 90 956 13 956 C-32 956 -64 920 -64 870 L-63 870 L-63 870 Z M195 20 C171 20 156 37 156 70 L156 680 C156 713 171 730 195 730 L195 750 L93 750 L93 730 C117 730 132 713 132 680 L132 70 C132 37 117 20 93 20 L93 0 L195 0 L195 20 L195 20 Z " />
<glyph glyph-name="itilde" unicode="&#x129;" horiz-adv-x="179" d="M-102 621 C-102 662 -72 692 -31 692 C46 692 158 627 235 627 C280 627 313 659 313 702 L312 702 C312 667 281 642 239 642 C162 642 51 707 -26 707 C-71 707 -103 671 -103 621 L-102 621 L-102 621 Z M76 473 C86 475 95 474 95 462 L95 34 C95 23 87 19 76 19 L76 -1 L134 -1 L134 19 C123 19 115 23 115 34 L115 499 C100 499 88 495 76 492 L76 473 L76 473 Z " />
<glyph glyph-name="Imacron" unicode="&#x12a;" horiz-adv-x="255" d="M-73 907 L361 907 L361 920 L-73 920 L-73 907 L-73 907 Z M195 20 C171 20 156 37 156 70 L156 680 C156 713 171 730 195 730 L195 750 L93 750 L93 730 C117 730 132 713 132 680 L132 70 C132 37 117 20 93 20 L93 0 L195 0 L195 20 L195 20 Z " />
<glyph glyph-name="imacron" unicode="&#x12b;" horiz-adv-x="179" d="M-112 658 L322 658 L322 671 L-112 671 L-112 658 L-112 658 Z M76 473 C86 475 95 474 95 462 L95 34 C95 23 87 19 76 19 L76 -1 L134 -1 L134 19 C123 19 115 23 115 34 L115 499 C100 499 88 495 76 492 L76 473 L76 473 Z " />
<glyph glyph-name="Ibreve" unicode="&#x12c;" horiz-adv-x="255" d="M-21 995 C-20 942 49 904 144 904 C239 904 308 942 309 994 L305 995 C304 951 236 919 144 919 C52 919 -16 951 -17 995 L-21 995 L-21 995 Z M195 20 C171 20 156 37 156 70 L156 680 C156 713 171 730 195 730 L195 750 L93 750 L93 730 C117 730 132 713 132 680 L132 70 C132 37 117 20 93 20 L93 0 L195 0 L195 20 L195 20 Z " />
<glyph glyph-name="ibreve" unicode="&#x12d;" horiz-adv-x="179" d="M-60 746 C-59 693 10 655 105 655 C200 655 269 693 270 745 L266 746 C265 702 197 670 105 670 C13 670 -55 702 -56 746 L-60 746 L-60 746 Z M76 473 C86 475 95 474 95 462 L95 34 C95 23 87 19 76 19 L76 -1 L134 -1 L134 19 C123 19 115 23 115 34 L115 499 C100 499 88 495 76 492 L76 473 L76 473 Z " />
<glyph glyph-name="Idot" unicode="&#x130;" horiz-adv-x="255" d="M164 885 C164 911 124 911 124 885 C124 859 164 859 164 885 L164 885 Z M195 20 C171 20 156 37 156 70 L156 680 C156 713 171 730 195 730 L195 750 L93 750 L93 730 C117 730 132 713 132 680 L132 70 C132 37 117 20 93 20 L93 0 L195 0 L195 20 L195 20 Z " />
<glyph glyph-name="dotlessi" unicode="&#x131;" horiz-adv-x="179" d="M76 473 C86 475 95 474 95 462 L95 34 C95 23 87 19 76 19 L76 -1 L134 -1 L134 19 C123 19 115 23 115 34 L115 499 C100 499 88 495 76 492 L76 473 L76 473 Z " />
<glyph glyph-name="Jcircumflex" unicode="&#x134;" horiz-adv-x="255" d="M151 1024 C148 1032 141 1032 138 1024 L-2 811 L1 809 L145 1008 L289 809 L292 811 L151 1024 L151 1024 Z M196 750 L94 750 L94 730 C118 730 133 713 133 680 L133 0 C133 -177 47 -218 -11 -218 C-22 -218 -18 -199 -29 -199 C-35 -199 -39 -204 -39 -210 C-39 -216 -28 -220 -12 -220 C57 -220 157 -170 157 44 L157 680 C157 713 172 730 196 730 L196 750 L196 750 Z " />
<glyph glyph-name="Lacute" unicode="&#x139;" horiz-adv-x="632" d="M150 814 L286 940 C330 981 361 1011 361 1012 C361 1017 356 1022 351 1022 C351 1022 320 991 277 949 L147 817 L150 814 L150 814 Z M195 750 L93 750 L93 730 C117 730 132 713 132 680 L132 70 C132 37 117 20 93 20 L93 0 L603 0 L603 2 C607 25 613 60 617 83 L600 83 L594 71 C573 32 514 4 453 4 L236 4 C166 4 156 36 156 80 L156 680 C156 713 171 730 195 730 L195 750 L195 750 Z " />
<glyph glyph-name="Lcaron" unicode="&#x13d;" horiz-adv-x="632" d="M302 809 C298 809 286 747 279 704 L259 593 L263 592 L289 701 C302 752 311 796 311 806 C311 808 307 809 302 809 L302 809 Z M195 750 L93 750 L93 730 C117 730 132 713 132 680 L132 70 C132 37 117 20 93 20 L93 0 L603 0 L603 2 C607 25 613 60 617 83 L600 83 L594 71 C573 32 514 4 453 4 L236 4 C166 4 156 36 156 80 L156 680 C156 713 171 730 195 730 L195 750 L195 750 Z " />
<glyph glyph-name="lcaron" unicode="&#x13e;" horiz-adv-x="123" d="M166 760 C162 760 150 698 143 655 L123 544 L127 543 L153 652 C166 703 175 747 175 757 C175 759 171 760 166 760 L166 760 Z M35 731 C47 723 54 699 54 671 L54 35 C54 24 46 20 35 20 L35 0 L93 0 L93 20 C82 20 74 24 74 35 L74 750 C59 750 47 746 35 743 L35 731 L35 731 Z " />
<glyph glyph-name="Nacute" unicode="&#x143;" horiz-adv-x="772" d="M291 814 L427 940 C471 981 502 1011 502 1012 C502 1017 497 1022 492 1022 C492 1022 461 991 418 949 L288 817 L291 814 L291 814 Z M55 730 C71 730 81 726 97 714 L96 69 L96 69 C96 36 81 19 57 19 L57 -1 L143 -1 L143 19 C119 19 104 36 104 69 L104 69 L103 709 C112 702 121 694 129 685 C308 457 487 229 666 0 L671 0 L673 680 L673 680 C673 713 688 730 712 730 L712 750 L626 750 L626 730 C650 730 665 713 665 680 L666 38 L660 46 L109 750 L55 750 L55 730 L55 730 Z " />
<glyph glyph-name="Ncaron" unicode="&#x147;" horiz-adv-x="772" d="M529 1041 L385 842 L241 1041 L238 1039 L378 826 C381 818 388 818 391 826 L531 1039 L529 1041 L529 1041 Z M54 730 C70 730 80 726 96 714 L95 69 L95 69 C95 36 80 19 56 19 L56 -1 L142 -1 L142 19 C118 19 103 36 103 69 L103 69 L102 709 C111 702 120 694 128 685 C307 457 486 229 665 0 L670 0 L672 680 L672 680 C672 713 687 730 711 730 L711 750 L625 750 L625 730 C649 730 664 713 664 680 L665 38 L659 46 L108 750 L54 750 L54 730 L54 730 Z " />
<glyph glyph-name="ncaron" unicode="&#x148;" horiz-adv-x="511" d="M402 792 L258 593 L114 792 L111 790 L251 577 C254 569 261 569 264 577 L404 790 L402 792 L402 792 Z M34 481 C46 473 53 449 53 421 L53 35 C53 24 45 20 34 20 L34 0 L92 0 L92 20 C81 20 73 24 73 35 L73 356 C136 440 223 500 280 500 C383 500 441 421 441 311 L441 35 C441 24 433 20 422 20 L422 0 L480 0 L480 20 C469 20 461 24 461 35 L461 311 C461 426 398 510 286 510 C229 510 140 447 73 359 L73 500 C58 500 46 496 34 493 L34 481 L34 481 Z " />
<glyph glyph-name="Omacron" unicode="&#x14c;" horiz-adv-x="880" d="M226 907 L660 907 L660 920 L226 920 L226 907 L226 907 Z M96 375 C96 597 242 758 443 758 C649 758 799 597 799 375 C799 153 645 -8 433 -8 C238 -8 96 153 96 375 L96 375 Z M71 375 C71 152 223 -10 433 -10 C660 -10 825 152 825 375 C825 598 665 760 443 760 C227 760 71 598 71 375 L71 375 Z " />
<glyph glyph-name="omacron" unicode="&#x14d;" horiz-adv-x="685" d="M126 657 L560 657 L560 670 L126 670 L126 657 L126 657 Z M67 250 C67 400 183 508 343 508 C503 508 618 400 618 250 C618 100 503 -8 343 -8 C183 -8 67 100 67 250 L67 250 Z M45 250 C45 99 170 -10 343 -10 C515 -10 640 99 640 250 C640 401 515 510 343 510 C170 510 45 401 45 250 L45 250 Z " />
<glyph glyph-name="Obreve" unicode="&#x14e;" horiz-adv-x="880" d="M278 995 C279 942 348 904 443 904 C538 904 607 942 608 994 L604 995 C603 951 535 919 443 919 C351 919 283 951 282 995 L278 995 L278 995 Z M96 375 C96 597 242 758 443 758 C649 758 799 597 799 375 C799 153 645 -8 433 -8 C238 -8 96 153 96 375 L96 375 Z M71 375 C71 152 223 -10 433 -10 C660 -10 825 152 825 375 C825 598 665 760 443 760 C227 760 71 598 71 375 L71 375 Z " />
<glyph glyph-name="obreve" unicode="&#x14f;" horiz-adv-x="685" d="M178 745 C179 692 248 654 343 654 C438 654 507 692 508 744 L504 745 C503 701 435 669 343 669 C251 669 183 701 182 745 L178 745 L178 745 Z M67 250 C67 400 183 508 343 508 C503 508 618 400 618 250 C618 100 503 -8 343 -8 C183 -8 67 100 67 250 L67 250 Z M45 250 C45 99 170 -10 343 -10 C515 -10 640 99 640 250 C640 401 515 510 343 510 C170 510 45 401 45 250 L45 250 Z " />
<glyph glyph-name="Racute" unicode="&#x154;" horiz-adv-x="670" d="M350 814 L487 940 C531 981 563 1012 563 1012 C563 1017 558 1022 553 1022 C552 1022 521 991 478 949 L348 817 L350 814 L350 814 Z M79 730 C103 730 118 713 118 680 L118 70 C118 37 103 20 79 20 L79 0 L181 0 L181 20 C157 20 142 37 142 70 L142 374 L398 374 C406 353 456 234 522 81 C554 7 564 1 660 1 L660 6 C587 6 579 11 549 81 C484 233 434 348 422 375 C524 382 596 438 596 542 C596 663 513 750 399 750 L79 750 L79 730 L79 730 Z M399 380 L142 380 L142 745 L392 745 C496 745 571 661 571 546 C571 436 501 380 399 380 L399 380 Z " />
<glyph glyph-name="Rcaron" unicode="&#x158;" horiz-adv-x="670" d="M488 1041 L345 843 L201 1041 L198 1039 L337 826 C340 818 349 817 352 826 L491 1039 L488 1041 L488 1041 Z M79 730 C103 730 118 713 118 680 L118 70 C118 37 103 20 79 20 L79 0 L181 0 L181 20 C157 20 142 37 142 70 L142 374 L398 374 C406 353 456 234 522 81 C554 7 564 1 660 1 L660 6 C587 6 579 11 549 81 C484 233 434 348 422 375 C524 382 596 438 596 542 C596 663 513 750 399 750 L79 750 L79 730 L79 730 Z M399 380 L142 380 L142 745 L392 745 C496 745 571 661 571 546 C571 436 501 380 399 380 L399 380 Z " />
<glyph glyph-name="rcaron" unicode="&#x159;" horiz-adv-x="375" d="M352 792 L209 594 L65 792 L62 790 L201 577 C204 569 213 568 216 577 L355 790 L352 792 L352 792 Z M36 481 C48 473 55 449 55 421 L55 35 C55 24 47 20 36 20 L36 0 L94 0 L94 20 C83 20 75 24 75 35 L75 375 C123 448 207 501 276 501 C314 501 342 486 342 466 C342 451 365 450 365 466 C365 492 331 510 285 510 C213 510 125 455 75 378 L75 500 C60 500 48 496 36 493 L36 481 L36 481 Z " />
<glyph glyph-name="Sacute" unicode="&#x15a;" horiz-adv-x="630" d="M324 814 L461 940 C505 981 537 1012 537 1012 C537 1017 532 1022 527 1022 C526 1022 495 991 452 949 L322 817 L324 814 L324 814 Z M73 48 L77 60 C83 75 110 72 144 53 C161 42 180 32 200 23 C201 22 211 17 211 18 C257 0 309 -10 362 -10 C494 -10 589 66 589 171 C589 237 509 322 369 387 C195 468 97 549 97 597 C97 690 171 758 273 758 C311 758 348 753 382 744 C436 730 491 681 512 627 L522 604 L544 604 L544 706 L527 706 L522 701 C517 695 492 702 463 717 C439 729 410 740 381 748 L381 747 C347 755 310 760 272 760 C159 760 77 688 77 588 C77 532 177 445 354 363 C492 299 570 221 570 164 C570 64 482 -8 361 -8 C308 -8 256 3 210 22 C159 43 106 101 85 160 L76 186 L53 186 L53 48 L73 48 L73 48 Z " />
<glyph glyph-name="Scircumflex" unicode="&#x15c;" horiz-adv-x="630" d="M73 48 L77 60 C83 75 110 72 144 53 C161 42 180 32 200 23 C201 22 211 17 211 18 C257 0 309 -10 362 -10 C494 -10 589 66 589 171 C589 237 509 322 369 387 C195 468 97 549 97 597 C97 690 171 758 273 758 C311 758 348 753 382 744 C436 730 491 681 512 627 L522 604 L544 604 L544 706 L527 706 L522 701 C517 695 492 702 463 717 C439 729 410 740 381 748 L381 747 C347 755 310 760 272 760 C159 760 77 688 77 588 C77 532 177 445 354 363 C492 299 570 221 570 164 C570 64 482 -8 361 -8 C308 -8 256 3 210 22 C159 43 106 101 85 160 L76 186 L53 186 L53 48 L73 48 L73 48 Z M324 1024 C321 1033 312 1032 309 1024 L170 811 L173 809 L317 1007 L460 809 L463 811 L324 1024 L324 1024 Z " />
<glyph glyph-name="Scaron" unicode="&#x160;" horiz-adv-x="630" d="M462 1041 L319 843 L175 1041 L172 1039 L311 826 C314 818 323 817 326 826 L465 1039 L462 1041 L462 1041 Z M73 48 L77 60 C83 75 110 72 144 53 C161 42 180 32 200 23 C201 22 211 17 211 18 C257 0 309 -10 362 -10 C494 -10 589 66 589 171 C589 237 509 322 369 387 C195 468 97 549 97 597 C97 690 171 758 273 758 C311 758 348 753 382 744 C436 730 491 681 512 627 L522 604 L544 604 L544 706 L527 706 L522 701 C517 695 492 702 463 717 C439 729 410 740 381 748 L381 747 C347 755 310 760 272 760 C159 760 77 688 77 588 C77 532 177 445 354 363 C492 299 570 221 570 164 C570 64 482 -8 361 -8 C308 -8 256 3 210 22 C159 43 106 101 85 160 L76 186 L53 186 L53 48 L73 48 L73 48 Z " />
<glyph glyph-name="scaron" unicode="&#x161;" horiz-adv-x="506" d="M429 791 L285 592 L141 791 L138 789 L278 576 C281 568 288 568 291 576 L431 789 L429 791 L429 791 Z M303 501 L303 500 C276 506 247 509 217 509 C129 509 65 461 65 395 C65 351 143 291 280 241 C381 204 439 151 439 107 C439 39 374 -10 284 -10 C247 -10 211 -4 179 7 C130 24 87 67 77 108 L74 123 L60 123 L60 45 L74 45 L77 48 C78 49 106 36 145 18 C145 18 175 5 178 4 L178 5 C211 -6 248 -12 286 -12 C385 -12 457 40 457 112 C457 160 397 217 291 256 C157 305 81 361 81 401 C81 462 139 507 219 507 C249 507 278 503 304 496 L304 495 C356 482 401 444 410 405 L413 391 L427 391 L427 459 L414 459 L410 458 C418 461 335 491 306 498 L303 501 L303 501 Z " />
<glyph glyph-name="Tcaron" unicode="&#x164;" horiz-adv-x="864" d="M576 1041 L432 842 L288 1041 L285 1039 L425 826 C428 818 435 818 438 826 L578 1039 L576 1041 L576 1041 Z M54 750 L54 749 L54 750 L54 750 Z M53 748 C53 747 53 747 53 746 L53 748 L53 748 Z M809 749 L54 749 L54 746 C44 722 30 688 20 664 L37 664 L46 676 C76 715 133 743 182 743 L420 743 L420 69 C420 36 405 19 381 19 L381 -1 L482 -1 L482 19 C458 19 443 36 443 69 L443 743 L680 743 C729 743 786 715 816 676 L825 664 L842 664 C833 688 819 722 809 746 L809 749 L809 749 Z " />
<glyph glyph-name="tcaron" unicode="&#x165;" horiz-adv-x="363" d="M326 500 L126 500 L126 620 L125 620 L41 500 L41 490 L106 490 L106 103 C106 24 158 -10 230 -10 C272 -10 323 13 353 45 L351 46 C326 19 277 -1 236 -1 C172 -1 126 29 126 98 L126 489 L326 489 L326 500 L326 500 Z M415 759 C411 759 399 697 392 654 L372 543 L376 542 L402 651 C415 702 424 746 424 756 C424 758 420 759 415 759 L415 759 Z " />
<glyph glyph-name="Utilde" unicode="&#x168;" horiz-adv-x="666" d="M133 870 C133 911 163 941 204 941 C281 941 393 876 470 876 C515 876 548 908 548 951 L547 951 C547 916 516 891 474 891 C397 891 286 956 209 956 C164 956 132 920 132 870 L133 870 L133 870 Z M636 34 C614 27 597 39 597 73 L597 750 L534 750 L534 730 C558 730 573 713 573 680 L573 182 C525 79 404 5 285 5 C182 5 107 103 107 238 L107 750 L44 750 L44 730 C68 730 83 713 83 680 L83 238 C83 94 164 -10 276 -10 C399 -10 524 66 573 171 L573 0 L585 0 L597 3 C597 5 634 13 636 14 L636 34 L636 34 Z " />
<glyph glyph-name="utilde" unicode="&#x169;" horiz-adv-x="540" d="M66 620 C66 661 96 691 137 691 C214 691 326 626 403 626 C448 626 481 658 481 701 L480 701 C480 666 449 641 407 641 C330 641 219 706 142 706 C97 706 65 670 65 620 L66 620 L66 620 Z M525 31 C506 26 496 40 496 73 L496 500 L457 500 L457 480 C468 480 476 476 476 465 L476 127 C441 55 343 4 236 4 C140 4 71 75 71 173 L71 500 L32 500 L32 480 C43 480 51 476 51 465 L51 173 C51 67 125 -10 227 -10 C338 -10 440 46 478 126 L478 0 L488 0 C499 3 516 8 527 11 L525 31 L525 31 Z " />
<glyph glyph-name="Umacron" unicode="&#x16a;" horiz-adv-x="666" d="M123 907 L557 907 L557 920 L123 920 L123 907 L123 907 Z M636 34 C614 27 597 39 597 73 L597 750 L534 750 L534 730 C558 730 573 713 573 680 L573 182 C525 79 404 5 285 5 C182 5 107 103 107 238 L107 750 L44 750 L44 730 C68 730 83 713 83 680 L83 238 C83 94 164 -10 276 -10 C399 -10 524 66 573 171 L573 0 L585 0 L597 3 C597 5 634 13 636 14 L636 34 L636 34 Z " />
<glyph glyph-name="umacron" unicode="&#x16b;" horiz-adv-x="540" d="M56 657 L490 657 L490 670 L56 670 L56 657 L56 657 Z M525 31 C506 26 496 40 496 73 L496 500 L457 500 L457 480 C468 480 476 476 476 465 L476 127 C441 55 343 4 236 4 C140 4 71 75 71 173 L71 500 L32 500 L32 480 C43 480 51 476 51 465 L51 173 C51 67 125 -10 227 -10 C338 -10 440 46 478 126 L478 0 L488 0 C499 3 516 8 527 11 L525 31 L525 31 Z " />
<glyph glyph-name="Ubreve" unicode="&#x16c;" horiz-adv-x="666" d="M175 995 C176 942 245 904 340 904 C435 904 504 942 505 994 L501 995 C500 951 432 919 340 919 C248 919 180 951 179 995 L175 995 L175 995 Z M636 34 C614 27 597 39 597 73 L597 750 L534 750 L534 730 C558 730 573 713 573 680 L573 182 C525 79 404 5 285 5 C182 5 107 103 107 238 L107 750 L44 750 L44 730 C68 730 83 713 83 680 L83 238 C83 94 164 -10 276 -10 C399 -10 524 66 573 171 L573 0 L585 0 L597 3 C597 5 634 13 636 14 L636 34 L636 34 Z " />
<glyph glyph-name="ubreve" unicode="&#x16d;" horiz-adv-x="540" d="M108 745 C109 692 178 654 273 654 C368 654 437 692 438 744 L434 745 C433 701 365 669 273 669 C181 669 113 701 112 745 L108 745 L108 745 Z M525 31 C506 26 496 40 496 73 L496 500 L457 500 L457 480 C468 480 476 476 476 465 L476 127 C441 55 343 4 236 4 C140 4 71 75 71 173 L71 500 L32 500 L32 480 C43 480 51 476 51 465 L51 173 C51 67 125 -10 227 -10 C338 -10 440 46 478 126 L478 0 L488 0 C499 3 516 8 527 11 L525 31 L525 31 Z " />
<glyph glyph-name="Uring" unicode="&#x16e;" horiz-adv-x="666" d="M251 905 C251 957 288 995 340 995 C392 995 429 957 429 905 C429 858 386 815 340 815 C294 815 251 858 251 905 L251 905 Z M245 905 C245 855 290 810 340 810 C390 810 435 855 435 905 C435 960 395 1000 340 1000 C285 1000 245 960 245 905 L245 905 Z M636 34 C614 27 597 39 597 73 L597 750 L534 750 L534 730 C558 730 573 713 573 680 L573 182 C525 79 404 5 285 5 C182 5 107 103 107 238 L107 750 L44 750 L44 730 C68 730 83 713 83 680 L83 238 C83 94 164 -10 276 -10 C399 -10 524 66 573 171 L573 0 L585 0 L597 3 C597 5 634 13 636 14 L636 34 L636 34 Z " />
<glyph glyph-name="uring" unicode="&#x16f;" horiz-adv-x="540" d="M184 655 C184 707 221 745 273 745 C325 745 362 707 362 655 C362 608 319 565 273 565 C227 565 184 608 184 655 L184 655 Z M178 655 C178 605 223 560 273 560 C323 560 368 605 368 655 C368 710 328 750 273 750 C218 750 178 710 178 655 L178 655 Z M525 31 C506 26 496 40 496 73 L496 500 L457 500 L457 480 C468 480 476 476 476 465 L476 127 C441 55 343 4 236 4 C140 4 71 75 71 173 L71 500 L32 500 L32 480 C43 480 51 476 51 465 L51 173 C51 67 125 -10 227 -10 C338 -10 440 46 478 126 L478 0 L488 0 C499 3 516 8 527 11 L525 31 L525 31 Z " />
<glyph glyph-name="Wcircumflex" unicode="&#x174;" horiz-adv-x="1112" d="M561 645 L561 645 C576 597 592 548 606 500 L327 29 L110 645 C94 691 102 725 129 725 L137 725 L137 750 L26 750 L26 725 C45 725 61 702 78 660 C153 437 228 213 304 -10 L310 -10 L609 492 C662 325 716 158 768 -10 L774 -10 C854 208 933 427 1014 645 C1031 691 1061 725 1085 725 L1092 725 L1092 750 L943 750 L943 725 L956 725 C1001 725 1021 691 1004 645 L1004 645 L783 32 C718 236 652 441 588 645 C573 691 589 725 627 725 L638 725 L638 750 L502 750 L502 725 C525 725 544 695 560 645 L561 645 L561 645 Z M557 1024 C554 1033 545 1032 542 1024 L403 811 L406 809 L550 1007 L693 809 L696 811 L557 1024 L557 1024 Z " />
<glyph glyph-name="Ycircumflex" unicode="&#x176;" horiz-adv-x="680" d="M351 1024 C348 1033 339 1032 336 1024 L197 811 L200 809 L344 1007 L487 809 L490 811 L351 1024 L351 1024 Z M129 750 L32 750 L32 730 C46 730 64 715 85 688 L332 335 L332 89 C332 48 311 19 282 19 L273 19 L273 -1 L414 -1 L414 19 L405 19 C376 19 355 48 355 89 L355 338 C432 450 508 562 585 674 C610 710 640 729 672 729 L672 749 L554 749 L554 729 L564 729 C595 729 603 707 583 676 L354 339 L119 678 C100 708 101 729 122 729 L129 729 L129 750 L129 750 Z " />
<glyph glyph-name="Ydieresis" unicode="&#x178;" horiz-adv-x="680" d="M429 885 C429 911 389 911 389 885 C389 859 429 859 429 885 L429 885 Z M298 885 C298 911 258 911 258 885 C258 859 298 859 298 885 L298 885 Z M129 750 L32 750 L32 730 C46 730 64 715 85 688 L332 335 L332 89 C332 48 311 19 282 19 L273 19 L273 -1 L414 -1 L414 19 L405 19 C376 19 355 48 355 89 L355 338 C432 450 508 562 585 674 C610 710 640 729 672 729 L672 749 L554 749 L554 729 L564 729 C595 729 603 707 583 676 L354 339 L119 678 C100 708 101 729 122 729 L129 729 L129 750 L129 750 Z " />
<glyph glyph-name="Zacute" unicode="&#x179;" horiz-adv-x="719" d="M390 814 L526 940 C570 981 601 1011 601 1012 C601 1017 596 1022 591 1022 C591 1022 560 991 517 949 L387 817 L390 814 L390 814 Z M79 664 L84 676 C101 715 157 743 219 743 L219 743 L674 744 L25 4 L25 -1 L696 -1 L698 6 L697 6 C699 16 706 46 715 84 L698 84 L691 72 C668 33 607 6 547 5 L54 4 L701 744 L701 749 L71 749 L71 746 C70 746 68 712 64 663 L79 664 L79 664 Z " />
<glyph glyph-name="Zdot" unicode="&#x17b;" horiz-adv-x="719" d="M404 885 C404 911 364 911 364 885 C364 859 404 859 404 885 L404 885 Z M79 664 L84 676 C101 715 157 743 219 743 L219 743 L674 744 L25 4 L25 -1 L696 -1 L698 6 L697 6 C699 16 706 46 715 84 L698 84 L691 72 C668 33 607 6 547 5 L54 4 L701 744 L701 749 L71 749 L71 746 C70 746 68 712 64 663 L79 664 L79 664 Z " />
<glyph glyph-name="zdot" unicode="&#x17c;" horiz-adv-x="565" d="M314 635 C314 661 274 661 274 635 C274 609 314 609 314 635 L314 635 Z M46 441 L65 441 L72 449 C92 473 137 491 182 494 L501 495 L41 5 L41 0 L521 0 L521 3 C523 3 525 26 528 59 L509 59 L503 51 C487 27 445 9 401 6 L67 5 L526 495 L526 500 L64 500 L64 497 L62 497 C58 479 54 467 47 441 L46 441 L46 441 Z M63 500 C63 500 63 499 62 497 L63 500 L63 500 Z M59 487 L59 486 L59 486 L59 487 L59 487 Z M62 495 L62 496 C61 496 61 496 61 495 L62 495 L62 495 Z " />
<glyph glyph-name="Zcaron" unicode="&#x17d;" horiz-adv-x="719" d="M528 1041 L384 842 L240 1041 L237 1039 L377 826 C380 818 387 818 390 826 L530 1039 L528 1041 L528 1041 Z M78 664 L83 676 C100 715 156 743 218 743 L218 743 L673 744 L24 4 L24 -1 L695 -1 L697 6 L696 6 C698 16 705 46 714 84 L697 84 L690 72 C667 33 606 6 546 5 L53 4 L700 744 L700 749 L70 749 L70 746 C69 746 67 712 63 663 L78 664 L78 664 Z " />
<glyph glyph-name="zcaron" unicode="&#x17e;" horiz-adv-x="565" d="M438 791 L294 592 L150 791 L147 789 L287 576 C290 568 297 568 300 576 L440 789 L438 791 L438 791 Z M45 441 L64 441 L71 449 C91 473 136 491 181 494 L500 495 L40 5 L40 0 L520 0 L520 3 C522 3 524 26 527 59 L508 59 L502 51 C486 27 444 9 400 6 L66 5 L525 495 L525 500 L63 500 L63 497 L61 497 C57 479 53 467 46 441 L45 441 L45 441 Z M62 500 C62 500 62 499 61 497 L62 500 L62 500 Z M58 487 L58 486 L58 486 L58 487 L58 487 Z M61 495 L61 496 C60 496 60 496 60 495 L61 495 L61 495 Z " />
<glyph glyph-name="oogonek" unicode="&#x1eb;" horiz-adv-x="763" d="M1067 -54 L1066 -54 C1038 -77 920 -94 784 -94 C627 -94 450 -59 360 -10 C565 -20 713 113 713 291 C713 466 576 592 387 592 C204 592 71 466 71 291 C71 129 182 8 339 -9 L338 -9 C442 -67 628 -109 781 -109 C910 -109 1030 -86 1067 -55 L1067 -54 L1067 -54 Z M357 -9 L351 -9 C200 3 94 125 94 291 C94 465 217 591 387 591 C563 591 690 465 690 291 C690 116 558 -10 376 -10 C371 -10 361 -11 357 -9 L357 -9 Z " />
<glyph glyph-name="Adotabove" unicode="&#x226;" horiz-adv-x="690" d="M384 885 C384 911 344 911 344 885 C344 859 384 859 384 885 L384 885 Z M116 125 L116 125 L184 297 L511 297 L577 112 C592 61 577 25 540 25 L528 25 L528 0 L682 0 L682 25 L675 25 C652 25 622 62 601 114 L376 743 C376 743 369 770 366 770 L364 770 C367 756 362 744 353 743 L357 732 L112 116 C88 62 42 24 0 24 L-13 24 L-13 -1 L157 -1 L157 24 L145 24 C106 24 95 66 118 124 L116 125 L116 125 Z M186 297 L358 730 L512 297 L186 297 L186 297 Z " />
<glyph glyph-name="G_sc" unicode="&#x262;" horiz-adv-x="705" d="M627 485 L627 485 L627 485 L627 485 Z M534 12 C556 18 588 31 588 48 L588 26 C588 24 540 13 534 12 L534 12 Z M612 557 L607 549 C602 539 576 542 545 556 C525 566 500 575 475 581 L475 580 C443 587 405 591 359 591 C192 591 71 465 71 290 C71 115 188 -12 349 -12 C447 -12 531 4 604 28 L609 29 L609 29 C637 38 663 49 688 60 L687 61 C663 50 637 40 609 31 L609 141 C609 190 627 226 651 226 L658 226 L658 251 L539 251 L539 226 L546 226 C570 226 588 190 588 141 L588 24 C587 24 586 24 585 24 C526 13 413 -7 352 -7 C202 -7 94 118 94 291 C94 465 206 591 360 591 C405 591 443 586 475 578 L475 578 C524 565 575 520 597 470 L607 448 L629 448 L629 556 L612 557 L612 557 Z " />
<glyph glyph-name="I_sc" unicode="&#x26a;" horiz-adv-x="254" d="M194 20 C170 20 155 37 155 70 L155 513 C155 546 170 563 194 563 L194 583 L95 583 L95 563 C119 563 134 546 134 513 L134 70 C134 37 119 20 95 20 L95 0 L194 0 L194 20 L194 20 Z " />
<glyph glyph-name="N_sc" unicode="&#x274;" horiz-adv-x="661" d="M601 583 L517 583 L517 563 C541 563 556 546 556 513 L556 27 L551 33 L109 583 L59 583 L59 563 C74 563 83 560 98 550 L98 70 C98 37 83 20 59 20 L59 0 L143 0 L143 20 C119 20 104 37 104 70 L104 70 L103 547 C114 539 126 528 136 516 C276 344 415 172 555 0 L560 0 L561 513 L561 513 C561 546 576 563 600 563 L601 583 L601 583 Z " />
<glyph glyph-name="R_sc" unicode="&#x280;" horiz-adv-x="559" d="M80 563 C104 563 119 546 119 513 L119 70 C119 37 104 20 80 20 L80 0 L179 0 L179 20 C155 20 140 37 140 70 L140 290 L312 290 C319 272 364 180 423 62 C452 4 461 0 548 0 L548 4 C482 4 475 8 448 62 C390 178 345 267 333 291 C423 297 486 341 486 422 C486 516 413 584 312 584 L79 584 L80 563 L80 563 Z M312 297 L139 297 L139 580 L306 580 C397 580 463 515 463 426 C463 340 400 297 312 297 L312 297 Z " />
<glyph glyph-name="Y_sc" unicode="&#x28f;" horiz-adv-x="570" d="M127 583 L33 583 L33 563 C49 563 66 548 88 521 L278 260 L278 90 C278 49 257 20 228 20 L219 20 L219 0 L358 0 L358 20 L349 20 C320 20 299 49 299 90 L299 263 C357 345 415 427 473 508 C499 544 530 563 561 563 L561 583 L444 583 L444 563 L454 563 C486 563 492 540 470 508 L470 508 L298 265 L117 516 C99 544 100 564 121 564 L127 564 L127 583 L127 583 Z " />
<glyph glyph-name="B_sc" unicode="&#x299;" horiz-adv-x="542" d="M258 1 L208 1 C169 1 140 39 140 91 L140 299 L281 299 C396 299 479 236 479 150 C479 33 386 1 258 1 L258 1 Z M260 0 C400 0 502 33 502 150 C502 237 411 300 285 300 L273 300 C404 308 496 365 496 442 C496 524 437 583 226 583 L80 583 L80 558 C104 558 119 541 119 508 L119 75 C119 42 104 25 80 25 L80 0 L260 0 L260 0 Z M239 300 L140 300 L140 582 L224 582 C421 582 475 522 475 440 C475 359 376 300 239 300 L239 300 Z " />
<glyph glyph-name="H_sc" unicode="&#x29c;" horiz-adv-x="694" d="M634 20 C610 20 595 37 595 70 L595 513 C595 546 610 563 634 563 L634 583 L534 583 L534 563 C558 563 573 546 573 513 L573 299 L176 299 L176 513 C176 546 191 563 215 563 L215 583 L116 583 L116 563 C140 563 155 546 155 513 L155 70 C155 37 140 20 116 20 L116 0 L215 0 L215 20 C191 20 176 37 176 70 L176 298 L573 298 L573 70 C573 37 558 20 534 20 L534 0 L634 0 L634 20 L634 20 Z " />
<glyph glyph-name="L_sc" unicode="&#x29f;" horiz-adv-x="523" d="M194 583 L95 583 L95 563 C119 563 134 546 134 513 L134 70 C134 37 119 20 95 20 L95 0 L494 0 L494 2 C498 25 504 60 508 83 L491 83 L485 71 C464 32 405 4 344 4 L235 4 C165 4 155 36 155 80 L155 513 C155 546 170 563 194 563 L194 583 L194 583 Z " />
<glyph glyph-name="circumflex" unicode="&#x2c6;" horiz-adv-x="452" d="M233 774 C230 782 223 782 220 774 L80 561 L83 559 L227 758 L371 559 L374 561 L233 774 L233 774 Z " />
<glyph glyph-name="caron" unicode="&#x2c7;" horiz-adv-x="452" d="M370 791 L226 592 L82 791 L79 789 L219 576 C222 568 229 568 232 576 L372 789 L370 791 L370 791 Z " />
<glyph glyph-name="firsttonechinese" unicode="&#x2c9;" horiz-adv-x="452" d="M9 657 L443 657 L443 670 L9 670 L9 657 L9 657 Z " />
<glyph glyph-name="breve" unicode="&#x2d8;" horiz-adv-x="452" d="M61 745 C62 692 131 654 226 654 C321 654 390 692 391 744 L387 745 C386 701 318 669 226 669 C134 669 66 701 65 745 L61 745 L61 745 Z " />
<glyph glyph-name="dotaccent" unicode="&#x2d9;" horiz-adv-x="452" d="M246 635 C246 661 206 661 206 635 C206 609 246 609 246 635 L246 635 Z " />
<glyph glyph-name="ring" unicode="&#x2da;" horiz-adv-x="452" d="M137 655 C137 707 174 745 226 745 C278 745 316 707 316 655 C316 608 273 565 226 565 C180 565 137 608 137 655 L137 655 Z M131 655 C131 605 176 560 226 560 C276 560 321 605 321 655 C321 710 281 750 226 750 C171 750 131 710 131 655 L131 655 Z " />
<glyph glyph-name="A_sc" unicode="&#x1d00;" horiz-adv-x="587" d="M491 125 L491 125 L320 578 C320 578 313 603 310 603 L308 603 C310 590 307 579 299 578 L303 568 L112 113 C86 61 40 25 -1 25 L-15 25 L-15 0 L155 0 L155 25 L143 25 C106 25 95 62 114 114 L163 231 L429 231 L469 125 C491 67 478 25 439 25 L427 25 L427 0 L578 0 L578 25 L570 25 C546 25 513 67 491 125 L491 125 Z M163 232 L303 566 L429 232 L163 232 L163 232 Z " />
<glyph glyph-name="C_sc" unicode="&#x1d04;" horiz-adv-x="678" d="M612 557 L607 549 C602 539 576 542 545 556 C525 566 500 575 475 581 L475 580 C443 587 405 591 359 591 C192 591 71 465 71 290 C71 115 187 -12 348 -12 C396 -12 437 -7 473 2 L473 1 C497 8 521 17 541 27 C575 41 602 43 608 32 L613 22 L630 22 L630 134 L608 134 L598 113 C576 64 524 19 473 5 C438 -5 397 -10 350 -10 C202 -10 95 116 95 291 C95 465 207 591 361 591 C406 591 444 586 476 578 L476 578 C525 565 576 520 598 470 L608 448 L630 448 L630 556 L612 557 L612 557 Z M628 484 L628 484 L628 484 L628 484 Z " />
<glyph glyph-name="D_sc" unicode="&#x1d05;" horiz-adv-x="729" d="M220 1 C150 1 140 34 140 80 L140 582 L257 582 C508 582 651 460 651 292 C651 106 470 1 220 1 L220 1 Z M80 563 C104 563 119 546 119 513 L119 70 C119 37 104 20 80 20 L80 0 L221 0 C484 0 674 106 674 292 C674 461 525 583 262 583 L80 583 L80 563 L80 563 Z " />
<glyph glyph-name="E_sc" unicode="&#x1d07;" horiz-adv-x="527" d="M60 563 L69 563 C98 563 119 534 119 493 L119 90 C119 49 98 20 69 20 L60 20 L60 0 L478 0 C482 23 488 57 492 80 L475 80 L469 68 C448 29 389 1 328 1 L220 1 C150 1 140 34 140 80 L140 299 L268 299 C314 299 358 267 372 223 L376 210 L393 210 L393 390 L376 390 L372 377 C358 333 314 301 268 301 L140 301 L140 582 L328 582 C374 582 422 550 441 506 L447 493 L464 493 C461 519 456 557 453 583 L60 583 L60 563 L60 563 Z " />
<glyph glyph-name="J_sc" unicode="&#x1d0a;" horiz-adv-x="254" d="M194 583 L95 583 L95 563 C119 563 134 546 134 513 L134 2 C134 -177 60 -218 10 -218 C0 -218 4 -201 -6 -201 C-11 -201 -15 -205 -15 -211 C-15 -216 -5 -220 8 -220 C68 -220 155 -171 155 42 L155 513 C155 546 170 563 194 563 L194 583 L194 583 Z " />
<glyph glyph-name="K_sc" unicode="&#x1d0b;" horiz-adv-x="576" d="M511 583 L356 583 L356 563 L369 563 C411 563 396 523 334 467 L139 293 L139 514 C139 547 154 564 178 564 L178 584 L79 584 L79 564 C103 564 118 547 118 514 L118 71 C118 38 103 21 79 21 L79 1 L178 1 L178 21 C154 21 139 38 139 71 L139 293 L509 1 L550 1 L550 21 C524 21 489 39 450 71 L450 71 L159 305 L378 499 C426 541 472 564 511 564 L511 583 L511 583 Z " />
<glyph glyph-name="M_sc" unicode="&#x1d0d;" horiz-adv-x="741" d="M706 583 L647 583 L395 27 L118 581 L118 583 L63 583 L63 563 C82 563 96 556 112 537 L95 61 C91 33 77 20 54 20 L54 0 L140 0 L140 20 C117 20 104 34 103 64 L117 530 C120 526 123 522 125 518 L370 26 L384 -1 L389 -1 L648 568 L664 62 C663 33 650 20 627 20 L627 0 L726 0 L726 20 C702 20 687 37 686 70 L686 70 L671 521 C673 550 686 563 708 563 L706 583 L706 583 Z " />
<glyph glyph-name="O_sc" unicode="&#x1d0f;" horiz-adv-x="768" d="M94 292 C94 466 217 592 387 592 C563 592 690 466 690 292 C690 117 559 -9 377 -9 C213 -9 94 117 94 292 L94 292 Z M71 292 C71 117 200 -10 377 -10 C572 -10 713 117 713 292 C713 467 576 593 387 593 C204 593 71 467 71 292 L71 292 Z " />
<glyph glyph-name="P_sc" unicode="&#x1d18;" horiz-adv-x="489" d="M184 20 C160 20 145 37 145 70 L145 279 L196 279 C354 279 469 326 469 421 C469 515 375 583 246 583 L85 583 L85 563 C109 563 124 546 124 513 L124 70 C124 37 109 20 85 20 L85 0 L184 0 L184 20 L184 20 Z M145 284 L145 580 L241 580 C362 580 450 515 450 425 C450 331 343 284 196 284 L145 284 L145 284 Z " />
<glyph glyph-name="T_sc" unicode="&#x1d1b;" horiz-adv-x="777" d="M723 581 C723 580 723 580 723 579 L723 581 L723 581 Z M55 582 L55 581 L55 582 L55 582 Z M54 580 C54 579 54 579 54 578 L54 580 L54 580 Z M723 581 L55 581 L55 577 C45 553 32 520 22 497 L39 497 L48 509 C78 548 135 576 184 576 L378 576 L378 68 C378 35 363 18 339 18 L339 -2 L439 -2 L439 18 C415 18 400 35 400 68 L400 576 L592 576 C641 576 698 548 728 509 L737 497 L754 497 C745 520 732 552 722 576 L723 576 L723 581 L723 581 Z " />
<glyph glyph-name="U_sc" unicode="&#x1d1c;" horiz-adv-x="553" d="M474 0 L484 3 C484 5 521 13 523 14 L523 34 C501 27 484 39 484 73 L484 583 L424 583 L424 563 C448 563 463 546 463 513 L463 155 C422 67 313 4 204 4 C147 4 105 91 105 212 L105 583 L45 583 L45 563 C69 563 84 546 84 513 L84 212 C84 83 131 -10 196 -10 C309 -10 421 55 463 145 L463 0 L474 0 L474 0 Z " />
<glyph glyph-name="V_sc" unicode="&#x1d20;" horiz-adv-x="626" d="M98 458 L98 458 C161 302 224 146 286 -10 L291 -10 C364 146 436 302 509 458 C536 516 571 558 593 558 L600 558 L600 583 L454 583 L454 558 L468 558 C511 558 526 521 506 469 L304 29 L121 467 C102 520 113 558 150 558 L162 558 L162 583 L30 583 L30 558 C50 558 75 519 99 458 L98 458 L98 458 Z " />
<glyph glyph-name="W_sc" unicode="&#x1d21;" horiz-adv-x="935" d="M782 558 C826 558 845 524 827 478 L652 29 L500 478 L501 478 C485 524 501 558 538 558 L549 558 L549 583 L416 583 L416 558 C437 558 455 535 471 494 L506 389 L282 26 C226 177 168 329 113 479 C96 525 102 559 129 559 L137 559 L137 584 L29 584 L29 559 C48 559 64 535 81 494 C141 326 199 157 261 -10 L266 -10 L509 381 C552 251 595 120 638 -10 L643 -10 C707 153 771 316 836 478 C856 529 884 558 916 558 L916 583 L770 583 L770 558 L782 558 L782 558 Z " />
<glyph glyph-name="Z_sc" unicode="&#x1d22;" horiz-adv-x="632" d="M80 498 L85 510 C101 546 151 573 207 577 L590 578 L26 3 L26 -1 L610 -1 C611 7 620 45 629 85 L612 85 L605 73 C584 37 531 10 475 6 L53 5 L615 580 L615 584 L72 584 L71 578 L72 578 C71 569 68 539 65 499 L80 498 L80 498 Z " />
<glyph glyph-name="Wgrave" unicode="&#x1e80;" horiz-adv-x="1112" d="M561 645 L561 645 C576 597 592 548 606 500 L327 29 L110 645 C94 691 102 725 129 725 L137 725 L137 750 L26 750 L26 725 C45 725 61 702 78 660 C153 437 228 213 304 -10 L310 -10 L609 492 C662 325 716 158 768 -10 L774 -10 C854 208 933 427 1014 645 C1031 691 1061 725 1085 725 L1092 725 L1092 750 L943 750 L943 725 L956 725 C1001 725 1021 691 1004 645 L1004 645 L783 32 C718 236 652 441 588 645 C573 691 589 725 627 725 L638 725 L638 750 L502 750 L502 725 C525 725 544 695 560 645 L561 645 L561 645 Z M341 1012 C341 1010 373 980 417 940 L554 814 L556 817 L426 949 C385 991 354 1022 351 1022 C346 1022 341 1017 341 1012 L341 1012 Z " />
<glyph glyph-name="Wacute" unicode="&#x1e82;" horiz-adv-x="1112" d="M556 814 L693 940 C737 981 769 1012 769 1012 C769 1017 764 1022 759 1022 C758 1022 727 991 684 949 L554 817 L556 814 L556 814 Z M561 645 L561 645 C576 597 592 548 606 500 L327 29 L110 645 C94 691 102 725 129 725 L137 725 L137 750 L26 750 L26 725 C45 725 61 702 78 660 C153 437 228 213 304 -10 L310 -10 L609 492 C662 325 716 158 768 -10 L774 -10 C854 208 933 427 1014 645 C1031 691 1061 725 1085 725 L1092 725 L1092 750 L943 750 L943 725 L956 725 C1001 725 1021 691 1004 645 L1004 645 L783 32 C718 236 652 441 588 645 C573 691 589 725 627 725 L638 725 L638 750 L502 750 L502 725 C525 725 544 695 560 645 L561 645 L561 645 Z " />
<glyph glyph-name="Wdieresis" unicode="&#x1e84;" horiz-adv-x="1112" d="M636 885 C636 911 596 911 596 885 C596 859 636 859 636 885 L636 885 Z M505 885 C505 911 465 911 465 885 C465 859 505 859 505 885 L505 885 Z M561 645 L561 645 C576 597 592 548 606 500 L327 29 L110 645 C94 691 102 725 129 725 L137 725 L137 750 L26 750 L26 725 C45 725 61 702 78 660 C153 437 228 213 304 -10 L310 -10 L609 492 C662 325 716 158 768 -10 L774 -10 C854 208 933 427 1014 645 C1031 691 1061 725 1085 725 L1092 725 L1092 750 L943 750 L943 725 L956 725 C1001 725 1021 691 1004 645 L1004 645 L783 32 C718 236 652 441 588 645 C573 691 589 725 627 725 L638 725 L638 750 L502 750 L502 725 C525 725 544 695 560 645 L561 645 L561 645 Z " />
<glyph glyph-name="Etilde" unicode="&#x1ebc;" horiz-adv-x="616" d="M123 870 C123 911 153 941 194 941 C271 941 383 876 460 876 C505 876 538 908 538 951 L537 951 C537 916 506 891 464 891 C387 891 276 956 199 956 C154 956 122 920 122 870 L123 870 L123 870 Z M59 730 L68 730 C97 730 118 701 118 660 L118 90 C118 49 97 20 68 20 L59 20 L59 0 L567 0 C571 23 577 57 581 80 L564 80 L558 68 C537 29 478 1 417 1 L222 1 C152 1 142 34 142 80 L142 385 L357 385 C403 385 447 353 461 309 L465 296 L482 296 L482 475 L465 475 L461 462 C447 418 403 386 357 386 L142 386 L142 749 L417 749 C463 749 511 717 530 673 L536 660 L553 660 C550 686 545 724 542 750 L59 750 L59 730 L59 730 Z " />
<glyph glyph-name="Ygrave" unicode="&#x1ef2;" horiz-adv-x="680" d="M135 1012 C135 1010 167 980 211 940 L348 814 L350 817 L220 949 C179 991 148 1022 145 1022 C140 1022 135 1017 135 1012 L135 1012 Z M129 750 L32 750 L32 730 C46 730 64 715 85 688 L332 335 L332 89 C332 48 311 19 282 19 L273 19 L273 -1 L414 -1 L414 19 L405 19 C376 19 355 48 355 89 L355 338 C432 450 508 562 585 674 C610 710 640 729 672 729 L672 749 L554 749 L554 729 L564 729 C595 729 603 707 583 676 L354 339 L119 678 C100 708 101 729 122 729 L129 729 L129 750 L129 750 Z " />
<glyph glyph-name="quoteleft" unicode="&#x2018;" horiz-adv-x="708" d="M90 621 C101 621 102 640 90 640 L90 653 C87 653 84 648 84 642 C84 697 103 742 130 749 L120 760 C96 753 78 702 78 638 C78 628 83 621 90 621 L90 621 Z " />
<glyph glyph-name="quoteright" unicode="&#x2019;" horiz-adv-x="41" d="M84 744 C84 681 79 635 73 633 L84 622 C87 623 90 677 90 750 C90 756 85 761 78 761 C66 761 67 742 78 742 L78 729 C81 729 84 735 84 744 L84 744 Z " />
<glyph glyph-name="quotedblleft" unicode="&#x201c;" horiz-adv-x="708" d="M137 621 C148 621 149 640 137 640 L137 653 C134 653 131 648 131 642 C131 697 150 742 177 749 L167 760 C143 753 125 702 125 638 C125 628 130 621 137 621 L137 621 Z M78 621 C89 621 90 640 78 640 L78 653 C75 653 72 648 72 642 C72 697 91 742 118 749 L108 760 C84 753 66 702 66 638 C66 628 71 621 78 621 L78 621 Z " />
<glyph glyph-name="quotedblright" unicode="&#x201d;" horiz-adv-x="708" d="M143 744 C143 681 138 635 132 633 L143 622 C146 623 149 677 149 750 C149 756 144 761 137 761 C125 761 126 742 137 742 L137 729 C140 729 143 735 143 744 L143 744 Z M84 744 C84 681 79 635 73 633 L84 622 C87 623 90 677 90 750 C90 756 85 761 78 761 C66 761 67 742 78 742 L78 729 C81 729 84 735 84 744 L84 744 Z " />
<glyph glyph-name="Euro" unicode="&#x20ac;" horiz-adv-x="838" d="M790 51 L790 124 L787 127 C787 128 789 125 790 124 L790 163 L769 163 L761 142 C741 96 695 48 648 27 C595 4 531 -10 453 -10 C286 -10 162 132 148 335 L529 335 L531 349 L148 349 C147 365 147 382 148 398 L531 398 L533 412 L148 412 C163 614 292 756 467 756 C545 756 604 744 652 723 C696 703 742 654 762 606 L770 585 L791 585 L791 694 L776 694 L772 685 C767 674 744 678 715 695 C659 734 584 758 466 758 C278 758 139 615 123 412 L57 412 L55 398 L122 398 C121 382 121 365 122 349 L55 349 L53 335 L122 335 C137 132 271 -11 452 -11 C567 -11 651 15 714 56 C743 72 767 74 771 61 L775 51 L790 51 L790 51 Z M707 52 C706 51 705 50 704 49 C705 50 706 51 707 52 L707 52 Z " />
<glyph glyph-name="F_sc" unicode="&#xa730;" horiz-adv-x="502" d="M60 563 L69 563 C98 563 119 534 119 493 L119 90 C119 49 98 20 69 20 L60 20 L60 0 L199 0 L199 20 L190 20 C161 20 140 49 140 90 L140 299 L258 299 C304 299 348 267 362 223 L366 210 L383 210 L383 390 L366 390 L362 377 C348 333 304 301 258 301 L140 301 L140 582 L328 582 C374 582 422 550 441 506 L447 493 L464 493 C461 519 456 557 453 583 L60 583 L60 563 L60 563 Z " />
<glyph glyph-name="S_sc" unicode="&#xa731;" horiz-adv-x="543" d="M289 592 L289 590 C272 592 255 593 238 593 C146 593 80 537 80 459 C80 417 162 348 306 281 C421 227 486 166 486 124 C486 47 413 -8 312 -8 C280 -8 248 -3 218 5 C165 20 109 72 87 129 L78 153 L55 153 L55 15 L73 15 L77 28 C83 45 116 43 155 25 C174 16 196 7 218 1 L218 2 C248 -6 280 -10 313 -10 C424 -10 504 49 504 130 C504 181 437 248 320 303 C178 369 97 432 97 467 C97 540 157 592 239 592 C256 592 273 591 290 589 C347 580 405 537 427 485 L437 463 L459 463 L459 564 L442 564 L437 558 C432 551 405 557 374 569 C348 580 320 589 290 593 L289 592 L289 592 Z " />
<glyph glyph-name="X_sc" unicode="&#xf078;" horiz-adv-x="622" d="M165 20 L156 20 C126 20 122 41 146 71 L328 287 C383 216 439 145 493 74 C518 42 520 19 499 19 L493 19 L493 -1 L586 -1 L586 19 C570 19 551 35 527 64 L341 302 C399 370 457 439 515 507 C545 543 578 562 610 562 L610 582 L489 582 L489 562 L498 562 C528 562 533 541 511 511 L341 303 C288 371 234 440 182 508 C157 540 155 563 176 563 L182 563 L182 583 L89 583 L89 563 C105 563 124 547 148 518 L326 290 L138 69 C108 37 77 20 47 20 L47 0 L166 0 L165 20 L165 20 Z " />
</font>
</svg>
