<?xml version="1.0" encoding="UTF-8"?>
<svg xmlns="http://www.w3.org/2000/svg" xmlns:xlink="http://www.w3.org/1999/xlink" version="1.2" >
<font id="Sandover Bold">
<font-face  font-family="Sandover" units-per-em="1024" ascent="975" descent="-300" font-style="normal" font-weight="700" font-stretch="normal" cap-height="1046" x-height="488" underline-position="-125" underline-thickness="50" />
<missing-glyph  horiz-adv-x="100" d="" />
<glyph glyph-name="NULL" d="" />
<glyph glyph-name="CR" unicode="&#xd;" horiz-adv-x="256" d="" />
<glyph glyph-name="space" unicode="&#x20;" horiz-adv-x="250" d="" />
<glyph glyph-name="exclam" unicode="&#x21;" horiz-adv-x="281" d="M140 -5 C181 -5 220 34 220 75 C220 116 181 155 140 155 C99 155 60 116 60 75 C60 34 99 -5 140 -5 L140 -5 Z M140 755 C94 755 61 695 70 632 L130 210 L151 210 L211 632 C220 695 187 755 140 755 L140 755 Z " />
<glyph glyph-name="quotedbl" unicode="&#x22;" horiz-adv-x="325" d="M208 750 C186 750 169 728 175 705 L215 560 L229 560 L269 705 C275 728 258 750 236 750 L208 750 L208 750 Z M88 750 C66 750 49 728 55 705 L95 560 L109 560 L149 705 C155 728 138 750 116 750 L88 750 L88 750 Z " />
<glyph glyph-name="numbersign" unicode="&#x23;" horiz-adv-x="554" d="M390 656 L367 504 L236 504 L259 656 L215 656 L192 504 L71 504 L59 416 L178 416 L152 244 L28 244 L16 156 L139 156 L115 0 L159 0 L183 156 L314 156 L290 0 L334 0 L358 156 L473 156 L485 244 L371 244 L397 416 L521 416 L534 504 L411 504 L434 656 L390 656 L390 656 Z M222 416 L353 416 L327 244 L196 244 L222 416 L222 416 Z " />
<glyph glyph-name="dollar" unicode="&#x24;" horiz-adv-x="555" d="M47 244 L47 -2 L54 -2 C54 6 55 21 55 29 C57 65 95 74 133 48 C158 30 186 15 213 5 L213 -74 L254 -74 L254 -6 C268 -8 279 -9 293 -8 L293 -73 L334 -73 L334 -2 C432 23 515 114 515 209 C515 292 437 400 334 442 L334 712 C382 693 440 621 456 567 C458 562 461 552 463 547 L477 547 L477 757 L470 757 C470 751 469 741 469 735 C467 708 434 701 402 720 L402 719 C381 731 357 741 333 748 L333 824 L292 824 L292 757 C279 759 267 760 253 759 L253 824 L212 824 L212 751 C128 725 57 639 57 550 C57 468 123 364 212 317 L212 49 C210 50 185 62 186 63 C143 88 86 166 68 223 C66 228 63 238 61 243 L47 244 L47 244 Z M67 154 L67 154 L67 154 L67 154 Z M254 299 C268 294 281 288 293 282 L293 33 C279 32 267 33 254 36 L254 299 L254 299 Z M334 257 C378 226 407 192 407 167 C407 117 375 69 334 46 L334 257 L334 257 Z M254 479 L254 724 C267 726 280 724 293 721 L293 456 C279 463 266 471 254 479 L254 479 Z M213 512 C182 542 163 575 163 602 C163 643 184 683 213 706 L213 512 L213 512 Z " />
<glyph glyph-name="percent" unicode="&#x25;" horiz-adv-x="806" d="M143 574 C143 652 157 726 171 726 C203 726 233 629 233 528 C233 459 215 392 197 392 C169 392 143 481 143 574 L143 574 Z M31 552 C31 452 107 355 187 355 C266 355 341 459 341 567 C341 665 266 760 187 760 C107 760 31 658 31 552 L31 552 Z M574 213 C574 288 592 361 610 361 C649 361 686 266 686 167 C686 96 662 27 636 27 C604 27 574 118 574 213 L574 213 Z M461 191 C461 88 542 -10 626 -10 C712 -10 794 96 794 206 C794 302 712 395 626 395 C542 395 461 295 461 191 L461 191 Z M212 -16 L677 734 L626 766 L161 16 L212 -16 L212 -16 Z " />
<glyph glyph-name="ampersand" unicode="&#x26;" horiz-adv-x="914" d="M344 468 C431 501 508 567 508 610 C508 686 413 760 315 760 C225 760 139 679 139 595 C139 555 176 495 222 435 C122 394 31 283 31 197 C31 92 135 -9 244 -9 C315 -9 403 43 487 124 C498 111 509 97 521 83 C560 36 648 -9 699 -9 C760 -9 828 67 838 146 L818 153 C814 118 779 85 747 85 C708 85 646 113 621 143 C602 166 583 188 565 209 C635 294 696 396 734 500 L707 500 C672 403 611 308 543 235 C417 383 371 434 344 467 L344 468 L344 468 Z M332 483 C282 546 240 611 240 655 C240 695 277 733 315 733 C365 733 413 676 413 617 C413 568 376 509 332 483 L332 483 Z M458 158 C407 120 356 97 313 97 C232 97 154 163 154 231 C154 303 191 384 236 420 C275 372 317 327 460 159 L458 158 L458 158 Z " />
<glyph glyph-name="quotesingle" unicode="&#x27;" horiz-adv-x="204" d="M88 750 C66 750 49 728 55 705 L95 560 L109 560 L149 705 C155 728 138 750 116 750 L88 750 L88 750 Z " />
<glyph glyph-name="parenleft" unicode="&#x28;" horiz-adv-x="253" d="M232 760 C144 696 59 512 59 273 C59 34 144 -150 232 -214 L243 -199 C195 -164 149 6 149 273 C149 540 195 710 243 745 L232 760 L232 760 Z " />
<glyph glyph-name="parenright" unicode="&#x29;" horiz-adv-x="194" d="M3 747 C54 714 103 482 103 273 C103 64 54 -168 3 -201 L10 -214 C99 -156 184 82 184 273 C184 464 99 702 10 760 L3 747 L3 747 Z " />
<glyph glyph-name="asterisk" unicode="&#x2a;" horiz-adv-x="300" d="M235 540 C236 539 237 538 238 537 L236 539 L235 540 L235 540 Z M273 657 L274 657 L274 657 C292 662 297 684 286 703 C275 722 253 728 240 716 L239 717 L155 633 L186 748 C191 766 174 783 151 783 C128 783 111 766 116 748 L145 639 L65 719 L65 718 C51 732 28 726 17 706 C5 686 11 663 29 658 L30 658 L145 627 L31 597 L66 536 L144 614 L116 508 C111 490 128 473 151 473 C174 473 191 490 186 508 L156 620 L238 538 L273 599 L167 627 L273 655 L273 655 C274 655 274 655 274 655 L273 657 L273 657 Z M273 655 L274 655 C274 654 274 653 274 652 L273 655 L273 655 Z M66 534 C57 549 31 594 31 594 C12 590 6 567 18 547 C29 527 52 521 65 534 L66 534 L66 534 Z M238 534 C252 522 273 528 284 547 C296 566 290 589 272 594 C272 594 246 549 237 533 L238 534 L238 534 Z " />
<glyph glyph-name="plus" unicode="&#x2b;" horiz-adv-x="620" d="M265 460 L265 291 L100 291 L100 209 L265 209 L265 40 L355 40 L355 209 L520 209 L520 291 L355 291 L355 460 L265 460 L265 460 Z " />
<glyph glyph-name="comma" unicode="&#x2c;" horiz-adv-x="268" d="M149 3 C150 -6 151 -15 151 -24 C151 -58 109 -91 65 -91 L65 -118 C133 -118 198 -52 198 17 C198 66 162 114 125 114 C94 114 65 85 65 54 C65 16 113 -24 149 2 L149 3 L149 3 Z " />
<glyph glyph-name="hyphen" unicode="&#x2d;" horiz-adv-x="430" d="M80 238 L350 238 L350 332 L80 332 L80 238 L80 238 Z " />
<glyph glyph-name="period" unicode="&#x2e;" horiz-adv-x="195" d="M125 -5 C166 -5 205 34 205 75 C205 116 166 155 125 155 C84 155 45 116 45 75 C45 34 84 -5 125 -5 L125 -5 Z " />
<glyph glyph-name="slash" unicode="&#x2f;" horiz-adv-x="398" d="M300 770 L18 -80 L86 -80 L368 770 L300 770 L300 770 Z " />
<glyph glyph-name="zero" unicode="0" horiz-adv-x="614" d="M96 250 C96 348 198 463 305 463 C401 463 514 359 514 250 C514 152 412 37 305 37 C209 37 96 141 96 250 L96 250 Z M41 250 C41 117 184 -10 305 -10 C440 -10 569 131 569 250 C569 383 426 510 305 510 C170 510 41 369 41 250 L41 250 Z " />
<glyph glyph-name="one" unicode="1" horiz-adv-x="395" d="M340 3 L326 3 C290 3 255 38 255 74 L255 426 C255 462 290 497 326 497 L340 497 L340 500 L55 500 L55 497 L69 497 C105 497 140 462 140 426 L140 74 C140 38 105 3 69 3 L55 3 L55 0 L340 0 L340 3 L340 3 Z " />
<glyph glyph-name="two" unicode="2" horiz-adv-x="554" d="M66 289 C79 357 155 423 220 423 C281 423 339 373 339 320 C339 226 163 88 14 12 L27 2 C22 0 18 -1 14 -1 L435 -1 L498 99 C514 121 530 144 541 159 L543 165 L536 155 C516 127 454 100 410 100 L207 100 C341 187 453 284 453 345 C453 428 367 508 278 508 C179 508 62 402 41 292 L66 289 L66 289 Z " />
<glyph glyph-name="three" unicode="3" horiz-adv-x="457" d="M16 -209 L20 -232 C222 -211 417 -90 417 15 C417 103 324 188 217 207 C313 265 387 335 387 388 C387 451 306 511 221 511 C137 511 38 434 19 353 L44 346 C54 389 118 430 174 430 C220 430 264 390 264 349 C264 302 224 251 171 213 C167 214 161 209 154 202 C138 192 121 183 104 176 L104 153 C107 154 110 155 113 156 C110 154 107 153 105 153 C203 139 297 57 297 -14 C297 -97 160 -191 17 -206 L16 -209 L16 -209 Z " />
<glyph glyph-name="four" unicode="4" horiz-adv-x="620" d="M619 154 L611 158 L608 147 C601 117 563 88 530 88 L415 88 L415 530 L400 530 L15 20 L15 0 L300 0 L300 -220 L415 -220 L415 0 L517 0 C550 0 581 -23 580 -47 L580 -55 C580 -55 587 -58 588 -58 C599 12 609 84 619 154 L619 154 Z M301 329 L300 328 L300 88 L120 88 L301 329 L301 329 Z " />
<glyph glyph-name="five" unicode="5" horiz-adv-x="442" d="M61 -235 C240 -213 412 -72 412 53 C412 171 257 285 95 285 L78 285 L97 397 L344 400 L359 482 C364 507 370 536 373 554 L365 554 L362 546 C355 522 317 499 284 499 L75 499 L20 181 L40 163 L82 163 C199 163 311 89 311 13 C311 -87 187 -199 58 -215 L61 -235 L61 -235 Z " />
<glyph glyph-name="six" unicode="6" horiz-adv-x="569" d="M550 750 C291 695 42 472 42 295 C42 139 162 -10 286 -10 C403 -10 515 112 515 238 C515 356 413 469 306 469 C268 469 231 450 201 420 C270 570 410 702 553 733 L550 750 L550 750 Z M156 234 C156 336 223 434 292 434 C347 434 399 341 399 245 C399 132 340 23 279 23 C216 23 156 126 156 234 L156 234 Z " />
<glyph glyph-name="seven" unicode="7" horiz-adv-x="461" d="M105 554 C93 528 70 479 58 453 L60 453 C48 428 27 380 15 354 C16 354 22 346 21 347 L26 356 C40 382 86 407 119 407 L388 407 L105 -220 L192 -220 L456 485 L456 500 L159 500 C126 500 101 520 108 540 L110 547 C110 547 107 552 105 554 L105 554 Z " />
<glyph glyph-name="eight" unicode="8" horiz-adv-x="541" d="M209 358 C218 353 227 348 237 344 C326 308 412 257 412 218 C412 115 341 17 267 17 C199 17 133 94 133 174 C133 241 167 318 209 358 L209 358 Z M180 377 C99 325 34 239 34 175 C34 81 149 -9 268 -9 C387 -9 502 79 502 171 C502 284 429 371 341 423 C417 471 478 546 478 600 C478 682 374 761 266 761 C161 761 60 671 60 578 C60 507 113 427 180 378 L180 377 L180 377 Z M312 439 C302 444 292 448 282 452 C216 479 152 556 152 621 C152 684 218 745 287 745 C334 745 379 669 379 589 C379 536 350 474 312 439 L312 439 Z " />
<glyph glyph-name="nine" unicode="9" horiz-adv-x="569" d="M19 -250 C278 -195 527 28 527 205 C527 361 407 510 283 510 C166 510 54 388 54 262 C54 144 156 31 263 31 C301 31 338 50 368 80 C299 -70 159 -202 16 -233 L19 -250 L19 -250 Z M413 266 C413 164 346 66 277 66 C222 66 170 159 170 255 C170 368 229 477 290 477 C353 477 413 374 413 266 L413 266 Z " />
<glyph glyph-name="colon" unicode="&#x3a;" horiz-adv-x="135" d="M125 385 C166 385 205 424 205 465 C205 506 166 545 125 545 C84 545 45 506 45 465 C45 424 84 385 125 385 L125 385 Z M125 -5 C166 -5 205 34 205 75 C205 116 166 155 125 155 C84 155 45 116 45 75 C45 34 84 -5 125 -5 L125 -5 Z " />
<glyph glyph-name="semicolon" unicode="&#x3b;" horiz-adv-x="268" d="M125 385 C166 385 205 424 205 465 C205 506 166 545 125 545 C84 545 45 506 45 465 C45 424 84 385 125 385 L125 385 Z M149 3 C150 -6 151 -15 151 -24 C151 -58 109 -91 65 -91 L65 -118 C133 -118 198 -52 198 17 C198 66 162 114 125 114 C94 114 65 85 65 54 C65 16 113 -24 149 2 L149 3 L149 3 Z " />
<glyph glyph-name="equal" unicode="&#x3d;" horiz-adv-x="538" d="M88 226 L88 174 L468 174 L468 226 L88 226 L88 226 Z M88 326 L88 274 L468 274 L468 326 L88 326 L88 326 Z " />
<glyph glyph-name="question" unicode="&#x3f;" horiz-adv-x="295" d="M125 -5 C166 -5 205 34 205 75 C205 116 166 155 125 155 C84 155 45 116 45 75 C45 34 84 -5 125 -5 L125 -5 Z M127 240 C127 240 126 360 125 360 C210 360 262 398 288 437 C304 460 319 519 319 557 C319 661 234 760 145 760 C90 760 37 718 37 675 C37 646 67 618 99 618 C121 618 165 638 187 638 C237 638 285 591 285 543 C285 534 274 509 263 492 C245 465 197 440 97 440 C102 442 107 240 107 240 L127 240 L127 240 Z " />
<glyph glyph-name="at" unicode="&#x40;" horiz-adv-x="1178" d="M1039 0 C983 -121 770 -237 605 -237 C370 -237 145 6 145 259 C145 510 363 752 589 752 C816 752 1034 552 1034 343 C1034 173 948 10 859 10 C796 10 759 103 783 200 L853 480 L744 480 L726 408 C703 454 649 490 593 490 C434 490 281 342 281 188 C281 94 370 4 462 4 C539 4 626 53 671 115 C687 34 753 -30 838 -30 C983 -30 1123 153 1123 343 C1123 568 861 784 589 784 C317 784 56 527 56 259 C56 -4 338 -256 631 -256 C798 -256 1017 -131 1078 0 L1039 0 L1039 0 Z M713 356 L674 200 C657 133 583 68 522 68 C464 68 408 138 408 210 C408 336 498 458 592 458 C654 458 713 409 714 356 L713 356 L713 356 Z " />
<glyph glyph-name="A" unicode="A" horiz-adv-x="831" d="M458 0 L830 0 L830 3 L816 3 C775 3 716 62 695 124 L695 124 C623 339 550 554 479 770 L465 770 C469 747 420 717 364 709 L367 699 L367 699 L175 117 C152 58 80 3 23 3 L3 3 L3 0 L312 0 L312 3 L292 3 C234 3 197 62 216 124 L215 124 L261 272 L505 272 L554 121 C572 60 535 3 478 3 L458 3 L458 0 L458 0 Z M272 307 L381 657 L494 307 L272 307 L272 307 Z " />
<glyph glyph-name="B" unicode="B" horiz-adv-x="729" d="M350 13 L300 13 C285 13 271 50 271 89 L271 385 L348 385 C449 375 541 291 541 205 C541 73 448 13 351 13 L350 13 L350 13 Z M52 747 L66 747 C102 747 137 712 137 676 L137 74 C137 38 102 3 66 3 L52 3 L52 0 L392 0 C544 0 690 64 690 205 C690 293 594 378 481 402 C578 433 653 501 653 571 C653 662 561 750 357 750 L52 750 L52 747 L52 747 Z M359 409 L272 409 L272 723 C272 723 303 723 303 722 C451 722 518 641 518 557 C518 482 440 409 359 409 L359 409 Z " />
<glyph glyph-name="C" unicode="C" horiz-adv-x="769" d="M729 519 L729 750 L722 750 C722 744 721 731 721 725 C719 694 684 684 649 702 C595 736 524 760 439 760 C236 760 40 571 40 375 C40 179 231 -10 429 -10 C508 -10 583 13 641 46 C680 68 719 56 721 23 C721 16 722 4 722 -3 L729 -3 L729 231 L715 231 C713 226 710 216 708 211 C692 164 630 91 580 63 L580 63 C536 38 487 21 441 21 C312 21 189 194 189 375 C189 554 318 726 452 726 C502 726 549 709 590 684 C636 654 692 585 707 538 C709 533 712 523 714 518 L729 519 L729 519 Z M708 133 L708 133 L708 133 L708 133 Z " />
<glyph glyph-name="D" unicode="D" horiz-adv-x="888" d="M311 27 C280 27 271 57 271 88 L271 723 L283 723 C508 723 684 552 684 375 C684 180 501 27 311 27 L311 27 Z M51 747 L65 747 C101 747 136 712 136 676 L136 74 C136 38 101 3 65 3 L51 3 L51 0 L351 0 C597 0 833 165 833 375 C833 566 639 750 391 750 L51 750 L51 747 L51 747 Z " />
<glyph glyph-name="E" unicode="E" horiz-adv-x="639" d="M-8 747 L8 747 C53 747 97 702 97 656 L97 94 C97 48 53 3 8 3 L-8 3 L-8 0 L567 0 L570 15 L568 15 C575 51 587 118 593 154 L583 154 L577 135 C560 81 482 29 418 29 L320 29 C253 29 232 58 232 88 L232 385 L353 385 C404 385 459 336 466 284 L471 250 L481 250 L481 385 L482 385 L482 417 L481 417 L481 552 L471 552 L466 518 C459 466 404 417 353 417 L232 417 L232 721 L417 721 C469 721 530 672 543 620 L552 586 L562 586 C557 624 548 698 543 736 L544 736 L542 750 L-8 750 L-8 747 L-8 747 Z " />
<glyph glyph-name="F" unicode="F" horiz-adv-x="653" d="M31 747 L47 747 C92 747 136 702 136 656 L136 94 C136 48 92 3 47 3 L31 3 L31 0 L376 0 L376 3 L360 3 C315 3 271 48 271 94 L271 385 L382 385 C433 385 488 336 495 284 L500 250 L510 250 L510 385 L511 385 L511 417 L510 417 L510 552 L500 552 L495 518 C488 466 433 417 382 417 L271 417 L271 727 L455 727 C507 727 568 678 581 626 L590 592 L600 592 C596 629 587 702 582 739 L581 750 L31 750 L31 747 L31 747 Z " />
<glyph glyph-name="G" unicode="G" horiz-adv-x="848" d="M729 519 L729 750 L722 750 C722 744 721 731 721 725 C719 694 684 684 649 702 C595 736 524 760 439 760 C236 760 40 571 40 375 C40 179 236 -10 440 -10 C569 -10 707 23 781 58 L772 78 C754 70 731 62 705 54 C705 88 705 157 705 217 C705 271 745 323 786 323 L800 323 L800 326 L474 326 L474 323 L488 323 C529 323 569 271 569 217 C570 217 570 140 570 132 C562 72 512 19 460 19 C321 19 187 194 187 377 C187 556 316 728 450 728 C500 728 547 711 588 686 C634 656 690 587 705 540 C707 535 710 525 712 520 L729 519 L729 519 Z " />
<glyph glyph-name="H" unicode="H" horiz-adv-x="832" d="M772 3 L758 3 C722 3 687 38 687 74 L687 676 C687 712 722 747 758 747 L772 747 L772 750 L467 750 L467 747 L481 747 C517 747 552 712 552 676 L552 418 L243 418 L243 676 C243 712 278 747 314 747 L328 747 L328 750 L23 750 L23 747 L37 747 C73 747 108 712 108 676 L108 74 C108 38 73 3 37 3 L23 3 L23 0 L328 0 L328 3 L314 3 C278 3 243 38 243 74 L243 383 L552 383 L552 74 C552 38 517 3 481 3 L467 3 L467 0 L772 0 L772 3 L772 3 Z " />
<glyph glyph-name="I" unicode="I" horiz-adv-x="379" d="M319 3 L305 3 C269 3 234 38 234 74 L234 676 C234 712 269 747 305 747 L319 747 L319 750 L13 750 L13 747 L27 747 C63 747 98 712 98 676 L98 74 C98 38 63 3 27 3 L13 3 L13 0 L319 0 L319 3 L319 3 Z " />
<glyph glyph-name="J" unicode="J" horiz-adv-x="403" d="M343 750 L37 750 L37 747 L51 747 C87 747 122 712 122 676 L122 -106 C122 -153 63 -172 30 -172 C-27 -172 -14 -64 -71 -64 C-102 -64 -132 -94 -132 -125 C-132 -173 -69 -220 -3 -220 C90 -220 258 -114 258 150 L258 676 C258 712 293 747 329 747 L343 747 L343 750 L343 750 Z " />
<glyph glyph-name="K" unicode="K" horiz-adv-x="824" d="M356 750 L51 750 L51 747 L65 747 C101 747 136 712 136 676 L136 74 C136 38 101 3 65 3 L51 3 L51 0 L356 0 L356 3 L342 3 C306 3 271 38 271 74 L271 375 L563 0 L822 0 L822 3 L807 3 C771 3 710 38 681 74 L680 74 L376 459 L554 668 C593 709 665 747 707 747 L726 747 L726 750 L415 750 L415 747 L447 747 C508 747 520 688 471 626 L471 626 L271 375 L271 676 C271 712 306 747 342 747 L356 747 L356 750 L356 750 Z " />
<glyph glyph-name="L" unicode="L" horiz-adv-x="668" d="M343 750 L37 750 L37 747 L51 747 C87 747 122 712 122 676 L122 74 C122 38 87 3 51 3 L37 3 L37 0 L593 0 L596 11 L596 11 C602 46 614 113 620 148 L610 148 L604 129 C587 75 509 23 445 23 L346 23 C279 23 258 55 258 88 L258 676 C258 712 293 747 329 747 L343 747 L343 750 L343 750 Z " />
<glyph glyph-name="M" unicode="M" horiz-adv-x="931" d="M896 750 L683 750 L496 176 L290 750 L44 750 L44 747 L58 747 C89 747 130 722 151 692 C144 486 138 279 131 74 C130 38 94 3 58 3 L44 3 L44 0 L262 0 L262 3 L248 3 C212 3 178 38 178 74 L178 74 L185 616 C270 411 355 206 440 1 L474 1 L475 6 L687 624 C691 441 696 258 700 76 C701 40 667 5 631 5 L617 5 L617 2 L922 2 L922 5 L908 5 C872 5 836 40 835 76 L835 76 L815 685 C818 718 850 749 884 749 L898 749 L896 750 L896 750 Z " />
<glyph glyph-name="N" unicode="N" horiz-adv-x="774" d="M-49 747 L-34 747 C0 747 57 716 87 682 L137 618 L136 74 L136 74 C136 38 101 3 65 3 L51 3 L51 0 L261 0 L261 3 L247 3 C211 3 176 38 176 74 L176 74 L173 574 C322 383 471 192 620 0 L647 0 L656 678 C657 713 692 747 727 747 L741 747 L741 750 L531 750 L531 747 L545 747 C581 747 616 712 616 676 L616 676 L618 222 C479 398 341 574 203 750 L-48 750 L-49 747 L-49 747 Z " />
<glyph glyph-name="O" unicode="O" horiz-adv-x="889" d="M187 375 C187 554 304 726 426 726 C559 726 687 554 687 375 C687 196 561 24 429 24 C306 24 187 196 187 375 L187 375 Z M40 375 C40 179 227 -10 422 -10 C632 -10 834 179 834 375 C834 571 637 760 432 760 C232 760 40 571 40 375 L40 375 Z " />
<glyph glyph-name="P" unicode="P" horiz-adv-x="620" d="M338 3 L324 3 C288 3 253 38 253 74 L253 336 L303 336 C454 336 600 419 600 537 C600 646 479 750 353 750 L33 750 L33 747 L47 747 C83 747 118 712 118 676 L118 74 C118 38 83 3 47 3 L33 3 L33 0 L338 0 L338 3 L338 3 Z M253 365 L253 727 L319 727 C398 727 473 645 473 560 C473 446 390 365 303 365 L253 365 L253 365 Z " />
<glyph glyph-name="Q" unicode="Q" horiz-adv-x="884" d="M1184 -37 L1174 -25 C1142 -52 979 -77 840 -77 C705 -77 534 -48 419 -10 C631 -12 834 179 834 375 C834 571 637 760 432 760 C232 760 40 571 40 375 C40 255 111 137 211 64 C387 -65 686 -190 821 -190 C914 -190 1092 -115 1185 -37 L1184 -37 L1184 -37 Z M369 9 C348 18 331 27 318 36 C245 95 188 233 188 375 C188 554 305 726 427 726 C560 726 688 554 688 375 C688 187 543 6 392 6 C384 6 376 7 368 9 L369 9 L369 9 Z " />
<glyph glyph-name="R" unicode="R" horiz-adv-x="831" d="M51 747 L65 747 C101 747 136 712 136 676 L136 74 C136 38 101 3 65 3 L51 3 L51 0 L356 0 L356 3 L342 3 C306 3 271 38 271 74 L271 346 L342 346 C369 301 452 179 536 62 C573 11 626 -1 820 -1 L820 3 C753 3 730 14 695 62 C602 190 512 314 476 364 C572 394 645 456 645 534 C645 643 498 748 346 748 L50 748 L51 747 L51 747 Z M270 378 L270 721 L306 721 C403 721 496 643 496 561 C496 454 423 378 346 378 L270 378 L270 378 Z " />
<glyph glyph-name="S" unicode="S" horiz-adv-x="555" d="M47 244 L47 -2 L54 -2 C54 6 55 21 55 29 C57 65 95 74 133 48 C180 13 236 -11 282 -11 C400 -11 514 95 514 206 C514 292 430 405 322 444 C232 477 162 551 162 602 C162 665 211 725 263 725 C286 725 312 719 337 708 C382 686 439 618 455 565 C457 560 460 550 462 545 L476 545 L476 755 L469 755 C469 749 468 739 468 733 C466 706 433 699 401 718 L401 717 C359 742 307 759 262 759 C157 759 56 657 56 550 C56 459 137 342 240 304 C333 270 405 206 405 167 C405 98 344 32 281 32 C251 32 216 44 183 63 L183 63 C140 88 83 166 65 223 C63 228 60 238 58 243 L47 244 L47 244 Z M64 154 L64 154 L64 154 L64 154 Z " />
<glyph glyph-name="T" unicode="T" horiz-adv-x="775" d="M695 795 L693 788 C685 769 630 750 578 750 L201 750 C149 750 93 769 86 788 L84 795 L75 795 C71 784 64 766 58 751 L56 751 L56 747 C54 742 52 738 51 734 L53 734 C39 698 11 628 -4 592 L6 592 L17 611 C45 665 125 717 179 717 L321 717 L321 75 C321 39 286 4 250 4 L236 4 L236 1 L541 1 L541 4 L527 4 C491 4 456 39 456 75 L456 717 L602 717 C656 717 736 665 765 611 L776 592 L786 592 C772 628 744 698 729 734 L730 734 C723 750 711 780 705 796 L695 795 L695 795 Z " />
<glyph glyph-name="U" unicode="U" horiz-adv-x="812" d="M16 745 L30 745 C66 745 101 710 101 674 L101 220 C101 103 207 -10 318 -10 C407 -10 526 64 562 141 L562 0 L629 0 L629 -1 C668 9 743 29 782 39 L782 42 L768 38 C732 28 697 54 697 90 L697 750 L562 750 L562 748 L477 748 L477 745 L491 745 C527 745 562 710 562 674 L562 202 C532 138 439 77 372 77 C303 77 236 147 236 220 L236 750 L101 750 L101 748 L16 748 L16 745 L16 745 Z " />
<glyph glyph-name="V" unicode="V" horiz-adv-x="861" d="M832 750 L538 750 L538 747 L566 747 C627 747 664 688 641 626 L641 626 L402 -10 L429 -10 C517 202 604 414 692 626 C717 688 779 747 818 747 L832 747 L832 750 L832 750 Z M352 750 L-12 750 L-12 747 L-1 747 C29 747 83 694 112 635 C209 420 306 206 402 -10 L474 183 L270 632 C247 692 276 747 332 747 L352 747 L352 750 L352 750 Z " />
<glyph glyph-name="W" unicode="W" horiz-adv-x="1201" d="M758 750 L400 750 L400 747 L412 747 C446 747 498 702 523 653 C545 602 568 551 590 500 L477 162 L280 650 C262 700 288 746 334 746 L350 746 L350 749 L17 749 L17 746 L29 746 C60 746 110 700 133 650 C228 429 323 208 419 -12 L453 -12 L454 -7 L615 442 C682 291 749 140 816 -11 L850 -11 L850 -6 L1044 655 C1063 703 1113 746 1151 746 L1165 746 L1165 749 L873 749 L873 746 L916 746 C967 746 1004 697 990 645 L990 645 L868 187 L671 650 C653 700 682 746 731 746 L759 746 L758 750 L758 750 Z " />
<glyph glyph-name="X" unicode="X" horiz-adv-x="863" d="M282 3 L235 3 C197 3 186 38 210 76 L377 315 C429 236 482 157 533 79 C559 40 547 3 508 3 L481 3 L481 0 L815 0 L815 3 L804 3 C776 3 726 36 699 73 L473 412 L687 676 C720 713 783 747 820 747 L840 747 L840 750 L561 750 L561 747 L608 747 C646 747 655 711 629 673 L456 438 C404 516 351 594 300 671 C274 710 286 747 325 747 L352 747 L352 750 L19 750 L19 747 L29 747 C58 747 107 714 134 678 L358 341 C292 254 227 166 160 79 C131 40 66 3 27 3 L8 3 L8 0 L281 0 L282 3 L282 3 Z " />
<glyph glyph-name="Y" unicode="Y" horiz-adv-x="859" d="M359 750 L26 750 L26 747 L37 747 C66 747 118 712 145 674 L385 317 L385 95 C385 49 341 4 296 4 L280 4 L280 1 L625 1 L625 4 L609 4 C564 4 520 49 520 95 L520 321 L713 672 L714 672 C735 711 793 748 831 748 L850 748 L850 751 L564 751 L564 748 L612 748 C650 748 669 714 654 677 L506 363 L302 678 C281 715 295 749 332 749 L359 749 L359 750 L359 750 Z " />
<glyph glyph-name="Z" unicode="Z" horiz-adv-x="652" d="M67 587 L72 606 C84 659 157 713 221 715 L466 720 L26 27 L26 0 L607 0 L611 20 L613 20 C613 20 630 92 647 166 L637 166 L630 147 C610 95 538 45 476 38 L184 31 L611 723 L611 750 L71 750 L68 712 C68 712 61 618 58 587 L67 587 L67 587 Z " />
<glyph glyph-name="bracketleft" unicode="&#x5b;" horiz-adv-x="302" d="M142 716 L352 716 L352 750 L102 750 L102 -195 L352 -195 L352 -161 L142 -161 L142 716 L142 716 Z " />
<glyph glyph-name="backslash" unicode="&#x5c;" horiz-adv-x="356" d="M18 770 L278 -80 L346 -80 L86 770 L18 770 L18 770 Z " />
<glyph glyph-name="bracketright" unicode="&#x5d;" horiz-adv-x="305" d="M155 716 L155 -161 L-55 -161 L-55 -195 L195 -195 L195 750 L-55 750 L-55 716 L155 716 L155 716 Z " />
<glyph glyph-name="asciicircum" unicode="&#x5e;" horiz-adv-x="340" d="M211 746 C204 756 181 787 170 787 C159 787 137 756 130 746 L16 568 L31 555 L170 672 L309 555 L324 568 L211 746 L211 746 Z " />
<glyph glyph-name="underscore" unicode="&#x5f;" horiz-adv-x="455" d="M5 -50 L5 -114 L450 -114 L450 -50 L5 -50 L5 -50 Z " />
<glyph glyph-name="grave" unicode="&#x60;" horiz-adv-x="340" d="M-33 738 C-33 731 -4 704 27 679 L171 561 L186 576 L79 731 C57 764 31 796 25 796 C-2 796 -33 765 -33 738 L-33 738 Z " />
<glyph glyph-name="a" unicode="a" horiz-adv-x="514" d="M524 123 L507 131 C502 103 475 77 452 77 C425 77 400 98 400 120 L400 353 C400 445 329 510 256 510 C155 510 57 406 57 360 C57 319 92 280 129 280 C158 280 185 317 185 337 C185 353 165 380 165 399 C165 419 196 463 229 463 C258 463 285 434 285 394 L285 264 C115 210 37 164 37 94 C37 41 92 -10 149 -10 C179 -10 239 26 292 83 C309 34 357 -5 406 -5 C455 -5 513 58 525 123 L524 123 L524 123 Z M286 237 L286 120 C286 115 286 110 287 105 C256 72 225 51 211 51 C182 51 154 78 154 106 C154 172 196 207 286 236 L286 237 L286 237 Z " />
<glyph glyph-name="b" unicode="b" horiz-adv-x="611" d="M10 713 L20 715 C48 719 75 690 75 657 L75 0 L82 0 L121 62 C168 20 242 -11 308 -11 C440 -11 567 118 567 252 C567 381 452 504 333 504 C287 504 224 478 191 448 L191 748 L134 748 L134 749 C103 741 42 725 11 717 L10 713 L10 713 Z M191 109 L191 413 C216 436 257 455 286 455 C364 455 438 348 438 237 C438 123 377 13 314 13 C270 13 213 58 191 109 L191 109 Z " />
<glyph glyph-name="c" unicode="c" horiz-adv-x="537" d="M507 128 L491 135 C474 97 406 60 353 60 C258 60 167 166 167 277 C167 383 243 484 322 484 C343 484 377 445 392 405 C403 376 431 348 450 348 C490 348 518 376 507 405 C488 459 400 510 329 510 C184 510 45 375 45 234 C45 110 176 -10 313 -10 C381 -10 476 58 507 128 L507 128 Z " />
<glyph glyph-name="d" unicode="d" horiz-adv-x="608" d="M328 712 L338 714 C366 718 393 689 393 656 L393 483 C354 499 308 510 265 510 C142 510 45 382 45 249 C45 119 143 -5 244 -5 C293 -5 362 27 393 62 L393 1 L450 1 L450 0 C486 10 557 29 593 39 L593 42 L579 38 C543 28 508 54 508 90 L508 751 L451 751 L451 752 C420 743 359 727 328 719 L328 712 L328 712 Z M393 376 L393 102 C367 71 320 44 291 44 C226 44 163 161 163 282 C163 382 214 478 279 478 C321 478 379 423 393 376 L393 376 Z " />
<glyph glyph-name="e" unicode="e" horiz-adv-x="548" d="M172 340 L518 340 C500 444 398 510 305 510 C172 510 45 401 45 228 C45 107 161 -10 282 -10 C369 -10 479 60 505 132 L491 136 C478 100 389 66 309 66 C236 66 166 168 166 275 C166 298 168 320 172 340 L172 340 Z M384 372 L179 368 C201 441 249 484 299 484 C329 484 365 441 384 372 L384 372 Z " />
<glyph glyph-name="f" unicode="f" horiz-adv-x="390" d="M292 3 L263 3 C245 3 227 21 227 39 L227 439 L380 439 L380 500 L227 500 C227 612 268 719 321 719 C361 719 419 635 452 635 C475 635 497 657 497 680 C497 718 431 755 362 755 C222 755 112 630 112 500 L26 453 L26 439 L112 439 L112 39 C112 21 94 3 76 3 L47 3 L47 0 L292 0 L292 3 L292 3 Z " />
<glyph glyph-name="g" unicode="g" horiz-adv-x="520" d="M543 461 C543 496 506 530 468 530 C440 530 398 499 375 463 C341 491 297 509 252 509 C158 509 68 431 68 349 C68 288 116 230 178 203 C107 186 51 144 51 101 C51 55 86 11 130 -7 C81 -24 39 -65 39 -98 C39 -166 148 -231 262 -231 C376 -231 485 -147 485 -60 C485 21 412 98 298 98 L178 98 C147 98 118 117 118 136 C118 162 183 187 251 187 C345 187 435 266 435 349 C435 385 418 420 391 448 C395 454 399 458 401 458 C425 458 470 411 494 411 C519 411 543 436 543 461 L543 461 Z M251 215 C216 215 182 281 182 350 C182 418 216 483 251 483 C286 483 320 418 320 350 C320 281 286 215 251 215 L251 215 Z M158 -14 C163 -15 168 -15 173 -15 L287 -15 C351 -15 391 -50 391 -86 C391 -146 332 -204 270 -204 C201 -204 135 -138 135 -70 C135 -50 145 -28 159 -14 L158 -14 L158 -14 Z " />
<glyph glyph-name="h" unicode="h" horiz-adv-x="623" d="M11 713 L21 715 C49 719 76 690 76 657 L76 39 C76 21 58 3 40 3 L11 3 L11 0 L256 0 L256 3 L227 3 C209 3 191 21 191 39 L191 359 C212 395 279 429 328 429 C376 429 413 366 413 300 L413 39 C413 21 395 3 377 3 L348 3 L348 0 L593 0 L593 3 L564 3 C546 3 528 21 528 39 L528 300 C528 407 469 510 393 510 C324 510 225 453 191 393 L191 750 L134 750 L134 751 C103 743 42 727 11 719 L11 713 L11 713 Z " />
<glyph glyph-name="i" unicode="i" horiz-adv-x="296" d="M144 615 C182 615 218 651 218 689 C218 727 182 764 144 764 C106 764 69 727 69 689 C69 651 106 615 144 615 L144 615 Z M21 463 L31 465 C59 469 86 440 86 407 L86 39 C86 21 68 3 50 3 L21 3 L21 0 L266 0 L266 3 L237 3 C219 3 201 21 201 39 L201 500 L144 500 L144 501 C113 493 52 477 21 469 L21 463 L21 463 Z " />
<glyph glyph-name="j" unicode="j" horiz-adv-x="300" d="M153 617 C191 617 227 653 227 691 C227 729 191 766 153 766 C115 766 78 729 78 691 C78 653 115 617 153 617 L153 617 Z M30 463 L40 465 C68 469 95 440 95 407 L95 68 C95 -9 67 -98 38 -115 C13 -115 -35 -100 -60 -100 C-83 -100 -105 -120 -105 -140 C-105 -165 -76 -187 -45 -185 C-39 -185 12 -158 60 -130 C137 -86 210 11 210 68 L210 500 L153 500 L153 501 C122 493 61 477 30 469 L30 463 L30 463 Z " />
<glyph glyph-name="k" unicode="k" horiz-adv-x="635" d="M631 502 L326 502 L326 499 L376 499 C438 499 414 440 327 378 L329 378 L191 280 L191 750 L134 750 L134 751 C103 743 42 727 11 719 L11 713 L21 715 C49 719 76 690 76 657 L76 39 C76 21 58 3 40 3 L11 3 L11 0 L256 0 L256 3 L227 3 C209 3 191 21 191 39 L191 280 L392 51 C408 26 404 5 381 5 L372 5 L372 2 L435 2 L437 0 L585 0 L583 2 L632 2 L632 5 C602 5 555 36 521 76 L519 76 L304 325 L456 433 C515 469 587 499 618 499 L631 499 L631 502 L631 502 Z " />
<glyph glyph-name="l" unicode="l" horiz-adv-x="286" d="M11 713 L21 715 C49 719 76 690 76 657 L76 39 C76 21 58 3 40 3 L11 3 L11 0 L256 0 L256 3 L227 3 C209 3 191 21 191 39 L191 750 L134 750 L134 751 C103 743 42 727 11 719 L11 713 L11 713 Z " />
<glyph glyph-name="m" unicode="m" horiz-adv-x="912" d="M11 463 L21 465 C49 469 76 440 76 407 L76 39 C76 21 58 3 40 3 L11 3 L11 0 L256 0 L256 3 L227 3 C209 3 191 21 191 39 L191 364 C209 395 270 425 316 425 C361 425 389 364 389 300 L389 39 C389 21 371 3 353 3 L324 3 L324 0 L569 0 L569 3 L540 3 C522 3 504 21 504 39 L504 300 C504 322 502 344 498 365 C516 396 581 426 630 426 C675 426 703 365 703 301 L703 42 C703 24 685 6 667 6 L638 6 L638 3 L703 3 L703 1 L818 1 L818 3 L883 3 L883 6 L854 6 C836 6 818 24 818 42 L818 301 C818 408 763 511 677 511 C619 511 531 456 498 399 L498 367 C481 447 432 511 364 511 C309 511 225 456 192 399 L192 501 L135 501 L135 502 C104 494 43 478 12 470 L11 463 L11 463 Z " />
<glyph glyph-name="n" unicode="n" horiz-adv-x="599" d="M11 463 L21 465 C49 469 76 440 76 407 L76 39 C76 21 58 3 40 3 L11 3 L11 0 L256 0 L256 3 L227 3 C209 3 191 21 191 39 L191 359 C211 393 262 426 295 426 C348 426 389 375 389 321 L389 39 C389 21 371 3 353 3 L324 3 L324 0 L569 0 L569 3 L540 3 C522 3 504 21 504 39 L504 321 C504 417 442 510 363 510 C310 510 225 453 191 393 L191 500 L134 500 L134 501 C103 493 42 477 11 469 L11 463 L11 463 Z " />
<glyph glyph-name="o" unicode="o" horiz-adv-x="622" d="M172 250 C172 365 240 475 311 475 C382 475 450 365 450 250 C450 135 382 25 311 25 C240 25 172 135 172 250 L172 250 Z M45 250 C45 117 175 -10 311 -10 C447 -10 577 117 577 250 C577 383 447 510 311 510 C175 510 45 383 45 250 L45 250 Z " />
<glyph glyph-name="p" unicode="p" horiz-adv-x="602" d="M-4 463 L6 465 C34 469 61 440 61 407 L61 -181 C61 -199 43 -217 25 -217 L-4 -217 L-4 -220 L241 -220 L241 -217 L212 -217 C194 -217 176 -199 176 -181 L176 27 C216 8 261 -4 303 -4 C433 -4 557 139 557 260 C557 388 445 511 328 511 C277 511 210 480 176 444 L176 501 L119 501 L119 502 C88 494 27 478 -4 470 L-4 463 L-4 463 Z M176 131 L176 399 C204 434 247 463 275 463 C354 463 430 346 430 224 C430 133 371 25 310 25 C258 25 193 77 176 131 L176 131 Z " />
<glyph glyph-name="q" unicode="q" horiz-adv-x="546" d="M541 -217 L512 -217 C494 -217 476 -199 476 -181 L476 500 L469 500 L432 441 C390 481 328 510 274 510 C135 510 27 382 27 249 C27 119 126 -5 229 -5 C269 -5 328 24 362 58 L362 -182 C362 -200 344 -218 326 -218 L297 -218 L297 -221 L542 -221 L541 -217 L541 -217 Z M362 388 L362 97 C335 67 297 42 277 42 C210 42 146 159 146 280 C146 384 200 483 268 483 C298 483 342 439 362 389 L362 388 L362 388 Z " />
<glyph glyph-name="r" unicode="r" horiz-adv-x="468" d="M12 463 L22 465 C50 469 77 440 77 407 L77 39 C77 21 59 3 41 3 L12 3 L12 0 L257 0 L257 3 L228 3 C210 3 192 21 192 39 L192 350 C214 407 255 456 283 456 C303 456 323 439 323 421 C323 386 356 353 391 353 C425 353 458 386 458 421 C458 466 399 510 337 510 C283 510 218 462 192 408 L192 500 L135 500 L135 501 C104 493 43 477 12 469 L12 463 L12 463 Z " />
<glyph glyph-name="s" unicode="s" horiz-adv-x="434" d="M60 180 L60 -2 L65 -2 C65 3 66 12 66 17 C67 33 102 30 140 12 C164 -2 189 -10 211 -10 C299 -10 384 63 384 138 C384 197 319 272 236 294 C180 309 137 365 137 412 C137 451 180 488 226 482 C270 474 328 416 349 357 C351 352 354 344 356 339 L361 339 L361 511 L356 511 C356 507 355 498 355 494 C354 481 313 483 271 499 L271 499 C252 506 233 510 215 510 C133 510 55 442 55 372 C55 305 113 226 186 206 C247 190 295 142 295 105 C295 52 241 3 186 22 C146 38 92 103 71 162 C69 167 66 175 64 180 L60 180 L60 180 Z " />
<glyph glyph-name="t" unicode="t" horiz-adv-x="412" d="M362 500 L210 500 L210 620 L202 620 L30 449 L30 439 L95 439 L95 186 C95 66 170 -10 249 -10 C316 -10 391 55 402 122 L387 125 C380 84 330 44 284 44 C245 44 207 89 207 161 L210 439 L362 439 L362 500 L362 500 Z " />
<glyph glyph-name="u" unicode="u" horiz-adv-x="590" d="M320 496 L349 496 C367 496 385 478 385 460 L385 152 C362 109 311 70 271 70 C228 70 187 114 187 160 L187 500 L7 500 L7 497 L36 497 C54 497 72 479 72 461 L72 160 C72 73 143 -10 217 -10 C275 -10 354 51 385 118 L385 0 L442 0 L442 -1 C476 8 541 25 575 34 L575 37 L564 34 C531 25 500 52 500 88 L500 500 L385 500 L385 499 L320 499 L320 496 L320 496 Z " />
<glyph glyph-name="v" unicode="v" horiz-adv-x="582" d="M576 500 L394 500 L394 497 L404 497 C431 497 444 462 433 424 L341 155 L227 426 C214 463 224 497 251 497 L261 497 L261 500 L6 500 L6 497 L16 497 C44 497 87 460 103 421 L103 421 L284 -10 L318 -10 L482 421 C497 460 538 497 566 497 L576 497 L576 500 L576 500 Z " />
<glyph glyph-name="w" unicode="w" horiz-adv-x="932" d="M908 500 L725 500 L725 497 L735 497 C762 497 775 460 761 421 L663 153 L546 429 C534 465 544 497 570 497 L580 497 L580 500 L322 500 L322 497 L332 497 C360 497 403 460 419 421 L419 421 L449 349 L312 -10 L346 -10 L471 297 L601 -10 L635 -10 L810 421 C826 460 868 497 896 497 L906 497 L908 500 L908 500 Z M280 500 L22 500 L22 497 L32 497 C60 497 104 460 121 421 L312 -10 L371 146 C331 238 290 330 250 421 C233 460 243 497 270 497 L280 497 L280 500 L280 500 Z " />
<glyph glyph-name="x" unicode="x" horiz-adv-x="616" d="M592 500 L411 500 L411 497 L420 497 C446 497 449 466 429 431 L344 309 L269 430 C250 466 254 498 280 498 L289 498 L289 501 L20 501 L20 498 L30 498 C58 498 108 461 132 422 L132 422 L250 233 L133 80 L132 80 C102 41 47 4 19 4 L9 4 L9 1 L190 1 L190 4 L181 4 C155 4 152 35 172 70 L265 208 L350 72 C369 36 365 4 339 4 L330 4 L330 1 L599 1 L599 4 L589 4 C561 4 511 41 487 80 L487 80 L360 282 L472 427 C503 464 555 498 582 498 L592 498 L592 500 L592 500 Z " />
<glyph glyph-name="y" unicode="y" horiz-adv-x="620" d="M261 500 L6 500 L6 497 L16 497 C43 497 85 463 105 426 L307 3 L301 -10 L246 -151 C237 -173 221 -194 219 -194 C200 -194 188 -156 169 -156 C144 -156 120 -180 120 -205 C120 -233 146 -260 174 -260 C200 -260 255 -214 274 -166 C307 -82 340 2 373 87 C416 199 458 311 501 422 C516 461 557 498 585 498 L595 498 L595 501 L413 501 L413 498 L423 498 C451 498 465 461 452 422 L363 151 C320 241 276 331 233 421 C214 460 223 497 250 497 L260 497 L261 500 L261 500 Z " />
<glyph glyph-name="z" unicode="z" horiz-adv-x="475" d="M62 479 C60 471 45 417 30 361 L42 361 L49 376 C69 417 135 458 189 464 L299 468 L40 27 L40 0 L430 0 L430 7 L433 7 C434 7 442 72 449 139 L437 139 L432 124 C420 83 361 42 309 36 L180 31 L435 472 L435 499 L127 499 C101 499 79 512 82 526 L83 531 L75 531 C71 517 64 492 60 478 L62 479 L62 479 Z " />
<glyph glyph-name="braceleft" unicode="&#x7b;" horiz-adv-x="254" d="M249 750 L209 750 C138 750 70 683 70 614 L70 383 C70 348 44 320 15 320 L15 300 C44 300 70 270 70 230 L70 6 C70 -63 138 -130 209 -130 L249 -130 L249 -111 L235 -111 C196 -111 159 -54 159 6 L159 166 C159 232 116 296 66 310 C116 324 159 385 159 447 L159 614 C159 674 196 731 235 731 L249 731 L249 750 L249 750 Z " />
<glyph glyph-name="bar" unicode="&#x7c;" horiz-adv-x="209" d="M60 800 L60 -250 L149 -250 L149 800 L60 800 L60 800 Z " />
<glyph glyph-name="braceright" unicode="&#x7d;" horiz-adv-x="254" d="M5 750 L5 731 L19 731 C58 731 95 674 95 614 L95 447 C95 385 138 324 188 310 C138 296 95 232 95 166 L95 6 C95 -54 58 -111 19 -111 L5 -111 L5 -130 L45 -130 C116 -130 184 -63 184 6 L184 230 C184 270 210 300 239 300 L239 320 C210 320 184 348 184 383 L184 614 C184 683 116 750 45 750 L5 750 L5 750 Z " />
<glyph glyph-name="asciitilde" unicode="&#x7e;" horiz-adv-x="340" d="M31 310 C31 338 50 365 69 365 C112 365 194 300 237 300 C284 300 329 369 329 441 L309 441 C309 410 287 381 264 381 C221 381 139 446 96 446 C53 446 11 379 11 310 L31 310 L31 310 Z " />
<glyph glyph-name="exclamdown" unicode="&#xa1;" horiz-adv-x="281" d="M141 505 C100 505 61 466 61 425 C61 384 100 345 141 345 C182 345 221 384 221 425 C221 466 182 505 141 505 L141 505 Z M141 -255 C187 -255 220 -195 211 -132 C211 -132 151 182 151 290 L130 290 C130 182 70 -132 70 -132 C61 -195 94 -255 141 -255 L141 -255 Z " />
<glyph glyph-name="cent" unicode="&#xa2;" horiz-adv-x="537" d="M294 575 L294 507 C162 488 45 363 45 233 C45 115 164 0 294 -10 L294 -76 L334 -76 L334 -9 C399 3 479 64 507 127 L491 134 C472 92 396 51 334 60 L334 479 C354 469 379 437 391 404 C402 375 430 347 449 347 C489 347 517 375 506 404 C487 457 403 507 333 509 L333 574 L294 575 L294 575 Z M293 72 C223 104 166 188 166 275 C166 368 225 457 293 477 L293 72 L293 72 Z " />
<glyph glyph-name="acute" unicode="&#xb4;" horiz-adv-x="340" d="M179 561 L323 679 C354 705 383 733 383 738 C383 765 352 796 325 796 C320 796 294 764 271 731 L164 576 L179 561 L179 561 Z " />
<glyph glyph-name="questiondown" unicode="&#xbf;" horiz-adv-x="295" d="M170 505 C129 505 90 466 90 425 C90 384 129 345 170 345 C211 345 250 384 250 425 C250 466 211 505 170 505 L170 505 Z M168 260 C168 260 169 140 170 140 C85 140 33 102 7 63 C-9 40 -24 -19 -24 -57 C-24 -161 61 -260 150 -260 C205 -260 258 -218 258 -175 C258 -146 228 -118 196 -118 C174 -118 130 -138 108 -138 C58 -138 10 -91 10 -43 C10 -34 21 -9 32 8 C50 35 98 60 198 60 C193 58 188 260 188 260 L168 260 L168 260 Z " />
<glyph glyph-name="Agrave" unicode="&#xc0;" horiz-adv-x="831" d="M458 0 L830 0 L830 3 L816 3 C775 3 716 62 695 124 L695 124 C623 339 550 554 479 770 L465 770 C469 747 420 717 364 709 L367 699 L367 699 L175 117 C152 58 80 3 23 3 L3 3 L3 0 L312 0 L312 3 L292 3 C234 3 197 62 216 124 L215 124 L261 272 L505 272 L554 121 C572 60 535 3 478 3 L458 3 L458 0 L458 0 Z M229 988 C229 981 258 953 288 929 L433 811 L447 826 L341 981 C319 1014 293 1046 286 1046 C260 1046 229 1015 229 988 L229 988 Z M272 307 L381 657 L494 307 L272 307 L272 307 Z " />
<glyph glyph-name="Aacute" unicode="&#xc1;" horiz-adv-x="831" d="M440 811 L585 929 C615 954 644 982 644 988 C644 1015 613 1046 587 1046 C581 1046 555 1014 532 981 L426 826 L440 811 L440 811 Z M458 0 L830 0 L830 3 L816 3 C775 3 716 62 695 124 L695 124 C623 339 550 554 479 770 L465 770 C469 747 420 717 364 709 L367 699 L367 699 L175 117 C152 58 80 3 23 3 L3 3 L3 0 L312 0 L312 3 L292 3 C234 3 197 62 216 124 L215 124 L261 272 L505 272 L554 121 C572 60 535 3 478 3 L458 3 L458 0 L458 0 Z M272 307 L381 657 L494 307 L272 307 L272 307 Z " />
<glyph glyph-name="Acircumflex" unicode="&#xc2;" horiz-adv-x="831" d="M458 0 L830 0 L830 3 L816 3 C775 3 716 62 695 124 L695 124 C623 339 550 554 479 770 L465 770 C469 747 420 717 364 709 L367 699 L367 699 L175 117 C152 58 80 3 23 3 L3 3 L3 0 L312 0 L312 3 L292 3 C234 3 197 62 216 124 L215 124 L261 272 L505 272 L554 121 C572 60 535 3 478 3 L458 3 L458 0 L458 0 Z M472 996 C465 1006 443 1037 432 1037 C421 1037 398 1006 391 996 L277 818 L293 805 L432 921 L570 805 L586 818 L472 996 L472 996 Z M272 307 L381 657 L494 307 L272 307 L272 307 Z " />
<glyph glyph-name="Atilde" unicode="&#xc3;" horiz-adv-x="831" d="M293 870 C293 898 312 925 331 925 C374 925 456 860 499 860 C546 860 591 929 591 1001 L570 1001 C570 970 548 941 526 941 C483 941 400 1006 357 1006 C314 1006 272 939 272 870 L293 870 L293 870 Z M458 0 L830 0 L830 3 L816 3 C775 3 716 62 695 124 L695 124 C623 339 550 554 479 770 L465 770 C469 747 420 717 364 709 L367 699 L367 699 L175 117 C152 58 80 3 23 3 L3 3 L3 0 L312 0 L312 3 L292 3 C234 3 197 62 216 124 L215 124 L261 272 L505 272 L554 121 C572 60 535 3 478 3 L458 3 L458 0 L458 0 Z M272 307 L381 657 L494 307 L272 307 L272 307 Z " />
<glyph glyph-name="Adieresis" unicode="&#xc4;" horiz-adv-x="831" d="M512 865 C550 865 586 901 586 939 C586 977 550 1014 512 1014 C474 1014 437 977 437 939 C437 901 474 865 512 865 L512 865 Z M351 865 C389 865 426 901 426 939 C426 977 389 1014 351 1014 C313 1014 277 977 277 939 C277 901 313 865 351 865 L351 865 Z M458 0 L830 0 L830 3 L816 3 C775 3 716 62 695 124 L695 124 C623 339 550 554 479 770 L465 770 C469 747 420 717 364 709 L367 699 L367 699 L175 117 C152 58 80 3 23 3 L3 3 L3 0 L312 0 L312 3 L292 3 C234 3 197 62 216 124 L215 124 L261 272 L505 272 L554 121 C572 60 535 3 478 3 L458 3 L458 0 L458 0 Z M272 307 L381 657 L494 307 L272 307 L272 307 Z " />
<glyph glyph-name="Aring" unicode="&#xc5;" horiz-adv-x="831" d="M367 905 C367 940 399 973 432 973 C465 973 496 940 496 905 C496 874 461 837 432 837 C402 837 367 874 367 905 L367 905 Z M333 905 C333 861 387 810 432 810 C477 810 530 861 530 905 C530 953 482 1000 432 1000 C382 1000 333 953 333 905 L333 905 Z M458 0 L830 0 L830 3 L816 3 C775 3 716 62 695 124 L695 124 C623 339 550 554 479 770 L465 770 C469 747 420 717 364 709 L367 699 L367 699 L175 117 C152 58 80 3 23 3 L3 3 L3 0 L312 0 L312 3 L292 3 C234 3 197 62 216 124 L215 124 L261 272 L505 272 L554 121 C572 60 535 3 478 3 L458 3 L458 0 L458 0 Z M272 307 L381 657 L494 307 L272 307 L272 307 Z " />
<glyph glyph-name="Egrave" unicode="&#xc8;" horiz-adv-x="678" d="M155 988 C155 981 184 953 214 929 L359 811 L373 826 L267 981 C245 1014 219 1046 212 1046 C186 1046 155 1015 155 988 L155 988 Z M31 747 L47 747 C92 747 136 702 136 656 L136 94 C136 48 92 3 47 3 L31 3 L31 0 L606 0 L609 15 L607 15 C614 51 626 118 632 154 L622 154 L616 135 C599 81 521 29 457 29 L359 29 C292 29 271 58 271 88 L271 385 L392 385 C443 385 498 336 505 284 L510 250 L520 250 L520 385 L521 385 L521 417 L520 417 L520 552 L510 552 L505 518 C498 466 443 417 392 417 L271 417 L271 721 L456 721 C508 721 569 672 582 620 L591 586 L601 586 C596 624 587 698 582 736 L583 736 L581 750 L31 750 L31 747 L31 747 Z " />
<glyph glyph-name="Eacute" unicode="&#xc9;" horiz-adv-x="678" d="M366 811 L511 929 C541 954 570 982 570 988 C570 1015 539 1046 513 1046 C507 1046 481 1014 458 981 L352 826 L366 811 L366 811 Z M31 747 L47 747 C92 747 136 702 136 656 L136 94 C136 48 92 3 47 3 L31 3 L31 0 L606 0 L609 15 L607 15 C614 51 626 118 632 154 L622 154 L616 135 C599 81 521 29 457 29 L359 29 C292 29 271 58 271 88 L271 385 L392 385 C443 385 498 336 505 284 L510 250 L520 250 L520 385 L521 385 L521 417 L520 417 L520 552 L510 552 L505 518 C498 466 443 417 392 417 L271 417 L271 721 L456 721 C508 721 569 672 582 620 L591 586 L601 586 C596 624 587 698 582 736 L583 736 L581 750 L31 750 L31 747 L31 747 Z " />
<glyph glyph-name="Ecircumflex" unicode="&#xca;" horiz-adv-x="678" d="M398 996 C391 1006 369 1037 358 1037 C347 1037 324 1006 317 996 L203 818 L219 805 L358 921 L496 805 L512 818 L398 996 L398 996 Z M31 747 L47 747 C92 747 136 702 136 656 L136 94 C136 48 92 3 47 3 L31 3 L31 0 L606 0 L609 15 L607 15 C614 51 626 118 632 154 L622 154 L616 135 C599 81 521 29 457 29 L359 29 C292 29 271 58 271 88 L271 385 L392 385 C443 385 498 336 505 284 L510 250 L520 250 L520 385 L521 385 L521 417 L520 417 L520 552 L510 552 L505 518 C498 466 443 417 392 417 L271 417 L271 721 L456 721 C508 721 569 672 582 620 L591 586 L601 586 C596 624 587 698 582 736 L583 736 L581 750 L31 750 L31 747 L31 747 Z " />
<glyph glyph-name="Edieresis" unicode="&#xcb;" horiz-adv-x="678" d="M438 865 C476 865 512 901 512 939 C512 977 476 1014 438 1014 C400 1014 363 977 363 939 C363 901 400 865 438 865 L438 865 Z M277 865 C315 865 352 901 352 939 C352 977 315 1014 277 1014 C239 1014 203 977 203 939 C203 901 239 865 277 865 L277 865 Z M31 747 L47 747 C92 747 136 702 136 656 L136 94 C136 48 92 3 47 3 L31 3 L31 0 L606 0 L609 15 L607 15 C614 51 626 118 632 154 L622 154 L616 135 C599 81 521 29 457 29 L359 29 C292 29 271 58 271 88 L271 385 L392 385 C443 385 498 336 505 284 L510 250 L520 250 L520 385 L521 385 L521 417 L520 417 L520 552 L510 552 L505 518 C498 466 443 417 392 417 L271 417 L271 721 L456 721 C508 721 569 672 582 620 L591 586 L601 586 C596 624 587 698 582 736 L583 736 L581 750 L31 750 L31 747 L31 747 Z " />
<glyph glyph-name="Igrave" unicode="&#xcc;" horiz-adv-x="403" d="M-13 988 C-13 981 16 954 47 929 L191 811 L206 826 L99 981 C77 1014 51 1046 45 1046 C18 1046 -13 1015 -13 988 L-13 988 Z M343 3 L329 3 C293 3 258 38 258 74 L258 676 C258 712 293 747 329 747 L343 747 L343 750 L37 750 L37 747 L51 747 C87 747 122 712 122 676 L122 74 C122 38 87 3 51 3 L37 3 L37 0 L343 0 L343 3 L343 3 Z " />
<glyph glyph-name="Iacute" unicode="&#xcd;" horiz-adv-x="403" d="M199 811 L343 929 C374 955 403 983 403 988 C403 1015 372 1046 345 1046 C340 1046 314 1014 291 981 L184 826 L199 811 L199 811 Z M343 3 L329 3 C293 3 258 38 258 74 L258 676 C258 712 293 747 329 747 L343 747 L343 750 L37 750 L37 747 L51 747 C87 747 122 712 122 676 L122 74 C122 38 87 3 51 3 L37 3 L37 0 L343 0 L343 3 L343 3 Z " />
<glyph glyph-name="Icircumflex" unicode="&#xce;" horiz-adv-x="403" d="M231 996 C224 1006 201 1037 190 1037 C179 1037 157 1006 150 996 L36 818 L51 805 L190 922 L329 805 L344 818 L231 996 L231 996 Z M343 3 L329 3 C293 3 258 38 258 74 L258 676 C258 712 293 747 329 747 L343 747 L343 750 L37 750 L37 747 L51 747 C87 747 122 712 122 676 L122 74 C122 38 87 3 51 3 L37 3 L37 0 L343 0 L343 3 L343 3 Z " />
<glyph glyph-name="Idieresis" unicode="&#xcf;" horiz-adv-x="403" d="M270 865 C308 865 345 901 345 939 C345 977 308 1014 270 1014 C232 1014 196 977 196 939 C196 901 232 865 270 865 L270 865 Z M110 865 C148 865 184 901 184 939 C184 977 148 1014 110 1014 C72 1014 35 977 35 939 C35 901 72 865 110 865 L110 865 Z M343 3 L329 3 C293 3 258 38 258 74 L258 676 C258 712 293 747 329 747 L343 747 L343 750 L37 750 L37 747 L51 747 C87 747 122 712 122 676 L122 74 C122 38 87 3 51 3 L37 3 L37 0 L343 0 L343 3 L343 3 Z " />
<glyph glyph-name="Ntilde" unicode="&#xd1;" horiz-adv-x="800" d="M256 870 C256 898 275 925 294 925 C337 925 419 860 462 860 C509 860 554 929 554 1001 L534 1001 C534 970 512 941 489 941 C446 941 364 1006 321 1006 C278 1006 236 939 236 870 L256 870 L256 870 Z M-49 747 L-34 747 C0 747 57 716 87 682 L137 618 L136 74 L136 74 C136 38 101 3 65 3 L51 3 L51 0 L261 0 L261 3 L247 3 C211 3 176 38 176 74 L176 74 L173 574 C322 383 471 192 620 0 L647 0 L656 678 C657 713 692 747 727 747 L741 747 L741 750 L531 750 L531 747 L545 747 C581 747 616 712 616 676 L616 676 L618 222 C479 398 341 574 203 750 L-48 750 L-49 747 L-49 747 Z " />
<glyph glyph-name="Ograve" unicode="&#xd2;" horiz-adv-x="889" d="M187 375 C187 554 304 726 426 726 C559 726 687 554 687 375 C687 196 561 24 429 24 C306 24 187 196 187 375 L187 375 Z M40 375 C40 179 227 -10 422 -10 C632 -10 834 179 834 375 C834 571 637 760 432 760 C232 760 40 571 40 375 L40 375 Z M229 988 C229 981 258 954 289 929 L433 811 L448 826 L341 981 C319 1014 293 1046 287 1046 C260 1046 229 1015 229 988 L229 988 Z " />
<glyph glyph-name="Oacute" unicode="&#xd3;" horiz-adv-x="889" d="M441 811 L585 929 C616 955 645 983 645 988 C645 1015 614 1046 587 1046 C582 1046 556 1014 533 981 L426 826 L441 811 L441 811 Z M187 375 C187 554 304 726 426 726 C559 726 687 554 687 375 C687 196 561 24 429 24 C306 24 187 196 187 375 L187 375 Z M40 375 C40 179 227 -10 422 -10 C632 -10 834 179 834 375 C834 571 637 760 432 760 C232 760 40 571 40 375 L40 375 Z " />
<glyph glyph-name="Ocircumflex" unicode="&#xd4;" horiz-adv-x="889" d="M187 375 C187 554 304 726 426 726 C559 726 687 554 687 375 C687 196 561 24 429 24 C306 24 187 196 187 375 L187 375 Z M40 375 C40 179 227 -10 422 -10 C632 -10 834 179 834 375 C834 571 637 760 432 760 C232 760 40 571 40 375 L40 375 Z M473 996 C466 1006 443 1037 432 1037 C421 1037 399 1006 392 996 L278 818 L293 805 L432 922 L571 805 L586 818 L473 996 L473 996 Z " />
<glyph glyph-name="Otilde" unicode="&#xd5;" horiz-adv-x="889" d="M293 870 C293 898 312 925 331 925 C374 925 456 860 499 860 C546 860 591 929 591 1001 L571 1001 C571 970 549 941 526 941 C483 941 401 1006 358 1006 C315 1006 273 939 273 870 L293 870 L293 870 Z M187 375 C187 554 304 726 426 726 C559 726 687 554 687 375 C687 196 561 24 429 24 C306 24 187 196 187 375 L187 375 Z M40 375 C40 179 227 -10 422 -10 C632 -10 834 179 834 375 C834 571 637 760 432 760 C232 760 40 571 40 375 L40 375 Z " />
<glyph glyph-name="Odieresis" unicode="&#xd6;" horiz-adv-x="889" d="M512 865 C550 865 587 901 587 939 C587 977 550 1014 512 1014 C474 1014 438 977 438 939 C438 901 474 865 512 865 L512 865 Z M352 865 C390 865 426 901 426 939 C426 977 390 1014 352 1014 C314 1014 277 977 277 939 C277 901 314 865 352 865 L352 865 Z M187 375 C187 554 304 726 426 726 C559 726 687 554 687 375 C687 196 561 24 429 24 C306 24 187 196 187 375 L187 375 Z M40 375 C40 179 227 -10 422 -10 C632 -10 834 179 834 375 C834 571 637 760 432 760 C232 760 40 571 40 375 L40 375 Z " />
<glyph glyph-name="Oslash" unicode="&#xd8;" horiz-adv-x="889" d="M61 -32 C61 -32 107 12 183 86 C251 27 336 -10 423 -10 C633 -10 835 179 835 375 C835 463 795 550 733 619 C774 658 815 698 856 738 L814 782 C772 741 730 700 689 660 C617 721 526 760 433 760 C233 760 41 571 41 375 C41 286 80 198 141 129 C66 56 21 12 21 12 L61 -32 L61 -32 Z M623 596 C471 448 330 311 223 207 C202 258 189 316 189 374 C189 553 306 725 428 725 C502 725 574 672 624 595 L623 596 L623 596 Z M654 539 C676 488 689 431 689 373 C689 194 563 22 431 22 C364 22 298 73 252 149 C358 252 500 389 654 538 L654 539 L654 539 Z " />
<glyph glyph-name="Ugrave" unicode="&#xd9;" horiz-adv-x="812" d="M16 745 L30 745 C66 745 101 710 101 674 L101 220 C101 103 207 -10 318 -10 C407 -10 526 64 562 141 L562 0 L629 0 L629 -1 C668 9 743 29 782 39 L782 42 L768 38 C732 28 697 54 697 90 L697 750 L562 750 L562 748 L477 748 L477 745 L491 745 C527 745 562 710 562 674 L562 202 C532 138 439 77 372 77 C303 77 236 147 236 220 L236 750 L101 750 L101 748 L16 748 L16 745 L16 745 Z M196 986 C196 979 225 952 256 927 L400 809 L415 824 L308 979 C286 1012 260 1044 254 1044 C227 1044 196 1013 196 986 L196 986 Z " />
<glyph glyph-name="Uacute" unicode="&#xda;" horiz-adv-x="812" d="M408 809 L552 927 C583 953 612 981 612 986 C612 1013 581 1044 554 1044 C549 1044 523 1012 500 979 L393 824 L408 809 L408 809 Z M16 745 L30 745 C66 745 101 710 101 674 L101 220 C101 103 207 -10 318 -10 C407 -10 526 64 562 141 L562 0 L629 0 L629 -1 C668 9 743 29 782 39 L782 42 L768 38 C732 28 697 54 697 90 L697 750 L562 750 L562 748 L477 748 L477 745 L491 745 C527 745 562 710 562 674 L562 202 C532 138 439 77 372 77 C303 77 236 147 236 220 L236 750 L101 750 L101 748 L16 748 L16 745 L16 745 Z " />
<glyph glyph-name="Ucircumflex" unicode="&#xdb;" horiz-adv-x="812" d="M16 745 L30 745 C66 745 101 710 101 674 L101 220 C101 103 207 -10 318 -10 C407 -10 526 64 562 141 L562 0 L629 0 L629 -1 C668 9 743 29 782 39 L782 42 L768 38 C732 28 697 54 697 90 L697 750 L562 750 L562 748 L477 748 L477 745 L491 745 C527 745 562 710 562 674 L562 202 C532 138 439 77 372 77 C303 77 236 147 236 220 L236 750 L101 750 L101 748 L16 748 L16 745 L16 745 Z M440 994 C433 1004 410 1035 399 1035 C388 1035 366 1004 359 994 L245 816 L260 803 L399 920 L538 803 L553 816 L440 994 L440 994 Z " />
<glyph glyph-name="Udieresis" unicode="&#xdc;" horiz-adv-x="812" d="M479 863 C517 863 554 899 554 937 C554 975 517 1012 479 1012 C441 1012 405 975 405 937 C405 899 441 863 479 863 L479 863 Z M319 863 C357 863 393 899 393 937 C393 975 357 1012 319 1012 C281 1012 244 975 244 937 C244 899 281 863 319 863 L319 863 Z M16 745 L30 745 C66 745 101 710 101 674 L101 220 C101 103 207 -10 318 -10 C407 -10 526 64 562 141 L562 0 L629 0 L629 -1 C668 9 743 29 782 39 L782 42 L768 38 C732 28 697 54 697 90 L697 750 L562 750 L562 748 L477 748 L477 745 L491 745 C527 745 562 710 562 674 L562 202 C532 138 439 77 372 77 C303 77 236 147 236 220 L236 750 L101 750 L101 748 L16 748 L16 745 L16 745 Z " />
<glyph glyph-name="Yacute" unicode="&#xdd;" horiz-adv-x="808" d="M422 811 L567 929 C597 954 626 982 626 988 C626 1015 595 1046 569 1046 C563 1046 537 1014 514 981 L408 826 L422 811 L422 811 Z M320 750 L-13 750 L-13 747 L-2 747 C27 747 79 712 106 674 L346 317 L346 95 C346 49 302 4 257 4 L241 4 L241 1 L586 1 L586 4 L570 4 C525 4 481 49 481 95 L481 321 L674 672 L675 672 C696 711 754 748 792 748 L811 748 L811 751 L525 751 L525 748 L573 748 C611 748 630 714 615 677 L467 363 L263 678 C242 715 256 749 293 749 L320 749 L320 750 L320 750 Z " />
<glyph glyph-name="agrave" unicode="&#xe0;" horiz-adv-x="514" d="M524 123 L507 131 C502 103 475 77 452 77 C425 77 400 98 400 120 L400 353 C400 445 329 510 256 510 C155 510 57 406 57 360 C57 319 92 280 129 280 C158 280 185 317 185 337 C185 353 165 380 165 399 C165 419 196 463 229 463 C258 463 285 434 285 394 L285 264 C115 210 37 164 37 94 C37 41 92 -10 149 -10 C179 -10 239 26 292 83 C309 34 357 -5 406 -5 C455 -5 513 58 525 123 L524 123 L524 123 Z M54 738 C54 731 83 704 114 679 L258 561 L273 576 L166 731 C144 764 118 796 112 796 C85 796 54 765 54 738 L54 738 Z M286 237 L286 120 C286 115 286 110 287 105 C256 72 225 51 211 51 C182 51 154 78 154 106 C154 172 196 207 286 236 L286 237 L286 237 Z " />
<glyph glyph-name="aacute" unicode="&#xe1;" horiz-adv-x="514" d="M265 561 L409 679 C440 705 469 733 469 738 C469 765 438 796 411 796 C406 796 380 764 357 731 L250 576 L265 561 L265 561 Z M524 123 L507 131 C502 103 475 77 452 77 C425 77 400 98 400 120 L400 353 C400 445 329 510 256 510 C155 510 57 406 57 360 C57 319 92 280 129 280 C158 280 185 317 185 337 C185 353 165 380 165 399 C165 419 196 463 229 463 C258 463 285 434 285 394 L285 264 C115 210 37 164 37 94 C37 41 92 -10 149 -10 C179 -10 239 26 292 83 C309 34 357 -5 406 -5 C455 -5 513 58 525 123 L524 123 L524 123 Z M286 237 L286 120 C286 115 286 110 287 105 C256 72 225 51 211 51 C182 51 154 78 154 106 C154 172 196 207 286 236 L286 237 L286 237 Z " />
<glyph glyph-name="acircumflex" unicode="&#xe2;" horiz-adv-x="514" d="M524 123 L507 131 C502 103 475 77 452 77 C425 77 400 98 400 120 L400 353 C400 445 329 510 256 510 C155 510 57 406 57 360 C57 319 92 280 129 280 C158 280 185 317 185 337 C185 353 165 380 165 399 C165 419 196 463 229 463 C258 463 285 434 285 394 L285 264 C115 210 37 164 37 94 C37 41 92 -10 149 -10 C179 -10 239 26 292 83 C309 34 357 -5 406 -5 C455 -5 513 58 525 123 L524 123 L524 123 Z M298 746 C291 756 268 787 257 787 C246 787 224 756 217 746 L103 568 L118 555 L257 672 L396 555 L411 568 L298 746 L298 746 Z M286 237 L286 120 C286 115 286 110 287 105 C256 72 225 51 211 51 C182 51 154 78 154 106 C154 172 196 207 286 236 L286 237 L286 237 Z " />
<glyph glyph-name="atilde" unicode="&#xe3;" horiz-adv-x="514" d="M117 620 C117 648 136 675 155 675 C198 675 280 610 323 610 C370 610 415 679 415 751 L395 751 C395 720 373 691 350 691 C307 691 225 756 182 756 C139 756 97 689 97 620 L117 620 L117 620 Z M524 123 L507 131 C502 103 475 77 452 77 C425 77 400 98 400 120 L400 353 C400 445 329 510 256 510 C155 510 57 406 57 360 C57 319 92 280 129 280 C158 280 185 317 185 337 C185 353 165 380 165 399 C165 419 196 463 229 463 C258 463 285 434 285 394 L285 264 C115 210 37 164 37 94 C37 41 92 -10 149 -10 C179 -10 239 26 292 83 C309 34 357 -5 406 -5 C455 -5 513 58 525 123 L524 123 L524 123 Z M286 237 L286 120 C286 115 286 110 287 105 C256 72 225 51 211 51 C182 51 154 78 154 106 C154 172 196 207 286 236 L286 237 L286 237 Z " />
<glyph glyph-name="adieresis" unicode="&#xe4;" horiz-adv-x="514" d="M336 615 C374 615 411 651 411 689 C411 727 374 764 336 764 C298 764 262 727 262 689 C262 651 298 615 336 615 L336 615 Z M176 615 C214 615 250 651 250 689 C250 727 214 764 176 764 C138 764 101 727 101 689 C101 651 138 615 176 615 L176 615 Z M524 123 L507 131 C502 103 475 77 452 77 C425 77 400 98 400 120 L400 353 C400 445 329 510 256 510 C155 510 57 406 57 360 C57 319 92 280 129 280 C158 280 185 317 185 337 C185 353 165 380 165 399 C165 419 196 463 229 463 C258 463 285 434 285 394 L285 264 C115 210 37 164 37 94 C37 41 92 -10 149 -10 C179 -10 239 26 292 83 C309 34 357 -5 406 -5 C455 -5 513 58 525 123 L524 123 L524 123 Z M286 237 L286 120 C286 115 286 110 287 105 C256 72 225 51 211 51 C182 51 154 78 154 106 C154 172 196 207 286 236 L286 237 L286 237 Z " />
<glyph glyph-name="aring" unicode="&#xe5;" horiz-adv-x="514" d="M191 655 C191 690 223 723 256 723 C289 723 321 690 321 655 C321 624 286 587 256 587 C226 587 191 624 191 655 L191 655 Z M158 655 C158 611 211 560 256 560 C301 560 354 611 354 655 C354 703 306 750 256 750 C206 750 158 703 158 655 L158 655 Z M524 123 L507 131 C502 103 475 77 452 77 C425 77 400 98 400 120 L400 353 C400 445 329 510 256 510 C155 510 57 406 57 360 C57 319 92 280 129 280 C158 280 185 317 185 337 C185 353 165 380 165 399 C165 419 196 463 229 463 C258 463 285 434 285 394 L285 264 C115 210 37 164 37 94 C37 41 92 -10 149 -10 C179 -10 239 26 292 83 C309 34 357 -5 406 -5 C455 -5 513 58 525 123 L524 123 L524 123 Z M286 237 L286 120 C286 115 286 110 287 105 C256 72 225 51 211 51 C182 51 154 78 154 106 C154 172 196 207 286 236 L286 237 L286 237 Z " />
<glyph glyph-name="egrave" unicode="&#xe8;" horiz-adv-x="548" d="M102 738 C102 731 131 704 162 679 L306 561 L321 576 L214 731 C192 764 166 796 160 796 C133 796 102 765 102 738 L102 738 Z M172 340 L518 340 C500 444 398 510 305 510 C172 510 45 401 45 228 C45 107 161 -10 282 -10 C369 -10 479 60 505 132 L491 136 C478 100 389 66 309 66 C236 66 166 168 166 275 C166 298 168 320 172 340 L172 340 Z M384 372 L179 368 C201 441 249 484 299 484 C329 484 365 441 384 372 L384 372 Z " />
<glyph glyph-name="eacute" unicode="&#xe9;" horiz-adv-x="548" d="M314 561 L458 679 C489 705 518 733 518 738 C518 765 487 796 460 796 C455 796 429 764 406 731 L299 576 L314 561 L314 561 Z M172 340 L518 340 C500 444 398 510 305 510 C172 510 45 401 45 228 C45 107 161 -10 282 -10 C369 -10 479 60 505 132 L491 136 C478 100 389 66 309 66 C236 66 166 168 166 275 C166 298 168 320 172 340 L172 340 Z M384 372 L179 368 C201 441 249 484 299 484 C329 484 365 441 384 372 L384 372 Z " />
<glyph glyph-name="ecircumflex" unicode="&#xea;" horiz-adv-x="548" d="M346 746 C339 756 316 787 305 787 C294 787 272 756 265 746 L151 568 L166 555 L305 672 L444 555 L459 568 L346 746 L346 746 Z M172 340 L518 340 C500 444 398 510 305 510 C172 510 45 401 45 228 C45 107 161 -10 282 -10 C369 -10 479 60 505 132 L491 136 C478 100 389 66 309 66 C236 66 166 168 166 275 C166 298 168 320 172 340 L172 340 Z M384 372 L179 368 C201 441 249 484 299 484 C329 484 365 441 384 372 L384 372 Z " />
<glyph glyph-name="edieresis" unicode="&#xeb;" horiz-adv-x="548" d="M385 615 C423 615 460 651 460 689 C460 727 423 764 385 764 C347 764 311 727 311 689 C311 651 347 615 385 615 L385 615 Z M225 615 C263 615 299 651 299 689 C299 727 263 764 225 764 C187 764 150 727 150 689 C150 651 187 615 225 615 L225 615 Z M172 340 L518 340 C500 444 398 510 305 510 C172 510 45 401 45 228 C45 107 161 -10 282 -10 C369 -10 479 60 505 132 L491 136 C478 100 389 66 309 66 C236 66 166 168 166 275 C166 298 168 320 172 340 L172 340 Z M384 372 L179 368 C201 441 249 484 299 484 C329 484 365 441 384 372 L384 372 Z " />
<glyph glyph-name="igrave" unicode="&#xec;" horiz-adv-x="342" d="M-28 740 C-28 733 1 705 31 681 L176 563 L190 578 L84 733 C62 766 36 798 29 798 C3 798 -28 767 -28 740 L-28 740 Z M52 466 L81 474 C99 479 117 466 117 448 L117 39 C117 21 99 3 81 3 L52 3 L52 0 L297 0 L297 3 L268 3 C250 3 232 21 232 39 L232 500 L175 500 L175 501 C144 493 83 477 52 469 L52 466 L52 466 Z " />
<glyph glyph-name="iacute" unicode="&#xed;" horiz-adv-x="342" d="M-28 740 C-28 733 1 705 31 681 L176 563 L190 578 L84 733 C62 766 36 798 29 798 C3 798 -28 767 -28 740 L-28 740 Z M52 466 L81 474 C99 479 117 466 117 448 L117 39 C117 21 99 3 81 3 L52 3 L52 0 L297 0 L297 3 L268 3 C250 3 232 21 232 39 L232 500 L175 500 L175 501 C144 493 83 477 52 469 L52 466 L52 466 Z " />
<glyph glyph-name="icircumflex" unicode="&#xee;" horiz-adv-x="342" d="M215 748 C208 758 186 789 175 789 C164 789 141 758 134 748 L20 570 L36 557 L175 673 L313 557 L329 570 L215 748 L215 748 Z M52 466 L81 474 C99 479 117 466 117 448 L117 39 C117 21 99 3 81 3 L52 3 L52 0 L297 0 L297 3 L268 3 C250 3 232 21 232 39 L232 500 L175 500 L175 501 C144 493 83 477 52 469 L52 466 L52 466 Z " />
<glyph glyph-name="idieresis" unicode="&#xef;" horiz-adv-x="342" d="M255 617 C293 617 329 653 329 691 C329 729 293 766 255 766 C217 766 180 729 180 691 C180 653 217 617 255 617 L255 617 Z M94 617 C132 617 169 653 169 691 C169 729 132 766 94 766 C56 766 20 729 20 691 C20 653 56 617 94 617 L94 617 Z M52 466 L81 474 C99 479 117 466 117 448 L117 39 C117 21 99 3 81 3 L52 3 L52 0 L297 0 L297 3 L268 3 C250 3 232 21 232 39 L232 500 L175 500 L175 501 C144 493 83 477 52 469 L52 466 L52 466 Z " />
<glyph glyph-name="ntilde" unicode="&#xf1;" horiz-adv-x="599" d="M151 622 C151 650 170 677 189 677 C232 677 314 612 357 612 C404 612 449 681 449 753 L429 753 C429 722 407 693 384 693 C341 693 259 758 216 758 C173 758 131 691 131 622 L151 622 L151 622 Z M11 463 L21 465 C49 469 76 440 76 407 L76 39 C76 21 58 3 40 3 L11 3 L11 0 L256 0 L256 3 L227 3 C209 3 191 21 191 39 L191 359 C211 393 262 426 295 426 C348 426 389 375 389 321 L389 39 C389 21 371 3 353 3 L324 3 L324 0 L569 0 L569 3 L540 3 C522 3 504 21 504 39 L504 321 C504 417 442 510 363 510 C310 510 225 453 191 393 L191 500 L134 500 L134 501 C103 493 42 477 11 469 L11 463 L11 463 Z " />
<glyph glyph-name="ograve" unicode="&#xf2;" horiz-adv-x="622" d="M172 250 C172 365 240 475 311 475 C382 475 450 365 450 250 C450 135 382 25 311 25 C240 25 172 135 172 250 L172 250 Z M45 250 C45 117 175 -10 311 -10 C447 -10 577 117 577 250 C577 383 447 510 311 510 C175 510 45 383 45 250 L45 250 Z M108 738 C108 731 137 704 168 679 L312 561 L327 576 L220 731 C198 764 172 796 166 796 C139 796 108 765 108 738 L108 738 Z " />
<glyph glyph-name="oacute" unicode="&#xf3;" horiz-adv-x="622" d="M320 561 L464 679 C495 705 524 733 524 738 C524 765 493 796 466 796 C461 796 435 764 412 731 L305 576 L320 561 L320 561 Z M172 250 C172 365 240 475 311 475 C382 475 450 365 450 250 C450 135 382 25 311 25 C240 25 172 135 172 250 L172 250 Z M45 250 C45 117 175 -10 311 -10 C447 -10 577 117 577 250 C577 383 447 510 311 510 C175 510 45 383 45 250 L45 250 Z " />
<glyph glyph-name="ocircumflex" unicode="&#xf4;" horiz-adv-x="622" d="M172 250 C172 365 240 475 311 475 C382 475 450 365 450 250 C450 135 382 25 311 25 C240 25 172 135 172 250 L172 250 Z M45 250 C45 117 175 -10 311 -10 C447 -10 577 117 577 250 C577 383 447 510 311 510 C175 510 45 383 45 250 L45 250 Z M352 746 C345 756 322 787 311 787 C300 787 278 756 271 746 L157 568 L172 555 L311 672 L450 555 L465 568 L352 746 L352 746 Z " />
<glyph glyph-name="otilde" unicode="&#xf5;" horiz-adv-x="622" d="M172 620 C172 648 191 675 210 675 C253 675 335 610 378 610 C425 610 470 679 470 751 L450 751 C450 720 428 691 405 691 C362 691 280 756 237 756 C194 756 152 689 152 620 L172 620 L172 620 Z M172 250 C172 365 240 475 311 475 C382 475 450 365 450 250 C450 135 382 25 311 25 C240 25 172 135 172 250 L172 250 Z M45 250 C45 117 175 -10 311 -10 C447 -10 577 117 577 250 C577 383 447 510 311 510 C175 510 45 383 45 250 L45 250 Z " />
<glyph glyph-name="odieresis" unicode="&#xf6;" horiz-adv-x="622" d="M391 615 C429 615 466 651 466 689 C466 727 429 764 391 764 C353 764 317 727 317 689 C317 651 353 615 391 615 L391 615 Z M231 615 C269 615 305 651 305 689 C305 727 269 764 231 764 C193 764 156 727 156 689 C156 651 193 615 231 615 L231 615 Z M172 250 C172 365 240 475 311 475 C382 475 450 365 450 250 C450 135 382 25 311 25 C240 25 172 135 172 250 L172 250 Z M45 250 C45 117 175 -10 311 -10 C447 -10 577 117 577 250 C577 383 447 510 311 510 C175 510 45 383 45 250 L45 250 Z " />
<glyph glyph-name="oslash" unicode="&#xf8;" horiz-adv-x="622" d="M59 -25 C59 -25 90 5 142 56 C189 16 249 -10 310 -10 C446 -10 576 117 576 250 C576 310 550 369 509 415 C536 441 563 468 590 495 L562 525 C534 498 506 471 479 444 C431 485 371 511 310 511 C174 511 44 384 44 251 C44 191 70 132 111 86 C60 36 29 6 29 6 L59 -25 L59 -25 Z M417 385 C330 300 249 221 184 157 C175 186 170 218 170 250 C170 365 238 475 309 475 C350 475 390 438 416 384 L417 385 L417 385 Z M433 343 C442 314 447 282 447 250 C447 135 379 25 308 25 C267 25 227 62 201 116 C265 179 346 258 434 344 L433 343 L433 343 Z " />
<glyph glyph-name="ugrave" unicode="&#xf9;" horiz-adv-x="590" d="M320 496 L349 496 C367 496 385 478 385 460 L385 152 C362 109 311 70 271 70 C228 70 187 114 187 160 L187 500 L7 500 L7 497 L36 497 C54 497 72 479 72 461 L72 160 C72 73 143 -10 217 -10 C275 -10 354 51 385 118 L385 0 L442 0 L442 -1 C476 8 541 25 575 34 L575 37 L564 34 C531 25 500 52 500 88 L500 500 L385 500 L385 499 L320 499 L320 496 L320 496 Z M83 737 C83 730 112 703 143 678 L287 560 L302 575 L195 730 C173 763 147 795 141 795 C114 795 83 764 83 737 L83 737 Z " />
<glyph glyph-name="uacute" unicode="&#xfa;" horiz-adv-x="590" d="M295 560 L439 678 C470 704 499 732 499 737 C499 764 468 795 441 795 C436 795 410 763 387 730 L280 575 L295 560 L295 560 Z M320 496 L349 496 C367 496 385 478 385 460 L385 152 C362 109 311 70 271 70 C228 70 187 114 187 160 L187 500 L7 500 L7 497 L36 497 C54 497 72 479 72 461 L72 160 C72 73 143 -10 217 -10 C275 -10 354 51 385 118 L385 0 L442 0 L442 -1 C476 8 541 25 575 34 L575 37 L564 34 C531 25 500 52 500 88 L500 500 L385 500 L385 499 L320 499 L320 496 L320 496 Z " />
<glyph glyph-name="ucircumflex" unicode="&#xfb;" horiz-adv-x="590" d="M320 496 L349 496 C367 496 385 478 385 460 L385 152 C362 109 311 70 271 70 C228 70 187 114 187 160 L187 500 L7 500 L7 497 L36 497 C54 497 72 479 72 461 L72 160 C72 73 143 -10 217 -10 C275 -10 354 51 385 118 L385 0 L442 0 L442 -1 C476 8 541 25 575 34 L575 37 L564 34 C531 25 500 52 500 88 L500 500 L385 500 L385 499 L320 499 L320 496 L320 496 Z M327 745 C320 755 297 786 286 786 C275 786 253 755 246 745 L132 567 L147 554 L286 671 L425 554 L440 567 L327 745 L327 745 Z " />
<glyph glyph-name="udieresis" unicode="&#xfc;" horiz-adv-x="590" d="M366 614 C404 614 441 650 441 688 C441 726 404 763 366 763 C328 763 292 726 292 688 C292 650 328 614 366 614 L366 614 Z M206 614 C244 614 280 650 280 688 C280 726 244 763 206 763 C168 763 131 726 131 688 C131 650 168 614 206 614 L206 614 Z M320 496 L349 496 C367 496 385 478 385 460 L385 152 C362 109 311 70 271 70 C228 70 187 114 187 160 L187 500 L7 500 L7 497 L36 497 C54 497 72 479 72 461 L72 160 C72 73 143 -10 217 -10 C275 -10 354 51 385 118 L385 0 L442 0 L442 -1 C476 8 541 25 575 34 L575 37 L564 34 C531 25 500 52 500 88 L500 500 L385 500 L385 499 L320 499 L320 496 L320 496 Z " />
<glyph glyph-name="ydieresis" unicode="&#xff;" horiz-adv-x="602" d="M418 615 C456 615 492 651 492 689 C492 727 456 764 418 764 C380 764 343 727 343 689 C343 651 380 615 418 615 L418 615 Z M257 615 C295 615 332 651 332 689 C332 727 295 764 257 764 C219 764 183 727 183 689 C183 651 219 615 257 615 L257 615 Z M261 500 L6 500 L6 497 L16 497 C43 497 85 463 105 426 L307 3 L301 -10 L246 -151 C237 -173 221 -194 219 -194 C200 -194 188 -156 169 -156 C144 -156 120 -180 120 -205 C120 -233 146 -260 174 -260 C200 -260 255 -214 274 -166 C307 -82 340 2 373 87 C416 199 458 311 501 422 C516 461 557 498 585 498 L595 498 L595 501 L413 501 L413 498 L423 498 C451 498 465 461 452 422 L363 151 C320 241 276 331 233 421 C214 460 223 497 250 497 L260 497 L261 500 L261 500 Z " />
<glyph glyph-name="Amacron" unicode="&#x100;" horiz-adv-x="831" d="M282 890 L582 890 L582 970 L282 970 L282 890 L282 890 Z M458 0 L830 0 L830 3 L816 3 C775 3 716 62 695 124 L695 124 C623 339 550 554 479 770 L465 770 C469 747 420 717 364 709 L367 699 L367 699 L175 117 C152 58 80 3 23 3 L3 3 L3 0 L312 0 L312 3 L292 3 C234 3 197 62 216 124 L215 124 L261 272 L505 272 L554 121 C572 60 535 3 478 3 L458 3 L458 0 L458 0 Z M272 307 L381 657 L494 307 L272 307 L272 307 Z " />
<glyph glyph-name="amacron" unicode="&#x101;" horiz-adv-x="514" d="M106 640 L406 640 L406 720 L106 720 L106 640 L106 640 Z M524 123 L507 131 C502 103 475 77 452 77 C425 77 400 98 400 120 L400 353 C400 445 329 510 256 510 C155 510 57 406 57 360 C57 319 92 280 129 280 C158 280 185 317 185 337 C185 353 165 380 165 399 C165 419 196 463 229 463 C258 463 285 434 285 394 L285 264 C115 210 37 164 37 94 C37 41 92 -10 149 -10 C179 -10 239 26 292 83 C309 34 357 -5 406 -5 C455 -5 513 58 525 123 L524 123 L524 123 Z M286 237 L286 120 C286 115 286 110 287 105 C256 72 225 51 211 51 C182 51 154 78 154 106 C154 172 196 207 286 236 L286 237 L286 237 Z " />
<glyph glyph-name="Abreve" unicode="&#x102;" horiz-adv-x="831" d="M288 994 C296 923 367 854 432 854 C496 854 566 922 574 992 L550 995 C546 964 489 935 432 935 C375 935 317 966 313 998 L288 994 L288 994 Z M458 0 L830 0 L830 3 L816 3 C775 3 716 62 695 124 L695 124 C623 339 550 554 479 770 L465 770 C469 747 420 717 364 709 L367 699 L367 699 L175 117 C152 58 80 3 23 3 L3 3 L3 0 L312 0 L312 3 L292 3 C234 3 197 62 216 124 L215 124 L261 272 L505 272 L554 121 C572 60 535 3 478 3 L458 3 L458 0 L458 0 Z M272 307 L381 657 L494 307 L272 307 L272 307 Z " />
<glyph glyph-name="abreve" unicode="&#x103;" horiz-adv-x="514" d="M113 744 C121 673 192 604 256 604 C321 604 391 672 399 742 L375 745 C371 714 313 685 256 685 C199 685 141 716 137 748 L113 744 L113 744 Z M524 123 L507 131 C502 103 475 77 452 77 C425 77 400 98 400 120 L400 353 C400 445 329 510 256 510 C155 510 57 406 57 360 C57 319 92 280 129 280 C158 280 185 317 185 337 C185 353 165 380 165 399 C165 419 196 463 229 463 C258 463 285 434 285 394 L285 264 C115 210 37 164 37 94 C37 41 92 -10 149 -10 C179 -10 239 26 292 83 C309 34 357 -5 406 -5 C455 -5 513 58 525 123 L524 123 L524 123 Z M286 237 L286 120 C286 115 286 110 287 105 C256 72 225 51 211 51 C182 51 154 78 154 106 C154 172 196 207 286 236 L286 237 L286 237 Z " />
<glyph glyph-name="Cacute" unicode="&#x106;" horiz-adv-x="769" d="M448 811 L592 929 C623 955 652 983 652 988 C652 1015 621 1046 594 1046 C589 1046 563 1014 540 981 L433 826 L448 811 L448 811 Z M729 519 L729 750 L722 750 C722 744 721 731 721 725 C719 694 684 684 649 702 C595 736 524 760 439 760 C236 760 40 571 40 375 C40 179 231 -10 429 -10 C508 -10 583 13 641 46 C680 68 719 56 721 23 C721 16 722 4 722 -3 L729 -3 L729 231 L715 231 C713 226 710 216 708 211 C692 164 630 91 580 63 L580 63 C536 38 487 21 441 21 C312 21 189 194 189 375 C189 554 318 726 452 726 C502 726 549 709 590 684 C636 654 692 585 707 538 C709 533 712 523 714 518 L729 519 L729 519 Z M708 133 L708 133 L708 133 L708 133 Z " />
<glyph glyph-name="Ccircumflex" unicode="&#x108;" horiz-adv-x="769" d="M729 519 L729 750 L722 750 C722 744 721 731 721 725 C719 694 684 684 649 702 C595 736 524 760 439 760 C236 760 40 571 40 375 C40 179 231 -10 429 -10 C508 -10 583 13 641 46 C680 68 719 56 721 23 C721 16 722 4 722 -3 L729 -3 L729 231 L715 231 C713 226 710 216 708 211 C692 164 630 91 580 63 L580 63 C536 38 487 21 441 21 C312 21 189 194 189 375 C189 554 318 726 452 726 C502 726 549 709 590 684 C636 654 692 585 707 538 C709 533 712 523 714 518 L729 519 L729 519 Z M479 995 C472 1005 449 1036 438 1036 C427 1036 405 1005 398 995 L284 817 L299 804 L438 921 L577 804 L592 817 L479 995 L479 995 Z M708 133 L708 133 L708 133 L708 133 Z " />
<glyph glyph-name="Cdot" unicode="&#x10a;" horiz-adv-x="769" d="M439 865 C477 865 513 901 513 939 C513 977 477 1014 439 1014 C401 1014 365 977 365 939 C365 901 401 865 439 865 L439 865 Z M729 519 L729 750 L722 750 C722 744 721 731 721 725 C719 694 684 684 649 702 C595 736 524 760 439 760 C236 760 40 571 40 375 C40 179 231 -10 429 -10 C508 -10 583 13 641 46 C680 68 719 56 721 23 C721 16 722 4 722 -3 L729 -3 L729 231 L715 231 C713 226 710 216 708 211 C692 164 630 91 580 63 L580 63 C536 38 487 21 441 21 C312 21 189 194 189 375 C189 554 318 726 452 726 C502 726 549 709 590 684 C636 654 692 585 707 538 C709 533 712 523 714 518 L729 519 L729 519 Z M708 133 L708 133 L708 133 L708 133 Z " />
<glyph glyph-name="cdot" unicode="&#x10b;" horiz-adv-x="537" d="M329 615 C367 615 403 651 403 689 C403 727 367 764 329 764 C291 764 255 727 255 689 C255 651 291 615 329 615 L329 615 Z M507 128 L491 135 C474 97 406 60 353 60 C258 60 167 166 167 277 C167 383 243 484 322 484 C343 484 377 445 392 405 C403 376 431 348 450 348 C490 348 518 376 507 405 C488 459 400 510 329 510 C184 510 45 375 45 234 C45 110 176 -10 313 -10 C381 -10 476 58 507 128 L507 128 Z " />
<glyph glyph-name="Ccaron" unicode="&#x10c;" horiz-adv-x="769" d="M578 1045 L439 928 L300 1045 L285 1032 L399 854 C406 844 428 813 439 813 C450 813 473 844 480 854 L593 1032 L578 1045 L578 1045 Z M729 519 L729 750 L722 750 C722 744 721 731 721 725 C719 694 684 684 649 702 C595 736 524 760 439 760 C236 760 40 571 40 375 C40 179 231 -10 429 -10 C508 -10 583 13 641 46 C680 68 719 56 721 23 C721 16 722 4 722 -3 L729 -3 L729 231 L715 231 C713 226 710 216 708 211 C692 164 630 91 580 63 L580 63 C536 38 487 21 441 21 C312 21 189 194 189 375 C189 554 318 726 452 726 C502 726 549 709 590 684 C636 654 692 585 707 538 C709 533 712 523 714 518 L729 519 L729 519 Z M708 133 L708 133 L708 133 L708 133 Z " />
<glyph glyph-name="ccaron" unicode="&#x10d;" horiz-adv-x="537" d="M468 795 L329 678 L190 795 L175 782 L289 604 C296 594 318 563 329 563 C340 563 363 594 370 604 L483 782 L468 795 L468 795 Z M507 128 L491 135 C474 97 406 60 353 60 C258 60 167 166 167 277 C167 383 243 484 322 484 C343 484 377 445 392 405 C403 376 431 348 450 348 C490 348 518 376 507 405 C488 459 400 510 329 510 C184 510 45 375 45 234 C45 110 176 -10 313 -10 C381 -10 476 58 507 128 L507 128 Z " />
<glyph glyph-name="Dcaron" unicode="&#x10e;" horiz-adv-x="888" d="M549 1045 L410 928 L271 1045 L256 1032 L370 854 C377 844 399 813 410 813 C421 813 444 844 451 854 L564 1032 L549 1045 L549 1045 Z M311 27 C280 27 271 57 271 88 L271 723 L283 723 C508 723 684 552 684 375 C684 180 501 27 311 27 L311 27 Z M51 747 L65 747 C101 747 136 712 136 676 L136 74 C136 38 101 3 65 3 L51 3 L51 0 L351 0 C597 0 833 165 833 375 C833 566 639 750 391 750 L51 750 L51 747 L51 747 Z " />
<glyph glyph-name="dcaron" unicode="&#x10f;" horiz-adv-x="608" d="M596 758 C576 758 562 688 560 649 L553 537 L573 533 L620 637 C634 668 648 719 648 741 C648 751 623 758 596 758 L596 758 Z M328 712 L338 714 C366 718 393 689 393 656 L393 483 C354 499 308 510 265 510 C142 510 45 382 45 249 C45 119 143 -5 244 -5 C293 -5 362 27 393 62 L393 1 L450 1 L450 0 C486 10 557 29 593 39 L593 42 L579 38 C543 28 508 54 508 90 L508 751 L451 751 L451 752 C420 743 359 727 328 719 L328 712 L328 712 Z M393 376 L393 102 C367 71 320 44 291 44 C226 44 163 161 163 282 C163 382 214 478 279 478 C321 478 379 423 393 376 L393 376 Z " />
<glyph glyph-name="Emacron" unicode="&#x112;" horiz-adv-x="678" d="M208 890 L508 890 L508 970 L208 970 L208 890 L208 890 Z M31 747 L47 747 C92 747 136 702 136 656 L136 94 C136 48 92 3 47 3 L31 3 L31 0 L606 0 L609 15 L607 15 C614 51 626 118 632 154 L622 154 L616 135 C599 81 521 29 457 29 L359 29 C292 29 271 58 271 88 L271 385 L392 385 C443 385 498 336 505 284 L510 250 L520 250 L520 385 L521 385 L521 417 L520 417 L520 552 L510 552 L505 518 C498 466 443 417 392 417 L271 417 L271 721 L456 721 C508 721 569 672 582 620 L591 586 L601 586 C596 624 587 698 582 736 L583 736 L581 750 L31 750 L31 747 L31 747 Z " />
<glyph glyph-name="emacron" unicode="&#x113;" horiz-adv-x="548" d="M155 640 L455 640 L455 720 L155 720 L155 640 L155 640 Z M172 340 L518 340 C500 444 398 510 305 510 C172 510 45 401 45 228 C45 107 161 -10 282 -10 C369 -10 479 60 505 132 L491 136 C478 100 389 66 309 66 C236 66 166 168 166 275 C166 298 168 320 172 340 L172 340 Z M384 372 L179 368 C201 441 249 484 299 484 C329 484 365 441 384 372 L384 372 Z " />
<glyph glyph-name="Ebreve" unicode="&#x114;" horiz-adv-x="678" d="M214 994 C222 923 293 854 358 854 C422 854 492 922 500 992 L476 995 C472 964 415 935 358 935 C301 935 243 966 239 998 L214 994 L214 994 Z M31 747 L47 747 C92 747 136 702 136 656 L136 94 C136 48 92 3 47 3 L31 3 L31 0 L606 0 L609 15 L607 15 C614 51 626 118 632 154 L622 154 L616 135 C599 81 521 29 457 29 L359 29 C292 29 271 58 271 88 L271 385 L392 385 C443 385 498 336 505 284 L510 250 L520 250 L520 385 L521 385 L521 417 L520 417 L520 552 L510 552 L505 518 C498 466 443 417 392 417 L271 417 L271 721 L456 721 C508 721 569 672 582 620 L591 586 L601 586 C596 624 587 698 582 736 L583 736 L581 750 L31 750 L31 747 L31 747 Z " />
<glyph glyph-name="ebreve" unicode="&#x115;" horiz-adv-x="548" d="M162 744 C170 673 241 604 305 604 C370 604 440 672 448 742 L424 745 C420 714 362 685 305 685 C248 685 190 716 186 748 L162 744 L162 744 Z M172 340 L518 340 C500 444 398 510 305 510 C172 510 45 401 45 228 C45 107 161 -10 282 -10 C369 -10 479 60 505 132 L491 136 C478 100 389 66 309 66 C236 66 166 168 166 275 C166 298 168 320 172 340 L172 340 Z M384 372 L179 368 C201 441 249 484 299 484 C329 484 365 441 384 372 L384 372 Z " />
<glyph glyph-name="Edot" unicode="&#x116;" horiz-adv-x="678" d="M358 865 C396 865 432 901 432 939 C432 977 396 1014 358 1014 C320 1014 283 977 283 939 C283 901 320 865 358 865 L358 865 Z M31 747 L47 747 C92 747 136 702 136 656 L136 94 C136 48 92 3 47 3 L31 3 L31 0 L606 0 L609 15 L607 15 C614 51 626 118 632 154 L622 154 L616 135 C599 81 521 29 457 29 L359 29 C292 29 271 58 271 88 L271 385 L392 385 C443 385 498 336 505 284 L510 250 L520 250 L520 385 L521 385 L521 417 L520 417 L520 552 L510 552 L505 518 C498 466 443 417 392 417 L271 417 L271 721 L456 721 C508 721 569 672 582 620 L591 586 L601 586 C596 624 587 698 582 736 L583 736 L581 750 L31 750 L31 747 L31 747 Z " />
<glyph glyph-name="edot" unicode="&#x117;" horiz-adv-x="548" d="M305 615 C343 615 379 651 379 689 C379 727 343 764 305 764 C267 764 231 727 231 689 C231 651 267 615 305 615 L305 615 Z M172 340 L518 340 C500 444 398 510 305 510 C172 510 45 401 45 228 C45 107 161 -10 282 -10 C369 -10 479 60 505 132 L491 136 C478 100 389 66 309 66 C236 66 166 168 166 275 C166 298 168 320 172 340 L172 340 Z M384 372 L179 368 C201 441 249 484 299 484 C329 484 365 441 384 372 L384 372 Z " />
<glyph glyph-name="Ecaron" unicode="&#x11a;" horiz-adv-x="678" d="M496 1045 L358 929 L219 1045 L203 1032 L317 854 C324 844 347 813 358 813 C369 813 391 844 398 854 L512 1032 L496 1045 L496 1045 Z M31 747 L47 747 C92 747 136 702 136 656 L136 94 C136 48 92 3 47 3 L31 3 L31 0 L606 0 L609 15 L607 15 C614 51 626 118 632 154 L622 154 L616 135 C599 81 521 29 457 29 L359 29 C292 29 271 58 271 88 L271 385 L392 385 C443 385 498 336 505 284 L510 250 L520 250 L520 385 L521 385 L521 417 L520 417 L520 552 L510 552 L505 518 C498 466 443 417 392 417 L271 417 L271 721 L456 721 C508 721 569 672 582 620 L591 586 L601 586 C596 624 587 698 582 736 L583 736 L581 750 L31 750 L31 747 L31 747 Z " />
<glyph glyph-name="ecaron" unicode="&#x11b;" horiz-adv-x="548" d="M444 795 L305 678 L166 795 L151 782 L265 604 C272 594 294 563 305 563 C316 563 339 594 346 604 L459 782 L444 795 L444 795 Z M172 340 L518 340 C500 444 398 510 305 510 C172 510 45 401 45 228 C45 107 161 -10 282 -10 C369 -10 479 60 505 132 L491 136 C478 100 389 66 309 66 C236 66 166 168 166 275 C166 298 168 320 172 340 L172 340 Z M384 372 L179 368 C201 441 249 484 299 484 C329 484 365 441 384 372 L384 372 Z " />
<glyph glyph-name="Gcircumflex" unicode="&#x11c;" horiz-adv-x="848" d="M729 519 L729 750 L722 750 C722 744 721 731 721 725 C719 694 684 684 649 702 C595 736 524 760 439 760 C236 760 40 571 40 375 C40 179 236 -10 440 -10 C569 -10 707 23 781 58 L772 78 C754 70 731 62 705 54 C705 88 705 157 705 217 C705 271 745 323 786 323 L800 323 L800 326 L474 326 L474 323 L488 323 C529 323 569 271 569 217 C570 217 570 140 570 132 C562 72 512 19 460 19 C321 19 187 194 187 377 C187 556 316 728 450 728 C500 728 547 711 588 686 C634 656 690 587 705 540 C707 535 710 525 712 520 L729 519 L729 519 Z M477 997 C470 1007 447 1038 436 1038 C425 1038 403 1007 396 997 L282 819 L297 806 L436 923 L575 806 L590 819 L477 997 L477 997 Z " />
<glyph glyph-name="Gbreve" unicode="&#x11e;" horiz-adv-x="848" d="M296 994 C304 923 375 854 439 854 C504 854 574 922 582 992 L558 995 C554 964 496 935 439 935 C382 935 324 966 320 998 L296 994 L296 994 Z M729 519 L729 750 L722 750 C722 744 721 731 721 725 C719 694 684 684 649 702 C595 736 524 760 439 760 C236 760 40 571 40 375 C40 179 236 -10 440 -10 C569 -10 707 23 781 58 L772 78 C754 70 731 62 705 54 C705 88 705 157 705 217 C705 271 745 323 786 323 L800 323 L800 326 L474 326 L474 323 L488 323 C529 323 569 271 569 217 C570 217 570 140 570 132 C562 72 512 19 460 19 C321 19 187 194 187 377 C187 556 316 728 450 728 C500 728 547 711 588 686 C634 656 690 587 705 540 C707 535 710 525 712 520 L729 519 L729 519 Z " />
<glyph glyph-name="gbreve" unicode="&#x11f;" horiz-adv-x="520" d="M108 744 C116 673 187 604 251 604 C316 604 386 672 394 742 L370 745 C366 714 308 685 251 685 C194 685 136 716 132 748 L108 744 L108 744 Z M543 461 C543 496 506 530 468 530 C440 530 398 499 375 463 C341 491 297 509 252 509 C158 509 68 431 68 349 C68 288 116 230 178 203 C107 186 51 144 51 101 C51 55 86 11 130 -7 C81 -24 39 -65 39 -98 C39 -166 148 -231 262 -231 C376 -231 485 -147 485 -60 C485 21 412 98 298 98 L178 98 C147 98 118 117 118 136 C118 162 183 187 251 187 C345 187 435 266 435 349 C435 385 418 420 391 448 C395 454 399 458 401 458 C425 458 470 411 494 411 C519 411 543 436 543 461 L543 461 Z M251 215 C216 215 182 281 182 350 C182 418 216 483 251 483 C286 483 320 418 320 350 C320 281 286 215 251 215 L251 215 Z M158 -14 C163 -15 168 -15 173 -15 L287 -15 C351 -15 391 -50 391 -86 C391 -146 332 -204 270 -204 C201 -204 135 -138 135 -70 C135 -50 145 -28 159 -14 L158 -14 L158 -14 Z " />
<glyph glyph-name="Gdot" unicode="&#x120;" horiz-adv-x="848" d="M439 865 C477 865 513 901 513 939 C513 977 477 1014 439 1014 C401 1014 365 977 365 939 C365 901 401 865 439 865 L439 865 Z M729 519 L729 750 L722 750 C722 744 721 731 721 725 C719 694 684 684 649 702 C595 736 524 760 439 760 C236 760 40 571 40 375 C40 179 236 -10 440 -10 C569 -10 707 23 781 58 L772 78 C754 70 731 62 705 54 C705 88 705 157 705 217 C705 271 745 323 786 323 L800 323 L800 326 L474 326 L474 323 L488 323 C529 323 569 271 569 217 C570 217 570 140 570 132 C562 72 512 19 460 19 C321 19 187 194 187 377 C187 556 316 728 450 728 C500 728 547 711 588 686 C634 656 690 587 705 540 C707 535 710 525 712 520 L729 519 L729 519 Z " />
<glyph glyph-name="gdot" unicode="&#x121;" horiz-adv-x="520" d="M251 615 C289 615 325 651 325 689 C325 727 289 764 251 764 C213 764 177 727 177 689 C177 651 213 615 251 615 L251 615 Z M543 461 C543 496 506 530 468 530 C440 530 398 499 375 463 C341 491 297 509 252 509 C158 509 68 431 68 349 C68 288 116 230 178 203 C107 186 51 144 51 101 C51 55 86 11 130 -7 C81 -24 39 -65 39 -98 C39 -166 148 -231 262 -231 C376 -231 485 -147 485 -60 C485 21 412 98 298 98 L178 98 C147 98 118 117 118 136 C118 162 183 187 251 187 C345 187 435 266 435 349 C435 385 418 420 391 448 C395 454 399 458 401 458 C425 458 470 411 494 411 C519 411 543 436 543 461 L543 461 Z M251 215 C216 215 182 281 182 350 C182 418 216 483 251 483 C286 483 320 418 320 350 C320 281 286 215 251 215 L251 215 Z M158 -14 C163 -15 168 -15 173 -15 L287 -15 C351 -15 391 -50 391 -86 C391 -146 332 -204 270 -204 C201 -204 135 -138 135 -70 C135 -50 145 -28 159 -14 L158 -14 L158 -14 Z " />
<glyph glyph-name="Hcircumflex" unicode="&#x124;" horiz-adv-x="896" d="M502 996 C495 1006 473 1037 462 1037 C451 1037 428 1006 421 996 L307 818 L323 805 L462 921 L600 805 L616 818 L502 996 L502 996 Z M836 3 L822 3 C786 3 751 38 751 74 L751 676 C751 712 786 747 822 747 L836 747 L836 750 L531 750 L531 747 L545 747 C581 747 616 712 616 676 L616 418 L307 418 L307 676 C307 712 342 747 378 747 L392 747 L392 750 L87 750 L87 747 L101 747 C137 747 172 712 172 676 L172 74 C172 38 137 3 101 3 L87 3 L87 0 L392 0 L392 3 L378 3 C342 3 307 38 307 74 L307 383 L616 383 L616 74 C616 38 581 3 545 3 L531 3 L531 0 L836 0 L836 3 L836 3 Z " />
<glyph glyph-name="Itilde" unicode="&#x128;" horiz-adv-x="403" d="M51 870 C51 898 70 925 89 925 C132 925 214 860 257 860 C304 860 349 929 349 1001 L329 1001 C329 970 307 941 284 941 C241 941 159 1006 116 1006 C73 1006 31 939 31 870 L51 870 L51 870 Z M343 3 L329 3 C293 3 258 38 258 74 L258 676 C258 712 293 747 329 747 L343 747 L343 750 L37 750 L37 747 L51 747 C87 747 122 712 122 676 L122 74 C122 38 87 3 51 3 L37 3 L37 0 L343 0 L343 3 L343 3 Z " />
<glyph glyph-name="itilde" unicode="&#x129;" horiz-adv-x="342" d="M36 622 C36 650 55 677 74 677 C117 677 199 612 242 612 C289 612 334 681 334 753 L313 753 C313 722 291 693 269 693 C226 693 143 758 100 758 C57 758 15 691 15 622 L36 622 L36 622 Z M52 466 L81 474 C99 479 117 466 117 448 L117 39 C117 21 99 3 81 3 L52 3 L52 0 L297 0 L297 3 L268 3 C250 3 232 21 232 39 L232 500 L175 500 L175 501 C144 493 83 477 52 469 L52 466 L52 466 Z " />
<glyph glyph-name="Imacron" unicode="&#x12a;" horiz-adv-x="403" d="M40 890 L340 890 L340 970 L40 970 L40 890 L40 890 Z M343 3 L329 3 C293 3 258 38 258 74 L258 676 C258 712 293 747 329 747 L343 747 L343 750 L37 750 L37 747 L51 747 C87 747 122 712 122 676 L122 74 C122 38 87 3 51 3 L37 3 L37 0 L343 0 L343 3 L343 3 Z " />
<glyph glyph-name="imacron" unicode="&#x12b;" horiz-adv-x="342" d="M25 642 L325 642 L325 722 L25 722 L25 642 L25 642 Z M52 466 L81 474 C99 479 117 466 117 448 L117 39 C117 21 99 3 81 3 L52 3 L52 0 L297 0 L297 3 L268 3 C250 3 232 21 232 39 L232 500 L175 500 L175 501 C144 493 83 477 52 469 L52 466 L52 466 Z " />
<glyph glyph-name="Ibreve" unicode="&#x12c;" horiz-adv-x="403" d="M47 994 C55 923 126 854 190 854 C255 854 325 922 333 992 L309 995 C305 964 247 935 190 935 C133 935 75 966 71 998 L47 994 L47 994 Z M343 3 L329 3 C293 3 258 38 258 74 L258 676 C258 712 293 747 329 747 L343 747 L343 750 L37 750 L37 747 L51 747 C87 747 122 712 122 676 L122 74 C122 38 87 3 51 3 L37 3 L37 0 L343 0 L343 3 L343 3 Z " />
<glyph glyph-name="ibreve" unicode="&#x12d;" horiz-adv-x="342" d="M31 746 C39 675 110 606 175 606 C239 606 309 674 317 744 L293 747 C289 716 232 687 175 687 C118 687 60 718 56 750 L31 746 L31 746 Z M52 466 L81 474 C99 479 117 466 117 448 L117 39 C117 21 99 3 81 3 L52 3 L52 0 L297 0 L297 3 L268 3 C250 3 232 21 232 39 L232 500 L175 500 L175 501 C144 493 83 477 52 469 L52 466 L52 466 Z " />
<glyph glyph-name="Idot" unicode="&#x130;" horiz-adv-x="403" d="M190 865 C228 865 264 901 264 939 C264 977 228 1014 190 1014 C152 1014 116 977 116 939 C116 901 152 865 190 865 L190 865 Z M343 3 L329 3 C293 3 258 38 258 74 L258 676 C258 712 293 747 329 747 L343 747 L343 750 L37 750 L37 747 L51 747 C87 747 122 712 122 676 L122 74 C122 38 87 3 51 3 L37 3 L37 0 L343 0 L343 3 L343 3 Z " />
<glyph glyph-name="dotlessi" unicode="&#x131;" horiz-adv-x="342" d="M52 466 L81 474 C99 479 117 466 117 448 L117 39 C117 21 99 3 81 3 L52 3 L52 0 L297 0 L297 3 L268 3 C250 3 232 21 232 39 L232 500 L175 500 L175 501 C144 493 83 477 52 469 L52 466 L52 466 Z " />
<glyph glyph-name="Jcircumflex" unicode="&#x134;" horiz-adv-x="403" d="M231 996 C224 1006 201 1037 190 1037 C179 1037 157 1006 150 996 L36 818 L51 805 L190 922 L329 805 L344 818 L231 996 L231 996 Z M343 750 L37 750 L37 747 L51 747 C87 747 122 712 122 676 L122 -106 C122 -153 63 -172 30 -172 C-27 -172 -14 -64 -71 -64 C-102 -64 -132 -94 -132 -125 C-132 -173 -69 -220 -3 -220 C90 -220 258 -114 258 150 L258 676 C258 712 293 747 329 747 L343 747 L343 750 L343 750 Z " />
<glyph glyph-name="Lacute" unicode="&#x139;" horiz-adv-x="668" d="M199 811 L343 929 C374 955 403 983 403 988 C403 1015 372 1046 345 1046 C340 1046 314 1014 291 981 L184 826 L199 811 L199 811 Z M343 750 L37 750 L37 747 L51 747 C87 747 122 712 122 676 L122 74 C122 38 87 3 51 3 L37 3 L37 0 L593 0 L596 11 L596 11 C602 46 614 113 620 148 L610 148 L604 129 C587 75 509 23 445 23 L346 23 C279 23 258 55 258 88 L258 676 C258 712 293 747 329 747 L343 747 L343 750 L343 750 Z " />
<glyph glyph-name="Lcaron" unicode="&#x13d;" horiz-adv-x="668" d="M446 807 C426 807 412 737 410 698 L403 586 L423 582 L470 686 C484 717 498 768 498 790 C498 800 473 807 446 807 L446 807 Z M343 750 L37 750 L37 747 L51 747 C87 747 122 712 122 676 L122 74 C122 38 87 3 51 3 L37 3 L37 0 L593 0 L596 11 L596 11 C602 46 614 113 620 148 L610 148 L604 129 C587 75 509 23 445 23 L346 23 C279 23 258 55 258 88 L258 676 C258 712 293 747 329 747 L343 747 L343 750 L343 750 Z " />
<glyph glyph-name="lcaron" unicode="&#x13e;" horiz-adv-x="286" d="M279 759 C259 759 245 689 243 650 L236 538 L256 534 L303 638 C317 669 331 720 331 742 C331 752 306 759 279 759 L279 759 Z M11 713 L21 715 C49 719 76 690 76 657 L76 39 C76 21 58 3 40 3 L11 3 L11 0 L256 0 L256 3 L227 3 C209 3 191 21 191 39 L191 750 L134 750 L134 751 C103 743 42 727 11 719 L11 713 L11 713 Z " />
<glyph glyph-name="Nacute" unicode="&#x143;" horiz-adv-x="800" d="M304 811 L448 929 C479 955 508 983 508 988 C508 1015 477 1046 450 1046 C445 1046 419 1014 396 981 L289 826 L304 811 L304 811 Z M-49 747 L-34 747 C0 747 57 716 87 682 L137 618 L136 74 L136 74 C136 38 101 3 65 3 L51 3 L51 0 L261 0 L261 3 L247 3 C211 3 176 38 176 74 L176 74 L173 574 C322 383 471 192 620 0 L647 0 L656 678 C657 713 692 747 727 747 L741 747 L741 750 L531 750 L531 747 L545 747 C581 747 616 712 616 676 L616 676 L618 222 C479 398 341 574 203 750 L-48 750 L-49 747 L-49 747 Z " />
<glyph glyph-name="Ncaron" unicode="&#x147;" horiz-adv-x="800" d="M534 1045 L395 928 L256 1045 L241 1032 L355 854 C362 844 384 813 395 813 C406 813 429 844 436 854 L549 1032 L534 1045 L534 1045 Z M-49 747 L-34 747 C0 747 57 716 87 682 L137 618 L136 74 L136 74 C136 38 101 3 65 3 L51 3 L51 0 L261 0 L261 3 L247 3 C211 3 176 38 176 74 L176 74 L173 574 C322 383 471 192 620 0 L647 0 L656 678 C657 713 692 747 727 747 L741 747 L741 750 L531 750 L531 747 L545 747 C581 747 616 712 616 676 L616 676 L618 222 C479 398 341 574 203 750 L-48 750 L-49 747 L-49 747 Z " />
<glyph glyph-name="ncaron" unicode="&#x148;" horiz-adv-x="599" d="M429 797 L290 680 L151 797 L136 784 L250 606 C257 596 279 565 290 565 C301 565 324 596 331 606 L444 784 L429 797 L429 797 Z M11 463 L21 465 C49 469 76 440 76 407 L76 39 C76 21 58 3 40 3 L11 3 L11 0 L256 0 L256 3 L227 3 C209 3 191 21 191 39 L191 359 C211 393 262 426 295 426 C348 426 389 375 389 321 L389 39 C389 21 371 3 353 3 L324 3 L324 0 L569 0 L569 3 L540 3 C522 3 504 21 504 39 L504 321 C504 417 442 510 363 510 C310 510 225 453 191 393 L191 500 L134 500 L134 501 C103 493 42 477 11 469 L11 463 L11 463 Z " />
<glyph glyph-name="Omacron" unicode="&#x14c;" horiz-adv-x="889" d="M282 890 L582 890 L582 970 L282 970 L282 890 L282 890 Z M187 375 C187 554 304 726 426 726 C559 726 687 554 687 375 C687 196 561 24 429 24 C306 24 187 196 187 375 L187 375 Z M40 375 C40 179 227 -10 422 -10 C632 -10 834 179 834 375 C834 571 637 760 432 760 C232 760 40 571 40 375 L40 375 Z " />
<glyph glyph-name="omacron" unicode="&#x14d;" horiz-adv-x="622" d="M161 640 L461 640 L461 720 L161 720 L161 640 L161 640 Z M172 250 C172 365 240 475 311 475 C382 475 450 365 450 250 C450 135 382 25 311 25 C240 25 172 135 172 250 L172 250 Z M45 250 C45 117 175 -10 311 -10 C447 -10 577 117 577 250 C577 383 447 510 311 510 C175 510 45 383 45 250 L45 250 Z " />
<glyph glyph-name="Obreve" unicode="&#x14e;" horiz-adv-x="889" d="M289 994 C297 923 368 854 432 854 C497 854 567 922 575 992 L551 995 C547 964 489 935 432 935 C375 935 317 966 313 998 L289 994 L289 994 Z M187 375 C187 554 304 726 426 726 C559 726 687 554 687 375 C687 196 561 24 429 24 C306 24 187 196 187 375 L187 375 Z M40 375 C40 179 227 -10 422 -10 C632 -10 834 179 834 375 C834 571 637 760 432 760 C232 760 40 571 40 375 L40 375 Z " />
<glyph glyph-name="obreve" unicode="&#x14f;" horiz-adv-x="622" d="M168 744 C176 673 247 604 311 604 C376 604 446 672 454 742 L430 745 C426 714 368 685 311 685 C254 685 196 716 192 748 L168 744 L168 744 Z M172 250 C172 365 240 475 311 475 C382 475 450 365 450 250 C450 135 382 25 311 25 C240 25 172 135 172 250 L172 250 Z M45 250 C45 117 175 -10 311 -10 C447 -10 577 117 577 250 C577 383 447 510 311 510 C175 510 45 383 45 250 L45 250 Z " />
<glyph glyph-name="Racute" unicode="&#x154;" horiz-adv-x="831" d="M325 811 L470 929 C500 954 529 982 529 988 C529 1015 498 1046 472 1046 C466 1046 440 1014 417 981 L311 826 L325 811 L325 811 Z M51 747 L65 747 C101 747 136 712 136 676 L136 74 C136 38 101 3 65 3 L51 3 L51 0 L356 0 L356 3 L342 3 C306 3 271 38 271 74 L271 346 L342 346 C369 301 452 179 536 62 C573 11 626 -1 820 -1 L820 3 C753 3 730 14 695 62 C602 190 512 314 476 364 C572 394 645 456 645 534 C645 643 498 748 346 748 L50 748 L51 747 L51 747 Z M270 378 L270 721 L306 721 C403 721 496 643 496 561 C496 454 423 378 346 378 L270 378 L270 378 Z " />
<glyph glyph-name="Rcaron" unicode="&#x158;" horiz-adv-x="831" d="M455 1045 L317 929 L178 1045 L162 1032 L276 854 C283 844 306 813 317 813 C328 813 350 844 357 854 L471 1032 L455 1045 L455 1045 Z M51 747 L65 747 C101 747 136 712 136 676 L136 74 C136 38 101 3 65 3 L51 3 L51 0 L356 0 L356 3 L342 3 C306 3 271 38 271 74 L271 346 L342 346 C369 301 452 179 536 62 C573 11 626 -1 820 -1 L820 3 C753 3 730 14 695 62 C602 190 512 314 476 364 C572 394 645 456 645 534 C645 643 498 748 346 748 L50 748 L51 747 L51 747 Z M270 378 L270 721 L306 721 C403 721 496 643 496 561 C496 454 423 378 346 378 L270 378 L270 378 Z " />
<glyph glyph-name="rcaron" unicode="&#x159;" horiz-adv-x="468" d="M396 797 L258 681 L119 797 L103 784 L217 606 C224 596 247 565 258 565 C269 565 291 596 298 606 L412 784 L396 797 L396 797 Z M12 463 L22 465 C50 469 77 440 77 407 L77 39 C77 21 59 3 41 3 L12 3 L12 0 L257 0 L257 3 L228 3 C210 3 192 21 192 39 L192 350 C214 407 255 456 283 456 C303 456 323 439 323 421 C323 386 356 353 391 353 C425 353 458 386 458 421 C458 466 399 510 337 510 C283 510 218 462 192 408 L192 500 L135 500 L135 501 C104 493 43 477 12 469 L12 463 L12 463 Z " />
<glyph glyph-name="Sacute" unicode="&#x15a;" horiz-adv-x="555" d="M282 811 L427 929 C457 954 486 982 486 988 C486 1015 455 1046 429 1046 C423 1046 397 1014 374 981 L268 826 L282 811 L282 811 Z M47 244 L47 -2 L54 -2 C54 6 55 21 55 29 C57 65 95 74 133 48 C180 13 236 -11 282 -11 C400 -11 514 95 514 206 C514 292 430 405 322 444 C232 477 162 551 162 602 C162 665 211 725 263 725 C286 725 312 719 337 708 C382 686 439 618 455 565 C457 560 460 550 462 545 L476 545 L476 755 L469 755 C469 749 468 739 468 733 C466 706 433 699 401 718 L401 717 C359 742 307 759 262 759 C157 759 56 657 56 550 C56 459 137 342 240 304 C333 270 405 206 405 167 C405 98 344 32 281 32 C251 32 216 44 183 63 L183 63 C140 88 83 166 65 223 C63 228 60 238 58 243 L47 244 L47 244 Z M64 154 L64 154 L64 154 L64 154 Z " />
<glyph glyph-name="Scircumflex" unicode="&#x15c;" horiz-adv-x="555" d="M47 244 L47 -2 L54 -2 C54 6 55 21 55 29 C57 65 95 74 133 48 C180 13 236 -11 282 -11 C400 -11 514 95 514 206 C514 292 430 405 322 444 C232 477 162 551 162 602 C162 665 211 725 263 725 C286 725 312 719 337 708 C382 686 439 618 455 565 C457 560 460 550 462 545 L476 545 L476 755 L469 755 C469 749 468 739 468 733 C466 706 433 699 401 718 L401 717 C359 742 307 759 262 759 C157 759 56 657 56 550 C56 459 137 342 240 304 C333 270 405 206 405 167 C405 98 344 32 281 32 C251 32 216 44 183 63 L183 63 C140 88 83 166 65 223 C63 228 60 238 58 243 L47 244 L47 244 Z M311 995 C304 1005 282 1036 271 1036 C260 1036 237 1005 230 995 L116 817 L132 804 L271 920 L409 804 L425 817 L311 995 L311 995 Z M64 154 L64 154 L64 154 L64 154 Z " />
<glyph glyph-name="Scaron" unicode="&#x160;" horiz-adv-x="555" d="M412 1045 L274 929 L135 1045 L119 1032 L233 854 C240 844 263 813 274 813 C285 813 307 844 314 854 L428 1032 L412 1045 L412 1045 Z M47 244 L47 -2 L54 -2 C54 6 55 21 55 29 C57 65 95 74 133 48 C180 13 236 -11 282 -11 C400 -11 514 95 514 206 C514 292 430 405 322 444 C232 477 162 551 162 602 C162 665 211 725 263 725 C286 725 312 719 337 708 C382 686 439 618 455 565 C457 560 460 550 462 545 L476 545 L476 755 L469 755 C469 749 468 739 468 733 C466 706 433 699 401 718 L401 717 C359 742 307 759 262 759 C157 759 56 657 56 550 C56 459 137 342 240 304 C333 270 405 206 405 167 C405 98 344 32 281 32 C251 32 216 44 183 63 L183 63 C140 88 83 166 65 223 C63 228 60 238 58 243 L47 244 L47 244 Z M64 154 L64 154 L64 154 L64 154 Z " />
<glyph glyph-name="scaron" unicode="&#x161;" horiz-adv-x="434" d="M350 795 L211 678 L72 795 L57 782 L171 604 C178 594 200 563 211 563 C222 563 245 594 252 604 L365 782 L350 795 L350 795 Z M60 180 L60 -2 L65 -2 C65 3 66 12 66 17 C67 33 102 30 140 12 C164 -2 189 -10 211 -10 C299 -10 384 63 384 138 C384 197 319 272 236 294 C180 309 137 365 137 412 C137 451 180 488 226 482 C270 474 328 416 349 357 C351 352 354 344 356 339 L361 339 L361 511 L356 511 C356 507 355 498 355 494 C354 481 313 483 271 499 L271 499 C252 506 233 510 215 510 C133 510 55 442 55 372 C55 305 113 226 186 206 C247 190 295 142 295 105 C295 52 241 3 186 22 C146 38 92 103 71 162 C69 167 66 175 64 180 L60 180 L60 180 Z " />
<glyph glyph-name="Tcaron" unicode="&#x164;" horiz-adv-x="775" d="M530 1045 L391 928 L252 1045 L237 1032 L351 854 C358 844 380 813 391 813 C402 813 425 844 432 854 L545 1032 L530 1045 L530 1045 Z M695 795 L693 788 C685 769 630 750 578 750 L201 750 C149 750 93 769 86 788 L84 795 L75 795 C71 784 64 766 58 751 L56 751 L56 747 C54 742 52 738 51 734 L53 734 C39 698 11 628 -4 592 L6 592 L17 611 C45 665 125 717 179 717 L321 717 L321 75 C321 39 286 4 250 4 L236 4 L236 1 L541 1 L541 4 L527 4 C491 4 456 39 456 75 L456 717 L602 717 C656 717 736 665 765 611 L776 592 L786 592 C772 628 744 698 729 734 L730 734 C723 750 711 780 705 796 L695 795 L695 795 Z " />
<glyph glyph-name="tcaron" unicode="&#x165;" horiz-adv-x="412" d="M362 500 L210 500 L210 620 L202 620 L30 449 L30 439 L95 439 L95 186 C95 66 170 -10 249 -10 C316 -10 391 55 402 122 L387 125 C380 84 330 44 284 44 C245 44 207 89 207 161 L210 439 L362 439 L362 500 L362 500 Z M460 757 C440 757 426 687 424 648 L417 536 L437 532 L484 636 C498 667 512 718 512 740 C512 750 487 757 460 757 L460 757 Z " />
<glyph glyph-name="Utilde" unicode="&#x168;" horiz-adv-x="812" d="M260 868 C260 896 279 923 298 923 C341 923 423 858 466 858 C513 858 558 927 558 999 L538 999 C538 968 516 939 493 939 C450 939 368 1004 325 1004 C282 1004 240 937 240 868 L260 868 L260 868 Z M16 745 L30 745 C66 745 101 710 101 674 L101 220 C101 103 207 -10 318 -10 C407 -10 526 64 562 141 L562 0 L629 0 L629 -1 C668 9 743 29 782 39 L782 42 L768 38 C732 28 697 54 697 90 L697 750 L562 750 L562 748 L477 748 L477 745 L491 745 C527 745 562 710 562 674 L562 202 C532 138 439 77 372 77 C303 77 236 147 236 220 L236 750 L101 750 L101 748 L16 748 L16 745 L16 745 Z " />
<glyph glyph-name="utilde" unicode="&#x169;" horiz-adv-x="590" d="M147 619 C147 647 166 674 185 674 C228 674 310 609 353 609 C400 609 445 678 445 750 L425 750 C425 719 403 690 380 690 C337 690 255 755 212 755 C169 755 127 688 127 619 L147 619 L147 619 Z M320 496 L349 496 C367 496 385 478 385 460 L385 152 C362 109 311 70 271 70 C228 70 187 114 187 160 L187 500 L7 500 L7 497 L36 497 C54 497 72 479 72 461 L72 160 C72 73 143 -10 217 -10 C275 -10 354 51 385 118 L385 0 L442 0 L442 -1 C476 8 541 25 575 34 L575 37 L564 34 C531 25 500 52 500 88 L500 500 L385 500 L385 499 L320 499 L320 496 L320 496 Z " />
<glyph glyph-name="Umacron" unicode="&#x16a;" horiz-adv-x="812" d="M249 888 L549 888 L549 968 L249 968 L249 888 L249 888 Z M16 745 L30 745 C66 745 101 710 101 674 L101 220 C101 103 207 -10 318 -10 C407 -10 526 64 562 141 L562 0 L629 0 L629 -1 C668 9 743 29 782 39 L782 42 L768 38 C732 28 697 54 697 90 L697 750 L562 750 L562 748 L477 748 L477 745 L491 745 C527 745 562 710 562 674 L562 202 C532 138 439 77 372 77 C303 77 236 147 236 220 L236 750 L101 750 L101 748 L16 748 L16 745 L16 745 Z " />
<glyph glyph-name="umacron" unicode="&#x16b;" horiz-adv-x="590" d="M136 639 L436 639 L436 719 L136 719 L136 639 L136 639 Z M320 496 L349 496 C367 496 385 478 385 460 L385 152 C362 109 311 70 271 70 C228 70 187 114 187 160 L187 500 L7 500 L7 497 L36 497 C54 497 72 479 72 461 L72 160 C72 73 143 -10 217 -10 C275 -10 354 51 385 118 L385 0 L442 0 L442 -1 C476 8 541 25 575 34 L575 37 L564 34 C531 25 500 52 500 88 L500 500 L385 500 L385 499 L320 499 L320 496 L320 496 Z " />
<glyph glyph-name="Ubreve" unicode="&#x16c;" horiz-adv-x="812" d="M256 992 C264 921 335 852 399 852 C464 852 534 920 542 990 L518 993 C514 962 456 933 399 933 C342 933 284 964 280 996 L256 992 L256 992 Z M16 745 L30 745 C66 745 101 710 101 674 L101 220 C101 103 207 -10 318 -10 C407 -10 526 64 562 141 L562 0 L629 0 L629 -1 C668 9 743 29 782 39 L782 42 L768 38 C732 28 697 54 697 90 L697 750 L562 750 L562 748 L477 748 L477 745 L491 745 C527 745 562 710 562 674 L562 202 C532 138 439 77 372 77 C303 77 236 147 236 220 L236 750 L101 750 L101 748 L16 748 L16 745 L16 745 Z " />
<glyph glyph-name="ubreve" unicode="&#x16d;" horiz-adv-x="590" d="M143 743 C151 672 222 603 286 603 C351 603 421 671 429 741 L405 744 C401 713 343 684 286 684 C229 684 171 715 167 747 L143 743 L143 743 Z M320 496 L349 496 C367 496 385 478 385 460 L385 152 C362 109 311 70 271 70 C228 70 187 114 187 160 L187 500 L7 500 L7 497 L36 497 C54 497 72 479 72 461 L72 160 C72 73 143 -10 217 -10 C275 -10 354 51 385 118 L385 0 L442 0 L442 -1 C476 8 541 25 575 34 L575 37 L564 34 C531 25 500 52 500 88 L500 500 L385 500 L385 499 L320 499 L320 496 L320 496 Z " />
<glyph glyph-name="Uring" unicode="&#x16e;" horiz-adv-x="812" d="M334 903 C334 938 366 971 399 971 C432 971 464 938 464 903 C464 872 429 835 399 835 C369 835 334 872 334 903 L334 903 Z M301 903 C301 859 354 808 399 808 C444 808 497 859 497 903 C497 951 449 998 399 998 C349 998 301 951 301 903 L301 903 Z M16 745 L30 745 C66 745 101 710 101 674 L101 220 C101 103 207 -10 318 -10 C407 -10 526 64 562 141 L562 0 L629 0 L629 -1 C668 9 743 29 782 39 L782 42 L768 38 C732 28 697 54 697 90 L697 750 L562 750 L562 748 L477 748 L477 745 L491 745 C527 745 562 710 562 674 L562 202 C532 138 439 77 372 77 C303 77 236 147 236 220 L236 750 L101 750 L101 748 L16 748 L16 745 L16 745 Z " />
<glyph glyph-name="uring" unicode="&#x16f;" horiz-adv-x="590" d="M221 654 C221 689 253 722 286 722 C319 722 351 689 351 654 C351 623 316 586 286 586 C256 586 221 623 221 654 L221 654 Z M188 654 C188 610 241 559 286 559 C331 559 384 610 384 654 C384 702 336 749 286 749 C236 749 188 702 188 654 L188 654 Z M320 496 L349 496 C367 496 385 478 385 460 L385 152 C362 109 311 70 271 70 C228 70 187 114 187 160 L187 500 L7 500 L7 497 L36 497 C54 497 72 479 72 461 L72 160 C72 73 143 -10 217 -10 C275 -10 354 51 385 118 L385 0 L442 0 L442 -1 C476 8 541 25 575 34 L575 37 L564 34 C531 25 500 52 500 88 L500 500 L385 500 L385 499 L320 499 L320 496 L320 496 Z " />
<glyph glyph-name="Wcircumflex" unicode="&#x174;" horiz-adv-x="1149" d="M732 750 L374 750 L374 747 L386 747 C420 747 472 702 497 653 C519 602 542 551 564 500 L451 162 L254 650 C236 700 262 746 308 746 L324 746 L324 749 L-9 749 L-9 746 L3 746 C34 746 84 700 107 650 C202 429 297 208 393 -12 L427 -12 L428 -7 L589 442 C656 291 723 140 790 -11 L824 -11 L824 -6 L1018 655 C1037 703 1087 746 1125 746 L1139 746 L1139 749 L847 749 L847 746 L890 746 C941 746 978 697 964 645 L964 645 L842 187 L645 650 C627 700 656 746 705 746 L733 746 L732 750 L732 750 Z M595 995 C588 1005 566 1036 555 1036 C544 1036 521 1005 514 995 L400 817 L416 804 L555 920 L693 804 L709 817 L595 995 L595 995 Z " />
<glyph glyph-name="Ycircumflex" unicode="&#x176;" horiz-adv-x="808" d="M454 996 C447 1006 425 1037 414 1037 C403 1037 380 1006 373 996 L259 818 L275 805 L414 921 L552 805 L568 818 L454 996 L454 996 Z M320 750 L-13 750 L-13 747 L-2 747 C27 747 79 712 106 674 L346 317 L346 95 C346 49 302 4 257 4 L241 4 L241 1 L586 1 L586 4 L570 4 C525 4 481 49 481 95 L481 321 L674 672 L675 672 C696 711 754 748 792 748 L811 748 L811 751 L525 751 L525 748 L573 748 C611 748 630 714 615 677 L467 363 L263 678 C242 715 256 749 293 749 L320 749 L320 750 L320 750 Z " />
<glyph glyph-name="Ydieresis" unicode="&#x178;" horiz-adv-x="808" d="M494 865 C532 865 568 901 568 939 C568 977 532 1014 494 1014 C456 1014 419 977 419 939 C419 901 456 865 494 865 L494 865 Z M333 865 C371 865 408 901 408 939 C408 977 371 1014 333 1014 C295 1014 259 977 259 939 C259 901 295 865 333 865 L333 865 Z M320 750 L-13 750 L-13 747 L-2 747 C27 747 79 712 106 674 L346 317 L346 95 C346 49 302 4 257 4 L241 4 L241 1 L586 1 L586 4 L570 4 C525 4 481 49 481 95 L481 321 L674 672 L675 672 C696 711 754 748 792 748 L811 748 L811 751 L525 751 L525 748 L573 748 C611 748 630 714 615 677 L467 363 L263 678 C242 715 256 749 293 749 L320 749 L320 750 L320 750 Z " />
<glyph glyph-name="Zacute" unicode="&#x179;" horiz-adv-x="652" d="M352 811 L496 929 C527 955 556 983 556 988 C556 1015 525 1046 498 1046 C493 1046 467 1014 444 981 L337 826 L352 811 L352 811 Z M67 587 L72 606 C84 659 157 713 221 715 L466 720 L26 27 L26 0 L607 0 L611 20 L613 20 C613 20 630 92 647 166 L637 166 L630 147 C610 95 538 45 476 38 L184 31 L611 723 L611 750 L71 750 L68 712 C68 712 61 618 58 587 L67 587 L67 587 Z " />
<glyph glyph-name="Zdot" unicode="&#x17b;" horiz-adv-x="652" d="M343 865 C381 865 417 901 417 939 C417 977 381 1014 343 1014 C305 1014 269 977 269 939 C269 901 305 865 343 865 L343 865 Z M67 587 L72 606 C84 659 157 713 221 715 L466 720 L26 27 L26 0 L607 0 L611 20 L613 20 C613 20 630 92 647 166 L637 166 L630 147 C610 95 538 45 476 38 L184 31 L611 723 L611 750 L71 750 L68 712 C68 712 61 618 58 587 L67 587 L67 587 Z " />
<glyph glyph-name="zdot" unicode="&#x17c;" horiz-adv-x="475" d="M256 615 C294 615 330 651 330 689 C330 727 294 764 256 764 C218 764 182 727 182 689 C182 651 218 615 256 615 L256 615 Z M62 479 C60 471 45 417 30 361 L42 361 L49 376 C69 417 135 458 189 464 L299 468 L40 27 L40 0 L430 0 L430 7 L433 7 C434 7 442 72 449 139 L437 139 L432 124 C420 83 361 42 309 36 L180 31 L435 472 L435 499 L127 499 C101 499 79 512 82 526 L83 531 L75 531 C71 517 64 492 60 478 L62 479 L62 479 Z " />
<glyph glyph-name="Zcaron" unicode="&#x17d;" horiz-adv-x="652" d="M482 1045 L343 928 L204 1045 L189 1032 L303 854 C310 844 332 813 343 813 C354 813 377 844 384 854 L497 1032 L482 1045 L482 1045 Z M67 587 L72 606 C84 659 157 713 221 715 L466 720 L26 27 L26 0 L607 0 L611 20 L613 20 C613 20 630 92 647 166 L637 166 L630 147 C610 95 538 45 476 38 L184 31 L611 723 L611 750 L71 750 L68 712 C68 712 61 618 58 587 L67 587 L67 587 Z " />
<glyph glyph-name="zcaron" unicode="&#x17e;" horiz-adv-x="475" d="M395 795 L256 678 L117 795 L102 782 L216 604 C223 594 245 563 256 563 C267 563 290 594 297 604 L410 782 L395 795 L395 795 Z M62 479 C60 471 45 417 30 361 L42 361 L49 376 C69 417 135 458 189 464 L299 468 L40 27 L40 0 L430 0 L430 7 L433 7 C434 7 442 72 449 139 L437 139 L432 124 C420 83 361 42 309 36 L180 31 L435 472 L435 499 L127 499 C101 499 79 512 82 526 L83 531 L75 531 C71 517 64 492 60 478 L62 479 L62 479 Z " />
<glyph glyph-name="oogonek" unicode="&#x1eb;" horiz-adv-x="794" d="M1019 -39 L1010 -28 C979 -54 840 -79 726 -79 C617 -79 470 -49 368 -10 C560 -17 744 137 744 292 C744 446 570 593 389 593 C213 593 44 446 44 292 C44 202 100 114 180 56 L180 56 C349 -65 608 -181 709 -181 C782 -181 934 -112 1020 -40 L1019 -39 L1019 -39 Z M279 34 C221 84 177 186 177 291 C177 429 279 562 385 562 C501 562 613 429 613 291 C613 144 485 3 352 3 C344 3 336 4 328 6 C309 15 292 24 279 33 L279 33 L279 34 L279 34 Z " />
<glyph glyph-name="Adotabove" unicode="&#x226;" horiz-adv-x="831" d="M432 865 C470 865 506 901 506 939 C506 977 470 1014 432 1014 C394 1014 357 977 357 939 C357 901 394 865 432 865 L432 865 Z M458 0 L830 0 L830 3 L816 3 C775 3 716 62 695 124 L695 124 C623 339 550 554 479 770 L465 770 C469 747 420 717 364 709 L367 699 L367 699 L175 117 C152 58 80 3 23 3 L3 3 L3 0 L312 0 L312 3 L292 3 C234 3 197 62 216 124 L215 124 L261 272 L505 272 L554 121 C572 60 535 3 478 3 L458 3 L458 0 L458 0 Z M272 307 L381 657 L494 307 L272 307 L272 307 Z " />
<glyph glyph-name="G_sc" unicode="&#x262;" horiz-adv-x="760" d="M641 383 L641 610 L634 610 C634 604 633 591 633 585 C631 554 592 541 554 559 L554 559 C511 579 456 593 391 593 C214 593 44 446 44 292 C44 138 216 -10 396 -10 C429 -10 465 -6 501 0 C542 7 581 19 619 28 L619 29 C647 38 673 48 695 58 L687 75 C668 66 645 57 620 49 L620 143 C620 197 660 249 701 249 L715 249 L715 252 L403 252 L403 249 L417 249 C458 249 498 197 498 143 L499 143 C499 134 499 125 499 116 C494 63 457 15 418 15 C296 15 179 151 179 292 C179 430 290 563 405 563 C438 563 469 556 497 544 L497 544 C546 523 608 454 623 403 C625 398 627 388 629 383 L641 383 L641 383 Z " />
<glyph glyph-name="I_sc" unicode="&#x26a;" horiz-adv-x="396" d="M336 3 L322 3 C286 3 251 38 251 74 L251 509 C251 545 286 580 322 580 L336 580 L336 583 L44 583 L44 580 L58 580 C94 580 129 545 129 509 L129 74 C129 38 94 3 58 3 L44 3 L44 0 L336 0 L336 3 L336 3 Z " />
<glyph glyph-name="N_sc" unicode="&#x274;" horiz-adv-x="719" d="M-37 580 L-23 580 C12 580 74 546 106 511 L137 475 L136 74 L136 74 C136 38 101 3 65 3 L51 3 L51 0 L257 0 L257 3 L243 3 C210 3 177 33 172 66 L169 437 C293 291 417 145 541 -1 L565 -1 C568 169 570 339 573 508 C574 544 609 579 645 579 L659 579 L659 582 L453 582 L453 579 L467 579 C503 579 538 544 538 508 L538 508 L540 143 C426 290 311 436 196 582 L-37 582 L-37 580 L-37 580 Z " />
<glyph glyph-name="R_sc" unicode="&#x280;" horiz-adv-x="692" d="M55 580 L69 580 C105 580 140 545 140 509 L140 74 C140 38 105 3 69 3 L55 3 L55 0 L346 0 L346 3 L332 3 C296 3 261 38 261 74 L261 265 L287 265 C310 228 377 137 444 50 C475 10 519 1 682 1 L682 4 C633 4 616 12 587 50 C513 147 441 240 409 281 C495 305 560 354 560 416 C560 501 428 583 291 583 L56 583 L55 580 L55 580 Z M262 296 L262 559 C346 556 426 499 426 440 C426 356 360 296 291 296 L262 296 L262 296 Z " />
<glyph glyph-name="Y_sc" unicode="&#x28f;" horiz-adv-x="716" d="M201 0 L533 0 L533 3 L517 3 C472 3 428 48 428 94 L428 246 C479 332 529 419 580 504 C603 543 662 580 700 580 L719 580 L719 583 L440 583 L440 580 L488 580 C525 580 543 547 529 510 L415 282 C363 356 310 430 259 504 C232 543 242 580 281 580 L308 580 L308 583 L-9 583 L-9 580 L2 580 C32 580 88 543 116 504 L116 504 L306 242 L306 94 C306 48 262 3 217 3 L201 3 L201 0 L201 0 Z " />
<glyph glyph-name="B_sc" unicode="&#x299;" horiz-adv-x="626" d="M344 12 L294 12 C277 12 261 50 261 89 L261 299 L341 299 C400 290 454 227 454 161 C454 58 401 12 345 12 L344 12 L344 12 Z M56 580 L70 580 C106 580 141 545 141 509 L141 74 C141 38 106 3 70 3 L56 3 L56 0 L382 0 C487 0 587 50 587 161 C587 231 523 298 447 316 C508 342 554 393 554 445 C554 515 482 583 322 583 L56 583 L56 580 L56 580 Z M350 321 L262 321 L262 559 C262 559 273 559 273 558 C383 558 433 496 433 432 C433 375 392 321 350 321 L350 321 Z " />
<glyph glyph-name="H_sc" unicode="&#x29c;" horiz-adv-x="812" d="M752 3 L738 3 C702 3 667 38 667 74 L667 509 C667 545 702 580 738 580 L752 580 L752 583 L460 583 L460 580 L474 580 C510 580 545 545 545 509 L545 329 L297 329 L297 509 C297 545 332 580 368 580 L382 580 L382 583 L91 583 L91 580 L105 580 C141 580 176 545 176 509 L176 74 C176 38 141 3 105 3 L91 3 L91 0 L382 0 L382 3 L368 3 C332 3 297 38 297 74 L297 298 L545 298 L545 74 C545 38 510 3 474 3 L460 3 L460 0 L752 0 L752 3 L752 3 Z " />
<glyph glyph-name="L_sc" unicode="&#x29f;" horiz-adv-x="586" d="M336 583 L44 583 L44 580 L58 580 C94 580 129 545 129 509 L129 74 C129 38 94 3 58 3 L44 3 L44 0 L511 0 L513 10 L514 10 C520 45 532 111 538 146 L528 146 L522 127 C506 73 428 21 364 21 L339 21 C272 21 251 54 251 88 L251 509 C251 545 286 580 322 580 L336 580 L336 583 L336 583 Z " />
<glyph glyph-name="circumflex" unicode="&#x2c6;" horiz-adv-x="340" d="M211 746 C204 756 181 787 170 787 C159 787 137 756 130 746 L16 568 L31 555 L170 672 L309 555 L324 568 L211 746 L211 746 Z " />
<glyph glyph-name="caron" unicode="&#x2c7;" horiz-adv-x="340" d="M309 795 L170 678 L31 795 L16 782 L130 604 C137 594 159 563 170 563 C181 563 204 594 211 604 L324 782 L309 795 L309 795 Z " />
<glyph glyph-name="firsttonechinese" unicode="&#x2c9;" horiz-adv-x="340" d="M20 640 L320 640 L320 720 L20 720 L20 640 L20 640 Z " />
<glyph glyph-name="breve" unicode="&#x2d8;" horiz-adv-x="340" d="M27 744 C35 673 106 604 170 604 C235 604 305 672 313 742 L289 745 C285 714 227 685 170 685 C113 685 55 716 51 748 L27 744 L27 744 Z " />
<glyph glyph-name="dotaccent" unicode="&#x2d9;" horiz-adv-x="340" d="M170 615 C208 615 244 651 244 689 C244 727 208 764 170 764 C132 764 96 727 96 689 C96 651 132 615 170 615 L170 615 Z " />
<glyph glyph-name="ring" unicode="&#x2da;" horiz-adv-x="340" d="M105 655 C105 690 137 723 170 723 C203 723 235 690 235 655 C235 624 200 587 170 587 C140 587 105 624 105 655 L105 655 Z M72 655 C72 611 125 560 170 560 C215 560 268 611 268 655 C268 703 220 750 170 750 C120 750 72 703 72 655 L72 655 Z " />
<glyph glyph-name="A_sc" unicode="&#x1d00;" horiz-adv-x="747" d="M389 0 L746 0 L746 3 L732 3 C692 3 633 58 609 118 C550 280 492 443 432 604 L420 604 C423 587 378 563 328 556 L332 545 C282 405 232 264 181 124 C159 62 82 3 23 3 L3 3 L3 0 L308 0 L308 3 L288 3 C230 3 194 62 215 124 L215 124 L243 208 L450 208 C460 180 471 151 480 124 C502 62 467 3 409 3 L389 3 L389 0 L389 0 Z M255 240 L345 509 L440 240 L255 240 L255 240 Z " />
<glyph glyph-name="C_sc" unicode="&#x1d04;" horiz-adv-x="682" d="M641 -30 L641 201 L627 201 C625 196 623 186 621 181 C606 131 543 62 492 40 L492 40 C461 27 427 19 393 19 C283 19 177 153 177 293 C177 431 288 564 403 564 C436 564 467 557 495 545 L495 545 C544 524 606 455 621 404 C623 399 625 389 627 384 L641 384 L641 611 L634 611 C634 605 633 592 633 586 C631 555 592 542 554 560 L554 560 C511 580 456 594 391 594 C214 594 44 447 44 293 C44 139 210 -9 382 -9 C446 -9 505 6 552 27 L552 27 C591 45 631 30 633 -3 C633 -10 634 -22 634 -29 L641 -30 L641 -30 Z " />
<glyph glyph-name="D_sc" unicode="&#x1d05;" horiz-adv-x="799" d="M281 25 C266 25 261 56 261 88 L261 559 C459 554 611 426 611 293 C611 143 449 26 281 26 L281 25 L281 25 Z M55 581 L69 581 C105 581 140 546 140 510 L140 75 C140 39 105 4 69 4 L55 4 L55 1 L317 1 C535 1 744 129 744 293 C744 441 569 584 345 584 L55 584 L55 581 L55 581 Z " />
<glyph glyph-name="E_sc" unicode="&#x1d07;" horiz-adv-x="608" d="M450 164 L450 299 L451 299 L451 328 L450 328 L450 463 L440 463 L435 429 C428 377 373 328 322 328 L261 328 L261 557 L385 557 C437 557 498 508 511 456 L520 422 L530 422 C525 460 516 532 511 570 L513 570 L511 583 L35 583 L35 580 L51 580 C96 580 140 535 140 489 L140 94 C140 48 96 3 51 3 L35 3 L35 0 L536 0 L538 13 C544 48 556 116 562 151 L552 151 L546 132 C530 78 452 26 388 26 L349 26 C282 26 261 56 261 88 L261 299 L322 299 C373 299 428 250 435 198 L440 164 L450 164 L450 164 Z " />
<glyph glyph-name="J_sc" unicode="&#x1d0a;" horiz-adv-x="396" d="M336 583 L44 583 L44 580 L58 580 C94 580 129 545 129 509 L129 -93 C129 -153 77 -177 48 -177 C-3 -177 8 -80 -43 -80 C-71 -80 -98 -106 -98 -134 C-98 -178 -41 -220 18 -220 C101 -220 251 -118 251 137 L251 509 C251 545 286 580 322 580 L336 580 L336 583 L336 583 Z " />
<glyph glyph-name="K_sc" unicode="&#x1d0b;" horiz-adv-x="725" d="M637 583 L55 583 L55 580 L69 580 C105 580 140 545 140 509 L140 74 C140 38 105 3 69 3 L55 3 L55 0 L346 0 L346 3 L332 3 C296 3 261 38 261 74 L261 292 L492 0 L723 0 L723 3 L708 3 C672 3 611 38 583 74 L583 74 L354 369 L460 494 L461 494 C498 538 576 580 619 580 L638 580 L637 583 L637 583 Z M367 580 C427 580 440 524 396 464 L261 292 L261 509 C261 545 296 580 332 580 L367 580 L367 580 Z " />
<glyph glyph-name="M_sc" unicode="&#x1d0d;" horiz-adv-x="845" d="M810 583 L609 583 L459 163 L459 166 L275 583 L45 583 L45 580 L60 580 C89 580 127 557 150 529 L132 70 C129 35 93 2 58 2 L44 2 L44 -1 L257 -1 L257 2 L243 2 C209 2 176 33 173 66 L181 471 C254 314 327 157 400 0 L430 0 L612 479 L625 67 C622 33 590 2 556 2 L542 2 L542 -1 L833 -1 L833 2 L819 2 C783 2 746 37 745 73 L727 510 C727 545 760 579 795 579 L809 579 L810 583 L810 583 Z " />
<glyph glyph-name="O_sc" unicode="&#x1d0f;" horiz-adv-x="799" d="M176 292 C176 430 278 563 384 563 C500 563 612 430 612 292 C612 154 501 21 385 21 C278 21 176 154 176 292 L176 292 Z M44 292 C44 138 208 -10 379 -10 C565 -10 744 138 744 292 C744 446 570 593 389 593 C213 593 44 446 44 292 L44 292 Z " />
<glyph glyph-name="P_sc" unicode="&#x1d18;" horiz-adv-x="561" d="M377 3 L363 3 C327 3 292 38 292 74 L292 258 L327 258 C436 258 541 324 541 417 C541 502 453 583 362 583 L85 583 L85 580 L99 580 C135 580 170 545 170 509 L170 74 C170 38 135 3 99 3 L85 3 L85 0 L377 0 L377 3 L377 3 Z M292 284 L292 563 C292 563 321 562 331 562 C380 562 427 501 427 437 C427 347 378 284 327 284 L292 284 L292 284 Z " />
<glyph glyph-name="T_sc" unicode="&#x1d1b;" horiz-adv-x="715" d="M634 628 L632 621 C624 602 569 583 517 583 L200 583 C148 583 92 602 85 621 L83 628 L74 628 L56 583 L55 583 L55 581 L50 569 L52 569 C37 533 10 465 -5 429 L5 429 L16 448 C45 502 125 554 179 554 L297 554 L297 75 C297 39 262 4 226 4 L212 4 L212 1 L503 1 L503 4 L489 4 C453 4 418 39 418 75 L418 554 L538 554 C592 554 672 502 701 448 L712 429 L722 429 C707 465 680 533 665 569 L667 569 L643 629 L634 628 L634 628 Z " />
<glyph glyph-name="U_sc" unicode="&#x1d1c;" horiz-adv-x="717" d="M687 42 L673 38 C637 28 602 54 602 90 L602 583 L396 583 L396 580 L410 580 C446 580 481 545 481 509 L481 179 C455 122 376 68 320 68 C272 68 226 134 226 202 L226 583 L20 583 L20 580 L34 580 C70 580 105 545 105 509 L105 202 C105 94 186 -10 271 -10 C346 -10 449 56 481 124 L481 0 L542 0 L602 16 L602 16 C633 24 666 33 687 39 L687 42 L687 42 Z " />
<glyph glyph-name="V_sc" unicode="&#x1d20;" horiz-adv-x="757" d="M340 583 L-8 583 L-8 580 L3 580 C34 580 88 529 120 472 C200 311 280 150 360 -10 L384 -10 L596 459 C624 521 688 580 727 580 L740 580 L740 583 L453 583 L453 580 L481 580 C542 580 577 521 552 459 L552 459 L440 185 L277 461 C242 522 262 580 319 580 L339 580 L340 583 L340 583 Z " />
<glyph glyph-name="W_sc" unicode="&#x1d21;" horiz-adv-x="1013" d="M310 583 L-6 583 L-6 580 L5 580 C36 580 85 538 112 490 C191 323 270 156 350 -10 L381 -10 L512 342 C569 225 626 108 683 -9 L714 -9 C768 154 821 317 875 480 C892 532 948 581 989 581 L1003 581 L1003 584 L716 584 L716 581 L759 581 C809 581 842 535 831 485 L736 169 L582 480 L583 480 C557 532 582 581 633 581 L661 581 L661 584 L319 584 L319 581 L331 581 C365 581 422 532 447 480 L447 480 L491 389 L406 147 C354 258 301 369 250 480 C226 532 248 581 295 581 L311 581 L310 583 L310 583 Z " />
<glyph glyph-name="Z_sc" unicode="&#x1d22;" horiz-adv-x="592" d="M66 424 L71 443 C82 497 156 551 220 552 L220 552 L417 556 L25 24 L25 0 L546 0 L550 18 L551 18 C551 18 567 89 584 162 L574 162 L567 143 C547 91 474 40 412 34 L171 28 L550 559 L550 583 L70 583 L69 566 C68 566 62 497 56 424 L66 424 L66 424 Z " />
<glyph glyph-name="Wgrave" unicode="&#x1e80;" horiz-adv-x="1149" d="M732 750 L374 750 L374 747 L386 747 C420 747 472 702 497 653 C519 602 542 551 564 500 L451 162 L254 650 C236 700 262 746 308 746 L324 746 L324 749 L-9 749 L-9 746 L3 746 C34 746 84 700 107 650 C202 429 297 208 393 -12 L427 -12 L428 -7 L589 442 C656 291 723 140 790 -11 L824 -11 L824 -6 L1018 655 C1037 703 1087 746 1125 746 L1139 746 L1139 749 L847 749 L847 746 L890 746 C941 746 978 697 964 645 L964 645 L842 187 L645 650 C627 700 656 746 705 746 L733 746 L732 750 L732 750 Z M352 987 C352 980 381 952 411 928 L556 810 L570 825 L464 980 C442 1013 416 1045 409 1045 C383 1045 352 1014 352 987 L352 987 Z " />
<glyph glyph-name="Wacute" unicode="&#x1e82;" horiz-adv-x="1149" d="M562 811 L707 929 C737 954 766 982 766 988 C766 1015 735 1046 709 1046 C703 1046 677 1014 654 981 L548 826 L562 811 L562 811 Z M732 750 L374 750 L374 747 L386 747 C420 747 472 702 497 653 C519 602 542 551 564 500 L451 162 L254 650 C236 700 262 746 308 746 L324 746 L324 749 L-9 749 L-9 746 L3 746 C34 746 84 700 107 650 C202 429 297 208 393 -12 L427 -12 L428 -7 L589 442 C656 291 723 140 790 -11 L824 -11 L824 -6 L1018 655 C1037 703 1087 746 1125 746 L1139 746 L1139 749 L847 749 L847 746 L890 746 C941 746 978 697 964 645 L964 645 L842 187 L645 650 C627 700 656 746 705 746 L733 746 L732 750 L732 750 Z " />
<glyph glyph-name="Wdieresis" unicode="&#x1e84;" horiz-adv-x="1149" d="M634 865 C672 865 708 901 708 939 C708 977 672 1014 634 1014 C596 1014 559 977 559 939 C559 901 596 865 634 865 L634 865 Z M473 865 C511 865 548 901 548 939 C548 977 511 1014 473 1014 C435 1014 399 977 399 939 C399 901 435 865 473 865 L473 865 Z M732 750 L374 750 L374 747 L386 747 C420 747 472 702 497 653 C519 602 542 551 564 500 L451 162 L254 650 C236 700 262 746 308 746 L324 746 L324 749 L-9 749 L-9 746 L3 746 C34 746 84 700 107 650 C202 429 297 208 393 -12 L427 -12 L428 -7 L589 442 C656 291 723 140 790 -11 L824 -11 L824 -6 L1018 655 C1037 703 1087 746 1125 746 L1139 746 L1139 749 L847 749 L847 746 L890 746 C941 746 978 697 964 645 L964 645 L842 187 L645 650 C627 700 656 746 705 746 L733 746 L732 750 L732 750 Z " />
<glyph glyph-name="Etilde" unicode="&#x1ebc;" horiz-adv-x="678" d="M219 870 C219 898 238 925 257 925 C300 925 382 860 425 860 C472 860 517 929 517 1001 L496 1001 C496 970 474 941 452 941 C409 941 326 1006 283 1006 C240 1006 198 939 198 870 L219 870 L219 870 Z M31 747 L47 747 C92 747 136 702 136 656 L136 94 C136 48 92 3 47 3 L31 3 L31 0 L606 0 L609 15 L607 15 C614 51 626 118 632 154 L622 154 L616 135 C599 81 521 29 457 29 L359 29 C292 29 271 58 271 88 L271 385 L392 385 C443 385 498 336 505 284 L510 250 L520 250 L520 385 L521 385 L521 417 L520 417 L520 552 L510 552 L505 518 C498 466 443 417 392 417 L271 417 L271 721 L456 721 C508 721 569 672 582 620 L591 586 L601 586 C596 624 587 698 582 736 L583 736 L581 750 L31 750 L31 747 L31 747 Z " />
<glyph glyph-name="Ygrave" unicode="&#x1ef2;" horiz-adv-x="808" d="M211 988 C211 981 240 953 270 929 L415 811 L429 826 L323 981 C301 1014 275 1046 268 1046 C242 1046 211 1015 211 988 L211 988 Z M320 750 L-13 750 L-13 747 L-2 747 C27 747 79 712 106 674 L346 317 L346 95 C346 49 302 4 257 4 L241 4 L241 1 L586 1 L586 4 L570 4 C525 4 481 49 481 95 L481 321 L674 672 L675 672 C696 711 754 748 792 748 L811 748 L811 751 L525 751 L525 748 L573 748 C611 748 630 714 615 677 L467 363 L263 678 C242 715 256 749 293 749 L320 749 L320 750 L320 750 Z " />
<glyph glyph-name="quoteleft" unicode="&#x2018;" horiz-adv-x="638" d="M90 640 C77 640 65 632 57 620 C54 682 93 747 130 750 L120 761 C71 757 23 680 23 604 C23 568 56 533 90 533 C118 533 144 559 144 587 C144 615 118 641 90 641 L90 640 L90 640 Z " />
<glyph glyph-name="quoteright" unicode="&#x2019;" horiz-adv-x="178" d="M111 673 C111 614 70 550 28 543 L39 532 C93 542 145 621 145 694 C145 728 112 760 78 760 C50 760 24 734 24 706 C24 678 50 652 78 652 C91 652 103 660 111 672 L111 673 L111 673 Z " />
<glyph glyph-name="quotedblleft" unicode="&#x201c;" horiz-adv-x="638" d="M273 640 C260 640 248 632 240 620 C237 682 276 747 313 750 L303 761 C254 757 206 680 206 604 C206 568 239 533 273 533 C301 533 328 559 328 587 C328 615 301 641 273 641 L273 640 L273 640 Z M78 641 C65 641 53 633 45 621 C42 683 81 748 118 751 L108 762 C59 758 11 681 11 605 C11 569 44 534 78 534 C106 534 132 560 132 588 C132 616 106 642 78 642 L78 641 L78 641 Z " />
<glyph glyph-name="quotedblright" unicode="&#x201d;" horiz-adv-x="638" d="M307 674 C307 615 266 552 223 544 L234 533 C289 543 341 622 341 695 C341 729 308 761 273 761 C245 761 219 735 219 707 C219 679 245 653 273 653 C286 653 299 662 307 675 L307 674 L307 674 Z M111 674 C111 615 70 551 28 544 L39 533 C93 543 145 622 145 695 C145 729 112 761 78 761 C50 761 24 735 24 707 C24 679 50 653 78 653 C91 653 103 661 111 673 L111 674 L111 674 Z " />
<glyph glyph-name="perthousand" unicode="&#x2030;" horiz-adv-x="1152" d="M942 213 C942 288 956 361 970 361 C1002 361 1032 266 1032 168 C1032 96 1014 27 996 27 C968 27 942 118 942 213 L942 213 Z M830 192 C830 89 906 -10 986 -10 C1065 -10 1140 96 1140 207 C1140 303 1065 395 986 395 C906 395 830 296 830 192 L830 192 Z M143 574 C143 652 157 726 171 726 C203 726 233 629 233 528 C233 459 215 392 197 392 C169 392 143 481 143 574 L143 574 Z M31 552 C31 452 107 355 187 355 C266 355 341 459 341 567 C341 665 266 760 187 760 C107 760 31 658 31 552 L31 552 Z M574 213 C574 288 592 361 610 361 C649 361 686 266 686 167 C686 96 662 27 636 27 C604 27 574 118 574 213 L574 213 Z M461 191 C461 88 542 -10 626 -10 C712 -10 794 96 794 206 C794 302 712 395 626 395 C542 395 461 295 461 191 L461 191 Z M212 -16 L677 734 L626 766 L161 16 L212 -16 L212 -16 Z " />
<glyph glyph-name="fraction" unicode="&#x2044;" horiz-adv-x="481" d="M56 -16 L521 734 L469 766 L4 16 L56 -16 L56 -16 Z " />
<glyph glyph-name="Euro" unicode="&#x20ac;" horiz-adv-x="819" d="M779 -3 L779 116 L759 133 L759 133 L779 115 L779 230 L765 230 C763 225 760 215 758 210 C742 163 679 90 630 62 L630 62 C586 37 537 20 491 20 C388 20 289 130 253 267 L535 267 L547 349 L240 349 C239 366 239 383 240 400 L547 400 L559 482 L254 482 C292 617 396 726 503 726 C553 726 600 709 641 684 C687 654 743 585 758 538 C760 533 763 523 765 518 L779 518 L779 749 L773 749 C773 743 771 730 771 724 C769 692 732 682 695 704 L695 704 C641 736 572 759 489 759 C324 759 163 634 109 481 L67 481 L55 399 L91 399 C90 382 90 365 91 348 L55 348 L43 266 L108 266 C160 113 317 -12 478 -12 C561 -12 639 13 698 48 C734 65 769 52 771 20 C771 13 773 1 773 -6 L779 -3 L779 -3 Z " />
<glyph glyph-name="F_sc" unicode="&#xa730;" horiz-adv-x="583" d="M511 583 L35 583 L35 580 L51 580 C96 580 140 535 140 489 L140 94 C140 48 96 3 51 3 L35 3 L35 0 L366 0 L366 3 L350 3 C305 3 261 48 261 94 L261 299 L312 299 C363 299 418 250 425 198 L430 164 L440 164 L440 299 L441 299 L441 328 L440 328 L440 463 L430 463 L425 429 C418 377 363 328 312 328 L261 328 L261 563 L385 563 C437 563 498 514 511 462 L520 428 L530 428 C526 469 516 541 512 582 L511 583 L511 583 Z " />
<glyph glyph-name="S_sc" unicode="&#xa731;" horiz-adv-x="493" d="M48 209 L48 -34 L55 -34 C55 -26 56 -11 56 -3 C58 33 100 45 142 22 L142 22 C178 2 217 -11 251 -11 C354 -11 453 74 453 162 C453 229 380 320 287 354 C213 381 155 436 155 471 C155 517 195 562 237 562 C239 562 259 561 259 560 C312 552 379 486 396 426 C398 420 400 410 402 404 L416 404 L416 612 L409 612 C409 606 408 595 408 589 C406 562 371 552 336 568 C305 583 270 592 238 592 C148 592 61 510 61 425 C61 353 129 258 215 227 C295 198 357 151 357 126 C357 76 306 28 252 28 C250 28 198 35 199 38 C149 55 85 128 69 186 C67 192 65 202 63 208 L48 209 L48 209 Z " />
<glyph glyph-name="X_sc" unicode="&#xf078;" horiz-adv-x="736" d="M267 3 L220 3 C183 3 173 36 197 72 L327 242 C366 188 406 133 444 79 C472 40 462 3 423 3 L396 3 L396 0 L714 0 L714 3 L703 3 C674 3 621 38 592 76 L414 323 L574 505 L575 505 C609 544 679 581 717 581 L736 581 L736 584 L465 584 L465 581 L512 581 C549 581 557 548 531 511 L398 345 L283 505 C255 544 265 581 304 581 L331 581 L331 584 L14 584 L14 581 L25 581 C53 581 105 548 134 511 L310 265 C259 203 208 141 157 79 C125 40 57 3 19 3 L-1 3 L-1 0 L266 0 L267 3 L267 3 Z " />
</font>
</svg>
