<?xml version="1.0" encoding="UTF-8"?>
<svg xmlns="http://www.w3.org/2000/svg" xmlns:xlink="http://www.w3.org/1999/xlink" version="1.2" >
<font id="Sandover Light">
<font-face  font-family="Sandover" units-per-em="1024" ascent="975" descent="-300" font-style="normal" font-weight="300" font-stretch="normal" cap-height="1042" x-height="488" underline-position="-125" underline-thickness="50" />
<missing-glyph  horiz-adv-x="100" d="" />
<glyph glyph-name="NULL" d="" />
<glyph glyph-name="CR" unicode="&#xd;" horiz-adv-x="256" d="" />
<glyph glyph-name="space" unicode="&#x20;" horiz-adv-x="250" d="" />
<glyph glyph-name="exclam" unicode="&#x21;" horiz-adv-x="201" d="M101 -5 C119 -5 136 12 136 30 C136 48 119 66 101 66 C83 66 66 48 66 30 C66 12 83 -5 101 -5 L101 -5 Z M101 755 C80 755 68 714 70 671 L96 210 L105 210 L131 671 C133 714 121 755 101 755 L101 755 Z " />
<glyph glyph-name="quotedbl" unicode="&#x22;" horiz-adv-x="325" d="M216 750 C206 750 198 728 201 705 L219 560 L225 560 L243 705 C246 728 238 750 228 750 L216 750 L216 750 Z M96 750 C86 750 78 728 81 705 L99 560 L105 560 L123 705 C126 728 118 750 108 750 L96 750 L96 750 Z " />
<glyph glyph-name="numbersign" unicode="&#x23;" horiz-adv-x="534" d="M390 681 L361 479 L215 479 L244 681 L224 681 L195 479 L64 479 L58 441 L190 441 L158 219 L25 219 L19 181 L153 181 L127 0 L147 0 L173 181 L319 181 L293 0 L313 0 L339 181 L464 181 L470 219 L344 219 L376 441 L509 441 L514 479 L381 479 L410 681 L390 681 L390 681 Z M210 441 L356 441 L324 219 L178 219 L210 441 L210 441 Z " />
<glyph glyph-name="dollar" unicode="&#x24;" horiz-adv-x="546" d="M53 236 L53 1 L60 1 C60 9 61 24 61 32 C63 69 102 78 141 50 L141 50 C167 31 196 15 225 4 L225 -76 L243 -76 L243 -2 C265 -8 285 -11 305 -11 L305 -76 L323 -76 L323 -10 C419 2 506 91 506 182 C506 250 426 353 323 403 L323 728 C375 703 431 637 443 582 C445 575 447 561 449 554 L463 554 L463 753 L456 753 C456 747 455 737 455 731 C453 705 422 697 391 714 C370 727 346 738 322 746 L322 825 L304 825 L304 752 C283 758 263 761 242 761 L242 826 L224 826 L224 759 C144 746 72 663 72 577 C72 521 135 437 224 378 L224 26 C217 29 210 32 203 35 C149 61 84 145 71 208 C69 215 67 230 65 237 L53 236 L53 236 Z M303 737 L303 414 C281 425 260 437 241 450 L241 746 C261 747 282 743 303 737 L303 737 Z M241 367 C261 355 282 346 303 335 L303 11 C283 11 263 15 241 22 L241 367 L241 367 Z M321 326 C400 279 457 211 457 168 C457 95 393 25 321 13 L321 326 L321 326 Z M223 464 C159 511 116 565 116 600 C116 667 166 731 223 744 L223 464 L223 464 Z " />
<glyph glyph-name="percent" unicode="&#x25;" horiz-adv-x="797" d="M79 565 C79 657 124 745 171 745 C226 745 278 647 278 545 C278 456 231 371 182 371 C129 371 79 466 79 565 L79 565 Z M30 555 C30 453 103 355 178 355 C253 355 325 456 325 562 C325 663 253 760 178 760 C103 760 30 660 30 555 L30 555 Z M532 204 C532 294 578 380 625 380 C683 380 738 284 738 184 C738 93 688 6 636 6 C583 6 532 103 532 204 L532 204 Z M483 194 C483 90 556 -10 632 -10 C710 -10 785 93 785 201 C785 300 710 395 632 395 C556 395 483 297 483 194 L483 194 Z M189 -7 L654 743 L632 757 L167 7 L189 -7 L189 -7 Z " />
<glyph glyph-name="ampersand" unicode="&#x26;" horiz-adv-x="906" d="M311 471 L316 466 C394 490 468 562 468 613 C468 688 393 760 315 760 C232 760 153 683 153 603 C153 573 220 487 289 404 C289 404 380 299 496 163 C419 86 338 36 274 36 C186 36 101 124 101 216 C101 305 177 414 256 438 L247 441 C146 410 49 293 49 201 C49 93 145 -10 245 -10 C321 -10 418 53 508 149 C522 132 536 115 551 98 C598 42 671 -11 701 -11 C758 -11 822 66 832 147 L823 150 C815 89 766 30 722 30 C697 30 635 76 595 124 C577 145 559 166 542 186 C617 275 684 386 725 498 L713 498 C673 389 606 282 532 198 C421 329 334 428 334 428 C265 511 198 597 198 628 C198 688 256 746 316 746 C373 746 428 681 428 614 C428 558 371 487 312 469 L311 471 L311 471 Z " />
<glyph glyph-name="quotesingle" unicode="&#x27;" horiz-adv-x="204" d="M96 750 C86 750 78 728 81 705 L99 560 L105 560 L123 705 C126 728 118 750 108 750 L96 750 L96 750 Z " />
<glyph glyph-name="parenleft" unicode="&#x28;" horiz-adv-x="198" d="M182 760 C120 686 60 499 60 273 C60 47 120 -140 182 -214 L188 -209 C143 -155 99 24 99 273 C99 522 143 701 188 755 L182 760 L182 760 Z " />
<glyph glyph-name="parenright" unicode="&#x29;" horiz-adv-x="152" d="M7 754 C58 721 107 485 107 273 C107 60 58 -176 7 -209 L10 -214 C77 -170 142 68 142 273 C142 478 77 716 10 760 L7 754 L7 754 Z " />
<glyph glyph-name="asterisk" unicode="&#x2a;" horiz-adv-x="268" d="M261 675 C262 675 262 676 263 675 L261 675 L261 675 Z M245 556 C266 542 284 572 262 582 C262 582 251 563 247 556 L245 556 L245 556 Z M54 703 L39 677 C76 661 113 646 149 630 L40 583 C15 573 37 540 54 557 L147 626 L134 511 C132 487 167 487 165 511 C161 550 156 590 152 629 L247 558 L262 584 L155 630 L263 677 C283 687 269 717 249 703 L249 704 L153 633 L152 633 L166 752 C168 776 133 776 135 752 L149 635 L54 705 C32 719 17 687 38 678 C43 683 54 705 54 705 L54 703 L54 703 Z " />
<glyph glyph-name="plus" unicode="&#x2b;" horiz-adv-x="620" d="M291 460 L291 268 L100 268 L100 232 L291 232 L291 40 L329 40 L329 232 L520 232 L520 268 L329 268 L329 460 L291 460 L291 460 Z " />
<glyph glyph-name="comma" unicode="&#x2c;" horiz-adv-x="261" d="M168 26 C170 16 171 5 171 -6 C171 -55 119 -102 65 -102 L65 -114 C129 -114 191 -53 191 11 C191 55 169 97 142 110 C105 127 66 87 66 53 C66 22 95 -7 126 -7 C143 -7 160 6 169 24 L168 26 L168 26 Z " />
<glyph glyph-name="hyphen" unicode="&#x2d;" horiz-adv-x="430" d="M80 264 L350 264 L350 306 L80 306 L80 264 L80 264 Z " />
<glyph glyph-name="period" unicode="&#x2e;" horiz-adv-x="195" d="M125 -5 C143 -5 160 12 160 30 C160 48 143 66 125 66 C107 66 90 48 90 30 C90 12 107 -5 125 -5 L125 -5 Z " />
<glyph glyph-name="slash" unicode="&#x2f;" horiz-adv-x="379" d="M319 770 L37 -80 L67 -80 L349 770 L319 770 L319 770 Z " />
<glyph glyph-name="zero" unicode="0" horiz-adv-x="606" d="M73 250 C73 360 187 489 305 489 C411 489 537 372 537 250 C537 140 423 11 305 11 C199 11 73 128 73 250 L73 250 Z M49 250 C49 117 187 -10 305 -10 C436 -10 561 131 561 250 C561 383 423 510 305 510 C174 510 49 369 49 250 L49 250 Z " />
<glyph glyph-name="one" unicode="1" horiz-adv-x="330" d="M275 3 L261 3 C225 3 190 38 190 74 L190 426 C190 462 225 497 261 497 L275 497 L275 500 L55 500 L55 497 L69 497 C105 497 140 462 140 426 L140 74 C140 38 105 3 69 3 L55 3 L55 0 L275 0 L275 3 L275 3 Z " />
<glyph glyph-name="two" unicode="2" horiz-adv-x="527" d="M56 291 C74 383 161 472 234 472 C307 472 378 403 378 331 C378 248 235 127 91 42 C86 40 80 37 74 33 C56 23 39 14 22 5 L28 1 C26 0 24 0 22 0 L424 0 L452 44 L493 103 L495 109 L488 99 C468 71 406 44 362 44 L109 44 C268 137 425 263 425 343 C425 428 343 510 258 510 C170 510 64 404 43 294 L56 291 L56 291 Z " />
<glyph glyph-name="three" unicode="3" horiz-adv-x="409" d="M18 -222 L20 -232 C198 -213 369 -101 369 -2 C369 83 248 164 120 167 C252 228 372 321 372 384 C372 448 295 510 214 510 C135 510 41 432 22 351 L33 348 C48 413 127 475 194 475 C258 475 319 422 319 367 C319 303 208 215 93 166 L93 156 C94 157 95 158 96 159 C94 158 93 157 92 157 C206 141 315 56 315 -16 C315 -105 169 -205 17 -221 L18 -222 L18 -222 Z " />
<glyph glyph-name="four" unicode="4" horiz-adv-x="620" d="M602 108 L599 97 C592 67 554 38 521 38 L415 38 L415 530 L409 530 L15 9 L15 0 L365 0 L365 -220 L415 -220 L415 0 L517 0 C550 0 581 -23 580 -47 L580 -55 C580 -55 587 -58 588 -58 C591 -38 596 -1 599 19 L598 19 C601 41 607 82 610 104 L602 108 L602 108 Z M366 443 L365 442 L365 38 L61 38 L366 443 L366 443 Z " />
<glyph glyph-name="five" unicode="5" horiz-adv-x="428" d="M60 -232 C232 -211 398 -74 398 47 C398 160 249 268 93 268 L83 268 L121 455 L340 457 L344 478 C348 498 355 535 359 555 L351 555 L348 547 C341 523 303 500 270 500 L111 500 L56 223 L65 215 L88 215 C224 215 354 124 354 30 C354 -81 209 -205 59 -223 L60 -232 L60 -232 Z " />
<glyph glyph-name="six" unicode="6" horiz-adv-x="567" d="M550 750 C300 697 59 470 59 287 C59 136 174 -10 294 -10 C407 -10 515 112 515 239 C515 354 401 464 282 464 C222 464 163 425 129 371 C188 538 367 703 552 742 L550 750 L550 750 Z M108 259 C108 355 191 448 277 448 C373 448 466 347 466 241 C466 120 381 3 292 3 C198 3 108 128 108 259 L108 259 Z " />
<glyph glyph-name="seven" unicode="7" horiz-adv-x="447" d="M105 554 C96 535 79 499 70 480 L69 480 C60 461 46 426 37 407 C38 407 44 399 43 400 L48 409 C62 435 108 460 141 460 L416 460 L116 -220 L154 -220 L442 485 L442 500 L159 500 C126 500 101 520 108 540 L110 547 C110 547 107 552 105 554 L105 554 Z " />
<glyph glyph-name="eight" unicode="8" horiz-adv-x="543" d="M238 384 C245 381 252 378 259 375 C364 333 465 265 465 197 C465 98 372 2 276 2 C182 2 92 86 92 174 C92 249 162 347 239 383 L238 384 L238 384 Z M226 390 C132 344 48 245 48 174 C48 80 160 -10 276 -10 C392 -10 504 82 504 177 C504 276 412 358 308 407 C397 449 477 536 477 596 C477 679 378 759 274 759 C171 759 73 672 73 582 C73 516 144 434 226 390 L226 390 Z M297 412 C290 415 283 418 276 421 C192 455 112 538 112 602 C112 679 195 753 282 753 C359 753 433 675 433 593 C433 530 368 446 296 412 L297 412 L297 412 Z " />
<glyph glyph-name="nine" unicode="9" horiz-adv-x="567" d="M17 -250 C267 -197 508 30 508 213 C508 364 393 510 273 510 C160 510 52 388 52 261 C52 146 166 36 285 36 C345 36 404 75 438 129 C379 -38 200 -203 15 -242 L17 -250 L17 -250 Z M459 241 C459 145 376 52 290 52 C194 52 101 153 101 259 C101 380 186 497 275 497 C369 497 459 372 459 241 L459 241 Z " />
<glyph glyph-name="colon" unicode="&#x3a;" horiz-adv-x="135" d="M125 385 C143 385 160 402 160 420 C160 438 143 456 125 456 C107 456 90 438 90 420 C90 402 107 385 125 385 L125 385 Z M125 -5 C143 -5 160 12 160 30 C160 48 143 66 125 66 C107 66 90 48 90 30 C90 12 107 -5 125 -5 L125 -5 Z " />
<glyph glyph-name="semicolon" unicode="&#x3b;" horiz-adv-x="261" d="M125 385 C143 385 160 402 160 420 C160 438 143 456 125 456 C107 456 90 438 90 420 C90 402 107 385 125 385 L125 385 Z M168 26 C170 16 171 5 171 -6 C171 -55 119 -102 65 -102 L65 -114 C129 -114 191 -53 191 11 C191 55 169 97 142 110 C105 127 66 87 66 53 C66 22 95 -7 126 -7 C143 -7 160 6 169 24 L168 26 L168 26 Z " />
<glyph glyph-name="equal" unicode="&#x3d;" horiz-adv-x="528" d="M78 211 L78 189 L458 189 L458 211 L78 211 L78 211 Z M78 311 L78 289 L458 289 L458 311 L78 311 L78 311 Z " />
<glyph glyph-name="question" unicode="&#x3f;" horiz-adv-x="305" d="M125 -5 C143 -5 160 12 160 30 C160 48 143 66 125 66 C107 66 90 48 90 30 C90 12 107 -5 125 -5 L125 -5 Z M121 175 C121 175 123 359 125 360 C196 360 249 406 281 453 C295 474 309 523 309 553 C309 659 229 760 145 760 C121 760 98 742 98 723 C98 710 111 698 125 698 C135 698 153 707 163 707 C230 707 295 629 295 547 C295 530 283 495 270 476 C247 442 198 410 108 410 C111 411 113 175 113 175 L121 175 L121 175 Z " />
<glyph glyph-name="at" unicode="&#x40;" horiz-adv-x="1139" d="M1044 0 C987 -122 757 -240 575 -240 C330 -240 94 5 94 259 C94 513 327 757 570 757 C812 757 1045 554 1045 343 C1045 170 950 4 852 4 C751 4 677 100 702 200 L772 480 L725 480 L701 384 C688 441 633 490 576 490 C435 490 299 346 299 197 C299 103 383 13 471 13 C537 13 616 75 652 148 C660 60 741 -13 844 -13 C967 -13 1085 161 1085 343 C1085 561 833 770 571 770 C308 770 56 520 56 259 C56 0 316 -248 587 -248 C770 -248 1003 -126 1062 0 L1044 0 L1044 0 Z M695 356 L656 200 C636 119 558 41 497 41 C424 41 353 122 353 207 C353 344 462 476 575 476 C636 476 695 418 696 356 L695 356 L695 356 Z " />
<glyph glyph-name="A" unicode="A" horiz-adv-x="753" d="M462 0 L752 0 L752 3 L738 3 C699 3 645 56 623 114 C557 333 493 553 424 771 L419 771 C422 755 401 736 377 733 L380 723 L181 117 C157 58 85 4 29 4 L9 4 L9 1 L295 1 L295 4 L275 4 C217 4 180 63 200 125 L200 125 L252 288 L511 288 L562 117 C575 58 537 4 482 4 L462 4 L462 0 L462 0 Z M257 303 L386 704 L506 303 L257 303 L257 303 Z " />
<glyph glyph-name="B" unicode="B" horiz-adv-x="632" d="M316 6 L266 6 C239 6 214 47 214 89 L214 385 L321 385 C426 385 527 293 527 198 C527 66 424 6 316 6 L316 6 Z M70 747 L84 747 C120 747 155 712 155 676 L155 74 C155 38 120 3 84 3 L70 3 L70 0 L334 0 C466 0 592 62 592 198 C592 290 494 380 385 393 C490 417 576 491 576 568 C576 660 490 749 299 749 L70 749 L70 747 L70 747 Z M308 394 L214 394 L214 737 L275 737 C442 737 517 651 517 562 C517 476 415 394 308 394 L308 394 Z " />
<glyph glyph-name="C" unicode="C" horiz-adv-x="706" d="M661 2 L661 216 L647 216 C645 210 643 197 641 191 C628 138 564 62 509 36 L509 36 C468 17 423 5 379 5 C250 5 126 187 126 376 C126 565 255 746 390 746 C434 746 475 735 512 717 L512 717 C565 692 628 615 641 560 C643 554 645 541 647 535 L661 535 L661 746 L654 746 C654 740 653 727 653 721 C651 689 612 682 574 706 L574 706 C522 739 458 762 384 762 C219 762 61 573 61 377 C61 181 214 -8 374 -8 C446 -8 517 16 574 50 C613 71 651 62 653 30 C653 23 654 11 654 4 L661 2 L661 2 Z M652 131 L652 131 L652 131 L652 131 Z " />
<glyph glyph-name="D" unicode="D" horiz-adv-x="810" d="M276 12 C229 12 214 49 214 88 L214 738 L287 738 C513 738 690 560 690 375 C690 171 487 12 276 12 L276 12 Z M70 747 L84 747 C120 747 155 712 155 676 L155 74 C155 38 120 3 84 3 L70 3 L70 0 L294 0 C529 0 755 165 755 375 C755 566 570 750 334 750 L70 750 L70 747 L70 747 Z " />
<glyph glyph-name="E" unicode="E" horiz-adv-x="582" d="M416 534 L411 500 C404 448 349 399 298 399 L175 399 L175 738 L359 738 C410 738 471 689 484 637 L493 603 L503 603 C499 639 491 708 487 744 L486 744 L485 750 L11 750 L11 747 L27 747 C72 747 116 702 116 656 L116 94 C116 48 72 3 27 3 L11 3 L11 0 L510 0 L511 6 L512 6 C518 40 529 104 535 138 L525 138 L519 119 C502 65 424 13 360 13 L263 13 C196 13 175 50 175 88 L175 385 L298 385 C349 385 404 336 411 284 L416 250 L426 250 L426 534 L416 534 L416 534 Z " />
<glyph glyph-name="F" unicode="F" horiz-adv-x="596" d="M454 250 L454 534 L444 534 L439 500 C432 448 377 399 326 399 L214 399 L214 740 L397 740 C448 740 509 691 522 639 L531 605 L541 605 C536 641 528 709 524 745 L525 745 L524 750 L50 750 L50 747 L66 747 C111 747 155 702 155 656 L155 94 C155 48 111 3 66 3 L50 3 L50 0 L319 0 L319 3 L303 3 C258 3 214 48 214 94 L214 385 L326 385 C377 385 432 336 439 284 L444 250 L454 250 L454 250 Z " />
<glyph glyph-name="G" unicode="G" horiz-adv-x="781" d="M661 534 L661 745 L654 745 C654 739 653 726 653 720 C651 688 612 681 574 705 L574 705 C522 738 458 761 384 761 C219 761 61 572 61 376 C61 180 216 -9 378 -9 C502 -9 639 26 717 62 L713 70 C692 60 667 51 639 42 L639 217 C639 271 679 323 720 323 L734 323 L734 326 L485 326 L485 323 L499 323 C540 323 580 271 580 217 C580 170 580 117 580 78 C573 44 502 12 421 5 C446 7 478 10 506 13 C467 7 427 3 388 3 C254 3 126 186 126 376 C126 565 255 746 390 746 C434 746 475 735 512 717 L512 717 C565 692 628 615 641 560 C643 554 645 541 647 535 L661 534 L661 534 Z M421 4 C410 3 399 2 388 2 C397 2 409 3 422 4 L421 4 L421 4 Z " />
<glyph glyph-name="H" unicode="H" horiz-adv-x="756" d="M696 3 L682 3 C646 3 611 38 611 74 L611 676 C611 712 646 747 682 747 L696 747 L696 750 L467 750 L467 747 L481 747 C517 747 552 712 552 676 L552 398 L186 398 L186 676 C186 712 221 747 257 747 L271 747 L271 750 L42 750 L42 747 L56 747 C92 747 127 712 127 676 L127 74 C127 38 92 3 56 3 L42 3 L42 0 L271 0 L271 3 L257 3 C221 3 186 38 186 74 L186 383 L552 383 L552 74 C552 38 517 3 481 3 L467 3 L467 0 L696 0 L696 3 L696 3 Z " />
<glyph glyph-name="I" unicode="I" horiz-adv-x="340" d="M280 3 L266 3 C230 3 195 38 195 74 L195 676 C195 712 230 747 266 747 L280 747 L280 750 L52 750 L52 747 L66 747 C102 747 137 712 137 676 L137 74 C137 38 102 3 66 3 L52 3 L52 0 L280 0 L280 3 L280 3 Z " />
<glyph glyph-name="J" unicode="J" horiz-adv-x="364" d="M304 750 L76 750 L76 747 L90 747 C125 747 159 714 161 679 C161 518 160 123 160 -34 C160 -152 90 -199 51 -199 C26 -199 32 -152 7 -152 C-7 -152 -20 -165 -20 -178 C-20 -199 7 -220 36 -220 C102 -220 220 -135 220 78 C220 209 219 535 219 679 C221 714 255 747 290 747 L304 747 L304 750 L304 750 Z " />
<glyph glyph-name="K" unicode="K" horiz-adv-x="717" d="M299 750 L70 750 L70 747 L84 747 C120 747 155 712 155 676 L155 74 C155 38 120 3 84 3 L70 3 L70 0 L299 0 L299 3 L285 3 C249 3 214 38 214 74 L214 375 L556 0 L714 0 L714 3 L700 3 C665 3 603 35 569 69 L260 411 L475 660 L476 660 C514 704 592 746 635 746 L654 746 L654 749 L373 749 L373 746 L405 746 C466 746 476 687 424 625 L424 625 L214 374 L214 675 C214 711 249 746 285 746 L299 746 L299 750 L299 750 Z " />
<glyph glyph-name="L" unicode="L" horiz-adv-x="629" d="M578 135 L568 135 L562 116 C545 62 467 10 403 10 L307 10 C240 10 219 48 219 88 L219 676 C219 712 254 747 290 747 L304 747 L304 750 L76 750 L76 747 L90 747 C126 747 161 712 161 676 L161 74 C161 38 126 3 90 3 L76 3 L76 0 L554 0 C561 35 572 100 578 135 L578 135 Z " />
<glyph glyph-name="M" unicode="M" horiz-adv-x="863" d="M828 750 L687 750 L457 76 L206 750 L51 750 L51 747 L65 747 C95 747 134 723 154 694 L137 74 C136 38 100 3 64 3 L50 3 L50 0 L240 0 L240 3 L226 3 C190 3 156 38 157 74 L157 74 L170 663 L432 0 L447 0 L448 5 L690 694 C695 487 700 280 705 74 C706 38 672 3 636 3 L622 3 L622 0 L851 0 L851 3 L837 3 C801 3 765 38 764 74 L764 74 L746 680 C748 714 781 746 816 746 L830 746 L828 750 L828 750 Z " />
<glyph glyph-name="N" unicode="N" horiz-adv-x="740" d="M14 747 L28 747 C61 747 114 717 141 684 L141 74 C141 38 106 3 70 3 L56 3 L56 0 L243 0 L243 3 L229 3 C193 3 158 38 158 74 L158 74 L156 662 C305 441 454 219 604 -1 L616 -1 L620 675 L620 675 C620 711 655 746 691 746 L705 746 L705 749 L518 749 L518 746 L532 746 C568 746 603 711 603 675 L604 104 L599 111 L169 749 L13 749 L14 747 L14 747 Z " />
<glyph glyph-name="O" unicode="O" horiz-adv-x="806" d="M125 375 C125 564 259 745 398 745 C545 745 687 564 687 375 C687 186 543 5 394 5 C257 5 125 186 125 375 L125 375 Z M61 375 C61 179 223 -10 391 -10 C575 -10 751 179 751 375 C751 571 580 760 401 760 C228 760 61 571 61 375 L61 375 Z " />
<glyph glyph-name="P" unicode="P" horiz-adv-x="526" d="M262 3 L248 3 C212 3 177 38 177 74 L177 353 L227 353 C369 353 506 431 506 541 C506 648 394 750 277 750 L33 750 L33 747 L47 747 C83 747 118 712 118 676 L118 74 C118 38 83 3 47 3 L33 3 L33 0 L262 0 L262 3 L262 3 Z M177 365 L177 740 L262 740 C358 740 451 647 451 550 C451 441 341 365 227 365 L177 365 L177 365 Z " />
<glyph glyph-name="Q" unicode="Q" horiz-adv-x="801" d="M1101 -47 L1097 -42 C1070 -65 923 -87 798 -87 C641 -87 436 -49 355 -7 C367 -9 379 -10 391 -10 C575 -10 751 179 751 375 C751 571 580 760 401 760 C228 760 61 571 61 375 C61 214 170 58 302 7 C408 -66 646 -136 789 -136 C894 -136 1046 -92 1100 -47 L1101 -47 L1101 -47 Z M124 375 C124 564 258 745 397 745 C544 745 686 564 686 375 C686 182 535 -3 377 -3 C248 -3 124 182 124 375 L124 375 Z " />
<glyph glyph-name="R" unicode="R" horiz-adv-x="718" d="M70 747 L84 747 C120 747 155 712 155 676 L155 74 C155 38 120 3 84 3 L70 3 L70 0 L299 0 L299 3 L285 3 C249 3 214 38 214 74 L214 365 L350 365 C365 330 437 194 510 63 C538 12 575 0 708 0 L708 2 C630 2 607 13 579 63 C504 199 431 331 409 370 C496 389 568 453 568 538 C568 645 463 748 353 748 L70 748 L70 747 L70 747 Z M214 378 L214 736 L335 736 C421 736 503 645 503 550 C503 449 430 378 353 378 L214 378 L214 378 Z " />
<glyph glyph-name="S" unicode="S" horiz-adv-x="546" d="M463 554 L463 753 L456 753 C456 747 455 737 455 731 C453 705 422 697 391 714 C347 741 292 760 245 760 C157 760 72 670 72 576 C72 508 165 399 283 344 C381 298 458 215 458 165 C458 85 381 9 301 9 C271 9 237 18 204 34 C150 60 85 144 72 207 C70 214 68 229 66 236 L52 236 L52 1 L59 1 C59 9 60 24 60 32 C62 69 101 78 140 50 L140 50 C190 14 251 -10 301 -10 C405 -10 505 85 505 183 C505 252 423 357 318 406 C205 459 117 548 117 598 C117 673 180 745 245 745 C248 745 304 740 303 736 C360 720 429 644 442 582 C444 575 446 561 448 554 L463 554 L463 554 Z " />
<glyph glyph-name="T" unicode="T" horiz-adv-x="775" d="M694 795 L692 788 C684 769 629 750 577 750 L200 750 C148 750 92 769 85 788 L83 795 L74 795 C70 783 62 764 56 750 L55 750 L55 747 C54 745 53 743 52 742 L53 742 C39 708 13 644 -1 610 L9 610 L20 629 C49 683 129 735 183 735 L357 735 L357 74 C357 38 322 3 286 3 L272 3 L272 0 L501 0 L501 3 L487 3 C451 3 416 38 416 74 L416 735 L592 735 C646 735 726 683 755 629 L766 610 L776 610 C762 644 736 708 722 742 L723 742 C718 756 708 781 702 795 L694 795 L694 795 Z " />
<glyph glyph-name="U" unicode="U" horiz-adv-x="698" d="M668 34 L654 30 C618 20 583 46 583 82 L583 750 L439 750 L439 747 L453 747 C489 747 524 712 524 676 L524 176 C489 101 374 28 289 28 C233 28 179 122 179 220 L179 750 L35 750 L35 747 L49 747 C85 747 120 712 120 676 L120 220 C120 103 191 -10 265 -10 C359 -10 486 68 524 149 L524 0 L553 0 C556 0 583 7 583 8 C612 16 647 25 668 31 L668 34 L668 34 Z " />
<glyph glyph-name="V" unicode="V" horiz-adv-x="772" d="M743 750 L480 750 L480 747 L508 747 C570 747 607 688 585 626 L585 626 L387 79 C323 261 258 444 195 626 C173 688 208 747 266 747 L286 747 L286 750 L9 750 L9 747 L20 747 C52 747 105 688 127 626 L127 626 C203 414 279 202 355 -10 L367 -10 L610 634 C635 693 691 747 728 747 L742 747 L743 750 L743 750 Z " />
<glyph glyph-name="W" unicode="W" horiz-adv-x="1115" d="M1078 750 L816 750 L816 747 L859 747 C909 747 943 702 932 652 L766 82 L593 655 C583 704 617 748 666 748 L694 748 L694 751 L420 751 L420 748 L432 748 C465 748 511 704 529 655 L578 501 L393 72 C332 264 269 456 208 647 C191 699 221 748 268 748 L284 748 L284 751 L35 751 L35 748 L46 748 C79 748 126 699 143 647 L143 647 C215 428 288 210 358 -10 L373 -10 L586 475 C637 313 688 151 739 -10 L754 -10 C820 209 885 428 952 646 C968 698 1022 747 1063 747 L1077 747 L1078 750 L1078 750 Z " />
<glyph glyph-name="X" unicode="X" horiz-adv-x="787" d="M764 750 L520 750 L520 747 L567 747 C603 747 617 715 598 679 L417 407 L247 678 C229 714 244 747 281 747 L308 747 L308 750 L66 750 L66 747 L76 747 C106 747 159 710 183 671 L183 671 L376 362 L176 73 C147 36 89 3 52 3 L33 3 L33 0 L275 0 L275 3 L228 3 C189 3 177 40 203 79 L203 79 L384 350 L558 72 C577 35 562 2 525 2 L498 2 L498 -1 L741 -1 L741 2 L731 2 C701 2 648 39 624 78 L623 78 L425 394 L620 674 C648 711 708 745 746 745 L765 745 L764 750 L764 750 Z " />
<glyph glyph-name="Y" unicode="Y" horiz-adv-x="762" d="M291 750 L49 750 L49 747 L59 747 C88 747 135 715 160 679 L371 329 L371 94 C371 48 327 3 282 3 L266 3 L266 0 L535 0 L535 3 L519 3 C474 3 430 48 430 94 L430 331 C492 444 554 558 617 671 C638 710 696 747 734 747 L753 747 L753 750 L506 750 L506 747 L554 747 C592 747 610 710 590 671 L590 671 L424 350 L232 672 C210 711 225 747 264 747 L291 747 L291 750 L291 750 Z " />
<glyph glyph-name="Z" unicode="Z" horiz-adv-x="652" d="M640 143 L630 143 L623 124 C603 73 530 23 468 17 L95 13 L610 738 L610 750 L70 750 L69 734 C69 734 61 649 58 609 L68 609 L73 628 C85 682 159 735 223 736 L547 738 L26 12 L26 0 L607 0 C612 11 622 63 641 142 L640 143 L640 143 Z " />
<glyph glyph-name="bracketleft" unicode="&#x5b;" horiz-adv-x="285" d="M125 735 L335 735 L335 750 L108 750 L108 -195 L335 -195 L335 -180 L125 -180 L125 735 L125 735 Z " />
<glyph glyph-name="backslash" unicode="&#x5c;" horiz-adv-x="337" d="M37 770 L297 -80 L327 -80 L67 770 L37 770 L37 770 Z " />
<glyph glyph-name="bracketright" unicode="&#x5d;" horiz-adv-x="288" d="M161 735 L161 -180 L-49 -180 L-49 -195 L178 -195 L178 750 L-49 750 L-49 735 L161 735 L161 735 Z " />
<glyph glyph-name="asciicircum" unicode="&#x5e;" horiz-adv-x="340" d="M188 765 C185 770 175 783 170 783 C165 783 155 770 152 765 L21 563 L28 558 L170 726 L312 558 L319 563 L188 765 L188 765 Z " />
<glyph glyph-name="underscore" unicode="&#x5f;" horiz-adv-x="455" d="M5 -50 L5 -78 L450 -78 L450 -50 L5 -50 L5 -50 Z " />
<glyph glyph-name="grave" unicode="&#x60;" horiz-adv-x="340" d="M-36 755 C-36 750 -2 717 34 686 L173 563 L180 570 L57 709 C26 745 -7 779 -12 779 C-23 779 -36 766 -36 755 L-36 755 Z " />
<glyph glyph-name="a" unicode="a" horiz-adv-x="513" d="M523 77 L512 83 C507 56 480 31 457 31 C428 31 400 56 400 81 C400 81 400 359 399 358 C399 447 332 510 263 510 C166 510 73 406 73 360 C73 342 85 325 98 325 C115 325 131 341 131 350 C131 361 111 383 111 392 C111 424 177 495 245 495 C299 495 350 446 350 377 L350 265 C145 202 53 151 53 80 C53 34 109 -10 168 -10 C207 -10 284 28 349 88 C349 39 388 -5 436 -5 C472 -5 515 35 522 77 L523 77 L523 77 Z M349 253 L349 99 C295 48 229 17 194 17 C148 17 103 51 103 86 C103 156 179 201 349 253 L349 253 Z " />
<glyph glyph-name="b" unicode="b" horiz-adv-x="528" d="M75 743 L75 742 C53 736 26 729 10 725 L10 719 L20 721 C48 725 75 696 75 663 L75 222 L73 126 C74 124 75 122 76 120 L76 76 L76 1 L79 1 L100 76 L103 76 C143 28 213 -9 274 -9 C381 -9 484 119 484 252 C484 382 377 506 266 506 C226 506 160 467 126 424 L126 751 L101 751 C95 748 86 744 76 744 L75 743 L75 743 Z M126 112 L126 409 C158 449 214 485 246 485 C339 485 429 368 429 247 C429 122 355 2 278 2 C222 2 152 55 127 113 L126 112 L126 112 Z " />
<glyph glyph-name="c" unicode="c" horiz-adv-x="465" d="M435 128 L428 131 C403 75 322 21 262 21 C177 21 95 140 95 264 C95 384 175 499 259 499 C306 499 368 453 385 405 C390 392 402 380 410 380 C427 380 440 392 435 405 C416 459 331 510 262 510 C151 510 45 377 45 239 C45 112 143 -10 245 -10 C311 -10 404 58 435 128 L435 128 Z " />
<glyph glyph-name="d" unicode="d" horiz-adv-x="592" d="M377 720 L387 722 C415 726 442 697 442 664 L442 449 C403 483 347 510 298 510 C156 510 45 385 45 254 C45 122 157 -5 273 -5 C330 -5 410 32 441 72 L441 0 L466 0 C494 8 548 22 576 30 L576 33 L562 29 C526 19 491 45 491 81 L491 750 L466 750 C443 744 399 732 376 726 L377 720 L377 720 Z M441 375 L441 89 C412 51 341 16 293 16 C192 16 95 139 95 267 C95 383 186 495 303 495 C355 495 424 430 441 375 L441 375 Z " />
<glyph glyph-name="e" unicode="e" horiz-adv-x="530" d="M109 340 L500 340 C482 444 385 510 296 510 C168 510 45 403 45 235 C45 110 157 -10 273 -10 C356 -10 462 61 489 134 L483 135 C462 78 365 23 285 23 C190 23 98 137 98 255 C98 286 102 314 109 340 L109 340 Z M442 355 L113 352 C144 444 218 499 293 499 C353 499 421 443 442 354 L442 355 L442 355 Z " />
<glyph glyph-name="f" unicode="f" horiz-adv-x="342" d="M244 3 L215 3 C197 3 179 21 179 39 L179 474 L332 474 L332 500 L179 500 C179 622 230 740 296 740 C329 740 376 635 404 635 C427 635 449 657 449 680 C449 718 383 755 314 755 C210 755 129 630 129 500 L26 480 L26 474 L129 474 L129 39 C129 21 111 3 93 3 L64 3 L64 0 L244 0 L244 3 L244 3 Z " />
<glyph glyph-name="g" unicode="g" horiz-adv-x="520" d="M540 459 C540 474 524 489 508 489 C473 489 430 459 413 424 C381 473 321 510 259 510 C169 510 83 432 83 350 C83 282 141 217 212 196 C130 185 60 147 60 108 C60 68 105 30 158 21 C102 3 52 -49 52 -91 C52 -161 158 -228 268 -228 C378 -228 484 -154 484 -77 C484 -3 413 69 300 69 L185 69 C136 69 88 96 88 124 C88 158 172 190 259 190 C371 190 476 309 417 417 C431 440 456 459 477 459 C487 459 508 439 518 439 C529 439 539 450 539 461 L540 459 L540 459 Z M259 202 C195 202 133 276 133 352 C133 427 195 500 259 500 C323 500 385 427 385 352 C385 276 323 202 259 202 L259 202 Z M168 20 C173 20 178 20 183 20 L296 20 C387 20 444 -32 444 -87 C444 -153 360 -216 272 -216 C181 -216 94 -148 94 -78 C94 -40 129 4 169 21 L168 20 L168 20 Z " />
<glyph glyph-name="h" unicode="h" horiz-adv-x="537" d="M28 720 L38 722 C66 726 93 697 93 664 L93 39 C93 21 75 3 57 3 L28 3 L28 0 L208 0 L208 3 L179 3 C161 3 143 21 143 39 L143 362 C176 420 250 475 294 475 C349 475 392 421 392 365 L392 39 C392 21 374 3 356 3 L327 3 L327 0 L507 0 L507 3 L478 3 C460 3 442 21 442 39 L442 365 C442 439 389 510 322 510 C270 510 182 444 143 376 L143 750 L118 750 C95 744 51 732 28 726 L28 720 L28 720 Z " />
<glyph glyph-name="i" unicode="i" horiz-adv-x="248" d="M128 615 C144 615 160 631 160 647 C160 664 144 680 128 680 C112 680 96 664 96 647 C96 631 112 615 128 615 L128 615 Z M38 470 L48 472 C76 476 103 447 103 414 L103 39 C103 21 85 3 67 3 L38 3 L38 0 L218 0 L218 3 L189 3 C171 3 153 21 153 39 L153 500 L128 500 C105 494 61 482 38 476 L38 470 L38 470 Z " />
<glyph glyph-name="j" unicode="j" horiz-adv-x="235" d="M120 614 C136 614 152 630 152 646 C152 663 136 679 120 679 C104 679 88 663 88 646 C88 630 104 614 120 614 L120 614 Z M95 493 L95 492 C73 486 46 479 30 475 L30 469 L40 471 C68 475 95 446 95 413 L95 30 C95 -34 73 -109 50 -122 C22 -122 -32 -99 -60 -99 C-83 -99 -105 -119 -105 -139 C-105 -164 -76 -186 -45 -184 C-39 -184 12 -157 60 -129 C103 -104 145 -26 145 30 L145 501 L120 501 C114 498 105 494 95 494 L95 493 L95 493 Z " />
<glyph glyph-name="k" unicode="k" horiz-adv-x="480" d="M497 501 L404 501 L403 500 L404 501 L219 501 L219 498 L270 498 C332 498 323 439 253 377 L254 377 L143 280 L143 750 L118 750 C95 744 51 732 28 726 L28 720 L38 722 C66 726 93 697 93 664 L93 39 C93 21 75 3 57 3 L28 3 L28 0 L208 0 L208 3 L179 3 C161 3 143 21 143 39 L143 280 L322 55 C339 28 334 4 310 4 L301 4 L301 1 L365 1 L366 0 L430 0 L429 1 L478 1 L478 4 L470 4 C449 4 401 39 372 75 L371 75 L190 303 L326 423 C376 463 449 499 483 499 L496 499 L497 501 L497 501 Z " />
<glyph glyph-name="l" unicode="l" horiz-adv-x="238" d="M28 720 L38 722 C66 726 93 697 93 664 L93 39 C93 21 75 3 57 3 L28 3 L28 0 L208 0 L208 3 L179 3 C161 3 143 21 143 39 L143 750 L118 750 C95 744 51 732 28 726 L28 720 L28 720 Z " />
<glyph glyph-name="m" unicode="m" horiz-adv-x="832" d="M28 470 L38 472 C66 476 93 447 93 414 L93 39 C93 21 75 3 57 3 L28 3 L28 0 L208 0 L208 3 L179 3 C161 3 143 21 143 39 L143 367 C174 421 244 473 286 473 C350 473 390 420 390 365 L390 39 C390 21 372 3 354 3 L325 3 L325 0 L505 0 L505 3 L476 3 C458 3 440 21 440 39 L440 365 C440 367 440 369 440 371 C473 424 541 473 583 473 C647 473 687 420 687 365 L687 40 C687 22 669 4 651 4 L622 4 L622 1 L687 1 L687 0 L737 0 L737 1 L802 1 L802 4 L773 4 C755 4 737 22 737 40 L737 365 C737 439 685 510 603 510 C557 510 478 449 439 384 C431 451 381 510 306 510 C261 510 181 447 143 381 L143 500 L118 500 C95 494 51 482 28 476 L28 470 L28 470 Z " />
<glyph glyph-name="n" unicode="n" horiz-adv-x="535" d="M28 470 L38 472 C66 476 93 447 93 414 L93 39 C93 21 75 3 57 3 L28 3 L28 0 L208 0 L208 3 L179 3 C161 3 143 21 143 39 L143 362 C176 419 241 473 277 473 C340 473 390 403 390 330 L390 39 C390 21 372 3 354 3 L325 3 L325 0 L505 0 L505 3 L476 3 C458 3 440 21 440 39 L440 330 C440 422 381 510 306 510 C262 510 182 444 143 376 L143 500 L118 500 C95 494 51 482 28 476 L28 470 L28 470 Z " />
<glyph glyph-name="o" unicode="o" horiz-adv-x="604" d="M100 250 C100 375 199 495 302 495 C405 495 504 375 504 250 C504 125 405 5 302 5 C199 5 100 125 100 250 L100 250 Z M45 250 C45 117 171 -10 302 -10 C433 -10 559 117 559 250 C559 383 433 510 302 510 C171 510 45 383 45 250 L45 250 Z " />
<glyph glyph-name="p" unicode="p" horiz-adv-x="536" d="M13 470 L23 472 C51 476 78 447 78 414 L78 -181 C78 -199 60 -217 42 -217 L13 -217 L13 -220 L193 -220 L193 -217 L164 -217 C146 -217 128 -199 128 -181 L128 56 C162 20 208 -5 248 -5 C372 -5 491 135 491 254 C491 385 384 510 273 510 C225 510 158 474 129 434 L129 500 L104 500 C81 494 37 482 14 476 L13 470 L13 470 Z M129 130 L129 413 C157 453 214 489 251 489 C346 489 437 366 437 238 C437 132 346 8 252 8 C208 8 148 68 129 130 L129 130 Z " />
<glyph glyph-name="q" unicode="q" horiz-adv-x="557" d="M552 -217 L523 -217 C505 -217 487 -199 487 -181 L487 500 L484 500 L468 440 L455 428 C414 474 345 510 286 510 C146 510 37 385 37 254 C37 122 152 -5 272 -5 C327 -5 403 29 436 67 L436 -181 C436 -199 418 -217 400 -217 L371 -217 L371 -220 L551 -220 L552 -217 L552 -217 Z M436 389 L436 86 C405 50 337 17 291 17 C187 17 87 140 87 268 C87 386 172 500 281 500 C339 500 410 447 435 389 L436 389 L436 389 Z " />
<glyph glyph-name="r" unicode="r" horiz-adv-x="363" d="M29 470 L39 472 C67 476 94 447 94 414 L94 39 C94 21 76 3 58 3 L29 3 L29 0 L209 0 L209 3 L180 3 C162 3 144 21 144 39 L144 365 C166 428 224 487 266 487 C280 487 294 470 294 452 C294 437 309 423 324 423 C339 423 353 437 353 452 C353 482 322 510 289 510 C235 510 167 453 144 391 L144 500 L119 500 C96 494 52 482 29 476 L29 470 L29 470 Z " />
<glyph glyph-name="s" unicode="s" horiz-adv-x="422" d="M60 174 L60 0 L65 0 C65 5 66 15 66 20 C67 37 106 34 145 13 L145 13 C172 -1 201 -10 226 -10 C300 -10 372 54 372 121 C372 171 313 241 237 269 C159 297 98 362 98 406 C98 453 144 498 192 498 C202 498 212 497 223 494 C280 480 339 411 339 346 L344 346 L344 510 L339 510 C339 506 338 497 338 493 C337 479 296 481 254 498 L254 498 C233 506 211 511 191 511 C125 511 61 452 61 390 C61 338 128 263 214 232 C280 208 332 149 332 108 C332 54 280 3 225 3 C223 3 174 10 176 14 C121 36 64 111 64 175 L60 174 L60 174 Z " />
<glyph glyph-name="t" unicode="t" horiz-adv-x="339" d="M299 500 L145 500 L145 620 L141 620 L30 500 L30 490 L95 490 L95 129 C95 44 152 -10 212 -10 C246 -10 304 28 329 68 L324 71 C306 42 258 14 227 14 C185 14 144 54 144 118 L145 474 L299 474 L299 500 L299 500 Z " />
<glyph glyph-name="u" unicode="u" horiz-adv-x="526" d="M511 30 L500 27 C467 18 436 45 436 81 L436 500 L321 500 L321 497 L350 497 C368 497 386 479 386 461 L386 137 C358 78 291 25 241 25 C189 25 139 91 139 160 L139 500 L24 500 L24 497 L53 497 C71 497 89 479 89 461 L89 160 C89 73 152 -10 217 -10 C275 -10 354 53 386 122 L386 0 L411 0 C436 7 485 20 511 27 L511 30 L511 30 Z " />
<glyph glyph-name="v" unicode="v" horiz-adv-x="488" d="M482 500 L330 500 L330 497 L340 497 C367 497 381 464 371 427 L254 76 L148 424 C138 462 153 497 180 497 L190 497 L190 500 L6 500 L6 497 L16 497 C44 497 82 460 94 421 L94 421 L226 -10 L240 -10 L390 421 L391 421 C405 460 444 497 472 497 L482 497 L482 500 L482 500 Z " />
<glyph glyph-name="w" unicode="w" horiz-adv-x="747" d="M209 500 L24 500 L24 497 L34 497 C61 497 97 463 109 426 L235 -9 L250 -9 L364 320 L458 -9 L473 -9 L632 430 C648 466 685 498 711 498 L721 498 L721 501 L569 501 L569 498 L579 498 C605 498 618 466 609 430 L488 81 L388 432 C382 467 398 498 424 498 L434 498 L434 501 L249 501 L249 498 L259 498 C287 498 324 461 335 422 L335 422 L355 350 L264 80 C231 194 198 308 165 422 C154 461 169 498 197 498 L207 498 L209 500 L209 500 Z " />
<glyph glyph-name="x" unicode="x" horiz-adv-x="526" d="M209 500 L20 500 L20 497 L30 497 C57 497 103 464 127 427 L242 237 L129 79 L128 79 C100 40 47 3 19 3 L9 3 L9 0 L160 0 L160 3 L151 3 C125 3 122 34 142 69 L248 225 C278 176 308 127 337 78 C360 39 357 2 329 2 L320 2 L320 -1 L509 -1 L509 2 L499 2 C472 2 426 35 402 72 L283 268 L376 420 L377 420 C401 459 450 496 478 496 L488 496 L488 499 L337 499 L337 496 L346 496 C374 496 379 459 356 420 L356 420 L275 281 C247 327 219 374 191 420 C168 459 171 496 199 496 L208 496 L209 500 L209 500 Z " />
<glyph glyph-name="y" unicode="y" horiz-adv-x="526" d="M190 500 L6 500 L6 497 L16 497 C43 497 81 462 96 425 L247 -2 C228 -55 209 -109 190 -162 C184 -178 168 -194 163 -194 C144 -194 133 -175 114 -175 C93 -175 73 -195 73 -216 C73 -238 95 -260 118 -260 C136 -260 186 -215 203 -168 L259 -10 C311 136 362 282 413 428 C429 464 466 497 492 497 L502 497 L502 500 L350 500 L350 497 L360 497 C388 497 402 460 389 421 C351 306 314 190 275 75 C234 190 193 305 152 420 C138 459 152 496 179 496 L189 496 L190 500 L190 500 Z " />
<glyph glyph-name="z" unicode="z" horiz-adv-x="475" d="M292 16 L292 16 L102 13 L435 488 L435 500 L124 500 C98 500 76 513 79 527 L80 532 L72 532 C70 522 64 501 61 491 L59 491 C59 491 45 439 30 384 L42 384 L49 399 C70 441 141 483 197 483 L197 483 L376 486 L41 11 L41 -1 L371 -1 L427 -6 C427 -6 427 -4 428 -1 L431 -1 L431 17 L431 17 C434 40 438 77 442 115 L430 115 L425 100 C412 57 348 16 293 15 L292 16 L292 16 Z " />
<glyph glyph-name="braceleft" unicode="&#x7b;" horiz-adv-x="242" d="M237 750 L197 750 C132 750 70 689 70 625 L70 383 C70 344 44 314 15 314 L15 306 C45 306 70 273 70 230 L70 -5 C70 -69 132 -130 197 -130 L237 -130 L237 -122 L208 -122 C158 -122 109 -65 109 -5 L109 202 C109 253 77 302 41 310 C77 317 109 363 109 411 L109 625 C109 685 158 742 208 742 L237 742 L237 750 L237 750 Z " />
<glyph glyph-name="bar" unicode="&#x7c;" horiz-adv-x="159" d="M60 800 L60 -250 L99 -250 L99 800 L60 800 L60 800 Z " />
<glyph glyph-name="braceright" unicode="&#x7d;" horiz-adv-x="242" d="M5 750 L5 742 L34 742 C84 742 133 685 133 625 L133 411 C133 363 165 317 201 310 C165 302 133 253 133 202 L133 -5 C133 -65 84 -122 34 -122 L5 -122 L5 -130 L45 -130 C110 -130 172 -69 172 -5 L172 230 C172 273 197 306 227 306 L227 314 C198 314 172 344 172 383 L172 625 C172 689 110 750 45 750 L5 750 L5 750 Z " />
<glyph glyph-name="asciitilde" unicode="&#x7e;" horiz-adv-x="340" d="M28 310 C28 344 50 376 73 376 C119 376 206 311 252 311 C287 311 321 358 321 406 L312 406 C312 375 288 346 264 346 C218 346 131 411 85 411 C51 411 19 362 19 310 L28 310 L28 310 Z " />
<glyph glyph-name="exclamdown" unicode="&#xa1;" horiz-adv-x="201" d="M100 505 C82 505 65 488 65 470 C65 452 82 434 100 434 C118 434 135 452 135 470 C135 488 118 505 100 505 L100 505 Z M100 -255 C121 -255 133 -214 131 -171 C131 -171 105 172 105 290 L96 290 C96 172 70 -171 70 -171 C68 -214 80 -255 100 -255 L100 -255 Z " />
<glyph glyph-name="cent" unicode="&#xa2;" horiz-adv-x="465" d="M238 575 L238 508 C136 491 45 367 45 239 C45 115 139 -4 238 -9 L238 -74 L256 -74 L256 -8 C321 -1 406 63 435 129 L428 132 C403 76 320 18 256 22 L256 500 C305 502 368 455 385 406 C390 393 402 381 410 381 C427 381 440 393 435 406 C416 461 329 514 257 511 L257 576 L238 575 L238 575 Z M239 25 C163 44 96 152 96 264 C96 374 163 480 239 497 L239 25 L239 25 Z " />
<glyph glyph-name="acute" unicode="&#xb4;" horiz-adv-x="340" d="M177 563 L316 686 C352 718 386 751 386 755 C386 766 373 779 362 779 C358 779 325 745 293 709 L170 570 L177 563 L177 563 Z " />
<glyph glyph-name="questiondown" unicode="&#xbf;" horiz-adv-x="305" d="M180 505 C162 505 145 488 145 470 C145 452 162 434 180 434 C198 434 215 452 215 470 C215 488 198 505 180 505 L180 505 Z M184 325 C184 325 182 141 180 140 C109 140 56 94 24 47 C10 26 -4 -23 -4 -53 C-4 -159 76 -260 160 -260 C184 -260 207 -242 207 -223 C207 -210 194 -198 180 -198 C170 -198 152 -207 142 -207 C75 -207 10 -129 10 -47 C10 -30 22 5 35 24 C58 58 107 90 197 90 C194 89 192 325 192 325 L184 325 L184 325 Z " />
<glyph glyph-name="Agrave" unicode="&#xc0;" horiz-adv-x="753" d="M462 0 L752 0 L752 3 L738 3 C699 3 645 56 623 114 C557 333 493 553 424 771 L419 771 C422 755 401 736 377 733 L380 723 L181 117 C157 58 85 4 29 4 L9 4 L9 1 L295 1 L295 4 L275 4 C217 4 180 63 200 125 L200 125 L252 288 L511 288 L562 117 C575 58 537 4 482 4 L462 4 L462 0 L462 0 Z M201 1006 C201 1001 235 968 271 937 L410 814 L416 821 L294 960 C263 996 231 1030 226 1030 C215 1030 201 1017 201 1006 L201 1006 Z M257 303 L386 704 L506 303 L257 303 L257 303 Z " />
<glyph glyph-name="Aacute" unicode="&#xc1;" horiz-adv-x="753" d="M413 813 L552 936 C588 968 622 1001 622 1005 C622 1016 608 1029 597 1029 C594 1029 561 995 529 959 L407 820 L413 813 L413 813 Z M462 0 L752 0 L752 3 L738 3 C699 3 645 56 623 114 C557 333 493 553 424 771 L419 771 C422 755 401 736 377 733 L380 723 L181 117 C157 58 85 4 29 4 L9 4 L9 1 L295 1 L295 4 L275 4 C217 4 180 63 200 125 L200 125 L252 288 L511 288 L562 117 C575 58 537 4 482 4 L462 4 L462 0 L462 0 Z M257 303 L386 704 L506 303 L257 303 L257 303 Z " />
<glyph glyph-name="Acircumflex" unicode="&#xc2;" horiz-adv-x="753" d="M462 0 L752 0 L752 3 L738 3 C699 3 645 56 623 114 C557 333 493 553 424 771 L419 771 C422 755 401 736 377 733 L380 723 L181 117 C157 58 85 4 29 4 L9 4 L9 1 L295 1 L295 4 L275 4 C217 4 180 63 200 125 L200 125 L252 288 L511 288 L562 117 C575 58 537 4 482 4 L462 4 L462 0 L462 0 Z M424 1016 C421 1021 411 1034 407 1034 C402 1034 392 1021 389 1016 L257 814 L264 809 L406 978 L549 809 L556 814 L424 1016 L424 1016 Z M257 303 L386 704 L506 303 L257 303 L257 303 Z " />
<glyph glyph-name="Atilde" unicode="&#xc3;" horiz-adv-x="753" d="M265 870 C265 904 287 936 310 936 C356 936 443 871 489 871 C524 871 557 918 557 966 L548 966 C548 935 525 906 501 906 C455 906 367 971 321 971 C288 971 256 922 256 870 L265 870 L265 870 Z M462 0 L752 0 L752 3 L738 3 C699 3 645 56 623 114 C557 333 493 553 424 771 L419 771 C422 755 401 736 377 733 L380 723 L181 117 C157 58 85 4 29 4 L9 4 L9 1 L295 1 L295 4 L275 4 C217 4 180 63 200 125 L200 125 L252 288 L511 288 L562 117 C575 58 537 4 482 4 L462 4 L462 0 L462 0 Z M257 303 L386 704 L506 303 L257 303 L257 303 Z " />
<glyph glyph-name="Adieresis" unicode="&#xc4;" horiz-adv-x="753" d="M475 865 C492 865 508 881 508 897 C508 914 492 930 475 930 C459 930 443 914 443 897 C443 881 459 865 475 865 L475 865 Z M338 865 C354 865 370 881 370 897 C370 914 354 930 338 930 C321 930 305 914 305 897 C305 881 321 865 338 865 L338 865 Z M462 0 L752 0 L752 3 L738 3 C699 3 645 56 623 114 C557 333 493 553 424 771 L419 771 C422 755 401 736 377 733 L380 723 L181 117 C157 58 85 4 29 4 L9 4 L9 1 L295 1 L295 4 L275 4 C217 4 180 63 200 125 L200 125 L252 288 L511 288 L562 117 C575 58 537 4 482 4 L462 4 L462 0 L462 0 Z M257 303 L386 704 L506 303 L257 303 L257 303 Z " />
<glyph glyph-name="Aring" unicode="&#xc5;" horiz-adv-x="753" d="M325 905 C325 947 365 988 407 988 C448 988 488 947 488 905 C488 867 444 822 407 822 C369 822 325 867 325 905 L325 905 Z M310 905 C310 861 362 810 407 810 C451 810 503 861 503 905 C503 953 456 1000 407 1000 C358 1000 310 953 310 905 L310 905 Z M462 0 L752 0 L752 3 L738 3 C699 3 645 56 623 114 C557 333 493 553 424 771 L419 771 C422 755 401 736 377 733 L380 723 L181 117 C157 58 85 4 29 4 L9 4 L9 1 L295 1 L295 4 L275 4 C217 4 180 63 200 125 L200 125 L252 288 L511 288 L562 117 C575 58 537 4 482 4 L462 4 L462 0 L462 0 Z M257 303 L386 704 L506 303 L257 303 L257 303 Z " />
<glyph glyph-name="Egrave" unicode="&#xc8;" horiz-adv-x="621" d="M135 1005 C135 1000 169 967 205 936 L344 813 L350 820 L228 959 C197 995 165 1029 160 1029 C149 1029 135 1016 135 1005 L135 1005 Z M455 534 L450 500 C443 448 388 399 337 399 L214 399 L214 738 L398 738 C449 738 510 689 523 637 L532 603 L542 603 C538 639 530 708 526 744 L525 744 L524 750 L50 750 L50 747 L66 747 C111 747 155 702 155 656 L155 94 C155 48 111 3 66 3 L50 3 L50 0 L549 0 L550 6 L551 6 C557 40 568 104 574 138 L564 138 L558 119 C541 65 463 13 399 13 L302 13 C235 13 214 50 214 88 L214 385 L337 385 C388 385 443 336 450 284 L455 250 L465 250 L465 534 L455 534 L455 534 Z " />
<glyph glyph-name="Eacute" unicode="&#xc9;" horiz-adv-x="621" d="M347 813 L486 936 C522 968 556 1001 556 1005 C556 1016 542 1029 531 1029 C528 1029 495 995 463 959 L341 820 L347 813 L347 813 Z M455 534 L450 500 C443 448 388 399 337 399 L214 399 L214 738 L398 738 C449 738 510 689 523 637 L532 603 L542 603 C538 639 530 708 526 744 L525 744 L524 750 L50 750 L50 747 L66 747 C111 747 155 702 155 656 L155 94 C155 48 111 3 66 3 L50 3 L50 0 L549 0 L550 6 L551 6 C557 40 568 104 574 138 L564 138 L558 119 C541 65 463 13 399 13 L302 13 C235 13 214 50 214 88 L214 385 L337 385 C388 385 443 336 450 284 L455 250 L465 250 L465 534 L455 534 L455 534 Z " />
<glyph glyph-name="Ecircumflex" unicode="&#xca;" horiz-adv-x="621" d="M358 1015 C355 1020 345 1033 341 1033 C336 1033 326 1020 323 1015 L191 813 L198 808 L340 977 L483 808 L490 813 L358 1015 L358 1015 Z M455 534 L450 500 C443 448 388 399 337 399 L214 399 L214 738 L398 738 C449 738 510 689 523 637 L532 603 L542 603 C538 639 530 708 526 744 L525 744 L524 750 L50 750 L50 747 L66 747 C111 747 155 702 155 656 L155 94 C155 48 111 3 66 3 L50 3 L50 0 L549 0 L550 6 L551 6 C557 40 568 104 574 138 L564 138 L558 119 C541 65 463 13 399 13 L302 13 C235 13 214 50 214 88 L214 385 L337 385 C388 385 443 336 450 284 L455 250 L465 250 L465 534 L455 534 L455 534 Z " />
<glyph glyph-name="Edieresis" unicode="&#xcb;" horiz-adv-x="621" d="M409 865 C426 865 442 881 442 897 C442 914 426 930 409 930 C393 930 377 914 377 897 C377 881 393 865 409 865 L409 865 Z M272 865 C288 865 304 881 304 897 C304 914 288 930 272 930 C255 930 239 914 239 897 C239 881 255 865 272 865 L272 865 Z M455 534 L450 500 C443 448 388 399 337 399 L214 399 L214 738 L398 738 C449 738 510 689 523 637 L532 603 L542 603 C538 639 530 708 526 744 L525 744 L524 750 L50 750 L50 747 L66 747 C111 747 155 702 155 656 L155 94 C155 48 111 3 66 3 L50 3 L50 0 L549 0 L550 6 L551 6 C557 40 568 104 574 138 L564 138 L558 119 C541 65 463 13 399 13 L302 13 C235 13 214 50 214 88 L214 385 L337 385 C388 385 443 336 450 284 L455 250 L465 250 L465 534 L455 534 L455 534 Z " />
<glyph glyph-name="Igrave" unicode="&#xcc;" horiz-adv-x="364" d="M-16 1005 C-16 1000 18 967 54 936 L193 813 L200 820 L77 959 C46 995 13 1029 8 1029 C-3 1029 -16 1016 -16 1005 L-16 1005 Z M304 3 L290 3 C254 3 219 38 219 74 L219 676 C219 712 254 747 290 747 L304 747 L304 750 L76 750 L76 747 L90 747 C126 747 161 712 161 676 L161 74 C161 38 126 3 90 3 L76 3 L76 0 L304 0 L304 3 L304 3 Z " />
<glyph glyph-name="Iacute" unicode="&#xcd;" horiz-adv-x="364" d="M197 813 L336 936 C372 968 406 1001 406 1005 C406 1016 393 1029 382 1029 C378 1029 345 995 313 959 L190 820 L197 813 L197 813 Z M304 3 L290 3 C254 3 219 38 219 74 L219 676 C219 712 254 747 290 747 L304 747 L304 750 L76 750 L76 747 L90 747 C126 747 161 712 161 676 L161 74 C161 38 126 3 90 3 L76 3 L76 0 L304 0 L304 3 L304 3 Z " />
<glyph glyph-name="Icircumflex" unicode="&#xce;" horiz-adv-x="364" d="M208 1015 C205 1020 195 1033 190 1033 C185 1033 175 1020 172 1015 L41 813 L48 808 L190 976 L332 808 L339 813 L208 1015 L208 1015 Z M304 3 L290 3 C254 3 219 38 219 74 L219 676 C219 712 254 747 290 747 L304 747 L304 750 L76 750 L76 747 L90 747 C126 747 161 712 161 676 L161 74 C161 38 126 3 90 3 L76 3 L76 0 L304 0 L304 3 L304 3 Z " />
<glyph glyph-name="Idieresis" unicode="&#xcf;" horiz-adv-x="364" d="M259 865 C275 865 291 881 291 897 C291 914 275 930 259 930 C242 930 226 914 226 897 C226 881 242 865 259 865 L259 865 Z M121 865 C138 865 154 881 154 897 C154 914 138 930 121 930 C105 930 89 914 89 897 C89 881 105 865 121 865 L121 865 Z M304 3 L290 3 C254 3 219 38 219 74 L219 676 C219 712 254 747 290 747 L304 747 L304 750 L76 750 L76 747 L90 747 C126 747 161 712 161 676 L161 74 C161 38 126 3 90 3 L76 3 L76 0 L304 0 L304 3 L304 3 Z " />
<glyph glyph-name="Ntilde" unicode="&#xd1;" horiz-adv-x="766" d="M239 870 C239 904 261 936 284 936 C330 936 417 871 463 871 C498 871 532 918 532 966 L523 966 C523 935 499 906 475 906 C429 906 342 971 296 971 C262 971 230 922 230 870 L239 870 L239 870 Z M14 747 L28 747 C61 747 114 717 141 684 L141 74 C141 38 106 3 70 3 L56 3 L56 0 L243 0 L243 3 L229 3 C193 3 158 38 158 74 L158 74 L156 662 C305 441 454 219 604 -1 L616 -1 L620 675 L620 675 C620 711 655 746 691 746 L705 746 L705 749 L518 749 L518 746 L532 746 C568 746 603 711 603 675 L604 104 L599 111 L169 749 L13 749 L14 747 L14 747 Z " />
<glyph glyph-name="Ograve" unicode="&#xd2;" horiz-adv-x="806" d="M125 375 C125 564 259 745 398 745 C545 745 687 564 687 375 C687 186 543 5 394 5 C257 5 125 186 125 375 L125 375 Z M61 375 C61 179 223 -10 391 -10 C575 -10 751 179 751 375 C751 571 580 760 401 760 C228 760 61 571 61 375 L61 375 Z M195 1005 C195 1000 229 967 265 936 L404 813 L411 820 L288 959 C257 995 224 1029 219 1029 C208 1029 195 1016 195 1005 L195 1005 Z " />
<glyph glyph-name="Oacute" unicode="&#xd3;" horiz-adv-x="806" d="M408 813 L547 936 C583 968 617 1001 617 1005 C617 1016 604 1029 593 1029 C589 1029 556 995 524 959 L401 820 L408 813 L408 813 Z M125 375 C125 564 259 745 398 745 C545 745 687 564 687 375 C687 186 543 5 394 5 C257 5 125 186 125 375 L125 375 Z M61 375 C61 179 223 -10 391 -10 C575 -10 751 179 751 375 C751 571 580 760 401 760 C228 760 61 571 61 375 L61 375 Z " />
<glyph glyph-name="Ocircumflex" unicode="&#xd4;" horiz-adv-x="806" d="M125 375 C125 564 259 745 398 745 C545 745 687 564 687 375 C687 186 543 5 394 5 C257 5 125 186 125 375 L125 375 Z M61 375 C61 179 223 -10 391 -10 C575 -10 751 179 751 375 C751 571 580 760 401 760 C228 760 61 571 61 375 L61 375 Z M419 1015 C416 1020 406 1033 401 1033 C396 1033 386 1020 383 1015 L252 813 L259 808 L401 976 L543 808 L550 813 L419 1015 L419 1015 Z " />
<glyph glyph-name="Otilde" unicode="&#xd5;" horiz-adv-x="806" d="M259 870 C259 904 281 936 304 936 C350 936 437 871 483 871 C518 871 552 918 552 966 L543 966 C543 935 519 906 495 906 C449 906 362 971 316 971 C282 971 250 922 250 870 L259 870 L259 870 Z M125 375 C125 564 259 745 398 745 C545 745 687 564 687 375 C687 186 543 5 394 5 C257 5 125 186 125 375 L125 375 Z M61 375 C61 179 223 -10 391 -10 C575 -10 751 179 751 375 C751 571 580 760 401 760 C228 760 61 571 61 375 L61 375 Z " />
<glyph glyph-name="Odieresis" unicode="&#xd6;" horiz-adv-x="806" d="M470 865 C486 865 502 881 502 897 C502 914 486 930 470 930 C453 930 437 914 437 897 C437 881 453 865 470 865 L470 865 Z M332 865 C349 865 365 881 365 897 C365 914 349 930 332 930 C316 930 300 914 300 897 C300 881 316 865 332 865 L332 865 Z M125 375 C125 564 259 745 398 745 C545 745 687 564 687 375 C687 186 543 5 394 5 C257 5 125 186 125 375 L125 375 Z M61 375 C61 179 223 -10 391 -10 C575 -10 751 179 751 375 C751 571 580 760 401 760 C228 760 61 571 61 375 L61 375 Z " />
<glyph glyph-name="Oslash" unicode="&#xd8;" horiz-adv-x="806" d="M71 -19 C71 -19 110 24 175 96 C235 31 313 -11 392 -11 C576 -11 752 178 752 374 C752 467 713 559 653 629 C689 669 725 709 761 750 L741 768 C705 728 669 688 634 649 C570 716 486 759 400 759 C227 759 60 570 60 374 C60 279 98 186 156 115 C90 41 51 -3 51 -3 L71 -19 L71 -19 Z M607 617 C442 433 290 264 187 149 C149 213 125 292 125 373 C125 562 259 743 398 743 C476 743 552 692 607 616 L607 617 L607 617 Z M623 593 C663 529 688 451 688 372 C688 183 544 2 395 2 C324 2 254 51 203 125 C305 239 457 409 622 594 L623 593 L623 593 Z " />
<glyph glyph-name="Ugrave" unicode="&#xd9;" horiz-adv-x="698" d="M146 1005 C146 1000 180 967 216 936 L355 813 L361 820 L239 959 C208 995 176 1029 171 1029 C160 1029 146 1016 146 1005 L146 1005 Z M668 34 L654 30 C618 20 583 46 583 82 L583 750 L439 750 L439 747 L453 747 C489 747 524 712 524 676 L524 176 C489 101 374 28 289 28 C233 28 179 122 179 220 L179 750 L35 750 L35 747 L49 747 C85 747 120 712 120 676 L120 220 C120 103 191 -10 265 -10 C359 -10 486 68 524 149 L524 0 L553 0 C556 0 583 7 583 8 C612 16 647 25 668 31 L668 34 L668 34 Z " />
<glyph glyph-name="Uacute" unicode="&#xda;" horiz-adv-x="698" d="M358 813 L497 936 C533 968 567 1001 567 1005 C567 1016 553 1029 542 1029 C539 1029 506 995 474 959 L352 820 L358 813 L358 813 Z M668 34 L654 30 C618 20 583 46 583 82 L583 750 L439 750 L439 747 L453 747 C489 747 524 712 524 676 L524 176 C489 101 374 28 289 28 C233 28 179 122 179 220 L179 750 L35 750 L35 747 L49 747 C85 747 120 712 120 676 L120 220 C120 103 191 -10 265 -10 C359 -10 486 68 524 149 L524 0 L553 0 C556 0 583 7 583 8 C612 16 647 25 668 31 L668 34 L668 34 Z " />
<glyph glyph-name="Ucircumflex" unicode="&#xdb;" horiz-adv-x="698" d="M369 1015 C366 1020 356 1033 352 1033 C347 1033 337 1020 334 1015 L202 813 L209 808 L351 977 L494 808 L501 813 L369 1015 L369 1015 Z M668 34 L654 30 C618 20 583 46 583 82 L583 750 L439 750 L439 747 L453 747 C489 747 524 712 524 676 L524 176 C489 101 374 28 289 28 C233 28 179 122 179 220 L179 750 L35 750 L35 747 L49 747 C85 747 120 712 120 676 L120 220 C120 103 191 -10 265 -10 C359 -10 486 68 524 149 L524 0 L553 0 C556 0 583 7 583 8 C612 16 647 25 668 31 L668 34 L668 34 Z " />
<glyph glyph-name="Udieresis" unicode="&#xdc;" horiz-adv-x="698" d="M420 865 C437 865 453 881 453 897 C453 914 437 930 420 930 C404 930 388 914 388 897 C388 881 404 865 420 865 L420 865 Z M283 865 C299 865 315 881 315 897 C315 914 299 930 283 930 C266 930 250 914 250 897 C250 881 266 865 283 865 L283 865 Z M668 34 L654 30 C618 20 583 46 583 82 L583 750 L439 750 L439 747 L453 747 C489 747 524 712 524 676 L524 176 C489 101 374 28 289 28 C233 28 179 122 179 220 L179 750 L35 750 L35 747 L49 747 C85 747 120 712 120 676 L120 220 C120 103 191 -10 265 -10 C359 -10 486 68 524 149 L524 0 L553 0 C556 0 583 7 583 8 C612 16 647 25 668 31 L668 34 L668 34 Z " />
<glyph glyph-name="Yacute" unicode="&#xdd;" horiz-adv-x="711" d="M368 813 L507 936 C543 968 577 1001 577 1005 C577 1016 563 1029 552 1029 C549 1029 516 995 484 959 L362 820 L368 813 L368 813 Z M252 750 L10 750 L10 747 L20 747 C49 747 96 715 121 679 L332 329 L332 94 C332 48 288 3 243 3 L227 3 L227 0 L496 0 L496 3 L480 3 C435 3 391 48 391 94 L391 331 C453 444 515 558 578 671 C599 710 657 747 695 747 L714 747 L714 750 L467 750 L467 747 L515 747 C553 747 571 710 551 671 L551 671 L385 350 L193 672 C171 711 186 747 225 747 L252 747 L252 750 L252 750 Z " />
<glyph glyph-name="agrave" unicode="&#xe0;" horiz-adv-x="513" d="M523 77 L512 83 C507 56 480 31 457 31 C428 31 400 56 400 81 C400 81 400 359 399 358 C399 447 332 510 263 510 C166 510 73 406 73 360 C73 342 85 325 98 325 C115 325 131 341 131 350 C131 361 111 383 111 392 C111 424 177 495 245 495 C299 495 350 446 350 377 L350 265 C145 202 53 151 53 80 C53 34 109 -10 168 -10 C207 -10 284 28 349 88 C349 39 388 -5 436 -5 C472 -5 515 35 522 77 L523 77 L523 77 Z M56 755 C56 750 90 717 126 686 L265 563 L272 570 L149 709 C118 745 85 779 80 779 C69 779 56 766 56 755 L56 755 Z M349 253 L349 99 C295 48 229 17 194 17 C148 17 103 51 103 86 C103 156 179 201 349 253 L349 253 Z " />
<glyph glyph-name="aacute" unicode="&#xe1;" horiz-adv-x="513" d="M270 563 L409 686 C445 718 479 751 479 755 C479 766 466 779 455 779 C451 779 418 745 386 709 L263 570 L270 563 L270 563 Z M523 77 L512 83 C507 56 480 31 457 31 C428 31 400 56 400 81 C400 81 400 359 399 358 C399 447 332 510 263 510 C166 510 73 406 73 360 C73 342 85 325 98 325 C115 325 131 341 131 350 C131 361 111 383 111 392 C111 424 177 495 245 495 C299 495 350 446 350 377 L350 265 C145 202 53 151 53 80 C53 34 109 -10 168 -10 C207 -10 284 28 349 88 C349 39 388 -5 436 -5 C472 -5 515 35 522 77 L523 77 L523 77 Z M349 253 L349 99 C295 48 229 17 194 17 C148 17 103 51 103 86 C103 156 179 201 349 253 L349 253 Z " />
<glyph glyph-name="acircumflex" unicode="&#xe2;" horiz-adv-x="513" d="M523 77 L512 83 C507 56 480 31 457 31 C428 31 400 56 400 81 C400 81 400 359 399 358 C399 447 332 510 263 510 C166 510 73 406 73 360 C73 342 85 325 98 325 C115 325 131 341 131 350 C131 361 111 383 111 392 C111 424 177 495 245 495 C299 495 350 446 350 377 L350 265 C145 202 53 151 53 80 C53 34 109 -10 168 -10 C207 -10 284 28 349 88 C349 39 388 -5 436 -5 C472 -5 515 35 522 77 L523 77 L523 77 Z M280 765 C277 770 267 783 262 783 C257 783 247 770 244 765 L113 563 L120 558 L262 726 L404 558 L411 563 L280 765 L280 765 Z M349 253 L349 99 C295 48 229 17 194 17 C148 17 103 51 103 86 C103 156 179 201 349 253 L349 253 Z " />
<glyph glyph-name="atilde" unicode="&#xe3;" horiz-adv-x="513" d="M121 620 C121 654 143 686 166 686 C212 686 299 621 345 621 C380 621 414 668 414 716 L405 716 C405 685 381 656 357 656 C311 656 224 721 178 721 C144 721 112 672 112 620 L121 620 L121 620 Z M523 77 L512 83 C507 56 480 31 457 31 C428 31 400 56 400 81 C400 81 400 359 399 358 C399 447 332 510 263 510 C166 510 73 406 73 360 C73 342 85 325 98 325 C115 325 131 341 131 350 C131 361 111 383 111 392 C111 424 177 495 245 495 C299 495 350 446 350 377 L350 265 C145 202 53 151 53 80 C53 34 109 -10 168 -10 C207 -10 284 28 349 88 C349 39 388 -5 436 -5 C472 -5 515 35 522 77 L523 77 L523 77 Z M349 253 L349 99 C295 48 229 17 194 17 C148 17 103 51 103 86 C103 156 179 201 349 253 L349 253 Z " />
<glyph glyph-name="adieresis" unicode="&#xe4;" horiz-adv-x="513" d="M332 615 C348 615 364 631 364 647 C364 664 348 680 332 680 C315 680 299 664 299 647 C299 631 315 615 332 615 L332 615 Z M194 615 C211 615 227 631 227 647 C227 664 211 680 194 680 C178 680 162 664 162 647 C162 631 178 615 194 615 L194 615 Z M523 77 L512 83 C507 56 480 31 457 31 C428 31 400 56 400 81 C400 81 400 359 399 358 C399 447 332 510 263 510 C166 510 73 406 73 360 C73 342 85 325 98 325 C115 325 131 341 131 350 C131 361 111 383 111 392 C111 424 177 495 245 495 C299 495 350 446 350 377 L350 265 C145 202 53 151 53 80 C53 34 109 -10 168 -10 C207 -10 284 28 349 88 C349 39 388 -5 436 -5 C472 -5 515 35 522 77 L523 77 L523 77 Z M349 253 L349 99 C295 48 229 17 194 17 C148 17 103 51 103 86 C103 156 179 201 349 253 L349 253 Z " />
<glyph glyph-name="aring" unicode="&#xe5;" horiz-adv-x="513" d="M181 655 C181 697 221 738 263 738 C305 738 345 697 345 655 C345 617 301 572 263 572 C225 572 181 617 181 655 L181 655 Z M167 655 C167 611 219 560 263 560 C307 560 359 611 359 655 C359 703 312 750 263 750 C214 750 167 703 167 655 L167 655 Z M523 77 L512 83 C507 56 480 31 457 31 C428 31 400 56 400 81 C400 81 400 359 399 358 C399 447 332 510 263 510 C166 510 73 406 73 360 C73 342 85 325 98 325 C115 325 131 341 131 350 C131 361 111 383 111 392 C111 424 177 495 245 495 C299 495 350 446 350 377 L350 265 C145 202 53 151 53 80 C53 34 109 -10 168 -10 C207 -10 284 28 349 88 C349 39 388 -5 436 -5 C472 -5 515 35 522 77 L523 77 L523 77 Z M349 253 L349 99 C295 48 229 17 194 17 C148 17 103 51 103 86 C103 156 179 201 349 253 L349 253 Z " />
<glyph glyph-name="egrave" unicode="&#xe8;" horiz-adv-x="530" d="M90 755 C90 750 124 717 160 686 L299 563 L306 570 L183 709 C152 745 119 779 114 779 C103 779 90 766 90 755 L90 755 Z M109 340 L500 340 C482 444 385 510 296 510 C168 510 45 403 45 235 C45 110 157 -10 273 -10 C356 -10 462 61 489 134 L483 135 C462 78 365 23 285 23 C190 23 98 137 98 255 C98 286 102 314 109 340 L109 340 Z M442 355 L113 352 C144 444 218 499 293 499 C353 499 421 443 442 354 L442 355 L442 355 Z " />
<glyph glyph-name="eacute" unicode="&#xe9;" horiz-adv-x="530" d="M303 563 L442 686 C478 718 512 751 512 755 C512 766 499 779 488 779 C484 779 451 745 419 709 L296 570 L303 563 L303 563 Z M109 340 L500 340 C482 444 385 510 296 510 C168 510 45 403 45 235 C45 110 157 -10 273 -10 C356 -10 462 61 489 134 L483 135 C462 78 365 23 285 23 C190 23 98 137 98 255 C98 286 102 314 109 340 L109 340 Z M442 355 L113 352 C144 444 218 499 293 499 C353 499 421 443 442 354 L442 355 L442 355 Z " />
<glyph glyph-name="ecircumflex" unicode="&#xea;" horiz-adv-x="530" d="M314 765 C311 770 301 783 296 783 C291 783 281 770 278 765 L147 563 L154 558 L296 726 L438 558 L445 563 L314 765 L314 765 Z M109 340 L500 340 C482 444 385 510 296 510 C168 510 45 403 45 235 C45 110 157 -10 273 -10 C356 -10 462 61 489 134 L483 135 C462 78 365 23 285 23 C190 23 98 137 98 255 C98 286 102 314 109 340 L109 340 Z M442 355 L113 352 C144 444 218 499 293 499 C353 499 421 443 442 354 L442 355 L442 355 Z " />
<glyph glyph-name="edieresis" unicode="&#xeb;" horiz-adv-x="530" d="M365 615 C381 615 397 631 397 647 C397 664 381 680 365 680 C348 680 332 664 332 647 C332 631 348 615 365 615 L365 615 Z M227 615 C244 615 260 631 260 647 C260 664 244 680 227 680 C211 680 195 664 195 647 C195 631 211 615 227 615 L227 615 Z M109 340 L500 340 C482 444 385 510 296 510 C168 510 45 403 45 235 C45 110 157 -10 273 -10 C356 -10 462 61 489 134 L483 135 C462 78 365 23 285 23 C190 23 98 137 98 255 C98 286 102 314 109 340 L109 340 Z M442 355 L113 352 C144 444 218 499 293 499 C353 499 421 443 442 354 L442 355 L442 355 Z " />
<glyph glyph-name="igrave" unicode="&#xec;" horiz-adv-x="294" d="M-47 756 C-47 751 -13 718 23 687 L162 564 L169 571 L46 710 C15 746 -18 780 -23 780 C-34 780 -47 767 -47 756 L-47 756 Z M69 473 L98 481 C116 486 134 473 134 455 L134 39 C134 21 116 3 98 3 L69 3 L69 0 L249 0 L249 3 L220 3 C202 3 184 21 184 39 L184 500 L159 500 C136 494 92 482 69 476 L69 473 L69 473 Z " />
<glyph glyph-name="iacute" unicode="&#xed;" horiz-adv-x="294" d="M-47 756 C-47 751 -13 718 23 687 L162 564 L169 571 L46 710 C15 746 -18 780 -23 780 C-34 780 -47 767 -47 756 L-47 756 Z M69 473 L98 481 C116 486 134 473 134 455 L134 39 C134 21 116 3 98 3 L69 3 L69 0 L249 0 L249 3 L220 3 C202 3 184 21 184 39 L184 500 L159 500 C136 494 92 482 69 476 L69 473 L69 473 Z " />
<glyph glyph-name="icircumflex" unicode="&#xee;" horiz-adv-x="294" d="M177 766 C174 771 164 784 159 784 C154 784 144 771 141 766 L10 564 L17 559 L159 727 L301 559 L308 564 L177 766 L177 766 Z M69 473 L98 481 C116 486 134 473 134 455 L134 39 C134 21 116 3 98 3 L69 3 L69 0 L249 0 L249 3 L220 3 C202 3 184 21 184 39 L184 500 L159 500 C136 494 92 482 69 476 L69 473 L69 473 Z " />
<glyph glyph-name="idieresis" unicode="&#xef;" horiz-adv-x="294" d="M228 616 C244 616 260 632 260 648 C260 665 244 681 228 681 C211 681 195 665 195 648 C195 632 211 616 228 616 L228 616 Z M90 616 C107 616 123 632 123 648 C123 665 107 681 90 681 C74 681 58 665 58 648 C58 632 74 616 90 616 L90 616 Z M69 473 L98 481 C116 486 134 473 134 455 L134 39 C134 21 116 3 98 3 L69 3 L69 0 L249 0 L249 3 L220 3 C202 3 184 21 184 39 L184 500 L159 500 C136 494 92 482 69 476 L69 473 L69 473 Z " />
<glyph glyph-name="ntilde" unicode="&#xf1;" horiz-adv-x="535" d="M125 621 C125 655 147 687 170 687 C216 687 303 622 349 622 C384 622 417 669 417 717 L408 717 C408 686 385 657 361 657 C315 657 227 722 181 722 C148 722 116 673 116 621 L125 621 L125 621 Z M28 470 L38 472 C66 476 93 447 93 414 L93 39 C93 21 75 3 57 3 L28 3 L28 0 L208 0 L208 3 L179 3 C161 3 143 21 143 39 L143 362 C176 419 241 473 277 473 C340 473 390 403 390 330 L390 39 C390 21 372 3 354 3 L325 3 L325 0 L505 0 L505 3 L476 3 C458 3 440 21 440 39 L440 330 C440 422 381 510 306 510 C262 510 182 444 143 376 L143 500 L118 500 C95 494 51 482 28 476 L28 470 L28 470 Z " />
<glyph glyph-name="ograve" unicode="&#xf2;" horiz-adv-x="604" d="M100 250 C100 375 199 495 302 495 C405 495 504 375 504 250 C504 125 405 5 302 5 C199 5 100 125 100 250 L100 250 Z M45 250 C45 117 171 -10 302 -10 C433 -10 559 117 559 250 C559 383 433 510 302 510 C171 510 45 383 45 250 L45 250 Z M96 755 C96 750 130 717 166 686 L305 563 L312 570 L189 709 C158 745 125 779 120 779 C109 779 96 766 96 755 L96 755 Z " />
<glyph glyph-name="oacute" unicode="&#xf3;" horiz-adv-x="604" d="M309 563 L448 686 C484 718 518 751 518 755 C518 766 505 779 494 779 C490 779 457 745 425 709 L302 570 L309 563 L309 563 Z M100 250 C100 375 199 495 302 495 C405 495 504 375 504 250 C504 125 405 5 302 5 C199 5 100 125 100 250 L100 250 Z M45 250 C45 117 171 -10 302 -10 C433 -10 559 117 559 250 C559 383 433 510 302 510 C171 510 45 383 45 250 L45 250 Z " />
<glyph glyph-name="ocircumflex" unicode="&#xf4;" horiz-adv-x="604" d="M100 250 C100 375 199 495 302 495 C405 495 504 375 504 250 C504 125 405 5 302 5 C199 5 100 125 100 250 L100 250 Z M45 250 C45 117 171 -10 302 -10 C433 -10 559 117 559 250 C559 383 433 510 302 510 C171 510 45 383 45 250 L45 250 Z M320 765 C317 770 307 783 302 783 C297 783 287 770 284 765 L153 563 L160 558 L302 726 L444 558 L451 563 L320 765 L320 765 Z " />
<glyph glyph-name="otilde" unicode="&#xf5;" horiz-adv-x="604" d="M160 620 C160 654 182 686 205 686 C251 686 338 621 384 621 C419 621 453 668 453 716 L444 716 C444 685 420 656 396 656 C350 656 263 721 217 721 C183 721 151 672 151 620 L160 620 L160 620 Z M100 250 C100 375 199 495 302 495 C405 495 504 375 504 250 C504 125 405 5 302 5 C199 5 100 125 100 250 L100 250 Z M45 250 C45 117 171 -10 302 -10 C433 -10 559 117 559 250 C559 383 433 510 302 510 C171 510 45 383 45 250 L45 250 Z " />
<glyph glyph-name="odieresis" unicode="&#xf6;" horiz-adv-x="604" d="M371 615 C387 615 403 631 403 647 C403 664 387 680 371 680 C354 680 338 664 338 647 C338 631 354 615 371 615 L371 615 Z M233 615 C250 615 266 631 266 647 C266 664 250 680 233 680 C217 680 201 664 201 647 C201 631 217 615 233 615 L233 615 Z M100 250 C100 375 199 495 302 495 C405 495 504 375 504 250 C504 125 405 5 302 5 C199 5 100 125 100 250 L100 250 Z M45 250 C45 117 171 -10 302 -10 C433 -10 559 117 559 250 C559 383 433 510 302 510 C171 510 45 383 45 250 L45 250 Z " />
<glyph glyph-name="oslash" unicode="&#xf8;" horiz-adv-x="604" d="M51 -16 C51 -16 81 14 131 64 C178 19 240 -10 303 -10 C434 -10 560 117 560 250 C560 314 531 376 486 424 C512 450 539 477 566 504 L554 516 C527 489 500 462 474 436 C427 481 365 510 302 510 C171 510 45 383 45 250 C45 186 74 124 119 76 C69 26 39 -4 39 -4 L51 -16 L51 -16 Z M449 410 C331 290 222 180 146 103 C118 145 101 197 101 250 C101 375 200 495 303 495 C358 495 412 461 450 410 L449 410 L449 410 Z M460 396 C488 354 505 302 505 249 C505 124 406 4 303 4 C248 4 194 38 156 89 C231 165 340 276 459 396 L460 396 L460 396 Z " />
<glyph glyph-name="ugrave" unicode="&#xf9;" horiz-adv-x="526" d="M57 755 C57 750 91 717 127 686 L266 563 L272 570 L150 709 C119 745 87 779 82 779 C71 779 57 766 57 755 L57 755 Z M511 30 L500 27 C467 18 436 45 436 81 L436 500 L321 500 L321 497 L350 497 C368 497 386 479 386 461 L386 137 C358 78 291 25 241 25 C189 25 139 91 139 160 L139 500 L24 500 L24 497 L53 497 C71 497 89 479 89 461 L89 160 C89 73 152 -10 217 -10 C275 -10 354 53 386 122 L386 0 L411 0 C436 7 485 20 511 27 L511 30 L511 30 Z " />
<glyph glyph-name="uacute" unicode="&#xfa;" horiz-adv-x="526" d="M269 563 L408 686 C444 718 478 751 478 755 C478 766 464 779 453 779 C450 779 417 745 385 709 L263 570 L269 563 L269 563 Z M511 30 L500 27 C467 18 436 45 436 81 L436 500 L321 500 L321 497 L350 497 C368 497 386 479 386 461 L386 137 C358 78 291 25 241 25 C189 25 139 91 139 160 L139 500 L24 500 L24 497 L53 497 C71 497 89 479 89 461 L89 160 C89 73 152 -10 217 -10 C275 -10 354 53 386 122 L386 0 L411 0 C436 7 485 20 511 27 L511 30 L511 30 Z " />
<glyph glyph-name="ucircumflex" unicode="&#xfb;" horiz-adv-x="526" d="M280 765 C277 770 267 783 263 783 C258 783 248 770 245 765 L113 563 L120 558 L262 727 L405 558 L412 563 L280 765 L280 765 Z M511 30 L500 27 C467 18 436 45 436 81 L436 500 L321 500 L321 497 L350 497 C368 497 386 479 386 461 L386 137 C358 78 291 25 241 25 C189 25 139 91 139 160 L139 500 L24 500 L24 497 L53 497 C71 497 89 479 89 461 L89 160 C89 73 152 -10 217 -10 C275 -10 354 53 386 122 L386 0 L411 0 C436 7 485 20 511 27 L511 30 L511 30 Z " />
<glyph glyph-name="udieresis" unicode="&#xfc;" horiz-adv-x="526" d="M331 615 C348 615 364 631 364 647 C364 664 348 680 331 680 C315 680 299 664 299 647 C299 631 315 615 331 615 L331 615 Z M194 615 C210 615 226 631 226 647 C226 664 210 680 194 680 C177 680 161 664 161 647 C161 631 177 615 194 615 L194 615 Z M511 30 L500 27 C467 18 436 45 436 81 L436 500 L321 500 L321 497 L350 497 C368 497 386 479 386 461 L386 137 C358 78 291 25 241 25 C189 25 139 91 139 160 L139 500 L24 500 L24 497 L53 497 C71 497 89 479 89 461 L89 160 C89 73 152 -10 217 -10 C275 -10 354 53 386 122 L386 0 L411 0 C436 7 485 20 511 27 L511 30 L511 30 Z " />
<glyph glyph-name="ydieresis" unicode="&#xff;" horiz-adv-x="508" d="M339 615 C355 615 371 631 371 647 C371 664 355 680 339 680 C322 680 306 664 306 647 C306 631 322 615 339 615 L339 615 Z M201 615 C218 615 234 631 234 647 C234 664 218 680 201 680 C185 680 169 664 169 647 C169 631 185 615 201 615 L201 615 Z M190 500 L6 500 L6 497 L16 497 C43 497 81 462 96 425 L247 -2 C228 -55 209 -109 190 -162 C184 -178 168 -194 163 -194 C144 -194 133 -175 114 -175 C93 -175 73 -195 73 -216 C73 -238 95 -260 118 -260 C136 -260 186 -215 203 -168 L259 -10 C311 136 362 282 413 428 C429 464 466 497 492 497 L502 497 L502 500 L350 500 L350 497 L360 497 C388 497 402 460 389 421 C351 306 314 190 275 75 C234 190 193 305 152 420 C138 459 152 496 179 496 L189 496 L190 500 L190 500 Z " />
<glyph glyph-name="Amacron" unicode="&#x100;" horiz-adv-x="753" d="M257 901 L557 901 L557 936 L257 936 L257 901 L257 901 Z M462 0 L752 0 L752 3 L738 3 C699 3 645 56 623 114 C557 333 493 553 424 771 L419 771 C422 755 401 736 377 733 L380 723 L181 117 C157 58 85 4 29 4 L9 4 L9 1 L295 1 L295 4 L275 4 C217 4 180 63 200 125 L200 125 L252 288 L511 288 L562 117 C575 58 537 4 482 4 L462 4 L462 0 L462 0 Z M257 303 L386 704 L506 303 L257 303 L257 303 Z " />
<glyph glyph-name="amacron" unicode="&#x101;" horiz-adv-x="513" d="M113 651 L413 651 L413 686 L113 686 L113 651 L113 651 Z M523 77 L512 83 C507 56 480 31 457 31 C428 31 400 56 400 81 C400 81 400 359 399 358 C399 447 332 510 263 510 C166 510 73 406 73 360 C73 342 85 325 98 325 C115 325 131 341 131 350 C131 361 111 383 111 392 C111 424 177 495 245 495 C299 495 350 446 350 377 L350 265 C145 202 53 151 53 80 C53 34 109 -10 168 -10 C207 -10 284 28 349 88 C349 39 388 -5 436 -5 C472 -5 515 35 522 77 L523 77 L523 77 Z M349 253 L349 99 C295 48 229 17 194 17 C148 17 103 51 103 86 C103 156 179 201 349 253 L349 253 Z " />
<glyph glyph-name="Abreve" unicode="&#x102;" horiz-adv-x="753" d="M282 995 C285 941 346 889 407 889 C467 889 527 940 530 994 L520 995 C518 959 463 924 407 924 C351 924 295 959 293 996 L282 995 L282 995 Z M462 0 L752 0 L752 3 L738 3 C699 3 645 56 623 114 C557 333 493 553 424 771 L419 771 C422 755 401 736 377 733 L380 723 L181 117 C157 58 85 4 29 4 L9 4 L9 1 L295 1 L295 4 L275 4 C217 4 180 63 200 125 L200 125 L252 288 L511 288 L562 117 C575 58 537 4 482 4 L462 4 L462 0 L462 0 Z M257 303 L386 704 L506 303 L257 303 L257 303 Z " />
<glyph glyph-name="abreve" unicode="&#x103;" horiz-adv-x="513" d="M139 745 C142 691 203 639 263 639 C323 639 384 690 387 744 L377 745 C375 709 319 674 263 674 C207 674 151 709 149 746 L139 745 L139 745 Z M523 77 L512 83 C507 56 480 31 457 31 C428 31 400 56 400 81 C400 81 400 359 399 358 C399 447 332 510 263 510 C166 510 73 406 73 360 C73 342 85 325 98 325 C115 325 131 341 131 350 C131 361 111 383 111 392 C111 424 177 495 245 495 C299 495 350 446 350 377 L350 265 C145 202 53 151 53 80 C53 34 109 -10 168 -10 C207 -10 284 28 349 88 C349 39 388 -5 436 -5 C472 -5 515 35 522 77 L523 77 L523 77 Z M349 253 L349 99 C295 48 229 17 194 17 C148 17 103 51 103 86 C103 156 179 201 349 253 L349 253 Z " />
<glyph glyph-name="Cacute" unicode="&#x106;" horiz-adv-x="706" d="M391 813 L530 936 C566 968 600 1001 600 1005 C600 1016 587 1029 576 1029 C572 1029 539 995 507 959 L384 820 L391 813 L391 813 Z M661 2 L661 216 L647 216 C645 210 643 197 641 191 C628 138 564 62 509 36 L509 36 C468 17 423 5 379 5 C250 5 126 187 126 376 C126 565 255 746 390 746 C434 746 475 735 512 717 L512 717 C565 692 628 615 641 560 C643 554 645 541 647 535 L661 535 L661 746 L654 746 C654 740 653 727 653 721 C651 689 612 682 574 706 L574 706 C522 739 458 762 384 762 C219 762 61 573 61 377 C61 181 214 -8 374 -8 C446 -8 517 16 574 50 C613 71 651 62 653 30 C653 23 654 11 654 4 L661 2 L661 2 Z M652 131 L652 131 L652 131 L652 131 Z " />
<glyph glyph-name="Ccircumflex" unicode="&#x108;" horiz-adv-x="706" d="M661 2 L661 216 L647 216 C645 210 643 197 641 191 C628 138 564 62 509 36 L509 36 C468 17 423 5 379 5 C250 5 126 187 126 376 C126 565 255 746 390 746 C434 746 475 735 512 717 L512 717 C565 692 628 615 641 560 C643 554 645 541 647 535 L661 535 L661 746 L654 746 C654 740 653 727 653 721 C651 689 612 682 574 706 L574 706 C522 739 458 762 384 762 C219 762 61 573 61 377 C61 181 214 -8 374 -8 C446 -8 517 16 574 50 C613 71 651 62 653 30 C653 23 654 11 654 4 L661 2 L661 2 Z M402 1017 C399 1022 389 1035 384 1035 C379 1035 369 1022 366 1017 L235 815 L242 810 L384 978 L526 810 L533 815 L402 1017 L402 1017 Z M652 131 L652 131 L652 131 L652 131 Z " />
<glyph glyph-name="Cdot" unicode="&#x10a;" horiz-adv-x="706" d="M384 865 C400 865 416 881 416 897 C416 914 400 930 384 930 C368 930 352 914 352 897 C352 881 368 865 384 865 L384 865 Z M661 2 L661 216 L647 216 C645 210 643 197 641 191 C628 138 564 62 509 36 L509 36 C468 17 423 5 379 5 C250 5 126 187 126 376 C126 565 255 746 390 746 C434 746 475 735 512 717 L512 717 C565 692 628 615 641 560 C643 554 645 541 647 535 L661 535 L661 746 L654 746 C654 740 653 727 653 721 C651 689 612 682 574 706 L574 706 C522 739 458 762 384 762 C219 762 61 573 61 377 C61 181 214 -8 374 -8 C446 -8 517 16 574 50 C613 71 651 62 653 30 C653 23 654 11 654 4 L661 2 L661 2 Z M652 131 L652 131 L652 131 L652 131 Z " />
<glyph glyph-name="cdot" unicode="&#x10b;" horiz-adv-x="465" d="M262 615 C278 615 294 631 294 647 C294 664 278 680 262 680 C246 680 230 664 230 647 C230 631 246 615 262 615 L262 615 Z M435 128 L428 131 C403 75 322 21 262 21 C177 21 95 140 95 264 C95 384 175 499 259 499 C306 499 368 453 385 405 C390 392 402 380 410 380 C427 380 440 392 435 405 C416 459 331 510 262 510 C151 510 45 377 45 239 C45 112 143 -10 245 -10 C311 -10 404 58 435 128 L435 128 Z " />
<glyph glyph-name="Ccaron" unicode="&#x10c;" horiz-adv-x="706" d="M526 1042 L384 874 L242 1042 L235 1037 L366 835 C369 830 379 817 384 817 C389 817 399 830 402 835 L533 1037 L526 1042 L526 1042 Z M661 2 L661 216 L647 216 C645 210 643 197 641 191 C628 138 564 62 509 36 L509 36 C468 17 423 5 379 5 C250 5 126 187 126 376 C126 565 255 746 390 746 C434 746 475 735 512 717 L512 717 C565 692 628 615 641 560 C643 554 645 541 647 535 L661 535 L661 746 L654 746 C654 740 653 727 653 721 C651 689 612 682 574 706 L574 706 C522 739 458 762 384 762 C219 762 61 573 61 377 C61 181 214 -8 374 -8 C446 -8 517 16 574 50 C613 71 651 62 653 30 C653 23 654 11 654 4 L661 2 L661 2 Z M652 131 L652 131 L652 131 L652 131 Z " />
<glyph glyph-name="ccaron" unicode="&#x10d;" horiz-adv-x="465" d="M404 792 L262 624 L120 792 L113 787 L244 585 C247 580 257 567 262 567 C267 567 277 580 280 585 L411 787 L404 792 L404 792 Z M435 128 L428 131 C403 75 322 21 262 21 C177 21 95 140 95 264 C95 384 175 499 259 499 C306 499 368 453 385 405 C390 392 402 380 410 380 C427 380 440 392 435 405 C416 459 331 510 262 510 C151 510 45 377 45 239 C45 112 143 -10 245 -10 C311 -10 404 58 435 128 L435 128 Z " />
<glyph glyph-name="Dcaron" unicode="&#x10e;" horiz-adv-x="810" d="M565 1042 L422 873 L280 1042 L273 1037 L405 835 C408 830 418 817 423 817 C427 817 437 830 440 835 L572 1037 L565 1042 L565 1042 Z M276 12 C229 12 214 49 214 88 L214 738 L287 738 C513 738 690 560 690 375 C690 171 487 12 276 12 L276 12 Z M70 747 L84 747 C120 747 155 712 155 676 L155 74 C155 38 120 3 84 3 L70 3 L70 0 L294 0 C529 0 755 165 755 375 C755 566 570 750 334 750 L70 750 L70 747 L70 747 Z " />
<glyph glyph-name="dcaron" unicode="&#x10f;" horiz-adv-x="592" d="M578 760 C569 760 557 691 553 653 L540 542 L548 541 L578 648 C589 687 600 738 600 753 C600 757 589 760 578 760 L578 760 Z M377 720 L387 722 C415 726 442 697 442 664 L442 449 C403 483 347 510 298 510 C156 510 45 385 45 254 C45 122 157 -5 273 -5 C330 -5 410 32 441 72 L441 0 L466 0 C494 8 548 22 576 30 L576 33 L562 29 C526 19 491 45 491 81 L491 750 L466 750 C443 744 399 732 376 726 L377 720 L377 720 Z M441 375 L441 89 C412 51 341 16 293 16 C192 16 95 139 95 267 C95 383 186 495 303 495 C355 495 424 430 441 375 L441 375 Z " />
<glyph glyph-name="Emacron" unicode="&#x112;" horiz-adv-x="621" d="M191 901 L491 901 L491 936 L191 936 L191 901 L191 901 Z M455 534 L450 500 C443 448 388 399 337 399 L214 399 L214 738 L398 738 C449 738 510 689 523 637 L532 603 L542 603 C538 639 530 708 526 744 L525 744 L524 750 L50 750 L50 747 L66 747 C111 747 155 702 155 656 L155 94 C155 48 111 3 66 3 L50 3 L50 0 L549 0 L550 6 L551 6 C557 40 568 104 574 138 L564 138 L558 119 C541 65 463 13 399 13 L302 13 C235 13 214 50 214 88 L214 385 L337 385 C388 385 443 336 450 284 L455 250 L465 250 L465 534 L455 534 L455 534 Z " />
<glyph glyph-name="emacron" unicode="&#x113;" horiz-adv-x="530" d="M146 651 L446 651 L446 686 L146 686 L146 651 L146 651 Z M109 340 L500 340 C482 444 385 510 296 510 C168 510 45 403 45 235 C45 110 157 -10 273 -10 C356 -10 462 61 489 134 L483 135 C462 78 365 23 285 23 C190 23 98 137 98 255 C98 286 102 314 109 340 L109 340 Z M442 355 L113 352 C144 444 218 499 293 499 C353 499 421 443 442 354 L442 355 L442 355 Z " />
<glyph glyph-name="Ebreve" unicode="&#x114;" horiz-adv-x="621" d="M216 995 C219 941 280 889 341 889 C401 889 461 940 464 994 L454 995 C452 959 397 924 341 924 C285 924 229 959 227 996 L216 995 L216 995 Z M455 534 L450 500 C443 448 388 399 337 399 L214 399 L214 738 L398 738 C449 738 510 689 523 637 L532 603 L542 603 C538 639 530 708 526 744 L525 744 L524 750 L50 750 L50 747 L66 747 C111 747 155 702 155 656 L155 94 C155 48 111 3 66 3 L50 3 L50 0 L549 0 L550 6 L551 6 C557 40 568 104 574 138 L564 138 L558 119 C541 65 463 13 399 13 L302 13 C235 13 214 50 214 88 L214 385 L337 385 C388 385 443 336 450 284 L455 250 L465 250 L465 534 L455 534 L455 534 Z " />
<glyph glyph-name="ebreve" unicode="&#x115;" horiz-adv-x="530" d="M172 745 C175 691 236 639 296 639 C356 639 417 690 420 744 L410 745 C408 709 352 674 296 674 C240 674 184 709 182 746 L172 745 L172 745 Z M109 340 L500 340 C482 444 385 510 296 510 C168 510 45 403 45 235 C45 110 157 -10 273 -10 C356 -10 462 61 489 134 L483 135 C462 78 365 23 285 23 C190 23 98 137 98 255 C98 286 102 314 109 340 L109 340 Z M442 355 L113 352 C144 444 218 499 293 499 C353 499 421 443 442 354 L442 355 L442 355 Z " />
<glyph glyph-name="Edot" unicode="&#x116;" horiz-adv-x="621" d="M341 865 C357 865 373 881 373 897 C373 914 357 930 341 930 C324 930 308 914 308 897 C308 881 324 865 341 865 L341 865 Z M455 534 L450 500 C443 448 388 399 337 399 L214 399 L214 738 L398 738 C449 738 510 689 523 637 L532 603 L542 603 C538 639 530 708 526 744 L525 744 L524 750 L50 750 L50 747 L66 747 C111 747 155 702 155 656 L155 94 C155 48 111 3 66 3 L50 3 L50 0 L549 0 L550 6 L551 6 C557 40 568 104 574 138 L564 138 L558 119 C541 65 463 13 399 13 L302 13 C235 13 214 50 214 88 L214 385 L337 385 C388 385 443 336 450 284 L455 250 L465 250 L465 534 L455 534 L455 534 Z " />
<glyph glyph-name="edot" unicode="&#x117;" horiz-adv-x="530" d="M296 615 C312 615 328 631 328 647 C328 664 312 680 296 680 C280 680 264 664 264 647 C264 631 280 615 296 615 L296 615 Z M109 340 L500 340 C482 444 385 510 296 510 C168 510 45 403 45 235 C45 110 157 -10 273 -10 C356 -10 462 61 489 134 L483 135 C462 78 365 23 285 23 C190 23 98 137 98 255 C98 286 102 314 109 340 L109 340 Z M442 355 L113 352 C144 444 218 499 293 499 C353 499 421 443 442 354 L442 355 L442 355 Z " />
<glyph glyph-name="Ecaron" unicode="&#x11a;" horiz-adv-x="621" d="M483 1042 L340 873 L198 1042 L191 1037 L323 835 C326 830 336 817 341 817 C345 817 355 830 358 835 L490 1037 L483 1042 L483 1042 Z M455 534 L450 500 C443 448 388 399 337 399 L214 399 L214 738 L398 738 C449 738 510 689 523 637 L532 603 L542 603 C538 639 530 708 526 744 L525 744 L524 750 L50 750 L50 747 L66 747 C111 747 155 702 155 656 L155 94 C155 48 111 3 66 3 L50 3 L50 0 L549 0 L550 6 L551 6 C557 40 568 104 574 138 L564 138 L558 119 C541 65 463 13 399 13 L302 13 C235 13 214 50 214 88 L214 385 L337 385 C388 385 443 336 450 284 L455 250 L465 250 L465 534 L455 534 L455 534 Z " />
<glyph glyph-name="ecaron" unicode="&#x11b;" horiz-adv-x="530" d="M438 792 L296 624 L154 792 L147 787 L278 585 C281 580 291 567 296 567 C301 567 311 580 314 585 L445 787 L438 792 L438 792 Z M109 340 L500 340 C482 444 385 510 296 510 C168 510 45 403 45 235 C45 110 157 -10 273 -10 C356 -10 462 61 489 134 L483 135 C462 78 365 23 285 23 C190 23 98 137 98 255 C98 286 102 314 109 340 L109 340 Z M442 355 L113 352 C144 444 218 499 293 499 C353 499 421 443 442 354 L442 355 L442 355 Z " />
<glyph glyph-name="Gcircumflex" unicode="&#x11c;" horiz-adv-x="781" d="M661 534 L661 745 L654 745 C654 739 653 726 653 720 C651 688 612 681 574 705 L574 705 C522 738 458 761 384 761 C219 761 61 572 61 376 C61 180 216 -9 378 -9 C502 -9 639 26 717 62 L713 70 C692 60 667 51 639 42 L639 217 C639 271 679 323 720 323 L734 323 L734 326 L485 326 L485 323 L499 323 C540 323 580 271 580 217 C580 170 580 117 580 78 C573 44 502 12 421 5 C446 7 478 10 506 13 C467 7 427 3 388 3 C254 3 126 186 126 376 C126 565 255 746 390 746 C434 746 475 735 512 717 L512 717 C565 692 628 615 641 560 C643 554 645 541 647 535 L661 534 L661 534 Z M402 1016 C399 1021 389 1034 384 1034 C379 1034 369 1021 366 1016 L235 814 L242 809 L384 977 L526 809 L533 814 L402 1016 L402 1016 Z M421 4 C410 3 399 2 388 2 C397 2 409 3 422 4 L421 4 L421 4 Z " />
<glyph glyph-name="Gbreve" unicode="&#x11e;" horiz-adv-x="781" d="M260 995 C263 941 324 889 384 889 C444 889 505 940 508 994 L498 995 C496 959 440 924 384 924 C328 924 272 959 270 996 L260 995 L260 995 Z M661 534 L661 745 L654 745 C654 739 653 726 653 720 C651 688 612 681 574 705 L574 705 C522 738 458 761 384 761 C219 761 61 572 61 376 C61 180 216 -9 378 -9 C502 -9 639 26 717 62 L713 70 C692 60 667 51 639 42 L639 217 C639 271 679 323 720 323 L734 323 L734 326 L485 326 L485 323 L499 323 C540 323 580 271 580 217 C580 170 580 117 580 78 C573 44 502 12 421 5 C446 7 478 10 506 13 C467 7 427 3 388 3 C254 3 126 186 126 376 C126 565 255 746 390 746 C434 746 475 735 512 717 L512 717 C565 692 628 615 641 560 C643 554 645 541 647 535 L661 534 L661 534 Z M421 4 C410 3 399 2 388 2 C397 2 409 3 422 4 L421 4 L421 4 Z " />
<glyph glyph-name="gbreve" unicode="&#x11f;" horiz-adv-x="520" d="M136 745 C139 691 200 639 260 639 C320 639 381 690 384 744 L374 745 C372 709 316 674 260 674 C204 674 148 709 146 746 L136 745 L136 745 Z M540 459 C540 474 524 489 508 489 C473 489 430 459 413 424 C381 473 321 510 259 510 C169 510 83 432 83 350 C83 282 141 217 212 196 C130 185 60 147 60 108 C60 68 105 30 158 21 C102 3 52 -49 52 -91 C52 -161 158 -228 268 -228 C378 -228 484 -154 484 -77 C484 -3 413 69 300 69 L185 69 C136 69 88 96 88 124 C88 158 172 190 259 190 C371 190 476 309 417 417 C431 440 456 459 477 459 C487 459 508 439 518 439 C529 439 539 450 539 461 L540 459 L540 459 Z M259 202 C195 202 133 276 133 352 C133 427 195 500 259 500 C323 500 385 427 385 352 C385 276 323 202 259 202 L259 202 Z M168 20 C173 20 178 20 183 20 L296 20 C387 20 444 -32 444 -87 C444 -153 360 -216 272 -216 C181 -216 94 -148 94 -78 C94 -40 129 4 169 21 L168 20 L168 20 Z " />
<glyph glyph-name="Gdot" unicode="&#x120;" horiz-adv-x="781" d="M384 865 C400 865 416 881 416 897 C416 914 400 930 384 930 C368 930 352 914 352 897 C352 881 368 865 384 865 L384 865 Z M661 534 L661 745 L654 745 C654 739 653 726 653 720 C651 688 612 681 574 705 L574 705 C522 738 458 761 384 761 C219 761 61 572 61 376 C61 180 216 -9 378 -9 C502 -9 639 26 717 62 L713 70 C692 60 667 51 639 42 L639 217 C639 271 679 323 720 323 L734 323 L734 326 L485 326 L485 323 L499 323 C540 323 580 271 580 217 C580 170 580 117 580 78 C573 44 502 12 421 5 C446 7 478 10 506 13 C467 7 427 3 388 3 C254 3 126 186 126 376 C126 565 255 746 390 746 C434 746 475 735 512 717 L512 717 C565 692 628 615 641 560 C643 554 645 541 647 535 L661 534 L661 534 Z M421 4 C410 3 399 2 388 2 C397 2 409 3 422 4 L421 4 L421 4 Z " />
<glyph glyph-name="gdot" unicode="&#x121;" horiz-adv-x="520" d="M260 615 C276 615 292 631 292 647 C292 664 276 680 260 680 C244 680 228 664 228 647 C228 631 244 615 260 615 L260 615 Z M540 459 C540 474 524 489 508 489 C473 489 430 459 413 424 C381 473 321 510 259 510 C169 510 83 432 83 350 C83 282 141 217 212 196 C130 185 60 147 60 108 C60 68 105 30 158 21 C102 3 52 -49 52 -91 C52 -161 158 -228 268 -228 C378 -228 484 -154 484 -77 C484 -3 413 69 300 69 L185 69 C136 69 88 96 88 124 C88 158 172 190 259 190 C371 190 476 309 417 417 C431 440 456 459 477 459 C487 459 508 439 518 439 C529 439 539 450 539 461 L540 459 L540 459 Z M259 202 C195 202 133 276 133 352 C133 427 195 500 259 500 C323 500 385 427 385 352 C385 276 323 202 259 202 L259 202 Z M168 20 C173 20 178 20 183 20 L296 20 C387 20 444 -32 444 -87 C444 -153 360 -216 272 -216 C181 -216 94 -148 94 -78 C94 -40 129 4 169 21 L168 20 L168 20 Z " />
<glyph glyph-name="Hcircumflex" unicode="&#x124;" horiz-adv-x="820" d="M451 1015 C448 1020 438 1033 433 1033 C428 1033 418 1020 415 1015 L284 813 L291 808 L433 976 L575 808 L582 813 L451 1015 L451 1015 Z M760 3 L746 3 C710 3 675 38 675 74 L675 676 C675 712 710 747 746 747 L760 747 L760 750 L531 750 L531 747 L545 747 C581 747 616 712 616 676 L616 398 L250 398 L250 676 C250 712 285 747 321 747 L335 747 L335 750 L106 750 L106 747 L120 747 C156 747 191 712 191 676 L191 74 C191 38 156 3 120 3 L106 3 L106 0 L335 0 L335 3 L321 3 C285 3 250 38 250 74 L250 383 L616 383 L616 74 C616 38 581 3 545 3 L531 3 L531 0 L760 0 L760 3 L760 3 Z " />
<glyph glyph-name="Itilde" unicode="&#x128;" horiz-adv-x="364" d="M48 870 C48 904 70 936 93 936 C139 936 226 871 272 871 C307 871 341 918 341 966 L332 966 C332 935 308 906 284 906 C238 906 151 971 105 971 C71 971 39 922 39 870 L48 870 L48 870 Z M304 3 L290 3 C254 3 219 38 219 74 L219 676 C219 712 254 747 290 747 L304 747 L304 750 L76 750 L76 747 L90 747 C126 747 161 712 161 676 L161 74 C161 38 126 3 90 3 L76 3 L76 0 L304 0 L304 3 L304 3 Z " />
<glyph glyph-name="itilde" unicode="&#x129;" horiz-adv-x="294" d="M17 621 C17 655 39 687 62 687 C108 687 195 622 241 622 C276 622 310 669 310 717 L301 717 C301 686 277 657 253 657 C207 657 120 722 74 722 C40 722 8 673 8 621 L17 621 L17 621 Z M69 473 L98 481 C116 486 134 473 134 455 L134 39 C134 21 116 3 98 3 L69 3 L69 0 L249 0 L249 3 L220 3 C202 3 184 21 184 39 L184 500 L159 500 C136 494 92 482 69 476 L69 473 L69 473 Z " />
<glyph glyph-name="Imacron" unicode="&#x12a;" horiz-adv-x="364" d="M40 901 L340 901 L340 936 L40 936 L40 901 L40 901 Z M304 3 L290 3 C254 3 219 38 219 74 L219 676 C219 712 254 747 290 747 L304 747 L304 750 L76 750 L76 747 L90 747 C126 747 161 712 161 676 L161 74 C161 38 126 3 90 3 L76 3 L76 0 L304 0 L304 3 L304 3 Z " />
<glyph glyph-name="imacron" unicode="&#x12b;" horiz-adv-x="294" d="M9 652 L309 652 L309 687 L9 687 L9 652 L9 652 Z M69 473 L98 481 C116 486 134 473 134 455 L134 39 C134 21 116 3 98 3 L69 3 L69 0 L249 0 L249 3 L220 3 C202 3 184 21 184 39 L184 500 L159 500 C136 494 92 482 69 476 L69 473 L69 473 Z " />
<glyph glyph-name="Ibreve" unicode="&#x12c;" horiz-adv-x="364" d="M66 995 C69 941 130 889 190 889 C250 889 311 940 314 994 L304 995 C302 959 246 924 190 924 C134 924 78 959 76 996 L66 995 L66 995 Z M304 3 L290 3 C254 3 219 38 219 74 L219 676 C219 712 254 747 290 747 L304 747 L304 750 L76 750 L76 747 L90 747 C126 747 161 712 161 676 L161 74 C161 38 126 3 90 3 L76 3 L76 0 L304 0 L304 3 L304 3 Z " />
<glyph glyph-name="ibreve" unicode="&#x12d;" horiz-adv-x="294" d="M35 746 C38 692 99 640 159 640 C219 640 280 691 283 745 L273 746 C271 710 215 675 159 675 C103 675 47 710 45 747 L35 746 L35 746 Z M69 473 L98 481 C116 486 134 473 134 455 L134 39 C134 21 116 3 98 3 L69 3 L69 0 L249 0 L249 3 L220 3 C202 3 184 21 184 39 L184 500 L159 500 C136 494 92 482 69 476 L69 473 L69 473 Z " />
<glyph glyph-name="Idot" unicode="&#x130;" horiz-adv-x="364" d="M190 865 C206 865 222 881 222 897 C222 914 206 930 190 930 C174 930 158 914 158 897 C158 881 174 865 190 865 L190 865 Z M304 3 L290 3 C254 3 219 38 219 74 L219 676 C219 712 254 747 290 747 L304 747 L304 750 L76 750 L76 747 L90 747 C126 747 161 712 161 676 L161 74 C161 38 126 3 90 3 L76 3 L76 0 L304 0 L304 3 L304 3 Z " />
<glyph glyph-name="dotlessi" unicode="&#x131;" horiz-adv-x="294" d="M69 473 L98 481 C116 486 134 473 134 455 L134 39 C134 21 116 3 98 3 L69 3 L69 0 L249 0 L249 3 L220 3 C202 3 184 21 184 39 L184 500 L159 500 C136 494 92 482 69 476 L69 473 L69 473 Z " />
<glyph glyph-name="Jcircumflex" unicode="&#x134;" horiz-adv-x="364" d="M208 1015 C205 1020 195 1033 190 1033 C185 1033 175 1020 172 1015 L41 813 L48 808 L190 976 L332 808 L339 813 L208 1015 L208 1015 Z M304 750 L76 750 L76 747 L90 747 C125 747 159 714 161 679 C161 518 160 123 160 -34 C160 -152 90 -199 51 -199 C26 -199 32 -152 7 -152 C-7 -152 -20 -165 -20 -178 C-20 -199 7 -220 36 -220 C102 -220 220 -135 220 78 C220 209 219 535 219 679 C221 714 255 747 290 747 L304 747 L304 750 L304 750 Z " />
<glyph glyph-name="Lacute" unicode="&#x139;" horiz-adv-x="629" d="M197 813 L336 936 C372 968 406 1001 406 1005 C406 1016 393 1029 382 1029 C378 1029 345 995 313 959 L190 820 L197 813 L197 813 Z M578 135 L568 135 L562 116 C545 62 467 10 403 10 L307 10 C240 10 219 48 219 88 L219 676 C219 712 254 747 290 747 L304 747 L304 750 L76 750 L76 747 L90 747 C126 747 161 712 161 676 L161 74 C161 38 126 3 90 3 L76 3 L76 0 L554 0 C561 35 572 100 578 135 L578 135 Z " />
<glyph glyph-name="Lcaron" unicode="&#x13d;" horiz-adv-x="629" d="M405 809 C396 809 384 740 380 702 L367 591 L375 590 L405 697 C416 736 427 787 427 802 C427 806 416 809 405 809 L405 809 Z M578 135 L568 135 L562 116 C545 62 467 10 403 10 L307 10 C240 10 219 48 219 88 L219 676 C219 712 254 747 290 747 L304 747 L304 750 L76 750 L76 747 L90 747 C126 747 161 712 161 676 L161 74 C161 38 126 3 90 3 L76 3 L76 0 L554 0 C561 35 572 100 578 135 L578 135 Z " />
<glyph glyph-name="lcaron" unicode="&#x13e;" horiz-adv-x="238" d="M229 760 C220 760 208 691 204 653 L191 542 L199 541 L229 648 C240 687 251 738 251 753 C251 757 240 760 229 760 L229 760 Z M28 720 L38 722 C66 726 93 697 93 664 L93 39 C93 21 75 3 57 3 L28 3 L28 0 L208 0 L208 3 L179 3 C161 3 143 21 143 39 L143 750 L118 750 C95 744 51 732 28 726 L28 720 L28 720 Z " />
<glyph glyph-name="Nacute" unicode="&#x143;" horiz-adv-x="766" d="M288 813 L427 936 C463 968 497 1001 497 1005 C497 1016 484 1029 473 1029 C469 1029 436 995 404 959 L281 820 L288 813 L288 813 Z M14 747 L28 747 C61 747 114 717 141 684 L141 74 C141 38 106 3 70 3 L56 3 L56 0 L243 0 L243 3 L229 3 C193 3 158 38 158 74 L158 74 L156 662 C305 441 454 219 604 -1 L616 -1 L620 675 L620 675 C620 711 655 746 691 746 L705 746 L705 749 L518 749 L518 746 L532 746 C568 746 603 711 603 675 L604 104 L599 111 L169 749 L13 749 L14 747 L14 747 Z " />
<glyph glyph-name="Ncaron" unicode="&#x147;" horiz-adv-x="766" d="M523 1042 L381 874 L239 1042 L232 1037 L363 835 C366 830 376 817 381 817 C386 817 396 830 399 835 L530 1037 L523 1042 L523 1042 Z M14 747 L28 747 C61 747 114 717 141 684 L141 74 C141 38 106 3 70 3 L56 3 L56 0 L243 0 L243 3 L229 3 C193 3 158 38 158 74 L158 74 L156 662 C305 441 454 219 604 -1 L616 -1 L620 675 L620 675 C620 711 655 746 691 746 L705 746 L705 749 L518 749 L518 746 L532 746 C568 746 603 711 603 675 L604 104 L599 111 L169 749 L13 749 L14 747 L14 747 Z " />
<glyph glyph-name="ncaron" unicode="&#x148;" horiz-adv-x="535" d="M409 793 L266 624 L124 793 L117 788 L249 586 C252 581 262 568 267 568 C271 568 281 581 284 586 L416 788 L409 793 L409 793 Z M28 470 L38 472 C66 476 93 447 93 414 L93 39 C93 21 75 3 57 3 L28 3 L28 0 L208 0 L208 3 L179 3 C161 3 143 21 143 39 L143 362 C176 419 241 473 277 473 C340 473 390 403 390 330 L390 39 C390 21 372 3 354 3 L325 3 L325 0 L505 0 L505 3 L476 3 C458 3 440 21 440 39 L440 330 C440 422 381 510 306 510 C262 510 182 444 143 376 L143 500 L118 500 C95 494 51 482 28 476 L28 470 L28 470 Z " />
<glyph glyph-name="Omacron" unicode="&#x14c;" horiz-adv-x="806" d="M251 901 L551 901 L551 936 L251 936 L251 901 L251 901 Z M125 375 C125 564 259 745 398 745 C545 745 687 564 687 375 C687 186 543 5 394 5 C257 5 125 186 125 375 L125 375 Z M61 375 C61 179 223 -10 391 -10 C575 -10 751 179 751 375 C751 571 580 760 401 760 C228 760 61 571 61 375 L61 375 Z " />
<glyph glyph-name="omacron" unicode="&#x14d;" horiz-adv-x="604" d="M152 651 L452 651 L452 686 L152 686 L152 651 L152 651 Z M100 250 C100 375 199 495 302 495 C405 495 504 375 504 250 C504 125 405 5 302 5 C199 5 100 125 100 250 L100 250 Z M45 250 C45 117 171 -10 302 -10 C433 -10 559 117 559 250 C559 383 433 510 302 510 C171 510 45 383 45 250 L45 250 Z " />
<glyph glyph-name="Obreve" unicode="&#x14e;" horiz-adv-x="806" d="M277 995 C280 941 341 889 401 889 C461 889 522 940 525 994 L515 995 C513 959 457 924 401 924 C345 924 289 959 287 996 L277 995 L277 995 Z M125 375 C125 564 259 745 398 745 C545 745 687 564 687 375 C687 186 543 5 394 5 C257 5 125 186 125 375 L125 375 Z M61 375 C61 179 223 -10 391 -10 C575 -10 751 179 751 375 C751 571 580 760 401 760 C228 760 61 571 61 375 L61 375 Z " />
<glyph glyph-name="obreve" unicode="&#x14f;" horiz-adv-x="604" d="M178 745 C181 691 242 639 302 639 C362 639 423 690 426 744 L416 745 C414 709 358 674 302 674 C246 674 190 709 188 746 L178 745 L178 745 Z M100 250 C100 375 199 495 302 495 C405 495 504 375 504 250 C504 125 405 5 302 5 C199 5 100 125 100 250 L100 250 Z M45 250 C45 117 171 -10 302 -10 C433 -10 559 117 559 250 C559 383 433 510 302 510 C171 510 45 383 45 250 L45 250 Z " />
<glyph glyph-name="Racute" unicode="&#x154;" horiz-adv-x="718" d="M336 813 L475 936 C511 968 545 1001 545 1005 C545 1016 532 1029 521 1029 C517 1029 484 995 452 959 L329 820 L336 813 L336 813 Z M70 747 L84 747 C120 747 155 712 155 676 L155 74 C155 38 120 3 84 3 L70 3 L70 0 L299 0 L299 3 L285 3 C249 3 214 38 214 74 L214 365 L350 365 C365 330 437 194 510 63 C538 12 575 0 708 0 L708 2 C630 2 607 13 579 63 C504 199 431 331 409 370 C496 389 568 453 568 538 C568 645 463 748 353 748 L70 748 L70 747 L70 747 Z M214 378 L214 736 L335 736 C421 736 503 645 503 550 C503 449 430 378 353 378 L214 378 L214 378 Z " />
<glyph glyph-name="Rcaron" unicode="&#x158;" horiz-adv-x="718" d="M471 1042 L329 874 L187 1042 L180 1037 L311 835 C314 830 324 817 329 817 C334 817 344 830 347 835 L478 1037 L471 1042 L471 1042 Z M70 747 L84 747 C120 747 155 712 155 676 L155 74 C155 38 120 3 84 3 L70 3 L70 0 L299 0 L299 3 L285 3 C249 3 214 38 214 74 L214 365 L350 365 C365 330 437 194 510 63 C538 12 575 0 708 0 L708 2 C630 2 607 13 579 63 C504 199 431 331 409 370 C496 389 568 453 568 538 C568 645 463 748 353 748 L70 748 L70 747 L70 747 Z M214 378 L214 736 L335 736 C421 736 503 645 503 550 C503 449 430 378 353 378 L214 378 L214 378 Z " />
<glyph glyph-name="rcaron" unicode="&#x159;" horiz-adv-x="363" d="M361 793 L219 625 L77 793 L70 788 L201 586 C204 581 214 568 219 568 C224 568 234 581 237 586 L368 788 L361 793 L361 793 Z M29 470 L39 472 C67 476 94 447 94 414 L94 39 C94 21 76 3 58 3 L29 3 L29 0 L209 0 L209 3 L180 3 C162 3 144 21 144 39 L144 365 C166 428 224 487 266 487 C280 487 294 470 294 452 C294 437 309 423 324 423 C339 423 353 437 353 452 C353 482 322 510 289 510 C235 510 167 453 144 391 L144 500 L119 500 C96 494 52 482 29 476 L29 470 L29 470 Z " />
<glyph glyph-name="Sacute" unicode="&#x15a;" horiz-adv-x="546" d="M281 813 L420 936 C456 968 490 1001 490 1005 C490 1016 477 1029 466 1029 C462 1029 429 995 397 959 L274 820 L281 813 L281 813 Z M463 554 L463 753 L456 753 C456 747 455 737 455 731 C453 705 422 697 391 714 C347 741 292 760 245 760 C157 760 72 670 72 576 C72 508 165 399 283 344 C381 298 458 215 458 165 C458 85 381 9 301 9 C271 9 237 18 204 34 C150 60 85 144 72 207 C70 214 68 229 66 236 L52 236 L52 1 L59 1 C59 9 60 24 60 32 C62 69 101 78 140 50 L140 50 C190 14 251 -10 301 -10 C405 -10 505 85 505 183 C505 252 423 357 318 406 C205 459 117 548 117 598 C117 673 180 745 245 745 C248 745 304 740 303 736 C360 720 429 644 442 582 C444 575 446 561 448 554 L463 554 L463 554 Z " />
<glyph glyph-name="Scircumflex" unicode="&#x15c;" horiz-adv-x="546" d="M463 554 L463 753 L456 753 C456 747 455 737 455 731 C453 705 422 697 391 714 C347 741 292 760 245 760 C157 760 72 670 72 576 C72 508 165 399 283 344 C381 298 458 215 458 165 C458 85 381 9 301 9 C271 9 237 18 204 34 C150 60 85 144 72 207 C70 214 68 229 66 236 L52 236 L52 1 L59 1 C59 9 60 24 60 32 C62 69 101 78 140 50 L140 50 C190 14 251 -10 301 -10 C405 -10 505 85 505 183 C505 252 423 357 318 406 C205 459 117 548 117 598 C117 673 180 745 245 745 C248 745 304 740 303 736 C360 720 429 644 442 582 C444 575 446 561 448 554 L463 554 L463 554 Z M291 1015 C288 1020 278 1033 273 1033 C268 1033 258 1020 255 1015 L124 813 L131 808 L273 976 L415 808 L422 813 L291 1015 L291 1015 Z " />
<glyph glyph-name="Scaron" unicode="&#x160;" horiz-adv-x="546" d="M416 1042 L274 874 L132 1042 L125 1037 L256 835 C259 830 269 817 274 817 C279 817 289 830 292 835 L423 1037 L416 1042 L416 1042 Z M463 554 L463 753 L456 753 C456 747 455 737 455 731 C453 705 422 697 391 714 C347 741 292 760 245 760 C157 760 72 670 72 576 C72 508 165 399 283 344 C381 298 458 215 458 165 C458 85 381 9 301 9 C271 9 237 18 204 34 C150 60 85 144 72 207 C70 214 68 229 66 236 L52 236 L52 1 L59 1 C59 9 60 24 60 32 C62 69 101 78 140 50 L140 50 C190 14 251 -10 301 -10 C405 -10 505 85 505 183 C505 252 423 357 318 406 C205 459 117 548 117 598 C117 673 180 745 245 745 C248 745 304 740 303 736 C360 720 429 644 442 582 C444 575 446 561 448 554 L463 554 L463 554 Z " />
<glyph glyph-name="scaron" unicode="&#x161;" horiz-adv-x="422" d="M368 792 L226 624 L84 792 L77 787 L208 585 C211 580 221 567 226 567 C231 567 241 580 244 585 L375 787 L368 792 L368 792 Z M60 174 L60 0 L65 0 C65 5 66 15 66 20 C67 37 106 34 145 13 L145 13 C172 -1 201 -10 226 -10 C300 -10 372 54 372 121 C372 171 313 241 237 269 C159 297 98 362 98 406 C98 453 144 498 192 498 C202 498 212 497 223 494 C280 480 339 411 339 346 L344 346 L344 510 L339 510 C339 506 338 497 338 493 C337 479 296 481 254 498 L254 498 C233 506 211 511 191 511 C125 511 61 452 61 390 C61 338 128 263 214 232 C280 208 332 149 332 108 C332 54 280 3 225 3 C223 3 174 10 176 14 C121 36 64 111 64 175 L60 174 L60 174 Z " />
<glyph glyph-name="Tcaron" unicode="&#x164;" horiz-adv-x="775" d="M531 1042 L389 874 L247 1042 L240 1037 L371 835 C374 830 384 817 389 817 C394 817 404 830 407 835 L538 1037 L531 1042 L531 1042 Z M694 795 L692 788 C684 769 629 750 577 750 L200 750 C148 750 92 769 85 788 L83 795 L74 795 C70 783 62 764 56 750 L55 750 L55 747 C54 745 53 743 52 742 L53 742 C39 708 13 644 -1 610 L9 610 L20 629 C49 683 129 735 183 735 L357 735 L357 74 C357 38 322 3 286 3 L272 3 L272 0 L501 0 L501 3 L487 3 C451 3 416 38 416 74 L416 735 L592 735 C646 735 726 683 755 629 L766 610 L776 610 C762 644 736 708 722 742 L723 742 C718 756 708 781 702 795 L694 795 L694 795 Z " />
<glyph glyph-name="tcaron" unicode="&#x165;" horiz-adv-x="339" d="M299 500 L145 500 L145 620 L141 620 L30 500 L30 490 L95 490 L95 129 C95 44 152 -10 212 -10 C246 -10 304 28 329 68 L324 71 C306 42 258 14 227 14 C185 14 144 54 144 118 L145 474 L299 474 L299 500 L299 500 Z M385 759 C376 759 364 690 360 652 L347 541 L355 540 L385 647 C396 686 407 737 407 752 C407 756 396 759 385 759 L385 759 Z " />
<glyph glyph-name="Utilde" unicode="&#x168;" horiz-adv-x="698" d="M210 870 C210 904 232 936 255 936 C301 936 388 871 434 871 C469 871 502 918 502 966 L493 966 C493 935 470 906 446 906 C400 906 312 971 266 971 C233 971 201 922 201 870 L210 870 L210 870 Z M668 34 L654 30 C618 20 583 46 583 82 L583 750 L439 750 L439 747 L453 747 C489 747 524 712 524 676 L524 176 C489 101 374 28 289 28 C233 28 179 122 179 220 L179 750 L35 750 L35 747 L49 747 C85 747 120 712 120 676 L120 220 C120 103 191 -10 265 -10 C359 -10 486 68 524 149 L524 0 L553 0 C556 0 583 7 583 8 C612 16 647 25 668 31 L668 34 L668 34 Z " />
<glyph glyph-name="utilde" unicode="&#x169;" horiz-adv-x="526" d="M121 620 C121 654 143 686 166 686 C212 686 299 621 345 621 C380 621 413 668 413 716 L404 716 C404 685 381 656 357 656 C311 656 223 721 177 721 C144 721 112 672 112 620 L121 620 L121 620 Z M511 30 L500 27 C467 18 436 45 436 81 L436 500 L321 500 L321 497 L350 497 C368 497 386 479 386 461 L386 137 C358 78 291 25 241 25 C189 25 139 91 139 160 L139 500 L24 500 L24 497 L53 497 C71 497 89 479 89 461 L89 160 C89 73 152 -10 217 -10 C275 -10 354 53 386 122 L386 0 L411 0 C436 7 485 20 511 27 L511 30 L511 30 Z " />
<glyph glyph-name="Umacron" unicode="&#x16a;" horiz-adv-x="698" d="M202 901 L502 901 L502 936 L202 936 L202 901 L202 901 Z M668 34 L654 30 C618 20 583 46 583 82 L583 750 L439 750 L439 747 L453 747 C489 747 524 712 524 676 L524 176 C489 101 374 28 289 28 C233 28 179 122 179 220 L179 750 L35 750 L35 747 L49 747 C85 747 120 712 120 676 L120 220 C120 103 191 -10 265 -10 C359 -10 486 68 524 149 L524 0 L553 0 C556 0 583 7 583 8 C612 16 647 25 668 31 L668 34 L668 34 Z " />
<glyph glyph-name="umacron" unicode="&#x16b;" horiz-adv-x="526" d="M113 651 L413 651 L413 686 L113 686 L113 651 L113 651 Z M511 30 L500 27 C467 18 436 45 436 81 L436 500 L321 500 L321 497 L350 497 C368 497 386 479 386 461 L386 137 C358 78 291 25 241 25 C189 25 139 91 139 160 L139 500 L24 500 L24 497 L53 497 C71 497 89 479 89 461 L89 160 C89 73 152 -10 217 -10 C275 -10 354 53 386 122 L386 0 L411 0 C436 7 485 20 511 27 L511 30 L511 30 Z " />
<glyph glyph-name="Ubreve" unicode="&#x16c;" horiz-adv-x="698" d="M227 995 C230 941 291 889 352 889 C412 889 472 940 475 994 L465 995 C463 959 408 924 352 924 C296 924 240 959 238 996 L227 995 L227 995 Z M668 34 L654 30 C618 20 583 46 583 82 L583 750 L439 750 L439 747 L453 747 C489 747 524 712 524 676 L524 176 C489 101 374 28 289 28 C233 28 179 122 179 220 L179 750 L35 750 L35 747 L49 747 C85 747 120 712 120 676 L120 220 C120 103 191 -10 265 -10 C359 -10 486 68 524 149 L524 0 L553 0 C556 0 583 7 583 8 C612 16 647 25 668 31 L668 34 L668 34 Z " />
<glyph glyph-name="ubreve" unicode="&#x16d;" horiz-adv-x="526" d="M138 745 C141 691 202 639 263 639 C323 639 383 690 386 744 L376 745 C374 709 319 674 263 674 C207 674 151 709 149 746 L138 745 L138 745 Z M511 30 L500 27 C467 18 436 45 436 81 L436 500 L321 500 L321 497 L350 497 C368 497 386 479 386 461 L386 137 C358 78 291 25 241 25 C189 25 139 91 139 160 L139 500 L24 500 L24 497 L53 497 C71 497 89 479 89 461 L89 160 C89 73 152 -10 217 -10 C275 -10 354 53 386 122 L386 0 L411 0 C436 7 485 20 511 27 L511 30 L511 30 Z " />
<glyph glyph-name="Uring" unicode="&#x16e;" horiz-adv-x="698" d="M270 905 C270 947 310 988 352 988 C393 988 433 947 433 905 C433 867 389 822 352 822 C314 822 270 867 270 905 L270 905 Z M255 905 C255 861 307 810 352 810 C396 810 448 861 448 905 C448 953 401 1000 352 1000 C303 1000 255 953 255 905 L255 905 Z M668 34 L654 30 C618 20 583 46 583 82 L583 750 L439 750 L439 747 L453 747 C489 747 524 712 524 676 L524 176 C489 101 374 28 289 28 C233 28 179 122 179 220 L179 750 L35 750 L35 747 L49 747 C85 747 120 712 120 676 L120 220 C120 103 191 -10 265 -10 C359 -10 486 68 524 149 L524 0 L553 0 C556 0 583 7 583 8 C612 16 647 25 668 31 L668 34 L668 34 Z " />
<glyph glyph-name="uring" unicode="&#x16f;" horiz-adv-x="526" d="M181 655 C181 697 221 738 263 738 C304 738 344 697 344 655 C344 617 300 572 263 572 C225 572 181 617 181 655 L181 655 Z M166 655 C166 611 218 560 263 560 C307 560 359 611 359 655 C359 703 312 750 263 750 C214 750 166 703 166 655 L166 655 Z M511 30 L500 27 C467 18 436 45 436 81 L436 500 L321 500 L321 497 L350 497 C368 497 386 479 386 461 L386 137 C358 78 291 25 241 25 C189 25 139 91 139 160 L139 500 L24 500 L24 497 L53 497 C71 497 89 479 89 461 L89 160 C89 73 152 -10 217 -10 C275 -10 354 53 386 122 L386 0 L411 0 C436 7 485 20 511 27 L511 30 L511 30 Z " />
<glyph glyph-name="Wcircumflex" unicode="&#x174;" horiz-adv-x="1063" d="M1052 750 L790 750 L790 747 L833 747 C883 747 917 702 906 652 L740 82 L567 655 C557 704 591 748 640 748 L668 748 L668 751 L394 751 L394 748 L406 748 C439 748 485 704 503 655 L552 501 L367 72 C306 264 243 456 182 647 C165 699 195 748 242 748 L258 748 L258 751 L9 751 L9 748 L20 748 C53 748 100 699 117 647 L117 647 C189 428 262 210 332 -10 L347 -10 L560 475 C611 313 662 151 713 -10 L728 -10 C794 209 859 428 926 646 C942 698 996 747 1037 747 L1051 747 L1052 750 L1052 750 Z M538 1015 C535 1020 525 1033 520 1033 C515 1033 505 1020 502 1015 L371 813 L378 808 L520 976 L662 808 L669 813 L538 1015 L538 1015 Z " />
<glyph glyph-name="Ycircumflex" unicode="&#x176;" horiz-adv-x="711" d="M252 750 L10 750 L10 747 L20 747 C49 747 96 715 121 679 L332 329 L332 94 C332 48 288 3 243 3 L227 3 L227 0 L496 0 L496 3 L480 3 C435 3 391 48 391 94 L391 331 C453 444 515 558 578 671 C599 710 657 747 695 747 L714 747 L714 750 L467 750 L467 747 L515 747 C553 747 571 710 551 671 L551 671 L385 350 L193 672 C171 711 186 747 225 747 L252 747 L252 750 L252 750 Z M379 1015 C376 1020 366 1033 362 1033 C357 1033 347 1020 344 1015 L212 813 L219 808 L361 977 L504 808 L511 813 L379 1015 L379 1015 Z " />
<glyph glyph-name="Ydieresis" unicode="&#x178;" horiz-adv-x="711" d="M430 865 C447 865 463 881 463 897 C463 914 447 930 430 930 C414 930 398 914 398 897 C398 881 414 865 430 865 L430 865 Z M293 865 C309 865 325 881 325 897 C325 914 309 930 293 930 C276 930 260 914 260 897 C260 881 276 865 293 865 L293 865 Z M252 750 L10 750 L10 747 L20 747 C49 747 96 715 121 679 L332 329 L332 94 C332 48 288 3 243 3 L227 3 L227 0 L496 0 L496 3 L480 3 C435 3 391 48 391 94 L391 331 C453 444 515 558 578 671 C599 710 657 747 695 747 L714 747 L714 750 L467 750 L467 747 L515 747 C553 747 571 710 551 671 L551 671 L385 350 L193 672 C171 711 186 747 225 747 L252 747 L252 750 L252 750 Z " />
<glyph glyph-name="Zacute" unicode="&#x179;" horiz-adv-x="652" d="M348 813 L487 936 C523 968 557 1001 557 1005 C557 1016 544 1029 533 1029 C529 1029 496 995 464 959 L341 820 L348 813 L348 813 Z M640 143 L630 143 L623 124 C603 73 530 23 468 17 L95 13 L610 738 L610 750 L70 750 L69 734 C69 734 61 649 58 609 L68 609 L73 628 C85 682 159 735 223 736 L547 738 L26 12 L26 0 L607 0 C612 11 622 63 641 142 L640 143 L640 143 Z " />
<glyph glyph-name="Zdot" unicode="&#x17b;" horiz-adv-x="652" d="M341 865 C357 865 373 881 373 897 C373 914 357 930 341 930 C325 930 309 914 309 897 C309 881 325 865 341 865 L341 865 Z M640 143 L630 143 L623 124 C603 73 530 23 468 17 L95 13 L610 738 L610 750 L70 750 L69 734 C69 734 61 649 58 609 L68 609 L73 628 C85 682 159 735 223 736 L547 738 L26 12 L26 0 L607 0 C612 11 622 63 641 142 L640 143 L640 143 Z " />
<glyph glyph-name="zdot" unicode="&#x17c;" horiz-adv-x="475" d="M249 615 C265 615 281 631 281 647 C281 664 265 680 249 680 C233 680 217 664 217 647 C217 631 233 615 249 615 L249 615 Z M292 16 L292 16 L102 13 L435 488 L435 500 L124 500 C98 500 76 513 79 527 L80 532 L72 532 C70 522 64 501 61 491 L59 491 C59 491 45 439 30 384 L42 384 L49 399 C70 441 141 483 197 483 L197 483 L376 486 L41 11 L41 -1 L371 -1 L427 -6 C427 -6 427 -4 428 -1 L431 -1 L431 17 L431 17 C434 40 438 77 442 115 L430 115 L425 100 C412 57 348 16 293 15 L292 16 L292 16 Z " />
<glyph glyph-name="Zcaron" unicode="&#x17d;" horiz-adv-x="652" d="M483 1042 L341 874 L199 1042 L192 1037 L323 835 C326 830 336 817 341 817 C346 817 356 830 359 835 L490 1037 L483 1042 L483 1042 Z M640 143 L630 143 L623 124 C603 73 530 23 468 17 L95 13 L610 738 L610 750 L70 750 L69 734 C69 734 61 649 58 609 L68 609 L73 628 C85 682 159 735 223 736 L547 738 L26 12 L26 0 L607 0 C612 11 622 63 641 142 L640 143 L640 143 Z " />
<glyph glyph-name="zcaron" unicode="&#x17e;" horiz-adv-x="475" d="M391 792 L249 624 L107 792 L100 787 L231 585 C234 580 244 567 249 567 C254 567 264 580 267 585 L398 787 L391 792 L391 792 Z M292 16 L292 16 L102 13 L435 488 L435 500 L124 500 C98 500 76 513 79 527 L80 532 L72 532 C70 522 64 501 61 491 L59 491 C59 491 45 439 30 384 L42 384 L49 399 C70 441 141 483 197 483 L197 483 L376 486 L41 11 L41 -1 L371 -1 L427 -6 C427 -6 427 -4 428 -1 L431 -1 L431 17 L431 17 C434 40 438 77 442 115 L430 115 L425 100 C412 57 348 16 293 15 L292 16 L292 16 Z " />
<glyph glyph-name="oogonek" unicode="&#x1eb;" horiz-adv-x="719" d="M944 -48 L940 -43 C913 -66 790 -88 689 -88 C568 -88 393 -49 316 -7 C328 -9 340 -10 352 -10 C514 -10 670 138 670 292 C670 446 519 593 362 593 C210 593 64 446 64 292 C64 168 155 48 267 6 C372 -64 576 -132 682 -132 C765 -132 894 -91 945 -48 L944 -48 L944 -48 Z M121 292 C121 439 238 580 360 580 C489 580 613 439 613 292 C613 141 479 -4 340 -4 C228 -4 121 141 121 292 L121 292 Z " />
<glyph glyph-name="Adotabove" unicode="&#x226;" horiz-adv-x="753" d="M407 865 C423 865 439 881 439 897 C439 914 423 930 407 930 C390 930 374 914 374 897 C374 881 390 865 407 865 L407 865 Z M462 0 L752 0 L752 3 L738 3 C699 3 645 56 623 114 C557 333 493 553 424 771 L419 771 C422 755 401 736 377 733 L380 723 L181 117 C157 58 85 4 29 4 L9 4 L9 1 L295 1 L295 4 L275 4 C217 4 180 63 200 125 L200 125 L252 288 L511 288 L562 117 C575 58 537 4 482 4 L462 4 L462 0 L462 0 Z M257 303 L386 704 L506 303 L257 303 L257 303 Z " />
<glyph glyph-name="G_sc" unicode="&#x262;" horiz-adv-x="700" d="M350 1 C233 1 121 144 121 292 C121 439 232 580 348 580 C357 580 428 572 427 568 C482 551 548 479 561 422 C563 415 565 403 567 396 L581 396 L581 606 L574 606 C574 600 573 587 573 581 C571 552 535 541 498 557 C456 579 404 594 344 594 C201 594 63 447 63 293 C63 139 200 -9 342 -9 C400 -9 468 4 530 22 L559 29 L559 31 C588 41 615 52 638 63 L634 71 C612 61 586 51 558 42 L558 147 C558 201 598 253 639 253 L653 253 L653 256 L410 256 L410 253 L424 253 C465 253 505 201 505 147 L506 147 C506 120 506 92 506 69 C497 35 423 5 350 5 L350 1 L350 1 Z M373 6 C366 5 358 5 350 5 C356 5 364 5 373 6 L373 6 Z " />
<glyph glyph-name="I_sc" unicode="&#x26a;" horiz-adv-x="361" d="M301 3 L287 3 C251 3 216 38 216 74 L216 509 C216 545 251 580 287 580 L301 580 L301 583 L79 583 L79 580 L93 580 C129 580 164 545 164 509 L164 74 C164 38 129 3 93 3 L79 3 L79 0 L301 0 L301 3 L301 3 Z " />
<glyph glyph-name="N_sc" unicode="&#x274;" horiz-adv-x="689" d="M19 580 L33 580 C64 580 112 555 142 525 L141 74 L141 74 C141 38 106 3 70 3 L56 3 L56 0 L242 0 L242 3 L228 3 C192 3 157 38 157 74 L157 74 L156 510 L156 509 C280 339 404 169 528 -1 L539 -1 L543 516 C548 549 581 579 614 579 L628 579 L628 582 L442 582 L442 579 L456 579 C492 579 527 544 527 508 L527 508 L528 69 C408 240 287 410 166 581 L18 581 L19 580 L19 580 Z " />
<glyph glyph-name="R_sc" unicode="&#x280;" horiz-adv-x="622" d="M72 580 L86 580 C122 580 157 545 157 509 L157 74 C157 38 122 3 86 3 L72 3 L72 0 L295 0 L295 3 L281 3 C245 3 210 38 210 74 L210 282 L294 282 C309 254 372 151 436 49 C461 9 494 0 612 0 L612 1 C544 1 523 10 498 49 C432 153 369 254 348 288 C425 304 489 354 489 421 C489 504 394 584 296 584 L72 584 L72 580 L72 580 Z M210 297 L210 574 L280 574 C357 574 431 504 431 431 C431 352 365 297 296 297 L210 297 L210 297 Z " />
<glyph glyph-name="Y_sc" unicode="&#x28f;" horiz-adv-x="629" d="M188 0 L451 0 L451 3 L435 3 C390 3 346 48 346 94 L346 256 L492 504 L493 504 C516 543 575 580 613 580 L632 580 L632 583 L387 583 L387 580 L435 580 C471 580 487 548 472 512 L340 273 L187 513 C169 549 184 581 220 581 L247 581 L247 584 L11 584 L11 581 L21 581 C51 581 105 544 130 505 L130 505 L293 255 L293 95 C293 49 249 4 204 4 L188 4 L188 0 L188 0 Z " />
<glyph glyph-name="B_sc" unicode="&#x299;" horiz-adv-x="540" d="M314 5 L264 5 C236 5 210 46 210 89 L210 299 L310 299 C316 299 322 299 327 300 C386 296 441 227 441 155 C441 52 379 5 314 5 L314 5 Z M72 580 L86 580 C122 580 157 545 157 509 L157 74 C157 38 122 3 86 3 L72 3 L72 0 L330 0 C417 0 500 48 500 155 C500 230 436 301 366 308 C432 330 485 386 485 443 C485 514 418 583 270 583 L72 583 L72 580 L72 580 Z M305 309 L210 309 L210 573 L248 573 C375 573 433 506 433 437 C433 372 370 309 305 309 L305 309 Z " />
<glyph glyph-name="H_sc" unicode="&#x29c;" horiz-adv-x="744" d="M684 3 L670 3 C634 3 599 38 599 74 L599 509 C599 545 634 580 670 580 L684 580 L684 583 L461 583 L461 580 L475 580 C511 580 546 545 546 509 L546 311 L246 311 L246 509 C246 545 281 580 317 580 L331 580 L331 583 L108 583 L108 580 L122 580 C158 580 193 545 193 509 L193 74 C193 38 158 3 122 3 L108 3 L108 0 L331 0 L331 3 L317 3 C281 3 246 38 246 74 L246 298 L546 298 L546 74 C546 38 511 3 475 3 L461 3 L461 0 L684 0 L684 3 L684 3 Z " />
<glyph glyph-name="L_sc" unicode="&#x29f;" horiz-adv-x="551" d="M301 583 L79 583 L79 580 L93 580 C129 580 164 545 164 509 L164 74 C164 38 129 3 93 3 L79 3 L79 0 L476 0 L477 4 L477 4 C483 37 494 101 500 134 L490 134 L484 115 C467 61 389 9 325 9 L304 9 C237 9 216 48 216 88 L216 509 C216 545 251 580 287 580 L301 580 L301 583 L301 583 Z " />
<glyph glyph-name="circumflex" unicode="&#x2c6;" horiz-adv-x="340" d="M188 765 C185 770 175 783 170 783 C165 783 155 770 152 765 L21 563 L28 558 L170 726 L312 558 L319 563 L188 765 L188 765 Z " />
<glyph glyph-name="caron" unicode="&#x2c7;" horiz-adv-x="340" d="M312 792 L170 624 L28 792 L21 787 L152 585 C155 580 165 567 170 567 C175 567 185 580 188 585 L319 787 L312 792 L312 792 Z " />
<glyph glyph-name="firsttonechinese" unicode="&#x2c9;" horiz-adv-x="340" d="M20 651 L320 651 L320 686 L20 686 L20 651 L20 651 Z " />
<glyph glyph-name="breve" unicode="&#x2d8;" horiz-adv-x="340" d="M46 745 C49 691 110 639 170 639 C230 639 291 690 294 744 L284 745 C282 709 226 674 170 674 C114 674 58 709 56 746 L46 745 L46 745 Z " />
<glyph glyph-name="dotaccent" unicode="&#x2d9;" horiz-adv-x="340" d="M170 615 C186 615 202 631 202 647 C202 664 186 680 170 680 C154 680 138 664 138 647 C138 631 154 615 170 615 L170 615 Z " />
<glyph glyph-name="ring" unicode="&#x2da;" horiz-adv-x="340" d="M88 655 C88 697 128 738 170 738 C212 738 252 697 252 655 C252 617 208 572 170 572 C132 572 88 617 88 655 L88 655 Z M74 655 C74 611 126 560 170 560 C214 560 266 611 266 655 C266 703 219 750 170 750 C121 750 74 703 74 655 L74 655 Z " />
<glyph glyph-name="A_sc" unicode="&#x1d00;" horiz-adv-x="678" d="M9 0 L294 0 L294 3 L274 3 C219 3 184 57 200 116 L237 222 L456 222 C466 190 478 157 487 125 C507 63 471 4 413 4 L393 4 L393 1 L677 1 L677 4 L663 4 C622 4 562 63 542 125 C489 285 437 446 382 605 L377 605 C379 592 361 576 340 573 L343 563 L343 563 C291 417 239 271 186 126 C164 64 86 5 28 5 L8 5 L9 0 L9 0 Z M240 237 L348 547 L450 237 L240 237 L240 237 Z " />
<glyph glyph-name="C_sc" unicode="&#x1d04;" horiz-adv-x="626" d="M580 396 L580 606 L573 606 C573 600 572 587 572 581 C570 552 534 541 497 557 C455 579 403 594 343 594 C200 594 62 447 62 293 C62 139 195 -9 334 -9 C390 -9 443 6 488 28 L488 28 C529 48 570 35 572 3 C572 -4 573 -16 573 -23 L580 -23 L580 189 L566 189 C564 182 562 170 560 163 C547 107 480 36 423 18 L423 18 C396 9 368 4 339 4 C228 4 121 146 121 294 C121 441 232 582 348 582 C357 582 428 574 427 570 C482 553 548 481 561 424 C563 417 565 405 567 398 L580 396 L580 396 Z " />
<glyph glyph-name="D_sc" unicode="&#x1d05;" horiz-adv-x="730" d="M250 11 C219 11 210 49 210 88 L210 573 C210 573 252 573 252 572 C456 572 616 435 616 292 C616 134 437 11 250 11 L250 11 Z M72 580 L86 580 C122 580 157 545 157 509 L157 74 C157 38 122 3 86 3 L72 3 L72 0 L266 0 C475 0 675 128 675 292 C675 440 508 583 294 583 L72 583 L72 580 L72 580 Z " />
<glyph glyph-name="E_sc" unicode="&#x1d07;" horiz-adv-x="557" d="M391 447 L386 413 C379 361 324 312 273 312 L210 312 L210 572 L333 572 C384 572 445 523 458 471 L467 437 L477 437 C473 473 465 542 461 578 L460 583 L52 583 L52 580 L68 580 C113 580 157 535 157 489 L157 94 C157 48 113 3 68 3 L52 3 L52 0 L485 0 L486 5 L487 5 C493 38 504 103 510 136 L500 136 L494 117 C477 63 399 11 335 11 L298 11 C231 11 210 49 210 88 L210 299 L273 299 C324 299 379 250 386 198 L391 164 L401 164 L401 447 L391 447 L391 447 Z " />
<glyph glyph-name="J_sc" unicode="&#x1d0a;" horiz-adv-x="361" d="M301 583 L79 583 L79 580 L93 580 C128 580 162 548 165 513 C165 379 164 90 164 -28 C164 -152 102 -201 67 -201 C45 -201 49 -159 27 -159 C15 -159 3 -170 3 -182 C3 -201 28 -220 54 -220 C113 -220 218 -136 218 72 C218 167 217 397 217 513 C220 547 254 579 289 579 L303 579 L301 583 L301 583 Z " />
<glyph glyph-name="K_sc" unicode="&#x1d0b;" horiz-adv-x="632" d="M295 583 L72 583 L72 580 L86 580 C122 580 157 545 157 509 L157 74 C157 38 122 3 86 3 L72 3 L72 0 L295 0 L295 3 L281 3 C245 3 210 38 210 74 L210 292 L483 0 L629 0 L629 3 L615 3 C579 3 513 38 480 74 L480 74 L251 326 C299 382 347 438 395 494 C433 538 510 580 554 580 L573 580 L573 583 L296 583 L296 580 L328 580 C389 580 399 521 348 459 L348 459 L210 292 L210 509 C210 545 245 580 281 580 L295 580 L295 583 L295 583 Z " />
<glyph glyph-name="M_sc" unicode="&#x1d0d;" horiz-adv-x="783" d="M51 580 L66 580 C95 580 133 557 155 529 L138 68 C134 34 99 2 65 2 L51 2 L51 -1 L240 -1 L240 2 L226 2 C191 2 158 36 158 71 L170 507 C245 337 320 167 395 -2 L408 -2 L616 536 C621 382 627 226 631 72 C632 36 599 1 563 1 L549 1 L549 -2 L772 -2 L772 1 L758 1 C724 1 689 33 685 67 C680 214 674 361 669 507 C668 543 701 578 737 578 L751 578 L751 581 L615 581 L423 70 L202 581 L54 581 L51 580 L51 580 Z " />
<glyph glyph-name="O_sc" unicode="&#x1d0f;" horiz-adv-x="724" d="M120 292 C120 439 237 580 359 580 C488 580 612 439 612 292 C612 145 486 3 354 3 C235 3 120 145 120 292 L120 292 Z M63 292 C63 138 204 -10 351 -10 C513 -10 669 138 669 292 C669 446 518 593 361 593 C209 593 63 446 63 292 L63 292 Z " />
<glyph glyph-name="P_sc" unicode="&#x1d18;" horiz-adv-x="476" d="M308 3 L294 3 C258 3 223 38 223 74 L223 273 L258 273 C359 273 456 334 456 420 C456 503 376 583 293 583 L85 583 L85 580 L99 580 C135 580 170 545 170 509 L170 74 C170 38 135 3 99 3 L85 3 L85 0 L308 0 L308 3 L308 3 Z M223 284 L223 574 L280 574 C344 574 406 503 406 429 C406 344 333 284 258 284 L223 284 L223 284 Z " />
<glyph glyph-name="T_sc" unicode="&#x1d1b;" horiz-adv-x="715" d="M634 628 L632 621 C624 602 569 583 517 583 L200 583 C148 583 92 602 85 621 L83 628 L74 628 C70 617 62 597 56 583 L55 583 L55 581 C54 579 53 577 52 575 L53 575 C40 541 14 478 0 444 L10 444 L21 463 C49 517 129 569 183 569 L330 569 L330 73 C330 37 295 2 259 2 L245 2 L245 -1 L468 -1 L468 2 L454 2 C418 2 383 37 383 73 L383 569 L532 569 C586 569 666 517 695 463 L706 444 L716 444 C702 478 676 541 662 575 L663 575 C658 588 647 614 642 627 L634 628 L634 628 Z " />
<glyph glyph-name="U_sc" unicode="&#x1d1c;" horiz-adv-x="615" d="M585 33 L571 29 C535 19 500 45 500 81 L500 583 L362 583 L362 580 L376 580 C412 580 447 545 447 509 L447 156 C416 89 316 24 244 24 C209 24 175 111 175 202 L175 583 L37 583 L37 580 L51 580 C87 580 122 545 122 509 L122 202 C122 94 171 -10 223 -10 C303 -10 413 60 447 132 L447 0 L473 0 C476 0 500 6 500 7 C529 15 564 24 585 30 L585 33 L585 33 Z " />
<glyph glyph-name="V_sc" unicode="&#x1d20;" horiz-adv-x="677" d="M661 583 L401 583 L401 580 L429 580 C490 580 526 521 502 459 L502 459 L318 -10 L328 -10 L521 459 C546 521 608 580 647 580 L661 580 L661 583 L661 583 Z M281 583 L11 583 L11 580 L23 580 C53 580 104 527 130 469 C193 309 256 150 318 -10 L353 80 L196 461 C172 522 203 580 260 580 L280 580 L281 583 L281 583 Z " />
<glyph glyph-name="W_sc" unicode="&#x1d21;" horiz-adv-x="936" d="M604 583 L337 583 L337 580 L349 580 C382 580 429 536 449 487 L483 389 L482 389 L333 64 C283 202 232 341 182 479 C163 531 191 580 238 580 L254 580 L254 583 L11 583 L11 580 L22 580 C53 580 97 538 118 490 C178 323 238 156 299 -10 L312 -10 L490 368 C533 242 576 117 619 -9 L632 -9 L798 485 C817 535 871 581 911 581 L925 581 L925 584 L666 584 L666 581 L709 581 C760 581 794 532 777 480 L777 480 L646 74 L508 483 C493 534 525 581 576 581 L604 581 L604 583 L604 583 Z " />
<glyph glyph-name="Z_sc" unicode="&#x1d22;" horiz-adv-x="592" d="M68 444 L73 463 C85 517 159 568 222 570 L491 572 L25 10 L25 -1 L546 -1 L550 15 C550 15 570 101 579 140 L569 140 L562 121 C543 67 462 15 397 14 L397 14 L90 11 L550 572 L550 582 L505 582 L501 583 L500 582 L70 582 L69 568 C69 568 62 483 58 443 L68 444 L68 444 Z " />
<glyph glyph-name="Wgrave" unicode="&#x1e80;" horiz-adv-x="1063" d="M1052 750 L790 750 L790 747 L833 747 C883 747 917 702 906 652 L740 82 L567 655 C557 704 591 748 640 748 L668 748 L668 751 L394 751 L394 748 L406 748 C439 748 485 704 503 655 L552 501 L367 72 C306 264 243 456 182 647 C165 699 195 748 242 748 L258 748 L258 751 L9 751 L9 748 L20 748 C53 748 100 699 117 647 L117 647 C189 428 262 210 332 -10 L347 -10 L560 475 C611 313 662 151 713 -10 L728 -10 C794 209 859 428 926 646 C942 698 996 747 1037 747 L1051 747 L1052 750 L1052 750 Z M314 1005 C314 1000 348 967 384 936 L523 813 L530 820 L407 959 C376 995 343 1029 338 1029 C327 1029 314 1016 314 1005 L314 1005 Z " />
<glyph glyph-name="Wacute" unicode="&#x1e82;" horiz-adv-x="1063" d="M528 813 L667 936 C703 968 737 1001 737 1005 C737 1016 724 1029 713 1029 C709 1029 676 995 644 959 L521 820 L528 813 L528 813 Z M1052 750 L790 750 L790 747 L833 747 C883 747 917 702 906 652 L740 82 L567 655 C557 704 591 748 640 748 L668 748 L668 751 L394 751 L394 748 L406 748 C439 748 485 704 503 655 L552 501 L367 72 C306 264 243 456 182 647 C165 699 195 748 242 748 L258 748 L258 751 L9 751 L9 748 L20 748 C53 748 100 699 117 647 L117 647 C189 428 262 210 332 -10 L347 -10 L560 475 C611 313 662 151 713 -10 L728 -10 C794 209 859 428 926 646 C942 698 996 747 1037 747 L1051 747 L1052 750 L1052 750 Z " />
<glyph glyph-name="Wdieresis" unicode="&#x1e84;" horiz-adv-x="1063" d="M590 865 C606 865 622 881 622 897 C622 914 606 930 590 930 C573 930 557 914 557 897 C557 881 573 865 590 865 L590 865 Z M452 865 C469 865 485 881 485 897 C485 914 469 930 452 930 C436 930 420 914 420 897 C420 881 436 865 452 865 L452 865 Z M1052 750 L790 750 L790 747 L833 747 C883 747 917 702 906 652 L740 82 L567 655 C557 704 591 748 640 748 L668 748 L668 751 L394 751 L394 748 L406 748 C439 748 485 704 503 655 L552 501 L367 72 C306 264 243 456 182 647 C165 699 195 748 242 748 L258 748 L258 751 L9 751 L9 748 L20 748 C53 748 100 699 117 647 L117 647 C189 428 262 210 332 -10 L347 -10 L560 475 C611 313 662 151 713 -10 L728 -10 C794 209 859 428 926 646 C942 698 996 747 1037 747 L1051 747 L1052 750 L1052 750 Z " />
<glyph glyph-name="Etilde" unicode="&#x1ebc;" horiz-adv-x="621" d="M199 870 C199 904 221 936 244 936 C290 936 377 871 423 871 C458 871 491 918 491 966 L482 966 C482 935 459 906 435 906 C389 906 301 971 255 971 C222 971 190 922 190 870 L199 870 L199 870 Z M455 534 L450 500 C443 448 388 399 337 399 L214 399 L214 738 L398 738 C449 738 510 689 523 637 L532 603 L542 603 C538 639 530 708 526 744 L525 744 L524 750 L50 750 L50 747 L66 747 C111 747 155 702 155 656 L155 94 C155 48 111 3 66 3 L50 3 L50 0 L549 0 L550 6 L551 6 C557 40 568 104 574 138 L564 138 L558 119 C541 65 463 13 399 13 L302 13 C235 13 214 50 214 88 L214 385 L337 385 C388 385 443 336 450 284 L455 250 L465 250 L465 534 L455 534 L455 534 Z " />
<glyph glyph-name="Ygrave" unicode="&#x1ef2;" horiz-adv-x="711" d="M252 750 L10 750 L10 747 L20 747 C49 747 96 715 121 679 L332 329 L332 94 C332 48 288 3 243 3 L227 3 L227 0 L496 0 L496 3 L480 3 C435 3 391 48 391 94 L391 331 C453 444 515 558 578 671 C599 710 657 747 695 747 L714 747 L714 750 L467 750 L467 747 L515 747 C553 747 571 710 551 671 L551 671 L385 350 L193 672 C171 711 186 747 225 747 L252 747 L252 750 L252 750 Z M156 1005 C156 1000 190 967 226 936 L365 813 L371 820 L249 959 C218 995 186 1029 181 1029 C170 1029 156 1016 156 1005 L156 1005 Z " />
<glyph glyph-name="quoteleft" unicode="&#x2018;" horiz-adv-x="508" d="M76 632 C75 633 75 634 75 635 C75 685 102 740 130 748 L120 759 C90 751 61 685 61 625 C61 608 75 592 90 592 C102 592 114 603 114 615 C114 634 88 648 76 631 L76 632 L76 632 Z " />
<glyph glyph-name="quoteright" unicode="&#x2019;" horiz-adv-x="48" d="M92 721 C92 665 75 609 58 604 L69 593 C89 598 108 666 108 731 C108 746 93 760 78 760 C66 760 54 748 54 736 C54 717 80 705 92 721 L92 721 Z " />
<glyph glyph-name="quotedblleft" unicode="&#x201c;" horiz-adv-x="508" d="M137 632 C136 633 136 634 136 635 C136 685 163 740 191 748 L181 759 C151 751 122 685 122 625 C122 608 136 592 151 592 C163 592 175 603 175 615 C175 634 149 648 137 631 L137 632 L137 632 Z M64 631 C63 632 63 633 63 634 C63 684 90 739 118 747 L108 758 C78 750 49 684 49 624 C49 607 63 591 78 591 C90 591 102 602 102 614 C102 633 76 647 64 630 L64 631 L64 631 Z " />
<glyph glyph-name="quotedblright" unicode="&#x201d;" horiz-adv-x="508" d="M165 721 C165 665 149 609 132 604 L143 593 C162 598 181 666 181 731 C181 746 166 760 151 760 C139 760 128 748 128 736 C128 717 153 705 165 721 L165 721 Z M92 721 C92 665 75 609 58 604 L69 593 C89 598 108 666 108 731 C108 746 93 760 78 760 C66 760 54 748 54 736 C54 717 80 705 92 721 L92 721 Z " />
<glyph glyph-name="perthousand" unicode="&#x2030;" horiz-adv-x="1127" d="M869 204 C869 294 914 380 961 380 C1016 380 1068 284 1068 184 C1068 93 1021 6 972 6 C919 6 869 103 869 204 L869 204 Z M820 195 C820 90 893 -10 968 -10 C1043 -10 1115 93 1115 201 C1115 300 1043 395 968 395 C893 395 820 297 820 195 L820 195 Z M79 565 C79 657 124 745 171 745 C226 745 278 647 278 545 C278 456 231 371 182 371 C129 371 79 466 79 565 L79 565 Z M30 555 C30 453 103 355 178 355 C253 355 325 456 325 562 C325 663 253 760 178 760 C103 760 30 660 30 555 L30 555 Z M532 204 C532 294 578 380 625 380 C683 380 738 284 738 184 C738 93 688 6 636 6 C583 6 532 103 532 204 L532 204 Z M483 194 C483 90 556 -10 632 -10 C710 -10 785 93 785 201 C785 300 710 395 632 395 C556 395 483 297 483 194 L483 194 Z M189 -7 L654 743 L632 757 L167 7 L189 -7 L189 -7 Z " />
<glyph glyph-name="fraction" unicode="&#x2044;" horiz-adv-x="496" d="M41 -7 L506 743 L484 757 L19 7 L41 -7 L41 -7 Z " />
<glyph glyph-name="Euro" unicode="&#x20ac;" horiz-adv-x="756" d="M711 2 L711 121 L702 128 L702 128 L711 120 L711 215 L697 215 C696 209 692 196 691 190 C678 139 618 66 565 38 C522 17 475 3 429 3 C314 3 203 148 180 313 L484 313 L489 349 L177 349 C176 366 176 383 177 400 L489 400 L494 436 L180 436 C204 601 320 745 440 745 C487 745 531 732 570 712 C630 678 685 602 696 533 L710 533 L710 744 L704 744 C704 738 702 725 702 719 C700 689 667 680 632 698 C579 734 512 759 434 759 C286 759 144 607 116 435 L60 435 L55 399 L112 399 C111 382 111 365 112 348 L55 348 L50 312 L116 312 C143 140 281 -12 424 -12 C495 -12 565 11 622 45 C661 68 701 59 703 26 C703 19 705 7 705 0 L711 2 L711 2 Z " />
<glyph glyph-name="F_sc" unicode="&#xa730;" horiz-adv-x="532" d="M390 164 L390 447 L380 447 L375 413 C368 361 313 312 262 312 L210 312 L210 574 L333 574 C384 574 445 525 458 473 L467 439 L477 439 C472 475 464 543 460 579 L461 579 L460 583 L52 583 L52 580 L68 580 C113 580 157 535 157 489 L157 94 C157 48 113 3 68 3 L52 3 L52 0 L315 0 L315 3 L299 3 C254 3 210 48 210 94 L210 299 L262 299 C313 299 368 250 375 198 L380 164 L390 164 L390 164 Z " />
<glyph glyph-name="S_sc" unicode="&#xa731;" horiz-adv-x="485" d="M53 202 L53 -32 L60 -32 C60 -24 61 -9 61 -1 C63 36 105 49 146 26 C185 4 229 -10 268 -10 C358 -10 445 64 445 140 C445 193 374 277 284 319 C189 363 115 433 115 469 C115 533 172 586 237 579 C297 573 368 504 382 439 C384 432 386 419 388 412 L402 412 L402 611 L395 611 C395 605 394 594 394 588 C392 561 357 552 323 568 L323 567 C291 583 254 593 221 593 C147 593 75 522 75 448 C75 396 153 310 253 264 C337 225 403 160 403 125 C403 65 337 7 269 7 C251 7 232 10 213 16 C156 33 88 110 74 174 C72 181 70 195 68 202 L53 202 L53 202 Z M62 119 L62 119 L62 119 L62 119 Z " />
<glyph glyph-name="X_sc" unicode="&#xf078;" horiz-adv-x="667" d="M291 583 L55 583 L55 580 L66 580 C95 580 148 544 174 506 L325 281 L173 79 L172 79 C143 40 78 3 39 3 L20 3 L20 0 L259 0 L259 3 L212 3 C175 3 164 36 187 73 L331 272 L460 80 C486 41 474 4 435 4 L408 4 L408 1 L644 1 L644 4 L633 4 C604 4 551 40 525 78 L369 310 C418 375 466 441 516 505 C545 544 610 581 649 581 L668 581 L668 584 L427 584 L427 581 L474 581 C513 581 523 544 495 505 L495 505 L362 320 L238 505 C212 544 224 581 263 581 L290 581 L291 583 L291 583 Z " />
</font>
</svg>
