<?xml version="1.0" encoding="UTF-8"?>
<svg xmlns="http://www.w3.org/2000/svg" xmlns:xlink="http://www.w3.org/1999/xlink" version="1.2" >
<font id="Sandover Regular">
<font-face  font-family="Sandover" units-per-em="1024" ascent="975" descent="-300" font-style="normal" font-weight="400" font-stretch="normal" cap-height="1044" x-height="488" underline-position="-125" underline-thickness="50" />
<missing-glyph  horiz-adv-x="100" d="" />
<glyph glyph-name="NULL" d="" />
<glyph glyph-name="CR" unicode="&#xd;" horiz-adv-x="256" d="" />
<glyph glyph-name="space" unicode="&#x20;" horiz-adv-x="250" d="" />
<glyph glyph-name="exclam" unicode="&#x21;" horiz-adv-x="244" d="M122 -5 C153 -5 182 24 182 55 C182 86 153 115 122 115 C91 115 62 86 62 55 C62 24 91 -5 122 -5 L122 -5 Z M122 755 C88 755 65 704 70 650 L114 210 L130 210 L174 650 C179 704 156 755 122 755 L122 755 Z " />
<glyph glyph-name="quotedbl" unicode="&#x22;" horiz-adv-x="325" d="M212 750 C195 750 182 728 187 705 L217 560 L227 560 L257 705 C262 728 249 750 232 750 L212 750 L212 750 Z M92 750 C75 750 62 728 67 705 L97 560 L107 560 L137 705 C142 728 129 750 112 750 L92 750 L92 750 Z " />
<glyph glyph-name="numbersign" unicode="&#x23;" horiz-adv-x="545" d="M390 667 L364 493 L227 493 L253 667 L219 667 L193 493 L67 493 L58 427 L183 427 L154 233 L26 233 L16 167 L144 167 L119 0 L153 0 L178 167 L315 167 L290 0 L324 0 L349 167 L468 167 L478 233 L359 233 L388 427 L516 427 L525 493 L398 493 L424 667 L390 667 L390 667 Z M217 427 L354 427 L325 233 L188 233 L217 427 L217 427 Z " />
<glyph glyph-name="dollar" unicode="&#x24;" horiz-adv-x="551" d="M50 240 L50 0 L57 0 C57 8 58 23 58 31 C60 66 97 75 134 51 C160 32 189 16 218 5 L218 -75 L248 -75 L248 -4 C266 -8 281 -10 299 -9 L299 -74 L329 -74 L329 -5 C426 14 511 104 511 197 C511 278 432 384 329 425 L329 720 C380 697 437 630 451 575 C453 569 455 557 457 551 L471 551 L471 755 L464 755 C464 749 463 739 463 733 C461 706 428 699 396 718 C375 730 352 741 329 749 L329 827 L299 827 L299 757 C282 761 267 763 250 762 L250 827 L220 827 L220 757 C137 737 65 652 65 565 C65 490 130 394 220 344 L220 40 C210 44 200 49 190 54 C141 84 85 161 71 217 C69 223 67 235 65 241 L50 240 L50 240 Z M250 329 C267 322 284 316 300 308 L300 23 C283 22 268 24 251 29 L250 329 L250 329 Z M331 291 C392 253 433 203 433 167 C433 106 387 47 331 28 L331 291 L331 291 Z M251 463 L251 734 C268 736 284 733 301 729 L301 436 C283 444 266 453 250 463 L251 463 L251 463 Z M220 485 C174 522 144 566 144 600 C144 653 178 705 220 725 L220 485 L220 485 Z " />
<glyph glyph-name="percent" unicode="&#x25;" horiz-adv-x="801" d="M114 570 C114 654 141 735 170 735 C212 735 253 637 253 536 C253 458 222 383 189 383 C151 383 114 475 114 570 L114 570 Z M30 553 C30 452 104 355 182 355 C259 355 333 458 333 565 C333 664 259 760 182 760 C104 760 30 659 30 553 L30 553 Z M554 209 C554 291 584 370 616 370 C663 370 709 274 709 175 C709 95 673 18 635 18 C594 18 554 112 554 209 L554 209 Z M470 192 C470 89 547 -10 628 -10 C710 -10 789 95 789 204 C789 301 710 395 628 395 C547 395 470 296 470 192 L470 192 Z M201 -12 L666 738 L628 762 L163 12 L201 -12 L201 -12 Z " />
<glyph glyph-name="ampersand" unicode="&#x26;" horiz-adv-x="910" d="M326 465 C410 494 488 563 488 611 C488 687 403 760 314 760 C227 760 144 681 144 599 C144 566 186 503 237 439 C135 404 39 288 39 199 C39 92 139 -10 244 -10 C317 -10 409 47 496 135 C508 120 521 105 534 90 C577 39 658 -10 699 -10 C758 -10 824 66 834 146 L819 151 C813 104 772 59 734 59 C702 59 640 96 608 134 C589 156 571 178 553 199 C625 286 689 392 728 500 L708 500 C671 397 607 296 536 218 C401 377 359 423 325 465 L326 465 L326 465 Z M317 475 C264 542 219 608 219 644 C219 693 266 740 314 740 C368 740 419 679 419 616 C419 563 370 496 317 475 L317 475 Z M475 159 C411 103 346 69 293 69 C209 69 128 145 128 224 C128 305 183 400 244 430 C289 375 326 336 476 160 L475 159 L475 159 Z " />
<glyph glyph-name="quotesingle" unicode="&#x27;" horiz-adv-x="204" d="M92 750 C75 750 62 728 67 705 L97 560 L107 560 L137 705 C142 728 129 750 112 750 L92 750 L92 750 Z " />
<glyph glyph-name="parenleft" unicode="&#x28;" horiz-adv-x="230" d="M209 760 C133 669 60 478 60 273 C60 68 133 -123 209 -214 L220 -205 C172 -148 126 30 126 273 C126 516 172 694 220 751 L209 760 L209 760 Z " />
<glyph glyph-name="parenright" unicode="&#x29;" horiz-adv-x="175" d="M5 750 C56 717 105 483 105 273 C105 63 56 -171 5 -204 L10 -214 C89 -163 165 76 165 273 C165 470 89 709 10 760 L5 750 L5 750 Z " />
<glyph glyph-name="asterisk" unicode="&#x2a;" horiz-adv-x="296" d="M272 668 L272 668 C272 668 271 669 272 669 L272 668 L272 668 Z M243 549 L243 549 L242 550 L243 549 L243 549 Z M271 670 C287 676 295 694 287 709 C278 723 258 725 245 714 C245 714 264 682 272 670 L271 670 L271 670 Z M37 594 L37 594 C21 588 13 570 22 555 C31 540 51 538 64 549 L62 548 L146 622 L124 511 C121 494 133 478 150 478 C167 478 179 494 176 511 L153 625 L241 548 L267 593 L157 630 L270 668 L244 713 L152 632 L176 751 C179 768 167 784 150 784 C133 784 121 768 124 751 L147 635 L59 712 C59 713 59 713 59 713 C46 724 26 722 18 707 C10 692 17 675 32 669 L31 668 C32 669 32 669 33 668 L31 667 L144 629 L37 594 L37 594 Z M242 547 C255 537 274 539 283 554 C291 568 283 586 267 592 C267 592 248 558 242 547 L242 547 Z " />
<glyph glyph-name="plus" unicode="&#x2b;" horiz-adv-x="620" d="M277 460 L277 280 L100 280 L100 220 L277 220 L277 40 L343 40 L343 220 L520 220 L520 280 L343 280 L343 460 L277 460 L277 460 Z " />
<glyph glyph-name="comma" unicode="&#x2c;" horiz-adv-x="265" d="M158 11 C159 2 160 -7 160 -16 C160 -57 113 -96 65 -96 L65 -116 C131 -116 195 -52 195 15 C195 65 161 114 125 114 C94 114 65 85 65 54 C65 8 125 -27 159 10 L158 11 L158 11 Z " />
<glyph glyph-name="hyphen" unicode="&#x2d;" horiz-adv-x="430" d="M80 250 L350 250 L350 320 L80 320 L80 250 L80 250 Z " />
<glyph glyph-name="period" unicode="&#x2e;" horiz-adv-x="195" d="M125 -5 C156 -5 185 24 185 55 C185 86 156 115 125 115 C94 115 65 86 65 55 C65 24 94 -5 125 -5 L125 -5 Z " />
<glyph glyph-name="slash" unicode="&#x2f;" horiz-adv-x="389" d="M309 770 L27 -80 L77 -80 L359 770 L309 770 L309 770 Z " />
<glyph glyph-name="zero" unicode="0" horiz-adv-x="610" d="M85 250 C85 353 193 475 305 475 C406 475 525 365 525 250 C525 147 417 25 305 25 C204 25 85 135 85 250 L85 250 Z M45 250 C45 117 186 -10 305 -10 C438 -10 565 131 565 250 C565 383 424 510 305 510 C172 510 45 369 45 250 L45 250 Z " />
<glyph glyph-name="one" unicode="1" horiz-adv-x="365" d="M310 3 L296 3 C260 3 225 38 225 74 L225 426 C225 462 260 497 296 497 L310 497 L310 500 L55 500 L55 497 L69 497 C105 497 140 462 140 426 L140 74 C140 38 105 3 69 3 L55 3 L55 0 L310 0 L310 3 L310 3 Z " />
<glyph glyph-name="two" unicode="2" horiz-adv-x="541" d="M61 290 C76 369 157 445 226 445 C292 445 356 386 356 325 C356 230 173 88 18 9 L28 2 C25 1 22 0 19 0 L431 0 L478 74 C493 95 509 118 520 133 L522 139 L515 129 C495 101 433 74 389 74 L164 74 C311 165 442 275 442 344 C442 428 358 509 271 509 C177 509 66 403 45 293 L61 290 L61 290 Z " />
<glyph glyph-name="three" unicode="3" horiz-adv-x="434" d="M17 -215 L20 -232 C211 -212 394 -95 394 7 C394 92 288 174 169 186 C284 247 380 328 380 386 C380 449 300 510 217 510 C135 510 39 432 20 351 L39 346 C51 399 122 450 183 450 C237 450 289 404 289 357 C289 292 196 211 99 170 L99 153 C101 154 103 155 105 156 C103 154 101 153 99 153 C204 138 305 55 305 -17 C305 -103 164 -200 17 -215 L17 -215 Z " />
<glyph glyph-name="four" unicode="4" horiz-adv-x="620" d="M606 135 L603 124 C597 94 559 65 526 65 L415 65 L415 530 L404 530 L15 15 L15 0 L330 0 L330 -220 L415 -220 L415 0 L517 0 C550 0 581 -23 580 -47 L580 -55 C580 -55 587 -58 588 -58 C591 -35 597 10 600 33 L599 33 C603 58 610 106 614 131 L606 135 L606 135 Z M92 64 L330 381 L330 65 L93 65 L92 64 L92 64 Z " />
<glyph glyph-name="five" unicode="5" horiz-adv-x="436" d="M366 555 L358 555 L355 547 C348 523 310 500 277 500 L86 500 L31 201 L47 187 L85 187 C210 187 331 106 331 21 C331 -84 198 -201 59 -218 L60 -234 C236 -212 406 -73 406 50 C406 166 253 277 94 277 L75 277 L102 424 L343 426 C351 471 360 520 366 556 L366 555 L366 555 Z " />
<glyph glyph-name="six" unicode="6" horiz-adv-x="568" d="M550 750 C295 696 50 471 50 291 C50 137 168 -10 290 -10 C405 -10 515 112 515 239 C515 355 407 466 295 466 C248 466 202 439 169 399 C236 557 392 703 553 737 L550 750 L550 750 Z M135 246 C135 345 209 441 286 441 C359 441 430 344 430 243 C430 127 359 15 285 15 C209 15 135 128 135 246 L135 246 Z " />
<glyph glyph-name="seven" unicode="7" horiz-adv-x="455" d="M105 554 C94 531 74 488 63 465 L64 465 C54 443 35 400 25 378 C26 378 32 370 31 371 L36 380 C50 406 96 431 129 431 L401 431 L110 -220 L175 -220 L450 485 L450 500 L159 500 C126 500 101 520 108 540 L110 547 C110 547 107 552 105 554 L105 554 Z " />
<glyph glyph-name="eight" unicode="8" horiz-adv-x="543" d="M221 371 C230 366 239 362 248 358 C344 319 437 260 437 207 C437 106 356 9 272 9 C192 9 115 89 115 173 C115 245 164 332 222 371 L221 371 L221 371 Z M202 383 C115 333 42 242 42 174 C42 80 155 -10 273 -10 C391 -10 505 80 505 173 C505 280 424 364 329 415 C410 461 478 541 478 598 C478 681 377 760 271 760 C167 760 67 672 67 580 C67 511 128 430 202 383 L202 383 Z M308 425 C299 429 290 433 281 437 C207 467 135 547 135 612 C135 681 209 748 287 748 C348 748 406 671 406 590 C406 532 361 460 308 425 L308 425 Z " />
<glyph glyph-name="nine" unicode="9" horiz-adv-x="568" d="M18 -250 C273 -196 518 29 518 209 C518 363 400 510 278 510 C163 510 53 388 53 261 C53 145 161 34 273 34 C320 34 366 61 399 101 C332 -57 176 -203 15 -237 L18 -250 L18 -250 Z M433 254 C433 155 359 59 282 59 C209 59 138 156 138 257 C138 373 209 485 283 485 C359 485 433 372 433 254 L433 254 Z " />
<glyph glyph-name="colon" unicode="&#x3a;" horiz-adv-x="135" d="M125 385 C156 385 185 414 185 445 C185 476 156 505 125 505 C94 505 65 476 65 445 C65 414 94 385 125 385 L125 385 Z M125 -5 C156 -5 185 24 185 55 C185 86 156 115 125 115 C94 115 65 86 65 55 C65 24 94 -5 125 -5 L125 -5 Z " />
<glyph glyph-name="semicolon" unicode="&#x3b;" horiz-adv-x="265" d="M125 385 C156 385 185 414 185 445 C185 476 156 505 125 505 C94 505 65 476 65 445 C65 414 94 385 125 385 L125 385 Z M158 11 C159 2 160 -7 160 -16 C160 -57 113 -96 65 -96 L65 -116 C131 -116 195 -52 195 15 C195 65 161 114 125 114 C94 114 65 85 65 54 C65 8 125 -27 159 10 L158 11 L158 11 Z " />
<glyph glyph-name="equal" unicode="&#x3d;" horiz-adv-x="533" d="M83 219 L83 181 L463 181 L463 219 L83 219 L83 219 Z M83 319 L83 281 L463 281 L463 319 L83 319 L83 319 Z " />
<glyph glyph-name="question" unicode="&#x3f;" horiz-adv-x="299" d="M125 -5 C156 -5 185 24 185 55 C185 86 156 115 125 115 C94 115 65 86 65 55 C65 24 94 -5 125 -5 L125 -5 Z M125 210 L125 360 C204 360 256 401 285 444 C300 467 315 521 315 555 C315 660 232 760 145 760 C104 760 65 729 65 697 C65 676 88 655 111 655 C128 655 159 670 176 670 C234 670 289 609 289 545 C289 532 278 502 266 485 C251 462 203 440 97 440 C104 442 110 210 110 210 L125 210 L125 210 Z " />
<glyph glyph-name="at" unicode="&#x40;" horiz-adv-x="1160" d="M1041 0 C984 -121 764 -238 591 -238 C352 -238 122 6 122 259 C122 511 346 754 580 754 C814 754 1038 553 1038 343 C1038 172 948 7 855 7 C774 7 720 102 745 200 L815 480 L735 480 L715 398 C696 448 642 489 586 489 C435 489 290 343 290 191 C290 97 377 7 467 7 C538 7 621 61 662 127 C675 44 747 -23 840 -23 C975 -23 1105 156 1105 342 C1105 564 848 777 580 777 C312 777 55 523 55 258 C55 -3 327 -254 610 -254 C784 -254 1009 -130 1069 -1 L1041 0 L1041 0 Z M704 355 L665 199 C647 125 571 54 510 54 C445 54 382 129 382 207 C382 339 480 465 583 465 C645 465 704 412 705 355 L704 355 L704 355 Z " />
<glyph glyph-name="A" unicode="A" horiz-adv-x="796" d="M305 3 L285 3 C228 3 191 59 207 119 L257 278 L508 278 C524 226 541 174 556 123 C575 61 538 2 480 2 L460 2 L460 -1 L794 -1 L794 2 L780 2 C741 2 686 55 663 113 C593 332 523 551 453 770 L443 770 C446 750 410 726 369 720 C370 717 371 713 372 710 L177 118 C154 58 81 3 24 3 L4 3 L4 0 L303 0 L305 3 L305 3 Z M264 305 L382 678 L499 305 L264 305 L264 305 Z " />
<glyph glyph-name="B" unicode="B" horiz-adv-x="685" d="M334 9 L284 9 C264 9 245 48 245 89 L245 385 L325 385 C432 385 535 295 535 201 C535 69 437 9 334 9 L334 9 Z M60 747 L74 747 C110 747 145 712 145 676 L145 74 C145 38 110 3 74 3 L60 3 L60 0 L365 0 C508 0 645 63 645 201 C645 292 548 379 436 399 C537 427 617 498 617 571 C617 663 528 751 330 751 L60 751 L60 747 L60 747 Z M335 403 L245 403 L245 731 L290 731 C446 731 517 648 517 561 C517 480 428 403 335 403 L335 403 Z " />
<glyph glyph-name="C" unicode="C" horiz-adv-x="740" d="M698 0 L698 224 L684 224 C682 218 680 208 678 202 C665 152 602 78 550 51 L550 51 C507 28 459 13 413 13 C284 13 160 190 160 375 C160 559 289 735 424 735 C475 735 523 718 565 693 C612 661 664 594 677 547 C679 541 681 531 683 525 L697 525 L697 746 L690 746 C690 740 689 727 689 721 C687 689 649 681 611 704 L611 704 C558 736 491 759 413 759 C227 759 49 570 49 374 C49 178 222 -11 402 -11 C480 -11 555 14 614 49 C651 67 687 55 689 24 C689 17 690 5 690 -2 L698 0 L698 0 Z " />
<glyph glyph-name="D" unicode="D" horiz-adv-x="853" d="M295 20 C257 20 245 53 245 88 L245 730 L285 730 C511 730 688 556 688 375 C688 176 495 20 295 20 L295 20 Z M60 747 L74 747 C110 747 145 712 145 676 L145 74 C145 38 110 3 74 3 L60 3 L60 0 L325 0 C566 0 798 165 798 375 C798 566 608 750 365 750 L60 750 L60 747 L60 747 Z " />
<glyph glyph-name="E" unicode="E" horiz-adv-x="613" d="M516 750 L1 750 L1 747 L17 747 C62 747 106 702 106 656 L106 94 C106 48 62 3 17 3 L1 3 L1 0 L541 0 L543 11 L542 11 C548 46 560 111 566 146 L556 146 L550 127 C534 73 456 21 392 21 L294 21 C227 21 206 54 206 88 L206 385 L327 385 C378 385 433 336 440 284 L445 250 L455 250 L455 385 L456 385 L456 409 L455 409 L455 544 L445 544 L440 510 C433 458 378 409 327 409 L206 409 L206 729 L390 729 C442 729 503 680 516 628 L525 594 L535 594 C531 636 521 709 517 750 L516 750 L516 750 Z " />
<glyph glyph-name="F" unicode="F" horiz-adv-x="627" d="M473 544 L468 510 C461 458 406 409 355 409 L245 409 L245 733 L427 733 C480 734 541 685 555 633 L564 599 L574 599 C569 634 561 698 556 736 L556 743 L557 743 L556 751 L41 751 L41 748 L57 748 C102 748 146 703 146 657 L146 95 C146 49 102 4 57 4 L41 4 L41 1 L351 1 L351 4 L335 4 C290 4 246 49 246 95 L246 386 L356 386 C407 386 462 337 469 285 L474 251 L484 251 L484 386 L486 386 L486 410 L484 410 L484 545 L473 544 L473 544 Z " />
<glyph glyph-name="G" unicode="G" horiz-adv-x="817" d="M698 526 L698 747 L691 747 C691 741 690 728 690 722 C688 690 650 682 612 705 L612 705 C559 737 492 760 414 760 C228 760 50 571 50 375 C50 179 227 -10 412 -10 C539 -10 677 24 752 59 L745 74 C726 65 702 56 675 48 L675 216 C675 270 715 322 756 322 L770 322 L770 325 L480 325 L480 322 L494 322 C535 322 575 270 575 216 C576 216 576 121 576 113 C573 60 501 10 427 10 C290 10 159 189 159 375 C159 559 288 735 423 735 C474 735 522 718 564 693 C611 661 663 594 676 547 C678 541 680 531 682 525 L698 526 L698 526 Z " />
<glyph glyph-name="H" unicode="H" horiz-adv-x="797" d="M737 3 L723 3 C687 3 652 38 652 74 L652 676 C652 712 687 747 723 747 L737 747 L737 750 L467 750 L467 747 L481 747 C517 747 552 712 552 676 L552 409 L217 409 L217 676 C217 712 252 747 288 747 L302 747 L302 750 L32 750 L32 747 L46 747 C82 747 117 712 117 676 L117 74 C117 38 82 3 46 3 L32 3 L32 0 L302 0 L302 3 L288 3 C252 3 217 38 217 74 L217 383 L552 383 L552 74 C552 38 517 3 481 3 L467 3 L467 0 L737 0 L737 3 L737 3 Z " />
<glyph glyph-name="I" unicode="I" horiz-adv-x="361" d="M301 3 L287 3 C251 3 216 38 216 74 L216 676 C216 712 251 747 287 747 L301 747 L301 750 L31 750 L31 747 L45 747 C81 747 116 712 116 676 L116 74 C116 38 81 3 45 3 L31 3 L31 0 L301 0 L301 3 L301 3 Z " />
<glyph glyph-name="J" unicode="J" horiz-adv-x="385" d="M325 750 L55 750 L55 747 L69 747 C105 747 140 712 140 676 L140 -72 C140 -153 76 -185 40 -185 C-2 -185 7 -105 -35 -105 C-58 -105 -80 -127 -80 -150 C-80 -186 -33 -220 15 -220 C95 -220 240 -124 240 116 L240 676 C240 712 275 747 311 747 L325 747 L325 750 L325 750 Z " />
<glyph glyph-name="K" unicode="K" horiz-adv-x="775" d="M693 750 L396 750 L396 747 L428 747 C488 747 499 691 454 631 L245 375 L245 676 C245 712 280 747 316 747 L330 747 L330 750 L60 750 L60 747 L74 747 C110 747 145 712 145 676 L145 74 C145 38 110 3 74 3 L60 3 L60 0 L330 0 L330 3 L316 3 C280 3 245 38 245 74 L245 375 L560 0 L772 0 L772 3 L758 3 C722 3 658 38 628 74 L628 74 L323 437 C387 512 451 587 515 662 C553 706 630 748 674 748 L693 748 L693 750 L693 750 Z " />
<glyph glyph-name="L" unicode="L" horiz-adv-x="650" d="M325 750 L55 750 L55 747 L69 747 C105 747 140 712 140 676 L140 74 C140 38 105 3 69 3 L55 3 L55 0 L575 0 L577 8 L577 8 C583 42 595 108 601 142 L591 142 L585 123 C569 69 491 17 427 17 L328 17 C261 17 240 52 240 88 L240 676 C240 712 275 747 311 747 L325 747 L325 750 L325 750 Z " />
<glyph glyph-name="M" unicode="M" horiz-adv-x="900" d="M865 750 L685 750 L478 130 L251 750 L47 750 L47 747 L61 747 C92 747 132 722 152 692 C146 486 140 279 133 74 C132 38 96 3 60 3 L46 3 L46 0 L251 0 L251 3 L237 3 C203 3 170 34 167 68 L177 636 C263 424 349 212 435 0 L460 0 L687 656 C692 462 697 268 702 74 C703 38 669 3 633 3 L619 3 L619 0 L889 0 L889 3 L875 3 C839 3 803 38 802 74 L802 74 L783 682 C786 716 818 747 852 747 L866 747 L865 750 L865 750 Z " />
<glyph glyph-name="N" unicode="N" horiz-adv-x="760" d="M53 0 L253 0 L253 3 L239 3 C203 3 168 38 168 74 L168 74 L165 612 C314 408 463 204 613 0 L633 0 L640 681 C643 715 677 747 711 747 L725 747 L725 750 L525 750 L525 747 L539 747 C575 747 610 712 610 676 L610 676 L611 171 C469 364 328 558 187 751 L-20 751 L-20 748 L-6 748 C30 748 91 713 117 677 L117 677 L138 649 L137 75 C137 39 102 4 66 4 L52 4 L53 0 L53 0 Z " />
<glyph glyph-name="O" unicode="O" horiz-adv-x="851" d="M159 375 C159 559 284 735 414 735 C553 735 687 559 687 375 C687 191 553 15 413 15 C283 15 159 191 159 375 L159 375 Z M50 375 C50 179 225 -10 408 -10 C606 -10 796 179 796 375 C796 571 611 760 418 760 C230 760 50 571 50 375 L50 375 Z " />
<glyph glyph-name="P" unicode="P" horiz-adv-x="576" d="M303 3 L289 3 C253 3 218 38 218 74 L218 344 L268 344 C415 344 556 425 556 539 C556 647 439 750 318 750 L33 750 L33 747 L47 747 C83 747 118 712 118 676 L118 74 C118 38 83 3 47 3 L33 3 L33 0 L303 0 L303 3 L303 3 Z M218 365 L218 733 L293 733 C380 733 463 646 463 555 C463 444 367 365 268 365 L218 365 L218 365 Z " />
<glyph glyph-name="Q" unicode="Q" horiz-adv-x="846" d="M1146 -41 L1139 -33 C1110 -57 954 -81 820 -81 C674 -81 485 -48 380 -8 C389 -9 398 -9 407 -9 C605 -9 795 180 795 376 C795 572 610 761 417 761 C229 761 49 572 49 376 C49 238 136 103 252 36 C400 -66 670 -164 805 -164 C903 -164 1070 -103 1145 -40 L1146 -41 L1146 -41 Z M323 20 L323 20 C233 70 159 221 159 377 C159 561 284 737 414 737 C553 737 687 561 687 377 C687 187 539 4 385 4 C366 4 342 9 325 21 L323 20 L323 20 Z " />
<glyph glyph-name="R" unicode="R" horiz-adv-x="796" d="M60 747 L74 747 C110 747 145 712 145 676 L145 74 C145 38 110 3 74 3 L60 3 L60 0 L330 0 L330 3 L316 3 C280 3 245 38 245 74 L245 355 L346 355 C369 314 452 187 535 64 C570 13 616 1 787 1 L787 4 C710 4 685 15 652 64 C563 196 477 323 446 369 C539 395 612 458 612 539 C612 647 484 751 351 751 L61 751 L60 747 L60 747 Z M246 381 L246 731 L321 731 C413 731 501 647 501 559 C501 455 428 381 351 381 L246 381 L246 381 Z " />
<glyph glyph-name="S" unicode="S" horiz-adv-x="551" d="M50 240 L50 0 L57 0 C57 8 58 23 58 31 C60 66 97 75 134 51 C183 15 243 -10 292 -10 C404 -10 511 91 511 196 C511 279 428 388 322 427 C222 464 143 545 143 601 C143 669 198 735 256 735 C276 735 297 731 318 724 L318 724 C371 706 436 633 451 574 C453 568 455 556 457 550 L471 550 L471 754 L464 754 C464 748 463 738 463 732 C461 705 428 698 396 717 C354 743 302 760 257 760 C159 760 65 663 65 563 C65 477 152 363 263 323 C358 288 432 215 432 167 C432 93 364 22 293 22 C261 22 224 34 190 53 C141 83 85 160 71 216 C69 222 67 234 65 240 L50 240 L50 240 Z " />
<glyph glyph-name="T" unicode="T" horiz-adv-x="775" d="M694 795 L692 788 C684 769 629 750 577 750 L200 750 C148 750 92 769 85 788 L83 795 L74 795 C69 784 62 765 56 750 L55 750 L55 747 C54 743 53 740 52 737 L53 737 C39 702 12 635 -2 600 L8 600 L19 619 C47 673 127 725 181 725 L339 725 L339 74 C339 38 304 3 268 3 L254 3 L254 0 L524 0 L524 3 L510 3 C474 3 439 38 439 74 L439 725 L598 725 C652 725 732 673 761 619 L772 600 L782 600 C768 635 741 703 727 738 L727 738 C721 753 710 780 704 795 L694 795 L694 795 Z " />
<glyph glyph-name="U" unicode="U" horiz-adv-x="760" d="M730 39 L716 35 C680 25 645 51 645 87 L645 750 L460 750 L460 747 L474 747 C510 747 545 712 545 676 L545 190 C513 121 409 54 334 54 C271 54 210 135 210 220 L210 750 L25 750 L25 747 L39 747 C75 747 110 712 110 676 L110 220 C110 103 200 -10 294 -10 C385 -10 508 66 545 145 L545 0 L595 0 C600 1 645 11 645 13 C676 21 709 30 730 36 L730 39 L730 39 Z " />
<glyph glyph-name="V" unicode="V" horiz-adv-x="819" d="M790 750 L511 750 L511 747 L539 747 C601 747 638 688 615 626 L615 626 L434 136 L236 627 C212 689 244 747 302 747 L322 747 L322 750 L-2 750 L-2 747 L10 747 C42 747 97 688 122 626 L122 626 C208 414 294 202 380 -10 L400 -10 C484 202 568 414 652 626 C676 688 737 747 776 747 L790 747 L790 750 L790 750 Z " />
<glyph glyph-name="W" unicode="W" horiz-adv-x="1161" d="M729 750 L410 750 L410 747 L422 747 C455 747 504 703 526 654 L585 500 L440 121 L245 652 C229 702 257 748 303 748 L319 748 L319 751 L25 751 L25 748 L37 748 C68 748 116 701 137 650 C221 430 305 210 390 -10 L415 -10 L600 457 C660 301 720 145 780 -10 L805 -10 L1001 653 C1019 702 1071 747 1110 747 L1124 747 L1124 750 L846 750 L846 747 L889 747 C941 747 976 698 962 646 L962 646 L821 138 C760 307 698 477 637 646 C618 698 650 747 701 747 L729 747 L729 750 L729 750 Z " />
<glyph glyph-name="X" unicode="X" horiz-adv-x="827" d="M804 750 L541 750 L541 747 L588 747 C625 747 637 715 616 679 L438 425 L277 674 C254 712 267 747 305 747 L332 747 L332 750 L41 750 L41 747 L51 747 C81 747 133 711 159 673 L367 351 C301 260 236 169 170 79 C142 40 78 3 39 3 L20 3 L20 0 L278 0 L278 3 L231 3 C193 3 181 38 205 76 L379 331 C433 247 487 163 541 79 C566 40 553 3 514 3 L487 3 L487 0 L779 0 L779 3 L769 3 C738 3 685 40 660 79 L449 405 L655 677 C686 714 747 747 783 747 L803 747 L804 750 L804 750 Z " />
<glyph glyph-name="Y" unicode="Y" horiz-adv-x="815" d="M328 750 L37 750 L37 747 L47 747 C77 747 130 710 155 671 L156 671 L379 322 L379 94 C379 48 335 3 290 3 L274 3 L274 0 L584 0 L584 3 L568 3 C523 3 479 48 479 94 L479 325 C543 440 606 556 670 671 C691 710 749 747 787 747 L806 747 L806 750 L538 750 L538 747 L586 747 C624 747 643 710 624 671 L469 356 L269 677 C250 714 264 747 301 747 L328 747 L328 750 L328 750 Z " />
<glyph glyph-name="Z" unicode="Z" horiz-adv-x="652" d="M67 597 L72 616 C84 670 158 722 221 724 L502 728 L25 20 L25 0 L606 0 L609 15 L611 15 C611 15 627 84 643 155 L633 155 L626 136 C607 85 535 34 473 27 L142 21 L609 729 L609 749 L69 749 L66 721 L67 721 C65 697 61 647 57 595 L67 597 L67 597 Z " />
<glyph glyph-name="bracketleft" unicode="&#x5b;" horiz-adv-x="295" d="M135 725 L345 725 L345 750 L105 750 L105 -195 L345 -195 L345 -170 L135 -170 L135 725 L135 725 Z " />
<glyph glyph-name="backslash" unicode="&#x5c;" horiz-adv-x="347" d="M27 770 L287 -80 L337 -80 L77 770 L27 770 L27 770 Z " />
<glyph glyph-name="bracketright" unicode="&#x5d;" horiz-adv-x="298" d="M158 725 L158 -170 L-52 -170 L-52 -195 L188 -195 L188 750 L-52 750 L-52 725 L158 725 L158 725 Z " />
<glyph glyph-name="asciicircum" unicode="&#x5e;" horiz-adv-x="340" d="M200 755 C195 763 178 785 170 785 C162 785 145 763 140 755 L18 566 L30 556 L170 695 L310 556 L322 566 L200 755 L200 755 Z " />
<glyph glyph-name="underscore" unicode="&#x5f;" horiz-adv-x="455" d="M5 -50 L5 -97 L450 -97 L450 -50 L5 -50 L5 -50 Z " />
<glyph glyph-name="grave" unicode="&#x60;" horiz-adv-x="340" d="M-34 746 C-34 739 -3 709 30 682 L172 562 L183 573 L69 721 C43 755 14 788 8 788 C-11 788 -34 765 -34 746 L-34 746 Z " />
<glyph glyph-name="a" unicode="a" horiz-adv-x="514" d="M524 102 L509 109 C504 82 478 56 455 56 C427 56 400 79 400 102 L400 355 C400 446 331 510 259 510 C160 510 65 406 65 360 C65 329 89 300 114 300 C137 300 159 328 159 343 C159 358 139 388 139 403 C139 428 183 484 229 484 C273 484 316 443 316 386 C316 386 316 328 316 265 C130 207 45 159 45 88 C45 38 100 -10 158 -10 C192 -10 259 26 318 83 C328 35 374 -6 422 -6 C465 -6 516 46 526 101 L524 102 L524 102 Z M317 244 C317 173 317 102 317 102 C276 61 229 36 205 36 C168 36 132 66 132 98 C132 167 190 206 317 246 L317 244 L317 244 Z " />
<glyph glyph-name="b" unicode="b" horiz-adv-x="573" d="M10 715 L20 717 C48 721 75 692 75 659 L75 0 L80 0 L112 68 C156 24 228 -10 291 -10 C412 -10 528 119 528 253 C528 382 417 505 301 505 C258 505 194 473 160 437 L160 750 L118 750 L118 751 C90 743 38 729 10 721 L10 715 L10 715 Z M160 112 L160 413 C188 444 236 471 266 471 C351 471 432 359 432 243 C432 124 365 10 296 10 C246 10 183 59 160 113 L160 112 L160 112 Z " />
<glyph glyph-name="c" unicode="c" horiz-adv-x="503" d="M473 128 L461 133 C440 87 367 42 311 42 C220 42 133 155 133 273 C133 384 211 491 292 491 C325 491 372 449 388 405 C396 384 417 363 431 363 C460 363 481 384 473 405 C454 459 367 510 297 510 C168 510 45 376 45 236 C45 111 161 -10 281 -10 C348 -10 442 58 473 128 L473 128 Z " />
<glyph glyph-name="d" unicode="d" horiz-adv-x="600" d="M350 716 L360 718 C388 722 415 693 415 660 L415 471 C375 494 325 510 280 510 C148 510 45 383 45 251 C45 120 149 -5 257 -5 C309 -5 383 29 415 67 L415 0 L457 0 L457 -1 C490 8 552 25 585 34 L585 37 L571 33 C535 23 500 49 500 85 L500 750 L458 750 L458 751 C430 744 378 730 350 722 L350 716 L350 716 Z M415 375 L415 96 C387 61 329 29 292 29 C210 29 132 149 132 273 C132 381 201 484 290 484 C337 484 400 424 415 374 L415 375 L415 375 Z " />
<glyph glyph-name="e" unicode="e" horiz-adv-x="540" d="M143 340 L510 340 C492 444 392 510 301 510 C170 510 45 402 45 231 C45 108 159 -10 278 -10 C364 -10 471 60 498 133 L487 136 C470 90 378 46 298 46 C215 46 135 154 135 266 C135 293 138 318 143 341 L143 340 L143 340 Z M410 365 L148 361 C174 443 234 492 295 492 C339 492 389 443 410 365 L410 365 Z " />
<glyph glyph-name="f" unicode="f" horiz-adv-x="368" d="M270 3 L241 3 C223 3 205 21 205 39 L205 455 L358 455 L358 500 L205 500 C205 617 251 729 310 729 C347 729 399 635 430 635 C453 635 475 657 475 680 C475 718 409 755 340 755 C217 755 120 630 120 500 L26 465 L26 455 L120 455 L120 39 C120 21 102 3 84 3 L55 3 L55 0 L270 0 L270 3 L270 3 Z " />
<glyph glyph-name="g" unicode="g" horiz-adv-x="520" d="M541 479 C541 505 514 530 486 530 C455 530 408 493 387 453 C353 487 305 510 256 510 C164 510 76 432 76 350 C76 286 128 225 194 200 C118 186 56 146 56 105 C56 61 95 19 143 5 C91 -13 46 -59 46 -96 C46 -165 154 -231 266 -231 C378 -231 486 -152 486 -69 C486 9 414 83 300 83 L182 83 C143 83 105 106 105 129 C105 159 179 187 256 187 C348 187 436 266 436 349 C436 382 422 414 399 441 C411 460 428 476 437 476 C455 476 488 441 506 441 C524 441 542 459 542 478 L541 479 L541 479 Z M256 207 C208 207 161 277 161 349 C161 420 208 489 256 489 C304 489 351 420 351 349 C351 277 304 207 256 207 L256 207 Z M163 0 C168 -1 173 -1 178 -1 L292 -1 C367 -1 415 -44 415 -89 C415 -152 344 -212 271 -212 C192 -212 117 -145 117 -76 C117 -48 137 -16 162 0 L163 0 L163 0 Z " />
<glyph glyph-name="h" unicode="h" horiz-adv-x="589" d="M19 715 L29 717 C57 721 84 692 84 659 L84 39 C84 21 66 3 48 3 L19 3 L19 0 L234 0 L234 3 L205 3 C187 3 169 21 169 39 L169 360 C196 406 268 450 316 450 C368 450 409 391 409 330 L409 39 C409 21 391 3 373 3 L344 3 L344 0 L559 0 L559 3 L530 3 C512 3 494 21 494 39 L494 330 C494 422 437 510 364 510 C301 510 206 449 169 385 L169 750 L127 750 L127 751 C99 743 47 729 19 721 L19 715 L19 715 Z " />
<glyph glyph-name="i" unicode="i" horiz-adv-x="274" d="M137 615 C165 615 192 642 192 670 C192 698 165 725 137 725 C109 725 82 698 82 670 C82 642 109 615 137 615 L137 615 Z M29 465 L39 467 C67 471 94 442 94 409 L94 39 C94 21 76 3 58 3 L29 3 L29 0 L244 0 L244 3 L215 3 C197 3 179 21 179 39 L179 500 L137 500 L137 501 C109 493 57 479 29 471 L29 465 L29 465 Z " />
<glyph glyph-name="j" unicode="j" horiz-adv-x="270" d="M138 615 C166 615 193 642 193 670 C193 698 166 725 138 725 C110 725 83 698 83 670 C83 642 110 615 138 615 L138 615 Z M30 465 L40 467 C68 471 95 442 95 409 L95 50 C95 -21 70 -104 43 -119 C17 -119 -34 -100 -60 -100 C-83 -100 -105 -120 -105 -140 C-105 -165 -76 -187 -45 -185 C-39 -185 12 -158 60 -130 C121 -95 180 -6 180 50 L180 500 L138 500 L138 501 C110 493 58 479 30 471 L30 465 L30 465 Z " />
<glyph glyph-name="k" unicode="k" horiz-adv-x="564" d="M19 715 L29 717 C57 721 84 692 84 659 L84 39 C84 21 66 3 48 3 L19 3 L19 0 L234 0 L234 3 L205 3 C187 3 169 21 169 39 L169 280 C229 208 290 136 350 64 C376 33 375 3 348 3 L339 3 L339 0 L561 0 L561 3 C532 3 492 30 458 67 L250 316 C291 348 332 380 373 411 C429 455 519 497 555 497 L568 497 L568 500 L276 500 L276 497 L326 497 C385 497 372 444 303 385 L168 280 L168 750 L126 750 L126 751 C98 743 46 729 18 721 L19 715 L19 715 Z " />
<glyph glyph-name="l" unicode="l" horiz-adv-x="264" d="M19 715 L29 717 C57 721 84 692 84 659 L84 39 C84 21 66 3 48 3 L19 3 L19 0 L234 0 L234 3 L205 3 C187 3 169 21 169 39 L169 750 L127 750 L127 751 C99 743 47 729 19 721 L19 715 L19 715 Z " />
<glyph glyph-name="m" unicode="m" horiz-adv-x="874" d="M19 465 L29 467 C57 471 84 442 84 409 L84 39 C84 21 66 3 48 3 L19 3 L19 0 L234 0 L234 3 L205 3 C187 3 169 21 169 39 L169 365 C193 407 258 447 302 447 C355 447 389 390 389 330 L389 39 C389 21 371 3 353 3 L324 3 L324 0 L539 0 L539 3 L510 3 C492 3 474 21 474 39 L474 330 C474 343 473 356 471 369 C497 410 563 448 608 448 C661 448 695 391 695 331 L695 40 C695 22 677 4 659 4 L630 4 L630 1 L845 1 L845 4 L816 4 C798 4 780 22 780 40 L780 331 C780 423 727 511 643 511 C590 511 505 452 470 391 L470 380 C455 452 407 511 338 511 C288 511 205 452 170 391 L170 501 L128 501 L128 502 C100 494 48 480 20 472 L19 465 L19 465 Z " />
<glyph glyph-name="n" unicode="n" horiz-adv-x="569" d="M19 465 L29 467 C57 471 84 442 84 409 L84 39 C84 21 66 3 48 3 L19 3 L19 0 L234 0 L234 3 L205 3 C187 3 169 21 169 39 L169 360 C195 405 252 448 286 448 C344 448 389 390 389 330 L389 39 C389 21 371 3 353 3 L324 3 L324 0 L539 0 L539 3 L510 3 C492 3 474 21 474 39 L474 330 C474 422 414 510 337 510 C288 510 206 449 169 385 L169 500 L127 500 L127 501 C99 493 47 479 19 471 L19 465 L19 465 Z " />
<glyph glyph-name="o" unicode="o" horiz-adv-x="613" d="M139 250 C139 369 221 484 307 484 C393 484 475 369 475 250 C475 131 393 16 307 16 C221 16 139 131 139 250 L139 250 Z M45 250 C45 117 173 -10 307 -10 C440 -10 568 117 568 250 C568 383 440 510 307 510 C173 510 45 383 45 250 L45 250 Z " />
<glyph glyph-name="p" unicode="p" horiz-adv-x="571" d="M4 465 L14 467 C42 471 69 442 69 409 L69 -181 C69 -199 51 -217 33 -217 L4 -217 L4 -220 L219 -220 L219 -217 L190 -217 C172 -217 154 -199 154 -181 L154 36 C192 11 237 -5 278 -5 C404 -5 526 137 526 257 C526 386 417 510 303 510 C253 510 186 477 154 439 L154 500 L112 500 L112 501 C84 493 32 479 4 471 L4 465 L4 465 Z M154 130 L154 405 C182 442 231 475 263 475 C350 475 433 355 433 230 C433 132 360 16 283 16 C235 16 172 72 154 130 L154 130 Z " />
<glyph glyph-name="q" unicode="q" horiz-adv-x="551" d="M546 -217 L517 -217 C499 -217 481 -199 481 -181 L481 500 L476 500 L448 440 L443 435 C401 478 336 510 279 510 C140 510 31 383 31 251 C31 120 137 -5 248 -5 C295 -5 362 27 396 63 L396 -181 C396 -199 378 -217 360 -217 L331 -217 L331 -220 L546 -220 L546 -217 L546 -217 Z M396 389 L396 93 C366 60 315 31 284 31 C200 31 119 151 119 276 C119 386 187 492 274 492 C317 492 373 444 396 390 L396 389 L396 389 Z " />
<glyph glyph-name="r" unicode="r" horiz-adv-x="420" d="M20 465 L30 467 C58 471 85 442 85 409 L85 39 C85 21 67 3 49 3 L20 3 L20 0 L235 0 L235 3 L206 3 C188 3 170 21 170 39 L170 356 C192 416 241 470 275 470 C293 470 310 453 310 435 C310 410 335 385 360 385 C386 385 410 410 410 435 C410 473 363 510 315 510 C261 510 194 458 170 400 L170 500 L128 500 L128 501 C100 493 48 479 20 471 L20 465 L20 465 Z " />
<glyph glyph-name="s" unicode="s" horiz-adv-x="428" d="M65 177 L60 177 L60 -1 L65 -1 C65 4 66 14 66 19 C67 36 106 32 146 11 C170 -2 196 -10 218 -10 C300 -10 378 59 378 130 C378 188 316 261 237 282 C171 300 119 360 119 409 C119 450 161 490 204 490 C212 490 221 489 230 487 C284 470 335 405 348 342 L353 342 L353 510 L348 510 C348 506 347 497 347 493 C346 479 305 482 263 498 L263 498 C243 506 222 511 203 511 C129 511 58 447 58 381 C58 318 119 240 198 219 C262 202 312 149 312 107 C312 58 265 11 217 11 C216 11 185 14 186 17 C133 34 77 112 64 178 L65 177 L65 177 Z " />
<glyph glyph-name="t" unicode="t" horiz-adv-x="378" d="M333 500 L180 500 L180 620 L174 620 L30 466 L30 456 L95 456 L95 160 C95 56 162 -10 232 -10 C282 -10 348 42 368 96 L358 100 C345 64 296 30 258 30 C217 30 178 73 178 141 L180 455 L333 455 L333 500 L333 500 Z " />
<glyph glyph-name="u" unicode="u" horiz-adv-x="560" d="M545 34 L534 31 C501 22 470 49 470 85 L470 500 L320 500 L320 497 L349 497 C367 497 385 479 385 461 L385 145 C360 94 301 49 257 49 C210 49 165 103 165 160 L165 500 L15 500 L15 497 L44 497 C62 497 80 479 80 461 L80 160 C80 73 147 -10 217 -10 C275 -10 353 52 385 120 L385 0 L427 0 L427 -1 C457 7 515 23 545 31 L545 34 L545 34 Z " />
<glyph glyph-name="v" unicode="v" horiz-adv-x="538" d="M228 500 L6 500 L6 497 L16 497 C43 497 83 462 98 424 L257 -10 L282 -10 L441 427 C457 464 495 497 522 497 L532 497 L532 500 L364 500 L364 497 L374 497 C401 497 415 460 402 421 L402 421 L301 123 L190 424 C177 462 189 498 216 498 L226 498 L228 500 L228 500 Z " />
<glyph glyph-name="w" unicode="w" horiz-adv-x="846" d="M248 500 L24 500 L24 497 L34 497 C62 497 103 460 117 421 L117 421 L278 -10 L303 -10 L423 305 L536 -10 L561 -10 L727 421 L728 421 C743 460 784 497 812 497 L822 497 L822 500 L653 500 L653 497 L663 497 C690 497 703 464 692 427 L583 123 L474 428 C464 464 477 497 503 497 L513 497 L513 500 L289 500 L289 497 L299 497 C327 497 367 460 381 421 L381 421 L407 350 L325 121 L210 430 C200 466 212 498 238 498 L248 498 L248 500 L248 500 Z " />
<glyph glyph-name="x" unicode="x" horiz-adv-x="574" d="M10 0 L177 0 L177 3 L168 3 C142 3 139 34 159 69 L258 215 C286 170 315 124 342 79 C366 40 362 3 335 3 L326 3 L326 0 L558 0 L558 3 L548 3 C522 3 477 35 452 71 L321 284 C355 329 389 375 423 420 C452 459 507 496 535 496 L545 496 L545 499 L378 499 L378 496 L387 496 C413 496 416 464 395 428 L309 303 C285 342 260 381 237 419 C213 458 217 495 244 495 L253 495 L253 498 L21 498 L21 495 L31 495 C57 495 102 463 127 427 L247 232 L129 74 C99 36 47 1 20 1 L10 1 L10 0 L10 0 Z " />
<glyph glyph-name="y" unicode="y" horiz-adv-x="576" d="M552 500 L384 500 L384 497 L394 497 C422 497 436 460 423 421 L323 118 L194 426 C181 463 192 497 218 497 L228 497 L228 500 L6 500 L6 497 L16 497 C44 497 87 460 103 421 L103 421 L279 1 C258 -51 239 -104 219 -156 C212 -175 195 -194 192 -194 C173 -194 161 -165 142 -165 C119 -165 97 -187 97 -210 C97 -235 122 -260 147 -260 C169 -260 222 -214 240 -167 L300 -10 C352 134 405 277 458 421 C472 460 513 497 541 497 L551 497 L552 500 L552 500 Z " />
<glyph glyph-name="z" unicode="z" horiz-adv-x="475" d="M30 372 L42 372 L49 387 C68 427 131 467 183 473 L333 477 L40 20 L40 0 L430 0 L430 1 C431 1 439 63 446 128 L434 128 L429 113 C417 73 360 33 309 27 L144 23 L435 480 L435 500 L125 500 C99 500 77 513 80 527 L81 532 L73 532 C58 470 59 475 30 372 L30 372 Z " />
<glyph glyph-name="braceleft" unicode="&#x7b;" horiz-adv-x="249" d="M244 750 L204 750 C136 750 70 686 70 619 L70 383 C70 346 44 317 15 317 L15 303 C45 303 70 271 70 230 L70 1 C70 -66 136 -130 204 -130 L244 -130 L244 -116 L223 -116 C179 -116 136 -59 136 1 L136 182 C136 241 98 298 55 309 C98 320 136 374 136 429 L137 618 C137 678 179 735 223 735 L244 735 L244 750 L244 750 Z " />
<glyph glyph-name="bar" unicode="&#x7c;" horiz-adv-x="186" d="M60 800 L60 -250 L126 -250 L126 800 L60 800 L60 800 Z " />
<glyph glyph-name="braceright" unicode="&#x7d;" horiz-adv-x="249" d="M5 750 L5 736 L26 736 C70 736 112 679 112 619 L113 430 C113 375 151 321 194 310 C151 299 113 242 113 183 L113 2 C113 -58 70 -115 26 -115 L5 -115 L5 -129 L45 -129 C113 -129 179 -65 179 2 L179 231 C179 272 204 304 234 304 L234 318 C205 318 179 347 179 384 L179 620 C179 687 113 751 45 751 L5 750 L5 750 Z " />
<glyph glyph-name="asciitilde" unicode="&#x7e;" horiz-adv-x="340" d="M30 310 C30 341 50 370 71 370 C115 370 200 305 244 305 C285 305 325 364 325 425 L310 425 C310 394 287 365 264 365 C220 365 135 430 91 430 C52 430 15 371 15 310 L30 310 L30 310 Z " />
<glyph glyph-name="exclamdown" unicode="&#xa1;" horiz-adv-x="244" d="M122 505 C91 505 62 476 62 445 C62 414 91 385 122 385 C153 385 182 414 182 445 C182 476 153 505 122 505 L122 505 Z M122 -255 C156 -255 179 -204 174 -150 C174 -150 130 178 130 290 L114 290 C114 178 70 -150 70 -150 C65 -204 88 -255 122 -255 L122 -255 Z " />
<glyph glyph-name="cent" unicode="&#xa2;" horiz-adv-x="503" d="M267 575 L267 508 C150 489 45 365 45 236 C45 116 152 0 267 -9 L267 -75 L297 -75 L297 -9 C362 0 444 63 473 128 L461 133 C439 85 361 35 297 43 L297 491 C330 487 373 447 388 405 C396 384 417 363 431 363 C460 363 481 384 473 405 C454 459 367 510 297 510 L297 575 L267 575 L267 575 Z M267 51 C194 80 133 175 133 274 C133 373 196 469 267 488 L267 51 L267 51 Z " />
<glyph glyph-name="acute" unicode="&#xb4;" horiz-adv-x="340" d="M178 562 L320 682 C353 710 384 741 384 746 C384 765 361 788 342 788 C337 788 308 755 281 721 L167 573 L178 562 L178 562 Z " />
<glyph glyph-name="questiondown" unicode="&#xbf;" horiz-adv-x="299" d="M174 505 C143 505 114 476 114 445 C114 414 143 385 174 385 C205 385 234 414 234 445 C234 476 205 505 174 505 L174 505 Z M174 290 L174 140 C95 140 43 99 14 56 C-1 33 -16 -21 -16 -55 C-16 -160 67 -260 154 -260 C195 -260 234 -229 234 -197 C234 -176 211 -155 188 -155 C171 -155 140 -170 123 -170 C65 -170 10 -109 10 -45 C10 -32 21 -2 33 15 C48 38 96 60 202 60 C195 58 189 290 189 290 L174 290 L174 290 Z " />
<glyph glyph-name="Agrave" unicode="&#xc0;" horiz-adv-x="796" d="M217 996 C217 989 248 959 281 932 L423 812 L434 823 L320 971 C294 1005 265 1038 259 1038 C240 1038 217 1015 217 996 L217 996 Z M305 3 L285 3 C228 3 191 59 207 119 L257 278 L508 278 C524 226 541 174 556 123 C575 61 538 2 480 2 L460 2 L460 -1 L794 -1 L794 2 L780 2 C741 2 686 55 663 113 C593 332 523 551 453 770 L443 770 C446 750 410 726 369 720 C370 717 371 713 372 710 L177 118 C154 58 81 3 24 3 L4 3 L4 0 L303 0 L305 3 L305 3 Z M264 305 L382 678 L499 305 L264 305 L264 305 Z " />
<glyph glyph-name="Aacute" unicode="&#xc1;" horiz-adv-x="796" d="M429 812 L571 932 C604 960 635 991 635 996 C635 1015 612 1038 593 1038 C588 1038 559 1005 532 971 L418 823 L429 812 L429 812 Z M305 3 L285 3 C228 3 191 59 207 119 L257 278 L508 278 C524 226 541 174 556 123 C575 61 538 2 480 2 L460 2 L460 -1 L794 -1 L794 2 L780 2 C741 2 686 55 663 113 C593 332 523 551 453 770 L443 770 C446 750 410 726 369 720 C370 717 371 713 372 710 L177 118 C154 58 81 3 24 3 L4 3 L4 0 L303 0 L305 3 L305 3 Z M264 305 L382 678 L499 305 L264 305 L264 305 Z " />
<glyph glyph-name="Acircumflex" unicode="&#xc2;" horiz-adv-x="796" d="M451 1005 C446 1013 429 1035 421 1035 C413 1035 396 1013 391 1005 L269 816 L281 806 L421 945 L561 806 L573 816 L451 1005 L451 1005 Z M305 3 L285 3 C228 3 191 59 207 119 L257 278 L508 278 C524 226 541 174 556 123 C575 61 538 2 480 2 L460 2 L460 -1 L794 -1 L794 2 L780 2 C741 2 686 55 663 113 C593 332 523 551 453 770 L443 770 C446 750 410 726 369 720 C370 717 371 713 372 710 L177 118 C154 58 81 3 24 3 L4 3 L4 0 L303 0 L305 3 L305 3 Z M264 305 L382 678 L499 305 L264 305 L264 305 Z " />
<glyph glyph-name="Atilde" unicode="&#xc3;" horiz-adv-x="796" d="M281 870 C281 901 301 930 322 930 C366 930 451 865 495 865 C536 865 576 924 576 985 L561 985 C561 954 538 925 515 925 C471 925 386 990 342 990 C303 990 266 931 266 870 L281 870 L281 870 Z M305 3 L285 3 C228 3 191 59 207 119 L257 278 L508 278 C524 226 541 174 556 123 C575 61 538 2 480 2 L460 2 L460 -1 L794 -1 L794 2 L780 2 C741 2 686 55 663 113 C593 332 523 551 453 770 L443 770 C446 750 410 726 369 720 C370 717 371 713 372 710 L177 118 C154 58 81 3 24 3 L4 3 L4 0 L303 0 L305 3 L305 3 Z M264 305 L382 678 L499 305 L264 305 L264 305 Z " />
<glyph glyph-name="Adieresis" unicode="&#xc4;" horiz-adv-x="796" d="M496 865 C524 865 551 892 551 920 C551 948 524 975 496 975 C468 975 441 948 441 920 C441 892 468 865 496 865 L496 865 Z M346 865 C374 865 401 892 401 920 C401 948 374 975 346 975 C318 975 291 948 291 920 C291 892 318 865 346 865 L346 865 Z M305 3 L285 3 C228 3 191 59 207 119 L257 278 L508 278 C524 226 541 174 556 123 C575 61 538 2 480 2 L460 2 L460 -1 L794 -1 L794 2 L780 2 C741 2 686 55 663 113 C593 332 523 551 453 770 L443 770 C446 750 410 726 369 720 C370 717 371 713 372 710 L177 118 C154 58 81 3 24 3 L4 3 L4 0 L303 0 L305 3 L305 3 Z M264 305 L382 678 L499 305 L264 305 L264 305 Z " />
<glyph glyph-name="Aring" unicode="&#xc5;" horiz-adv-x="796" d="M349 905 C349 943 384 980 421 980 C458 980 494 943 494 905 C494 871 455 830 421 830 C388 830 349 871 349 905 L349 905 Z M324 905 C324 861 376 810 421 810 C466 810 519 861 519 905 C519 953 471 1000 421 1000 C372 1000 324 953 324 905 L324 905 Z M305 3 L285 3 C228 3 191 59 207 119 L257 278 L508 278 C524 226 541 174 556 123 C575 61 538 2 480 2 L460 2 L460 -1 L794 -1 L794 2 L780 2 C741 2 686 55 663 113 C593 332 523 551 453 770 L443 770 C446 750 410 726 369 720 C370 717 371 713 372 710 L177 118 C154 58 81 3 24 3 L4 3 L4 0 L303 0 L305 3 L305 3 Z M264 305 L382 678 L499 305 L264 305 L264 305 Z " />
<glyph glyph-name="Egrave" unicode="&#xc8;" horiz-adv-x="652" d="M146 996 C146 989 177 959 210 932 L352 812 L363 823 L249 971 C223 1005 194 1038 188 1038 C169 1038 146 1015 146 996 L146 996 Z M555 750 L40 750 L40 747 L56 747 C101 747 145 702 145 656 L145 94 C145 48 101 3 56 3 L40 3 L40 0 L580 0 L582 11 L581 11 C587 46 599 111 605 146 L595 146 L589 127 C573 73 495 21 431 21 L333 21 C266 21 245 54 245 88 L245 385 L366 385 C417 385 472 336 479 284 L484 250 L494 250 L494 385 L495 385 L495 409 L494 409 L494 544 L484 544 L479 510 C472 458 417 409 366 409 L245 409 L245 729 L429 729 C481 729 542 680 555 628 L564 594 L574 594 C570 636 560 709 556 750 L555 750 L555 750 Z " />
<glyph glyph-name="Eacute" unicode="&#xc9;" horiz-adv-x="652" d="M358 812 L500 932 C533 960 564 991 564 996 C564 1015 541 1038 522 1038 C517 1038 488 1005 461 971 L347 823 L358 812 L358 812 Z M555 750 L40 750 L40 747 L56 747 C101 747 145 702 145 656 L145 94 C145 48 101 3 56 3 L40 3 L40 0 L580 0 L582 11 L581 11 C587 46 599 111 605 146 L595 146 L589 127 C573 73 495 21 431 21 L333 21 C266 21 245 54 245 88 L245 385 L366 385 C417 385 472 336 479 284 L484 250 L494 250 L494 385 L495 385 L495 409 L494 409 L494 544 L484 544 L479 510 C472 458 417 409 366 409 L245 409 L245 729 L429 729 C481 729 542 680 555 628 L564 594 L574 594 C570 636 560 709 556 750 L555 750 L555 750 Z " />
<glyph glyph-name="Ecircumflex" unicode="&#xca;" horiz-adv-x="652" d="M380 1005 C375 1013 358 1035 350 1035 C342 1035 325 1013 320 1005 L198 816 L210 806 L350 945 L490 806 L502 816 L380 1005 L380 1005 Z M555 750 L40 750 L40 747 L56 747 C101 747 145 702 145 656 L145 94 C145 48 101 3 56 3 L40 3 L40 0 L580 0 L582 11 L581 11 C587 46 599 111 605 146 L595 146 L589 127 C573 73 495 21 431 21 L333 21 C266 21 245 54 245 88 L245 385 L366 385 C417 385 472 336 479 284 L484 250 L494 250 L494 385 L495 385 L495 409 L494 409 L494 544 L484 544 L479 510 C472 458 417 409 366 409 L245 409 L245 729 L429 729 C481 729 542 680 555 628 L564 594 L574 594 C570 636 560 709 556 750 L555 750 L555 750 Z " />
<glyph glyph-name="Edieresis" unicode="&#xcb;" horiz-adv-x="652" d="M425 865 C453 865 480 892 480 920 C480 948 453 975 425 975 C397 975 370 948 370 920 C370 892 397 865 425 865 L425 865 Z M275 865 C303 865 330 892 330 920 C330 948 303 975 275 975 C247 975 220 948 220 920 C220 892 247 865 275 865 L275 865 Z M555 750 L40 750 L40 747 L56 747 C101 747 145 702 145 656 L145 94 C145 48 101 3 56 3 L40 3 L40 0 L580 0 L582 11 L581 11 C587 46 599 111 605 146 L595 146 L589 127 C573 73 495 21 431 21 L333 21 C266 21 245 54 245 88 L245 385 L366 385 C417 385 472 336 479 284 L484 250 L494 250 L494 385 L495 385 L495 409 L494 409 L494 544 L484 544 L479 510 C472 458 417 409 366 409 L245 409 L245 729 L429 729 C481 729 542 680 555 628 L564 594 L574 594 C570 636 560 709 556 750 L555 750 L555 750 Z " />
<glyph glyph-name="Igrave" unicode="&#xcc;" horiz-adv-x="385" d="M-14 996 C-14 989 17 959 50 932 L192 812 L203 823 L89 971 C63 1005 34 1038 28 1038 C9 1038 -14 1015 -14 996 L-14 996 Z M325 3 L311 3 C275 3 240 38 240 74 L240 676 C240 712 275 747 311 747 L325 747 L325 750 L55 750 L55 747 L69 747 C105 747 140 712 140 676 L140 74 C140 38 105 3 69 3 L55 3 L55 0 L325 0 L325 3 L325 3 Z " />
<glyph glyph-name="Iacute" unicode="&#xcd;" horiz-adv-x="385" d="M198 812 L340 932 C373 960 404 991 404 996 C404 1015 381 1038 362 1038 C357 1038 328 1005 301 971 L187 823 L198 812 L198 812 Z M325 3 L311 3 C275 3 240 38 240 74 L240 676 C240 712 275 747 311 747 L325 747 L325 750 L55 750 L55 747 L69 747 C105 747 140 712 140 676 L140 74 C140 38 105 3 69 3 L55 3 L55 0 L325 0 L325 3 L325 3 Z " />
<glyph glyph-name="Icircumflex" unicode="&#xce;" horiz-adv-x="385" d="M220 1005 C215 1013 198 1035 190 1035 C182 1035 165 1013 160 1005 L38 816 L50 806 L190 945 L330 806 L342 816 L220 1005 L220 1005 Z M325 3 L311 3 C275 3 240 38 240 74 L240 676 C240 712 275 747 311 747 L325 747 L325 750 L55 750 L55 747 L69 747 C105 747 140 712 140 676 L140 74 C140 38 105 3 69 3 L55 3 L55 0 L325 0 L325 3 L325 3 Z " />
<glyph glyph-name="Idieresis" unicode="&#xcf;" horiz-adv-x="385" d="M265 865 C293 865 320 892 320 920 C320 948 293 975 265 975 C237 975 210 948 210 920 C210 892 237 865 265 865 L265 865 Z M115 865 C143 865 170 892 170 920 C170 948 143 975 115 975 C87 975 60 948 60 920 C60 892 87 865 115 865 L115 865 Z M325 3 L311 3 C275 3 240 38 240 74 L240 676 C240 712 275 747 311 747 L325 747 L325 750 L55 750 L55 747 L69 747 C105 747 140 712 140 676 L140 74 C140 38 105 3 69 3 L55 3 L55 0 L325 0 L325 3 L325 3 Z " />
<glyph glyph-name="Ntilde" unicode="&#xd1;" horiz-adv-x="786" d="M249 870 C249 901 270 930 291 930 C335 930 420 865 464 865 C505 865 545 924 545 985 L530 985 C530 954 507 925 484 925 C440 925 354 990 310 990 C271 990 234 931 234 870 L249 870 L249 870 Z M53 0 L253 0 L253 3 L239 3 C203 3 168 38 168 74 L168 74 L165 612 C314 408 463 204 613 0 L633 0 L640 681 C643 715 677 747 711 747 L725 747 L725 750 L525 750 L525 747 L539 747 C575 747 610 712 610 676 L610 676 L611 171 C469 364 328 558 187 751 L-20 751 L-20 748 L-6 748 C30 748 91 713 117 677 L117 677 L138 649 L137 75 C137 39 102 4 66 4 L52 4 L53 0 L53 0 Z " />
<glyph glyph-name="Ograve" unicode="&#xd2;" horiz-adv-x="851" d="M159 375 C159 559 284 735 414 735 C553 735 687 559 687 375 C687 191 553 15 413 15 C283 15 159 191 159 375 L159 375 Z M50 375 C50 179 225 -10 408 -10 C606 -10 796 179 796 375 C796 571 611 760 418 760 C230 760 50 571 50 375 L50 375 Z M214 996 C214 989 245 959 278 932 L420 812 L431 823 L317 971 C291 1005 262 1038 256 1038 C237 1038 214 1015 214 996 L214 996 Z " />
<glyph glyph-name="Oacute" unicode="&#xd3;" horiz-adv-x="851" d="M426 812 L568 932 C601 960 632 991 632 996 C632 1015 609 1038 590 1038 C585 1038 556 1005 529 971 L415 823 L426 812 L426 812 Z M159 375 C159 559 284 735 414 735 C553 735 687 559 687 375 C687 191 553 15 413 15 C283 15 159 191 159 375 L159 375 Z M50 375 C50 179 225 -10 408 -10 C606 -10 796 179 796 375 C796 571 611 760 418 760 C230 760 50 571 50 375 L50 375 Z " />
<glyph glyph-name="Ocircumflex" unicode="&#xd4;" horiz-adv-x="851" d="M159 375 C159 559 284 735 414 735 C553 735 687 559 687 375 C687 191 553 15 413 15 C283 15 159 191 159 375 L159 375 Z M50 375 C50 179 225 -10 408 -10 C606 -10 796 179 796 375 C796 571 611 760 418 760 C230 760 50 571 50 375 L50 375 Z M448 1005 C443 1013 426 1035 418 1035 C410 1035 393 1013 388 1005 L266 816 L278 806 L418 945 L558 806 L570 816 L448 1005 L448 1005 Z " />
<glyph glyph-name="Otilde" unicode="&#xd5;" horiz-adv-x="851" d="M278 870 C278 901 298 930 319 930 C363 930 448 865 492 865 C533 865 573 924 573 985 L558 985 C558 954 535 925 512 925 C468 925 383 990 339 990 C300 990 263 931 263 870 L278 870 L278 870 Z M159 375 C159 559 284 735 414 735 C553 735 687 559 687 375 C687 191 553 15 413 15 C283 15 159 191 159 375 L159 375 Z M50 375 C50 179 225 -10 408 -10 C606 -10 796 179 796 375 C796 571 611 760 418 760 C230 760 50 571 50 375 L50 375 Z " />
<glyph glyph-name="Odieresis" unicode="&#xd6;" horiz-adv-x="851" d="M493 865 C521 865 548 892 548 920 C548 948 521 975 493 975 C465 975 438 948 438 920 C438 892 465 865 493 865 L493 865 Z M343 865 C371 865 398 892 398 920 C398 948 371 975 343 975 C315 975 288 948 288 920 C288 892 315 865 343 865 L343 865 Z M159 375 C159 559 284 735 414 735 C553 735 687 559 687 375 C687 191 553 15 413 15 C283 15 159 191 159 375 L159 375 Z M50 375 C50 179 225 -10 408 -10 C606 -10 796 179 796 375 C796 571 611 760 418 760 C230 760 50 571 50 375 L50 375 Z " />
<glyph glyph-name="Oslash" unicode="&#xd8;" horiz-adv-x="851" d="M66 -26 C66 -26 108 17 179 90 C243 29 325 -10 408 -10 C606 -10 796 179 796 375 C796 465 757 554 696 624 C734 664 773 704 812 744 L780 776 C741 736 702 696 664 656 C596 719 508 760 418 760 C230 760 50 571 50 375 C50 283 88 193 147 123 C76 50 33 6 33 6 L66 -26 L66 -26 Z M615 606 C457 442 311 291 205 181 C177 239 160 306 160 374 C160 558 285 734 415 734 C491 734 565 682 617 605 L615 606 L615 606 Z M641 565 C671 508 689 442 689 375 C689 191 555 15 415 15 C345 15 277 65 229 140 C334 248 481 400 641 565 L641 565 Z " />
<glyph glyph-name="Ugrave" unicode="&#xd9;" horiz-adv-x="760" d="M174 996 C174 989 205 959 238 932 L380 812 L390 823 L277 971 C251 1005 223 1038 216 1038 C197 1038 174 1015 174 996 L174 996 Z M730 39 L716 35 C680 25 645 51 645 87 L645 750 L460 750 L460 747 L474 747 C510 747 545 712 545 676 L545 190 C513 121 409 54 334 54 C271 54 210 135 210 220 L210 750 L25 750 L25 747 L39 747 C75 747 110 712 110 676 L110 220 C110 103 200 -10 294 -10 C385 -10 508 66 545 145 L545 0 L595 0 C600 1 645 11 645 13 C676 21 709 30 730 36 L730 39 L730 39 Z " />
<glyph glyph-name="Uacute" unicode="&#xda;" horiz-adv-x="760" d="M385 812 L527 932 C560 960 591 991 591 996 C591 1015 568 1038 549 1038 C544 1038 515 1005 488 971 L375 823 L385 812 L385 812 Z M730 39 L716 35 C680 25 645 51 645 87 L645 750 L460 750 L460 747 L474 747 C510 747 545 712 545 676 L545 190 C513 121 409 54 334 54 C271 54 210 135 210 220 L210 750 L25 750 L25 747 L39 747 C75 747 110 712 110 676 L110 220 C110 103 200 -10 294 -10 C385 -10 508 66 545 145 L545 0 L595 0 C600 1 645 11 645 13 C676 21 709 30 730 36 L730 39 L730 39 Z " />
<glyph glyph-name="Ucircumflex" unicode="&#xdb;" horiz-adv-x="760" d="M408 1005 C403 1013 386 1035 378 1035 C370 1035 353 1013 348 1005 L226 816 L237 806 L377 945 L518 806 L529 816 L408 1005 L408 1005 Z M730 39 L716 35 C680 25 645 51 645 87 L645 750 L460 750 L460 747 L474 747 C510 747 545 712 545 676 L545 190 C513 121 409 54 334 54 C271 54 210 135 210 220 L210 750 L25 750 L25 747 L39 747 C75 747 110 712 110 676 L110 220 C110 103 200 -10 294 -10 C385 -10 508 66 545 145 L545 0 L595 0 C600 1 645 11 645 13 C676 21 709 30 730 36 L730 39 L730 39 Z " />
<glyph glyph-name="Udieresis" unicode="&#xdc;" horiz-adv-x="760" d="M453 865 C481 865 508 892 508 920 C508 948 481 975 453 975 C425 975 398 948 398 920 C398 892 425 865 453 865 L453 865 Z M303 865 C331 865 358 892 358 920 C358 948 331 975 303 975 C275 975 248 948 248 920 C248 892 275 865 303 865 L303 865 Z M730 39 L716 35 C680 25 645 51 645 87 L645 750 L460 750 L460 747 L474 747 C510 747 545 712 545 676 L545 190 C513 121 409 54 334 54 C271 54 210 135 210 220 L210 750 L25 750 L25 747 L39 747 C75 747 110 712 110 676 L110 220 C110 103 200 -10 294 -10 C385 -10 508 66 545 145 L545 0 L595 0 C600 1 645 11 645 13 C676 21 709 30 730 36 L730 39 L730 39 Z " />
<glyph glyph-name="Yacute" unicode="&#xdd;" horiz-adv-x="764" d="M398 812 L540 932 C573 960 604 991 604 996 C604 1015 581 1038 562 1038 C557 1038 528 1005 501 971 L387 823 L398 812 L398 812 Z M289 750 L-2 750 L-2 747 L8 747 C38 747 91 710 116 671 L117 671 L340 322 L340 94 C340 48 296 3 251 3 L235 3 L235 0 L545 0 L545 3 L529 3 C484 3 440 48 440 94 L440 325 C504 440 567 556 631 671 C652 710 710 747 748 747 L767 747 L767 750 L499 750 L499 747 L547 747 C585 747 604 710 585 671 L430 356 L230 677 C211 714 225 747 262 747 L289 747 L289 750 L289 750 Z " />
<glyph glyph-name="agrave" unicode="&#xe0;" horiz-adv-x="514" d="M524 102 L509 109 C504 82 478 56 455 56 C427 56 400 79 400 102 L400 355 C400 446 331 510 259 510 C160 510 65 406 65 360 C65 329 89 300 114 300 C137 300 159 328 159 343 C159 358 139 388 139 403 C139 428 183 484 229 484 C273 484 316 443 316 386 C316 386 316 328 316 265 C130 207 45 159 45 88 C45 38 100 -10 158 -10 C192 -10 259 26 318 83 C328 35 374 -6 422 -6 C465 -6 516 46 526 101 L524 102 L524 102 Z M57 745 C57 738 88 708 121 681 L263 561 L274 572 L160 720 C134 754 105 787 99 787 C80 787 57 764 57 745 L57 745 Z M317 244 C317 173 317 102 317 102 C276 61 229 36 205 36 C168 36 132 66 132 98 C132 167 190 206 317 246 L317 244 L317 244 Z " />
<glyph glyph-name="aacute" unicode="&#xe1;" horiz-adv-x="514" d="M267 562 L409 682 C442 710 473 741 473 746 C473 765 450 788 431 788 C426 788 397 755 370 721 L256 573 L267 562 L267 562 Z M524 102 L509 109 C504 82 478 56 455 56 C427 56 400 79 400 102 L400 355 C400 446 331 510 259 510 C160 510 65 406 65 360 C65 329 89 300 114 300 C137 300 159 328 159 343 C159 358 139 388 139 403 C139 428 183 484 229 484 C273 484 316 443 316 386 C316 386 316 328 316 265 C130 207 45 159 45 88 C45 38 100 -10 158 -10 C192 -10 259 26 318 83 C328 35 374 -6 422 -6 C465 -6 516 46 526 101 L524 102 L524 102 Z M317 244 C317 173 317 102 317 102 C276 61 229 36 205 36 C168 36 132 66 132 98 C132 167 190 206 317 246 L317 244 L317 244 Z " />
<glyph glyph-name="acircumflex" unicode="&#xe2;" horiz-adv-x="514" d="M524 102 L509 109 C504 82 478 56 455 56 C427 56 400 79 400 102 L400 355 C400 446 331 510 259 510 C160 510 65 406 65 360 C65 329 89 300 114 300 C137 300 159 328 159 343 C159 358 139 388 139 403 C139 428 183 484 229 484 C273 484 316 443 316 386 C316 386 316 328 316 265 C130 207 45 159 45 88 C45 38 100 -10 158 -10 C192 -10 259 26 318 83 C328 35 374 -6 422 -6 C465 -6 516 46 526 101 L524 102 L524 102 Z M291 754 C286 762 269 784 261 784 C253 784 236 762 231 754 L109 565 L121 555 L261 694 L401 555 L413 565 L291 754 L291 754 Z M317 244 C317 173 317 102 317 102 C276 61 229 36 205 36 C168 36 132 66 132 98 C132 167 190 206 317 246 L317 244 L317 244 Z " />
<glyph glyph-name="atilde" unicode="&#xe3;" horiz-adv-x="514" d="M119 620 C119 651 139 680 160 680 C204 680 289 615 333 615 C374 615 414 674 414 735 L399 735 C399 704 376 675 353 675 C309 675 224 740 180 740 C141 740 104 681 104 620 L119 620 L119 620 Z M524 102 L509 109 C504 82 478 56 455 56 C427 56 400 79 400 102 L400 355 C400 446 331 510 259 510 C160 510 65 406 65 360 C65 329 89 300 114 300 C137 300 159 328 159 343 C159 358 139 388 139 403 C139 428 183 484 229 484 C273 484 316 443 316 386 C316 386 316 328 316 265 C130 207 45 159 45 88 C45 38 100 -10 158 -10 C192 -10 259 26 318 83 C328 35 374 -6 422 -6 C465 -6 516 46 526 101 L524 102 L524 102 Z M317 244 C317 173 317 102 317 102 C276 61 229 36 205 36 C168 36 132 66 132 98 C132 167 190 206 317 246 L317 244 L317 244 Z " />
<glyph glyph-name="adieresis" unicode="&#xe4;" horiz-adv-x="514" d="M334 615 C362 615 389 642 389 670 C389 698 362 725 334 725 C306 725 279 698 279 670 C279 642 306 615 334 615 L334 615 Z M184 615 C212 615 239 642 239 670 C239 698 212 725 184 725 C156 725 129 698 129 670 C129 642 156 615 184 615 L184 615 Z M524 102 L509 109 C504 82 478 56 455 56 C427 56 400 79 400 102 L400 355 C400 446 331 510 259 510 C160 510 65 406 65 360 C65 329 89 300 114 300 C137 300 159 328 159 343 C159 358 139 388 139 403 C139 428 183 484 229 484 C273 484 316 443 316 386 C316 386 316 328 316 265 C130 207 45 159 45 88 C45 38 100 -10 158 -10 C192 -10 259 26 318 83 C328 35 374 -6 422 -6 C465 -6 516 46 526 101 L524 102 L524 102 Z M317 244 C317 173 317 102 317 102 C276 61 229 36 205 36 C168 36 132 66 132 98 C132 167 190 206 317 246 L317 244 L317 244 Z " />
<glyph glyph-name="aring" unicode="&#xe5;" horiz-adv-x="514" d="M187 655 C187 693 222 730 259 730 C296 730 332 693 332 655 C332 621 293 580 259 580 C226 580 187 621 187 655 L187 655 Z M162 655 C162 611 214 560 259 560 C304 560 357 611 357 655 C357 703 309 750 259 750 C210 750 162 703 162 655 L162 655 Z M524 102 L509 109 C504 82 478 56 455 56 C427 56 400 79 400 102 L400 355 C400 446 331 510 259 510 C160 510 65 406 65 360 C65 329 89 300 114 300 C137 300 159 328 159 343 C159 358 139 388 139 403 C139 428 183 484 229 484 C273 484 316 443 316 386 C316 386 316 328 316 265 C130 207 45 159 45 88 C45 38 100 -10 158 -10 C192 -10 259 26 318 83 C328 35 374 -6 422 -6 C465 -6 516 46 526 101 L524 102 L524 102 Z M317 244 C317 173 317 102 317 102 C276 61 229 36 205 36 C168 36 132 66 132 98 C132 167 190 206 317 246 L317 244 L317 244 Z " />
<glyph glyph-name="egrave" unicode="&#xe8;" horiz-adv-x="540" d="M97 746 C97 739 128 709 161 682 L303 562 L314 573 L200 721 C174 755 145 788 139 788 C120 788 97 765 97 746 L97 746 Z M143 340 L510 340 C492 444 392 510 301 510 C170 510 45 402 45 231 C45 108 159 -10 278 -10 C364 -10 471 60 498 133 L487 136 C470 90 378 46 298 46 C215 46 135 154 135 266 C135 293 138 318 143 341 L143 340 L143 340 Z M410 365 L148 361 C174 443 234 492 295 492 C339 492 389 443 410 365 L410 365 Z " />
<glyph glyph-name="eacute" unicode="&#xe9;" horiz-adv-x="540" d="M309 562 L451 682 C484 710 515 741 515 746 C515 765 492 788 473 788 C468 788 439 755 412 721 L298 573 L309 562 L309 562 Z M143 340 L510 340 C492 444 392 510 301 510 C170 510 45 402 45 231 C45 108 159 -10 278 -10 C364 -10 471 60 498 133 L487 136 C470 90 378 46 298 46 C215 46 135 154 135 266 C135 293 138 318 143 341 L143 340 L143 340 Z M410 365 L148 361 C174 443 234 492 295 492 C339 492 389 443 410 365 L410 365 Z " />
<glyph glyph-name="ecircumflex" unicode="&#xea;" horiz-adv-x="540" d="M331 755 C326 763 309 785 301 785 C293 785 276 763 271 755 L149 566 L161 556 L301 695 L441 556 L453 566 L331 755 L331 755 Z M143 340 L510 340 C492 444 392 510 301 510 C170 510 45 402 45 231 C45 108 159 -10 278 -10 C364 -10 471 60 498 133 L487 136 C470 90 378 46 298 46 C215 46 135 154 135 266 C135 293 138 318 143 341 L143 340 L143 340 Z M410 365 L148 361 C174 443 234 492 295 492 C339 492 389 443 410 365 L410 365 Z " />
<glyph glyph-name="edieresis" unicode="&#xeb;" horiz-adv-x="540" d="M376 615 C404 615 431 642 431 670 C431 698 404 725 376 725 C348 725 321 698 321 670 C321 642 348 615 376 615 L376 615 Z M226 615 C254 615 281 642 281 670 C281 698 254 725 226 725 C198 725 171 698 171 670 C171 642 198 615 226 615 L226 615 Z M143 340 L510 340 C492 444 392 510 301 510 C170 510 45 402 45 231 C45 108 159 -10 278 -10 C364 -10 471 60 498 133 L487 136 C470 90 378 46 298 46 C215 46 135 154 135 266 C135 293 138 318 143 341 L143 340 L143 340 Z M410 365 L148 361 C174 443 234 492 295 492 C339 492 389 443 410 365 L410 365 Z " />
<glyph glyph-name="igrave" unicode="&#xec;" horiz-adv-x="320" d="M-36 746 C-36 739 -5 709 28 682 L170 562 L180 573 L67 721 C41 755 13 788 6 788 C-13 788 -36 765 -36 746 L-36 746 Z M60 468 L89 476 C107 481 125 468 125 450 L125 39 C125 21 107 3 89 3 L60 3 L60 0 L275 0 L275 3 L246 3 C228 3 210 21 210 39 L210 500 L168 500 L168 501 C140 493 88 479 60 471 L60 468 L60 468 Z " />
<glyph glyph-name="iacute" unicode="&#xed;" horiz-adv-x="320" d="M-36 746 C-36 739 -5 709 28 682 L170 562 L180 573 L67 721 C41 755 13 788 6 788 C-13 788 -36 765 -36 746 L-36 746 Z M60 468 L89 476 C107 481 125 468 125 450 L125 39 C125 21 107 3 89 3 L60 3 L60 0 L275 0 L275 3 L246 3 C228 3 210 21 210 39 L210 500 L168 500 L168 501 C140 493 88 479 60 471 L60 468 L60 468 Z " />
<glyph glyph-name="icircumflex" unicode="&#xee;" horiz-adv-x="320" d="M198 755 C193 763 176 785 168 785 C160 785 143 763 138 755 L16 566 L27 556 L167 695 L308 556 L319 566 L198 755 L198 755 Z M60 468 L89 476 C107 481 125 468 125 450 L125 39 C125 21 107 3 89 3 L60 3 L60 0 L275 0 L275 3 L246 3 C228 3 210 21 210 39 L210 500 L168 500 L168 501 C140 493 88 479 60 471 L60 468 L60 468 Z " />
<glyph glyph-name="idieresis" unicode="&#xef;" horiz-adv-x="320" d="M243 615 C271 615 298 642 298 670 C298 698 271 725 243 725 C215 725 188 698 188 670 C188 642 215 615 243 615 L243 615 Z M93 615 C121 615 148 642 148 670 C148 698 121 725 93 725 C65 725 38 698 38 670 C38 642 65 615 93 615 L93 615 Z M60 468 L89 476 C107 481 125 468 125 450 L125 39 C125 21 107 3 89 3 L60 3 L60 0 L275 0 L275 3 L246 3 C228 3 210 21 210 39 L210 500 L168 500 L168 501 C140 493 88 479 60 471 L60 468 L60 468 Z " />
<glyph glyph-name="ntilde" unicode="&#xf1;" horiz-adv-x="569" d="M139 620 C139 651 159 680 180 680 C224 680 309 615 353 615 C394 615 434 674 434 735 L419 735 C419 704 396 675 373 675 C329 675 244 740 200 740 C161 740 124 681 124 620 L139 620 L139 620 Z M19 465 L29 467 C57 471 84 442 84 409 L84 39 C84 21 66 3 48 3 L19 3 L19 0 L234 0 L234 3 L205 3 C187 3 169 21 169 39 L169 360 C195 405 252 448 286 448 C344 448 389 390 389 330 L389 39 C389 21 371 3 353 3 L324 3 L324 0 L539 0 L539 3 L510 3 C492 3 474 21 474 39 L474 330 C474 422 414 510 337 510 C288 510 206 449 169 385 L169 500 L127 500 L127 501 C99 493 47 479 19 471 L19 465 L19 465 Z " />
<glyph glyph-name="ograve" unicode="&#xf2;" horiz-adv-x="613" d="M139 250 C139 369 221 484 307 484 C393 484 475 369 475 250 C475 131 393 16 307 16 C221 16 139 131 139 250 L139 250 Z M45 250 C45 117 173 -10 307 -10 C440 -10 568 117 568 250 C568 383 440 510 307 510 C173 510 45 383 45 250 L45 250 Z M103 746 C103 739 134 709 167 682 L309 562 L320 573 L206 721 C180 755 151 788 145 788 C126 788 103 765 103 746 L103 746 Z " />
<glyph glyph-name="oacute" unicode="&#xf3;" horiz-adv-x="613" d="M315 562 L457 682 C490 710 521 741 521 746 C521 765 498 788 479 788 C474 788 445 755 418 721 L304 573 L315 562 L315 562 Z M139 250 C139 369 221 484 307 484 C393 484 475 369 475 250 C475 131 393 16 307 16 C221 16 139 131 139 250 L139 250 Z M45 250 C45 117 173 -10 307 -10 C440 -10 568 117 568 250 C568 383 440 510 307 510 C173 510 45 383 45 250 L45 250 Z " />
<glyph glyph-name="ocircumflex" unicode="&#xf4;" horiz-adv-x="613" d="M139 250 C139 369 221 484 307 484 C393 484 475 369 475 250 C475 131 393 16 307 16 C221 16 139 131 139 250 L139 250 Z M45 250 C45 117 173 -10 307 -10 C440 -10 568 117 568 250 C568 383 440 510 307 510 C173 510 45 383 45 250 L45 250 Z M337 755 C332 763 315 785 307 785 C299 785 282 763 277 755 L155 566 L167 556 L307 695 L447 556 L459 566 L337 755 L337 755 Z " />
<glyph glyph-name="otilde" unicode="&#xf5;" horiz-adv-x="613" d="M167 620 C167 651 187 680 208 680 C252 680 337 615 381 615 C422 615 462 674 462 735 L447 735 C447 704 424 675 401 675 C357 675 272 740 228 740 C189 740 152 681 152 620 L167 620 L167 620 Z M139 250 C139 369 221 484 307 484 C393 484 475 369 475 250 C475 131 393 16 307 16 C221 16 139 131 139 250 L139 250 Z M45 250 C45 117 173 -10 307 -10 C440 -10 568 117 568 250 C568 383 440 510 307 510 C173 510 45 383 45 250 L45 250 Z " />
<glyph glyph-name="odieresis" unicode="&#xf6;" horiz-adv-x="613" d="M382 615 C410 615 437 642 437 670 C437 698 410 725 382 725 C354 725 327 698 327 670 C327 642 354 615 382 615 L382 615 Z M232 615 C260 615 287 642 287 670 C287 698 260 725 232 725 C204 725 177 698 177 670 C177 642 204 615 232 615 L232 615 Z M139 250 C139 369 221 484 307 484 C393 484 475 369 475 250 C475 131 393 16 307 16 C221 16 139 131 139 250 L139 250 Z M45 250 C45 117 173 -10 307 -10 C440 -10 568 117 568 250 C568 383 440 510 307 510 C173 510 45 383 45 250 L45 250 Z " />
<glyph glyph-name="oslash" unicode="&#xf8;" horiz-adv-x="613" d="M56 -21 C56 -21 86 9 137 59 C184 17 245 -10 307 -10 C440 -10 568 117 568 250 C568 311 541 371 498 418 C525 445 552 472 579 499 L557 521 C530 494 503 467 476 440 C429 482 369 509 308 509 C174 509 46 382 46 249 C46 188 73 128 116 81 C65 31 35 1 35 1 L56 -21 L56 -21 Z M434 398 C332 297 238 203 167 132 C150 168 140 209 140 250 C140 369 222 484 308 484 C355 484 401 449 433 398 L434 398 L434 398 Z M448 369 C465 333 475 292 475 250 C475 131 393 16 307 16 C259 16 213 51 181 103 C251 173 345 267 448 369 L448 369 Z " />
<glyph glyph-name="ugrave" unicode="&#xf9;" horiz-adv-x="560" d="M71 746 C71 739 102 709 135 682 L277 562 L288 573 L174 721 C148 755 119 788 113 788 C94 788 71 765 71 746 L71 746 Z M545 34 L534 31 C501 22 470 49 470 85 L470 500 L320 500 L320 497 L349 497 C367 497 385 479 385 461 L385 145 C360 94 301 49 257 49 C210 49 165 103 165 160 L165 500 L15 500 L15 497 L44 497 C62 497 80 479 80 461 L80 160 C80 73 147 -10 217 -10 C275 -10 353 52 385 120 L385 0 L427 0 L427 -1 C457 7 515 23 545 31 L545 34 L545 34 Z " />
<glyph glyph-name="uacute" unicode="&#xfa;" horiz-adv-x="560" d="M283 562 L425 682 C458 710 489 741 489 746 C489 765 466 788 447 788 C442 788 413 755 386 721 L272 573 L283 562 L283 562 Z M545 34 L534 31 C501 22 470 49 470 85 L470 500 L320 500 L320 497 L349 497 C367 497 385 479 385 461 L385 145 C360 94 301 49 257 49 C210 49 165 103 165 160 L165 500 L15 500 L15 497 L44 497 C62 497 80 479 80 461 L80 160 C80 73 147 -10 217 -10 C275 -10 353 52 385 120 L385 0 L427 0 L427 -1 C457 7 515 23 545 31 L545 34 L545 34 Z " />
<glyph glyph-name="ucircumflex" unicode="&#xfb;" horiz-adv-x="560" d="M305 755 C300 763 283 785 275 785 C267 785 250 763 245 755 L123 566 L135 556 L275 695 L415 556 L427 566 L305 755 L305 755 Z M545 34 L534 31 C501 22 470 49 470 85 L470 500 L320 500 L320 497 L349 497 C367 497 385 479 385 461 L385 145 C360 94 301 49 257 49 C210 49 165 103 165 160 L165 500 L15 500 L15 497 L44 497 C62 497 80 479 80 461 L80 160 C80 73 147 -10 217 -10 C275 -10 353 52 385 120 L385 0 L427 0 L427 -1 C457 7 515 23 545 31 L545 34 L545 34 Z " />
<glyph glyph-name="udieresis" unicode="&#xfc;" horiz-adv-x="560" d="M350 615 C378 615 405 642 405 670 C405 698 378 725 350 725 C322 725 295 698 295 670 C295 642 322 615 350 615 L350 615 Z M200 615 C228 615 255 642 255 670 C255 698 228 725 200 725 C172 725 145 698 145 670 C145 642 172 615 200 615 L200 615 Z M545 34 L534 31 C501 22 470 49 470 85 L470 500 L320 500 L320 497 L349 497 C367 497 385 479 385 461 L385 145 C360 94 301 49 257 49 C210 49 165 103 165 160 L165 500 L15 500 L15 497 L44 497 C62 497 80 479 80 461 L80 160 C80 73 147 -10 217 -10 C275 -10 353 52 385 120 L385 0 L427 0 L427 -1 C457 7 515 23 545 31 L545 34 L545 34 Z " />
<glyph glyph-name="ydieresis" unicode="&#xff;" horiz-adv-x="558" d="M381 615 C409 615 436 642 436 670 C436 698 409 725 381 725 C353 725 326 698 326 670 C326 642 353 615 381 615 L381 615 Z M231 615 C259 615 286 642 286 670 C286 698 259 725 231 725 C203 725 176 698 176 670 C176 642 203 615 231 615 L231 615 Z M552 500 L384 500 L384 497 L394 497 C422 497 436 460 423 421 L323 118 L194 426 C181 463 192 497 218 497 L228 497 L228 500 L6 500 L6 497 L16 497 C44 497 87 460 103 421 L103 421 L279 1 C258 -51 239 -104 219 -156 C212 -175 195 -194 192 -194 C173 -194 161 -165 142 -165 C119 -165 97 -187 97 -210 C97 -235 122 -260 147 -260 C169 -260 222 -214 240 -167 L300 -10 C352 134 405 277 458 421 C472 460 513 497 541 497 L551 497 L552 500 L552 500 Z " />
<glyph glyph-name="Amacron" unicode="&#x100;" horiz-adv-x="796" d="M271 895 L571 895 L571 954 L271 954 L271 895 L271 895 Z M305 3 L285 3 C228 3 191 59 207 119 L257 278 L508 278 C524 226 541 174 556 123 C575 61 538 2 480 2 L460 2 L460 -1 L794 -1 L794 2 L780 2 C741 2 686 55 663 113 C593 332 523 551 453 770 L443 770 C446 750 410 726 369 720 C370 717 371 713 372 710 L177 118 C154 58 81 3 24 3 L4 3 L4 0 L303 0 L305 3 L305 3 Z M264 305 L382 678 L499 305 L264 305 L264 305 Z " />
<glyph glyph-name="amacron" unicode="&#x101;" horiz-adv-x="514" d="M109 645 L409 645 L409 704 L109 704 L109 645 L109 645 Z M524 102 L509 109 C504 82 478 56 455 56 C427 56 400 79 400 102 L400 355 C400 446 331 510 259 510 C160 510 65 406 65 360 C65 329 89 300 114 300 C137 300 159 328 159 343 C159 358 139 388 139 403 C139 428 183 484 229 484 C273 484 316 443 316 386 C316 386 316 328 316 265 C130 207 45 159 45 88 C45 38 100 -10 158 -10 C192 -10 259 26 318 83 C328 35 374 -6 422 -6 C465 -6 516 46 526 101 L524 102 L524 102 Z M317 244 C317 173 317 102 317 102 C276 61 229 36 205 36 C168 36 132 66 132 98 C132 167 190 206 317 246 L317 244 L317 244 Z " />
<glyph glyph-name="Abreve" unicode="&#x102;" horiz-adv-x="796" d="M287 994 C293 931 358 870 421 870 C484 870 551 930 556 992 L538 995 C535 962 478 930 421 930 C364 930 307 963 304 997 L287 994 L287 994 Z M305 3 L285 3 C228 3 191 59 207 119 L257 278 L508 278 C524 226 541 174 556 123 C575 61 538 2 480 2 L460 2 L460 -1 L794 -1 L794 2 L780 2 C741 2 686 55 663 113 C593 332 523 551 453 770 L443 770 C446 750 410 726 369 720 C370 717 371 713 372 710 L177 118 C154 58 81 3 24 3 L4 3 L4 0 L303 0 L305 3 L305 3 Z M264 305 L382 678 L499 305 L264 305 L264 305 Z " />
<glyph glyph-name="abreve" unicode="&#x103;" horiz-adv-x="514" d="M125 744 C131 681 196 620 259 620 C322 620 389 680 394 742 L376 745 C373 712 316 680 259 680 C202 680 145 713 142 747 L125 744 L125 744 Z M524 102 L509 109 C504 82 478 56 455 56 C427 56 400 79 400 102 L400 355 C400 446 331 510 259 510 C160 510 65 406 65 360 C65 329 89 300 114 300 C137 300 159 328 159 343 C159 358 139 388 139 403 C139 428 183 484 229 484 C273 484 316 443 316 386 C316 386 316 328 316 265 C130 207 45 159 45 88 C45 38 100 -10 158 -10 C192 -10 259 26 318 83 C328 35 374 -6 422 -6 C465 -6 516 46 526 101 L524 102 L524 102 Z M317 244 C317 173 317 102 317 102 C276 61 229 36 205 36 C168 36 132 66 132 98 C132 167 190 206 317 246 L317 244 L317 244 Z " />
<glyph glyph-name="Cacute" unicode="&#x106;" horiz-adv-x="740" d="M422 812 L564 932 C597 960 628 991 628 996 C628 1015 605 1038 586 1038 C581 1038 552 1005 525 971 L411 823 L422 812 L422 812 Z M698 0 L698 224 L684 224 C682 218 680 208 678 202 C665 152 602 78 550 51 L550 51 C507 28 459 13 413 13 C284 13 160 190 160 375 C160 559 289 735 424 735 C475 735 523 718 565 693 C612 661 664 594 677 547 C679 541 681 531 683 525 L697 525 L697 746 L690 746 C690 740 689 727 689 721 C687 689 649 681 611 704 L611 704 C558 736 491 759 413 759 C227 759 49 570 49 374 C49 178 222 -11 402 -11 C480 -11 555 14 614 49 C651 67 687 55 689 24 C689 17 690 5 690 -2 L698 0 L698 0 Z " />
<glyph glyph-name="Ccircumflex" unicode="&#x108;" horiz-adv-x="740" d="M698 0 L698 224 L684 224 C682 218 680 208 678 202 C665 152 602 78 550 51 L550 51 C507 28 459 13 413 13 C284 13 160 190 160 375 C160 559 289 735 424 735 C475 735 523 718 565 693 C612 661 664 594 677 547 C679 541 681 531 683 525 L697 525 L697 746 L690 746 C690 740 689 727 689 721 C687 689 649 681 611 704 L611 704 C558 736 491 759 413 759 C227 759 49 570 49 374 C49 178 222 -11 402 -11 C480 -11 555 14 614 49 C651 67 687 55 689 24 C689 17 690 5 690 -2 L698 0 L698 0 Z M443 1003 C438 1011 421 1033 413 1033 C405 1033 388 1011 383 1003 L261 814 L273 804 L413 943 L553 804 L565 814 L443 1003 L443 1003 Z " />
<glyph glyph-name="Cdot" unicode="&#x10a;" horiz-adv-x="740" d="M414 865 C442 865 469 892 469 920 C469 948 442 975 414 975 C386 975 359 948 359 920 C359 892 386 865 414 865 L414 865 Z M698 0 L698 224 L684 224 C682 218 680 208 678 202 C665 152 602 78 550 51 L550 51 C507 28 459 13 413 13 C284 13 160 190 160 375 C160 559 289 735 424 735 C475 735 523 718 565 693 C612 661 664 594 677 547 C679 541 681 531 683 525 L697 525 L697 746 L690 746 C690 740 689 727 689 721 C687 689 649 681 611 704 L611 704 C558 736 491 759 413 759 C227 759 49 570 49 374 C49 178 222 -11 402 -11 C480 -11 555 14 614 49 C651 67 687 55 689 24 C689 17 690 5 690 -2 L698 0 L698 0 Z " />
<glyph glyph-name="cdot" unicode="&#x10b;" horiz-adv-x="503" d="M297 615 C325 615 352 642 352 670 C352 698 325 725 297 725 C269 725 242 698 242 670 C242 642 269 615 297 615 L297 615 Z M473 128 L461 133 C440 87 367 42 311 42 C220 42 133 155 133 273 C133 384 211 491 292 491 C325 491 372 449 388 405 C396 384 417 363 431 363 C460 363 481 384 473 405 C454 459 367 510 297 510 C168 510 45 376 45 236 C45 111 161 -10 281 -10 C348 -10 442 58 473 128 L473 128 Z " />
<glyph glyph-name="Ccaron" unicode="&#x10c;" horiz-adv-x="740" d="M554 1044 L414 905 L274 1044 L262 1034 L384 845 C389 837 406 815 414 815 C422 815 439 837 444 845 L566 1034 L554 1044 L554 1044 Z M698 0 L698 224 L684 224 C682 218 680 208 678 202 C665 152 602 78 550 51 L550 51 C507 28 459 13 413 13 C284 13 160 190 160 375 C160 559 289 735 424 735 C475 735 523 718 565 693 C612 661 664 594 677 547 C679 541 681 531 683 525 L697 525 L697 746 L690 746 C690 740 689 727 689 721 C687 689 649 681 611 704 L611 704 C558 736 491 759 413 759 C227 759 49 570 49 374 C49 178 222 -11 402 -11 C480 -11 555 14 614 49 C651 67 687 55 689 24 C689 17 690 5 690 -2 L698 0 L698 0 Z " />
<glyph glyph-name="ccaron" unicode="&#x10d;" horiz-adv-x="503" d="M437 794 L297 655 L157 794 L145 784 L267 595 C272 587 289 565 297 565 C305 565 322 587 327 595 L449 784 L437 794 L437 794 Z M473 128 L461 133 C440 87 367 42 311 42 C220 42 133 155 133 273 C133 384 211 491 292 491 C325 491 372 449 388 405 C396 384 417 363 431 363 C460 363 481 384 473 405 C454 459 367 510 297 510 C168 510 45 376 45 236 C45 111 161 -10 281 -10 C348 -10 442 58 473 128 L473 128 Z " />
<glyph glyph-name="Dcaron" unicode="&#x10e;" horiz-adv-x="853" d="M557 1044 L416 905 L276 1044 L265 1034 L387 845 C392 837 409 815 417 815 C425 815 442 837 447 845 L568 1034 L557 1044 L557 1044 Z M295 20 C257 20 245 53 245 88 L245 730 L285 730 C511 730 688 556 688 375 C688 176 495 20 295 20 L295 20 Z M60 747 L74 747 C110 747 145 712 145 676 L145 74 C145 38 110 3 74 3 L60 3 L60 0 L325 0 C566 0 798 165 798 375 C798 566 608 750 365 750 L60 750 L60 747 L60 747 Z " />
<glyph glyph-name="dcaron" unicode="&#x10f;" horiz-adv-x="600" d="M587 759 C572 759 559 690 556 651 L546 540 L561 537 L600 642 C613 675 625 727 625 747 C625 754 606 759 587 759 L587 759 Z M350 716 L360 718 C388 722 415 693 415 660 L415 471 C375 494 325 510 280 510 C148 510 45 383 45 251 C45 120 149 -5 257 -5 C309 -5 383 29 415 67 L415 0 L457 0 L457 -1 C490 8 552 25 585 34 L585 37 L571 33 C535 23 500 49 500 85 L500 750 L458 750 L458 751 C430 744 378 730 350 722 L350 716 L350 716 Z M415 375 L415 96 C387 61 329 29 292 29 C210 29 132 149 132 273 C132 381 201 484 290 484 C337 484 400 424 415 374 L415 375 L415 375 Z " />
<glyph glyph-name="Emacron" unicode="&#x112;" horiz-adv-x="652" d="M200 895 L500 895 L500 954 L200 954 L200 895 L200 895 Z M555 750 L40 750 L40 747 L56 747 C101 747 145 702 145 656 L145 94 C145 48 101 3 56 3 L40 3 L40 0 L580 0 L582 11 L581 11 C587 46 599 111 605 146 L595 146 L589 127 C573 73 495 21 431 21 L333 21 C266 21 245 54 245 88 L245 385 L366 385 C417 385 472 336 479 284 L484 250 L494 250 L494 385 L495 385 L495 409 L494 409 L494 544 L484 544 L479 510 C472 458 417 409 366 409 L245 409 L245 729 L429 729 C481 729 542 680 555 628 L564 594 L574 594 C570 636 560 709 556 750 L555 750 L555 750 Z " />
<glyph glyph-name="emacron" unicode="&#x113;" horiz-adv-x="540" d="M151 645 L451 645 L451 704 L151 704 L151 645 L151 645 Z M143 340 L510 340 C492 444 392 510 301 510 C170 510 45 402 45 231 C45 108 159 -10 278 -10 C364 -10 471 60 498 133 L487 136 C470 90 378 46 298 46 C215 46 135 154 135 266 C135 293 138 318 143 341 L143 340 L143 340 Z M410 365 L148 361 C174 443 234 492 295 492 C339 492 389 443 410 365 L410 365 Z " />
<glyph glyph-name="Ebreve" unicode="&#x114;" horiz-adv-x="652" d="M216 994 C222 931 287 870 350 870 C413 870 480 930 485 992 L467 995 C464 962 407 930 350 930 C293 930 236 963 233 997 L216 994 L216 994 Z M555 750 L40 750 L40 747 L56 747 C101 747 145 702 145 656 L145 94 C145 48 101 3 56 3 L40 3 L40 0 L580 0 L582 11 L581 11 C587 46 599 111 605 146 L595 146 L589 127 C573 73 495 21 431 21 L333 21 C266 21 245 54 245 88 L245 385 L366 385 C417 385 472 336 479 284 L484 250 L494 250 L494 385 L495 385 L495 409 L494 409 L494 544 L484 544 L479 510 C472 458 417 409 366 409 L245 409 L245 729 L429 729 C481 729 542 680 555 628 L564 594 L574 594 C570 636 560 709 556 750 L555 750 L555 750 Z " />
<glyph glyph-name="ebreve" unicode="&#x115;" horiz-adv-x="540" d="M167 744 C173 681 238 620 301 620 C364 620 431 680 436 742 L418 745 C415 712 358 680 301 680 C244 680 187 713 184 747 L167 744 L167 744 Z M143 340 L510 340 C492 444 392 510 301 510 C170 510 45 402 45 231 C45 108 159 -10 278 -10 C364 -10 471 60 498 133 L487 136 C470 90 378 46 298 46 C215 46 135 154 135 266 C135 293 138 318 143 341 L143 340 L143 340 Z M410 365 L148 361 C174 443 234 492 295 492 C339 492 389 443 410 365 L410 365 Z " />
<glyph glyph-name="Edot" unicode="&#x116;" horiz-adv-x="652" d="M350 865 C378 865 405 892 405 920 C405 948 378 975 350 975 C322 975 295 948 295 920 C295 892 322 865 350 865 L350 865 Z M555 750 L40 750 L40 747 L56 747 C101 747 145 702 145 656 L145 94 C145 48 101 3 56 3 L40 3 L40 0 L580 0 L582 11 L581 11 C587 46 599 111 605 146 L595 146 L589 127 C573 73 495 21 431 21 L333 21 C266 21 245 54 245 88 L245 385 L366 385 C417 385 472 336 479 284 L484 250 L494 250 L494 385 L495 385 L495 409 L494 409 L494 544 L484 544 L479 510 C472 458 417 409 366 409 L245 409 L245 729 L429 729 C481 729 542 680 555 628 L564 594 L574 594 C570 636 560 709 556 750 L555 750 L555 750 Z " />
<glyph glyph-name="edot" unicode="&#x117;" horiz-adv-x="540" d="M301 615 C329 615 356 642 356 670 C356 698 329 725 301 725 C273 725 246 698 246 670 C246 642 273 615 301 615 L301 615 Z M143 340 L510 340 C492 444 392 510 301 510 C170 510 45 402 45 231 C45 108 159 -10 278 -10 C364 -10 471 60 498 133 L487 136 C470 90 378 46 298 46 C215 46 135 154 135 266 C135 293 138 318 143 341 L143 340 L143 340 Z M410 365 L148 361 C174 443 234 492 295 492 C339 492 389 443 410 365 L410 365 Z " />
<glyph glyph-name="Ecaron" unicode="&#x11a;" horiz-adv-x="652" d="M490 1044 L350 905 L210 1044 L198 1034 L320 845 C325 837 342 815 350 815 C358 815 375 837 380 845 L502 1034 L490 1044 L490 1044 Z M555 750 L40 750 L40 747 L56 747 C101 747 145 702 145 656 L145 94 C145 48 101 3 56 3 L40 3 L40 0 L580 0 L582 11 L581 11 C587 46 599 111 605 146 L595 146 L589 127 C573 73 495 21 431 21 L333 21 C266 21 245 54 245 88 L245 385 L366 385 C417 385 472 336 479 284 L484 250 L494 250 L494 385 L495 385 L495 409 L494 409 L494 544 L484 544 L479 510 C472 458 417 409 366 409 L245 409 L245 729 L429 729 C481 729 542 680 555 628 L564 594 L574 594 C570 636 560 709 556 750 L555 750 L555 750 Z " />
<glyph glyph-name="ecaron" unicode="&#x11b;" horiz-adv-x="540" d="M441 794 L301 655 L161 794 L149 784 L271 595 C276 587 293 565 301 565 C309 565 326 587 331 595 L453 784 L441 794 L441 794 Z M143 340 L510 340 C492 444 392 510 301 510 C170 510 45 402 45 231 C45 108 159 -10 278 -10 C364 -10 471 60 498 133 L487 136 C470 90 378 46 298 46 C215 46 135 154 135 266 C135 293 138 318 143 341 L143 340 L143 340 Z M410 365 L148 361 C174 443 234 492 295 492 C339 492 389 443 410 365 L410 365 Z " />
<glyph glyph-name="Gcircumflex" unicode="&#x11c;" horiz-adv-x="817" d="M698 526 L698 747 L691 747 C691 741 690 728 690 722 C688 690 650 682 612 705 L612 705 C559 737 492 760 414 760 C228 760 50 571 50 375 C50 179 227 -10 412 -10 C539 -10 677 24 752 59 L745 74 C726 65 702 56 675 48 L675 216 C675 270 715 322 756 322 L770 322 L770 325 L480 325 L480 322 L494 322 C535 322 575 270 575 216 C576 216 576 121 576 113 C573 60 501 10 427 10 C290 10 159 189 159 375 C159 559 288 735 423 735 C474 735 522 718 564 693 C611 661 663 594 676 547 C678 541 680 531 682 525 L698 526 L698 526 Z M442 1004 C437 1012 420 1034 412 1034 C404 1034 387 1012 382 1004 L260 815 L272 805 L412 944 L552 805 L564 815 L442 1004 L442 1004 Z " />
<glyph glyph-name="Gbreve" unicode="&#x11e;" horiz-adv-x="817" d="M280 994 C286 931 351 870 414 870 C477 870 544 930 549 992 L531 995 C528 962 471 930 414 930 C357 930 300 963 297 997 L280 994 L280 994 Z M698 526 L698 747 L691 747 C691 741 690 728 690 722 C688 690 650 682 612 705 L612 705 C559 737 492 760 414 760 C228 760 50 571 50 375 C50 179 227 -10 412 -10 C539 -10 677 24 752 59 L745 74 C726 65 702 56 675 48 L675 216 C675 270 715 322 756 322 L770 322 L770 325 L480 325 L480 322 L494 322 C535 322 575 270 575 216 C576 216 576 121 576 113 C573 60 501 10 427 10 C290 10 159 189 159 375 C159 559 288 735 423 735 C474 735 522 718 564 693 C611 661 663 594 676 547 C678 541 680 531 682 525 L698 526 L698 526 Z " />
<glyph glyph-name="gbreve" unicode="&#x11f;" horiz-adv-x="520" d="M121 744 C127 681 192 620 255 620 C318 620 385 680 390 742 L372 745 C369 712 312 680 255 680 C198 680 141 713 138 747 L121 744 L121 744 Z M541 479 C541 505 514 530 486 530 C455 530 408 493 387 453 C353 487 305 510 256 510 C164 510 76 432 76 350 C76 286 128 225 194 200 C118 186 56 146 56 105 C56 61 95 19 143 5 C91 -13 46 -59 46 -96 C46 -165 154 -231 266 -231 C378 -231 486 -152 486 -69 C486 9 414 83 300 83 L182 83 C143 83 105 106 105 129 C105 159 179 187 256 187 C348 187 436 266 436 349 C436 382 422 414 399 441 C411 460 428 476 437 476 C455 476 488 441 506 441 C524 441 542 459 542 478 L541 479 L541 479 Z M256 207 C208 207 161 277 161 349 C161 420 208 489 256 489 C304 489 351 420 351 349 C351 277 304 207 256 207 L256 207 Z M163 0 C168 -1 173 -1 178 -1 L292 -1 C367 -1 415 -44 415 -89 C415 -152 344 -212 271 -212 C192 -212 117 -145 117 -76 C117 -48 137 -16 162 0 L163 0 L163 0 Z " />
<glyph glyph-name="Gdot" unicode="&#x120;" horiz-adv-x="817" d="M414 865 C442 865 469 892 469 920 C469 948 442 975 414 975 C386 975 359 948 359 920 C359 892 386 865 414 865 L414 865 Z M698 526 L698 747 L691 747 C691 741 690 728 690 722 C688 690 650 682 612 705 L612 705 C559 737 492 760 414 760 C228 760 50 571 50 375 C50 179 227 -10 412 -10 C539 -10 677 24 752 59 L745 74 C726 65 702 56 675 48 L675 216 C675 270 715 322 756 322 L770 322 L770 325 L480 325 L480 322 L494 322 C535 322 575 270 575 216 C576 216 576 121 576 113 C573 60 501 10 427 10 C290 10 159 189 159 375 C159 559 288 735 423 735 C474 735 522 718 564 693 C611 661 663 594 676 547 C678 541 680 531 682 525 L698 526 L698 526 Z " />
<glyph glyph-name="gdot" unicode="&#x121;" horiz-adv-x="520" d="M255 615 C283 615 310 642 310 670 C310 698 283 725 255 725 C227 725 200 698 200 670 C200 642 227 615 255 615 L255 615 Z M541 479 C541 505 514 530 486 530 C455 530 408 493 387 453 C353 487 305 510 256 510 C164 510 76 432 76 350 C76 286 128 225 194 200 C118 186 56 146 56 105 C56 61 95 19 143 5 C91 -13 46 -59 46 -96 C46 -165 154 -231 266 -231 C378 -231 486 -152 486 -69 C486 9 414 83 300 83 L182 83 C143 83 105 106 105 129 C105 159 179 187 256 187 C348 187 436 266 436 349 C436 382 422 414 399 441 C411 460 428 476 437 476 C455 476 488 441 506 441 C524 441 542 459 542 478 L541 479 L541 479 Z M256 207 C208 207 161 277 161 349 C161 420 208 489 256 489 C304 489 351 420 351 349 C351 277 304 207 256 207 L256 207 Z M163 0 C168 -1 173 -1 178 -1 L292 -1 C367 -1 415 -44 415 -89 C415 -152 344 -212 271 -212 C192 -212 117 -145 117 -76 C117 -48 137 -16 162 0 L163 0 L163 0 Z " />
<glyph glyph-name="Hcircumflex" unicode="&#x124;" horiz-adv-x="861" d="M479 1005 C474 1013 457 1035 449 1035 C441 1035 424 1013 419 1005 L297 816 L308 806 L448 945 L589 806 L600 816 L479 1005 L479 1005 Z M801 3 L787 3 C751 3 716 38 716 74 L716 676 C716 712 751 747 787 747 L801 747 L801 750 L531 750 L531 747 L545 747 C581 747 616 712 616 676 L616 409 L281 409 L281 676 C281 712 316 747 352 747 L366 747 L366 750 L96 750 L96 747 L110 747 C146 747 181 712 181 676 L181 74 C181 38 146 3 110 3 L96 3 L96 0 L366 0 L366 3 L352 3 C316 3 281 38 281 74 L281 383 L616 383 L616 74 C616 38 581 3 545 3 L531 3 L531 0 L801 0 L801 3 L801 3 Z " />
<glyph glyph-name="Itilde" unicode="&#x128;" horiz-adv-x="385" d="M50 870 C50 901 70 930 91 930 C135 930 220 865 264 865 C305 865 345 924 345 985 L330 985 C330 954 307 925 284 925 C240 925 155 990 111 990 C72 990 35 931 35 870 L50 870 L50 870 Z M325 3 L311 3 C275 3 240 38 240 74 L240 676 C240 712 275 747 311 747 L325 747 L325 750 L55 750 L55 747 L69 747 C105 747 140 712 140 676 L140 74 C140 38 105 3 69 3 L55 3 L55 0 L325 0 L325 3 L325 3 Z " />
<glyph glyph-name="itilde" unicode="&#x129;" horiz-adv-x="320" d="M27 620 C27 651 48 680 69 680 C113 680 198 615 242 615 C283 615 323 674 323 735 L308 735 C308 704 285 675 262 675 C218 675 132 740 88 740 C49 740 12 681 12 620 L27 620 L27 620 Z M60 468 L89 476 C107 481 125 468 125 450 L125 39 C125 21 107 3 89 3 L60 3 L60 0 L275 0 L275 3 L246 3 C228 3 210 21 210 39 L210 500 L168 500 L168 501 C140 493 88 479 60 471 L60 468 L60 468 Z " />
<glyph glyph-name="Imacron" unicode="&#x12a;" horiz-adv-x="385" d="M40 895 L340 895 L340 954 L40 954 L40 895 L40 895 Z M325 3 L311 3 C275 3 240 38 240 74 L240 676 C240 712 275 747 311 747 L325 747 L325 750 L55 750 L55 747 L69 747 C105 747 140 712 140 676 L140 74 C140 38 105 3 69 3 L55 3 L55 0 L325 0 L325 3 L325 3 Z " />
<glyph glyph-name="imacron" unicode="&#x12b;" horiz-adv-x="320" d="M18 645 L318 645 L318 704 L18 704 L18 645 L18 645 Z M60 468 L89 476 C107 481 125 468 125 450 L125 39 C125 21 107 3 89 3 L60 3 L60 0 L275 0 L275 3 L246 3 C228 3 210 21 210 39 L210 500 L168 500 L168 501 C140 493 88 479 60 471 L60 468 L60 468 Z " />
<glyph glyph-name="Ibreve" unicode="&#x12c;" horiz-adv-x="385" d="M56 994 C62 931 127 870 190 870 C253 870 320 930 325 992 L307 995 C304 962 247 930 190 930 C133 930 76 963 73 997 L56 994 L56 994 Z M325 3 L311 3 C275 3 240 38 240 74 L240 676 C240 712 275 747 311 747 L325 747 L325 750 L55 750 L55 747 L69 747 C105 747 140 712 140 676 L140 74 C140 38 105 3 69 3 L55 3 L55 0 L325 0 L325 3 L325 3 Z " />
<glyph glyph-name="ibreve" unicode="&#x12d;" horiz-adv-x="320" d="M33 744 C39 681 105 620 168 620 C231 620 297 680 302 742 L284 745 C281 712 224 680 168 680 C111 680 54 713 51 747 L33 744 L33 744 Z M60 468 L89 476 C107 481 125 468 125 450 L125 39 C125 21 107 3 89 3 L60 3 L60 0 L275 0 L275 3 L246 3 C228 3 210 21 210 39 L210 500 L168 500 L168 501 C140 493 88 479 60 471 L60 468 L60 468 Z " />
<glyph glyph-name="Idot" unicode="&#x130;" horiz-adv-x="385" d="M190 865 C218 865 245 892 245 920 C245 948 218 975 190 975 C162 975 135 948 135 920 C135 892 162 865 190 865 L190 865 Z M325 3 L311 3 C275 3 240 38 240 74 L240 676 C240 712 275 747 311 747 L325 747 L325 750 L55 750 L55 747 L69 747 C105 747 140 712 140 676 L140 74 C140 38 105 3 69 3 L55 3 L55 0 L325 0 L325 3 L325 3 Z " />
<glyph glyph-name="dotlessi" unicode="&#x131;" horiz-adv-x="320" d="M60 468 L89 476 C107 481 125 468 125 450 L125 39 C125 21 107 3 89 3 L60 3 L60 0 L275 0 L275 3 L246 3 C228 3 210 21 210 39 L210 500 L168 500 L168 501 C140 493 88 479 60 471 L60 468 L60 468 Z " />
<glyph glyph-name="Jcircumflex" unicode="&#x134;" horiz-adv-x="385" d="M220 1005 C215 1013 198 1035 190 1035 C182 1035 165 1013 160 1005 L38 816 L50 806 L190 945 L330 806 L342 816 L220 1005 L220 1005 Z M325 750 L55 750 L55 747 L69 747 C105 747 140 712 140 676 L140 -72 C140 -153 76 -185 40 -185 C-2 -185 7 -105 -35 -105 C-58 -105 -80 -127 -80 -150 C-80 -186 -33 -220 15 -220 C95 -220 240 -124 240 116 L240 676 C240 712 275 747 311 747 L325 747 L325 750 L325 750 Z " />
<glyph glyph-name="Lacute" unicode="&#x139;" horiz-adv-x="650" d="M199 812 L341 932 C374 960 405 991 405 996 C405 1015 382 1038 363 1038 C358 1038 329 1005 302 971 L188 823 L199 812 L199 812 Z M325 750 L55 750 L55 747 L69 747 C105 747 140 712 140 676 L140 74 C140 38 105 3 69 3 L55 3 L55 0 L575 0 L577 8 L577 8 C583 42 595 108 601 142 L591 142 L585 123 C569 69 491 17 427 17 L328 17 C261 17 240 52 240 88 L240 676 C240 712 275 747 311 747 L325 747 L325 750 L325 750 Z " />
<glyph glyph-name="Lcaron" unicode="&#x13d;" horiz-adv-x="650" d="M428 808 C413 808 400 739 397 700 L387 589 L402 586 L441 691 C454 724 466 776 466 796 C466 803 447 808 428 808 L428 808 Z M325 750 L55 750 L55 747 L69 747 C105 747 140 712 140 676 L140 74 C140 38 105 3 69 3 L55 3 L55 0 L575 0 L577 8 L577 8 C583 42 595 108 601 142 L591 142 L585 123 C569 69 491 17 427 17 L328 17 C261 17 240 52 240 88 L240 676 C240 712 275 747 311 747 L325 747 L325 750 L325 750 Z " />
<glyph glyph-name="lcaron" unicode="&#x13e;" horiz-adv-x="264" d="M256 758 C241 758 228 689 225 650 L215 539 L230 536 L269 641 C282 674 294 726 294 746 C294 753 275 758 256 758 L256 758 Z M19 715 L29 717 C57 721 84 692 84 659 L84 39 C84 21 66 3 48 3 L19 3 L19 0 L234 0 L234 3 L205 3 C187 3 169 21 169 39 L169 750 L127 750 L127 751 C99 743 47 729 19 721 L19 715 L19 715 Z " />
<glyph glyph-name="Nacute" unicode="&#x143;" horiz-adv-x="786" d="M297 812 L439 932 C472 960 503 991 503 996 C503 1015 480 1038 461 1038 C456 1038 427 1005 400 971 L287 823 L297 812 L297 812 Z M53 0 L253 0 L253 3 L239 3 C203 3 168 38 168 74 L168 74 L165 612 C314 408 463 204 613 0 L633 0 L640 681 C643 715 677 747 711 747 L725 747 L725 750 L525 750 L525 747 L539 747 C575 747 610 712 610 676 L610 676 L611 171 C469 364 328 558 187 751 L-20 751 L-20 748 L-6 748 C30 748 91 713 117 677 L117 677 L138 649 L137 75 C137 39 102 4 66 4 L52 4 L53 0 L53 0 Z " />
<glyph glyph-name="Ncaron" unicode="&#x147;" horiz-adv-x="786" d="M530 1044 L389 905 L249 1044 L238 1034 L360 845 C365 837 382 815 390 815 C398 815 415 837 420 845 L541 1034 L530 1044 L530 1044 Z M53 0 L253 0 L253 3 L239 3 C203 3 168 38 168 74 L168 74 L165 612 C314 408 463 204 613 0 L633 0 L640 681 C643 715 677 747 711 747 L725 747 L725 750 L525 750 L525 747 L539 747 C575 747 610 712 610 676 L610 676 L611 171 C469 364 328 558 187 751 L-20 751 L-20 748 L-6 748 C30 748 91 713 117 677 L117 677 L138 649 L137 75 C137 39 102 4 66 4 L52 4 L53 0 L53 0 Z " />
<glyph glyph-name="ncaron" unicode="&#x148;" horiz-adv-x="569" d="M419 794 L279 655 L139 794 L127 784 L249 595 C254 587 271 565 279 565 C287 565 304 587 309 595 L431 784 L419 794 L419 794 Z M19 465 L29 467 C57 471 84 442 84 409 L84 39 C84 21 66 3 48 3 L19 3 L19 0 L234 0 L234 3 L205 3 C187 3 169 21 169 39 L169 360 C195 405 252 448 286 448 C344 448 389 390 389 330 L389 39 C389 21 371 3 353 3 L324 3 L324 0 L539 0 L539 3 L510 3 C492 3 474 21 474 39 L474 330 C474 422 414 510 337 510 C288 510 206 449 169 385 L169 500 L127 500 L127 501 C99 493 47 479 19 471 L19 465 L19 465 Z " />
<glyph glyph-name="Omacron" unicode="&#x14c;" horiz-adv-x="851" d="M268 895 L568 895 L568 954 L268 954 L268 895 L268 895 Z M159 375 C159 559 284 735 414 735 C553 735 687 559 687 375 C687 191 553 15 413 15 C283 15 159 191 159 375 L159 375 Z M50 375 C50 179 225 -10 408 -10 C606 -10 796 179 796 375 C796 571 611 760 418 760 C230 760 50 571 50 375 L50 375 Z " />
<glyph glyph-name="omacron" unicode="&#x14d;" horiz-adv-x="613" d="M157 645 L457 645 L457 704 L157 704 L157 645 L157 645 Z M139 250 C139 369 221 484 307 484 C393 484 475 369 475 250 C475 131 393 16 307 16 C221 16 139 131 139 250 L139 250 Z M45 250 C45 117 173 -10 307 -10 C440 -10 568 117 568 250 C568 383 440 510 307 510 C173 510 45 383 45 250 L45 250 Z " />
<glyph glyph-name="Obreve" unicode="&#x14e;" horiz-adv-x="851" d="M284 994 C290 931 355 870 418 870 C481 870 548 930 553 992 L535 995 C532 962 475 930 418 930 C361 930 304 963 301 997 L284 994 L284 994 Z M159 375 C159 559 284 735 414 735 C553 735 687 559 687 375 C687 191 553 15 413 15 C283 15 159 191 159 375 L159 375 Z M50 375 C50 179 225 -10 408 -10 C606 -10 796 179 796 375 C796 571 611 760 418 760 C230 760 50 571 50 375 L50 375 Z " />
<glyph glyph-name="obreve" unicode="&#x14f;" horiz-adv-x="613" d="M173 744 C179 681 244 620 307 620 C370 620 437 680 442 742 L424 745 C421 712 364 680 307 680 C250 680 193 713 190 747 L173 744 L173 744 Z M139 250 C139 369 221 484 307 484 C393 484 475 369 475 250 C475 131 393 16 307 16 C221 16 139 131 139 250 L139 250 Z M45 250 C45 117 173 -10 307 -10 C440 -10 568 117 568 250 C568 383 440 510 307 510 C173 510 45 383 45 250 L45 250 Z " />
<glyph glyph-name="Racute" unicode="&#x154;" horiz-adv-x="796" d="M330 812 L472 932 C505 960 536 991 536 996 C536 1015 513 1038 494 1038 C489 1038 460 1005 433 971 L320 823 L330 812 L330 812 Z M60 747 L74 747 C110 747 145 712 145 676 L145 74 C145 38 110 3 74 3 L60 3 L60 0 L330 0 L330 3 L316 3 C280 3 245 38 245 74 L245 355 L346 355 C369 314 452 187 535 64 C570 13 616 1 787 1 L787 4 C710 4 685 15 652 64 C563 196 477 323 446 369 C539 395 612 458 612 539 C612 647 484 751 351 751 L61 751 L60 747 L60 747 Z M246 381 L246 731 L321 731 C413 731 501 647 501 559 C501 455 428 381 351 381 L246 381 L246 381 Z " />
<glyph glyph-name="Rcaron" unicode="&#x158;" horiz-adv-x="796" d="M463 1044 L322 905 L182 1044 L171 1034 L293 845 C298 837 315 815 323 815 C331 815 348 837 353 845 L474 1034 L463 1044 L463 1044 Z M60 747 L74 747 C110 747 145 712 145 676 L145 74 C145 38 110 3 74 3 L60 3 L60 0 L330 0 L330 3 L316 3 C280 3 245 38 245 74 L245 355 L346 355 C369 314 452 187 535 64 C570 13 616 1 787 1 L787 4 C710 4 685 15 652 64 C563 196 477 323 446 369 C539 395 612 458 612 539 C612 647 484 751 351 751 L61 751 L60 747 L60 747 Z M246 381 L246 731 L321 731 C413 731 501 647 501 559 C501 455 428 381 351 381 L246 381 L246 381 Z " />
<glyph glyph-name="rcaron" unicode="&#x159;" horiz-adv-x="420" d="M380 794 L240 655 L100 794 L88 784 L210 595 C215 587 232 565 240 565 C248 565 265 587 270 595 L392 784 L380 794 L380 794 Z M20 465 L30 467 C58 471 85 442 85 409 L85 39 C85 21 67 3 49 3 L20 3 L20 0 L235 0 L235 3 L206 3 C188 3 170 21 170 39 L170 356 C192 416 241 470 275 470 C293 470 310 453 310 435 C310 410 335 385 360 385 C386 385 410 410 410 435 C410 473 363 510 315 510 C261 510 194 458 170 400 L170 500 L128 500 L128 501 C100 493 48 479 20 471 L20 465 L20 465 Z " />
<glyph glyph-name="Sacute" unicode="&#x15a;" horiz-adv-x="551" d="M282 812 L424 932 C457 960 488 991 488 996 C488 1015 465 1038 446 1038 C441 1038 412 1005 385 971 L271 823 L282 812 L282 812 Z M50 240 L50 0 L57 0 C57 8 58 23 58 31 C60 66 97 75 134 51 C183 15 243 -10 292 -10 C404 -10 511 91 511 196 C511 279 428 388 322 427 C222 464 143 545 143 601 C143 669 198 735 256 735 C276 735 297 731 318 724 L318 724 C371 706 436 633 451 574 C453 568 455 556 457 550 L471 550 L471 754 L464 754 C464 748 463 738 463 732 C461 705 428 698 396 717 C354 743 302 760 257 760 C159 760 65 663 65 563 C65 477 152 363 263 323 C358 288 432 215 432 167 C432 93 364 22 293 22 C261 22 224 34 190 53 C141 83 85 160 71 216 C69 222 67 234 65 240 L50 240 L50 240 Z " />
<glyph glyph-name="Scircumflex" unicode="&#x15c;" horiz-adv-x="551" d="M50 240 L50 0 L57 0 C57 8 58 23 58 31 C60 66 97 75 134 51 C183 15 243 -10 292 -10 C404 -10 511 91 511 196 C511 279 428 388 322 427 C222 464 143 545 143 601 C143 669 198 735 256 735 C276 735 297 731 318 724 L318 724 C371 706 436 633 451 574 C453 568 455 556 457 550 L471 550 L471 754 L464 754 C464 748 463 738 463 732 C461 705 428 698 396 717 C354 743 302 760 257 760 C159 760 65 663 65 563 C65 477 152 363 263 323 C358 288 432 215 432 167 C432 93 364 22 293 22 C261 22 224 34 190 53 C141 83 85 160 71 216 C69 222 67 234 65 240 L50 240 L50 240 Z M305 1005 C300 1013 283 1035 275 1035 C267 1035 250 1013 245 1005 L123 816 L135 806 L275 945 L415 806 L427 816 L305 1005 L305 1005 Z " />
<glyph glyph-name="Scaron" unicode="&#x160;" horiz-adv-x="551" d="M414 1044 L274 905 L134 1044 L122 1034 L244 845 C249 837 266 815 274 815 C282 815 299 837 304 845 L426 1034 L414 1044 L414 1044 Z M50 240 L50 0 L57 0 C57 8 58 23 58 31 C60 66 97 75 134 51 C183 15 243 -10 292 -10 C404 -10 511 91 511 196 C511 279 428 388 322 427 C222 464 143 545 143 601 C143 669 198 735 256 735 C276 735 297 731 318 724 L318 724 C371 706 436 633 451 574 C453 568 455 556 457 550 L471 550 L471 754 L464 754 C464 748 463 738 463 732 C461 705 428 698 396 717 C354 743 302 760 257 760 C159 760 65 663 65 563 C65 477 152 363 263 323 C358 288 432 215 432 167 C432 93 364 22 293 22 C261 22 224 34 190 53 C141 83 85 160 71 216 C69 222 67 234 65 240 L50 240 L50 240 Z " />
<glyph glyph-name="scaron" unicode="&#x161;" horiz-adv-x="428" d="M358 794 L218 655 L78 794 L66 784 L188 595 C193 587 210 565 218 565 C226 565 243 587 248 595 L370 784 L358 794 L358 794 Z M65 177 L60 177 L60 -1 L65 -1 C65 4 66 14 66 19 C67 36 106 32 146 11 C170 -2 196 -10 218 -10 C300 -10 378 59 378 130 C378 188 316 261 237 282 C171 300 119 360 119 409 C119 450 161 490 204 490 C212 490 221 489 230 487 C284 470 335 405 348 342 L353 342 L353 510 L348 510 C348 506 347 497 347 493 C346 479 305 482 263 498 L263 498 C243 506 222 511 203 511 C129 511 58 447 58 381 C58 318 119 240 198 219 C262 202 312 149 312 107 C312 58 265 11 217 11 C216 11 185 14 186 17 C133 34 77 112 64 178 L65 177 L65 177 Z " />
<glyph glyph-name="Tcaron" unicode="&#x164;" horiz-adv-x="775" d="M530 1044 L390 905 L250 1044 L238 1034 L360 845 C365 837 382 815 390 815 C398 815 415 837 420 845 L542 1034 L530 1044 L530 1044 Z M694 795 L692 788 C684 769 629 750 577 750 L200 750 C148 750 92 769 85 788 L83 795 L74 795 C69 784 62 765 56 750 L55 750 L55 747 C54 743 53 740 52 737 L53 737 C39 702 12 635 -2 600 L8 600 L19 619 C47 673 127 725 181 725 L339 725 L339 74 C339 38 304 3 268 3 L254 3 L254 0 L524 0 L524 3 L510 3 C474 3 439 38 439 74 L439 725 L598 725 C652 725 732 673 761 619 L772 600 L782 600 C768 635 741 703 727 738 L727 738 C721 753 710 780 704 795 L694 795 L694 795 Z " />
<glyph glyph-name="tcaron" unicode="&#x165;" horiz-adv-x="378" d="M333 500 L180 500 L180 620 L174 620 L30 466 L30 456 L95 456 L95 160 C95 56 162 -10 232 -10 C282 -10 348 42 368 96 L358 100 C345 64 296 30 258 30 C217 30 178 73 178 141 L180 455 L333 455 L333 500 L333 500 Z M425 758 C410 758 397 689 394 650 L384 539 L399 536 L438 641 C451 674 463 726 463 746 C463 753 444 758 425 758 L425 758 Z " />
<glyph glyph-name="Utilde" unicode="&#x168;" horiz-adv-x="760" d="M237 870 C237 901 258 930 279 930 C323 930 408 865 452 865 C493 865 533 924 533 985 L518 985 C518 954 495 925 472 925 C428 925 342 990 298 990 C259 990 222 931 222 870 L237 870 L237 870 Z M730 39 L716 35 C680 25 645 51 645 87 L645 750 L460 750 L460 747 L474 747 C510 747 545 712 545 676 L545 190 C513 121 409 54 334 54 C271 54 210 135 210 220 L210 750 L25 750 L25 747 L39 747 C75 747 110 712 110 676 L110 220 C110 103 200 -10 294 -10 C385 -10 508 66 545 145 L545 0 L595 0 C600 1 645 11 645 13 C676 21 709 30 730 36 L730 39 L730 39 Z " />
<glyph glyph-name="utilde" unicode="&#x169;" horiz-adv-x="560" d="M135 620 C135 651 155 680 176 680 C220 680 305 615 349 615 C390 615 430 674 430 735 L415 735 C415 704 392 675 369 675 C325 675 240 740 196 740 C157 740 120 681 120 620 L135 620 L135 620 Z M545 34 L534 31 C501 22 470 49 470 85 L470 500 L320 500 L320 497 L349 497 C367 497 385 479 385 461 L385 145 C360 94 301 49 257 49 C210 49 165 103 165 160 L165 500 L15 500 L15 497 L44 497 C62 497 80 479 80 461 L80 160 C80 73 147 -10 217 -10 C275 -10 353 52 385 120 L385 0 L427 0 L427 -1 C457 7 515 23 545 31 L545 34 L545 34 Z " />
<glyph glyph-name="Umacron" unicode="&#x16a;" horiz-adv-x="760" d="M228 895 L528 895 L528 954 L228 954 L228 895 L228 895 Z M730 39 L716 35 C680 25 645 51 645 87 L645 750 L460 750 L460 747 L474 747 C510 747 545 712 545 676 L545 190 C513 121 409 54 334 54 C271 54 210 135 210 220 L210 750 L25 750 L25 747 L39 747 C75 747 110 712 110 676 L110 220 C110 103 200 -10 294 -10 C385 -10 508 66 545 145 L545 0 L595 0 C600 1 645 11 645 13 C676 21 709 30 730 36 L730 39 L730 39 Z " />
<glyph glyph-name="umacron" unicode="&#x16b;" horiz-adv-x="560" d="M125 645 L425 645 L425 704 L125 704 L125 645 L125 645 Z M545 34 L534 31 C501 22 470 49 470 85 L470 500 L320 500 L320 497 L349 497 C367 497 385 479 385 461 L385 145 C360 94 301 49 257 49 C210 49 165 103 165 160 L165 500 L15 500 L15 497 L44 497 C62 497 80 479 80 461 L80 160 C80 73 147 -10 217 -10 C275 -10 353 52 385 120 L385 0 L427 0 L427 -1 C457 7 515 23 545 31 L545 34 L545 34 Z " />
<glyph glyph-name="Ubreve" unicode="&#x16c;" horiz-adv-x="760" d="M243 994 C249 931 315 870 378 870 C441 870 507 930 512 992 L494 995 C491 962 434 930 378 930 C321 930 264 963 261 997 L243 994 L243 994 Z M730 39 L716 35 C680 25 645 51 645 87 L645 750 L460 750 L460 747 L474 747 C510 747 545 712 545 676 L545 190 C513 121 409 54 334 54 C271 54 210 135 210 220 L210 750 L25 750 L25 747 L39 747 C75 747 110 712 110 676 L110 220 C110 103 200 -10 294 -10 C385 -10 508 66 545 145 L545 0 L595 0 C600 1 645 11 645 13 C676 21 709 30 730 36 L730 39 L730 39 Z " />
<glyph glyph-name="ubreve" unicode="&#x16d;" horiz-adv-x="560" d="M141 744 C147 681 212 620 275 620 C338 620 405 680 410 742 L392 745 C389 712 332 680 275 680 C218 680 161 713 158 747 L141 744 L141 744 Z M545 34 L534 31 C501 22 470 49 470 85 L470 500 L320 500 L320 497 L349 497 C367 497 385 479 385 461 L385 145 C360 94 301 49 257 49 C210 49 165 103 165 160 L165 500 L15 500 L15 497 L44 497 C62 497 80 479 80 461 L80 160 C80 73 147 -10 217 -10 C275 -10 353 52 385 120 L385 0 L427 0 L427 -1 C457 7 515 23 545 31 L545 34 L545 34 Z " />
<glyph glyph-name="Uring" unicode="&#x16e;" horiz-adv-x="760" d="M305 905 C305 943 341 980 378 980 C415 980 450 943 450 905 C450 871 411 830 378 830 C344 830 305 871 305 905 L305 905 Z M280 905 C280 861 333 810 378 810 C423 810 475 861 475 905 C475 953 427 1000 378 1000 C328 1000 280 953 280 905 L280 905 Z M730 39 L716 35 C680 25 645 51 645 87 L645 750 L460 750 L460 747 L474 747 C510 747 545 712 545 676 L545 190 C513 121 409 54 334 54 C271 54 210 135 210 220 L210 750 L25 750 L25 747 L39 747 C75 747 110 712 110 676 L110 220 C110 103 200 -10 294 -10 C385 -10 508 66 545 145 L545 0 L595 0 C600 1 645 11 645 13 C676 21 709 30 730 36 L730 39 L730 39 Z " />
<glyph glyph-name="uring" unicode="&#x16f;" horiz-adv-x="560" d="M203 655 C203 693 238 730 275 730 C312 730 348 693 348 655 C348 621 309 580 275 580 C242 580 203 621 203 655 L203 655 Z M178 655 C178 611 230 560 275 560 C320 560 373 611 373 655 C373 703 325 750 275 750 C226 750 178 703 178 655 L178 655 Z M545 34 L534 31 C501 22 470 49 470 85 L470 500 L320 500 L320 497 L349 497 C367 497 385 479 385 461 L385 145 C360 94 301 49 257 49 C210 49 165 103 165 160 L165 500 L15 500 L15 497 L44 497 C62 497 80 479 80 461 L80 160 C80 73 147 -10 217 -10 C275 -10 353 52 385 120 L385 0 L427 0 L427 -1 C457 7 515 23 545 31 L545 34 L545 34 Z " />
<glyph glyph-name="Wcircumflex" unicode="&#x174;" horiz-adv-x="1109" d="M703 750 L384 750 L384 747 L396 747 C429 747 478 703 500 654 L559 500 L414 121 L219 652 C203 702 231 748 277 748 L293 748 L293 751 L-1 751 L-1 748 L11 748 C42 748 90 701 111 650 C195 430 279 210 364 -10 L389 -10 L574 457 C634 301 694 145 754 -10 L779 -10 L975 653 C993 702 1045 747 1084 747 L1098 747 L1098 750 L820 750 L820 747 L863 747 C915 747 950 698 936 646 L936 646 L795 138 C734 307 672 477 611 646 C592 698 624 747 675 747 L703 747 L703 750 L703 750 Z M569 1005 C564 1013 547 1035 539 1035 C531 1035 514 1013 509 1005 L387 816 L398 806 L538 945 L679 806 L690 816 L569 1005 L569 1005 Z " />
<glyph glyph-name="Ycircumflex" unicode="&#x176;" horiz-adv-x="764" d="M289 750 L-2 750 L-2 747 L8 747 C38 747 91 710 116 671 L117 671 L340 322 L340 94 C340 48 296 3 251 3 L235 3 L235 0 L545 0 L545 3 L529 3 C484 3 440 48 440 94 L440 325 C504 440 567 556 631 671 C652 710 710 747 748 747 L767 747 L767 750 L499 750 L499 747 L547 747 C585 747 604 710 585 671 L430 356 L230 677 C211 714 225 747 262 747 L289 747 L289 750 L289 750 Z M420 1005 C415 1013 398 1035 390 1035 C382 1035 365 1013 360 1005 L238 816 L250 806 L390 945 L530 806 L542 816 L420 1005 L420 1005 Z " />
<glyph glyph-name="Ydieresis" unicode="&#x178;" horiz-adv-x="764" d="M465 865 C493 865 520 892 520 920 C520 948 493 975 465 975 C437 975 410 948 410 920 C410 892 437 865 465 865 L465 865 Z M315 865 C343 865 370 892 370 920 C370 948 343 975 315 975 C287 975 260 948 260 920 C260 892 287 865 315 865 L315 865 Z M289 750 L-2 750 L-2 747 L8 747 C38 747 91 710 116 671 L117 671 L340 322 L340 94 C340 48 296 3 251 3 L235 3 L235 0 L545 0 L545 3 L529 3 C484 3 440 48 440 94 L440 325 C504 440 567 556 631 671 C652 710 710 747 748 747 L767 747 L767 750 L499 750 L499 747 L547 747 C585 747 604 710 585 671 L430 356 L230 677 C211 714 225 747 262 747 L289 747 L289 750 L289 750 Z " />
<glyph glyph-name="Zacute" unicode="&#x179;" horiz-adv-x="652" d="M351 812 L493 932 C526 960 557 991 557 996 C557 1015 534 1038 515 1038 C510 1038 481 1005 454 971 L340 823 L351 812 L351 812 Z M67 597 L72 616 C84 670 158 722 221 724 L502 728 L25 20 L25 0 L606 0 L609 15 L611 15 C611 15 627 84 643 155 L633 155 L626 136 C607 85 535 34 473 27 L142 21 L609 729 L609 749 L69 749 L66 721 L67 721 C65 697 61 647 57 595 L67 597 L67 597 Z " />
<glyph glyph-name="Zdot" unicode="&#x17b;" horiz-adv-x="652" d="M343 865 C371 865 398 892 398 920 C398 948 371 975 343 975 C315 975 288 948 288 920 C288 892 315 865 343 865 L343 865 Z M67 597 L72 616 C84 670 158 722 221 724 L502 728 L25 20 L25 0 L606 0 L609 15 L611 15 C611 15 627 84 643 155 L633 155 L626 136 C607 85 535 34 473 27 L142 21 L609 729 L609 749 L69 749 L66 721 L67 721 C65 697 61 647 57 595 L67 597 L67 597 Z " />
<glyph glyph-name="zdot" unicode="&#x17c;" horiz-adv-x="475" d="M253 615 C281 615 308 642 308 670 C308 698 281 725 253 725 C225 725 198 698 198 670 C198 642 225 615 253 615 L253 615 Z M30 372 L42 372 L49 387 C68 427 131 467 183 473 L333 477 L40 20 L40 0 L430 0 L430 1 C431 1 439 63 446 128 L434 128 L429 113 C417 73 360 33 309 27 L144 23 L435 480 L435 500 L125 500 C99 500 77 513 80 527 L81 532 L73 532 C58 470 59 475 30 372 L30 372 Z " />
<glyph glyph-name="Zcaron" unicode="&#x17d;" horiz-adv-x="652" d="M483 1044 L343 905 L203 1044 L191 1034 L313 845 C318 837 335 815 343 815 C351 815 368 837 373 845 L495 1034 L483 1044 L483 1044 Z M67 597 L72 616 C84 670 158 722 221 724 L502 728 L25 20 L25 0 L606 0 L609 15 L611 15 C611 15 627 84 643 155 L633 155 L626 136 C607 85 535 34 473 27 L142 21 L609 729 L609 749 L69 749 L66 721 L67 721 C65 697 61 647 57 595 L67 597 L67 597 Z " />
<glyph glyph-name="zcaron" unicode="&#x17e;" horiz-adv-x="475" d="M393 794 L253 655 L113 794 L101 784 L223 595 C228 587 245 565 253 565 C261 565 278 587 283 595 L405 784 L393 794 L393 794 Z M30 372 L42 372 L49 387 C68 427 131 467 183 473 L333 477 L40 20 L40 0 L430 0 L430 1 C431 1 439 63 446 128 L434 128 L429 113 C417 73 360 33 309 27 L144 23 L435 480 L435 500 L125 500 C99 500 77 513 80 527 L81 532 L73 532 C58 470 59 475 30 372 L30 372 Z " />
<glyph glyph-name="oogonek" unicode="&#x1eb;" horiz-adv-x="759" d="M984 -43 L978 -35 C949 -59 817 -83 708 -83 C591 -83 427 -49 333 -8 C344 -9 355 -10 366 -10 C541 -10 709 138 709 292 C709 446 546 593 376 593 C211 593 53 446 53 292 C53 187 124 85 219 30 C362 -66 596 -159 695 -159 C772 -159 914 -103 984 -44 L984 -43 L984 -43 Z M287 15 L287 15 C212 56 150 171 150 290 C150 432 259 569 372 569 C494 569 612 432 612 290 C612 141 481 -2 345 -2 C326 -2 303 3 286 14 L287 15 L287 15 Z " />
<glyph glyph-name="Adotabove" unicode="&#x226;" horiz-adv-x="796" d="M421 865 C449 865 476 892 476 920 C476 948 449 975 421 975 C393 975 366 948 366 920 C366 892 393 865 421 865 L421 865 Z M305 3 L285 3 C228 3 191 59 207 119 L257 278 L508 278 C524 226 541 174 556 123 C575 61 538 2 480 2 L460 2 L460 -1 L794 -1 L794 2 L780 2 C741 2 686 55 663 113 C593 332 523 551 453 770 L443 770 C446 750 410 726 369 720 C370 717 371 713 372 710 L177 118 C154 58 81 3 24 3 L4 3 L4 0 L303 0 L305 3 L305 3 Z M264 305 L382 678 L499 305 L264 305 L264 305 Z " />
<glyph glyph-name="G_sc" unicode="&#x262;" horiz-adv-x="732" d="M613 389 L613 608 L606 608 C606 602 605 589 605 583 C603 552 564 540 526 559 L526 559 C484 580 431 594 368 594 C207 594 52 447 52 293 C52 139 208 -9 370 -9 C436 -9 514 7 581 28 L589 30 L589 31 C618 40 645 50 668 61 L661 74 C640 64 616 55 590 46 L590 145 C590 199 630 251 671 251 L685 251 L685 254 L405 254 L405 251 L419 251 C460 251 500 199 500 145 L501 145 C501 130 501 114 501 99 C498 53 443 10 386 10 C267 10 152 149 152 294 C152 436 263 573 378 573 C409 573 438 567 465 557 L465 557 C517 538 580 468 594 414 C596 408 598 397 600 391 L613 389 L613 389 Z " />
<glyph glyph-name="I_sc" unicode="&#x26a;" horiz-adv-x="380" d="M320 3 L306 3 C270 3 235 38 235 74 L235 509 C235 545 270 580 306 580 L320 580 L320 583 L60 583 L60 580 L74 580 C110 580 145 545 145 509 L145 74 C145 38 110 3 74 3 L60 3 L60 0 L320 0 L320 3 L320 3 Z " />
<glyph glyph-name="N_sc" unicode="&#x274;" horiz-adv-x="705" d="M53 0 L250 0 L250 3 L236 3 C200 3 165 38 165 74 L165 74 L163 468 C288 312 413 156 537 -1 L555 -1 L560 514 C564 548 598 579 632 579 L646 579 L646 582 L449 582 L449 579 L463 579 C499 579 534 544 534 508 L534 508 L536 110 C419 268 301 425 183 582 L-12 582 L-12 579 L3 579 C39 579 101 544 130 508 L130 508 L139 497 L138 73 L138 73 C138 37 103 2 67 2 L53 2 L53 0 L53 0 Z " />
<glyph glyph-name="R_sc" unicode="&#x280;" horiz-adv-x="660" d="M63 580 L77 580 C113 580 148 545 148 509 L148 74 C148 38 113 3 77 3 L63 3 L63 0 L323 0 L323 3 L309 3 C273 3 238 38 238 74 L238 273 L290 273 C310 239 375 143 441 49 C469 9 508 0 650 0 L650 2 C592 2 573 11 546 49 C475 149 407 245 380 283 C462 304 526 354 526 418 C526 502 411 583 292 583 L62 583 L63 580 L63 580 Z M237 296 L237 565 L265 565 C348 565 427 501 427 435 C427 353 361 296 292 296 L237 296 L237 296 Z " />
<glyph glyph-name="Y_sc" unicode="&#x28f;" horiz-adv-x="676" d="M280 583 L0 583 L0 580 L11 580 C39 580 89 547 117 511 L299 248 L299 94 C299 48 255 3 210 3 L194 3 L194 0 L494 0 L494 3 L478 3 C433 3 389 48 389 94 L389 251 L538 504 L539 504 C562 543 621 580 659 580 L678 580 L678 583 L415 583 L415 580 L463 580 C500 580 517 547 502 510 L380 277 L224 509 C202 546 215 580 252 580 L279 580 L280 583 L280 583 Z " />
<glyph glyph-name="B_sc" unicode="&#x299;" horiz-adv-x="587" d="M330 9 L280 9 C259 9 238 48 238 89 L238 299 L325 299 C388 299 448 230 448 158 C448 55 390 9 330 9 L330 9 Z M63 580 L77 580 C113 580 148 545 148 509 L148 74 C148 38 113 3 77 3 L63 3 L63 0 L358 0 C454 0 547 49 547 158 C547 229 483 298 410 312 C473 336 522 389 522 444 C522 515 452 583 298 583 L63 583 L63 580 L63 580 Z M329 315 L238 315 L238 565 L261 565 C379 565 433 501 433 434 C433 373 382 315 329 315 L329 315 Z " />
<glyph glyph-name="H_sc" unicode="&#x29c;" horiz-adv-x="781" d="M721 3 L707 3 C671 3 636 38 636 74 L636 509 C636 545 671 580 707 580 L721 580 L721 583 L461 583 L461 580 L475 580 C511 580 546 545 546 509 L546 321 L274 321 L274 509 C274 545 309 580 345 580 L359 580 L359 583 L99 583 L99 580 L113 580 C149 580 184 545 184 509 L184 74 C184 38 149 3 113 3 L99 3 L99 0 L359 0 L359 3 L345 3 C309 3 274 38 274 74 L274 298 L546 298 L546 74 C546 38 511 3 475 3 L461 3 L461 0 L721 0 L721 3 L721 3 Z " />
<glyph glyph-name="L_sc" unicode="&#x29f;" horiz-adv-x="570" d="M320 583 L60 583 L60 580 L74 580 C110 580 145 545 145 509 L145 74 C145 38 110 3 74 3 L60 3 L60 0 L495 0 L497 7 L497 7 C503 41 514 106 520 140 L510 140 L504 121 C488 67 410 15 346 15 L323 15 C256 15 235 51 235 88 L235 509 C235 545 270 580 306 580 L320 580 L320 583 L320 583 Z " />
<glyph glyph-name="circumflex" unicode="&#x2c6;" horiz-adv-x="340" d="M200 755 C195 763 178 785 170 785 C162 785 145 763 140 755 L18 566 L30 556 L170 695 L310 556 L322 566 L200 755 L200 755 Z " />
<glyph glyph-name="caron" unicode="&#x2c7;" horiz-adv-x="340" d="M310 794 L170 655 L30 794 L18 784 L140 595 C145 587 162 565 170 565 C178 565 195 587 200 595 L322 784 L310 794 L310 794 Z " />
<glyph glyph-name="firsttonechinese" unicode="&#x2c9;" horiz-adv-x="340" d="M20 645 L320 645 L320 704 L20 704 L20 645 L20 645 Z " />
<glyph glyph-name="breve" unicode="&#x2d8;" horiz-adv-x="340" d="M36 744 C42 681 107 620 170 620 C233 620 300 680 305 742 L287 745 C284 712 227 680 170 680 C113 680 56 713 53 747 L36 744 L36 744 Z " />
<glyph glyph-name="dotaccent" unicode="&#x2d9;" horiz-adv-x="340" d="M170 615 C198 615 225 642 225 670 C225 698 198 725 170 725 C142 725 115 698 115 670 C115 642 142 615 170 615 L170 615 Z " />
<glyph glyph-name="ring" unicode="&#x2da;" horiz-adv-x="340" d="M98 655 C98 693 133 730 170 730 C207 730 243 693 243 655 C243 621 204 580 170 580 C137 580 98 621 98 655 L98 655 Z M73 655 C73 611 125 560 170 560 C215 560 268 611 268 655 C268 703 220 750 170 750 C121 750 73 703 73 655 L73 655 Z " />
<glyph glyph-name="A_sc" unicode="&#x1d00;" horiz-adv-x="715" d="M391 0 L714 0 L714 3 L700 3 C659 3 598 62 577 124 C522 284 466 443 411 603 L402 603 C405 587 372 567 335 562 L338 552 L338 552 L181 113 C154 55 82 3 26 3 L6 3 L6 0 L302 0 L302 3 L282 3 C224 3 189 62 210 124 L209 124 L240 214 L453 214 L485 119 C502 59 466 3 410 3 L390 3 L391 0 L391 0 Z M247 238 L346 526 L444 238 L247 238 L247 238 Z " />
<glyph glyph-name="C_sc" unicode="&#x1d04;" horiz-adv-x="656" d="M613 -28 L613 195 L599 195 C597 189 595 178 593 172 C579 120 514 50 460 29 C431 18 400 11 369 11 C258 11 152 149 152 292 C152 434 263 571 378 571 C409 571 438 565 465 555 L465 555 C517 536 580 466 594 412 C596 406 598 395 600 389 L614 389 L614 608 L607 608 C607 602 606 589 606 583 C604 552 565 540 527 559 L527 559 C485 580 432 594 369 594 C208 594 53 447 53 293 C53 139 203 -9 360 -9 C424 -9 484 7 532 30 C569 43 605 29 607 -2 C607 -9 608 -21 608 -28 L613 -28 L613 -28 Z " />
<glyph glyph-name="D_sc" unicode="&#x1d05;" horiz-adv-x="768" d="M267 18 C245 18 238 52 238 88 L238 565 L250 565 C454 565 614 431 614 292 C614 138 444 18 267 18 L267 18 Z M63 580 L77 580 C113 580 148 545 148 509 L148 74 C148 38 113 3 77 3 L63 3 L63 0 L294 0 C508 0 713 128 713 292 C713 440 541 583 322 583 L63 583 L63 580 L63 580 Z " />
<glyph glyph-name="E_sc" unicode="&#x1d07;" horiz-adv-x="585" d="M426 164 L426 299 L428 299 L428 321 L426 321 L426 456 L416 456 L411 422 C404 370 349 321 298 321 L238 321 L238 564 L360 564 C413 565 474 516 488 464 L497 430 L507 430 C502 465 494 529 489 567 L489 574 L490 574 L489 583 L44 583 L44 580 L60 580 C105 580 149 535 149 489 L149 94 C149 48 105 3 60 3 L44 3 L44 0 L514 0 L516 10 L514 10 L514 15 C520 50 531 112 537 144 L527 144 L521 125 C505 71 427 19 363 19 L327 19 C260 19 239 53 239 88 L239 299 L299 299 C350 299 405 250 412 198 L417 164 L426 164 L426 164 Z " />
<glyph glyph-name="J_sc" unicode="&#x1d0a;" horiz-adv-x="380" d="M320 583 L60 583 L60 580 L74 580 C110 580 145 545 145 509 L145 -63 C145 -152 88 -188 56 -188 C18 -188 27 -116 -11 -116 C-32 -116 -52 -136 -52 -156 C-52 -189 -10 -220 34 -220 C106 -220 235 -126 235 107 L235 509 C235 545 270 580 306 580 L320 580 L320 583 L320 583 Z " />
<glyph glyph-name="K_sc" unicode="&#x1d0b;" horiz-adv-x="682" d="M372 459 L372 459 L238 292 L238 509 C238 545 273 580 309 580 L349 580 C410 580 422 521 372 459 L372 459 Z M608 583 L63 583 L63 580 L77 580 C113 580 148 545 148 509 L148 74 C148 38 113 3 77 3 L63 3 L63 0 L323 0 L323 3 L309 3 C273 3 238 38 238 74 L238 292 L489 0 L680 0 L680 3 L665 3 C629 3 566 38 536 74 L535 74 L306 349 L434 500 C473 542 546 581 588 581 L607 581 L608 583 L608 583 Z " />
<glyph glyph-name="M_sc" unicode="&#x1d0d;" horiz-adv-x="816" d="M781 583 L611 583 L442 122 L240 583 L48 583 L48 580 L63 580 C92 580 130 558 152 531 L135 69 C131 35 96 3 62 3 L48 3 L48 0 L250 0 L250 3 L236 3 C200 3 166 38 167 74 L167 74 L176 488 C250 325 324 162 398 0 L421 0 L615 506 L629 68 C626 34 594 3 560 3 L546 3 L546 0 L806 0 L806 3 L792 3 C756 3 719 38 718 74 L700 511 C700 546 733 580 768 580 L782 580 L781 583 L781 583 Z " />
<glyph glyph-name="O_sc" unicode="&#x1d0f;" horiz-adv-x="764" d="M150 292 C150 434 259 571 372 571 C494 571 612 434 612 292 C612 150 493 13 370 13 C258 13 150 150 150 292 L150 292 Z M53 292 C53 138 206 -10 366 -10 C541 -10 709 138 709 292 C709 446 546 593 376 593 C211 593 53 446 53 292 L53 292 Z " />
<glyph glyph-name="P_sc" unicode="&#x1d18;" horiz-adv-x="522" d="M345 3 L331 3 C295 3 260 38 260 74 L260 265 L295 265 C401 265 502 329 502 419 C502 503 418 583 330 583 L85 583 L85 580 L99 580 C135 580 170 545 170 509 L170 74 C170 38 135 3 99 3 L85 3 L85 0 L345 0 L345 3 L345 3 Z M260 284 L260 568 L307 568 C363 568 417 502 417 433 C417 346 357 284 295 284 L260 284 L260 284 Z " />
<glyph glyph-name="T_sc" unicode="&#x1d1b;" horiz-adv-x="715" d="M634 628 L632 621 C624 602 569 583 517 583 L200 583 C148 583 92 602 85 621 L83 628 L74 628 C70 617 62 598 56 583 L54 583 L54 579 C39 542 12 474 -3 436 L7 436 L18 455 C47 509 127 561 181 561 L313 561 L313 74 C313 38 278 3 242 3 L228 3 L228 0 L488 0 L488 3 L474 3 C438 3 403 38 403 74 L403 561 L536 561 C590 561 670 509 699 455 L710 436 L720 436 C706 471 679 537 665 572 C660 586 649 614 643 628 L634 628 L634 628 Z " />
<glyph glyph-name="U_sc" unicode="&#x1d1c;" horiz-adv-x="671" d="M641 38 L627 34 C591 24 556 50 556 86 L556 583 L381 583 L381 580 L395 580 C431 580 466 545 466 509 L466 168 C437 107 349 48 285 48 C243 48 203 123 203 202 L203 583 L28 583 L28 580 L42 580 C78 580 113 545 113 509 L113 202 C113 94 180 -10 249 -10 C327 -10 433 58 466 128 L466 0 L511 0 C515 1 556 10 556 12 C586 20 620 29 641 35 L641 38 L641 38 Z " />
<glyph glyph-name="V_sc" unicode="&#x1d20;" horiz-adv-x="720" d="M313 583 L1 583 L1 580 L12 580 C42 580 94 529 124 472 C196 311 268 150 341 -10 L359 -10 L566 468 C595 527 654 581 691 581 L705 581 L705 584 L430 584 L430 581 L458 581 C520 581 555 522 530 460 L400 137 L236 468 C211 527 238 581 293 581 L313 581 L313 583 L313 583 Z " />
<glyph glyph-name="W_sc" unicode="&#x1d21;" horiz-adv-x="977" d="M966 583 L692 583 L692 580 L735 580 C785 580 818 535 807 485 L695 124 L545 484 C528 534 557 579 606 579 L634 579 L634 582 L326 582 L326 579 L338 579 C371 579 420 536 444 488 C458 455 472 421 486 388 L373 107 C322 231 269 355 218 478 C196 530 221 579 268 579 L284 579 L284 582 L1 582 L1 579 L13 579 C45 579 97 530 119 478 C188 315 257 152 326 -11 L349 -11 L501 352 C552 231 603 110 654 -11 L677 -11 C731 152 784 316 839 478 C856 530 912 579 953 579 L967 579 L966 583 L966 583 Z " />
<glyph glyph-name="Z_sc" unicode="&#x1d22;" horiz-adv-x="592" d="M67 433 L72 452 C83 506 157 559 221 560 L451 563 L25 17 L25 -1 L546 -1 L549 12 C549 12 565 80 581 151 L571 151 L564 132 C544 81 472 30 410 24 L133 19 L550 564 L550 582 L70 582 L69 570 C69 570 63 502 57 432 L67 433 L67 433 Z " />
<glyph glyph-name="Wgrave" unicode="&#x1e80;" horiz-adv-x="1109" d="M703 750 L384 750 L384 747 L396 747 C429 747 478 703 500 654 L559 500 L414 121 L219 652 C203 702 231 748 277 748 L293 748 L293 751 L-1 751 L-1 748 L11 748 C42 748 90 701 111 650 C195 430 279 210 364 -10 L389 -10 L574 457 C634 301 694 145 754 -10 L779 -10 L975 653 C993 702 1045 747 1084 747 L1098 747 L1098 750 L820 750 L820 747 L863 747 C915 747 950 698 936 646 L936 646 L795 138 C734 307 672 477 611 646 C592 698 624 747 675 747 L703 747 L703 750 L703 750 Z M335 996 C335 989 366 959 399 932 L541 812 L551 823 L438 971 C412 1005 384 1038 377 1038 C358 1038 335 1015 335 996 L335 996 Z " />
<glyph glyph-name="Wacute" unicode="&#x1e82;" horiz-adv-x="1109" d="M546 812 L688 932 C721 960 752 991 752 996 C752 1015 729 1038 710 1038 C705 1038 676 1005 649 971 L536 823 L546 812 L546 812 Z M703 750 L384 750 L384 747 L396 747 C429 747 478 703 500 654 L559 500 L414 121 L219 652 C203 702 231 748 277 748 L293 748 L293 751 L-1 751 L-1 748 L11 748 C42 748 90 701 111 650 C195 430 279 210 364 -10 L389 -10 L574 457 C634 301 694 145 754 -10 L779 -10 L975 653 C993 702 1045 747 1084 747 L1098 747 L1098 750 L820 750 L820 747 L863 747 C915 747 950 698 936 646 L936 646 L795 138 C734 307 672 477 611 646 C592 698 624 747 675 747 L703 747 L703 750 L703 750 Z " />
<glyph glyph-name="Wdieresis" unicode="&#x1e84;" horiz-adv-x="1109" d="M614 865 C642 865 669 892 669 920 C669 948 642 975 614 975 C586 975 559 948 559 920 C559 892 586 865 614 865 L614 865 Z M464 865 C492 865 519 892 519 920 C519 948 492 975 464 975 C436 975 409 948 409 920 C409 892 436 865 464 865 L464 865 Z M703 750 L384 750 L384 747 L396 747 C429 747 478 703 500 654 L559 500 L414 121 L219 652 C203 702 231 748 277 748 L293 748 L293 751 L-1 751 L-1 748 L11 748 C42 748 90 701 111 650 C195 430 279 210 364 -10 L389 -10 L574 457 C634 301 694 145 754 -10 L779 -10 L975 653 C993 702 1045 747 1084 747 L1098 747 L1098 750 L820 750 L820 747 L863 747 C915 747 950 698 936 646 L936 646 L795 138 C734 307 672 477 611 646 C592 698 624 747 675 747 L703 747 L703 750 L703 750 Z " />
<glyph glyph-name="Etilde" unicode="&#x1ebc;" horiz-adv-x="652" d="M210 870 C210 901 230 930 251 930 C295 930 380 865 424 865 C465 865 505 924 505 985 L490 985 C490 954 467 925 444 925 C400 925 315 990 271 990 C232 990 195 931 195 870 L210 870 L210 870 Z M555 750 L40 750 L40 747 L56 747 C101 747 145 702 145 656 L145 94 C145 48 101 3 56 3 L40 3 L40 0 L580 0 L582 11 L581 11 C587 46 599 111 605 146 L595 146 L589 127 C573 73 495 21 431 21 L333 21 C266 21 245 54 245 88 L245 385 L366 385 C417 385 472 336 479 284 L484 250 L494 250 L494 385 L495 385 L495 409 L494 409 L494 544 L484 544 L479 510 C472 458 417 409 366 409 L245 409 L245 729 L429 729 C481 729 542 680 555 628 L564 594 L574 594 C570 636 560 709 556 750 L555 750 L555 750 Z " />
<glyph glyph-name="Ygrave" unicode="&#x1ef2;" horiz-adv-x="764" d="M289 750 L-2 750 L-2 747 L8 747 C38 747 91 710 116 671 L117 671 L340 322 L340 94 C340 48 296 3 251 3 L235 3 L235 0 L545 0 L545 3 L529 3 C484 3 440 48 440 94 L440 325 C504 440 567 556 631 671 C652 710 710 747 748 747 L767 747 L767 750 L499 750 L499 747 L547 747 C585 747 604 710 585 671 L430 356 L230 677 C211 714 225 747 262 747 L289 747 L289 750 L289 750 Z M186 996 C186 989 217 959 250 932 L392 812 L403 823 L289 971 C263 1005 234 1038 228 1038 C209 1038 186 1015 186 996 L186 996 Z " />
<glyph glyph-name="quoteleft" unicode="&#x2018;" horiz-adv-x="578" d="M90 640 C81 640 72 634 66 625 C60 678 98 740 129 749 L119 760 C78 749 39 678 39 614 C39 586 64 560 89 560 C109 560 129 580 129 600 C129 620 109 640 89 640 L90 640 L90 640 Z " />
<glyph glyph-name="quoteright" unicode="&#x2019;" horiz-adv-x="118" d="M102 695 C102 640 73 579 42 571 L53 560 C91 570 128 644 128 711 C128 736 104 760 78 760 C58 760 38 740 38 720 C38 700 58 680 78 680 C87 680 96 686 102 695 L102 695 Z " />
<glyph glyph-name="quotedblleft" unicode="&#x201c;" horiz-adv-x="578" d="M217 640 C208 640 199 634 193 625 C187 678 225 740 256 749 L246 760 C205 749 166 678 166 614 C166 586 191 560 216 560 C236 560 256 580 256 600 C256 620 236 640 216 640 L217 640 L217 640 Z M77 640 C68 640 59 634 53 625 C47 678 85 740 116 749 L106 760 C65 749 26 678 26 614 C26 586 51 560 76 560 C96 560 116 580 116 600 C116 620 96 640 76 640 L77 640 L77 640 Z " />
<glyph glyph-name="quotedblright" unicode="&#x201d;" horiz-adv-x="578" d="M241 695 C241 640 212 579 181 571 L192 560 C230 570 267 644 267 711 C267 736 243 760 217 760 C197 760 177 740 177 720 C177 700 197 680 217 680 C226 680 235 686 241 695 L241 695 Z M102 695 C102 640 73 579 42 571 L53 560 C91 570 128 644 128 711 C128 736 104 760 78 760 C58 760 38 740 38 720 C38 700 58 680 78 680 C87 680 96 686 102 695 L102 695 Z " />
<glyph glyph-name="perthousand" unicode="&#x2030;" horiz-adv-x="1139" d="M908 209 C908 291 935 370 964 370 C1006 370 1047 274 1047 175 C1047 95 1016 18 983 18 C945 18 908 112 908 209 L908 209 Z M824 193 C824 89 898 -10 976 -10 C1053 -10 1127 95 1127 204 C1127 301 1053 395 976 395 C898 395 824 296 824 193 L824 193 Z M114 570 C114 654 141 735 170 735 C212 735 253 637 253 536 C253 458 222 383 189 383 C151 383 114 475 114 570 L114 570 Z M30 553 C30 452 104 355 182 355 C259 355 333 458 333 565 C333 664 259 760 182 760 C104 760 30 659 30 553 L30 553 Z M554 209 C554 291 584 370 616 370 C663 370 709 274 709 175 C709 95 673 18 635 18 C594 18 554 112 554 209 L554 209 Z M470 192 C470 89 547 -10 628 -10 C710 -10 789 95 789 204 C789 301 710 395 628 395 C547 395 470 296 470 192 L470 192 Z M201 -12 L666 738 L628 762 L163 12 L201 -12 L201 -12 Z " />
<glyph glyph-name="fraction" unicode="&#x2044;" horiz-adv-x="488" d="M49 -12 L514 738 L476 762 L11 12 L49 -12 L49 -12 Z " />
<glyph glyph-name="Euro" unicode="&#x20ac;" horiz-adv-x="790" d="M748 0 L748 119 C747 118 746 117 745 116 C746 117 747 118 748 119 L733 131 L733 131 L748 118 L748 223 L734 223 C732 217 730 207 728 201 C716 154 659 86 610 56 C564 30 513 13 463 13 C354 13 249 139 219 289 L512 289 L521 350 L211 350 C210 367 210 384 211 401 L521 401 L529 462 L219 462 C251 611 360 736 474 736 C522 736 568 721 608 698 C657 669 714 598 728 548 C730 542 732 532 734 526 L748 526 L748 747 L742 747 C742 741 740 728 740 722 C738 691 702 682 666 702 C612 736 543 760 463 760 C305 760 152 623 110 461 L63 461 L54 400 L100 400 C99 383 99 366 100 349 L54 349 L45 288 L110 288 C151 126 299 -11 452 -11 C528 -11 601 12 659 46 C698 69 737 58 739 25 C739 18 741 6 741 -1 L748 0 L748 0 Z " />
<glyph glyph-name="F_sc" unicode="&#xa730;" horiz-adv-x="560" d="M43 580 L59 580 C104 580 148 535 148 489 L148 94 C148 48 104 3 59 3 L43 3 L43 0 L343 0 L343 3 L327 3 C282 3 238 48 238 94 L238 299 L290 299 C341 299 396 250 403 198 L408 164 L418 164 L418 456 L408 456 L403 422 C396 370 341 321 290 321 L238 321 L238 568 L362 568 C413 568 474 519 487 467 L496 433 L506 433 C502 472 494 545 489 583 L44 583 L43 580 L43 580 Z " />
<glyph glyph-name="S_sc" unicode="&#xa731;" horiz-adv-x="489" d="M409 409 L409 612 L402 612 C402 606 401 595 401 589 C399 564 368 554 335 566 C302 583 263 594 228 594 C145 594 65 517 65 437 C65 372 138 282 231 246 C312 215 376 159 376 127 C376 72 318 20 258 20 C238 20 216 24 195 32 C143 54 83 124 69 182 C67 188 65 201 63 207 L49 207 L49 -32 L56 -32 C56 -24 57 -9 57 -1 C59 35 101 48 142 25 L142 25 C179 4 221 -10 257 -10 C354 -10 447 69 447 152 C447 215 375 303 284 338 C200 370 135 432 135 471 C135 522 180 571 227 571 C237 571 247 570 257 568 C311 555 373 492 387 433 C389 427 391 415 393 409 L409 409 L409 409 Z M394 495 L394 495 L394 495 L394 495 Z " />
<glyph glyph-name="X_sc" unicode="&#xf078;" horiz-adv-x="704" d="M706 583 L447 583 L447 580 L494 580 C533 580 541 543 512 504 L382 333 L262 505 C236 544 247 580 286 580 L313 580 L313 583 L33 583 L33 580 L44 580 C74 580 129 543 156 504 L156 504 L318 272 C267 208 217 143 166 79 C135 40 69 3 31 3 L11 3 L11 0 L265 0 L265 3 L218 3 C179 3 170 40 199 79 L199 79 L330 255 L453 78 C479 39 468 3 429 3 L402 3 L402 0 L682 0 L682 3 L671 3 C641 3 586 40 559 79 L393 317 C445 379 496 442 548 504 C580 543 648 580 686 580 L706 580 L706 583 L706 583 Z " />
</font>
</svg>
