<?xml version="1.0" encoding="UTF-8"?>
<svg xmlns="http://www.w3.org/2000/svg" xmlns:xlink="http://www.w3.org/1999/xlink" version="1.2" >
<font id="Sandover Round">
<font-face  font-family="Sandover" units-per-em="1024" ascent="975" descent="-300" font-style="normal" font-weight="400" font-stretch="normal" cap-height="1044" x-height="488" underline-position="-125" underline-thickness="50" />
<missing-glyph  horiz-adv-x="100" d="" />
<glyph glyph-name="NULL" d="" />
<glyph glyph-name="CR" unicode="&#xd;" horiz-adv-x="256" d="" />
<glyph glyph-name="space" unicode="&#x20;" horiz-adv-x="250" d="" />
<glyph glyph-name="exclam" unicode="&#x21;" horiz-adv-x="244" d="M122 -5 C153 -5 182 24 182 55 C182 86 153 115 122 115 C91 115 62 86 62 55 C62 24 91 -5 122 -5 L122 -5 Z M122 755 C88 755 65 704 70 650 L113.204 217.96 C113.641 213.588 117.606 210 122 210 C126.394 210 130.359 213.588 130.796 217.96 L174 650 C179 704 156 755 122 755 L122 755 Z " />
<glyph glyph-name="quotedbl" unicode="&#x22;" horiz-adv-x="325" d="M212 750 C195 750 182 728 187 705 L215.987 564.896 C216.535 562.25 219.297 560 222 560 C224.703 560 227.465 562.25 228.013 564.896 L257 705 C262 728 249 750 232 750 L212 750 L212 750 Z M92 750 C75 750 62 728 67 705 L95.987 564.896 C96.5345 562.25 99.2974 560 102 560 C104.703 560 107.465 562.25 108.013 564.896 L137 705 C142 728 129 750 112 750 L92 750 L92 750 Z " />
<glyph glyph-name="numbersign" unicode="&#x23;" horiz-adv-x="545" d="M387.488 650.187 L371.172 540.997 C367.257 514.795 341.963 493 315.47 493 L292.361 493 C256.68 493 231.386 522.354 236.659 557.643 L250.488 650.187 C251.859 659.365 245.28 667 236 667 C226.72 667 217.859 659.365 216.488 650.187 L200.172 540.997 C196.257 514.795 170.963 493 144.47 493 L100.305 493 C82.0904 493 64.9611 478.048 62.5 460 C60.0389 441.952 73.0904 427 91.3054 427 L120.5 427 C154.619 427 178.804 398.931 173.76 365.187 L161.174 280.994 C157.258 254.794 131.964 233 105.473 233 L59.3766 233 C41.1616 233 23.7287 218.009 21 200 C18.2713 181.991 31.1616 167 49.3766 167 L80 167 C114.937 167 139.697 138.257 134.525 103.705 L121.517 16.8127 C120.143 7.63484 126.72 0 136 0 C145.28 0 154.143 7.63484 155.517 16.8127 L170.817 119.018 C174.738 145.211 200.032 167 226.516 167 L249.621 167 C285.311 167 310.604 137.638 305.321 102.342 L292.517 16.8127 C291.143 7.63484 297.72 0 307 0 C316.28 0 325.143 7.63484 326.517 16.8127 L341.817 119.018 C345.738 145.211 371.032 167 397.516 167 L434.623 167 C452.838 167 470.271 181.991 473 200 C475.729 218.009 462.838 233 444.623 233 L418.5 233 C386.019 233 362.994 259.722 367.797 291.846 L380.826 379.006 C384.742 405.206 410.036 427 436.527 427 L482.695 427 C500.91 427 518.039 441.952 520.5 460 C522.961 478.048 509.91 493 491.695 493 L461.5 493 C426.835 493 402.261 521.518 407.384 555.803 L421.488 650.187 C422.859 659.365 416.28 667 407 667 C397.72 667 388.859 659.365 387.488 650.187 L387.488 650.187 Z M265.527 427 L288.635 427 C324.318 427 349.612 397.644 344.336 362.354 L332.174 280.994 C328.258 254.794 302.964 233 276.473 233 L253.365 233 C217.682 233 192.388 262.356 197.664 297.646 L209.826 379.006 C213.742 405.206 239.036 427 265.527 427 L265.527 427 Z " />
<glyph glyph-name="dollar" unicode="&#x24;" horiz-adv-x="551" d="M50 232.483 L50 3.5 C50 1.5681 51.5681 0 53.5 0 C55.3832 0 57.0079 1.93372 57.0554 3.81633 C57.2653 12.1429 58 24.1429 58 31 C60 66 97 75 134 51 C155.45 35.325 178.942 21.6919 202.791 11.2237 C209.583 8.24246 218 -3.09069 218 -10.5081 L218 -60 C218 -68.2796 224.72 -75 233 -75 C241.28 -75 248 -68.2796 248 -60 L248 -13.2195 C248 -8.37781 252.8 -5.07658 257.557 -5.97746 C268.443 -8.03907 278.557 -9.21713 289.443 -9.25394 C294.134 -9.26981 299 -13.3231 299 -18.0139 L299 -59 C299 -67.2796 305.72 -74 314 -74 C322.28 -74 329 -67.2796 329 -59 L329 -39.5 C329 -24.6644 350.822 -0.00175182 364.67 5.32031 C445.922 36.5469 511 115.625 511 197 C511 267.875 450.516 357.891 366.393 406.754 C353.013 414.525 329 447.726 329 463.199 L329 692.027 C329 707.587 339.298 715.582 352.19 706.869 C396.132 677.17 439.1 621.75 451 575 C452.636 570.091 454.273 561.165 455.909 554.796 C456.362 553.034 458.343 551 460.162 551 L464 551 C467.864 551 471 554.136 471 558 L471 751.5 C471 753.432 469.432 755 467.5 755 L467 755 C465.427 755 463.922 751.446 463.844 749.875 C463.563 744.25 463 737.5 463 733 C461 706 428 699 396 718 C378.281 728.125 359.139 737.538 339.774 745.038 C334.142 747.219 329 755.137 329 761.176 L329 812 C329 820.28 322.28 827 314 827 C305.72 827 299 820.28 299 812 L299 765.732 C299 761.175 294.372 758.095 289.902 758.977 C279.462 761.039 269.538 762.217 259.098 762.254 C254.683 762.27 250 766.099 250 770.515 L250 812 C250 820.28 243.28 827 235 827 C226.72 827 220 820.28 220 812 L220 792 C220 777.44 202.814 752.493 189.51 746.576 C120.125 715.719 65 641.125 65 565 C65 497.5 117.65 412.99 193.79 360.313 C204.81 352.689 220 324.261 220 310.861 L220 45.3852 C220 42.5832 218.292 40.6733 215.714 41.7726 C207.143 45.4286 198.571 49.7143 190 54 C141 84 85 161 71 217 C69.3636 221.909 67.7273 230.835 66.0909 237.204 C65.6321 238.99 63.6845 240.912 61.8447 240.79 L57.5 240.5 C53.3694 240.225 50 236.623 50 232.483 L50 232.483 Z M258.495 325.569 C269.81 321.069 281.051 316.792 291.921 311.847 C296.182 309.909 300 303.737 300 299.056 L300 31.5147 C300 26.5026 295.914 22.7243 290.902 22.7521 C280.462 22.8099 270.538 24.0826 260.098 26.5702 C255.218 27.7332 250.987 32.8428 250.97 37.86 L250.031 319.808 C250.015 324.455 254.177 327.287 258.495 325.569 L258.495 325.569 Z M361.075 270.087 C405.094 235.929 433 196.7 433 167 C433 115.15 399.765 64.745 355.404 39.1218 C340.209 30.3452 331 40.0204 331 57.5677 L331 255.066 C331 272.83 347.041 280.977 361.075 270.087 L361.075 270.087 Z M251 472.434 L251 725.441 C251 730.654 254.974 734.521 260.186 734.619 C270.814 734.819 281.186 733.289 291.814 731.059 C296.547 730.066 301 725.104 301 720.268 L301 445.849 C301 440.802 297.031 437.755 292.471 439.917 C280.54 445.574 269.229 451.694 258.222 458.277 C254.298 460.624 251 467.861 251 472.434 L251 472.434 Z M197.395 504.977 C164.419 537.094 144 571.95 144 600 C144 645.05 168.565 689.378 201.728 713.945 C212.119 721.642 220 714.672 220 701.741 L220 514.517 C220 501.268 206.886 495.733 197.395 504.977 L197.395 504.977 Z " />
<glyph glyph-name="percent" unicode="&#x25;" horiz-adv-x="801" d="M114 570 C114 654 141 735 170 735 C212 735 253 637 253 536 C253 458 222 383 189 383 C151 383 114 475 114 570 L114 570 Z M30 553 C30 452 104 355 182 355 C259 355 333 458 333 565 C333 664 259 760 182 760 C104 760 30 659 30 553 L30 553 Z M554 209 C554 291 584 370 616 370 C663 370 709 274 709 175 C709 95 673 18 635 18 C594 18 554 112 554 209 L554 209 Z M470 192 C470 89 547 -10 628 -10 C710 -10 789 95 789 204 C789 301 710 395 628 395 C547 395 470 296 470 192 L470 192 Z M212.841 7.09919 L654.159 718.901 C660.694 729.443 657.487 743.377 647 750 C636.513 756.623 622.694 753.443 616.159 742.901 L174.841 31.0992 C168.306 20.5574 171.513 6.62341 182 0 C192.487 -6.62341 206.306 -3.44263 212.841 7.09919 L212.841 7.09919 Z " />
<glyph glyph-name="ampersand" unicode="&#x26;" horiz-adv-x="910" d="M350.948 474.839 C424.82 507.59 488 567.8 488 611 C488 687 403 760 314 760 C227 760 144 681 144 599 C144 571.775 172.586 524.131 211.229 472.353 C222.138 457.735 215.253 430.962 199.207 422.289 C112.5 375.422 39 276.875 39 199 C39 92 139 -10 244 -10 C315.175 -10 404.412 44.1856 489.466 128.459 C493.134 132.093 498.334 132.072 501.606 128.077 C512 115.385 523 102.692 534 90 C577 39 658 -10 699 -10 C756.525 -10 820.704 62.2475 833.146 140.009 C833.85 144.411 830.73 147.09 826.5 148.5 C822.68 149.773 818.637 147.918 817.842 143.97 C808.907 99.6125 770.1 59 734 59 C702 59 640 96 608 134 C592.081 152.432 576.864 170.865 561.761 188.709 C557.03 194.299 559.16 206.474 563.738 212.19 C629.559 294.384 687.807 392.106 725.028 491.904 C726.856 496.804 723.23 500 718 500 C712.892 500 706.958 497.065 705.175 492.279 C674.505 409.97 626.875 329.276 572.525 260.951 C553.535 237.078 518.004 239.201 498.219 262.419 C410.349 365.537 370.235 411.223 341.596 445.462 C333.041 455.69 338.758 469.434 350.948 474.839 L350.948 474.839 Z M301.377 495.041 C255.45 554.9 219 611.6 219 644 C219 693 266 740 314 740 C368 740 419 679 419 616 C419 570.95 383.597 515.785 340.428 487.352 C324.03 476.552 313.33 479.462 301.377 495.041 L301.377 495.041 Z M441.378 131.686 C388.617 92.1412 336.725 69 293 69 C209 69 128 145 128 224 C128 292.85 167.737 371.815 217.12 412.379 C235.172 427.208 249.057 423.667 264.088 405.783 C299.114 364.111 340.026 318.055 443.614 196.861 C460.052 177.629 461.622 146.859 441.378 131.686 L441.378 131.686 Z " />
<glyph glyph-name="quotesingle" unicode="&#x27;" horiz-adv-x="204" d="M92 750 C75 750 62 728 67 705 L95.987 564.896 C96.5345 562.25 99.2974 560 102 560 C104.703 560 107.465 562.25 108.013 564.896 L137 705 C142 728 129 750 112 750 L92 750 L92 750 Z " />
<glyph glyph-name="parenleft" unicode="&#x28;" horiz-adv-x="230" d="M203.307 752.989 C129.396 659.441 60 472.875 60 273 C60 73.125 129.396 -113.441 203.307 -206.989 C205.805 -210.151 211.381 -212.052 214.5 -209.5 C217.385 -207.139 218.66 -203.467 216.404 -200.499 C169.729 -139.059 126 36.075 126 273 C126 509.925 169.729 685.059 216.404 746.499 C218.66 749.467 217.385 753.139 214.5 755.5 C211.381 758.052 205.805 756.151 203.307 752.989 L203.307 752.989 Z " />
<glyph glyph-name="parenright" unicode="&#x29;" horiz-adv-x="175" d="M8.82052 747.152 C58.4194 705.315 105 477.75 105 273 C105 68.25 58.4194 -159.315 8.82052 -201.152 C6.8042 -202.852 6.32033 -206.641 7.5 -209 C8.96887 -211.938 13.3091 -211.821 15.9182 -209.826 C92.7525 -151.076 165 80.925 165 273 C165 465.075 92.7525 697.076 15.9182 755.826 C13.3091 757.821 8.96887 757.938 7.5 755 C6.32033 752.641 6.8042 748.852 8.82052 747.152 L8.82052 747.152 Z " />
<glyph glyph-name="asterisk" unicode="&#x2a;" horiz-adv-x="296" d="M272 668 L272 668 C272 668 271 669 272 669 L272 668 L272 668 Z M243 549 L243 549 L242 550 L243 549 L243 549 Z M276.835 672.927 C288.815 680.645 293.957 695.957 287 709 C279.565 720.565 264.624 723.941 252.323 718.565 C246.594 716.061 241.929 719.307 245.061 713.895 C246.062 712.166 259.238 689.417 267.809 675.743 C270.506 671.44 272.566 670.177 276.835 672.927 L276.835 672.927 Z M37 594 C21 588 13 570 22 555 C31 540 50 537.5 63 548.5 L104.5 585.25 C118.369 597.532 138.825 585.797 135.223 567.625 L124 511 C121 494 133 478 150 478 C167 478 179 494 176 511 L164.5 568 C160.644 587.113 182.088 599.548 196.761 586.709 L221.444 565.112 C232.034 555.845 246.96 558.316 254 570.5 C261.033 582.673 255.696 596.802 242.37 601.285 L212 611.5 C193.655 617.671 193.656 642.327 212.001 648.496 L245.37 659.717 C258.695 664.198 264.033 678.327 257 690.5 C249.965 702.677 235.052 705.121 224.496 695.828 L197.557 672.11 C182.341 658.713 159.992 671.627 164 691.5 L176 751 C179 768 167 784 150 784 C133 784 121 768 124 751 L135.597 692.511 C139.421 673.224 117.756 660.754 103 673.75 L59 712.5 C46 723.5 26 722 18 707 C10 692 16.625 673.625 31.625 667.625 L90.7673 647.297 C108.484 641.207 108.305 617.324 90.5 611.5 L37 594 L37 594 Z M249.243 542.877 C261.306 538.089 275.565 541.609 283 554 C289.609 565.565 285.299 579.86 274.58 587.865 C269.607 591.578 265.865 589.956 262.851 584.531 L245.983 554.169 C243.102 548.983 243.729 545.065 249.243 542.877 L249.243 542.877 Z " />
<glyph glyph-name="plus" unicode="&#x2b;" horiz-adv-x="620" d="M277 427 L277 336.32 C277 305.233 251.767 280 220.68 280 L130 280 C113.441 280 100 266.559 100 250 C100 233.441 113.441 220 130 220 L220.68 220 C251.767 220 277 194.767 277 163.68 L277 73 C277 54.785 291.785 40 310 40 C328.215 40 343 54.785 343 73 L343 163.68 C343 194.767 368.233 220 399.32 220 L490 220 C506.559 220 520 233.441 520 250 C520 266.559 506.559 280 490 280 L399.32 280 C368.233 280 343 305.233 343 336.32 L343 427 C343 445.215 328.215 460 310 460 C291.785 460 277 445.215 277 427 L277 427 Z " />
<glyph glyph-name="comma" unicode="&#x2c;" horiz-adv-x="265" d="M158.495 6.5 C159.306 -1 160 -8.5 160 -16 C160 -53.925 119.786 -90.1388 75.7637 -95.3575 C70.9277 -95.9308 65 -101.13 65 -106 C65 -112.043 68.8618 -116.1 74.8772 -115.528 C137.24 -109.592 195 -48.65 195 15 C195 65 161 114 125 114 C94 114 65 85 65 54 C65 9.15 121.562 -24.7678 155.904 7.85812 C157.228 9.11637 158.299 8.31625 158.495 6.5 L158.495 6.5 Z " />
<glyph glyph-name="hyphen" unicode="&#x2d;" horiz-adv-x="430" d="M115 250 L315 250 C334.319 250 350 265.681 350 285 C350 304.319 334.319 320 315 320 L115 320 C95.681 320 80 304.319 80 285 C80 265.681 95.681 250 115 250 L115 250 Z " />
<glyph glyph-name="period" unicode="&#x2e;" horiz-adv-x="195" d="M125 -5 C156 -5 185 24 185 55 C185 86 156 115 125 115 C94 115 65 86 65 55 C65 24 94 -5 125 -5 L125 -5 Z " />
<glyph glyph-name="slash" unicode="&#x2f;" horiz-adv-x="389" d="M301.128 746.272 L34.8722 -56.2718 C30.748 -68.7028 38.9027 -80 52 -80 C65.0973 -80 80.748 -68.7028 84.8722 -56.2718 L351.128 746.272 C355.252 758.703 347.097 770 334 770 C320.903 770 305.252 758.703 301.128 746.272 L301.128 746.272 Z " />
<glyph glyph-name="zero" unicode="0" horiz-adv-x="610" d="M85 250 C85 353 193 475 305 475 C406 475 525 365 525 250 C525 147 417 25 305 25 C204 25 85 135 85 250 L85 250 Z M45 250 C45 117 186 -10 305 -10 C438 -10 565 131 565 250 C565 383 424 510 305 510 C172 510 45 369 45 250 L45 250 Z " />
<glyph glyph-name="one" unicode="1" horiz-adv-x="365" d="M296 3 C260 3 225 38 225 74 L225 426 C225 461.1 258.272 495.249 293.302 496.935 C293.356 496.937 298.938 497.315 298.991 497.321 L303 497.75 C303.412 497.794 303.374 498.5 302.96 498.5 L62.0401 498.5 C61.6261 498.5 61.5884 497.794 62 497.75 L66.0086 497.321 C66.0617 497.315 71.6442 496.937 71.6976 496.935 C106.728 495.249 140 461.1 140 426 L140 74 C140 38.9 106.728 4.75063 71.6976 3.06509 C71.6442 3.06252 66.0617 2.68519 66.0086 2.67949 L62 2.25 C61.5884 2.2059 61.6261 1.5 62.0401 1.5 L303 1.5 L296 3 Z " />
<glyph glyph-name="two" unicode="2" horiz-adv-x="541" d="M62.2475 295.918 C80.0425 372.753 158.725 445 226 445 C292 445 356 386 356 325 C356 230 173 88 18 9 C15.3499 7.6493 20.5632 7.20575 23 5.5 L24.2235 4.64353 C25.7609 3.56737 25.3319 1.40709 23.5 1 C22.9612 0.880261 23.0578 0 23.6098 0 L400.051 0 C414.471 0 439.862 13.9523 447.593 26.1248 L478 74 C492.063 93.6875 507.004 115.133 517.88 130.096 C518.186 130.517 520.836 135.507 521 136 C521.157 136.472 520.472 136.817 520.187 136.409 L515 129 C495 101 433 74 389 74 L250.444 74 C225.724 74 218.789 109.093 239.089 123.199 C352.838 202.244 442 287.075 442 344 C442 428 358 509 271 509 C179.35 509 71.5394 408.234 46.7421 301.241 C45.6882 296.694 48.4122 292.36 53 291.5 C57.239 290.705 61.2744 291.717 62.2475 295.918 L62.2475 295.918 Z " />
<glyph glyph-name="three" unicode="3" horiz-adv-x="434" d="M18.5 -223.5 C19.3481 -228.306 29.4679 -230.949 34.3073 -230.32 C220.036 -206.159 394 -92.45 394 7 C394 77.125 321.854 145.208 229.782 173.628 C213.924 178.523 205.063 205.972 219.208 214.655 C310.64 270.782 380 336.7 380 386 C380 449 300 510 217 510 C139.1 510 48.565 439.605 23.4161 363.118 C21.5714 357.507 23.7883 350.003 29.5 348.5 C34.2244 347.257 39.6757 349.299 41.2339 353.929 C58.075 403.972 125.05 450 183 450 C237 450 289 404 289 357 C289 293.625 200.592 215.04 106.266 173.149 C102.424 171.443 99 165.704 99 161.5 L99 156.354 C99 154.698 100.519 153.759 102 154.5 C102 154.5 102 154.5 102 154.5 C101.067 154.033 105.838 151.929 106.866 151.749 C208.987 133.857 305 53.2 305 -17 C305 -100.85 170.962 -195.157 28.0116 -213.723 C23.4201 -214.319 17.6953 -218.94 18.5 -223.5 L18.5 -223.5 Z " />
<glyph glyph-name="four" unicode="4" horiz-adv-x="620" d="M604.823 130.685 L603 124 C597 94 559 65 526 65 L470.5 65 C439.866 65 415 89.8657 415 120.5 L415 524.5 C415 527.536 412.536 530 409.5 530 C407.078 530 402.145 527.544 400.685 525.611 L19.5204 20.9846 C18.0165 18.9936 15 9.99514 15 7.5 C15 3.36022 18.3602 0 22.5 0 L273.68 0 C304.767 0 330 -25.233 330 -56.32 L330 -177.5 C330 -200.959 349.041 -220 372.5 -220 C395.959 -220 415 -200.959 415 -177.5 L415 -51 C415 -22.8495 437.85 0 466 0 L517 0 C550 0 581 -23 580 -47 L580 -51 C580 -53.0673 581.81 -55.6786 583.745 -56.4045 L584 -56.5 C586.148 -57.3056 588.248 -56.0379 588.536 -53.7617 L599.5 33 C603.397 57.359 609.668 103.554 613.687 129.032 C614.053 131.351 612.1 131.95 610 133 C607.835 134.083 605.46 133.021 604.823 130.685 L604.823 130.685 Z M159.851 154.373 L235.136 254.648 C266.575 296.522 330 275.362 330 223 L330 121.202 C330 90.1801 304.82 64.947 273.799 64.8817 L205.508 64.7379 C155.704 64.6331 129.948 114.544 159.851 154.373 L159.851 154.373 Z " />
<glyph glyph-name="five" unicode="5" horiz-adv-x="436" d="M362 555 C359.933 555 357.321 553.19 356.596 551.255 L355 547 C348 523 310 500 277 500 L132.905 500 C107.442 500 82.1209 478.912 77.5144 453.869 L32.9231 211.455 C32.011 206.496 35.2056 197.32 39 194 C41.9078 191.456 53.7664 187 57.6301 187 L85 187 C210 187 331 106 331 21 C331 -81.375 204.567 -195.158 69.4118 -216.539 C65.2122 -217.204 59.2348 -221.756 59.5 -226 C59.7839 -230.542 68.6915 -232.843 73.1862 -232.133 C244.394 -205.06 406 -69.925 406 50 C406 166 253 277 94 277 L84.5 277 C79.3426 277 75.7845 281.271 76.7162 286.344 L93.5955 378.242 C98.1511 403.045 123.305 424.177 148.522 424.386 L320.148 425.81 C332.518 425.913 345.08 437.686 347.27 449.861 C353.852 486.449 360.626 523.485 365.544 552.777 C365.905 554.927 364.18 555 362 555 L362 555 Z " />
<glyph glyph-name="six" unicode="6" horiz-adv-x="568" d="M530.897 745.633 C282.903 684.778 50 466.5 50 291 C50 137 168 -10 290 -10 C405 -10 515 112 515 239 C515 355 407 466 295 466 C256.225 466 218.131 447.623 187.455 418.731 C184.526 415.972 177.955 418.975 179.707 422.597 C249.72 567.406 392.29 697.669 540.936 734.242 C544.394 735.093 552.301 740.029 551.5 743.5 C550.645 747.204 534.589 746.539 530.897 745.633 L530.897 745.633 Z M135 246 C135 345 209 441 286 441 C359 441 430 344 430 243 C430 127 359 15 285 15 C209 15 135 128 135 246 L135 246 Z " />
<glyph glyph-name="seven" unicode="7" horiz-adv-x="455" d="M103.243 550.309 C92.0224 526.642 73.9359 486.821 63.5 465 C53.5 443 35 400 25 378 C26 378 32 370 31 371 L36 380 C50 406 96 431 129 431 L314.134 431 C357.907 431 383.414 391.659 365.551 351.696 L123.263 -190.329 C116.58 -205.281 126.123 -220 142.5 -220 C159.213 -220 180.737 -205.292 186.811 -189.722 L447.274 478.013 C447.821 479.414 450 490.996 450 492.5 C450 496.64 446.64 500 442.5 500 L159 500 C126 500 101 520 108 540 L109 543.5 C109.432 545.012 108.798 548.683 107.884 549.962 L107.5 550.5 C106.29 552.195 104.135 552.191 103.243 550.309 L103.243 550.309 Z " />
<glyph glyph-name="eight" unicode="8" horiz-adv-x="543" d="M225.154 368.76 C232.769 364.769 240.385 361.385 248 358 C344 319 437 260 437 207 C437 106 356 9 272 9 C192 9 115 89 115 173 C115 243.2 161.105 327.659 217.168 367.986 C219.247 369.481 222.886 369.948 225.154 368.76 L225.154 368.76 Z M163.994 357.948 C94.7425 306.218 42 231.8 42 174 C42 80 155 -10 273 -10 C391 -10 505 80 505 173 C505 263.95 446.478 338.282 370.579 389.856 C355.033 400.42 355.007 430.681 370.036 441.968 C431.717 488.296 478 550.975 478 598 C478 681 377 760 271 760 C167 760 67 672 67 580 C67 523.075 108.518 457.983 164.602 410.552 C178.285 398.98 178.351 368.673 163.994 357.948 L163.994 357.948 Z M294.5 431 L281 437 C207 467 135 547 135 612 C135 681 209 748 287 748 C348 748 406 671 406 590 C406 536.35 367.497 470.721 319.774 433.478 C313.558 428.626 301.706 427.797 294.5 431 L294.5 431 Z " />
<glyph glyph-name="nine" unicode="9" horiz-adv-x="568" d="M37.1026 -245.633 C285.097 -184.778 518 33.5 518 209 C518 363 400 510 278 510 C163 510 53 388 53 261 C53 145 161 34 273 34 C311.775 34 349.869 52.3769 380.545 81.2694 C383.474 84.0285 390.045 81.0254 388.293 77.4025 C318.28 -67.4063 175.709 -197.669 27.0643 -234.242 C23.6057 -235.093 15.6991 -240.029 16.5 -243.5 C17.3548 -247.204 33.4108 -246.539 37.1026 -245.633 L37.1026 -245.633 Z M433 254 C433 155 359 59 282 59 C209 59 138 156 138 257 C138 373 209 485 283 485 C359 485 433 372 433 254 L433 254 Z " />
<glyph glyph-name="colon" unicode="&#x3a;" horiz-adv-x="135" d="M125 385 C156 385 185 414 185 445 C185 476 156 505 125 505 C94 505 65 476 65 445 C65 414 94 385 125 385 L125 385 Z M125 -5 C156 -5 185 24 185 55 C185 86 156 115 125 115 C94 115 65 86 65 55 C65 24 94 -5 125 -5 L125 -5 Z " />
<glyph glyph-name="semicolon" unicode="&#x3b;" horiz-adv-x="265" d="M125 385 C156 385 185 414 185 445 C185 476 156 505 125 505 C94 505 65 476 65 445 C65 414 94 385 125 385 L125 385 Z M158.495 6.5 C159.306 -1 160 -8.5 160 -16 C160 -53.925 119.786 -90.1388 75.7637 -95.3575 C70.9277 -95.9308 65 -101.13 65 -106 C65 -112.043 68.8618 -116.1 74.8772 -115.528 C137.24 -109.592 195 -48.65 195 15 C195 65 161 114 125 114 C94 114 65 85 65 54 C65 9.15 121.562 -24.7678 155.904 7.85812 C157.228 9.11637 158.299 8.31625 158.495 6.5 L158.495 6.5 Z " />
<glyph glyph-name="equal" unicode="&#x3d;" horiz-adv-x="533" d="M83 200 C83 189.513 91.5126 181 102 181 L444 181 C454.487 181 463 189.513 463 200 C463 210.487 454.487 219 444 219 L102 219 C91.5126 219 83 210.487 83 200 L83 200 Z M83 300 C83 289.513 91.5126 281 102 281 L444 281 C454.487 281 463 289.513 463 300 C463 310.487 454.487 319 444 319 L102 319 C91.5126 319 83 310.487 83 300 L83 300 Z " />
<glyph glyph-name="question" unicode="&#x3f;" horiz-adv-x="299" d="M125 -5 C156 -5 185 24 185 55 C185 86 156 115 125 115 C94 115 65 86 65 55 C65 24 94 -5 125 -5 L125 -5 Z M125 217.5 L125 320.5 C125 338.257 146.567 360.263 164.016 363.558 C221.496 374.411 261.075 408.525 285 444 C300 467 315 521 315 555 C315 660 232 760 145 760 C104 760 65 729 65 697 C65 676 88 655 111 655 C128 655 159 670 176 670 C234 670 289 609 289 545 C289 532 278 502 266 485 C251 462 203 440 97 440 C96.5515 440 97.2566 440.079 97.523 439.719 C104.296 430.545 110 210 110 210 C110 210 113.252 210 117.5 210 C121.64 210 125 213.36 125 217.5 L125 217.5 Z " />
<glyph glyph-name="at" unicode="&#x40;" horiz-adv-x="1160" d="M1036.42 -9.06573 C973.029 -126.777 759.675 -238 591 -238 C352 -238 122 6 122 259 C122 511 346 754 580 754 C814 754 1038 553 1038 343 C1038 172 948 7 855 7 C774 7 720 102 745 200 L805.299 441.194 C810.494 461.974 796.42 480 775 480 C753.55 480 730.604 461.978 725.522 441.139 L721.337 423.982 C719.488 416.399 708.299 413.143 704.199 419.784 C679.755 459.378 633.6 489 586 489 C435 489 290 343 290 191 C290 97 377 7 467 7 C527.35 7 596.37 46.015 640.897 98.2517 C648.52 107.194 667.46 101.859 671.704 90.9021 C697.072 25.4075 760.95 -23 840 -23 C975 -23 1105 156 1105 342 C1105 564 848 777 580 777 C312 777 55 523 55 258 C55 -3 327 -254 610 -254 C779.65 -254 997.782 -136.123 1064.19 -10.6638 C1067.64 -4.15568 1062.36 -0.762821 1055 -0.5 C1048.47 -0.266724 1039.52 -3.31128 1036.42 -9.06573 L1036.42 -9.06573 Z M702.197 347.787 L665 199 C647 125 571 54 510 54 C445 54 382 129 382 207 C382 339 480 465 583 465 C641.9 465 697.641 417.168 703.925 363.514 C704.159 361.517 702.684 349.737 702.197 347.787 L702.197 347.787 Z " />
<glyph glyph-name="A" unicode="A" horiz-adv-x="796" d="M285 3 C228 3 191 59 207 119 L244.602 238.575 C251.13 259.334 276.567 278 298.328 278 L480.797 278 C495.057 278 512.218 264.315 516.476 250.705 C529.889 207.831 543.625 165.075 556 123 C575 61 538 2 480 2 L470 1.25 C469.587 1.21904 469.614 0.5 470.028 0.5 L786.96 0.5 C787.374 0.5 787.412 1.2059 787 1.25 L782.991 1.67949 C782.965 1.68227 777.072 2.09691 777.046 2.09862 C738.27 4.65312 685.425 56.45 663 113 L454.522 765.237 C453.722 767.741 450.629 770 448 770 C445.929 770 443.298 767.495 443.031 765.442 C440.705 747.525 410.471 727.809 375.108 721.032 C372.415 720.516 369.712 717.626 370.5 715 C370.974 713.42 370.883 706.609 370.367 705.042 L177 118 C154 58 81 3 24 3 L14 2.25 C13.5872 2.21904 13.6141 1.5 14.0281 1.5 L294 1.5 L285 3 Z M287.191 378.307 L328.074 507.54 C345.134 561.467 418.581 561.378 435.51 507.409 L476.047 378.176 C488.135 339.637 462.699 305 422.308 305 L340.888 305 C300.425 305 274.986 339.728 287.191 378.307 L287.191 378.307 Z " />
<glyph glyph-name="B" unicode="B" horiz-adv-x="685" d="M334 9 L284 9 C264 9 245 48 245 89 L245 345 C245 367.079 262.921 385 285 385 L325 385 C432 385 535 295 535 201 C535 69 437 9 334 9 L334 9 Z M67 747 L74 747 C110 747 145 712 145 676 L145 74 C145 38.9 111.728 4.75063 76.6976 3.06509 C76.6442 3.06252 71.0617 2.68519 71.0086 2.67949 L67 2.25 C66.5695 2.20387 66.607 1.46751 67.04 1.46538 L365 0 C508 0 645 63 645 201 C645 278.35 574.918 352.81 485.111 385.69 C474.535 389.562 476.529 412.766 486.779 417.431 C562.55 451.911 617 510.775 617 571 C617 663 528 751 330 751 L66.9998 749.052 C66.9712 749.052 66.9714 747 67 747 L67 747 Z M335 403 L290 403 C265.161 403 245 423.161 245 448 L245 708.5 C245 720.919 255.081 731 267.5 731 L290 731 C446 731 517 648 517 561 C517 480 428 403 335 403 L335 403 Z " />
<glyph glyph-name="C" unicode="C" horiz-adv-x="740" d="M698 4.12311 L698 217 C698 220.864 694.864 224 691 224 L687.162 224 C685.374 224 683.134 221.221 682.667 219.495 C681.111 213.753 679.556 206.667 678 202 C665 152 602 78 550 51 C507 28 459 13 413 13 C284 13 160 190 160 375 C160 559 289 735 424 735 C475 735 523 718 565 693 C612 661 664 594 677 547 C679 541 681 531 683 525 C683.524 523.429 684.506 525 686.162 525 L690 525 C693.864 525 697 528.136 697 532 L697 742.5 C697 744.432 695.432 746 693.5 746 L693 746 C691.405 746 689.972 743.711 689.913 742.117 C689.669 735.504 689 725.909 689 721 C687 689 649 681 611 704 C558 736 491 759 413 759 C227 759 49 570 49 374 C49 178 222 -11 402 -11 C480 -11 555 14 614 49 C651 67 687 55 689 24 C689 18.1667 689.694 8.86111 689.926 1.87037 C689.986 0.0457858 691.624 -1.59389 693.395 -1.15113 L694 -1 C696.142 -0.46451 698 1.91523 698 4.12311 L698 4.12311 Z " />
<glyph glyph-name="D" unicode="D" horiz-adv-x="853" d="M295 20 C257 20 245 53 245 88 L245 710 C245 721.039 253.961 730 265 730 L285 730 C511 730 688 556 688 375 C688 176 495 20 295 20 L295 20 Z M67 747 L74 747 C110 747 145 712 145 676 L145 74 C145 38.9 111.728 4.75063 76.6976 3.06509 C76.6442 3.06252 71.0617 2.68519 71.0086 2.67949 L67 2.25 C66.5666 2.20357 66.6041 1.46262 67.04 1.46015 L325 0 C566 0 798 165 798 375 C798 566 608 750 365 750 L66.9999 748.534 C66.9809 748.534 66.981 747 67 747 L67 747 Z " />
<glyph glyph-name="E" unicode="E" horiz-adv-x="613" d="M495.403 749.94 L9.03505 748.523 C8.60821 748.522 8.57503 747.79 9 747.75 L14.3773 747.246 C14.4073 747.243 20.3423 746.918 20.3725 746.916 C64.1725 744.749 106 700.85 106 656 L106 94 C106 49.15 64.1725 5.25063 20.3725 3.08369 C20.3423 3.0822 14.4073 2.75693 14.3773 2.75412 L9 2.25 C8.57562 2.21021 8.60881 1.47886 9.03505 1.47768 L535.449 0.0154191 C538.486 0.00698311 541.34 2.49088 541.75 5.5 L542.5 11 C548.346 45.1026 559.414 107.686 565.528 143.25 C565.989 145.931 563.721 146 561 146 C558.368 146 555.287 143.742 554.494 141.232 L550 127 C534 73 456 21 392 21 L294 21 C227 21 206 54 206 88 L206 328.68 C206 359.767 231.233 385 262.32 385 L327 385 C378 385 433 336 440 284 L444.273 254.947 C444.67 252.245 447.27 250 450 250 C452.76 250 455.008 252.24 455.019 255 L455.5 385 L455.5 409 L455.019 539 C455.008 541.76 452.76 544 450 544 C447.27 544 444.67 541.755 444.273 539.053 L440 510 C433 458 378 409 327 409 L262.32 409 C231.233 409 206 434.233 206 465.32 L206 672.68 C206 703.767 231.233 729 262.32 729 L390 729 C442 729 503 680 516 628 L523.721 598.834 C524.403 596.254 527.332 594 530 594 C532.766 594 534.636 597.773 534.353 600.525 C530.659 636.479 523.221 690.257 518.695 729.603 C517.426 740.634 506.507 749.972 495.403 749.94 L495.403 749.94 Z " />
<glyph glyph-name="F" unicode="F" horiz-adv-x="627" d="M472.196 538.536 L468 510 C461 458 406 409 355 409 L300 409 C269.642 409 245 433.642 245 464 L245 676.68 C245 707.767 270.233 733 301.32 733 L427 733 C480 734 541 685 555 633 L562.721 603.834 C563.403 601.254 566.332 599 569 599 C571.725 599 573.606 601.762 573.228 604.461 C568.34 639.391 561.141 696.781 556.381 733.102 C556.33 733.486 556.222 739.114 556.25 739.5 C556.268 739.758 556.297 746.244 556.281 746.502 L556.25 747 C556.112 749.204 554.2 750.995 551.992 750.988 L49.035 749.523 C48.6082 749.522 48.575 748.79 49 748.75 L54.3773 748.246 C54.4073 748.243 60.3423 747.918 60.3725 747.916 C104.173 745.749 146 701.85 146 657 L146 95 C146 50.15 104.173 6.25063 60.3725 4.08369 C60.3423 4.0822 54.4073 3.75693 54.3773 3.75412 L49 3.25 C48.5878 3.21136 48.6211 2.5 49.0351 2.5 L342.965 2.5 C343.379 2.5 343.412 3.21136 343 3.25 L337.623 3.75412 C337.593 3.75693 331.658 4.0822 331.628 4.08369 C287.827 6.25063 246 50.15 246 95 L246 331 C246 361.358 270.642 386 301 386 L356 386 C407 386 462 337 469 285 L473.273 255.947 C473.67 253.245 476.27 251 479 251 C481.76 251 484.017 253.24 484.037 256 L485 386 L485 410 L484.041 539.477 C484.018 542.515 481.525 544.775 478.5 544.5 C475.549 544.232 472.628 541.468 472.196 538.536 L472.196 538.536 Z " />
<glyph glyph-name="G" unicode="G" horiz-adv-x="817" d="M698 534.016 L698 743.5 C698 745.432 696.432 747 694.5 747 L694 747 C692.405 747 690.972 744.711 690.913 743.117 C690.669 736.504 690 726.909 690 722 C688 690 650 682 612 705 C559 737 492 760 414 760 C228 760 50 571 50 375 C50 179 227 -10 412 -10 C535.825 -10 670.107 22.3212 746.258 56.3774 C750.495 58.2724 750.463 62.2936 748.5 66.5 C746.613 70.5429 741.95 72.5436 737.874 70.7291 C723.807 64.4666 707.43 58.263 689.418 52.4568 C682.2 50.1301 675 54.4967 675 62.0801 L675 216 C675 268.65 713.025 319.399 752.927 321.903 C752.958 321.905 758.961 322.317 758.991 322.321 L763 322.75 C763.412 322.794 763.374 323.5 762.96 323.5 L487.04 323.5 C486.626 323.5 486.588 322.794 487 322.75 L491.009 322.321 C491.039 322.317 497.042 321.905 497.073 321.903 C536.975 319.399 575 268.65 575 216 C576 216 576 121 576 113 C573 60 501 10 427 10 C290 10 159 189 159 375 C159 559 288 735 423 735 C474 735 522 718 564 693 C611 661 663 594 676 547 C678 541 680 531 682 525 C682.534 523.399 683.472 525.092 685.156 525.197 L690 525.5 C694.407 525.775 698 529.6 698 534.016 L698 534.016 Z " />
<glyph glyph-name="H" unicode="H" horiz-adv-x="797" d="M723 3 C687 3 652 38 652 74 L652 676 C652 711.1 685.272 745.249 720.302 746.935 C720.356 746.937 725.938 747.315 725.991 747.321 L730 747.75 C730.412 747.794 730.374 748.5 729.96 748.5 L474.04 748.5 C473.626 748.5 473.588 747.794 474 747.75 L478.009 747.321 C478.062 747.315 483.644 746.937 483.698 746.935 C518.728 745.249 552 711.1 552 676 L552 465.32 C552 434.233 526.767 409 495.68 409 L273.32 409 C242.233 409 217 434.233 217 465.32 L217 676 C217 711.1 250.272 745.249 285.302 746.935 C285.356 746.937 290.938 747.315 290.991 747.321 L295 747.75 C295.412 747.794 295.374 748.5 294.96 748.5 L39.0401 748.5 C38.6261 748.5 38.5884 747.794 39 747.75 L43.0086 747.321 C43.0617 747.315 48.6442 746.937 48.6976 746.935 C83.7281 745.249 117 711.1 117 676 L117 74 C117 38.9 83.7281 4.75063 48.6976 3.06509 C48.6442 3.06252 43.0617 2.68519 43.0086 2.67949 L39 2.25 C38.5884 2.2059 38.6261 1.5 39.0401 1.5 L294.96 1.5 C295.374 1.5 295.412 2.2059 295 2.25 L290.991 2.67949 C290.938 2.68519 285.356 3.06252 285.302 3.06509 C250.272 4.75062 217 38.9 217 74 L217 326.68 C217 357.767 242.233 383 273.32 383 L495.68 383 C526.767 383 552 357.767 552 326.68 L552 74 C552 38.9 518.728 4.75063 483.698 3.06509 C483.644 3.06252 478.062 2.68519 478.009 2.67949 L474 2.25 C473.588 2.2059 473.626 1.5 474.04 1.5 L730 1.5 L723 3 Z " />
<glyph glyph-name="I" unicode="I" horiz-adv-x="361" d="M287 3 C251 3 216 38 216 74 L216 676 C216 711.1 249.272 745.249 284.302 746.935 C284.356 746.937 289.938 747.315 289.991 747.321 L294 747.75 C294.412 747.794 294.374 748.5 293.96 748.5 L38.0401 748.5 C37.6261 748.5 37.5884 747.794 38 747.75 L42.0086 747.321 C42.0617 747.315 47.6442 746.937 47.6976 746.935 C82.7281 745.249 116 711.1 116 676 L116 74 C116 38.9 82.7281 4.75063 47.6976 3.06509 C47.6442 3.06252 42.0617 2.68519 42.0086 2.67949 L38 2.25 C37.5884 2.2059 37.6261 1.5 38.0401 1.5 L294 1.5 L287 3 Z " />
<glyph glyph-name="J" unicode="J" horiz-adv-x="385" d="M317.96 749.961 L62.04 748.539 C61.6045 748.537 61.567 747.796 62 747.75 L66.0086 747.321 C66.0617 747.315 71.6442 746.937 71.6976 746.935 C106.728 745.249 140 711.1 140 676 L140 -72 C140 -153 76 -185 40 -185 C-2 -185 7 -105 -35 -105 C-58 -105 -80 -127 -80 -150 C-80 -186 -33 -220 15 -220 C95 -220 240 -124 240 116 L240 676 C240 711.1 273.272 745.249 308.302 746.935 C308.356 746.937 313.938 747.315 313.991 747.321 L318 747.75 C318.39 747.792 318.353 749.963 317.96 749.961 L317.96 749.961 Z " />
<glyph glyph-name="K" unicode="K" horiz-adv-x="775" d="M683.487 749.952 L412.017 748.581 C411.559 748.579 411.542 747.771 412 747.75 L428 747 C488 747 499 691 454 631 L340.178 491.582 C306.954 450.886 245 472.964 245 525.5 L245 676 C245 711.1 278.272 745.249 313.302 746.935 C313.356 746.937 318.938 747.315 318.991 747.321 L323 747.75 C323.412 747.794 323.374 748.5 322.96 748.5 L67.0401 748.5 C66.6261 748.5 66.5884 747.794 67 747.75 L71.0086 747.321 C71.0617 747.315 76.6442 746.937 76.6976 746.935 C111.728 745.249 145 711.1 145 676 L145 74 C145 38.9 111.728 4.75063 76.6976 3.06509 C76.6442 3.06252 71.0617 2.68519 71.0086 2.67949 L67 2.25 C66.5884 2.2059 66.6261 1.5 67.0401 1.5 L322.96 1.5 C323.374 1.5 323.412 2.2059 323 2.25 L318.991 2.67949 C318.938 2.68519 313.356 3.06252 313.302 3.06509 C278.272 4.75062 245 38.9 245 74 L245 224.5 C245 277.931 307.434 300.674 341.8 259.761 L542.964 20.2814 C550.207 11.6588 575.226 0.10773 586.487 0.187405 L764.96 1.45019 C765.401 1.45331 765.439 2.20299 765 2.25 L760.991 2.67949 C760.935 2.68555 755.305 3.06247 755.248 3.06509 C718.821 4.75062 657.25 38.9 628 74 L353.678 400.488 C336.976 420.366 337.103 453.527 353.956 473.277 L515 662 C553 706 630 748 674 748 L683.5 748.5 C683.749 748.513 683.736 749.953 683.487 749.952 L683.487 749.952 Z " />
<glyph glyph-name="L" unicode="L" horiz-adv-x="650" d="M317.96 749.961 L62.04 748.539 C61.6045 748.537 61.567 747.796 62 747.75 L66.0086 747.321 C66.0617 747.315 71.6442 746.937 71.6976 746.935 C106.728 745.249 140 711.1 140 676 L140 74 C140 38.9 106.728 4.75063 71.6976 3.06509 C71.6442 3.06252 66.0617 2.68519 66.0086 2.67949 L62 2.25 C61.5773 2.20471 61.6149 1.48092 62.04 1.47969 L570.877 0.0118935 C573.086 0.0055201 575.464 1.85651 576 4 L577 8 C582.846 41.1282 594.389 104.636 600.527 139.323 C601.001 142 598.719 142 596 142 C593.368 142 590.287 139.742 589.494 137.232 L585 123 C569 69 491 17 427 17 L328 17 C261 17 240 52 240 88 L240 676 C240 711.1 273.272 745.249 308.302 746.935 C308.356 746.937 313.938 747.315 313.991 747.321 L318 747.75 C318.39 747.792 318.353 749.963 317.96 749.961 L317.96 749.961 Z " />
<glyph glyph-name="M" unicode="M" horiz-adv-x="900" d="M858.208 750 L725.572 750 C704.33 750 678.878 731.665 672.151 711.516 L528.971 282.667 C511.429 230.127 441.707 229.125 422.663 281.14 L264.637 712.753 C257.55 732.11 231.95 749.86 211.336 749.708 L54.0399 748.552 C53.5975 748.549 53.5601 747.797 54 747.75 L58.0086 747.321 C58.0787 747.313 63.2709 746.956 63.3414 746.953 C89.2727 745.932 120.836 728.236 141.748 705.095 C147.54 698.686 151.801 685.183 151.55 676.548 C145.699 475.651 139.825 273.875 133 74 C132.025 38.9 97.7781 4.75063 62.6995 3.06509 C62.6459 3.06252 57.0619 2.6852 57.0086 2.67949 L53 2.25 C52.5884 2.2059 52.6261 1.5 53.0401 1.5 L243.96 1.5 C244.374 1.5 244.412 2.2059 244 2.25 L239.991 2.67949 C239.933 2.68577 234.511 3.05503 234.452 3.05769 C202.217 4.51356 171.539 33.3152 167.281 65.4561 C167.235 65.7989 167.046 70.6305 167.052 70.9763 L172.146 360.318 C173.197 419.993 258.211 435.804 280.647 380.498 L430.301 11.5832 C432.705 5.65855 441.106 0 447.5 0 C454.02 0 461.955 5.65095 464.088 11.8128 L591.808 380.908 C610.264 434.243 693.046 421.419 694.5 365 L702 74 C702.975 38.9 670.678 4.75063 635.696 3.06509 C635.642 3.06253 630.062 2.68517 630.009 2.67949 L626 2.25 C625.588 2.2059 625.626 1.5 626.04 1.5 L881.96 1.5 C882.374 1.5 882.412 2.2059 882 2.25 L877.991 2.67949 C877.938 2.6852 872.354 3.06252 872.301 3.06509 C837.222 4.75062 802.975 38.9 802 74 L783.105 678.64 C783.092 679.044 783.226 684.143 783.279 684.544 C787.49 716.685 817.265 745.486 849.454 746.942 C849.521 746.945 855.034 747.337 855.1 747.344 L858.75 747.75 C859.161 747.796 858.622 750 858.208 750 L858.208 750 Z " />
<glyph glyph-name="N" unicode="N" horiz-adv-x="760" d="M59.8235 0.0511761 L245.96 1.4472 C246.403 1.45052 246.44 2.20281 246 2.25 L241.991 2.67949 C241.938 2.68519 236.356 3.06252 236.302 3.06509 C201.272 4.75062 168 38.9 168 74 L165.704 485.692 C165.477 526.497 219.159 537.85 243.23 504.9 C362.455 341.7 481.791 178.5 601.752 15.3 C604.386 11.7158 618.552 0 623 0 C628.519 0 633.046 4.48035 633.103 9.99947 L640 681 C642.925 714.15 675.319 745.399 708.45 746.94 C708.507 746.943 713.935 747.315 713.991 747.321 L718 747.75 C718.412 747.794 718.374 748.5 717.96 748.5 L532.04 748.5 C531.626 748.5 531.588 747.794 532 747.75 L536.009 747.321 C536.062 747.315 541.644 746.937 541.698 746.935 C576.728 745.249 610 711.1 610 676 L610.763 290.805 C610.84 251.698 559.656 240.865 536.537 272.406 C426.734 422.205 317.427 572.394 208.15 722.043 C200.521 732.49 171.077 750.885 158.14 750.791 L-12.9601 749.551 C-13.4021 749.548 -13.4394 748.797 -13 748.75 L-8.99141 748.321 C-8.93521 748.314 -3.31053 747.938 -3.25406 747.935 C33.0281 746.249 91.65 712.1 117 677 L127.5 663 C130.985 658.353 137.98 637.309 137.97 631.5 L137 75 C137 40.8 105.413 7.5025 71.3882 4.25825 C71.3464 4.25426 61.9372 3.3981 61.8956 3.39194 L59.25 3 C58.7316 2.92321 59.2995 0.0472461 59.8235 0.0511761 L59.8235 0.0511761 Z " />
<glyph glyph-name="O" unicode="O" horiz-adv-x="851" d="M159 375 C159 559 284 735 414 735 C553 735 687 559 687 375 C687 191 553 15 413 15 C283 15 159 191 159 375 L159 375 Z M50 375 C50 179 225 -10 408 -10 C606 -10 796 179 796 375 C796 571 611 760 418 760 C230 760 50 571 50 375 L50 375 Z " />
<glyph glyph-name="P" unicode="P" horiz-adv-x="576" d="M289 3 C253 3 218 38 218 74 L218 319 C218 332.799 229.201 344 243 344 L268 344 C415 344 556 425 556 539 C556 647 439 750 318 750 L40.04 748.537 C39.6057 748.535 39.5682 747.796 40 747.75 L44.0086 747.321 C44.0617 747.315 49.6442 746.937 49.6976 746.935 C84.7281 745.249 118 711.1 118 676 L118 74 C118 38.9 84.7281 4.75063 49.6976 3.06509 C49.6442 3.06252 44.0617 2.68519 44.0086 2.67949 L40 2.25 C39.5884 2.2059 39.6261 1.5 40.0401 1.5 L296 1.5 L289 3 Z M218 390 L218 695.5 C218 716.199 234.801 733 255.5 733 L293 733 C380 733 463 646 463 555 C463 444 367 365 268 365 L243 365 C229.201 365 218 376.201 218 390 L218 390 Z " />
<glyph glyph-name="Q" unicode="Q" horiz-adv-x="846" d="M1142.5 -37 C1140.9 -35.1676 1135.82 -35.3765 1133.72 -36.597 C1094.45 -59.34 947.3 -81 820 -81 C677.65 -81 494.423 -49.6294 388.031 -10.9865 C387.443 -10.7732 383.877 -8.37323 384.5 -8.4213 C392 -9 399.5 -9 407 -9 C605 -9 795 180 795 376 C795 572 610 761 417 761 C229 761 49 572 49 376 C49 238 136 103 252 36 C400 -66 670 -164 805 -164 C900.55 -164 1062.17 -106.487 1139.7 -45.2194 C1142.07 -43.3476 1144.49 -39.2722 1142.5 -37 L1142.5 -37 Z M316.281 23.9379 C229.346 77.5531 159 224.9 159 377 C159 561 284 737 414 737 C553 737 687 561 687 377 C687 187 539 4 385 4 C366.679 4 342.778 8.18431 325.851 19.2428 C325.843 19.2486 316.29 23.9323 316.281 23.9379 L316.281 23.9379 Z " />
<glyph glyph-name="R" unicode="R" horiz-adv-x="796" d="M67 747 L74 747 C110 747 145 712 145 676 L145 74 C145 38.9 111.728 4.75063 76.6976 3.06509 C76.6442 3.06252 71.0617 2.68519 71.0086 2.67949 L67 2.25 C66.5884 2.2059 66.6261 1.5 67.0401 1.5 L322.96 1.5 C323.374 1.5 323.412 2.2059 323 2.25 L318.991 2.67949 C318.938 2.68519 313.356 3.06252 313.302 3.06509 C278.272 4.75062 245 38.9 245 74 L245 304.5 C245 332.374 267.626 355 295.5 355 L322.495 355 C333.158 355 351.789 344.887 357.32 335.77 C389.75 282.313 462.375 171.625 535 64 C567.375 16.825 609.162 4.30281 750.586 2.68984 C750.586 2.68984 748.447 1.44488 748.447 1.44488 L748.699 5.43697 C748.699 5.43697 746.56 4.192 746.56 4.192 C699.68 8.96 678.4 24.8 652 64 C574.125 179.5 498.547 291.172 460.102 348.102 C452.478 359.39 460.495 373.104 473.247 377.891 C552.87 407.78 612 466.1 612 539 C612 647 484 751 351 751 L67.4998 749.048 C67.4732 749.048 66.9734 747 67 747 L67 747 Z M246 433.5 L246 693.5 C246 714.199 262.801 731 283.5 731 L321 731 C413 731 501 647 501 559 C501 455 428 381 351 381 L298.5 381 C269.522 381 246 404.522 246 433.5 L246 433.5 Z " />
<glyph glyph-name="S" unicode="S" horiz-adv-x="551" d="M50 232.5 L50 3.5 C50 1.5681 51.5681 0 53.5 0 C55.3832 0 57.0079 1.93372 57.0554 3.81633 C57.2653 12.1429 58 24.1429 58 31 C60 66 97 75 134 51 C183 15 243 -10 292 -10 C404 -10 511 91 511 196 C511 279 428 388 322 427 C222 464 143 545 143 601 C143 669 198 735 256 735 C276 735 297 731 318 724 C371 706 436 633 451 574 C452.636 569.091 454.273 560.165 455.909 553.796 C456.362 552.034 458.343 550 460.162 550 L464 550 C467.864 550 471 553.136 471 557 L471 750.5 C471 752.432 469.432 754 467.5 754 L467 754 C465.427 754 463.922 750.446 463.844 748.875 C463.563 743.25 463 736.5 463 732 C461 705 428 698 396 717 C354 743 302 760 257 760 C159 760 65 663 65 563 C65 477 152 363 263 323 C358 288 432 215 432 167 C432 93 364 22 293 22 C261 22 224 34 190 53 C141 83 85 160 71 216 C69.3636 220.909 67.7273 229.835 66.0909 236.204 C65.6383 237.966 63.6569 240 61.8377 240 L57.5 240 C53.3602 240 50 236.64 50 232.5 L50 232.5 Z " />
<glyph glyph-name="T" unicode="T" horiz-adv-x="775" d="M693 791.5 L692.931 791.259 C692.531 789.857 691.26 786.367 690.454 785.152 C678.507 767.147 626.4 750 577 750 L200 750 C148 750 92 769 85 788 L84 791.5 C83.4693 793.358 81.2918 795 79.3599 795 L78.5 795 C76.1533 795 72.7316 792.167 71.8125 790.008 C67.434 779.722 61.7799 764.984 56.9264 752.716 C56.8112 752.425 54.3663 744.805 54.2935 744.5 L53.4565 741 C53.3801 740.681 51.5206 734.55 51.3988 734.246 C37.5242 699.524 12.9758 637.476 -0.898844 602.754 C-1.84945 600.375 0.438156 600 3 600 C5.38845 600 9.30848 602.26 10.5052 604.327 L19 619 C47 673 127 725 181 725 L282.68 725 C313.767 725 339 699.767 339 668.68 L339 74 C339 38.9 305.728 4.75063 270.698 3.06509 C270.644 3.06252 265.062 2.68519 265.009 2.67949 L261 2.25 C260.588 2.2059 260.626 1.5 261.04 1.5 L516.96 1.5 C517.374 1.5 517.412 2.2059 517 2.25 L512.991 2.67949 C512.938 2.68519 507.356 3.06252 507.302 3.06509 C472.272 4.75062 439 38.9 439 74 L439 668.68 C439 699.767 464.233 725 495.32 725 L598 725 C652 725 732 673 761 619 L769.495 604.327 C770.692 602.26 774.612 600 777 600 C779.562 600 780.697 603.257 779.747 605.636 C765.265 641.888 740.282 704.795 727 738 L705.871 790.363 C704.913 792.737 701.559 795 699 795 L697.64 795 C695.708 795 693.531 793.358 693 791.5 L693 791.5 Z " />
<glyph glyph-name="U" unicode="U" horiz-adv-x="760" d="M723 37 L716 35 C680 25 645 51 645 87 L645 693.222 C645 724.56 619.561 749.794 588.223 749.54 L467.04 748.557 C466.595 748.553 466.557 747.797 467 747.75 L471.009 747.321 C471.062 747.315 476.644 746.937 476.698 746.935 C511.728 745.249 545 711.1 545 676 L545 202.424 C545 198.375 541.671 183.195 539.673 179.673 C502.672 114.467 405.25 54 334 54 C271 54 210 135 210 220 L210 693.222 C210 724.56 184.561 749.794 153.223 749.54 L32.0398 748.557 C31.5946 748.553 31.5572 747.797 32 747.75 L36.0086 747.321 C36.0617 747.315 41.6442 746.937 41.6976 746.935 C76.7281 745.249 110 711.1 110 676 L110 220 C110 103 200 -10 294 -10 C371.35 -10 471.82 44.91 522.943 109.899 C528.86 117.421 545 110.953 545 101.382 L545 25 C545 11.2007 556.201 0 570 0 L592.45 0 C592.769 0 596.803 0.377831 597.114 0.444805 C607.384 2.65551 645 11.1714 645 13 C672.821 20.1795 702.252 29.3725 723.175 35.5194 C723.175 35.5194 723 37 723 37 L723 37 Z " />
<glyph glyph-name="V" unicode="V" horiz-adv-x="819" d="M782.96 749.962 L525.02 748.575 C524.564 748.573 524.545 747.774 525 747.75 L539 747 C601 747 638 688 615 626 L484.528 272.787 C465.781 222.036 399.698 221.062 379.464 271.239 L236 627 C212 689 244 747 302 747 L312 747.75 C312.413 747.781 312.386 748.5 311.972 748.5 L4.04669 748.5 C3.63272 748.5 3.58922 747.801 4 747.75 L6.52072 747.435 C6.54133 747.432 12.4216 746.892 12.4423 746.89 C44.7312 744.048 97.625 686.45 122 626 L376.241 -0.73343 C378.164 -5.47316 384.885 -10 390 -10 C395.132 -10 401.793 -5.4739 403.684 -0.703185 L652 626 C675.4 686.45 733.973 744.048 773.035 746.89 C773.053 746.892 778.973 747.319 778.991 747.321 L783 747.75 C783.391 747.792 783.353 749.964 782.96 749.962 L782.96 749.962 Z " />
<glyph glyph-name="W" unicode="W" horiz-adv-x="1161" d="M714.98 749.934 L416.047 748.528 C415.617 748.526 415.574 747.803 416 747.75 L418.521 747.435 C418.576 747.428 424.448 746.922 424.504 746.918 C457.433 744.797 504.55 701.775 526 654 L577.286 520.135 C580.129 512.713 580.135 487.285 577.295 479.861 L493.682 261.313 C474.203 210.399 407.004 210.851 388.212 262.023 L245 652 C229.4 700.75 255.628 745.697 299.584 747.914 C299.613 747.916 305.594 748.243 305.623 748.246 L311 748.75 C311.412 748.789 311.379 749.5 310.965 749.5 L31.0467 749.5 C30.6327 749.5 30.5892 748.801 31 748.75 L33.5207 748.435 C33.5616 748.43 39.3151 747.916 39.3562 747.913 C70.3831 745.648 116.525 699.725 137 650 C218.9 435.5 300.8 221 383.627 6.5 C385.946 0.494388 396.062 -10 402.5 -10 C408.915 -10 417.241 -4.34239 419.604 1.62134 L569.221 379.304 C580.731 408.358 620.28 404.273 631.5 375.105 C679.5 250.33 727.5 125.666 775.5 1.62686 C777.822 -4.37482 786.065 -10 792.5 -10 C799.117 -10 806.668 -4.35793 808.544 1.98716 L1001 653 C1018.55 700.775 1068.42 744.747 1107.05 746.916 C1107.09 746.919 1112.95 747.316 1112.99 747.321 L1117 747.75 C1117.41 747.794 1117.37 748.5 1116.96 748.5 L867.513 748.5 C867.099 748.5 867.086 747.764 867.5 747.75 L889 747 C941 747 976 698 962 646 L845.026 224.563 C837.354 196.921 797.835 202.112 788.069 229.085 C737.776 367.993 687.051 507.333 637 646 C618 698 650 747 701 747 L715 747.75 C715.377 747.77 715.358 749.936 714.98 749.934 L714.98 749.934 Z " />
<glyph glyph-name="X" unicode="X" horiz-adv-x="827" d="M793.723 749.941 L564.512 748.634 C564.024 748.631 564.012 747.766 564.5 747.75 L588 747 C625 747 637 715 616 679 L486.002 493.497 C461.451 458.464 415.812 459.315 392.585 495.238 L277 674 C254 712 267 747 305 747 L318.5 747.75 C318.913 747.773 318.893 748.5 318.479 748.5 L46.0559 748.5 C45.642 748.5 45.5906 747.811 46 747.75 L46.846 747.623 C46.8703 747.619 55.6346 746.737 55.659 746.734 C86.135 743.395 134.3 709.1 159 673 L346.07 383.401 C356.819 366.762 353.899 332.929 342.293 316.877 C284.734 237.266 227.75 157.75 170 79 C142 40 78 3 39 3 L29.5 2.25 C29.0873 2.21742 29.1156 1.5 29.5296 1.5 L254.488 1.5 C254.902 1.5 254.914 2.23679 254.5 2.25 L231 3 C193 3 181 38 205 76 L331.079 260.771 C355.435 296.465 401.608 295.831 424.976 259.482 L541 79 C566 40 553 3 514 3 L500.5 2.25 C500.087 2.22704 500.107 1.5 500.521 1.5 L773.944 1.5 C774.358 1.5 774.409 2.18859 774 2.25 L773.154 2.3769 C773.129 2.3806 764.216 3.27041 764.191 3.27312 C732.77 6.705 683.75 41.95 660 79 L470.448 371.862 C459.32 389.056 460.467 420.14 472.832 436.467 L655 677 C686 714 747 747 783 747 L793.25 747.75 C793.631 747.778 794.104 749.944 793.723 749.941 L793.723 749.941 Z " />
<glyph glyph-name="Y" unicode="Y" horiz-adv-x="815" d="M314.479 749.93 L42.0559 748.526 C41.6277 748.524 41.5765 747.814 42 747.75 L42.846 747.623 C42.8673 747.62 51.6483 746.729 51.6697 746.727 C82.2787 743.295 131.75 708.05 155.5 671 L370.108 335.885 C372.755 331.752 379 310.42 379 305.512 L379 94 C379 49.15 337.172 5.25063 293.372 3.08369 C293.342 3.0822 287.407 2.75693 287.377 2.75412 L282 2.25 C281.588 2.21136 281.621 1.5 282.035 1.5 L575.965 1.5 C576.379 1.5 576.412 2.21136 576 2.25 L570.623 2.75412 C570.593 2.75693 564.658 3.0822 564.628 3.08369 C520.828 5.25062 479 49.15 479 94 L479 310.384 C479 314.299 482.019 330.426 483.921 333.848 C546.231 445.948 607.641 558.949 670 671 C691 710 749 747 787 747 L796.5 747.75 C796.913 747.783 796.884 748.5 796.47 748.5 L562.012 748.5 C561.598 748.5 561.586 747.763 562 747.75 L586 747 C624 747 643 710 624 671 L513.744 446.93 C492.771 404.308 440.529 401.696 415.409 442.014 L269 677 C250 714 264 747 301 747 L314.5 747.75 C314.875 747.771 314.855 749.932 314.479 749.93 L314.479 749.93 Z " />
<glyph glyph-name="Z" unicode="Z" horiz-adv-x="652" d="M68.2977 601.931 L72 616 C84 670 158 722 221 724 L394.315 726.467 C443.132 727.162 469.104 679.174 441.825 638.684 L30.5875 28.2934 C28.8642 25.7356 25 13.0841 25 10 C25 4.4803 29.4803 0 35 0 L598.238 0 C602.378 0 606.933 3.5 608 7.5 L610 15 C610 15 626.161 80.5931 641.798 149.68 C642.393 152.308 640.694 155 638 155 C635.41 155 632.167 152.738 631.271 150.308 L626 136 C607.475 86.275 538.567 36.55 477.668 27.6068 C477.417 27.57 470.596 26.9564 470.343 26.9518 L248.91 22.938 C200.247 22.0558 174.077 69.6303 200.876 110.259 L603.494 720.652 C605.167 723.189 609 735.961 609 739 C609 744.52 604.52 749 599 749 L83.0557 749 C75.3281 749 68.4372 742.697 67.75 735 L66.5 721 C64.55 697.6 61.1741 649.484 57.299 598.896 C57.0922 596.195 59.3439 595.469 62 596 C64.4794 596.496 67.6542 599.486 68.2977 601.931 L68.2977 601.931 Z " />
<glyph glyph-name="bracketleft" unicode="&#x5b;" horiz-adv-x="295" d="M191.32 725 L332.5 725 C339.4 725 345 730.6 345 737.5 C345 744.4 339.4 750 332.5 750 L161.32 750 C130.233 750 105 724.767 105 693.68 L105 -138.68 C105 -169.767 130.233 -195 161.32 -195 L332.5 -195 C339.4 -195 345 -189.4 345 -182.5 C345 -175.6 339.4 -170 332.5 -170 L191.32 -170 C160.233 -170 135 -144.767 135 -113.68 L135 668.68 C135 699.767 160.233 725 191.32 725 L191.32 725 Z " />
<glyph glyph-name="backslash" unicode="&#x5c;" horiz-adv-x="347" d="M34.3126 746.093 L279.687 -56.0934 C283.547 -68.712 298.804 -80 312 -80 C325.196 -80 333.547 -68.712 329.687 -56.0934 L84.3126 746.093 C80.4528 758.712 65.1957 770 52 770 C38.8043 770 30.4528 758.712 34.3126 746.093 L34.3126 746.093 Z " />
<glyph glyph-name="bracketright" unicode="&#x5d;" horiz-adv-x="298" d="M158 668.68 L158 -113.68 C158 -144.767 132.767 -170 101.68 -170 L-39.5 -170 C-46.3996 -170 -52 -175.6 -52 -182.5 C-52 -189.4 -46.3996 -195 -39.5 -195 L131.68 -195 C162.767 -195 188 -169.767 188 -138.68 L188 693.68 C188 724.767 162.767 750 131.68 750 L-39.5 750 C-46.3996 750 -52 744.4 -52 737.5 C-52 730.6 -46.3996 725 -39.5 725 L101.68 725 C132.767 725 158 699.767 158 668.68 L158 668.68 Z " />
<glyph glyph-name="asciicircum" unicode="&#x5e;" horiz-adv-x="340" d="M200 755 C195 763 178 785 170 785 C162 785 145 763 140 755 L22.2357 572.562 C19.915 568.967 20.7126 563.739 24 561 C27.2971 558.252 32.4968 558.479 35.5424 561.503 L130.319 655.602 C152.221 677.348 187.779 677.348 209.681 655.602 L304.458 561.503 C307.503 558.479 312.703 558.252 316 561 C319.287 563.739 320.085 568.967 317.764 572.562 L200 755 L200 755 Z " />
<glyph glyph-name="underscore" unicode="&#x5f;" horiz-adv-x="455" d="M5 -73.5 C5 -86.4713 15.5287 -97 28.5 -97 L426.5 -97 C439.471 -97 450 -86.4713 450 -73.5 C450 -60.5287 439.471 -50 426.5 -50 L28.5 -50 C15.5287 -50 5 -60.5287 5 -73.5 L5 -73.5 Z " />
<glyph glyph-name="grave" unicode="&#x60;" horiz-adv-x="340" d="M-34 746 C-34 739 -3 709 30 682 L166.059 567.02 C169.327 564.259 174.475 564.475 177.5 567.5 C180.511 570.511 180.852 575.789 178.254 579.162 L69 721 C43 755 14 788 8 788 C-11 788 -34 765 -34 746 L-34 746 Z " />
<glyph glyph-name="a" unicode="a" horiz-adv-x="514" d="M516.5 105.5 C512.963 107.151 508.025 104.225 506.751 100.536 C498.56 76.8144 475.579 56 455 56 C427 56 400 79 400 102 L400 355 C400 446 331 510 259 510 C160 510 65 406 65 360 C65 329 89 300 114 300 C137 300 159 328 159 343 C159 358 139 388 139 403 C139 428 183 484 229 484 C273 484 316 443 316 386 L316 306.433 C316 285.13 296.067 258.81 275.848 252.105 C117.728 199.671 45 153.675 45 88 C45 38 100 -10 158 -10 C188.6 -10 245.93 19.16 300.101 66.545 C307.204 72.758 322.262 67.1181 326.375 58.6253 C344.161 21.9056 382.4 -6 422 -6 C462.85 -6 510.017 41.3812 523.206 93.275 C524.392 97.9438 520.865 103.463 516.5 105.5 L516.5 105.5 Z M317 177.425 L317 125.329 C317 114.734 309.367 94.3765 301.4 87.3926 C264.609 55.1406 226 36 205 36 C168 36 132 66 132 98 C132 154.925 171.476 190.751 256.605 224.007 C290.846 237.383 317 214.185 317 177.425 L317 177.425 Z " />
<glyph glyph-name="b" unicode="b" horiz-adv-x="573" d="M12.9417 715.588 L20 717 C48 721 75 692 75 659 L75 0 L80 0 L98.7523 39.8486 C105.04 53.2109 121.947 58.0719 133.565 48.956 C177.397 14.565 237.45 -10 291 -10 C412 -10 528 119 528 253 C528 382 417 505 301 505 C264.45 505 212.728 481.88 177.153 452.835 C170.282 447.226 160 452.889 160 461.759 L160 728.999 C160 740.59 150.591 750.112 139 750.25 L126.229 750.402 C124.991 750.417 110.121 748.278 108.928 747.946 C80.648 740.08 37.668 728.845 12.1443 721.61 C10.6081 721.175 10 719.597 10 718 C10 716.376 11.3495 715.27 12.9417 715.588 L12.9417 715.588 Z M160 123.494 L160 392.113 C160 402.238 166.234 419.899 173.822 426.602 C201.995 451.492 240.5 471 266 471 C351 471 432 359 432 243 C432 124 365 10 296 10 C249.75 10 192.377 51.4978 165.828 100.461 C164.036 103.765 160 119.736 160 123.494 L160 123.494 Z " />
<glyph glyph-name="c" unicode="c" horiz-adv-x="503" d="M467 130.5 C463.992 131.753 459.079 128.946 457.469 126.113 C432.742 82.6125 364.2 42 311 42 C220 42 133 155 133 273 C133 384 211 491 292 491 C325 491 372 449 388 405 C396 384 417 363 431 363 C460 363 481 384 473 405 C454 459 367 510 297 510 C168 510 45 376 45 236 C45 111 161 -10 281 -10 C346.325 -10 437.317 54.6425 470.558 122.755 C472.189 126.095 470.431 129.07 467 130.5 L467 130.5 Z " />
<glyph glyph-name="d" unicode="d" horiz-adv-x="600" d="M352.942 716.588 L360 718 C388 722 415 693 415 660 L415 494.071 C415 483.564 402.666 477.906 393.162 482.384 C357.653 499.11 317.125 510 280 510 C148 510 45 383 45 251 C45 120 149 -5 257 -5 C301.2 -5 361.295 19.565 397.981 50.2712 C404.281 55.5444 415 50.3762 415 42.1605 L415 21.0015 C415 9.41012 424.409 -0.112017 436 -0.25 L449.117 -0.406152 C450.345 -0.420773 463.92 1.40073 465.104 1.72849 C497.463 10.6889 548.473 25.4372 579.702 34.0468 C580.04 34.1401 578.345 34.3117 578 34.25 L573.614 33.4668 C573.579 33.4605 568.337 32.3251 568.302 32.3171 C533.272 24.3062 500 49.9 500 85 L500 728.999 C500 740.59 490.591 750.112 479 750.25 L465.273 750.413 C464.235 750.426 452.322 749.074 451.315 748.82 C423.118 741.704 378.397 730.051 352.144 722.61 C350.608 722.175 350 720.597 350 719 C350 717.376 351.35 716.27 352.942 716.588 L352.942 716.588 Z M415 366.734 L415 115.756 C415 105.875 407.772 87.2906 400.547 80.5504 C370.072 52.12 323.45 29 292 29 C210 29 132 149 132 273 C132 381 201 484 290 484 C334.65 484 393.74 430.301 412.398 382.063 C413.153 380.11 415 368.827 415 366.734 L415 366.734 Z " />
<glyph glyph-name="e" unicode="e" horiz-adv-x="540" d="M154.769 340 L457.227 340 C492.515 340 509 359.255 493.504 390.959 C457.276 465.079 376.075 510 301 510 C170 510 45 402 45 231 C45 108 159 -10 278 -10 C361.85 -10 465.663 56.5438 495.827 127.532 C497.106 130.542 495.655 133.639 492.5 134.5 C489.916 135.205 485.155 131.486 483.898 129.12 C460.83 85.71 374 46 298 46 C215 46 135 154 135 266 C135 288.909 137.16 310.018 140.868 329.939 C142.074 336.412 148.184 340 154.769 340 L154.769 340 Z M369.616 364.383 L191.007 361.657 C165.702 361.27 152.793 378.546 164.597 400.932 C195.031 458.649 244.675 492 295 492 C331.3 492 371.684 458.649 396.498 403.178 C406.381 381.086 393.815 364.753 369.616 364.383 L369.616 364.383 Z " />
<glyph glyph-name="f" unicode="f" horiz-adv-x="368" d="M241 3 C223 3 205 21 205 39 L205 398.68 C205 429.767 230.233 455 261.32 455 L335.5 455 C347.919 455 358 465.081 358 477.5 C358 489.919 347.919 500 335.5 500 L261.32 500 C226.667 500 204.019 517.528 207.994 551.951 C219.092 648.08 259.85 729 310 729 C347 729 399 635 430 635 C453 635 475 657 475 680 C475 718 409 755 340 755 C229.3 755 139.66 653.75 122.839 538.73 C120.504 522.762 98.4558 491.978 83.3322 486.347 L30.6857 466.745 C28.2619 465.842 26 462.586 26 460 C26 457.24 28.2402 455 31 455 L73 455 C98.9426 455 120 433.943 120 408 L120 39 C120 21 102 3 84 3 L69.5 2.25 C69.0866 2.22862 69.1054 1.5 69.5194 1.5 L255.5 1.5 L241 3 Z " />
<glyph glyph-name="g" unicode="g" horiz-adv-x="520" d="M541 479 C541 505 514 530 486 530 C459.65 530 421.74 503.268 398.063 470.683 C392.411 462.903 378.298 461.497 370.799 467.517 C338.577 493.382 297.65 510 256 510 C164 510 76 432 76 350 C76 297.2 111.393 246.442 160.84 216.256 C168.576 211.533 169.588 194.636 160.907 192.029 C100.795 173.977 56 139.85 56 105 C56 68.7 82.5444 33.7613 118.788 14.7832 C124.909 11.578 126.328 -1.67114 120.201 -4.86512 C78.5125 -26.5975 46 -64.55 46 -96 C46 -165 154 -231 266 -231 C378 -231 486 -152 486 -69 C486 9 414 83 300 83 L182 83 C143 83 105 106 105 129 C105 159 179 187 256 187 C348 187 436 266 436 349 C436 378.7 424.66 407.59 405.625 432.754 C401.947 437.617 401.435 444.957 405.091 449.836 C416.235 464.71 429.44 476 437 476 C455 476 488 441 506 441 C524 441 541.5 459.5 541.5 478.5 L541 479 Z M256 207 C208 207 161 277 161 349 C161 420 208 489 256 489 C304 489 351 420 351 349 C351 277 304 207 256 207 L256 207 Z M170.5 -0.5 L178 -1 L292 -1 C367 -1 415 -44 415 -89 C415 -152 344 -212 271 -212 C192 -212 117 -145 117 -76 C117 -50.1 134.54 -20.7775 156.958 -3.86156 C159.409 -2.01178 167.436 -0.295721 170.5 -0.5 L170.5 -0.5 Z " />
<glyph glyph-name="h" unicode="h" horiz-adv-x="589" d="M21.9417 715.588 L29 717 C57 721 84 692 84 659 L84 39 C84 21 66 3 48 3 L33.5 2.25 C33.0866 2.22862 33.1054 1.5 33.5194 1.5 L219.481 1.5 C219.895 1.5 219.913 2.22862 219.5 2.25 L205 3 C187 3 169 21 169 39 L169 344.692 C169 351.285 174.321 368.503 178.381 373.698 C210.16 414.36 272.8 450 316 450 C368 450 409 391 409 330 L409 39 C409 21 391 3 373 3 L358.5 2.25 C358.087 2.22862 358.105 1.5 358.519 1.5 L544.481 1.5 C544.895 1.5 544.913 2.22862 544.5 2.25 L530 3 C512 3 494 21 494 39 L494 330 C494 422 437 510 364 510 C310.45 510 233.78 465.928 189.261 413.402 C183.023 406.041 169 412.314 169 421.963 L169 728.999 C169 740.59 159.591 750.112 148 750.25 L135.229 750.402 C133.992 750.417 118.871 748.208 117.679 747.877 C88.5858 739.789 44.1282 728.179 19 721 C17.4691 720.563 19 719.592 19 718 C19 716.376 20.3495 715.27 21.9417 715.588 L21.9417 715.588 Z " />
<glyph glyph-name="i" unicode="i" horiz-adv-x="274" d="M137 615 C165 615 192 642 192 670 C192 698 165 725 137 725 C109 725 82 698 82 670 C82 642 109 615 137 615 L137 615 Z M31.9417 465.588 L39 467 C67 471 94 442 94 409 L94 39 C94 21 76 3 58 3 L43.5 2.25 C43.0866 2.22862 43.1054 1.5 43.5194 1.5 L229.481 1.5 C229.895 1.5 229.913 2.22862 229.5 2.25 L215 3 C197 3 179 21 179 39 L179 478.999 C179 490.59 169.591 500.112 158 500.25 L145.229 500.402 C143.992 500.417 128.871 498.208 127.679 497.877 C98.5858 489.789 54.1282 478.179 29 471 C27.4691 470.563 29 469.592 29 468 C29 466.376 30.3495 465.27 31.9417 465.588 L31.9417 465.588 Z " />
<glyph glyph-name="j" unicode="j" horiz-adv-x="270" d="M138 615 C166 615 193 642 193 670 C193 698 166 725 138 725 C110 725 83 698 83 670 C83 642 110 615 138 615 L138 615 Z M32.9417 465.588 L40 467 C68 471 95 442 95 409 L95 50 C95 -12.125 75.8594 -83.4375 52.9863 -110.344 C44.4796 -120.351 42.3914 -119.765 29.4069 -117.789 C1.89941 -113.604 -38 -100 -60 -100 C-83 -100 -105 -120 -105 -140 C-105 -165 -76 -187 -45 -185 C-39 -185 12 -158 60 -130 C121 -95 180 -6 180 50 L180 478.999 C180 490.59 170.591 500.112 159 500.25 L146.229 500.402 C144.992 500.417 129.871 498.208 128.679 497.877 C99.5858 489.789 55.1282 478.179 30 471 C28.4691 470.563 30 469.592 30 468 C30 466.376 31.3495 465.27 32.9417 465.588 L32.9417 465.588 Z " />
<glyph glyph-name="k" unicode="k" horiz-adv-x="564" d="M21.9823 715.596 L29 717 C57 721 84 692 84 659 L84 39 C84 21 66 3 48 3 L33.5 2.25 C33.0866 2.22862 33.1054 1.5 33.5194 1.5 L219.481 1.5 C219.895 1.5 219.913 2.22862 219.5 2.25 L205 3 C187 3 169 21 169 39 L169 233.139 C169 249.683 189.959 254.885 200.581 242.2 C250.319 182.8 300.5 123.4 350 64 C374.7 34.55 375.033 6.0025 351.855 3.22138 C351.823 3.21759 343.531 2.25523 343.5 2.25 C343.092 2.18194 343.148 1.5 343.562 1.5 L546.5 1.5 C546.5 1.5 546.643 0.442509 546.643 0.442509 L547.122 4.41374 C547.122 4.41374 547.265 3.35625 547.265 3.35625 C520.135 10.2412 486.9 35.55 458 67 L266.672 296.042 C257.47 307.057 260.207 323.969 271.525 332.795 C305.35 359.169 339.175 385.425 373 411 C427.6 453.9 514.521 494.899 552.2 496.922 C552.258 496.925 558.159 497.365 558.217 497.371 L561.5 497.75 C561.911 497.797 561.871 498.5 561.457 498.5 L301.011 498.5 C300.597 498.5 300.586 497.762 301 497.75 L326 497 C385 497 372 444 303 385 L235.5 332.5 C206.09 309.626 168 328.255 168 365.513 L168 728.999 C168 740.59 158.591 750.112 147 750.25 L134.229 750.402 C132.992 750.417 117.871 748.208 116.679 747.877 C87.5858 739.789 43.1282 728.179 18 721 C16.3962 720.542 18.2258 719.645 18.5 718 C18.7758 716.345 20.337 715.267 21.9823 715.596 L21.9823 715.596 Z " />
<glyph glyph-name="l" unicode="l" horiz-adv-x="264" d="M21.9417 715.588 L29 717 C57 721 84 692 84 659 L84 39 C84 21 66 3 48 3 L33.5 2.25 C33.0866 2.22862 33.1054 1.5 33.5194 1.5 L219.481 1.5 C219.895 1.5 219.913 2.22862 219.5 2.25 L205 3 C187 3 169 21 169 39 L169 728.999 C169 740.59 159.591 750.112 148 750.25 L135.229 750.402 C133.992 750.417 118.871 748.208 117.679 747.877 C88.5858 739.789 44.1282 728.179 19 721 C17.4691 720.563 19 719.592 19 718 C19 716.376 20.3495 715.27 21.9417 715.588 L21.9417 715.588 Z " />
<glyph glyph-name="m" unicode="m" horiz-adv-x="874" d="M22.4669 465.693 L29 467 C57 471 84 442 84 409 L84 39 C84 21 66 3 48 3 L33.5 2.25 C33.0866 2.22862 33.1054 1.5 33.5194 1.5 L219.481 1.5 C219.895 1.5 219.913 2.22862 219.5 2.25 L205 3 C187 3 169 21 169 39 L169 350.043 C169 356.453 173.47 372.414 177.368 377.502 C205.79 414.6 262.4 447 302 447 C355 447 389 390 389 330 L389 39 C389 21 371 3 353 3 L338.5 2.25 C338.087 2.22862 338.105 1.5 338.519 1.5 L524.481 1.5 C524.895 1.5 524.913 2.22862 524.5 2.25 L510 3 C492 3 474 21 474 39 L474 330 C474 340.706 473.322 351.412 471.965 362.118 C471.631 364.758 473.616 372.979 475.192 375.123 C503.547 413.705 565.25 448 608 448 C661 448 695 391 695 331 L695 40 C695 22 677 4 659 4 L644.5 3.25 C644.087 3.22862 644.105 2.5 644.519 2.5 L830.481 2.5 C830.895 2.5 830.913 3.22862 830.5 3.25 L816 4 C798 4 780 22 780 40 L780 331 C780 423 727 511 643 511 C591.325 511 509.23 454.913 472.717 395.57 C471.832 394.132 470 387.189 470 385.5 C470 384.882 468.954 384.773 468.813 385.375 C452.587 454.913 405.275 511 338 511 C295.5 511 229.157 468.373 188.717 418.123 C182.947 410.953 170 416.961 170 426.164 L170 479.999 C170 491.59 160.591 501.112 149 501.25 L136.229 501.402 C134.992 501.417 119.871 499.208 118.679 498.877 C90.417 491.02 47.6561 479.84 22.2004 472.626 C20.4805 472.139 19.7528 470.27 19.5 468.5 C19.2397 466.678 20.6624 465.332 22.4669 465.693 L22.4669 465.693 Z " />
<glyph glyph-name="n" unicode="n" horiz-adv-x="569" d="M21.9417 465.588 L29 467 C57 471 84 442 84 409 L84 39 C84 21 66 3 48 3 L33.5 2.25 C33.0866 2.22862 33.1054 1.5 33.5194 1.5 L219.481 1.5 C219.895 1.5 219.913 2.22862 219.5 2.25 L205 3 C187 3 169 21 169 39 L169 344.899 C169 350.716 174.289 368.671 177.676 373.399 C206.17 413.17 255.4 448 286 448 C344 448 389 390 389 330 L389 39 C389 21 371 3 353 3 L338.5 2.25 C338.087 2.22862 338.105 1.5 338.519 1.5 L524.481 1.5 C524.895 1.5 524.913 2.22862 524.5 2.25 L510 3 C492 3 474 21 474 39 L474 330 C474 422 414 510 337 510 C295.35 510 229.857 465.928 188.424 413.402 C182.373 405.731 169 412.193 169 421.963 L169 478.999 C169 490.59 159.591 500.112 148 500.25 L135.229 500.402 C133.992 500.417 118.871 498.208 117.679 497.877 C88.5858 489.789 44.1282 478.179 19 471 C17.4691 470.563 19 469.592 19 468 C19 466.376 20.3495 465.27 21.9417 465.588 L21.9417 465.588 Z " />
<glyph glyph-name="o" unicode="o" horiz-adv-x="613" d="M139 250 C139 369 221 484 307 484 C393 484 475 369 475 250 C475 131 393 16 307 16 C221 16 139 131 139 250 L139 250 Z M45 250 C45 117 173 -10 307 -10 C440 -10 568 117 568 250 C568 383 440 510 307 510 C173 510 45 383 45 250 L45 250 Z " />
<glyph glyph-name="p" unicode="p" horiz-adv-x="571" d="M6.94174 465.588 L14 467 C42 471 69 442 69 409 L69 -181 C69 -199 51 -217 33 -217 L18.5 -217.75 C18.0866 -217.771 18.1054 -218.5 18.5194 -218.5 L204.481 -218.5 C204.895 -218.5 204.913 -217.771 204.5 -217.75 L190 -217 C172 -217 154 -199 154 -181 L154 13.2569 C154 23.2374 165.75 28.4773 174.534 23.7394 C207.627 5.89 244.175 -5 278 -5 C404 -5 526 137 526 257 C526 386 417 510 303 510 C260.5 510 205.718 486.158 170.587 455.668 C164.331 450.238 154 455.556 154 463.839 L154 478.999 C154 490.59 144.591 500.112 133 500.25 L120.229 500.402 C118.992 500.417 103.871 498.208 102.679 497.877 C73.5858 489.789 29.1282 478.179 4 471 C2.46906 470.563 4 469.592 4 468 C4 466.376 5.34952 465.27 6.94174 465.588 L6.94174 465.588 Z M154 138.538 L154 386.092 C154 394.286 159.867 412.597 165.41 418.631 C193.984 449.734 235 475 263 475 C350 475 433 355 433 230 C433 132 360 16 283 16 C237.4 16 178.263 66.54 157.03 121.322 C156.271 123.281 154 136.437 154 138.538 L154 138.538 Z " />
<glyph glyph-name="q" unicode="q" horiz-adv-x="551" d="M517 -217 C499 -217 481 -199 481 -181 L481 500 L476 500 L449.495 443.204 C449.213 442.599 445.972 437.972 445.5 437.5 C444.147 436.147 441.171 436.862 439.807 438.204 C397.755 479.58 334.575 510 279 510 C140 510 31 383 31 251 C31 120 137 -5 248 -5 C287.95 -5 342.35 18.12 378.651 47.1645 C385.544 52.6796 396 47.069 396 38.2412 L396 -181 C396 -199 378 -217 360 -217 L345.5 -217.75 C345.087 -217.771 345.105 -218.5 345.519 -218.5 L531.5 -218.5 L517 -217 Z M396 377.506 L396 114.774 C396 104.263 389.1 85.4614 381.221 78.5044 C351.15 51.9525 310.35 31 284 31 C200 31 119 151 119 276 C119 386 187 492 274 492 C313.775 492 364.673 450.502 390.288 401.539 C391.929 398.401 396 381.047 396 377.506 L396 377.506 Z " />
<glyph glyph-name="r" unicode="r" horiz-adv-x="420" d="M22.9417 465.588 L30 467 C58 471 85 442 85 409 L85 39 C85 21 67 3 49 3 L34.5 2.25 C34.0866 2.22862 34.1054 1.5 34.5194 1.5 L220.481 1.5 C220.895 1.5 220.913 2.22862 220.5 2.25 L206 3 C188 3 170 21 170 39 L170 346 C170 348.373 172.588 362.757 173.497 364.949 C196.862 421.265 242.7 470 275 470 C293 470 310 453 310 435 C310 410 335 385 360 385 C386 385 410 410 410 435 C410 473 363 510 315 510 C269.1 510 213.808 472.43 183.513 425.54 C180.076 420.219 170 425.05 170 431.385 L170 478.999 C170 490.59 160.591 500.112 149 500.25 L136.229 500.402 C134.992 500.417 119.871 498.208 118.679 497.877 C89.5858 489.789 45.1282 478.179 20 471 C18.4691 470.563 20 469.592 20 468 C20 466.376 21.3495 465.27 22.9417 465.588 L22.9417 465.588 Z " />
<glyph glyph-name="s" unicode="s" horiz-adv-x="428" d="M65 177 L60 177 L60 -1 L65 -1 C65 4 66 14 66 19 C67 36 106 32 146 11 C170 -2 196 -10 218 -10 C300 -10 378 59 378 130 C378 188 316 261 237 282 C171 300 119 360 119 409 C119 450 161 490 204 490 C212 490 221 489 230 487 C284 470 335 405 348 342 L353 342 L353 510 L348 510 C348 506 347 497 347 493 C346 479 305 482 263 498 C243 506 222 511 203 511 C129 511 58 447 58 381 C58 318 119 240 198 219 C262 202 312 149 312 107 C312 58 265 11 217 11 C216 11 185 14 186 17 C133 34 77.5 111.5 64.5 177.5 L65 177 Z " />
<glyph glyph-name="t" unicode="t" horiz-adv-x="378" d="M310.5 500 L236.32 500 C205.233 500 180 525.233 180 556.32 L180 617 C180 618.656 178.656 620 177 620 C175.79 620 172.777 618.692 171.951 617.809 L33.415 469.652 C32.1276 468.275 30 462.885 30 461 C30 458.24 32.2402 456 35 456 L62.5 456 C80.439 456 95 441.439 95 423.5 L95 160 C95 56 162 -10 232 -10 C280.75 -10 344.71 39.4325 366.415 91.9545 C367.593 94.8055 365.864 96.8543 363 98 C360.471 99.0118 356.927 97.0927 355.786 94.619 C340.128 60.685 294.1 30 258 30 C217 30 178 73 178 141 L179.644 399.039 C179.84 429.927 205.073 455 235.962 455 L310.5 455 C322.919 455 333 465.081 333 477.5 C333 489.919 322.919 500 310.5 500 L310.5 500 Z " />
<glyph glyph-name="u" unicode="u" horiz-adv-x="560" d="M539.5 32.5 L534 31 C501 22 470 49 470 85 L470 443.114 C470 474.512 444.513 499.745 413.117 499.431 L334.519 498.645 C334.025 498.64 334.007 497.776 334.5 497.75 L349 497 C367 497 385 479 385 461 L385 158.061 C385 153.656 381.083 137.424 378.822 133.643 C351.234 87.5031 297.7 49 257 49 C210 49 165 103 165 160 L165 443.114 C165 474.512 139.513 499.745 108.117 499.431 L29.5187 498.645 C29.0247 498.64 29.0067 497.776 29.5 497.75 L44 497 C62 497 80 479 80 461 L80 160 C80 73 147 -10 217 -10 C266.3 -10 330.05 34.795 367.718 89.994 C372.49 96.987 385 90.8895 385 82.4234 L385 21.0015 C385 9.41012 394.409 -0.112017 406 -0.25 L418.932 -0.403949 C420.182 -0.418835 433.566 1.33636 434.771 1.67316 L539.51 30.9646 C539.529 30.9701 539.52 32.5053 539.5 32.5 L539.5 32.5 Z " />
<glyph glyph-name="v" unicode="v" horiz-adv-x="538" d="M222.477 499.963 L11.0558 498.534 C10.6232 498.531 10.5722 497.814 11 497.75 L11.846 497.623 C11.8582 497.621 20.1305 496.743 20.1427 496.741 C46.9375 493.492 83.75 460.1 98 424 L252.7 1.73712 C254.929 -4.34603 263.021 -10 269.5 -10 C275.984 -10 284.057 -4.34638 286.274 1.74663 L441 427 C456.2 462.15 491.255 493.69 517.872 496.756 C517.89 496.758 526.136 497.62 526.154 497.623 L527 497.75 C527.409 497.811 527.358 498.5 526.944 498.5 L369.056 498.5 C368.642 498.5 368.591 497.811 369 497.75 L369.846 497.623 C369.847 497.623 377.949 496.727 377.951 496.727 C402.332 493.295 414.35 458.05 402 421 L351.5 272 C333.971 220.281 265.461 219.373 246.566 270.608 L190 424 C177.325 461.05 188.416 496.199 214.003 497.933 C214.011 497.934 218.536 498.231 218.544 498.231 L221.5 498.5 C221.754 498.523 222.733 499.964 222.477 499.963 L222.477 499.963 Z " />
<glyph glyph-name="w" unicode="w" horiz-adv-x="846" d="M242.975 499.966 L29.0558 498.534 C28.6234 498.531 28.5723 497.814 29 497.75 L29.846 497.623 C29.8562 497.622 38.2822 496.728 38.2925 496.727 C66.0325 493.295 103.7 458.05 117 421 L273.626 1.70969 C275.888 -4.34506 284.037 -10 290.5 -10 C296.948 -10 305.155 -4.34412 307.45 1.6811 L368.783 162.679 C388.254 213.79 455.957 213.129 474.425 161.647 L531.779 1.76585 C533.972 -4.34712 542.006 -10 548.5 -10 C554.936 -10 563.185 -4.34348 565.504 1.66018 L727.5 421 C741.75 458.05 779.916 493.295 807.704 496.727 C807.714 496.728 816.144 497.622 816.154 497.623 L817 497.75 C817.409 497.811 817.358 498.5 816.944 498.5 L658.056 498.5 C657.642 498.5 657.591 497.811 658 497.75 L658.846 497.623 C658.854 497.622 666.935 496.757 666.944 496.756 C691.24 493.69 702.45 462.15 692 427 L636.102 271.102 C617.501 219.224 548.599 219.26 530.052 271.157 L474 428 C464.5 462.2 475.757 493.693 499.199 496.756 C499.204 496.757 507.149 497.622 507.154 497.623 L508 497.75 C508.409 497.811 508.358 498.5 507.944 498.5 L294.056 498.5 C293.642 498.5 293.591 497.811 294 497.75 L294.846 497.623 C294.856 497.622 303.275 496.728 303.285 496.727 C330.935 493.295 367.7 458.05 381 421 L399.987 369.152 C402.465 362.383 402.554 337.585 400.124 330.799 L366 235.5 C351.418 194.778 297.666 194.444 282.58 234.981 L210 430 C200.25 465.1 211.414 496.398 236.076 497.94 C236.098 497.942 240.774 498.277 240.795 498.28 L243 498.5 C243.256 498.526 243.233 499.968 242.975 499.966 L242.975 499.966 Z " />
<glyph glyph-name="x" unicode="x" horiz-adv-x="574" d="M15.006 0.0449645 L172.438 1.45902 C172.874 1.46294 172.93 2.17828 172.5 2.25 C172.478 2.25359 164.294 3.22635 164.273 3.22912 C141.758 6.11 140 35.75 159 69 L243.128 193.067 C250.623 204.12 265.706 202.624 272.776 191.294 C296.089 153.931 319.725 116.125 342 79 C364.8 41.95 362.33 6.705 338.877 3.27313 C338.871 3.27226 330.506 2.25099 330.5 2.25 C330.092 2.18194 330.148 1.5 330.562 1.5 L552.944 1.5 C553.358 1.5 553.409 2.18859 553 2.25 L552.154 2.3769 C552.133 2.38001 543.983 3.23415 543.962 3.2365 C517.55 6.21 475.75 36.8 452 71 L335.773 259.979 C328.213 272.273 330.643 296.773 339.308 308.316 C367.205 345.481 395.103 383.077 423 420 C450.55 457.05 501.565 492.295 530.604 495.727 C530.619 495.729 539.139 496.621 539.154 496.623 L540 496.75 C540.409 496.811 540.358 497.5 539.944 497.5 L382.562 497.5 C382.148 497.5 382.092 496.818 382.5 496.75 C382.517 496.747 390.71 495.766 390.727 495.763 C413.24 492.79 414.95 462.2 395 428 L321.978 321.863 C315.449 312.373 302.412 313.691 296.324 323.47 C276.311 355.619 255.975 387.65 237 419 C214.2 456.05 216.67 491.295 240.123 494.727 C240.129 494.728 248.494 495.749 248.5 495.75 C248.908 495.818 248.852 496.5 248.438 496.5 L26.0559 496.5 C25.642 496.5 25.5906 495.811 26 495.75 L26.846 495.623 C26.8668 495.62 35.0167 494.766 35.0376 494.763 C61.45 491.79 103.25 461.2 127 427 L226.955 264.574 C237.239 247.861 235.856 217.078 224.114 201.356 L129 74 C99 36 47 1 20 1 L15 0.75 C14.8869 0.744347 14.8928 0.0439478 15.006 0.0449645 L15.006 0.0449645 Z " />
<glyph glyph-name="y" unicode="y" horiz-adv-x="576" d="M546.697 499.953 L389.056 498.545 C388.617 498.541 388.566 497.815 389 497.75 L389.846 497.623 C389.849 497.623 398.09 496.727 398.093 496.727 C423.332 493.295 435.35 458.05 423 421 L370.222 261.083 C353.125 209.28 285.866 206.66 264.792 256.977 L194 426 C181.65 461.15 190.96 493.592 214.214 496.749 C214.217 496.749 222.151 497.623 222.154 497.623 L223 497.75 C223.409 497.811 223.358 498.5 222.944 498.5 L11.0559 498.5 C10.642 498.5 10.5906 497.811 11 497.75 L11.846 497.623 C11.8569 497.621 20.2963 496.728 20.3073 496.727 C48.2325 493.295 87.8 458.05 103 421 L270.045 22.371 C273.435 14.2804 272.874 -14.2927 269.675 -22.4607 C252.277 -66.8775 236 -111.8 219 -156 C212 -175 195 -194 192 -194 C173 -194 161 -165 142 -165 C119 -165 97 -187 97 -210 C97 -235 122 -260 147 -260 C169 -260 222 -214 240 -167 L300 -10 C352 134 405 277 458 421 C471.3 458.05 508.967 493.295 536.707 496.727 C536.713 496.728 544.957 497.565 544.962 497.566 L546.25 497.75 C546.634 497.805 547.085 499.956 546.697 499.953 L546.697 499.953 Z " />
<glyph glyph-name="z" unicode="z" horiz-adv-x="475" d="M36 372 C39.0011 372 43.2682 374.718 44.5373 377.437 L49 387 C67.525 426 127.877 465 179.08 472.487 C179.296 472.518 185.267 473.06 185.485 473.066 L258 475 C292.242 475.913 310.994 442.676 292.506 413.84 L45.3973 28.4184 C43.7894 25.9104 40 12.9792 40 10 C40 4.4803 44.4803 0.00574398 50 0.0128205 L430 0.5 C430.975 0.5 438.604 59.9141 445.473 123.131 C445.829 126.407 443.296 128 440 128 C436.858 128 433.096 125.289 432.103 122.308 L429 113 C417.3 74 362.822 35 312.835 27.5132 C312.598 27.4776 306.624 26.9424 306.384 26.9366 L226.5 25 C188.693 24.0835 168.012 60.7098 188.325 92.61 L429.629 471.565 C431.221 474.066 435 487.035 435 490 C435 495.52 430.52 500 425 500 L125 500 C99 500 77 513 80 527 L80.5 529.5 C80.7706 530.853 79.8304 532 78.4505 532 L77 532 C74.8546 532 72.4092 529.558 71.9043 527.473 C58.387 471.651 58.2718 472.349 32.1195 379.525 C31.2549 376.456 32.8117 372 36 372 L36 372 Z " />
<glyph glyph-name="braceleft" unicode="&#x7b;" horiz-adv-x="249" d="M236.5 750 L204 750 C136 750 70 686 70 619 L70 383 C70 348.775 47.7537 321.395 21.4647 317.481 C18.2059 316.995 15 313.295 15 310 C15 306.748 18.4459 302.984 21.6572 302.47 C48.6094 298.149 70 267.925 70 230 L70 1 C70 -66 136 -130 204 -130 L237 -130 C240.864 -130 244 -126.864 244 -123 C244 -119.136 240.864 -116 237 -116 L223 -116 C179 -116 136 -59 136 1 L136 182 C136 232.15 108.545 280.855 73.9011 301.093 C69.8295 303.472 69.7925 314.397 73.9011 316.711 C108.545 336.222 136 382.25 136 429 L137 618 C137 678 179 735 223 735 L236.5 735 C240.64 735 244 738.36 244 742.5 C244 746.64 240.64 750 236.5 750 L236.5 750 Z " />
<glyph glyph-name="bar" unicode="&#x7c;" horiz-adv-x="186" d="M60 767 L60 -217 C60 -235.215 74.785 -250 93 -250 C111.215 -250 126 -235.215 126 -217 L126 767 C126 785.215 111.215 800 93 800 C74.785 800 60 785.215 60 767 L60 767 Z " />
<glyph glyph-name="braceright" unicode="&#x7d;" horiz-adv-x="249" d="M5 743 C5 739.136 8.13621 736 12 736 L26 736 C70 736 112 679 112 619 L113 430 C113 383.25 140.455 337.222 175.099 317.711 C179.208 315.397 179.17 304.472 175.099 302.093 C140.455 281.855 113 233.15 113 183 L113 2 C113 -58 70 -115 26 -115 L12 -115 C8.13621 -115 5 -118.136 5 -122 C5 -125.864 8.13621 -129 12 -129 L45 -129 C113 -129 179 -65 179 2 L179 231 C179 268.925 200.391 299.149 227.343 303.47 C230.554 303.984 234 307.748 234 311 C234 314.295 230.794 317.995 227.535 318.481 C201.246 322.395 179 349.775 179 384 L179 620 C179 687 113 751 45 751 L11.9978 750.175 C8.13644 750.078 5 746.863 5 743 L5 743 Z " />
<glyph glyph-name="asciitilde" unicode="&#x7e;" horiz-adv-x="340" d="M30.3464 317.106 C33.0828 345.29 51.6154 370 71 370 C115 370 200 305 244 305 C282.95 305 320.998 358.248 324.705 415.872 C324.988 420.269 321.906 425 317.5 425 C313.808 425 310.021 421.741 309.622 418.07 C306.55 389.813 285.275 365 264 365 C220 365 135 430 91 430 C53.95 430 18.705 376.753 15.2731 319.128 C15.0124 314.75 18.1141 310 22.5 310 C26.2397 310 29.985 313.384 30.3464 317.106 L30.3464 317.106 Z " />
<glyph glyph-name="exclamdown" unicode="&#xa1;" horiz-adv-x="244" d="M122 505 C91 505 62 476 62 445 C62 414 91 385 122 385 C153 385 182 414 182 445 C182 476 153 505 122 505 L122 505 Z M122 -255 C156 -255 179 -204 174 -150 C174 -150 132.173 161.805 130.081 281.203 C130.005 285.541 126.338 290 122 290 C117.662 290 113.995 285.541 113.919 281.203 C111.827 161.805 70 -150 70 -150 C65 -204 88 -255 122 -255 L122 -255 Z " />
<glyph glyph-name="cent" unicode="&#xa2;" horiz-adv-x="503" d="M267 560 L267 541.5 C267 526.818 246.24 504.015 232.353 499.25 C130.05 464.15 45 352.1 45 236 C45 128 131.67 23.24 232.839 -3.193 C247.078 -6.91336 267 -27.2828 267 -42 L267 -60 C267 -68.2796 273.72 -75 282 -75 C290.28 -75 297 -68.2796 297 -60 L297 -41.8101 C297 -27.8995 314.034 -6.08375 327.161 -1.4805 C383.694 18.3442 444.652 69.6139 470.727 123.13 C472.349 126.46 470.42 129.075 467 130.5 C463.994 131.753 458.903 128.621 457.289 125.792 C435.349 87.3525 379.809 49.5525 326.509 43.1125 C304.089 40.4036 297 52.6662 297 75.249 L297 474.379 C297 485.523 302.047 491.018 312.397 486.885 C342.27 474.955 375.25 440.7 388 405 C396 384 417 363 431 363 C460 363 481 384 473 405 C456.85 450.9 391.57 494.632 329.361 506.719 C315.11 509.488 297 527.982 297 542.5 L297 560 C297 568.28 290.28 575 282 575 C273.72 575 267 568.28 267 560 L267 560 Z M235.125 68.2957 C177.072 108.59 133 189.85 133 274 C133 358.15 178.517 440.132 235.776 474.502 C255.996 486.64 267 474.834 267 451.251 L267 90.2747 C267 67.1701 254.106 55.1214 235.125 68.2957 L235.125 68.2957 Z " />
<glyph glyph-name="acute" unicode="&#xb4;" horiz-adv-x="340" d="M183.941 567.02 L320 682 C353 710 384 741 384 746 C384 765 361 788 342 788 C337 788 308 755 281 721 L171.746 579.162 C169.148 575.789 169.489 570.511 172.5 567.5 C175.525 564.475 180.673 564.259 183.941 567.02 L183.941 567.02 Z " />
<glyph glyph-name="questiondown" unicode="&#xbf;" horiz-adv-x="299" d="M174 505 C143 505 114 476 114 445 C114 414 143 385 174 385 C205 385 234 414 234 445 C234 476 205 505 174 505 L174 505 Z M174 282.5 L174 179.5 C174 161.743 152.433 139.737 134.984 136.442 C77.5044 125.589 37.925 91.475 14 56 C-1 33 -16 -21 -16 -55 C-16 -160 67 -260 154 -260 C195 -260 234 -229 234 -197 C234 -176 211 -155 188 -155 C171 -155 140 -170 123 -170 C65 -170 10 -109 10 -45 C10 -32 21 -2 33 15 C48 38 96 60 202 60 C202.449 60 201.743 59.9206 201.477 60.2815 C194.704 69.455 189 290 189 290 C189 290 185.748 290 181.5 290 C177.36 290 174 286.64 174 282.5 L174 282.5 Z " />
<glyph glyph-name="Agrave" unicode="&#xc0;" horiz-adv-x="796" d="M217 996 C217 989 248 959 281 932 L417.059 817.02 C420.327 814.259 425.475 814.475 428.5 817.5 C431.511 820.511 431.852 825.789 429.254 829.162 L320 971 C294 1005 265 1038 259 1038 C240 1038 217 1015 217 996 L217 996 Z M285 3 C228 3 191 59 207 119 L244.602 238.575 C251.13 259.334 276.567 278 298.328 278 L480.797 278 C495.057 278 512.218 264.315 516.476 250.705 C529.889 207.831 543.625 165.075 556 123 C575 61 538 2 480 2 L470 1.25 C469.587 1.21904 469.614 0.5 470.028 0.5 L786.96 0.5 C787.374 0.5 787.412 1.2059 787 1.25 L782.991 1.67949 C782.965 1.68227 777.072 2.09691 777.046 2.09862 C738.27 4.65312 685.425 56.45 663 113 L454.522 765.237 C453.722 767.741 450.629 770 448 770 C445.929 770 443.298 767.495 443.031 765.442 C440.705 747.525 410.471 727.809 375.108 721.032 C372.415 720.516 369.712 717.626 370.5 715 C370.974 713.42 370.883 706.609 370.367 705.042 L177 118 C154 58 81 3 24 3 L14 2.25 C13.5872 2.21904 13.6141 1.5 14.0281 1.5 L294 1.5 L285 3 Z M287.191 378.307 L328.074 507.54 C345.134 561.467 418.581 561.378 435.51 507.409 L476.047 378.176 C488.135 339.637 462.699 305 422.308 305 L340.888 305 C300.425 305 274.986 339.728 287.191 378.307 L287.191 378.307 Z " />
<glyph glyph-name="Aacute" unicode="&#xc1;" horiz-adv-x="796" d="M434.941 817.02 L571 932 C604 960 635 991 635 996 C635 1015 612 1038 593 1038 C588 1038 559 1005 532 971 L422.746 829.162 C420.148 825.789 420.489 820.511 423.5 817.5 C426.525 814.475 431.673 814.259 434.941 817.02 L434.941 817.02 Z M285 3 C228 3 191 59 207 119 L244.602 238.575 C251.13 259.334 276.567 278 298.328 278 L480.797 278 C495.057 278 512.218 264.315 516.476 250.705 C529.889 207.831 543.625 165.075 556 123 C575 61 538 2 480 2 L470 1.25 C469.587 1.21904 469.614 0.5 470.028 0.5 L786.96 0.5 C787.374 0.5 787.412 1.2059 787 1.25 L782.991 1.67949 C782.965 1.68227 777.072 2.09691 777.046 2.09862 C738.27 4.65312 685.425 56.45 663 113 L454.522 765.237 C453.722 767.741 450.629 770 448 770 C445.929 770 443.298 767.495 443.031 765.442 C440.705 747.525 410.471 727.809 375.108 721.032 C372.415 720.516 369.712 717.626 370.5 715 C370.974 713.42 370.883 706.609 370.367 705.042 L177 118 C154 58 81 3 24 3 L14 2.25 C13.5872 2.21904 13.6141 1.5 14.0281 1.5 L294 1.5 L285 3 Z M287.191 378.307 L328.074 507.54 C345.134 561.467 418.581 561.378 435.51 507.409 L476.047 378.176 C488.135 339.637 462.699 305 422.308 305 L340.888 305 C300.425 305 274.986 339.728 287.191 378.307 L287.191 378.307 Z " />
<glyph glyph-name="Acircumflex" unicode="&#xc2;" horiz-adv-x="796" d="M451 1005 C446 1013 429 1035 421 1035 C413 1035 396 1013 391 1005 L273.236 822.562 C270.915 818.967 271.713 813.739 275 811 C278.297 808.252 283.497 808.479 286.542 811.503 L381.319 905.602 C403.221 927.348 438.779 927.348 460.681 905.602 L555.458 811.503 C558.503 808.479 563.703 808.252 567 811 C570.287 813.739 571.085 818.967 568.764 822.562 L451 1005 L451 1005 Z M285 3 C228 3 191 59 207 119 L244.602 238.575 C251.13 259.334 276.567 278 298.328 278 L480.797 278 C495.057 278 512.218 264.315 516.476 250.705 C529.889 207.831 543.625 165.075 556 123 C575 61 538 2 480 2 L470 1.25 C469.587 1.21904 469.614 0.5 470.028 0.5 L786.96 0.5 C787.374 0.5 787.412 1.2059 787 1.25 L782.991 1.67949 C782.965 1.68227 777.072 2.09691 777.046 2.09862 C738.27 4.65312 685.425 56.45 663 113 L454.522 765.237 C453.722 767.741 450.629 770 448 770 C445.929 770 443.298 767.495 443.031 765.442 C440.705 747.525 410.471 727.809 375.108 721.032 C372.415 720.516 369.712 717.626 370.5 715 C370.974 713.42 370.883 706.609 370.367 705.042 L177 118 C154 58 81 3 24 3 L14 2.25 C13.5872 2.21904 13.6141 1.5 14.0281 1.5 L294 1.5 L285 3 Z M287.191 378.307 L328.074 507.54 C345.134 561.467 418.581 561.378 435.51 507.409 L476.047 378.176 C488.135 339.637 462.699 305 422.308 305 L340.888 305 C300.425 305 274.986 339.728 287.191 378.307 L287.191 378.307 Z " />
<glyph glyph-name="Atilde" unicode="&#xc3;" horiz-adv-x="796" d="M281.346 877.106 C284.083 905.29 302.615 930 322 930 C366 930 451 865 495 865 C533.95 865 571.997 918.248 575.705 975.872 C575.988 980.269 572.906 985 568.5 985 C564.808 985 561.021 981.741 560.622 978.07 C557.55 949.813 536.275 925 515 925 C471 925 386 990 342 990 C304.95 990 269.705 936.752 266.273 879.128 C266.012 874.75 269.114 870 273.5 870 C277.24 870 280.985 873.384 281.346 877.106 L281.346 877.106 Z M285 3 C228 3 191 59 207 119 L244.602 238.575 C251.13 259.334 276.567 278 298.328 278 L480.797 278 C495.057 278 512.218 264.315 516.476 250.705 C529.889 207.831 543.625 165.075 556 123 C575 61 538 2 480 2 L470 1.25 C469.587 1.21904 469.614 0.5 470.028 0.5 L786.96 0.5 C787.374 0.5 787.412 1.2059 787 1.25 L782.991 1.67949 C782.965 1.68227 777.072 2.09691 777.046 2.09862 C738.27 4.65312 685.425 56.45 663 113 L454.522 765.237 C453.722 767.741 450.629 770 448 770 C445.929 770 443.298 767.495 443.031 765.442 C440.705 747.525 410.471 727.809 375.108 721.032 C372.415 720.516 369.712 717.626 370.5 715 C370.974 713.42 370.883 706.609 370.367 705.042 L177 118 C154 58 81 3 24 3 L14 2.25 C13.5872 2.21904 13.6141 1.5 14.0281 1.5 L294 1.5 L285 3 Z M287.191 378.307 L328.074 507.54 C345.134 561.467 418.581 561.378 435.51 507.409 L476.047 378.176 C488.135 339.637 462.699 305 422.308 305 L340.888 305 C300.425 305 274.986 339.728 287.191 378.307 L287.191 378.307 Z " />
<glyph glyph-name="Adieresis" unicode="&#xc4;" horiz-adv-x="796" d="M496 865 C524 865 551 892 551 920 C551 948 524 975 496 975 C468 975 441 948 441 920 C441 892 468 865 496 865 L496 865 Z M346 865 C374 865 401 892 401 920 C401 948 374 975 346 975 C318 975 291 948 291 920 C291 892 318 865 346 865 L346 865 Z M285 3 C228 3 191 59 207 119 L244.602 238.575 C251.13 259.334 276.567 278 298.328 278 L480.797 278 C495.057 278 512.218 264.315 516.476 250.705 C529.889 207.831 543.625 165.075 556 123 C575 61 538 2 480 2 L470 1.25 C469.587 1.21904 469.614 0.5 470.028 0.5 L786.96 0.5 C787.374 0.5 787.412 1.2059 787 1.25 L782.991 1.67949 C782.965 1.68227 777.072 2.09691 777.046 2.09862 C738.27 4.65312 685.425 56.45 663 113 L454.522 765.237 C453.722 767.741 450.629 770 448 770 C445.929 770 443.298 767.495 443.031 765.442 C440.705 747.525 410.471 727.809 375.108 721.032 C372.415 720.516 369.712 717.626 370.5 715 C370.974 713.42 370.883 706.609 370.367 705.042 L177 118 C154 58 81 3 24 3 L14 2.25 C13.5872 2.21904 13.6141 1.5 14.0281 1.5 L294 1.5 L285 3 Z M287.191 378.307 L328.074 507.54 C345.134 561.467 418.581 561.378 435.51 507.409 L476.047 378.176 C488.135 339.637 462.699 305 422.308 305 L340.888 305 C300.425 305 274.986 339.728 287.191 378.307 L287.191 378.307 Z " />
<glyph glyph-name="Aring" unicode="&#xc5;" horiz-adv-x="796" d="M349 905 C349 943 384 980 421 980 C458 980 494 943 494 905 C494 871 455 830 421 830 C388 830 349 871 349 905 L349 905 Z M324 905 C324 861 376 810 421 810 C466 810 519 861 519 905 C519 953 471 1000 421 1000 C372 1000 324 953 324 905 L324 905 Z M285 3 C228 3 191 59 207 119 L244.602 238.575 C251.13 259.334 276.567 278 298.328 278 L480.797 278 C495.057 278 512.218 264.315 516.476 250.705 C529.889 207.831 543.625 165.075 556 123 C575 61 538 2 480 2 L470 1.25 C469.587 1.21904 469.614 0.5 470.028 0.5 L786.96 0.5 C787.374 0.5 787.412 1.2059 787 1.25 L782.991 1.67949 C782.965 1.68227 777.072 2.09691 777.046 2.09862 C738.27 4.65312 685.425 56.45 663 113 L454.522 765.237 C453.722 767.741 450.629 770 448 770 C445.929 770 443.298 767.495 443.031 765.442 C440.705 747.525 410.471 727.809 375.108 721.032 C372.415 720.516 369.712 717.626 370.5 715 C370.974 713.42 370.883 706.609 370.367 705.042 L177 118 C154 58 81 3 24 3 L14 2.25 C13.5872 2.21904 13.6141 1.5 14.0281 1.5 L294 1.5 L285 3 Z M287.191 378.307 L328.074 507.54 C345.134 561.467 418.581 561.378 435.51 507.409 L476.047 378.176 C488.135 339.637 462.699 305 422.308 305 L340.888 305 C300.425 305 274.986 339.728 287.191 378.307 L287.191 378.307 Z " />
<glyph glyph-name="Egrave" unicode="&#xc8;" horiz-adv-x="652" d="M146 996 C146 989 177 959 210 932 L346.059 817.02 C349.327 814.259 354.475 814.475 357.5 817.5 C360.511 820.511 360.852 825.789 358.254 829.162 L249 971 C223 1005 194 1038 188 1038 C169 1038 146 1015 146 996 L146 996 Z M534.403 749.94 L48.035 748.523 C47.6082 748.522 47.575 747.79 48 747.75 L53.3773 747.246 C53.4073 747.243 59.3423 746.918 59.3725 746.916 C103.172 744.749 145 700.85 145 656 L145 94 C145 49.15 103.173 5.25063 59.3725 3.08369 C59.3423 3.0822 53.4073 2.75693 53.3773 2.75412 L48 2.25 C47.5756 2.21021 47.6088 1.47886 48.035 1.47768 L574.449 0.0154191 C577.486 0.00698311 580.34 2.49088 580.75 5.5 L581.5 11 C587.346 45.1026 598.414 107.686 604.528 143.25 C604.989 145.931 602.721 146 600 146 C597.368 146 594.287 143.742 593.494 141.232 L589 127 C573 73 495 21 431 21 L333 21 C266 21 245 54 245 88 L245 328.68 C245 359.767 270.233 385 301.32 385 L366 385 C417 385 472 336 479 284 L483.273 254.947 C483.67 252.245 486.27 250 489 250 C491.76 250 494.008 252.24 494.019 255 L494.5 385 L494.5 409 L494.019 539 C494.008 541.76 491.76 544 489 544 C486.27 544 483.67 541.755 483.273 539.053 L479 510 C472 458 417 409 366 409 L301.32 409 C270.233 409 245 434.233 245 465.32 L245 672.68 C245 703.767 270.233 729 301.32 729 L429 729 C481 729 542 680 555 628 L562.721 598.834 C563.403 596.254 566.332 594 569 594 C571.766 594 573.636 597.773 573.353 600.525 C569.659 636.479 562.221 690.257 557.695 729.603 C556.426 740.634 545.507 749.972 534.403 749.94 L534.403 749.94 Z " />
<glyph glyph-name="Eacute" unicode="&#xc9;" horiz-adv-x="652" d="M363.941 817.02 L500 932 C533 960 564 991 564 996 C564 1015 541 1038 522 1038 C517 1038 488 1005 461 971 L351.746 829.162 C349.148 825.789 349.489 820.511 352.5 817.5 C355.525 814.475 360.673 814.259 363.941 817.02 L363.941 817.02 Z M534.403 749.94 L48.035 748.523 C47.6082 748.522 47.575 747.79 48 747.75 L53.3773 747.246 C53.4073 747.243 59.3423 746.918 59.3725 746.916 C103.172 744.749 145 700.85 145 656 L145 94 C145 49.15 103.173 5.25063 59.3725 3.08369 C59.3423 3.0822 53.4073 2.75693 53.3773 2.75412 L48 2.25 C47.5756 2.21021 47.6088 1.47886 48.035 1.47768 L574.449 0.0154191 C577.486 0.00698311 580.34 2.49088 580.75 5.5 L581.5 11 C587.346 45.1026 598.414 107.686 604.528 143.25 C604.989 145.931 602.721 146 600 146 C597.368 146 594.287 143.742 593.494 141.232 L589 127 C573 73 495 21 431 21 L333 21 C266 21 245 54 245 88 L245 328.68 C245 359.767 270.233 385 301.32 385 L366 385 C417 385 472 336 479 284 L483.273 254.947 C483.67 252.245 486.27 250 489 250 C491.76 250 494.008 252.24 494.019 255 L494.5 385 L494.5 409 L494.019 539 C494.008 541.76 491.76 544 489 544 C486.27 544 483.67 541.755 483.273 539.053 L479 510 C472 458 417 409 366 409 L301.32 409 C270.233 409 245 434.233 245 465.32 L245 672.68 C245 703.767 270.233 729 301.32 729 L429 729 C481 729 542 680 555 628 L562.721 598.834 C563.403 596.254 566.332 594 569 594 C571.766 594 573.636 597.773 573.353 600.525 C569.659 636.479 562.221 690.257 557.695 729.603 C556.426 740.634 545.507 749.972 534.403 749.94 L534.403 749.94 Z " />
<glyph glyph-name="Ecircumflex" unicode="&#xca;" horiz-adv-x="652" d="M380 1005 C375 1013 358 1035 350 1035 C342 1035 325 1013 320 1005 L202.236 822.562 C199.915 818.967 200.713 813.739 204 811 C207.297 808.252 212.497 808.479 215.542 811.503 L310.319 905.602 C332.221 927.348 367.779 927.348 389.681 905.602 L484.458 811.503 C487.503 808.479 492.703 808.252 496 811 C499.287 813.739 500.085 818.967 497.764 822.562 L380 1005 L380 1005 Z M534.403 749.94 L48.035 748.523 C47.6082 748.522 47.575 747.79 48 747.75 L53.3773 747.246 C53.4073 747.243 59.3423 746.918 59.3725 746.916 C103.172 744.749 145 700.85 145 656 L145 94 C145 49.15 103.173 5.25063 59.3725 3.08369 C59.3423 3.0822 53.4073 2.75693 53.3773 2.75412 L48 2.25 C47.5756 2.21021 47.6088 1.47886 48.035 1.47768 L574.449 0.0154191 C577.486 0.00698311 580.34 2.49088 580.75 5.5 L581.5 11 C587.346 45.1026 598.414 107.686 604.528 143.25 C604.989 145.931 602.721 146 600 146 C597.368 146 594.287 143.742 593.494 141.232 L589 127 C573 73 495 21 431 21 L333 21 C266 21 245 54 245 88 L245 328.68 C245 359.767 270.233 385 301.32 385 L366 385 C417 385 472 336 479 284 L483.273 254.947 C483.67 252.245 486.27 250 489 250 C491.76 250 494.008 252.24 494.019 255 L494.5 385 L494.5 409 L494.019 539 C494.008 541.76 491.76 544 489 544 C486.27 544 483.67 541.755 483.273 539.053 L479 510 C472 458 417 409 366 409 L301.32 409 C270.233 409 245 434.233 245 465.32 L245 672.68 C245 703.767 270.233 729 301.32 729 L429 729 C481 729 542 680 555 628 L562.721 598.834 C563.403 596.254 566.332 594 569 594 C571.766 594 573.636 597.773 573.353 600.525 C569.659 636.479 562.221 690.257 557.695 729.603 C556.426 740.634 545.507 749.972 534.403 749.94 L534.403 749.94 Z " />
<glyph glyph-name="Edieresis" unicode="&#xcb;" horiz-adv-x="652" d="M425 865 C453 865 480 892 480 920 C480 948 453 975 425 975 C397 975 370 948 370 920 C370 892 397 865 425 865 L425 865 Z M275 865 C303 865 330 892 330 920 C330 948 303 975 275 975 C247 975 220 948 220 920 C220 892 247 865 275 865 L275 865 Z M534.403 749.94 L48.035 748.523 C47.6082 748.522 47.575 747.79 48 747.75 L53.3773 747.246 C53.4073 747.243 59.3423 746.918 59.3725 746.916 C103.172 744.749 145 700.85 145 656 L145 94 C145 49.15 103.173 5.25063 59.3725 3.08369 C59.3423 3.0822 53.4073 2.75693 53.3773 2.75412 L48 2.25 C47.5756 2.21021 47.6088 1.47886 48.035 1.47768 L574.449 0.0154191 C577.486 0.00698311 580.34 2.49088 580.75 5.5 L581.5 11 C587.346 45.1026 598.414 107.686 604.528 143.25 C604.989 145.931 602.721 146 600 146 C597.368 146 594.287 143.742 593.494 141.232 L589 127 C573 73 495 21 431 21 L333 21 C266 21 245 54 245 88 L245 328.68 C245 359.767 270.233 385 301.32 385 L366 385 C417 385 472 336 479 284 L483.273 254.947 C483.67 252.245 486.27 250 489 250 C491.76 250 494.008 252.24 494.019 255 L494.5 385 L494.5 409 L494.019 539 C494.008 541.76 491.76 544 489 544 C486.27 544 483.67 541.755 483.273 539.053 L479 510 C472 458 417 409 366 409 L301.32 409 C270.233 409 245 434.233 245 465.32 L245 672.68 C245 703.767 270.233 729 301.32 729 L429 729 C481 729 542 680 555 628 L562.721 598.834 C563.403 596.254 566.332 594 569 594 C571.766 594 573.636 597.773 573.353 600.525 C569.659 636.479 562.221 690.257 557.695 729.603 C556.426 740.634 545.507 749.972 534.403 749.94 L534.403 749.94 Z " />
<glyph glyph-name="Igrave" unicode="&#xcc;" horiz-adv-x="385" d="M-14 996 C-14 989 17 959 50 932 L186.059 817.02 C189.327 814.259 194.475 814.475 197.5 817.5 C200.511 820.511 200.852 825.789 198.254 829.162 L89 971 C63 1005 34 1038 28 1038 C9 1038 -14 1015 -14 996 L-14 996 Z M311 3 C275 3 240 38 240 74 L240 676 C240 711.1 273.272 745.249 308.302 746.935 C308.356 746.937 313.938 747.315 313.991 747.321 L318 747.75 C318.412 747.794 318.374 748.5 317.96 748.5 L62.0401 748.5 C61.6261 748.5 61.5884 747.794 62 747.75 L66.0086 747.321 C66.0617 747.315 71.6442 746.937 71.6976 746.935 C106.728 745.249 140 711.1 140 676 L140 74 C140 38.9 106.728 4.75063 71.6976 3.06509 C71.6442 3.06252 66.0617 2.68519 66.0086 2.67949 L62 2.25 C61.5884 2.2059 61.6261 1.5 62.0401 1.5 L318 1.5 L311 3 Z " />
<glyph glyph-name="Iacute" unicode="&#xcd;" horiz-adv-x="385" d="M203.941 817.02 L340 932 C373 960 404 991 404 996 C404 1015 381 1038 362 1038 C357 1038 328 1005 301 971 L191.746 829.162 C189.148 825.789 189.489 820.511 192.5 817.5 C195.525 814.475 200.673 814.259 203.941 817.02 L203.941 817.02 Z M311 3 C275 3 240 38 240 74 L240 676 C240 711.1 273.272 745.249 308.302 746.935 C308.356 746.937 313.938 747.315 313.991 747.321 L318 747.75 C318.412 747.794 318.374 748.5 317.96 748.5 L62.0401 748.5 C61.6261 748.5 61.5884 747.794 62 747.75 L66.0086 747.321 C66.0617 747.315 71.6442 746.937 71.6976 746.935 C106.728 745.249 140 711.1 140 676 L140 74 C140 38.9 106.728 4.75063 71.6976 3.06509 C71.6442 3.06252 66.0617 2.68519 66.0086 2.67949 L62 2.25 C61.5884 2.2059 61.6261 1.5 62.0401 1.5 L318 1.5 L311 3 Z " />
<glyph glyph-name="Icircumflex" unicode="&#xce;" horiz-adv-x="385" d="M220 1005 C215 1013 198 1035 190 1035 C182 1035 165 1013 160 1005 L42.2357 822.562 C39.915 818.967 40.7126 813.739 44 811 C47.2971 808.252 52.4968 808.479 55.5424 811.503 L150.319 905.602 C172.221 927.348 207.779 927.348 229.681 905.602 L324.458 811.503 C327.503 808.479 332.703 808.252 336 811 C339.287 813.739 340.085 818.967 337.764 822.562 L220 1005 L220 1005 Z M311 3 C275 3 240 38 240 74 L240 676 C240 711.1 273.272 745.249 308.302 746.935 C308.356 746.937 313.938 747.315 313.991 747.321 L318 747.75 C318.412 747.794 318.374 748.5 317.96 748.5 L62.0401 748.5 C61.6261 748.5 61.5884 747.794 62 747.75 L66.0086 747.321 C66.0617 747.315 71.6442 746.937 71.6976 746.935 C106.728 745.249 140 711.1 140 676 L140 74 C140 38.9 106.728 4.75063 71.6976 3.06509 C71.6442 3.06252 66.0617 2.68519 66.0086 2.67949 L62 2.25 C61.5884 2.2059 61.6261 1.5 62.0401 1.5 L318 1.5 L311 3 Z " />
<glyph glyph-name="Idieresis" unicode="&#xcf;" horiz-adv-x="385" d="M265 865 C293 865 320 892 320 920 C320 948 293 975 265 975 C237 975 210 948 210 920 C210 892 237 865 265 865 L265 865 Z M115 865 C143 865 170 892 170 920 C170 948 143 975 115 975 C87 975 60 948 60 920 C60 892 87 865 115 865 L115 865 Z M311 3 C275 3 240 38 240 74 L240 676 C240 711.1 273.272 745.249 308.302 746.935 C308.356 746.937 313.938 747.315 313.991 747.321 L318 747.75 C318.412 747.794 318.374 748.5 317.96 748.5 L62.0401 748.5 C61.6261 748.5 61.5884 747.794 62 747.75 L66.0086 747.321 C66.0617 747.315 71.6442 746.937 71.6976 746.935 C106.728 745.249 140 711.1 140 676 L140 74 C140 38.9 106.728 4.75063 71.6976 3.06509 C71.6442 3.06252 66.0617 2.68519 66.0086 2.67949 L62 2.25 C61.5884 2.2059 61.6261 1.5 62.0401 1.5 L318 1.5 L311 3 Z " />
<glyph glyph-name="Ntilde" unicode="&#xd1;" horiz-adv-x="786" d="M249.363 877.106 C252.231 905.29 271.615 930 291 930 C335 930 420 865 464 865 C502.95 865 540.997 918.248 544.705 975.872 C544.988 980.269 541.906 985 537.5 985 C533.808 985 530.021 981.741 529.622 978.07 C526.55 949.813 505.275 925 484 925 C440 925 354 990 310 990 C272.95 990 237.705 936.752 234.273 879.128 C234.012 874.75 237.114 870 241.5 870 C245.221 870 248.987 873.404 249.363 877.106 L249.363 877.106 Z M59.8235 0.0511761 L245.96 1.4472 C246.403 1.45052 246.44 2.20281 246 2.25 L241.991 2.67949 C241.938 2.68519 236.356 3.06252 236.302 3.06509 C201.272 4.75062 168 38.9 168 74 L165.704 485.692 C165.477 526.497 219.159 537.85 243.23 504.9 C362.455 341.7 481.791 178.5 601.752 15.3 C604.386 11.7158 618.552 0 623 0 C628.519 0 633.046 4.48035 633.103 9.99947 L640 681 C642.925 714.15 675.319 745.399 708.45 746.94 C708.507 746.943 713.935 747.315 713.991 747.321 L718 747.75 C718.412 747.794 718.374 748.5 717.96 748.5 L532.04 748.5 C531.626 748.5 531.588 747.794 532 747.75 L536.009 747.321 C536.062 747.315 541.644 746.937 541.698 746.935 C576.728 745.249 610 711.1 610 676 L610.763 290.805 C610.84 251.698 559.656 240.865 536.537 272.406 C426.734 422.205 317.427 572.394 208.15 722.043 C200.521 732.49 171.077 750.885 158.14 750.791 L-12.9601 749.551 C-13.4021 749.548 -13.4394 748.797 -13 748.75 L-8.99141 748.321 C-8.93521 748.314 -3.31053 747.938 -3.25406 747.935 C33.0281 746.249 91.65 712.1 117 677 L127.5 663 C130.985 658.353 137.98 637.309 137.97 631.5 L137 75 C137 40.8 105.413 7.5025 71.3882 4.25825 C71.3464 4.25426 61.9372 3.3981 61.8956 3.39194 L59.25 3 C58.7316 2.92321 59.2995 0.0472461 59.8235 0.0511761 L59.8235 0.0511761 Z " />
<glyph glyph-name="Ograve" unicode="&#xd2;" horiz-adv-x="851" d="M159 375 C159 559 284 735 414 735 C553 735 687 559 687 375 C687 191 553 15 413 15 C283 15 159 191 159 375 L159 375 Z M50 375 C50 179 225 -10 408 -10 C606 -10 796 179 796 375 C796 571 611 760 418 760 C230 760 50 571 50 375 L50 375 Z M214 996 C214 989 245 959 278 932 L414.059 817.02 C417.327 814.259 422.475 814.475 425.5 817.5 C428.511 820.511 428.852 825.789 426.254 829.162 L317 971 C291 1005 262 1038 256 1038 C237 1038 214 1015 214 996 L214 996 Z " />
<glyph glyph-name="Oacute" unicode="&#xd3;" horiz-adv-x="851" d="M431.941 817.02 L568 932 C601 960 632 991 632 996 C632 1015 609 1038 590 1038 C585 1038 556 1005 529 971 L419.746 829.162 C417.148 825.789 417.489 820.511 420.5 817.5 C423.525 814.475 428.673 814.259 431.941 817.02 L431.941 817.02 Z M159 375 C159 559 284 735 414 735 C553 735 687 559 687 375 C687 191 553 15 413 15 C283 15 159 191 159 375 L159 375 Z M50 375 C50 179 225 -10 408 -10 C606 -10 796 179 796 375 C796 571 611 760 418 760 C230 760 50 571 50 375 L50 375 Z " />
<glyph glyph-name="Ocircumflex" unicode="&#xd4;" horiz-adv-x="851" d="M159 375 C159 559 284 735 414 735 C553 735 687 559 687 375 C687 191 553 15 413 15 C283 15 159 191 159 375 L159 375 Z M50 375 C50 179 225 -10 408 -10 C606 -10 796 179 796 375 C796 571 611 760 418 760 C230 760 50 571 50 375 L50 375 Z M448 1005 C443 1013 426 1035 418 1035 C410 1035 393 1013 388 1005 L270.236 822.562 C267.915 818.967 268.713 813.739 272 811 C275.297 808.252 280.497 808.479 283.542 811.503 L378.319 905.602 C400.221 927.348 435.779 927.348 457.681 905.602 L552.458 811.503 C555.503 808.479 560.703 808.252 564 811 C567.287 813.739 568.085 818.967 565.764 822.562 L448 1005 L448 1005 Z " />
<glyph glyph-name="Otilde" unicode="&#xd5;" horiz-adv-x="851" d="M278.346 877.106 C281.083 905.29 299.615 930 319 930 C363 930 448 865 492 865 C530.95 865 568.998 918.248 572.705 975.872 C572.988 980.269 569.906 985 565.5 985 C561.808 985 558.021 981.741 557.622 978.07 C554.55 949.813 533.275 925 512 925 C468 925 383 990 339 990 C301.95 990 266.705 936.752 263.273 879.128 C263.012 874.75 266.114 870 270.5 870 C274.24 870 277.985 873.384 278.346 877.106 L278.346 877.106 Z M159 375 C159 559 284 735 414 735 C553 735 687 559 687 375 C687 191 553 15 413 15 C283 15 159 191 159 375 L159 375 Z M50 375 C50 179 225 -10 408 -10 C606 -10 796 179 796 375 C796 571 611 760 418 760 C230 760 50 571 50 375 L50 375 Z " />
<glyph glyph-name="Odieresis" unicode="&#xd6;" horiz-adv-x="851" d="M493 865 C521 865 548 892 548 920 C548 948 521 975 493 975 C465 975 438 948 438 920 C438 892 465 865 493 865 L493 865 Z M343 865 C371 865 398 892 398 920 C398 948 371 975 343 975 C315 975 288 948 288 920 C288 892 315 865 343 865 L343 865 Z M159 375 C159 559 284 735 414 735 C553 735 687 559 687 375 C687 191 553 15 413 15 C283 15 159 191 159 375 L159 375 Z M50 375 C50 179 225 -10 408 -10 C606 -10 796 179 796 375 C796 571 611 760 418 760 C230 760 50 571 50 375 L50 375 Z " />
<glyph glyph-name="Oslash" unicode="&#xd8;" horiz-adv-x="851" d="M66.0785 -25.9196 C67.8043 -24.1525 97.8952 6.66019 149.051 59.2189 C164.112 74.6922 196.941 73.1131 214.163 60.0874 C271.731 16.5444 339.525 -10 408 -10 C606 -10 796 179 796 375 C796 456 764.41 536.19 713.623 602.448 C704.993 613.707 706.223 634.756 716.037 645 C742.86 673 770.088 701 797.377 729 C806.092 737.942 804.829 751.171 796 760 C787.167 768.833 774.095 769.945 765.377 761 C738.088 733 710.86 705 684.037 677 C674.235 666.769 654.01 665.281 643.018 674.221 C578.38 726.79 499 760 418 760 C230 760 50 571 50 375 C50 299.1 75.8637 224.561 118.045 161.491 C130.331 143.121 132.405 107.994 116.991 92.1581 C64.0675 37.79 33 6 33 6 C33 6 40.4279 -1.20276 49.5 -10 C58.6079 -18.8319 57.2142 -34.9958 66.0785 -25.9196 L66.0785 -25.9196 Z M579.664 569.331 C447.028 431.723 324.579 305.024 229.513 206.43 C217.349 193.815 197.76 195.926 191.343 212.234 C171.571 262.481 160 317.9 160 374 C160 558 285 734 415 734 C477.7 734 538.358 698.948 586.867 643.443 C605.576 622.036 599.394 589.801 579.664 569.331 L579.664 569.331 Z M655.615 534.291 C676.749 484.869 689 430.275 689 375 C689 191 555 15 415 15 C357.25 15 300.861 49.0313 255.941 103.056 C238.228 124.359 242.431 153.813 261.731 173.689 C357.874 272.706 482.268 401.272 617.101 540.351 C629.538 553.18 648.59 550.719 655.615 534.291 L655.615 534.291 Z " />
<glyph glyph-name="Ugrave" unicode="&#xd9;" horiz-adv-x="760" d="M174 996 C174 989 205 959 238 932 L374.323 816.798 C377.454 814.151 382.242 814.466 385 817.5 C387.715 820.486 387.938 825.7 385.489 828.908 L277 971 C251 1005 223 1038 216 1038 C197 1038 174 1015 174 996 L174 996 Z M723 37 L716 35 C680 25 645 51 645 87 L645 693.222 C645 724.56 619.561 749.794 588.223 749.54 L467.04 748.557 C466.595 748.553 466.557 747.797 467 747.75 L471.009 747.321 C471.062 747.315 476.644 746.937 476.698 746.935 C511.728 745.249 545 711.1 545 676 L545 202.424 C545 198.375 541.671 183.195 539.673 179.673 C502.672 114.467 405.25 54 334 54 C271 54 210 135 210 220 L210 693.222 C210 724.56 184.561 749.794 153.223 749.54 L32.0398 748.557 C31.5946 748.553 31.5572 747.797 32 747.75 L36.0086 747.321 C36.0617 747.315 41.6442 746.937 41.6976 746.935 C76.7281 745.249 110 711.1 110 676 L110 220 C110 103 200 -10 294 -10 C371.35 -10 471.82 44.91 522.943 109.899 C528.86 117.421 545 110.953 545 101.382 L545 25 C545 11.2007 556.201 0 570 0 L592.45 0 C592.769 0 596.803 0.377831 597.114 0.444805 C607.384 2.65551 645 11.1714 645 13 C672.821 20.1795 702.252 29.3725 723.175 35.5194 C723.175 35.5194 723 37 723 37 L723 37 Z " />
<glyph glyph-name="Uacute" unicode="&#xda;" horiz-adv-x="760" d="M390.677 816.798 L527 932 C560 960 591 991 591 996 C591 1015 568 1038 549 1038 C544 1038 515 1005 488 971 L379.511 828.908 C377.062 825.7 377.285 820.486 380 817.5 C382.758 814.466 387.546 814.151 390.677 816.798 L390.677 816.798 Z M723 37 L716 35 C680 25 645 51 645 87 L645 693.222 C645 724.56 619.561 749.794 588.223 749.54 L467.04 748.557 C466.595 748.553 466.557 747.797 467 747.75 L471.009 747.321 C471.062 747.315 476.644 746.937 476.698 746.935 C511.728 745.249 545 711.1 545 676 L545 202.424 C545 198.375 541.671 183.195 539.673 179.673 C502.672 114.467 405.25 54 334 54 C271 54 210 135 210 220 L210 693.222 C210 724.56 184.561 749.794 153.223 749.54 L32.0398 748.557 C31.5946 748.553 31.5572 747.797 32 747.75 L36.0086 747.321 C36.0617 747.315 41.6442 746.937 41.6976 746.935 C76.7281 745.249 110 711.1 110 676 L110 220 C110 103 200 -10 294 -10 C371.35 -10 471.82 44.91 522.943 109.899 C528.86 117.421 545 110.953 545 101.382 L545 25 C545 11.2007 556.201 0 570 0 L592.45 0 C592.769 0 596.803 0.377831 597.114 0.444805 C607.384 2.65551 645 11.1714 645 13 C672.821 20.1795 702.252 29.3725 723.175 35.5194 C723.175 35.5194 723 37 723 37 L723 37 Z " />
<glyph glyph-name="Ucircumflex" unicode="&#xdb;" horiz-adv-x="760" d="M408 1005 C403 1013 386 1035 378 1035 C370 1035 353 1013 348 1005 L230.031 822.245 C227.836 818.845 228.505 813.723 231.5 811 C234.532 808.244 239.367 808.35 242.275 811.237 L337.46 905.742 C359.284 927.41 394.779 927.473 416.68 905.883 L512.707 811.218 C515.624 808.342 520.469 808.244 523.5 811 C526.493 813.721 527.173 818.854 524.992 822.26 L408 1005 L408 1005 Z M723 37 L716 35 C680 25 645 51 645 87 L645 693.222 C645 724.56 619.561 749.794 588.223 749.54 L467.04 748.557 C466.595 748.553 466.557 747.797 467 747.75 L471.009 747.321 C471.062 747.315 476.644 746.937 476.698 746.935 C511.728 745.249 545 711.1 545 676 L545 202.424 C545 198.375 541.671 183.195 539.673 179.673 C502.672 114.467 405.25 54 334 54 C271 54 210 135 210 220 L210 693.222 C210 724.56 184.561 749.794 153.223 749.54 L32.0398 748.557 C31.5946 748.553 31.5572 747.797 32 747.75 L36.0086 747.321 C36.0617 747.315 41.6442 746.937 41.6976 746.935 C76.7281 745.249 110 711.1 110 676 L110 220 C110 103 200 -10 294 -10 C371.35 -10 471.82 44.91 522.943 109.899 C528.86 117.421 545 110.953 545 101.382 L545 25 C545 11.2007 556.201 0 570 0 L592.45 0 C592.769 0 596.803 0.377831 597.114 0.444805 C607.384 2.65551 645 11.1714 645 13 C672.821 20.1795 702.252 29.3725 723.175 35.5194 C723.175 35.5194 723 37 723 37 L723 37 Z " />
<glyph glyph-name="Udieresis" unicode="&#xdc;" horiz-adv-x="760" d="M453 865 C481 865 508 892 508 920 C508 948 481 975 453 975 C425 975 398 948 398 920 C398 892 425 865 453 865 L453 865 Z M303 865 C331 865 358 892 358 920 C358 948 331 975 303 975 C275 975 248 948 248 920 C248 892 275 865 303 865 L303 865 Z M723 37 L716 35 C680 25 645 51 645 87 L645 693.222 C645 724.56 619.561 749.794 588.223 749.54 L467.04 748.557 C466.595 748.553 466.557 747.797 467 747.75 L471.009 747.321 C471.062 747.315 476.644 746.937 476.698 746.935 C511.728 745.249 545 711.1 545 676 L545 202.424 C545 198.375 541.671 183.195 539.673 179.673 C502.672 114.467 405.25 54 334 54 C271 54 210 135 210 220 L210 693.222 C210 724.56 184.561 749.794 153.223 749.54 L32.0398 748.557 C31.5946 748.553 31.5572 747.797 32 747.75 L36.0086 747.321 C36.0617 747.315 41.6442 746.937 41.6976 746.935 C76.7281 745.249 110 711.1 110 676 L110 220 C110 103 200 -10 294 -10 C371.35 -10 471.82 44.91 522.943 109.899 C528.86 117.421 545 110.953 545 101.382 L545 25 C545 11.2007 556.201 0 570 0 L592.45 0 C592.769 0 596.803 0.377831 597.114 0.444805 C607.384 2.65551 645 11.1714 645 13 C672.821 20.1795 702.252 29.3725 723.175 35.5194 C723.175 35.5194 723 37 723 37 L723 37 Z " />
<glyph glyph-name="Yacute" unicode="&#xdd;" horiz-adv-x="764" d="M403.941 817.02 L540 932 C573 960 604 991 604 996 C604 1015 581 1038 562 1038 C557 1038 528 1005 501 971 L391.746 829.162 C389.148 825.789 389.489 820.511 392.5 817.5 C395.525 814.475 400.673 814.259 403.941 817.02 L403.941 817.02 Z M275.479 749.93 L3.05587 748.526 C2.62768 748.524 2.57654 747.814 3 747.75 L3.84597 747.623 C3.86728 747.62 12.6483 746.729 12.6697 746.727 C43.2788 743.295 92.75 708.05 116.5 671 L331.108 335.885 C333.755 331.752 340 310.42 340 305.512 L340 94 C340 49.15 298.172 5.25063 254.372 3.08369 C254.342 3.0822 248.407 2.75693 248.377 2.75412 L243 2.25 C242.588 2.21136 242.621 1.5 243.035 1.5 L536.965 1.5 C537.379 1.5 537.412 2.21136 537 2.25 L531.623 2.75412 C531.593 2.75693 525.658 3.0822 525.628 3.08369 C481.827 5.25062 440 49.15 440 94 L440 310.384 C440 314.299 443.019 330.426 444.921 333.848 C507.231 445.948 568.641 558.949 631 671 C652 710 710 747 748 747 L757.5 747.75 C757.913 747.783 757.884 748.5 757.47 748.5 L523.012 748.5 C522.598 748.5 522.586 747.763 523 747.75 L547 747 C585 747 604 710 585 671 L474.744 446.93 C453.771 404.308 401.529 401.696 376.409 442.014 L230 677 C211 714 225 747 262 747 L275.5 747.75 C275.875 747.771 275.855 749.932 275.479 749.93 L275.479 749.93 Z " />
<glyph glyph-name="agrave" unicode="&#xe0;" horiz-adv-x="514" d="M516.5 105.5 C512.963 107.151 508.025 104.225 506.751 100.536 C498.56 76.8144 475.579 56 455 56 C427 56 400 79 400 102 L400 355 C400 446 331 510 259 510 C160 510 65 406 65 360 C65 329 89 300 114 300 C137 300 159 328 159 343 C159 358 139 388 139 403 C139 428 183 484 229 484 C273 484 316 443 316 386 L316 306.433 C316 285.13 296.067 258.81 275.848 252.105 C117.728 199.671 45 153.675 45 88 C45 38 100 -10 158 -10 C188.6 -10 245.93 19.16 300.101 66.545 C307.204 72.758 322.262 67.1181 326.375 58.6253 C344.161 21.9056 382.4 -6 422 -6 C462.85 -6 510.017 41.3812 523.206 93.275 C524.392 97.9438 520.865 103.463 516.5 105.5 L516.5 105.5 Z M57 745 C57 738 88 708 121 681 L257.059 566.02 C260.327 563.259 265.475 563.475 268.5 566.5 C271.511 569.511 271.852 574.789 269.254 578.162 L160 720 C134 754 105 787 99 787 C80 787 57 764 57 745 L57 745 Z M317 177.425 L317 125.329 C317 114.734 309.367 94.3765 301.4 87.3926 C264.609 55.1406 226 36 205 36 C168 36 132 66 132 98 C132 154.925 171.476 190.751 256.605 224.007 C290.846 237.383 317 214.185 317 177.425 L317 177.425 Z " />
<glyph glyph-name="aacute" unicode="&#xe1;" horiz-adv-x="514" d="M272.941 567.02 L409 682 C442 710 473 741 473 746 C473 765 450 788 431 788 C426 788 397 755 370 721 L260.746 579.162 C258.148 575.789 258.489 570.511 261.5 567.5 C264.525 564.475 269.673 564.259 272.941 567.02 L272.941 567.02 Z M516.5 105.5 C512.963 107.151 508.025 104.225 506.751 100.536 C498.56 76.8144 475.579 56 455 56 C427 56 400 79 400 102 L400 355 C400 446 331 510 259 510 C160 510 65 406 65 360 C65 329 89 300 114 300 C137 300 159 328 159 343 C159 358 139 388 139 403 C139 428 183 484 229 484 C273 484 316 443 316 386 L316 306.433 C316 285.13 296.067 258.81 275.848 252.105 C117.728 199.671 45 153.675 45 88 C45 38 100 -10 158 -10 C188.6 -10 245.93 19.16 300.101 66.545 C307.204 72.758 322.262 67.1181 326.375 58.6253 C344.161 21.9056 382.4 -6 422 -6 C462.85 -6 510.017 41.3812 523.206 93.275 C524.392 97.9438 520.865 103.463 516.5 105.5 L516.5 105.5 Z M317 177.425 L317 125.329 C317 114.734 309.367 94.3765 301.4 87.3926 C264.609 55.1406 226 36 205 36 C168 36 132 66 132 98 C132 154.925 171.476 190.751 256.605 224.007 C290.846 237.383 317 214.185 317 177.425 L317 177.425 Z " />
<glyph glyph-name="acircumflex" unicode="&#xe2;" horiz-adv-x="514" d="M516.5 105.5 C512.963 107.151 508.025 104.225 506.751 100.536 C498.56 76.8144 475.579 56 455 56 C427 56 400 79 400 102 L400 355 C400 446 331 510 259 510 C160 510 65 406 65 360 C65 329 89 300 114 300 C137 300 159 328 159 343 C159 358 139 388 139 403 C139 428 183 484 229 484 C273 484 316 443 316 386 L316 306.433 C316 285.13 296.067 258.81 275.848 252.105 C117.728 199.671 45 153.675 45 88 C45 38 100 -10 158 -10 C188.6 -10 245.93 19.16 300.101 66.545 C307.204 72.758 322.262 67.1181 326.375 58.6253 C344.161 21.9056 382.4 -6 422 -6 C462.85 -6 510.017 41.3812 523.206 93.275 C524.392 97.9438 520.865 103.463 516.5 105.5 L516.5 105.5 Z M291 754 C286 762 269 784 261 784 C253 784 236 762 231 754 L113.236 571.562 C110.915 567.967 111.713 562.739 115 560 C118.297 557.252 123.497 557.479 126.542 560.503 L221.319 654.602 C243.221 676.348 278.779 676.348 300.681 654.602 L395.458 560.503 C398.503 557.479 403.703 557.252 407 560 C410.287 562.739 411.085 567.967 408.764 571.562 L291 754 L291 754 Z M317 177.425 L317 125.329 C317 114.734 309.367 94.3765 301.4 87.3926 C264.609 55.1406 226 36 205 36 C168 36 132 66 132 98 C132 154.925 171.476 190.751 256.605 224.007 C290.846 237.383 317 214.185 317 177.425 L317 177.425 Z " />
<glyph glyph-name="atilde" unicode="&#xe3;" horiz-adv-x="514" d="M119.346 627.106 C122.083 655.29 140.615 680 160 680 C204 680 289 615 333 615 C371.95 615 409.997 668.248 413.705 725.872 C413.988 730.269 410.906 735 406.5 735 C402.808 735 399.021 731.741 398.622 728.07 C395.55 699.813 374.275 675 353 675 C309 675 224 740 180 740 C142.95 740 107.705 686.752 104.273 629.128 C104.012 624.75 107.114 620 111.5 620 C115.24 620 118.985 623.384 119.346 627.106 L119.346 627.106 Z M516.5 105.5 C512.963 107.151 508.025 104.225 506.751 100.536 C498.56 76.8144 475.579 56 455 56 C427 56 400 79 400 102 L400 355 C400 446 331 510 259 510 C160 510 65 406 65 360 C65 329 89 300 114 300 C137 300 159 328 159 343 C159 358 139 388 139 403 C139 428 183 484 229 484 C273 484 316 443 316 386 L316 306.433 C316 285.13 296.067 258.81 275.848 252.105 C117.728 199.671 45 153.675 45 88 C45 38 100 -10 158 -10 C188.6 -10 245.93 19.16 300.101 66.545 C307.204 72.758 322.262 67.1181 326.375 58.6253 C344.161 21.9056 382.4 -6 422 -6 C462.85 -6 510.017 41.3812 523.206 93.275 C524.392 97.9438 520.865 103.463 516.5 105.5 L516.5 105.5 Z M317 177.425 L317 125.329 C317 114.734 309.367 94.3765 301.4 87.3926 C264.609 55.1406 226 36 205 36 C168 36 132 66 132 98 C132 154.925 171.476 190.751 256.605 224.007 C290.846 237.383 317 214.185 317 177.425 L317 177.425 Z " />
<glyph glyph-name="adieresis" unicode="&#xe4;" horiz-adv-x="514" d="M334 615 C362 615 389 642 389 670 C389 698 362 725 334 725 C306 725 279 698 279 670 C279 642 306 615 334 615 L334 615 Z M184 615 C212 615 239 642 239 670 C239 698 212 725 184 725 C156 725 129 698 129 670 C129 642 156 615 184 615 L184 615 Z M516.5 105.5 C512.963 107.151 508.025 104.225 506.751 100.536 C498.56 76.8144 475.579 56 455 56 C427 56 400 79 400 102 L400 355 C400 446 331 510 259 510 C160 510 65 406 65 360 C65 329 89 300 114 300 C137 300 159 328 159 343 C159 358 139 388 139 403 C139 428 183 484 229 484 C273 484 316 443 316 386 L316 306.433 C316 285.13 296.067 258.81 275.848 252.105 C117.728 199.671 45 153.675 45 88 C45 38 100 -10 158 -10 C188.6 -10 245.93 19.16 300.101 66.545 C307.204 72.758 322.262 67.1181 326.375 58.6253 C344.161 21.9056 382.4 -6 422 -6 C462.85 -6 510.017 41.3812 523.206 93.275 C524.392 97.9438 520.865 103.463 516.5 105.5 L516.5 105.5 Z M317 177.425 L317 125.329 C317 114.734 309.367 94.3765 301.4 87.3926 C264.609 55.1406 226 36 205 36 C168 36 132 66 132 98 C132 154.925 171.476 190.751 256.605 224.007 C290.846 237.383 317 214.185 317 177.425 L317 177.425 Z " />
<glyph glyph-name="aring" unicode="&#xe5;" horiz-adv-x="514" d="M187 655 C187 693 222 730 259 730 C296 730 332 693 332 655 C332 621 293 580 259 580 C226 580 187 621 187 655 L187 655 Z M162 655 C162 611 214 560 259 560 C304 560 357 611 357 655 C357 703 309 750 259 750 C210 750 162 703 162 655 L162 655 Z M516.5 105.5 C512.963 107.151 508.025 104.225 506.751 100.536 C498.56 76.8144 475.579 56 455 56 C427 56 400 79 400 102 L400 355 C400 446 331 510 259 510 C160 510 65 406 65 360 C65 329 89 300 114 300 C137 300 159 328 159 343 C159 358 139 388 139 403 C139 428 183 484 229 484 C273 484 316 443 316 386 L316 306.433 C316 285.13 296.067 258.81 275.848 252.105 C117.728 199.671 45 153.675 45 88 C45 38 100 -10 158 -10 C188.6 -10 245.93 19.16 300.101 66.545 C307.204 72.758 322.262 67.1181 326.375 58.6253 C344.161 21.9056 382.4 -6 422 -6 C462.85 -6 510.017 41.3812 523.206 93.275 C524.392 97.9438 520.865 103.463 516.5 105.5 L516.5 105.5 Z M317 177.425 L317 125.329 C317 114.734 309.367 94.3765 301.4 87.3926 C264.609 55.1406 226 36 205 36 C168 36 132 66 132 98 C132 154.925 171.476 190.751 256.605 224.007 C290.846 237.383 317 214.185 317 177.425 L317 177.425 Z " />
<glyph glyph-name="egrave" unicode="&#xe8;" horiz-adv-x="540" d="M97 746 C97 739 128 709 161 682 L297.059 567.02 C300.327 564.259 305.475 564.475 308.5 567.5 C311.511 570.511 311.852 575.789 309.254 579.162 L200 721 C174 755 145 788 139 788 C120 788 97 765 97 746 L97 746 Z M154.769 340 L457.227 340 C492.515 340 509 359.255 493.504 390.959 C457.276 465.079 376.075 510 301 510 C170 510 45 402 45 231 C45 108 159 -10 278 -10 C361.85 -10 465.663 56.5438 495.827 127.532 C497.106 130.542 495.655 133.639 492.5 134.5 C489.916 135.205 485.155 131.486 483.898 129.12 C460.83 85.71 374 46 298 46 C215 46 135 154 135 266 C135 288.909 137.16 310.018 140.868 329.939 C142.074 336.412 148.184 340 154.769 340 L154.769 340 Z M369.616 364.383 L191.007 361.657 C165.702 361.27 152.793 378.546 164.597 400.932 C195.031 458.649 244.675 492 295 492 C331.3 492 371.684 458.649 396.498 403.178 C406.381 381.086 393.815 364.753 369.616 364.383 L369.616 364.383 Z " />
<glyph glyph-name="eacute" unicode="&#xe9;" horiz-adv-x="540" d="M314.941 567.02 L451 682 C484 710 515 741 515 746 C515 765 492 788 473 788 C468 788 439 755 412 721 L302.746 579.162 C300.148 575.789 300.489 570.511 303.5 567.5 C306.525 564.475 311.673 564.259 314.941 567.02 L314.941 567.02 Z M154.769 340 L457.227 340 C492.515 340 509 359.255 493.504 390.959 C457.276 465.079 376.075 510 301 510 C170 510 45 402 45 231 C45 108 159 -10 278 -10 C361.85 -10 465.663 56.5438 495.827 127.532 C497.106 130.542 495.655 133.639 492.5 134.5 C489.916 135.205 485.155 131.486 483.898 129.12 C460.83 85.71 374 46 298 46 C215 46 135 154 135 266 C135 288.909 137.16 310.018 140.868 329.939 C142.074 336.412 148.184 340 154.769 340 L154.769 340 Z M369.616 364.383 L191.007 361.657 C165.702 361.27 152.793 378.546 164.597 400.932 C195.031 458.649 244.675 492 295 492 C331.3 492 371.684 458.649 396.498 403.178 C406.381 381.086 393.815 364.753 369.616 364.383 L369.616 364.383 Z " />
<glyph glyph-name="ecircumflex" unicode="&#xea;" horiz-adv-x="540" d="M331 755 C326 763 309 785 301 785 C293 785 276 763 271 755 L153.236 572.562 C150.915 568.967 151.713 563.739 155 561 C158.297 558.252 163.497 558.479 166.542 561.503 L261.319 655.602 C283.221 677.348 318.779 677.348 340.681 655.602 L435.458 561.503 C438.503 558.479 443.703 558.252 447 561 C450.287 563.739 451.085 568.967 448.764 572.562 L331 755 L331 755 Z M154.769 340 L457.227 340 C492.515 340 509 359.255 493.504 390.959 C457.276 465.079 376.075 510 301 510 C170 510 45 402 45 231 C45 108 159 -10 278 -10 C361.85 -10 465.663 56.5438 495.827 127.532 C497.106 130.542 495.655 133.639 492.5 134.5 C489.916 135.205 485.155 131.486 483.898 129.12 C460.83 85.71 374 46 298 46 C215 46 135 154 135 266 C135 288.909 137.16 310.018 140.868 329.939 C142.074 336.412 148.184 340 154.769 340 L154.769 340 Z M369.616 364.383 L191.007 361.657 C165.702 361.27 152.793 378.546 164.597 400.932 C195.031 458.649 244.675 492 295 492 C331.3 492 371.684 458.649 396.498 403.178 C406.381 381.086 393.815 364.753 369.616 364.383 L369.616 364.383 Z " />
<glyph glyph-name="edieresis" unicode="&#xeb;" horiz-adv-x="540" d="M376 615 C404 615 431 642 431 670 C431 698 404 725 376 725 C348 725 321 698 321 670 C321 642 348 615 376 615 L376 615 Z M226 615 C254 615 281 642 281 670 C281 698 254 725 226 725 C198 725 171 698 171 670 C171 642 198 615 226 615 L226 615 Z M154.769 340 L457.227 340 C492.515 340 509 359.255 493.504 390.959 C457.276 465.079 376.075 510 301 510 C170 510 45 402 45 231 C45 108 159 -10 278 -10 C361.85 -10 465.663 56.5438 495.827 127.532 C497.106 130.542 495.655 133.639 492.5 134.5 C489.916 135.205 485.155 131.486 483.898 129.12 C460.83 85.71 374 46 298 46 C215 46 135 154 135 266 C135 288.909 137.16 310.018 140.868 329.939 C142.074 336.412 148.184 340 154.769 340 L154.769 340 Z M369.616 364.383 L191.007 361.657 C165.702 361.27 152.793 378.546 164.597 400.932 C195.031 458.649 244.675 492 295 492 C331.3 492 371.684 458.649 396.498 403.178 C406.381 381.086 393.815 364.753 369.616 364.383 L369.616 364.383 Z " />
<glyph glyph-name="igrave" unicode="&#xec;" horiz-adv-x="320" d="M-36 746 C-36 739 -5 709 28 682 L164.323 566.798 C167.454 564.151 172.242 564.466 175 567.5 C177.715 570.486 177.938 575.7 175.489 578.908 L67 721 C41 755 13 788 6 788 C-13 788 -36 765 -36 746 L-36 746 Z M74.0359 471.872 L89 476 C107 481 125 468 125 450 L125 39 C125 21 107 3 89 3 L74.5 2.25 C74.0866 2.22862 74.1054 1.5 74.5194 1.5 L260.481 1.5 C260.895 1.5 260.913 2.22862 260.5 2.25 L246 3 C228 3 210 21 210 39 L210 478.999 C210 490.59 200.591 500.112 189 500.25 L176.229 500.402 C174.923 500.418 159.935 498.193 158.679 497.833 C133.742 490.688 97.5168 480.25 71.8515 472.893 C71.781 472.872 73.9652 471.852 74.0359 471.872 L74.0359 471.872 Z " />
<glyph glyph-name="iacute" unicode="&#xed;" horiz-adv-x="320" d="M-36 746 C-36 739 -5 709 28 682 L164.323 566.798 C167.454 564.151 172.242 564.466 175 567.5 C177.715 570.486 177.938 575.7 175.489 578.908 L67 721 C41 755 13 788 6 788 C-13 788 -36 765 -36 746 L-36 746 Z M74.0359 471.872 L89 476 C107 481 125 468 125 450 L125 39 C125 21 107 3 89 3 L74.5 2.25 C74.0866 2.22862 74.1054 1.5 74.5194 1.5 L260.481 1.5 C260.895 1.5 260.913 2.22862 260.5 2.25 L246 3 C228 3 210 21 210 39 L210 478.999 C210 490.59 200.591 500.112 189 500.25 L176.229 500.402 C174.923 500.418 159.935 498.193 158.679 497.833 C133.742 490.688 97.5168 480.25 71.8515 472.893 C71.781 472.872 73.9652 471.852 74.0359 471.872 L74.0359 471.872 Z " />
<glyph glyph-name="icircumflex" unicode="&#xee;" horiz-adv-x="320" d="M198 755 C193 763 176 785 168 785 C160 785 143 763 138 755 L20.0312 572.245 C17.8362 568.845 18.5052 563.723 21.5 561 C24.5319 558.244 29.3671 558.35 32.2748 561.237 L127.46 655.742 C149.284 677.41 184.779 677.473 206.68 655.883 L302.707 561.218 C305.624 558.342 310.469 558.244 313.5 561 C316.493 563.721 317.173 568.854 314.992 572.26 L198 755 L198 755 Z M74.0359 471.872 L89 476 C107 481 125 468 125 450 L125 39 C125 21 107 3 89 3 L74.5 2.25 C74.0866 2.22862 74.1054 1.5 74.5194 1.5 L260.481 1.5 C260.895 1.5 260.913 2.22862 260.5 2.25 L246 3 C228 3 210 21 210 39 L210 478.999 C210 490.59 200.591 500.112 189 500.25 L176.229 500.402 C174.923 500.418 159.935 498.193 158.679 497.833 C133.742 490.688 97.5168 480.25 71.8515 472.893 C71.781 472.872 73.9652 471.852 74.0359 471.872 L74.0359 471.872 Z " />
<glyph glyph-name="idieresis" unicode="&#xef;" horiz-adv-x="320" d="M243 615 C271 615 298 642 298 670 C298 698 271 725 243 725 C215 725 188 698 188 670 C188 642 215 615 243 615 L243 615 Z M93 615 C121 615 148 642 148 670 C148 698 121 725 93 725 C65 725 38 698 38 670 C38 642 65 615 93 615 L93 615 Z M74.0359 471.872 L89 476 C107 481 125 468 125 450 L125 39 C125 21 107 3 89 3 L74.5 2.25 C74.0866 2.22862 74.1054 1.5 74.5194 1.5 L260.481 1.5 C260.895 1.5 260.913 2.22862 260.5 2.25 L246 3 C228 3 210 21 210 39 L210 478.999 C210 490.59 200.591 500.112 189 500.25 L176.229 500.402 C174.923 500.418 159.935 498.193 158.679 497.833 C133.742 490.688 97.5168 480.25 71.8515 472.893 C71.781 472.872 73.9652 471.852 74.0359 471.872 L74.0359 471.872 Z " />
<glyph glyph-name="ntilde" unicode="&#xf1;" horiz-adv-x="569" d="M139.346 627.106 C142.083 655.29 160.615 680 180 680 C224 680 309 615 353 615 C391.95 615 429.997 668.248 433.705 725.872 C433.988 730.269 430.906 735 426.5 735 C422.808 735 419.021 731.741 418.622 728.07 C415.55 699.813 394.275 675 373 675 C329 675 244 740 200 740 C162.95 740 127.705 686.752 124.273 629.128 C124.012 624.75 127.114 620 131.5 620 C135.24 620 138.985 623.384 139.346 627.106 L139.346 627.106 Z M21.9417 465.588 L29 467 C57 471 84 442 84 409 L84 39 C84 21 66 3 48 3 L33.5 2.25 C33.0866 2.22862 33.1054 1.5 33.5194 1.5 L219.481 1.5 C219.895 1.5 219.913 2.22862 219.5 2.25 L205 3 C187 3 169 21 169 39 L169 344.899 C169 350.716 174.289 368.671 177.676 373.399 C206.17 413.17 255.4 448 286 448 C344 448 389 390 389 330 L389 39 C389 21 371 3 353 3 L338.5 2.25 C338.087 2.22862 338.105 1.5 338.519 1.5 L524.481 1.5 C524.895 1.5 524.913 2.22862 524.5 2.25 L510 3 C492 3 474 21 474 39 L474 330 C474 422 414 510 337 510 C295.35 510 229.857 465.928 188.424 413.402 C182.373 405.731 169 412.193 169 421.963 L169 478.999 C169 490.59 159.591 500.112 148 500.25 L135.229 500.402 C133.992 500.417 118.871 498.208 117.679 497.877 C88.5858 489.789 44.1282 478.179 19 471 C17.4691 470.563 19 469.592 19 468 C19 466.376 20.3495 465.27 21.9417 465.588 L21.9417 465.588 Z " />
<glyph glyph-name="ograve" unicode="&#xf2;" horiz-adv-x="613" d="M139 250 C139 369 221 484 307 484 C393 484 475 369 475 250 C475 131 393 16 307 16 C221 16 139 131 139 250 L139 250 Z M45 250 C45 117 173 -10 307 -10 C440 -10 568 117 568 250 C568 383 440 510 307 510 C173 510 45 383 45 250 L45 250 Z M103 746 C103 739 134 709 167 682 L303.059 567.02 C306.327 564.259 311.475 564.475 314.5 567.5 C317.511 570.511 317.852 575.789 315.254 579.162 L206 721 C180 755 151 788 145 788 C126 788 103 765 103 746 L103 746 Z " />
<glyph glyph-name="oacute" unicode="&#xf3;" horiz-adv-x="613" d="M320.941 567.02 L457 682 C490 710 521 741 521 746 C521 765 498 788 479 788 C474 788 445 755 418 721 L308.746 579.162 C306.148 575.789 306.489 570.511 309.5 567.5 C312.525 564.475 317.673 564.259 320.941 567.02 L320.941 567.02 Z M139 250 C139 369 221 484 307 484 C393 484 475 369 475 250 C475 131 393 16 307 16 C221 16 139 131 139 250 L139 250 Z M45 250 C45 117 173 -10 307 -10 C440 -10 568 117 568 250 C568 383 440 510 307 510 C173 510 45 383 45 250 L45 250 Z " />
<glyph glyph-name="ocircumflex" unicode="&#xf4;" horiz-adv-x="613" d="M139 250 C139 369 221 484 307 484 C393 484 475 369 475 250 C475 131 393 16 307 16 C221 16 139 131 139 250 L139 250 Z M45 250 C45 117 173 -10 307 -10 C440 -10 568 117 568 250 C568 383 440 510 307 510 C173 510 45 383 45 250 L45 250 Z M337 755 C332 763 315 785 307 785 C299 785 282 763 277 755 L159.236 572.562 C156.915 568.967 157.713 563.739 161 561 C164.297 558.252 169.497 558.479 172.542 561.503 L267.319 655.602 C289.221 677.348 324.779 677.348 346.681 655.602 L441.458 561.503 C444.503 558.479 449.703 558.252 453 561 C456.287 563.739 457.085 568.967 454.764 572.562 L337 755 L337 755 Z " />
<glyph glyph-name="otilde" unicode="&#xf5;" horiz-adv-x="613" d="M167.346 627.106 C170.083 655.29 188.615 680 208 680 C252 680 337 615 381 615 C419.95 615 457.998 668.248 461.705 725.872 C461.988 730.269 458.906 735 454.5 735 C450.808 735 447.021 731.741 446.622 728.07 C443.55 699.813 422.275 675 401 675 C357 675 272 740 228 740 C190.95 740 155.705 686.752 152.273 629.128 C152.012 624.75 155.114 620 159.5 620 C163.24 620 166.985 623.384 167.346 627.106 L167.346 627.106 Z M139 250 C139 369 221 484 307 484 C393 484 475 369 475 250 C475 131 393 16 307 16 C221 16 139 131 139 250 L139 250 Z M45 250 C45 117 173 -10 307 -10 C440 -10 568 117 568 250 C568 383 440 510 307 510 C173 510 45 383 45 250 L45 250 Z " />
<glyph glyph-name="odieresis" unicode="&#xf6;" horiz-adv-x="613" d="M382 615 C410 615 437 642 437 670 C437 698 410 725 382 725 C354 725 327 698 327 670 C327 642 354 615 382 615 L382 615 Z M232 615 C260 615 287 642 287 670 C287 698 260 725 232 725 C204 725 177 698 177 670 C177 642 204 615 232 615 L232 615 Z M139 250 C139 369 221 484 307 484 C393 484 475 369 475 250 C475 131 393 16 307 16 C221 16 139 131 139 250 L139 250 Z M45 250 C45 117 173 -10 307 -10 C440 -10 568 117 568 250 C568 383 440 510 307 510 C173 510 45 383 45 250 L45 250 Z " />
<glyph glyph-name="oslash" unicode="&#xf8;" horiz-adv-x="613" d="M56.0561 -20.9439 C57.289 -19.7116 78.7874 1.76937 115.498 37.8837 C126.393 48.6019 150.409 47.2106 162.892 38.3924 C205.381 8.37687 255.85 -10 307 -10 C440 -10 568 117 568 250 C568 300.325 549.623 349.969 519.046 392.195 C509.969 404.729 509.579 429.579 520.522 440.522 L568 488 C574.072 494.072 574.072 503.928 568 510 C561.928 516.072 552.072 516.072 546 510 L498.285 462.285 C487.442 451.442 462.693 451.723 450.195 460.608 C407.969 490.623 358.325 509 308 509 C174 509 46 382 46 249 C46 198.675 64.3769 149.031 94.954 106.805 C104.027 94.2749 105.526 70.7331 94.4979 59.8837 C56.675 22.675 35 1 35 1 C35 1 39.568 -3.78549 45.5 -10 C51.2929 -16.0688 50.1224 -26.8751 56.0561 -20.9439 L56.0561 -20.9439 Z M411.191 375.4 C325.583 290.519 246.568 211.562 183.357 148.356 C175.667 140.667 162.637 141.183 158.734 151.333 C146.806 182.35 140 216.175 140 250 C140 369 222 484 308 484 C346.775 484 385.21 460.178 415.443 423.203 C427.319 408.678 424.515 388.61 411.191 375.4 L411.191 375.4 Z M456.266 349.662 C468.194 318.619 475 284.65 475 250 C475 131 393 16 307 16 C267.4 16 229.161 39.8219 199.022 77.3583 C187.115 92.1872 189.257 111.258 202.705 124.704 C266.158 188.148 345.866 267.776 432.619 353.762 C440.362 361.436 452.356 359.838 456.266 349.662 L456.266 349.662 Z " />
<glyph glyph-name="ugrave" unicode="&#xf9;" horiz-adv-x="560" d="M71 746 C71 739 102 709 135 682 L271.059 567.02 C274.327 564.259 279.475 564.475 282.5 567.5 C285.511 570.511 285.852 575.789 283.254 579.162 L174 721 C148 755 119 788 113 788 C94 788 71 765 71 746 L71 746 Z M539.5 32.5 L534 31 C501 22 470 49 470 85 L470 443.114 C470 474.512 444.513 499.745 413.117 499.431 L334.519 498.645 C334.025 498.64 334.007 497.776 334.5 497.75 L349 497 C367 497 385 479 385 461 L385 158.061 C385 153.656 381.083 137.424 378.822 133.643 C351.234 87.5031 297.7 49 257 49 C210 49 165 103 165 160 L165 443.114 C165 474.512 139.513 499.745 108.117 499.431 L29.5187 498.645 C29.0247 498.64 29.0067 497.776 29.5 497.75 L44 497 C62 497 80 479 80 461 L80 160 C80 73 147 -10 217 -10 C266.3 -10 330.05 34.795 367.718 89.994 C372.49 96.987 385 90.8895 385 82.4234 L385 21.0015 C385 9.41012 394.409 -0.112017 406 -0.25 L418.932 -0.403949 C420.182 -0.418835 433.566 1.33636 434.771 1.67316 L539.51 30.9646 C539.529 30.9701 539.52 32.5053 539.5 32.5 L539.5 32.5 Z " />
<glyph glyph-name="uacute" unicode="&#xfa;" horiz-adv-x="560" d="M288.941 567.02 L425 682 C458 710 489 741 489 746 C489 765 466 788 447 788 C442 788 413 755 386 721 L276.746 579.162 C274.148 575.789 274.489 570.511 277.5 567.5 C280.525 564.475 285.673 564.259 288.941 567.02 L288.941 567.02 Z M539.5 32.5 L534 31 C501 22 470 49 470 85 L470 443.114 C470 474.512 444.513 499.745 413.117 499.431 L334.519 498.645 C334.025 498.64 334.007 497.776 334.5 497.75 L349 497 C367 497 385 479 385 461 L385 158.061 C385 153.656 381.083 137.424 378.822 133.643 C351.234 87.5031 297.7 49 257 49 C210 49 165 103 165 160 L165 443.114 C165 474.512 139.513 499.745 108.117 499.431 L29.5187 498.645 C29.0247 498.64 29.0067 497.776 29.5 497.75 L44 497 C62 497 80 479 80 461 L80 160 C80 73 147 -10 217 -10 C266.3 -10 330.05 34.795 367.718 89.994 C372.49 96.987 385 90.8895 385 82.4234 L385 21.0015 C385 9.41012 394.409 -0.112017 406 -0.25 L418.932 -0.403949 C420.182 -0.418835 433.566 1.33636 434.771 1.67316 L539.51 30.9646 C539.529 30.9701 539.52 32.5053 539.5 32.5 L539.5 32.5 Z " />
<glyph glyph-name="ucircumflex" unicode="&#xfb;" horiz-adv-x="560" d="M305 755 C300 763 283 785 275 785 C267 785 250 763 245 755 L127.236 572.562 C124.915 568.967 125.713 563.739 129 561 C132.297 558.252 137.497 558.479 140.542 561.503 L235.319 655.602 C257.221 677.348 292.779 677.348 314.681 655.602 L409.458 561.503 C412.503 558.479 417.703 558.252 421 561 C424.287 563.739 425.085 568.967 422.764 572.562 L305 755 L305 755 Z M539.5 32.5 L534 31 C501 22 470 49 470 85 L470 443.114 C470 474.512 444.513 499.745 413.117 499.431 L334.519 498.645 C334.025 498.64 334.007 497.776 334.5 497.75 L349 497 C367 497 385 479 385 461 L385 158.061 C385 153.656 381.083 137.424 378.822 133.643 C351.234 87.5031 297.7 49 257 49 C210 49 165 103 165 160 L165 443.114 C165 474.512 139.513 499.745 108.117 499.431 L29.5187 498.645 C29.0247 498.64 29.0067 497.776 29.5 497.75 L44 497 C62 497 80 479 80 461 L80 160 C80 73 147 -10 217 -10 C266.3 -10 330.05 34.795 367.718 89.994 C372.49 96.987 385 90.8895 385 82.4234 L385 21.0015 C385 9.41012 394.409 -0.112017 406 -0.25 L418.932 -0.403949 C420.182 -0.418835 433.566 1.33636 434.771 1.67316 L539.51 30.9646 C539.529 30.9701 539.52 32.5053 539.5 32.5 L539.5 32.5 Z " />
<glyph glyph-name="udieresis" unicode="&#xfc;" horiz-adv-x="560" d="M350 615 C378 615 405 642 405 670 C405 698 378 725 350 725 C322 725 295 698 295 670 C295 642 322 615 350 615 L350 615 Z M200 615 C228 615 255 642 255 670 C255 698 228 725 200 725 C172 725 145 698 145 670 C145 642 172 615 200 615 L200 615 Z M539.5 32.5 L534 31 C501 22 470 49 470 85 L470 443.114 C470 474.512 444.513 499.745 413.117 499.431 L334.519 498.645 C334.025 498.64 334.007 497.776 334.5 497.75 L349 497 C367 497 385 479 385 461 L385 158.061 C385 153.656 381.083 137.424 378.822 133.643 C351.234 87.5031 297.7 49 257 49 C210 49 165 103 165 160 L165 443.114 C165 474.512 139.513 499.745 108.117 499.431 L29.5187 498.645 C29.0247 498.64 29.0067 497.776 29.5 497.75 L44 497 C62 497 80 479 80 461 L80 160 C80 73 147 -10 217 -10 C266.3 -10 330.05 34.795 367.718 89.994 C372.49 96.987 385 90.8895 385 82.4234 L385 21.0015 C385 9.41012 394.409 -0.112017 406 -0.25 L418.932 -0.403949 C420.182 -0.418835 433.566 1.33636 434.771 1.67316 L539.51 30.9646 C539.529 30.9701 539.52 32.5053 539.5 32.5 L539.5 32.5 Z " />
<glyph glyph-name="ydieresis" unicode="&#xff;" horiz-adv-x="558" d="M381 615 C409 615 436 642 436 670 C436 698 409 725 381 725 C353 725 326 698 326 670 C326 642 353 615 381 615 L381 615 Z M231 615 C259 615 286 642 286 670 C286 698 259 725 231 725 C203 725 176 698 176 670 C176 642 203 615 231 615 L231 615 Z M546.697 499.953 L389.056 498.545 C388.617 498.541 388.566 497.815 389 497.75 L389.846 497.623 C389.849 497.623 398.09 496.727 398.093 496.727 C423.332 493.295 435.35 458.05 423 421 L370.222 261.083 C353.125 209.28 285.866 206.66 264.792 256.977 L194 426 C181.65 461.15 190.96 493.592 214.214 496.749 C214.217 496.749 222.151 497.623 222.154 497.623 L223 497.75 C223.409 497.811 223.358 498.5 222.944 498.5 L11.0559 498.5 C10.642 498.5 10.5906 497.811 11 497.75 L11.846 497.623 C11.8569 497.621 20.2963 496.728 20.3073 496.727 C48.2325 493.295 87.8 458.05 103 421 L270.045 22.371 C273.435 14.2804 272.874 -14.2927 269.675 -22.4607 C252.277 -66.8775 236 -111.8 219 -156 C212 -175 195 -194 192 -194 C173 -194 161 -165 142 -165 C119 -165 97 -187 97 -210 C97 -235 122 -260 147 -260 C169 -260 222 -214 240 -167 L300 -10 C352 134 405 277 458 421 C471.3 458.05 508.967 493.295 536.707 496.727 C536.713 496.728 544.957 497.565 544.962 497.566 L546.25 497.75 C546.634 497.805 547.085 499.956 546.697 499.953 L546.697 499.953 Z " />
<glyph glyph-name="Amacron" unicode="&#x100;" horiz-adv-x="796" d="M300.5 895 L541.5 895 C557.783 895 571 908.217 571 924.5 C571 940.783 557.783 954 541.5 954 L300.5 954 C284.217 954 271 940.783 271 924.5 C271 908.217 284.217 895 300.5 895 L300.5 895 Z M285 3 C228 3 191 59 207 119 L244.602 238.575 C251.13 259.334 276.567 278 298.328 278 L480.797 278 C495.057 278 512.218 264.315 516.476 250.705 C529.889 207.831 543.625 165.075 556 123 C575 61 538 2 480 2 L470 1.25 C469.587 1.21904 469.614 0.5 470.028 0.5 L786.96 0.5 C787.374 0.5 787.412 1.2059 787 1.25 L782.991 1.67949 C782.965 1.68227 777.072 2.09691 777.046 2.09862 C738.27 4.65312 685.425 56.45 663 113 L454.522 765.237 C453.722 767.741 450.629 770 448 770 C445.929 770 443.298 767.495 443.031 765.442 C440.705 747.525 410.471 727.809 375.108 721.032 C372.415 720.516 369.712 717.626 370.5 715 C370.974 713.42 370.883 706.609 370.367 705.042 L177 118 C154 58 81 3 24 3 L14 2.25 C13.5872 2.21904 13.6141 1.5 14.0281 1.5 L294 1.5 L285 3 Z M287.191 378.307 L328.074 507.54 C345.134 561.467 418.581 561.378 435.51 507.409 L476.047 378.176 C488.135 339.637 462.699 305 422.308 305 L340.888 305 C300.425 305 274.986 339.728 287.191 378.307 L287.191 378.307 Z " />
<glyph glyph-name="amacron" unicode="&#x101;" horiz-adv-x="514" d="M138.5 645 L379.5 645 C395.783 645 409 658.217 409 674.5 C409 690.783 395.783 704 379.5 704 L138.5 704 C122.217 704 109 690.783 109 674.5 C109 658.217 122.217 645 138.5 645 L138.5 645 Z M516.5 105.5 C512.963 107.151 508.025 104.225 506.751 100.536 C498.56 76.8144 475.579 56 455 56 C427 56 400 79 400 102 L400 355 C400 446 331 510 259 510 C160 510 65 406 65 360 C65 329 89 300 114 300 C137 300 159 328 159 343 C159 358 139 388 139 403 C139 428 183 484 229 484 C273 484 316 443 316 386 L316 306.433 C316 285.13 296.067 258.81 275.848 252.105 C117.728 199.671 45 153.675 45 88 C45 38 100 -10 158 -10 C188.6 -10 245.93 19.16 300.101 66.545 C307.204 72.758 322.262 67.1181 326.375 58.6253 C344.161 21.9056 382.4 -6 422 -6 C462.85 -6 510.017 41.3812 523.206 93.275 C524.392 97.9438 520.865 103.463 516.5 105.5 L516.5 105.5 Z M317 177.425 L317 125.329 C317 114.734 309.367 94.3765 301.4 87.3926 C264.609 55.1406 226 36 205 36 C168 36 132 66 132 98 C132 154.925 171.476 190.751 256.605 224.007 C290.846 237.383 317 214.185 317 177.425 L317 177.425 Z " />
<glyph glyph-name="Abreve" unicode="&#x102;" horiz-adv-x="796" d="M288.335 984.572 C299.495 925.052 361.15 870 421 870 C480.85 870 544.31 924.15 554.793 982.722 C555.771 988.183 552.472 992.588 547 993.5 C543.406 994.099 536.911 988.534 535.534 985.161 C523.6 955.92 472.3 930 421 930 C368.275 930 315.55 958.236 305.563 989.38 C304.41 992.978 299.22 996.157 295.5 995.5 C290.364 994.594 287.374 989.698 288.335 984.572 L288.335 984.572 Z M285 3 C228 3 191 59 207 119 L244.602 238.575 C251.13 259.334 276.567 278 298.328 278 L480.797 278 C495.057 278 512.218 264.315 516.476 250.705 C529.889 207.831 543.625 165.075 556 123 C575 61 538 2 480 2 L470 1.25 C469.587 1.21904 469.614 0.5 470.028 0.5 L786.96 0.5 C787.374 0.5 787.412 1.2059 787 1.25 L782.991 1.67949 C782.965 1.68227 777.072 2.09691 777.046 2.09862 C738.27 4.65312 685.425 56.45 663 113 L454.522 765.237 C453.722 767.741 450.629 770 448 770 C445.929 770 443.298 767.495 443.031 765.442 C440.705 747.525 410.471 727.809 375.108 721.032 C372.415 720.516 369.712 717.626 370.5 715 C370.974 713.42 370.883 706.609 370.367 705.042 L177 118 C154 58 81 3 24 3 L14 2.25 C13.5872 2.21904 13.6141 1.5 14.0281 1.5 L294 1.5 L285 3 Z M287.191 378.307 L328.074 507.54 C345.134 561.467 418.581 561.378 435.51 507.409 L476.047 378.176 C488.135 339.637 462.699 305 422.308 305 L340.888 305 C300.425 305 274.986 339.728 287.191 378.307 L287.191 378.307 Z " />
<glyph glyph-name="abreve" unicode="&#x103;" horiz-adv-x="514" d="M126.335 734.572 C137.495 675.052 199.15 620 259 620 C318.85 620 382.31 674.15 392.793 732.722 C393.771 738.183 390.472 742.588 385 743.5 C381.406 744.099 374.911 738.534 373.534 735.161 C361.6 705.92 310.3 680 259 680 C206.275 680 153.55 708.236 143.563 739.38 C142.41 742.978 137.22 746.157 133.5 745.5 C128.364 744.594 125.374 739.698 126.335 734.572 L126.335 734.572 Z M516.5 105.5 C512.963 107.151 508.025 104.225 506.751 100.536 C498.56 76.8144 475.579 56 455 56 C427 56 400 79 400 102 L400 355 C400 446 331 510 259 510 C160 510 65 406 65 360 C65 329 89 300 114 300 C137 300 159 328 159 343 C159 358 139 388 139 403 C139 428 183 484 229 484 C273 484 316 443 316 386 L316 306.433 C316 285.13 296.067 258.81 275.848 252.105 C117.728 199.671 45 153.675 45 88 C45 38 100 -10 158 -10 C188.6 -10 245.93 19.16 300.101 66.545 C307.204 72.758 322.262 67.1181 326.375 58.6253 C344.161 21.9056 382.4 -6 422 -6 C462.85 -6 510.017 41.3812 523.206 93.275 C524.392 97.9438 520.865 103.463 516.5 105.5 L516.5 105.5 Z M317 177.425 L317 125.329 C317 114.734 309.367 94.3765 301.4 87.3926 C264.609 55.1406 226 36 205 36 C168 36 132 66 132 98 C132 154.925 171.476 190.751 256.605 224.007 C290.846 237.383 317 214.185 317 177.425 L317 177.425 Z " />
<glyph glyph-name="Cacute" unicode="&#x106;" horiz-adv-x="740" d="M427.941 817.02 L564 932 C597 960 628 991 628 996 C628 1015 605 1038 586 1038 C581 1038 552 1005 525 971 L415.746 829.162 C413.148 825.789 413.489 820.511 416.5 817.5 C419.525 814.475 424.673 814.259 427.941 817.02 L427.941 817.02 Z M698 4.12311 L698 217 C698 220.864 694.864 224 691 224 L687.162 224 C685.374 224 683.134 221.221 682.667 219.495 C681.111 213.753 679.556 206.667 678 202 C665 152 602 78 550 51 C507 28 459 13 413 13 C284 13 160 190 160 375 C160 559 289 735 424 735 C475 735 523 718 565 693 C612 661 664 594 677 547 C679 541 681 531 683 525 C683.524 523.429 684.506 525 686.162 525 L690 525 C693.864 525 697 528.136 697 532 L697 742.5 C697 744.432 695.432 746 693.5 746 L693 746 C691.405 746 689.972 743.711 689.913 742.117 C689.669 735.504 689 725.909 689 721 C687 689 649 681 611 704 C558 736 491 759 413 759 C227 759 49 570 49 374 C49 178 222 -11 402 -11 C480 -11 555 14 614 49 C651 67 687 55 689 24 C689 18.1667 689.694 8.86111 689.926 1.87037 C689.986 0.0457858 691.624 -1.59389 693.395 -1.15113 L694 -1 C696.142 -0.46451 698 1.91523 698 4.12311 L698 4.12311 Z " />
<glyph glyph-name="Ccircumflex" unicode="&#x108;" horiz-adv-x="740" d="M698 4.12311 L698 217 C698 220.864 694.864 224 691 224 L687.162 224 C685.374 224 683.134 221.221 682.667 219.495 C681.111 213.753 679.556 206.667 678 202 C665 152 602 78 550 51 C507 28 459 13 413 13 C284 13 160 190 160 375 C160 559 289 735 424 735 C475 735 523 718 565 693 C612 661 664 594 677 547 C679 541 681 531 683 525 C683.524 523.429 684.506 525 686.162 525 L690 525 C693.864 525 697 528.136 697 532 L697 742.5 C697 744.432 695.432 746 693.5 746 L693 746 C691.405 746 689.972 743.711 689.913 742.117 C689.669 735.504 689 725.909 689 721 C687 689 649 681 611 704 C558 736 491 759 413 759 C227 759 49 570 49 374 C49 178 222 -11 402 -11 C480 -11 555 14 614 49 C651 67 687 55 689 24 C689 18.1667 689.694 8.86111 689.926 1.87037 C689.986 0.0457858 691.624 -1.59389 693.395 -1.15113 L694 -1 C696.142 -0.46451 698 1.91523 698 4.12311 L698 4.12311 Z M443 1003 C438 1011 421 1033 413 1033 C405 1033 388 1011 383 1003 L265.236 820.562 C262.915 816.967 263.713 811.739 267 809 C270.297 806.252 275.497 806.479 278.542 809.503 L373.319 903.602 C395.221 925.348 430.779 925.348 452.681 903.602 L547.458 809.503 C550.503 806.479 555.703 806.252 559 809 C562.287 811.739 563.085 816.967 560.764 820.562 L443 1003 L443 1003 Z " />
<glyph glyph-name="Cdot" unicode="&#x10a;" horiz-adv-x="740" d="M414 865 C442 865 469 892 469 920 C469 948 442 975 414 975 C386 975 359 948 359 920 C359 892 386 865 414 865 L414 865 Z M698 4.12311 L698 217 C698 220.864 694.864 224 691 224 L687.162 224 C685.374 224 683.134 221.221 682.667 219.495 C681.111 213.753 679.556 206.667 678 202 C665 152 602 78 550 51 C507 28 459 13 413 13 C284 13 160 190 160 375 C160 559 289 735 424 735 C475 735 523 718 565 693 C612 661 664 594 677 547 C679 541 681 531 683 525 C683.524 523.429 684.506 525 686.162 525 L690 525 C693.864 525 697 528.136 697 532 L697 742.5 C697 744.432 695.432 746 693.5 746 L693 746 C691.405 746 689.972 743.711 689.913 742.117 C689.669 735.504 689 725.909 689 721 C687 689 649 681 611 704 C558 736 491 759 413 759 C227 759 49 570 49 374 C49 178 222 -11 402 -11 C480 -11 555 14 614 49 C651 67 687 55 689 24 C689 18.1667 689.694 8.86111 689.926 1.87037 C689.986 0.0457858 691.624 -1.59389 693.395 -1.15113 L694 -1 C696.142 -0.46451 698 1.91523 698 4.12311 L698 4.12311 Z " />
<glyph glyph-name="cdot" unicode="&#x10b;" horiz-adv-x="503" d="M297 615 C325 615 352 642 352 670 C352 698 325 725 297 725 C269 725 242 698 242 670 C242 642 269 615 297 615 L297 615 Z M467 130.5 C463.992 131.753 459.079 128.946 457.469 126.113 C432.742 82.6125 364.2 42 311 42 C220 42 133 155 133 273 C133 384 211 491 292 491 C325 491 372 449 388 405 C396 384 417 363 431 363 C460 363 481 384 473 405 C454 459 367 510 297 510 C168 510 45 376 45 236 C45 111 161 -10 281 -10 C346.325 -10 437.317 54.6425 470.558 122.755 C472.189 126.095 470.431 129.07 467 130.5 L467 130.5 Z " />
<glyph glyph-name="Ccaron" unicode="&#x10c;" horiz-adv-x="740" d="M548.458 1038.5 L453.681 944.398 C431.779 922.652 396.221 922.652 374.319 944.398 L279.542 1038.5 C276.497 1041.52 271.297 1041.75 268 1039 C264.713 1036.26 263.915 1031.03 266.236 1027.44 L384 845 C389 837 406 815 414 815 C422 815 439 837 444 845 L561.764 1027.44 C564.085 1031.03 563.287 1036.26 560 1039 C556.703 1041.75 551.503 1041.52 548.458 1038.5 L548.458 1038.5 Z M698 4.12311 L698 217 C698 220.864 694.864 224 691 224 L687.162 224 C685.374 224 683.134 221.221 682.667 219.495 C681.111 213.753 679.556 206.667 678 202 C665 152 602 78 550 51 C507 28 459 13 413 13 C284 13 160 190 160 375 C160 559 289 735 424 735 C475 735 523 718 565 693 C612 661 664 594 677 547 C679 541 681 531 683 525 C683.524 523.429 684.506 525 686.162 525 L690 525 C693.864 525 697 528.136 697 532 L697 742.5 C697 744.432 695.432 746 693.5 746 L693 746 C691.405 746 689.972 743.711 689.913 742.117 C689.669 735.504 689 725.909 689 721 C687 689 649 681 611 704 C558 736 491 759 413 759 C227 759 49 570 49 374 C49 178 222 -11 402 -11 C480 -11 555 14 614 49 C651 67 687 55 689 24 C689 18.1667 689.694 8.86111 689.926 1.87037 C689.986 0.0457858 691.624 -1.59389 693.395 -1.15113 L694 -1 C696.142 -0.46451 698 1.91523 698 4.12311 L698 4.12311 Z " />
<glyph glyph-name="ccaron" unicode="&#x10d;" horiz-adv-x="503" d="M431.458 788.497 L336.681 694.398 C314.779 672.652 279.221 672.652 257.319 694.398 L162.542 788.497 C159.497 791.521 154.297 791.748 151 789 C147.713 786.261 146.915 781.033 149.236 777.438 L267 595 C272 587 289 565 297 565 C305 565 322 587 327 595 L444.764 777.438 C447.085 781.033 446.287 786.261 443 789 C439.703 791.748 434.503 791.521 431.458 788.497 L431.458 788.497 Z M467 130.5 C463.992 131.753 459.079 128.946 457.469 126.113 C432.742 82.6125 364.2 42 311 42 C220 42 133 155 133 273 C133 384 211 491 292 491 C325 491 372 449 388 405 C396 384 417 363 431 363 C460 363 481 384 473 405 C454 459 367 510 297 510 C168 510 45 376 45 236 C45 111 161 -10 281 -10 C346.325 -10 437.317 54.6425 470.558 122.755 C472.189 126.095 470.431 129.07 467 130.5 L467 130.5 Z " />
<glyph glyph-name="Dcaron" unicode="&#x10e;" horiz-adv-x="853" d="M551.707 1038.78 L455.68 944.117 C433.779 922.527 398.284 922.59 376.46 944.258 L281.275 1038.76 C278.367 1041.65 273.532 1041.76 270.5 1039 C267.505 1036.28 266.836 1031.16 269.031 1027.76 L387 845 C392 837 409 815 417 815 C425 815 442 837 447 845 L563.992 1027.74 C566.173 1031.15 565.493 1036.28 562.5 1039 C559.469 1041.76 554.624 1041.66 551.707 1038.78 L551.707 1038.78 Z M295 20 C257 20 245 53 245 88 L245 710 C245 721.039 253.961 730 265 730 L285 730 C511 730 688 556 688 375 C688 176 495 20 295 20 L295 20 Z M67 747 L74 747 C110 747 145 712 145 676 L145 74 C145 38.9 111.728 4.75063 76.6976 3.06509 C76.6442 3.06252 71.0617 2.68519 71.0086 2.67949 L67 2.25 C66.5666 2.20357 66.6041 1.46262 67.04 1.46015 L325 0 C566 0 798 165 798 375 C798 566 608 750 365 750 L66.9999 748.534 C66.9809 748.534 66.981 747 67 747 L67 747 Z " />
<glyph glyph-name="dcaron" unicode="&#x10f;" horiz-adv-x="600" d="M587 759 C572 759 559 690 556 651 L546.686 547.618 C546.31 543.437 549.384 539.323 553.5 538.5 C557.588 537.682 562.212 540.262 563.663 544.17 L600 642 C613 675 625 727 625 747 C625 754 606 759 587 759 L587 759 Z M352.942 716.588 L360 718 C388 722 415 693 415 660 L415 494.071 C415 483.564 402.666 477.906 393.162 482.384 C357.653 499.11 317.125 510 280 510 C148 510 45 383 45 251 C45 120 149 -5 257 -5 C301.2 -5 361.295 19.565 397.981 50.2712 C404.281 55.5444 415 50.3762 415 42.1605 L415 21.0015 C415 9.41012 424.409 -0.112017 436 -0.25 L449.117 -0.406152 C450.345 -0.420773 463.92 1.40073 465.104 1.72849 C497.463 10.6889 548.473 25.4372 579.702 34.0468 C580.04 34.1401 578.345 34.3117 578 34.25 L573.614 33.4668 C573.579 33.4605 568.337 32.3251 568.302 32.3171 C533.272 24.3062 500 49.9 500 85 L500 728.999 C500 740.59 490.591 750.112 479 750.25 L465.273 750.413 C464.235 750.426 452.322 749.074 451.315 748.82 C423.118 741.704 378.397 730.051 352.144 722.61 C350.608 722.175 350 720.597 350 719 C350 717.376 351.35 716.27 352.942 716.588 L352.942 716.588 Z M415 366.734 L415 115.756 C415 105.875 407.772 87.2906 400.547 80.5504 C370.072 52.12 323.45 29 292 29 C210 29 132 149 132 273 C132 381 201 484 290 484 C334.65 484 393.74 430.301 412.398 382.063 C413.153 380.11 415 368.827 415 366.734 L415 366.734 Z " />
<glyph glyph-name="Emacron" unicode="&#x112;" horiz-adv-x="652" d="M229.5 895 L470.5 895 C486.783 895 500 908.217 500 924.5 C500 940.783 486.783 954 470.5 954 L229.5 954 C213.217 954 200 940.783 200 924.5 C200 908.217 213.217 895 229.5 895 L229.5 895 Z M534.403 749.94 L48.035 748.523 C47.6082 748.522 47.575 747.79 48 747.75 L53.3773 747.246 C53.4073 747.243 59.3423 746.918 59.3725 746.916 C103.172 744.749 145 700.85 145 656 L145 94 C145 49.15 103.173 5.25063 59.3725 3.08369 C59.3423 3.0822 53.4073 2.75693 53.3773 2.75412 L48 2.25 C47.5756 2.21021 47.6088 1.47886 48.035 1.47768 L574.449 0.0154191 C577.486 0.00698311 580.34 2.49088 580.75 5.5 L581.5 11 C587.346 45.1026 598.414 107.686 604.528 143.25 C604.989 145.931 602.721 146 600 146 C597.368 146 594.287 143.742 593.494 141.232 L589 127 C573 73 495 21 431 21 L333 21 C266 21 245 54 245 88 L245 328.68 C245 359.767 270.233 385 301.32 385 L366 385 C417 385 472 336 479 284 L483.273 254.947 C483.67 252.245 486.27 250 489 250 C491.76 250 494.008 252.24 494.019 255 L494.5 385 L494.5 409 L494.019 539 C494.008 541.76 491.76 544 489 544 C486.27 544 483.67 541.755 483.273 539.053 L479 510 C472 458 417 409 366 409 L301.32 409 C270.233 409 245 434.233 245 465.32 L245 672.68 C245 703.767 270.233 729 301.32 729 L429 729 C481 729 542 680 555 628 L562.721 598.834 C563.403 596.254 566.332 594 569 594 C571.766 594 573.636 597.773 573.353 600.525 C569.659 636.479 562.221 690.257 557.695 729.603 C556.426 740.634 545.507 749.972 534.403 749.94 L534.403 749.94 Z " />
<glyph glyph-name="emacron" unicode="&#x113;" horiz-adv-x="540" d="M180.5 645 L421.5 645 C437.783 645 451 658.217 451 674.5 C451 690.783 437.783 704 421.5 704 L180.5 704 C164.217 704 151 690.783 151 674.5 C151 658.217 164.217 645 180.5 645 L180.5 645 Z M154.769 340 L457.227 340 C492.515 340 509 359.255 493.504 390.959 C457.276 465.079 376.075 510 301 510 C170 510 45 402 45 231 C45 108 159 -10 278 -10 C361.85 -10 465.663 56.5438 495.827 127.532 C497.106 130.542 495.655 133.639 492.5 134.5 C489.916 135.205 485.155 131.486 483.898 129.12 C460.83 85.71 374 46 298 46 C215 46 135 154 135 266 C135 288.909 137.16 310.018 140.868 329.939 C142.074 336.412 148.184 340 154.769 340 L154.769 340 Z M369.616 364.383 L191.007 361.657 C165.702 361.27 152.793 378.546 164.597 400.932 C195.031 458.649 244.675 492 295 492 C331.3 492 371.684 458.649 396.498 403.178 C406.381 381.086 393.815 364.753 369.616 364.383 L369.616 364.383 Z " />
<glyph glyph-name="Ebreve" unicode="&#x114;" horiz-adv-x="652" d="M217.335 984.572 C228.495 925.052 290.15 870 350 870 C409.85 870 473.31 924.15 483.793 982.722 C484.771 988.183 481.472 992.588 476 993.5 C472.406 994.099 465.911 988.534 464.534 985.161 C452.6 955.92 401.3 930 350 930 C297.275 930 244.55 958.236 234.563 989.38 C233.41 992.978 228.22 996.157 224.5 995.5 C219.364 994.594 216.374 989.698 217.335 984.572 L217.335 984.572 Z M534.403 749.94 L48.035 748.523 C47.6082 748.522 47.575 747.79 48 747.75 L53.3773 747.246 C53.4073 747.243 59.3423 746.918 59.3725 746.916 C103.172 744.749 145 700.85 145 656 L145 94 C145 49.15 103.173 5.25063 59.3725 3.08369 C59.3423 3.0822 53.4073 2.75693 53.3773 2.75412 L48 2.25 C47.5756 2.21021 47.6088 1.47886 48.035 1.47768 L574.449 0.0154191 C577.486 0.00698311 580.34 2.49088 580.75 5.5 L581.5 11 C587.346 45.1026 598.414 107.686 604.528 143.25 C604.989 145.931 602.721 146 600 146 C597.368 146 594.287 143.742 593.494 141.232 L589 127 C573 73 495 21 431 21 L333 21 C266 21 245 54 245 88 L245 328.68 C245 359.767 270.233 385 301.32 385 L366 385 C417 385 472 336 479 284 L483.273 254.947 C483.67 252.245 486.27 250 489 250 C491.76 250 494.008 252.24 494.019 255 L494.5 385 L494.5 409 L494.019 539 C494.008 541.76 491.76 544 489 544 C486.27 544 483.67 541.755 483.273 539.053 L479 510 C472 458 417 409 366 409 L301.32 409 C270.233 409 245 434.233 245 465.32 L245 672.68 C245 703.767 270.233 729 301.32 729 L429 729 C481 729 542 680 555 628 L562.721 598.834 C563.403 596.254 566.332 594 569 594 C571.766 594 573.636 597.773 573.353 600.525 C569.659 636.479 562.221 690.257 557.695 729.603 C556.426 740.634 545.507 749.972 534.403 749.94 L534.403 749.94 Z " />
<glyph glyph-name="ebreve" unicode="&#x115;" horiz-adv-x="540" d="M168.335 734.572 C179.495 675.052 241.15 620 301 620 C360.85 620 424.31 674.15 434.793 732.722 C435.771 738.183 432.472 742.588 427 743.5 C423.406 744.099 416.911 738.534 415.534 735.161 C403.6 705.92 352.3 680 301 680 C248.275 680 195.55 708.236 185.563 739.38 C184.41 742.978 179.22 746.157 175.5 745.5 C170.364 744.594 167.374 739.698 168.335 734.572 L168.335 734.572 Z M154.769 340 L457.227 340 C492.515 340 509 359.255 493.504 390.959 C457.276 465.079 376.075 510 301 510 C170 510 45 402 45 231 C45 108 159 -10 278 -10 C361.85 -10 465.663 56.5438 495.827 127.532 C497.106 130.542 495.655 133.639 492.5 134.5 C489.916 135.205 485.155 131.486 483.898 129.12 C460.83 85.71 374 46 298 46 C215 46 135 154 135 266 C135 288.909 137.16 310.018 140.868 329.939 C142.074 336.412 148.184 340 154.769 340 L154.769 340 Z M369.616 364.383 L191.007 361.657 C165.702 361.27 152.793 378.546 164.597 400.932 C195.031 458.649 244.675 492 295 492 C331.3 492 371.684 458.649 396.498 403.178 C406.381 381.086 393.815 364.753 369.616 364.383 L369.616 364.383 Z " />
<glyph glyph-name="Edot" unicode="&#x116;" horiz-adv-x="652" d="M350 865 C378 865 405 892 405 920 C405 948 378 975 350 975 C322 975 295 948 295 920 C295 892 322 865 350 865 L350 865 Z M534.403 749.94 L48.035 748.523 C47.6082 748.522 47.575 747.79 48 747.75 L53.3773 747.246 C53.4073 747.243 59.3423 746.918 59.3725 746.916 C103.172 744.749 145 700.85 145 656 L145 94 C145 49.15 103.173 5.25063 59.3725 3.08369 C59.3423 3.0822 53.4073 2.75693 53.3773 2.75412 L48 2.25 C47.5756 2.21021 47.6088 1.47886 48.035 1.47768 L574.449 0.0154191 C577.486 0.00698311 580.34 2.49088 580.75 5.5 L581.5 11 C587.346 45.1026 598.414 107.686 604.528 143.25 C604.989 145.931 602.721 146 600 146 C597.368 146 594.287 143.742 593.494 141.232 L589 127 C573 73 495 21 431 21 L333 21 C266 21 245 54 245 88 L245 328.68 C245 359.767 270.233 385 301.32 385 L366 385 C417 385 472 336 479 284 L483.273 254.947 C483.67 252.245 486.27 250 489 250 C491.76 250 494.008 252.24 494.019 255 L494.5 385 L494.5 409 L494.019 539 C494.008 541.76 491.76 544 489 544 C486.27 544 483.67 541.755 483.273 539.053 L479 510 C472 458 417 409 366 409 L301.32 409 C270.233 409 245 434.233 245 465.32 L245 672.68 C245 703.767 270.233 729 301.32 729 L429 729 C481 729 542 680 555 628 L562.721 598.834 C563.403 596.254 566.332 594 569 594 C571.766 594 573.636 597.773 573.353 600.525 C569.659 636.479 562.221 690.257 557.695 729.603 C556.426 740.634 545.507 749.972 534.403 749.94 L534.403 749.94 Z " />
<glyph glyph-name="edot" unicode="&#x117;" horiz-adv-x="540" d="M301 615 C329 615 356 642 356 670 C356 698 329 725 301 725 C273 725 246 698 246 670 C246 642 273 615 301 615 L301 615 Z M154.769 340 L457.227 340 C492.515 340 509 359.255 493.504 390.959 C457.276 465.079 376.075 510 301 510 C170 510 45 402 45 231 C45 108 159 -10 278 -10 C361.85 -10 465.663 56.5438 495.827 127.532 C497.106 130.542 495.655 133.639 492.5 134.5 C489.916 135.205 485.155 131.486 483.898 129.12 C460.83 85.71 374 46 298 46 C215 46 135 154 135 266 C135 288.909 137.16 310.018 140.868 329.939 C142.074 336.412 148.184 340 154.769 340 L154.769 340 Z M369.616 364.383 L191.007 361.657 C165.702 361.27 152.793 378.546 164.597 400.932 C195.031 458.649 244.675 492 295 492 C331.3 492 371.684 458.649 396.498 403.178 C406.381 381.086 393.815 364.753 369.616 364.383 L369.616 364.383 Z " />
<glyph glyph-name="Ecaron" unicode="&#x11a;" horiz-adv-x="652" d="M484.458 1038.5 L389.681 944.398 C367.779 922.652 332.221 922.652 310.319 944.398 L215.542 1038.5 C212.497 1041.52 207.297 1041.75 204 1039 C200.713 1036.26 199.915 1031.03 202.236 1027.44 L320 845 C325 837 342 815 350 815 C358 815 375 837 380 845 L497.764 1027.44 C500.085 1031.03 499.287 1036.26 496 1039 C492.703 1041.75 487.503 1041.52 484.458 1038.5 L484.458 1038.5 Z M534.403 749.94 L48.035 748.523 C47.6082 748.522 47.575 747.79 48 747.75 L53.3773 747.246 C53.4073 747.243 59.3423 746.918 59.3725 746.916 C103.172 744.749 145 700.85 145 656 L145 94 C145 49.15 103.173 5.25063 59.3725 3.08369 C59.3423 3.0822 53.4073 2.75693 53.3773 2.75412 L48 2.25 C47.5756 2.21021 47.6088 1.47886 48.035 1.47768 L574.449 0.0154191 C577.486 0.00698311 580.34 2.49088 580.75 5.5 L581.5 11 C587.346 45.1026 598.414 107.686 604.528 143.25 C604.989 145.931 602.721 146 600 146 C597.368 146 594.287 143.742 593.494 141.232 L589 127 C573 73 495 21 431 21 L333 21 C266 21 245 54 245 88 L245 328.68 C245 359.767 270.233 385 301.32 385 L366 385 C417 385 472 336 479 284 L483.273 254.947 C483.67 252.245 486.27 250 489 250 C491.76 250 494.008 252.24 494.019 255 L494.5 385 L494.5 409 L494.019 539 C494.008 541.76 491.76 544 489 544 C486.27 544 483.67 541.755 483.273 539.053 L479 510 C472 458 417 409 366 409 L301.32 409 C270.233 409 245 434.233 245 465.32 L245 672.68 C245 703.767 270.233 729 301.32 729 L429 729 C481 729 542 680 555 628 L562.721 598.834 C563.403 596.254 566.332 594 569 594 C571.766 594 573.636 597.773 573.353 600.525 C569.659 636.479 562.221 690.257 557.695 729.603 C556.426 740.634 545.507 749.972 534.403 749.94 L534.403 749.94 Z " />
<glyph glyph-name="ecaron" unicode="&#x11b;" horiz-adv-x="540" d="M435.458 788.497 L340.681 694.398 C318.779 672.652 283.221 672.652 261.319 694.398 L166.542 788.497 C163.497 791.521 158.297 791.748 155 789 C151.713 786.261 150.915 781.033 153.236 777.438 L271 595 C276 587 293 565 301 565 C309 565 326 587 331 595 L448.764 777.438 C451.085 781.033 450.287 786.261 447 789 C443.703 791.748 438.503 791.521 435.458 788.497 L435.458 788.497 Z M154.769 340 L457.227 340 C492.515 340 509 359.255 493.504 390.959 C457.276 465.079 376.075 510 301 510 C170 510 45 402 45 231 C45 108 159 -10 278 -10 C361.85 -10 465.663 56.5438 495.827 127.532 C497.106 130.542 495.655 133.639 492.5 134.5 C489.916 135.205 485.155 131.486 483.898 129.12 C460.83 85.71 374 46 298 46 C215 46 135 154 135 266 C135 288.909 137.16 310.018 140.868 329.939 C142.074 336.412 148.184 340 154.769 340 L154.769 340 Z M369.616 364.383 L191.007 361.657 C165.702 361.27 152.793 378.546 164.597 400.932 C195.031 458.649 244.675 492 295 492 C331.3 492 371.684 458.649 396.498 403.178 C406.381 381.086 393.815 364.753 369.616 364.383 L369.616 364.383 Z " />
<glyph glyph-name="Gcircumflex" unicode="&#x11c;" horiz-adv-x="817" d="M698 534.016 L698 743.5 C698 745.432 696.432 747 694.5 747 L694 747 C692.405 747 690.972 744.711 690.913 743.117 C690.669 736.504 690 726.909 690 722 C688 690 650 682 612 705 C559 737 492 760 414 760 C228 760 50 571 50 375 C50 179 227 -10 412 -10 C535.825 -10 670.107 22.3212 746.258 56.3774 C750.495 58.2724 750.463 62.2936 748.5 66.5 C746.613 70.5429 741.95 72.5436 737.874 70.7291 C723.807 64.4666 707.43 58.263 689.418 52.4568 C682.2 50.1301 675 54.4967 675 62.0801 L675 216 C675 268.65 713.025 319.399 752.927 321.903 C752.958 321.905 758.961 322.317 758.991 322.321 L763 322.75 C763.412 322.794 763.374 323.5 762.96 323.5 L487.04 323.5 C486.626 323.5 486.588 322.794 487 322.75 L491.009 322.321 C491.039 322.317 497.042 321.905 497.073 321.903 C536.975 319.399 575 268.65 575 216 C576 216 576 121 576 113 C573 60 501 10 427 10 C290 10 159 189 159 375 C159 559 288 735 423 735 C474 735 522 718 564 693 C611 661 663 594 676 547 C678 541 680 531 682 525 C682.534 523.399 683.472 525.092 685.156 525.197 L690 525.5 C694.407 525.775 698 529.6 698 534.016 L698 534.016 Z M442 1004 C437 1012 420 1034 412 1034 C404 1034 387 1012 382 1004 L264.236 821.562 C261.915 817.967 262.713 812.739 266 810 C269.297 807.252 274.497 807.479 277.542 810.503 L372.319 904.602 C394.221 926.348 429.779 926.348 451.681 904.602 L546.458 810.503 C549.503 807.479 554.703 807.252 558 810 C561.287 812.739 562.085 817.967 559.764 821.562 L442 1004 L442 1004 Z " />
<glyph glyph-name="Gbreve" unicode="&#x11e;" horiz-adv-x="817" d="M281.335 984.572 C292.495 925.052 354.15 870 414 870 C473.85 870 537.31 924.15 547.793 982.722 C548.771 988.183 545.472 992.588 540 993.5 C536.406 994.099 529.911 988.534 528.534 985.161 C516.6 955.92 465.3 930 414 930 C361.275 930 308.55 958.236 298.563 989.38 C297.41 992.978 292.22 996.157 288.5 995.5 C283.364 994.594 280.374 989.698 281.335 984.572 L281.335 984.572 Z M698 534.016 L698 743.5 C698 745.432 696.432 747 694.5 747 L694 747 C692.405 747 690.972 744.711 690.913 743.117 C690.669 736.504 690 726.909 690 722 C688 690 650 682 612 705 C559 737 492 760 414 760 C228 760 50 571 50 375 C50 179 227 -10 412 -10 C535.825 -10 670.107 22.3212 746.258 56.3774 C750.495 58.2724 750.463 62.2936 748.5 66.5 C746.613 70.5429 741.95 72.5436 737.874 70.7291 C723.807 64.4666 707.43 58.263 689.418 52.4568 C682.2 50.1301 675 54.4967 675 62.0801 L675 216 C675 268.65 713.025 319.399 752.927 321.903 C752.958 321.905 758.961 322.317 758.991 322.321 L763 322.75 C763.412 322.794 763.374 323.5 762.96 323.5 L487.04 323.5 C486.626 323.5 486.588 322.794 487 322.75 L491.009 322.321 C491.039 322.317 497.042 321.905 497.073 321.903 C536.975 319.399 575 268.65 575 216 C576 216 576 121 576 113 C573 60 501 10 427 10 C290 10 159 189 159 375 C159 559 288 735 423 735 C474 735 522 718 564 693 C611 661 663 594 676 547 C678 541 680 531 682 525 C682.534 523.399 683.472 525.092 685.156 525.197 L690 525.5 C694.407 525.775 698 529.6 698 534.016 L698 534.016 Z " />
<glyph glyph-name="gbreve" unicode="&#x11f;" horiz-adv-x="520" d="M122.335 734.572 C133.495 675.052 195.15 620 255 620 C314.85 620 378.31 674.15 388.793 732.722 C389.771 738.183 386.472 742.588 381 743.5 C377.406 744.099 370.911 738.534 369.534 735.161 C357.6 705.92 306.3 680 255 680 C202.275 680 149.55 708.236 139.563 739.38 C138.41 742.978 133.22 746.157 129.5 745.5 C124.364 744.594 121.374 739.698 122.335 734.572 L122.335 734.572 Z M541 479 C541 505 514 530 486 530 C459.65 530 421.74 503.268 398.063 470.683 C392.411 462.903 378.298 461.497 370.799 467.517 C338.577 493.382 297.65 510 256 510 C164 510 76 432 76 350 C76 297.2 111.393 246.442 160.84 216.256 C168.576 211.533 169.588 194.636 160.907 192.029 C100.795 173.977 56 139.85 56 105 C56 68.7 82.5444 33.7613 118.788 14.7832 C124.909 11.578 126.328 -1.67114 120.201 -4.86512 C78.5125 -26.5975 46 -64.55 46 -96 C46 -165 154 -231 266 -231 C378 -231 486 -152 486 -69 C486 9 414 83 300 83 L182 83 C143 83 105 106 105 129 C105 159 179 187 256 187 C348 187 436 266 436 349 C436 378.7 424.66 407.59 405.625 432.754 C401.947 437.617 401.435 444.957 405.091 449.836 C416.235 464.71 429.44 476 437 476 C455 476 488 441 506 441 C524 441 541.5 459.5 541.5 478.5 L541 479 Z M256 207 C208 207 161 277 161 349 C161 420 208 489 256 489 C304 489 351 420 351 349 C351 277 304 207 256 207 L256 207 Z M170.5 -0.5 L178 -1 L292 -1 C367 -1 415 -44 415 -89 C415 -152 344 -212 271 -212 C192 -212 117 -145 117 -76 C117 -50.1 134.54 -20.7775 156.958 -3.86156 C159.409 -2.01178 167.436 -0.295721 170.5 -0.5 L170.5 -0.5 Z " />
<glyph glyph-name="Gdot" unicode="&#x120;" horiz-adv-x="817" d="M414 865 C442 865 469 892 469 920 C469 948 442 975 414 975 C386 975 359 948 359 920 C359 892 386 865 414 865 L414 865 Z M698 534.016 L698 743.5 C698 745.432 696.432 747 694.5 747 L694 747 C692.405 747 690.972 744.711 690.913 743.117 C690.669 736.504 690 726.909 690 722 C688 690 650 682 612 705 C559 737 492 760 414 760 C228 760 50 571 50 375 C50 179 227 -10 412 -10 C535.825 -10 670.107 22.3212 746.258 56.3774 C750.495 58.2724 750.463 62.2936 748.5 66.5 C746.613 70.5429 741.95 72.5436 737.874 70.7291 C723.807 64.4666 707.43 58.263 689.418 52.4568 C682.2 50.1301 675 54.4967 675 62.0801 L675 216 C675 268.65 713.025 319.399 752.927 321.903 C752.958 321.905 758.961 322.317 758.991 322.321 L763 322.75 C763.412 322.794 763.374 323.5 762.96 323.5 L487.04 323.5 C486.626 323.5 486.588 322.794 487 322.75 L491.009 322.321 C491.039 322.317 497.042 321.905 497.073 321.903 C536.975 319.399 575 268.65 575 216 C576 216 576 121 576 113 C573 60 501 10 427 10 C290 10 159 189 159 375 C159 559 288 735 423 735 C474 735 522 718 564 693 C611 661 663 594 676 547 C678 541 680 531 682 525 C682.534 523.399 683.472 525.092 685.156 525.197 L690 525.5 C694.407 525.775 698 529.6 698 534.016 L698 534.016 Z " />
<glyph glyph-name="gdot" unicode="&#x121;" horiz-adv-x="520" d="M255 615 C283 615 310 642 310 670 C310 698 283 725 255 725 C227 725 200 698 200 670 C200 642 227 615 255 615 L255 615 Z M541 479 C541 505 514 530 486 530 C459.65 530 421.74 503.268 398.063 470.683 C392.411 462.903 378.298 461.497 370.799 467.517 C338.577 493.382 297.65 510 256 510 C164 510 76 432 76 350 C76 297.2 111.393 246.442 160.84 216.256 C168.576 211.533 169.588 194.636 160.907 192.029 C100.795 173.977 56 139.85 56 105 C56 68.7 82.5444 33.7613 118.788 14.7832 C124.909 11.578 126.328 -1.67114 120.201 -4.86512 C78.5125 -26.5975 46 -64.55 46 -96 C46 -165 154 -231 266 -231 C378 -231 486 -152 486 -69 C486 9 414 83 300 83 L182 83 C143 83 105 106 105 129 C105 159 179 187 256 187 C348 187 436 266 436 349 C436 378.7 424.66 407.59 405.625 432.754 C401.947 437.617 401.435 444.957 405.091 449.836 C416.235 464.71 429.44 476 437 476 C455 476 488 441 506 441 C524 441 541.5 459.5 541.5 478.5 L541 479 Z M256 207 C208 207 161 277 161 349 C161 420 208 489 256 489 C304 489 351 420 351 349 C351 277 304 207 256 207 L256 207 Z M170.5 -0.5 L178 -1 L292 -1 C367 -1 415 -44 415 -89 C415 -152 344 -212 271 -212 C192 -212 117 -145 117 -76 C117 -50.1 134.54 -20.7775 156.958 -3.86156 C159.409 -2.01178 167.436 -0.295721 170.5 -0.5 L170.5 -0.5 Z " />
<glyph glyph-name="Hcircumflex" unicode="&#x124;" horiz-adv-x="861" d="M479 1005 C474 1013 457 1035 449 1035 C441 1035 424 1013 419 1005 L301.031 822.245 C298.836 818.845 299.505 813.723 302.5 811 C305.532 808.244 310.367 808.35 313.275 811.237 L408.46 905.742 C430.284 927.41 465.779 927.473 487.68 905.883 L583.707 811.218 C586.624 808.342 591.469 808.244 594.5 811 C597.493 813.721 598.173 818.854 595.992 822.26 L479 1005 L479 1005 Z M787 3 C751 3 716 38 716 74 L716 676 C716 711.1 749.272 745.249 784.302 746.935 C784.356 746.937 789.938 747.315 789.991 747.321 L794 747.75 C794.412 747.794 794.374 748.5 793.96 748.5 L538.04 748.5 C537.626 748.5 537.588 747.794 538 747.75 L542.009 747.321 C542.062 747.315 547.644 746.937 547.698 746.935 C582.728 745.249 616 711.1 616 676 L616 465.32 C616 434.233 590.767 409 559.68 409 L337.32 409 C306.233 409 281 434.233 281 465.32 L281 676 C281 711.1 314.272 745.249 349.302 746.935 C349.356 746.937 354.938 747.315 354.991 747.321 L359 747.75 C359.412 747.794 359.374 748.5 358.96 748.5 L103.04 748.5 C102.626 748.5 102.588 747.794 103 747.75 L107.009 747.321 C107.062 747.315 112.644 746.937 112.698 746.935 C147.728 745.249 181 711.1 181 676 L181 74 C181 38.9 147.728 4.75063 112.698 3.06509 C112.644 3.06252 107.062 2.68519 107.009 2.67949 L103 2.25 C102.588 2.2059 102.626 1.5 103.04 1.5 L358.96 1.5 C359.374 1.5 359.412 2.2059 359 2.25 L354.991 2.67949 C354.938 2.68519 349.356 3.06252 349.302 3.06509 C314.272 4.75062 281 38.9 281 74 L281 326.68 C281 357.767 306.233 383 337.32 383 L559.68 383 C590.767 383 616 357.767 616 326.68 L616 74 C616 38.9 582.728 4.75063 547.698 3.06509 C547.644 3.06252 542.062 2.68519 542.009 2.67949 L538 2.25 C537.588 2.2059 537.626 1.5 538.04 1.5 L794 1.5 L787 3 Z " />
<glyph glyph-name="Itilde" unicode="&#x128;" horiz-adv-x="385" d="M50.3464 877.106 C53.0828 905.29 71.6154 930 91 930 C135 930 220 865 264 865 C302.95 865 340.998 918.248 344.705 975.872 C344.988 980.269 341.906 985 337.5 985 C333.808 985 330.021 981.741 329.622 978.07 C326.55 949.813 305.275 925 284 925 C240 925 155 990 111 990 C73.95 990 38.705 936.752 35.2731 879.128 C35.0124 874.75 38.1141 870 42.5 870 C46.2397 870 49.985 873.384 50.3464 877.106 L50.3464 877.106 Z M311 3 C275 3 240 38 240 74 L240 676 C240 711.1 273.272 745.249 308.302 746.935 C308.356 746.937 313.938 747.315 313.991 747.321 L318 747.75 C318.412 747.794 318.374 748.5 317.96 748.5 L62.0401 748.5 C61.6261 748.5 61.5884 747.794 62 747.75 L66.0086 747.321 C66.0617 747.315 71.6442 746.937 71.6976 746.935 C106.728 745.249 140 711.1 140 676 L140 74 C140 38.9 106.728 4.75063 71.6976 3.06509 C71.6442 3.06252 66.0617 2.68519 66.0086 2.67949 L62 2.25 C61.5884 2.2059 61.6261 1.5 62.0401 1.5 L318 1.5 L311 3 Z " />
<glyph glyph-name="itilde" unicode="&#x129;" horiz-adv-x="320" d="M27.3632 627.106 C30.2308 655.29 49.6154 680 69 680 C113 680 198 615 242 615 C280.95 615 318.997 668.248 322.705 725.872 C322.988 730.269 319.906 735 315.5 735 C311.808 735 308.021 731.741 307.622 728.07 C304.55 699.813 283.275 675 262 675 C218 675 132 740 88 740 C50.95 740 15.705 686.752 12.2731 629.128 C12.0124 624.75 15.1141 620 19.5 620 C23.2207 620 26.9866 623.404 27.3632 627.106 L27.3632 627.106 Z M74.0359 471.872 L89 476 C107 481 125 468 125 450 L125 39 C125 21 107 3 89 3 L74.5 2.25 C74.0866 2.22862 74.1054 1.5 74.5194 1.5 L260.481 1.5 C260.895 1.5 260.913 2.22862 260.5 2.25 L246 3 C228 3 210 21 210 39 L210 478.999 C210 490.59 200.591 500.112 189 500.25 L176.229 500.402 C174.923 500.418 159.935 498.193 158.679 497.833 C133.742 490.688 97.5168 480.25 71.8515 472.893 C71.781 472.872 73.9652 471.852 74.0359 471.872 L74.0359 471.872 Z " />
<glyph glyph-name="Imacron" unicode="&#x12a;" horiz-adv-x="385" d="M69.5 895 L310.5 895 C326.783 895 340 908.217 340 924.5 C340 940.783 326.783 954 310.5 954 L69.5 954 C53.2169 954 40 940.783 40 924.5 C40 908.217 53.2169 895 69.5 895 L69.5 895 Z M311 3 C275 3 240 38 240 74 L240 676 C240 711.1 273.272 745.249 308.302 746.935 C308.356 746.937 313.938 747.315 313.991 747.321 L318 747.75 C318.412 747.794 318.374 748.5 317.96 748.5 L62.0401 748.5 C61.6261 748.5 61.5884 747.794 62 747.75 L66.0086 747.321 C66.0617 747.315 71.6442 746.937 71.6976 746.935 C106.728 745.249 140 711.1 140 676 L140 74 C140 38.9 106.728 4.75063 71.6976 3.06509 C71.6442 3.06252 66.0617 2.68519 66.0086 2.67949 L62 2.25 C61.5884 2.2059 61.6261 1.5 62.0401 1.5 L318 1.5 L311 3 Z " />
<glyph glyph-name="imacron" unicode="&#x12b;" horiz-adv-x="320" d="M47.5 645 L288.5 645 C304.783 645 318 658.217 318 674.5 C318 690.783 304.783 704 288.5 704 L47.5 704 C31.2169 704 18 690.783 18 674.5 C18 658.217 31.2169 645 47.5 645 L47.5 645 Z M74.0359 471.872 L89 476 C107 481 125 468 125 450 L125 39 C125 21 107 3 89 3 L74.5 2.25 C74.0866 2.22862 74.1054 1.5 74.5194 1.5 L260.481 1.5 C260.895 1.5 260.913 2.22862 260.5 2.25 L246 3 C228 3 210 21 210 39 L210 478.999 C210 490.59 200.591 500.112 189 500.25 L176.229 500.402 C174.923 500.418 159.935 498.193 158.679 497.833 C133.742 490.688 97.5168 480.25 71.8515 472.893 C71.781 472.872 73.9652 471.852 74.0359 471.872 L74.0359 471.872 Z " />
<glyph glyph-name="Ibreve" unicode="&#x12c;" horiz-adv-x="385" d="M57.3349 984.572 C68.495 925.052 130.15 870 190 870 C249.85 870 313.31 924.15 323.793 982.722 C324.771 988.183 321.472 992.588 316 993.5 C312.406 994.099 305.911 988.534 304.534 985.161 C292.6 955.92 241.3 930 190 930 C137.275 930 84.55 958.236 74.5635 989.38 C73.41 992.978 68.2202 996.157 64.5 995.5 C59.3642 994.594 56.3738 989.698 57.3349 984.572 L57.3349 984.572 Z M311 3 C275 3 240 38 240 74 L240 676 C240 711.1 273.272 745.249 308.302 746.935 C308.356 746.937 313.938 747.315 313.991 747.321 L318 747.75 C318.412 747.794 318.374 748.5 317.96 748.5 L62.0401 748.5 C61.6261 748.5 61.5884 747.794 62 747.75 L66.0086 747.321 C66.0617 747.315 71.6442 746.937 71.6976 746.935 C106.728 745.249 140 711.1 140 676 L140 74 C140 38.9 106.728 4.75063 71.6976 3.06509 C71.6442 3.06252 66.0617 2.68519 66.0086 2.67949 L62 2.25 C61.5884 2.2059 61.6261 1.5 62.0401 1.5 L318 1.5 L311 3 Z " />
<glyph glyph-name="ibreve" unicode="&#x12d;" horiz-adv-x="320" d="M34.3421 734.572 C45.5925 675.052 108.15 620 168 620 C227.85 620 290.407 674.15 300.801 732.722 C301.768 738.176 298.464 742.589 293 743.5 C289.405 744.099 282.911 738.536 281.535 735.161 C269.61 705.92 218.4 680 168 680 C115.275 680 62.55 708.236 52.5635 739.38 C51.3459 743.178 45.9335 746.156 42 745.5 C36.5553 744.593 33.3169 739.996 34.3421 734.572 L34.3421 734.572 Z M74.0359 471.872 L89 476 C107 481 125 468 125 450 L125 39 C125 21 107 3 89 3 L74.5 2.25 C74.0866 2.22862 74.1054 1.5 74.5194 1.5 L260.481 1.5 C260.895 1.5 260.913 2.22862 260.5 2.25 L246 3 C228 3 210 21 210 39 L210 478.999 C210 490.59 200.591 500.112 189 500.25 L176.229 500.402 C174.923 500.418 159.935 498.193 158.679 497.833 C133.742 490.688 97.5168 480.25 71.8515 472.893 C71.781 472.872 73.9652 471.852 74.0359 471.872 L74.0359 471.872 Z " />
<glyph glyph-name="Idot" unicode="&#x130;" horiz-adv-x="385" d="M190 865 C218 865 245 892 245 920 C245 948 218 975 190 975 C162 975 135 948 135 920 C135 892 162 865 190 865 L190 865 Z M311 3 C275 3 240 38 240 74 L240 676 C240 711.1 273.272 745.249 308.302 746.935 C308.356 746.937 313.938 747.315 313.991 747.321 L318 747.75 C318.412 747.794 318.374 748.5 317.96 748.5 L62.0401 748.5 C61.6261 748.5 61.5884 747.794 62 747.75 L66.0086 747.321 C66.0617 747.315 71.6442 746.937 71.6976 746.935 C106.728 745.249 140 711.1 140 676 L140 74 C140 38.9 106.728 4.75063 71.6976 3.06509 C71.6442 3.06252 66.0617 2.68519 66.0086 2.67949 L62 2.25 C61.5884 2.2059 61.6261 1.5 62.0401 1.5 L318 1.5 L311 3 Z " />
<glyph glyph-name="dotlessi" unicode="&#x131;" horiz-adv-x="320" d="M74.0359 471.872 L89 476 C107 481 125 468 125 450 L125 39 C125 21 107 3 89 3 L74.5 2.25 C74.0866 2.22862 74.1054 1.5 74.5194 1.5 L260.481 1.5 C260.895 1.5 260.913 2.22862 260.5 2.25 L246 3 C228 3 210 21 210 39 L210 478.999 C210 490.59 200.591 500.112 189 500.25 L176.229 500.402 C174.923 500.418 159.935 498.193 158.679 497.833 C133.742 490.688 97.5168 480.25 71.8515 472.893 C71.781 472.872 73.9652 471.852 74.0359 471.872 L74.0359 471.872 Z " />
<glyph glyph-name="Jcircumflex" unicode="&#x134;" horiz-adv-x="385" d="M220 1005 C215 1013 198 1035 190 1035 C182 1035 165 1013 160 1005 L42.2357 822.562 C39.915 818.967 40.7126 813.739 44 811 C47.2971 808.252 52.4968 808.479 55.5424 811.503 L150.319 905.602 C172.221 927.348 207.779 927.348 229.681 905.602 L324.458 811.503 C327.503 808.479 332.703 808.252 336 811 C339.287 813.739 340.085 818.967 337.764 822.562 L220 1005 L220 1005 Z M317.96 749.961 L62.04 748.539 C61.6045 748.537 61.567 747.796 62 747.75 L66.0086 747.321 C66.0617 747.315 71.6442 746.937 71.6976 746.935 C106.728 745.249 140 711.1 140 676 L140 -72 C140 -153 76 -185 40 -185 C-2 -185 7 -105 -35 -105 C-58 -105 -80 -127 -80 -150 C-80 -186 -33 -220 15 -220 C95 -220 240 -124 240 116 L240 676 C240 711.1 273.272 745.249 308.302 746.935 C308.356 746.937 313.938 747.315 313.991 747.321 L318 747.75 C318.39 747.792 318.353 749.963 317.96 749.961 L317.96 749.961 Z " />
<glyph glyph-name="Lacute" unicode="&#x139;" horiz-adv-x="650" d="M204.941 817.02 L341 932 C374 960 405 991 405 996 C405 1015 382 1038 363 1038 C358 1038 329 1005 302 971 L192.746 829.162 C190.148 825.789 190.489 820.511 193.5 817.5 C196.525 814.475 201.673 814.259 204.941 817.02 L204.941 817.02 Z M317.96 749.961 L62.04 748.539 C61.6045 748.537 61.567 747.796 62 747.75 L66.0086 747.321 C66.0617 747.315 71.6442 746.937 71.6976 746.935 C106.728 745.249 140 711.1 140 676 L140 74 C140 38.9 106.728 4.75063 71.6976 3.06509 C71.6442 3.06252 66.0617 2.68519 66.0086 2.67949 L62 2.25 C61.5773 2.20471 61.6149 1.48092 62.04 1.47969 L570.877 0.0118935 C573.086 0.0055201 575.464 1.85651 576 4 L577 8 C582.846 41.1282 594.389 104.636 600.527 139.323 C601.001 142 598.719 142 596 142 C593.368 142 590.287 139.742 589.494 137.232 L585 123 C569 69 491 17 427 17 L328 17 C261 17 240 52 240 88 L240 676 C240 711.1 273.272 745.249 308.302 746.935 C308.356 746.937 313.938 747.315 313.991 747.321 L318 747.75 C318.39 747.792 318.353 749.963 317.96 749.961 L317.96 749.961 Z " />
<glyph glyph-name="Lcaron" unicode="&#x13d;" horiz-adv-x="650" d="M428 808 C413 808 400 739 397 700 L387.686 596.618 C387.31 592.437 390.384 588.323 394.5 587.5 C398.588 586.682 403.212 589.262 404.663 593.17 L441 691 C454 724 466 776 466 796 C466 803 447 808 428 808 L428 808 Z M317.96 749.961 L62.04 748.539 C61.6045 748.537 61.567 747.796 62 747.75 L66.0086 747.321 C66.0617 747.315 71.6442 746.937 71.6976 746.935 C106.728 745.249 140 711.1 140 676 L140 74 C140 38.9 106.728 4.75063 71.6976 3.06509 C71.6442 3.06252 66.0617 2.68519 66.0086 2.67949 L62 2.25 C61.5773 2.20471 61.6149 1.48092 62.04 1.47969 L570.877 0.0118935 C573.086 0.0055201 575.464 1.85651 576 4 L577 8 C582.846 41.1282 594.389 104.636 600.527 139.323 C601.001 142 598.719 142 596 142 C593.368 142 590.287 139.742 589.494 137.232 L585 123 C569 69 491 17 427 17 L328 17 C261 17 240 52 240 88 L240 676 C240 711.1 273.272 745.249 308.302 746.935 C308.356 746.937 313.938 747.315 313.991 747.321 L318 747.75 C318.39 747.792 318.353 749.963 317.96 749.961 L317.96 749.961 Z " />
<glyph glyph-name="lcaron" unicode="&#x13e;" horiz-adv-x="264" d="M256 758 C241 758 228 689 225 650 L215.686 546.618 C215.31 542.437 218.384 538.323 222.5 537.5 C226.588 536.682 231.212 539.262 232.663 543.17 L269 641 C282 674 294 726 294 746 C294 753 275 758 256 758 L256 758 Z M21.9417 715.588 L29 717 C57 721 84 692 84 659 L84 39 C84 21 66 3 48 3 L33.5 2.25 C33.0866 2.22862 33.1054 1.5 33.5194 1.5 L219.481 1.5 C219.895 1.5 219.913 2.22862 219.5 2.25 L205 3 C187 3 169 21 169 39 L169 728.999 C169 740.59 159.591 750.112 148 750.25 L135.229 750.402 C133.992 750.417 118.871 748.208 117.679 747.877 C88.5858 739.789 44.1282 728.179 19 721 C17.4691 720.563 19 719.592 19 718 C19 716.376 20.3495 715.27 21.9417 715.588 L21.9417 715.588 Z " />
<glyph glyph-name="Nacute" unicode="&#x143;" horiz-adv-x="786" d="M302.677 816.798 L439 932 C472 960 503 991 503 996 C503 1015 480 1038 461 1038 C456 1038 427 1005 400 971 L291.511 828.908 C289.062 825.7 289.285 820.486 292 817.5 C294.758 814.466 299.546 814.151 302.677 816.798 L302.677 816.798 Z M59.8235 0.0511761 L245.96 1.4472 C246.403 1.45052 246.44 2.20281 246 2.25 L241.991 2.67949 C241.938 2.68519 236.356 3.06252 236.302 3.06509 C201.272 4.75062 168 38.9 168 74 L165.704 485.692 C165.477 526.497 219.159 537.85 243.23 504.9 C362.455 341.7 481.791 178.5 601.752 15.3 C604.386 11.7158 618.552 0 623 0 C628.519 0 633.046 4.48035 633.103 9.99947 L640 681 C642.925 714.15 675.319 745.399 708.45 746.94 C708.507 746.943 713.935 747.315 713.991 747.321 L718 747.75 C718.412 747.794 718.374 748.5 717.96 748.5 L532.04 748.5 C531.626 748.5 531.588 747.794 532 747.75 L536.009 747.321 C536.062 747.315 541.644 746.937 541.698 746.935 C576.728 745.249 610 711.1 610 676 L610.763 290.805 C610.84 251.698 559.656 240.865 536.537 272.406 C426.734 422.205 317.427 572.394 208.15 722.043 C200.521 732.49 171.077 750.885 158.14 750.791 L-12.9601 749.551 C-13.4021 749.548 -13.4394 748.797 -13 748.75 L-8.99141 748.321 C-8.93521 748.314 -3.31053 747.938 -3.25406 747.935 C33.0281 746.249 91.65 712.1 117 677 L127.5 663 C130.985 658.353 137.98 637.309 137.97 631.5 L137 75 C137 40.8 105.413 7.5025 71.3882 4.25825 C71.3464 4.25426 61.9372 3.3981 61.8956 3.39194 L59.25 3 C58.7316 2.92321 59.2995 0.0472461 59.8235 0.0511761 L59.8235 0.0511761 Z " />
<glyph glyph-name="Ncaron" unicode="&#x147;" horiz-adv-x="786" d="M524.707 1038.78 L428.68 944.117 C406.779 922.527 371.284 922.59 349.46 944.258 L254.275 1038.76 C251.367 1041.65 246.532 1041.76 243.5 1039 C240.505 1036.28 239.836 1031.16 242.031 1027.76 L360 845 C365 837 382 815 390 815 C398 815 415 837 420 845 L536.992 1027.74 C539.173 1031.15 538.493 1036.28 535.5 1039 C532.469 1041.76 527.624 1041.66 524.707 1038.78 L524.707 1038.78 Z M59.8235 0.0511761 L245.96 1.4472 C246.403 1.45052 246.44 2.20281 246 2.25 L241.991 2.67949 C241.938 2.68519 236.356 3.06252 236.302 3.06509 C201.272 4.75062 168 38.9 168 74 L165.704 485.692 C165.477 526.497 219.159 537.85 243.23 504.9 C362.455 341.7 481.791 178.5 601.752 15.3 C604.386 11.7158 618.552 0 623 0 C628.519 0 633.046 4.48035 633.103 9.99947 L640 681 C642.925 714.15 675.319 745.399 708.45 746.94 C708.507 746.943 713.935 747.315 713.991 747.321 L718 747.75 C718.412 747.794 718.374 748.5 717.96 748.5 L532.04 748.5 C531.626 748.5 531.588 747.794 532 747.75 L536.009 747.321 C536.062 747.315 541.644 746.937 541.698 746.935 C576.728 745.249 610 711.1 610 676 L610.763 290.805 C610.84 251.698 559.656 240.865 536.537 272.406 C426.734 422.205 317.427 572.394 208.15 722.043 C200.521 732.49 171.077 750.885 158.14 750.791 L-12.9601 749.551 C-13.4021 749.548 -13.4394 748.797 -13 748.75 L-8.99141 748.321 C-8.93521 748.314 -3.31053 747.938 -3.25406 747.935 C33.0281 746.249 91.65 712.1 117 677 L127.5 663 C130.985 658.353 137.98 637.309 137.97 631.5 L137 75 C137 40.8 105.413 7.5025 71.3882 4.25825 C71.3464 4.25426 61.9372 3.3981 61.8956 3.39194 L59.25 3 C58.7316 2.92321 59.2995 0.0472461 59.8235 0.0511761 L59.8235 0.0511761 Z " />
<glyph glyph-name="ncaron" unicode="&#x148;" horiz-adv-x="569" d="M413.458 788.497 L318.681 694.398 C296.779 672.652 261.221 672.652 239.319 694.398 L144.542 788.497 C141.497 791.521 136.297 791.748 133 789 C129.713 786.261 128.915 781.033 131.236 777.438 L249 595 C254 587 271 565 279 565 C287 565 304 587 309 595 L426.764 777.438 C429.085 781.033 428.287 786.261 425 789 C421.703 791.748 416.503 791.521 413.458 788.497 L413.458 788.497 Z M21.9417 465.588 L29 467 C57 471 84 442 84 409 L84 39 C84 21 66 3 48 3 L33.5 2.25 C33.0866 2.22862 33.1054 1.5 33.5194 1.5 L219.481 1.5 C219.895 1.5 219.913 2.22862 219.5 2.25 L205 3 C187 3 169 21 169 39 L169 344.899 C169 350.716 174.289 368.671 177.676 373.399 C206.17 413.17 255.4 448 286 448 C344 448 389 390 389 330 L389 39 C389 21 371 3 353 3 L338.5 2.25 C338.087 2.22862 338.105 1.5 338.519 1.5 L524.481 1.5 C524.895 1.5 524.913 2.22862 524.5 2.25 L510 3 C492 3 474 21 474 39 L474 330 C474 422 414 510 337 510 C295.35 510 229.857 465.928 188.424 413.402 C182.373 405.731 169 412.193 169 421.963 L169 478.999 C169 490.59 159.591 500.112 148 500.25 L135.229 500.402 C133.992 500.417 118.871 498.208 117.679 497.877 C88.5858 489.789 44.1282 478.179 19 471 C17.4691 470.563 19 469.592 19 468 C19 466.376 20.3495 465.27 21.9417 465.588 L21.9417 465.588 Z " />
<glyph glyph-name="Omacron" unicode="&#x14c;" horiz-adv-x="851" d="M297.5 895 L538.5 895 C554.783 895 568 908.217 568 924.5 C568 940.783 554.783 954 538.5 954 L297.5 954 C281.217 954 268 940.783 268 924.5 C268 908.217 281.217 895 297.5 895 L297.5 895 Z M159 375 C159 559 284 735 414 735 C553 735 687 559 687 375 C687 191 553 15 413 15 C283 15 159 191 159 375 L159 375 Z M50 375 C50 179 225 -10 408 -10 C606 -10 796 179 796 375 C796 571 611 760 418 760 C230 760 50 571 50 375 L50 375 Z " />
<glyph glyph-name="omacron" unicode="&#x14d;" horiz-adv-x="613" d="M186.5 645 L427.5 645 C443.783 645 457 658.217 457 674.5 C457 690.783 443.783 704 427.5 704 L186.5 704 C170.217 704 157 690.783 157 674.5 C157 658.217 170.217 645 186.5 645 L186.5 645 Z M139 250 C139 369 221 484 307 484 C393 484 475 369 475 250 C475 131 393 16 307 16 C221 16 139 131 139 250 L139 250 Z M45 250 C45 117 173 -10 307 -10 C440 -10 568 117 568 250 C568 383 440 510 307 510 C173 510 45 383 45 250 L45 250 Z " />
<glyph glyph-name="Obreve" unicode="&#x14e;" horiz-adv-x="851" d="M285.335 984.572 C296.495 925.052 358.15 870 418 870 C477.85 870 541.31 924.15 551.793 982.722 C552.771 988.183 549.472 992.588 544 993.5 C540.406 994.099 533.911 988.534 532.534 985.161 C520.6 955.92 469.3 930 418 930 C365.275 930 312.55 958.236 302.563 989.38 C301.41 992.978 296.22 996.157 292.5 995.5 C287.364 994.594 284.374 989.698 285.335 984.572 L285.335 984.572 Z M159 375 C159 559 284 735 414 735 C553 735 687 559 687 375 C687 191 553 15 413 15 C283 15 159 191 159 375 L159 375 Z M50 375 C50 179 225 -10 408 -10 C606 -10 796 179 796 375 C796 571 611 760 418 760 C230 760 50 571 50 375 L50 375 Z " />
<glyph glyph-name="obreve" unicode="&#x14f;" horiz-adv-x="613" d="M174.335 734.572 C185.495 675.052 247.15 620 307 620 C366.85 620 430.31 674.15 440.793 732.722 C441.771 738.183 438.472 742.588 433 743.5 C429.406 744.099 422.911 738.534 421.534 735.161 C409.6 705.92 358.3 680 307 680 C254.275 680 201.55 708.236 191.563 739.38 C190.41 742.978 185.22 746.157 181.5 745.5 C176.364 744.594 173.374 739.698 174.335 734.572 L174.335 734.572 Z M139 250 C139 369 221 484 307 484 C393 484 475 369 475 250 C475 131 393 16 307 16 C221 16 139 131 139 250 L139 250 Z M45 250 C45 117 173 -10 307 -10 C440 -10 568 117 568 250 C568 383 440 510 307 510 C173 510 45 383 45 250 L45 250 Z " />
<glyph glyph-name="Racute" unicode="&#x154;" horiz-adv-x="796" d="M335.677 816.798 L472 932 C505 960 536 991 536 996 C536 1015 513 1038 494 1038 C489 1038 460 1005 433 971 L324.511 828.908 C322.062 825.7 322.285 820.486 325 817.5 C327.758 814.466 332.546 814.151 335.677 816.798 L335.677 816.798 Z M67 747 L74 747 C110 747 145 712 145 676 L145 74 C145 38.9 111.728 4.75063 76.6976 3.06509 C76.6442 3.06252 71.0617 2.68519 71.0086 2.67949 L67 2.25 C66.5884 2.2059 66.6261 1.5 67.0401 1.5 L322.96 1.5 C323.374 1.5 323.412 2.2059 323 2.25 L318.991 2.67949 C318.938 2.68519 313.356 3.06252 313.302 3.06509 C278.272 4.75062 245 38.9 245 74 L245 304.5 C245 332.374 267.626 355 295.5 355 L322.495 355 C333.158 355 351.789 344.887 357.32 335.77 C389.75 282.313 462.375 171.625 535 64 C567.375 16.825 609.162 4.30281 750.586 2.68984 C750.586 2.68984 748.447 1.44488 748.447 1.44488 L748.699 5.43697 C748.699 5.43697 746.56 4.192 746.56 4.192 C699.68 8.96 678.4 24.8 652 64 C574.125 179.5 498.547 291.172 460.102 348.102 C452.478 359.39 460.495 373.104 473.247 377.891 C552.87 407.78 612 466.1 612 539 C612 647 484 751 351 751 L67.4998 749.048 C67.4732 749.048 66.9734 747 67 747 L67 747 Z M246 433.5 L246 693.5 C246 714.199 262.801 731 283.5 731 L321 731 C413 731 501 647 501 559 C501 455 428 381 351 381 L298.5 381 C269.522 381 246 404.522 246 433.5 L246 433.5 Z " />
<glyph glyph-name="Rcaron" unicode="&#x158;" horiz-adv-x="796" d="M457.707 1038.78 L361.68 944.117 C339.779 922.527 304.284 922.59 282.46 944.258 L187.275 1038.76 C184.367 1041.65 179.532 1041.76 176.5 1039 C173.505 1036.28 172.836 1031.16 175.031 1027.76 L293 845 C298 837 315 815 323 815 C331 815 348 837 353 845 L469.992 1027.74 C472.173 1031.15 471.493 1036.28 468.5 1039 C465.469 1041.76 460.624 1041.66 457.707 1038.78 L457.707 1038.78 Z M67 747 L74 747 C110 747 145 712 145 676 L145 74 C145 38.9 111.728 4.75063 76.6976 3.06509 C76.6442 3.06252 71.0617 2.68519 71.0086 2.67949 L67 2.25 C66.5884 2.2059 66.6261 1.5 67.0401 1.5 L322.96 1.5 C323.374 1.5 323.412 2.2059 323 2.25 L318.991 2.67949 C318.938 2.68519 313.356 3.06252 313.302 3.06509 C278.272 4.75062 245 38.9 245 74 L245 304.5 C245 332.374 267.626 355 295.5 355 L322.495 355 C333.158 355 351.789 344.887 357.32 335.77 C389.75 282.313 462.375 171.625 535 64 C567.375 16.825 609.162 4.30281 750.586 2.68984 C750.586 2.68984 748.447 1.44488 748.447 1.44488 L748.699 5.43697 C748.699 5.43697 746.56 4.192 746.56 4.192 C699.68 8.96 678.4 24.8 652 64 C574.125 179.5 498.547 291.172 460.102 348.102 C452.478 359.39 460.495 373.104 473.247 377.891 C552.87 407.78 612 466.1 612 539 C612 647 484 751 351 751 L67.4998 749.048 C67.4732 749.048 66.9734 747 67 747 L67 747 Z M246 433.5 L246 693.5 C246 714.199 262.801 731 283.5 731 L321 731 C413 731 501 647 501 559 C501 455 428 381 351 381 L298.5 381 C269.522 381 246 404.522 246 433.5 L246 433.5 Z " />
<glyph glyph-name="rcaron" unicode="&#x159;" horiz-adv-x="420" d="M374.458 788.497 L279.681 694.398 C257.779 672.652 222.221 672.652 200.319 694.398 L105.542 788.497 C102.497 791.521 97.2971 791.748 94 789 C90.7126 786.261 89.915 781.033 92.2357 777.438 L210 595 C215 587 232 565 240 565 C248 565 265 587 270 595 L387.764 777.438 C390.085 781.033 389.287 786.261 386 789 C382.703 791.748 377.503 791.521 374.458 788.497 L374.458 788.497 Z M22.9417 465.588 L30 467 C58 471 85 442 85 409 L85 39 C85 21 67 3 49 3 L34.5 2.25 C34.0866 2.22862 34.1054 1.5 34.5194 1.5 L220.481 1.5 C220.895 1.5 220.913 2.22862 220.5 2.25 L206 3 C188 3 170 21 170 39 L170 346 C170 348.373 172.588 362.757 173.497 364.949 C196.862 421.265 242.7 470 275 470 C293 470 310 453 310 435 C310 410 335 385 360 385 C386 385 410 410 410 435 C410 473 363 510 315 510 C269.1 510 213.808 472.43 183.513 425.54 C180.076 420.219 170 425.05 170 431.385 L170 478.999 C170 490.59 160.591 500.112 149 500.25 L136.229 500.402 C134.992 500.417 119.871 498.208 118.679 497.877 C89.5858 489.789 45.1282 478.179 20 471 C18.4691 470.563 20 469.592 20 468 C20 466.376 21.3495 465.27 22.9417 465.588 L22.9417 465.588 Z " />
<glyph glyph-name="Sacute" unicode="&#x15a;" horiz-adv-x="551" d="M287.941 817.02 L424 932 C457 960 488 991 488 996 C488 1015 465 1038 446 1038 C441 1038 412 1005 385 971 L275.746 829.162 C273.148 825.789 273.489 820.511 276.5 817.5 C279.525 814.475 284.673 814.259 287.941 817.02 L287.941 817.02 Z M50 232.5 L50 3.5 C50 1.5681 51.5681 0 53.5 0 C55.3832 0 57.0079 1.93372 57.0554 3.81633 C57.2653 12.1429 58 24.1429 58 31 C60 66 97 75 134 51 C183 15 243 -10 292 -10 C404 -10 511 91 511 196 C511 279 428 388 322 427 C222 464 143 545 143 601 C143 669 198 735 256 735 C276 735 297 731 318 724 C371 706 436 633 451 574 C452.636 569.091 454.273 560.165 455.909 553.796 C456.362 552.034 458.343 550 460.162 550 L464 550 C467.864 550 471 553.136 471 557 L471 750.5 C471 752.432 469.432 754 467.5 754 L467 754 C465.427 754 463.922 750.446 463.844 748.875 C463.563 743.25 463 736.5 463 732 C461 705 428 698 396 717 C354 743 302 760 257 760 C159 760 65 663 65 563 C65 477 152 363 263 323 C358 288 432 215 432 167 C432 93 364 22 293 22 C261 22 224 34 190 53 C141 83 85 160 71 216 C69.3636 220.909 67.7273 229.835 66.0909 236.204 C65.6383 237.966 63.6569 240 61.8377 240 L57.5 240 C53.3602 240 50 236.64 50 232.5 L50 232.5 Z " />
<glyph glyph-name="Scircumflex" unicode="&#x15c;" horiz-adv-x="551" d="M50 232.5 L50 3.5 C50 1.5681 51.5681 0 53.5 0 C55.3832 0 57.0079 1.93372 57.0554 3.81633 C57.2653 12.1429 58 24.1429 58 31 C60 66 97 75 134 51 C183 15 243 -10 292 -10 C404 -10 511 91 511 196 C511 279 428 388 322 427 C222 464 143 545 143 601 C143 669 198 735 256 735 C276 735 297 731 318 724 C371 706 436 633 451 574 C452.636 569.091 454.273 560.165 455.909 553.796 C456.362 552.034 458.343 550 460.162 550 L464 550 C467.864 550 471 553.136 471 557 L471 750.5 C471 752.432 469.432 754 467.5 754 L467 754 C465.427 754 463.922 750.446 463.844 748.875 C463.563 743.25 463 736.5 463 732 C461 705 428 698 396 717 C354 743 302 760 257 760 C159 760 65 663 65 563 C65 477 152 363 263 323 C358 288 432 215 432 167 C432 93 364 22 293 22 C261 22 224 34 190 53 C141 83 85 160 71 216 C69.3636 220.909 67.7273 229.835 66.0909 236.204 C65.6383 237.966 63.6569 240 61.8377 240 L57.5 240 C53.3602 240 50 236.64 50 232.5 L50 232.5 Z M305 1005 C300 1013 283 1035 275 1035 C267 1035 250 1013 245 1005 L127.236 822.562 C124.915 818.967 125.713 813.739 129 811 C132.297 808.252 137.497 808.479 140.542 811.503 L235.319 905.602 C257.221 927.348 292.779 927.348 314.681 905.602 L409.458 811.503 C412.503 808.479 417.703 808.252 421 811 C424.287 813.739 425.085 818.967 422.764 822.562 L305 1005 L305 1005 Z " />
<glyph glyph-name="Scaron" unicode="&#x160;" horiz-adv-x="551" d="M408.458 1038.5 L313.681 944.398 C291.779 922.652 256.221 922.652 234.319 944.398 L139.542 1038.5 C136.497 1041.52 131.297 1041.75 128 1039 C124.713 1036.26 123.915 1031.03 126.236 1027.44 L244 845 C249 837 266 815 274 815 C282 815 299 837 304 845 L421.764 1027.44 C424.085 1031.03 423.287 1036.26 420 1039 C416.703 1041.75 411.503 1041.52 408.458 1038.5 L408.458 1038.5 Z M50 232.5 L50 3.5 C50 1.5681 51.5681 0 53.5 0 C55.3832 0 57.0079 1.93372 57.0554 3.81633 C57.2653 12.1429 58 24.1429 58 31 C60 66 97 75 134 51 C183 15 243 -10 292 -10 C404 -10 511 91 511 196 C511 279 428 388 322 427 C222 464 143 545 143 601 C143 669 198 735 256 735 C276 735 297 731 318 724 C371 706 436 633 451 574 C452.636 569.091 454.273 560.165 455.909 553.796 C456.362 552.034 458.343 550 460.162 550 L464 550 C467.864 550 471 553.136 471 557 L471 750.5 C471 752.432 469.432 754 467.5 754 L467 754 C465.427 754 463.922 750.446 463.844 748.875 C463.563 743.25 463 736.5 463 732 C461 705 428 698 396 717 C354 743 302 760 257 760 C159 760 65 663 65 563 C65 477 152 363 263 323 C358 288 432 215 432 167 C432 93 364 22 293 22 C261 22 224 34 190 53 C141 83 85 160 71 216 C69.3636 220.909 67.7273 229.835 66.0909 236.204 C65.6383 237.966 63.6569 240 61.8377 240 L57.5 240 C53.3602 240 50 236.64 50 232.5 L50 232.5 Z " />
<glyph glyph-name="scaron" unicode="&#x161;" horiz-adv-x="428" d="M352.458 788.497 L257.681 694.398 C235.779 672.652 200.221 672.652 178.319 694.398 L83.5424 788.497 C80.4968 791.521 75.2971 791.748 72 789 C68.7126 786.261 67.915 781.033 70.2357 777.438 L188 595 C193 587 210 565 218 565 C226 565 243 587 248 595 L365.764 777.438 C368.085 781.033 367.287 786.261 364 789 C360.703 791.748 355.503 791.521 352.458 788.497 L352.458 788.497 Z M65 177 L60 177 L60 -1 L65 -1 C65 4 66 14 66 19 C67 36 106 32 146 11 C170 -2 196 -10 218 -10 C300 -10 378 59 378 130 C378 188 316 261 237 282 C171 300 119 360 119 409 C119 450 161 490 204 490 C212 490 221 489 230 487 C284 470 335 405 348 342 L353 342 L353 510 L348 510 C348 506 347 497 347 493 C346 479 305 482 263 498 C243 506 222 511 203 511 C129 511 58 447 58 381 C58 318 119 240 198 219 C262 202 312 149 312 107 C312 58 265 11 217 11 C216 11 185 14 186 17 C133 34 77.5 111.5 64.5 177.5 L65 177 Z " />
<glyph glyph-name="Tcaron" unicode="&#x164;" horiz-adv-x="775" d="M524.458 1038.5 L429.681 944.398 C407.779 922.652 372.221 922.652 350.319 944.398 L255.542 1038.5 C252.497 1041.52 247.297 1041.75 244 1039 C240.713 1036.26 239.915 1031.03 242.236 1027.44 L360 845 C365 837 382 815 390 815 C398 815 415 837 420 845 L537.764 1027.44 C540.085 1031.03 539.287 1036.26 536 1039 C532.703 1041.75 527.503 1041.52 524.458 1038.5 L524.458 1038.5 Z M693 791.5 L692.931 791.259 C692.531 789.857 691.26 786.367 690.454 785.152 C678.507 767.147 626.4 750 577 750 L200 750 C148 750 92 769 85 788 L84 791.5 C83.4693 793.358 81.2918 795 79.3599 795 L78.5 795 C76.1533 795 72.7316 792.167 71.8125 790.008 C67.434 779.722 61.7799 764.984 56.9264 752.716 C56.8112 752.425 54.3663 744.805 54.2935 744.5 L53.4565 741 C53.3801 740.681 51.5206 734.55 51.3988 734.246 C37.5242 699.524 12.9758 637.476 -0.898844 602.754 C-1.84945 600.375 0.438156 600 3 600 C5.38845 600 9.30848 602.26 10.5052 604.327 L19 619 C47 673 127 725 181 725 L282.68 725 C313.767 725 339 699.767 339 668.68 L339 74 C339 38.9 305.728 4.75063 270.698 3.06509 C270.644 3.06252 265.062 2.68519 265.009 2.67949 L261 2.25 C260.588 2.2059 260.626 1.5 261.04 1.5 L516.96 1.5 C517.374 1.5 517.412 2.2059 517 2.25 L512.991 2.67949 C512.938 2.68519 507.356 3.06252 507.302 3.06509 C472.272 4.75062 439 38.9 439 74 L439 668.68 C439 699.767 464.233 725 495.32 725 L598 725 C652 725 732 673 761 619 L769.495 604.327 C770.692 602.26 774.612 600 777 600 C779.562 600 780.697 603.257 779.747 605.636 C765.265 641.888 740.282 704.795 727 738 L705.871 790.363 C704.913 792.737 701.559 795 699 795 L697.64 795 C695.708 795 693.531 793.358 693 791.5 L693 791.5 Z " />
<glyph glyph-name="tcaron" unicode="&#x165;" horiz-adv-x="378" d="M310.5 500 L236.32 500 C205.233 500 180 525.233 180 556.32 L180 617 C180 618.656 178.656 620 177 620 C175.79 620 172.777 618.692 171.951 617.809 L33.415 469.652 C32.1276 468.275 30 462.885 30 461 C30 458.24 32.2402 456 35 456 L62.5 456 C80.439 456 95 441.439 95 423.5 L95 160 C95 56 162 -10 232 -10 C280.75 -10 344.71 39.4325 366.415 91.9545 C367.593 94.8055 365.864 96.8543 363 98 C360.471 99.0118 356.927 97.0927 355.786 94.619 C340.128 60.685 294.1 30 258 30 C217 30 178 73 178 141 L179.644 399.039 C179.84 429.927 205.073 455 235.962 455 L310.5 455 C322.919 455 333 465.081 333 477.5 C333 489.919 322.919 500 310.5 500 L310.5 500 Z M425 758 C410 758 397 689 394 650 L384.686 546.618 C384.31 542.437 387.384 538.323 391.5 537.5 C395.588 536.682 400.212 539.262 401.663 543.17 L438 641 C451 674 463 726 463 746 C463 753 444 758 425 758 L425 758 Z " />
<glyph glyph-name="Utilde" unicode="&#x168;" horiz-adv-x="760" d="M237.363 877.106 C240.231 905.29 259.615 930 279 930 C323 930 408 865 452 865 C490.95 865 528.998 918.248 532.705 975.872 C532.988 980.269 529.906 985 525.5 985 C521.808 985 518.021 981.741 517.622 978.07 C514.55 949.813 493.275 925 472 925 C428 925 342 990 298 990 C260.95 990 225.705 936.752 222.273 879.128 C222.012 874.75 225.114 870 229.5 870 C233.221 870 236.987 873.404 237.363 877.106 L237.363 877.106 Z M723 37 L716 35 C680 25 645 51 645 87 L645 693.222 C645 724.56 619.561 749.794 588.223 749.54 L467.04 748.557 C466.595 748.553 466.557 747.797 467 747.75 L471.009 747.321 C471.062 747.315 476.644 746.937 476.698 746.935 C511.728 745.249 545 711.1 545 676 L545 202.424 C545 198.375 541.671 183.195 539.673 179.673 C502.672 114.467 405.25 54 334 54 C271 54 210 135 210 220 L210 693.222 C210 724.56 184.561 749.794 153.223 749.54 L32.0398 748.557 C31.5946 748.553 31.5572 747.797 32 747.75 L36.0086 747.321 C36.0617 747.315 41.6442 746.937 41.6976 746.935 C76.7281 745.249 110 711.1 110 676 L110 220 C110 103 200 -10 294 -10 C371.35 -10 471.82 44.91 522.943 109.899 C528.86 117.421 545 110.953 545 101.382 L545 25 C545 11.2007 556.201 0 570 0 L592.45 0 C592.769 0 596.803 0.377831 597.114 0.444805 C607.384 2.65551 645 11.1714 645 13 C672.821 20.1795 702.252 29.3725 723.175 35.5194 C723.175 35.5194 723 37 723 37 L723 37 Z " />
<glyph glyph-name="utilde" unicode="&#x169;" horiz-adv-x="560" d="M135.346 627.106 C138.083 655.29 156.615 680 176 680 C220 680 305 615 349 615 C387.95 615 425.998 668.248 429.705 725.872 C429.988 730.269 426.906 735 422.5 735 C418.808 735 415.021 731.741 414.622 728.07 C411.55 699.813 390.275 675 369 675 C325 675 240 740 196 740 C158.95 740 123.705 686.752 120.273 629.128 C120.012 624.75 123.114 620 127.5 620 C131.24 620 134.985 623.384 135.346 627.106 L135.346 627.106 Z M539.5 32.5 L534 31 C501 22 470 49 470 85 L470 443.114 C470 474.512 444.513 499.745 413.117 499.431 L334.519 498.645 C334.025 498.64 334.007 497.776 334.5 497.75 L349 497 C367 497 385 479 385 461 L385 158.061 C385 153.656 381.083 137.424 378.822 133.643 C351.234 87.5031 297.7 49 257 49 C210 49 165 103 165 160 L165 443.114 C165 474.512 139.513 499.745 108.117 499.431 L29.5187 498.645 C29.0247 498.64 29.0067 497.776 29.5 497.75 L44 497 C62 497 80 479 80 461 L80 160 C80 73 147 -10 217 -10 C266.3 -10 330.05 34.795 367.718 89.994 C372.49 96.987 385 90.8895 385 82.4234 L385 21.0015 C385 9.41012 394.409 -0.112017 406 -0.25 L418.932 -0.403949 C420.182 -0.418835 433.566 1.33636 434.771 1.67316 L539.51 30.9646 C539.529 30.9701 539.52 32.5053 539.5 32.5 L539.5 32.5 Z " />
</font>
</svg>
