<?xml version="1.0" encoding="UTF-8"?>
<svg xmlns="http://www.w3.org/2000/svg" xmlns:xlink="http://www.w3.org/1999/xlink" version="1.2" >
<font id="Sandover Thin">
<font-face  font-family="Sandover" units-per-em="1024" ascent="975" descent="-300" font-style="normal" font-weight="100" font-stretch="normal" cap-height="1041" x-height="488" underline-position="-125" underline-thickness="50" />
<missing-glyph  horiz-adv-x="100" d="" />
<glyph glyph-name="NULL" d="" />
<glyph glyph-name="CR" unicode="&#xd;" horiz-adv-x="256" d="" />
<glyph glyph-name="space" unicode="&#x20;" horiz-adv-x="250" d="" />
<glyph glyph-name="exclam" unicode="&#x21;" horiz-adv-x="164" d="M102 15 C102 41 62 41 62 16 C62 -10 102 -10 102 15 L102 15 Z M82 755 C74 755 69 722 70 688 L80 210 L84 210 L94 688 C95 722 90 755 82 755 L82 755 Z " />
<glyph glyph-name="quotedbl" unicode="&#x22;" horiz-adv-x="325" d="M220 750 C216 750 213 728 214 705 L221 560 L223 560 L230 705 C229 730 231 753 219 750 L220 750 L220 750 Z M99 750 C95 750 92 728 93 705 L100 560 L102 560 L109 705 C108 730 110 753 98 750 L99 750 L99 750 Z " />
<glyph glyph-name="numbersign" unicode="&#x23;" horiz-adv-x="525" d="M390 692 L359 468 L205 468 L236 692 L228 692 L197 468 L61 468 L59 452 L195 452 L162 208 L23 208 L21 192 L159 192 L133 0 L141 0 L167 192 L321 192 L295 0 L303 0 L329 192 L460 192 L462 208 L332 208 L365 452 L503 452 L505 468 L367 468 L398 692 L390 692 L390 692 Z M203 452 L357 452 L324 208 L170 208 L203 452 L203 452 Z " />
<glyph glyph-name="dollar" unicode="&#x24;" horiz-adv-x="541" d="M55 232 L55 2 L62 2 C62 10 63 25 63 33 C65 69 102 79 140 53 C167 34 197 18 227 7 L227 -75 L241 -75 L241 2 C264 -5 286 -9 307 -9 L307 -74 L321 -74 L321 -9 C414 -3 501 83 501 172 C501 237 422 337 321 386 L321 736 C373 708 425 644 436 589 C438 581 440 567 442 559 L456 559 L456 753 L449 753 C449 747 448 737 448 731 C446 704 413 697 381 717 L381 717 C362 728 342 738 321 745 L321 826 L307 826 L307 750 C285 757 262 761 241 761 L241 826 L227 826 L227 760 C150 753 79 673 79 589 C79 541 140 466 227 407 L227 16 C220 19 213 22 206 25 C151 52 87 136 75 200 C73 208 71 224 69 232 L55 232 L55 232 Z M307 742 L307 392 C284 403 262 416 241 430 L241 755 C258 755 276 752 294 747 C298 746 302 745 306 743 L307 742 L307 742 Z M58 152 L58 152 L58 152 L58 152 Z M240 398 C261 385 283 373 306 362 L306 -1 C285 -1 263 3 240 10 L240 398 L240 398 Z M320 354 C411 305 481 220 481 165 C481 84 404 6 320 0 L320 354 L320 354 Z M226 440 C149 494 97 558 97 599 C97 675 159 748 226 755 L226 440 L226 440 Z " />
<glyph glyph-name="percent" unicode="&#x25;" horiz-adv-x="793" d="M50 560 C50 659 110 754 172 754 C237 754 299 655 299 552 C299 455 239 362 177 362 C112 362 50 459 50 560 L50 560 Z M30 557 C30 454 101 355 175 355 C248 355 318 455 318 559 C318 662 248 760 175 760 C101 760 30 661 30 557 L30 557 Z M513 199 C513 296 571 389 632 389 C698 389 762 292 762 191 C762 92 701 -3 637 -3 C574 -3 513 96 513 199 L513 199 Z M493 196 C493 91 563 -10 635 -10 C709 -10 781 92 781 198 C781 298 709 395 635 395 C563 395 493 297 493 196 L493 196 Z M179 -3 L644 747 L635 753 L170 3 L179 -3 L179 -3 Z " />
<glyph glyph-name="ampersand" unicode="&#x26;" horiz-adv-x="902" d="M311 471 L314 468 C383 489 449 561 449 614 C449 688 383 760 315 760 C236 760 160 685 160 607 C160 586 230 498 302 412 C302 412 395 306 512 168 C425 72 331 9 258 9 C167 9 79 107 79 210 C79 300 164 412 253 439 L249 440 C152 410 58 294 58 203 C58 94 150 -10 246 -10 C323 -10 424 59 516 163 C531 145 547 126 563 107 C613 47 680 -10 700 -10 C755 -10 817 68 827 149 L823 150 C814 77 758 6 708 6 C691 6 629 60 581 117 C563 138 546 159 529 179 C606 270 676 384 719 500 L714 500 C672 385 602 272 525 183 C410 318 320 422 320 422 C247 509 177 597 177 618 C177 688 245 755 315 755 C375 755 433 686 433 615 C433 561 373 490 311 471 L311 471 Z " />
<glyph glyph-name="quotesingle" unicode="&#x27;" horiz-adv-x="204" d="M100 750 C96 750 93 728 94 705 L101 560 L103 560 L110 705 C109 730 111 753 99 750 L100 750 L100 750 Z " />
<glyph glyph-name="parenleft" unicode="&#x28;" horiz-adv-x="171" d="M158 760 C108 700 60 518 60 273 C60 28 108 -154 158 -214 L161 -212 C117 -160 75 19 75 273 C75 527 117 706 161 758 L158 760 L158 760 Z " />
<glyph glyph-name="parenright" unicode="&#x29;" horiz-adv-x="133" d="M9 758 C60 725 109 487 109 273 C109 59 60 -179 9 -212 L10 -214 C68 -177 123 62 123 273 C123 484 68 723 10 760 L9 758 L9 758 Z " />
<glyph glyph-name="asterisk" unicode="&#x2a;" horiz-adv-x="246" d="M256 694 C256 694 261 686 263 683 C270 689 264 699 256 694 L256 694 Z M259 575 C259 575 255 565 253 563 C262 557 267 570 259 575 L259 575 Z M46 573 C39 567 46 556 54 561 L52 563 L149 624 L144 509 C144 499 156 499 156 509 L151 626 L152 626 L250 564 L256 574 L154 628 L259 683 L253 693 L152 629 L151 629 L156 749 C156 759 144 759 144 749 L149 631 L50 694 L50 694 C42 699 38 690 42 684 L148 628 L148 627 L45 573 L46 573 L46 573 Z " />
<glyph glyph-name="plus" unicode="&#x2b;" horiz-adv-x="620" d="M302 460 L302 257 L100 257 L100 243 L302 243 L302 40 L318 40 L318 243 L520 243 L520 257 L318 257 L318 460 L302 460 L302 460 Z " />
<glyph glyph-name="comma" unicode="&#x2c;" horiz-adv-x="258" d="M174 45 C178 32 180 18 180 3 C180 -53 124 -106 65 -106 L65 -111 C128 -111 188 -52 188 10 C188 37 180 63 168 82 C159 101 142 115 124 115 C93 115 64 86 64 55 C64 24 93 -5 124 -5 C147 -5 169 18 173 45 L174 45 L174 45 Z " />
<glyph glyph-name="hyphen" unicode="&#x2d;" horiz-adv-x="430" d="M80 277 L350 277 L350 293 L80 293 L80 277 L80 277 Z " />
<glyph glyph-name="period" unicode="&#x2e;" horiz-adv-x="195" d="M145 15 C145 41 105 41 105 16 C105 -10 145 -10 145 15 L145 15 Z " />
<glyph glyph-name="slash" unicode="&#x2f;" horiz-adv-x="370" d="M328 770 L46 -80 L58 -80 L340 770 L328 770 L328 770 Z " />
<glyph glyph-name="zero" unicode="0" horiz-adv-x="602" d="M62 250 C62 366 181 502 305 502 C417 502 548 379 548 250 C548 134 429 -2 305 -2 C193 -2 62 121 62 250 L62 250 Z M53 250 C53 117 189 -10 305 -10 C434 -10 557 131 557 250 C557 383 421 510 305 510 C176 510 53 369 53 250 L53 250 Z " />
<glyph glyph-name="one" unicode="1" horiz-adv-x="300" d="M245 3 L231 3 C195 3 160 38 160 74 L160 426 C160 462 195 497 231 497 L245 497 L245 500 L55 500 L55 497 L69 497 C105 497 140 462 140 426 L140 74 C140 38 105 3 69 3 L55 3 L55 0 L245 0 L245 3 L245 3 Z " />
<glyph glyph-name="two" unicode="2" horiz-adv-x="515" d="M51 292 C71 396 164 495 241 495 C320 495 395 418 395 337 C395 245 219 106 57 18 C53 18 49 15 44 11 C38 8 32 5 26 2 L29 0 L419 0 L428 14 L472 77 L474 83 L467 73 C447 45 385 18 341 18 L63 18 C231 110 413 252 413 342 C413 428 333 511 249 511 C166 511 67 405 45 294 L51 292 L51 292 Z " />
<glyph glyph-name="three" unicode="3" horiz-adv-x="401" d="M19 -228 L20 -232 C194 -214 361 -105 361 -11 C361 80 225 159 88 159 C217 141 340 55 340 -16 C340 -107 183 -211 19 -228 L19 -228 Z M24 350 L28 349 C45 424 131 496 203 496 C275 496 345 437 345 375 C345 312 219 219 88 163 L88 159 C230 219 366 318 366 382 C366 447 290 510 211 510 C134 510 43 432 24 350 L24 350 Z " />
<glyph glyph-name="four" unicode="4" horiz-adv-x="620" d="M599 85 L596 74 C590 44 552 15 519 15 L415 15 L415 530 L412 530 L15 4 L15 0 L395 0 L395 -220 L415 -220 L415 0 L517 0 C550 0 581 -23 580 -47 L580 -55 C580 -55 587 -58 588 -58 C590 -41 594 -10 596 7 C598 7 607 76 608 81 L600 85 L599 85 L599 85 Z M33 15 L396 495 L396 15 L33 15 L33 15 Z " />
<glyph glyph-name="five" unicode="5" horiz-adv-x="421" d="M341 500 L341 500 L351 555 L343 555 L340 547 C333 523 295 500 262 500 L133 500 L78 242 L82 239 C231 239 374 145 374 38 C374 -77 220 -207 60 -227 L60 -231 C229 -210 391 -75 391 45 C391 157 243 260 89 260 L137 482 L338 483 L341 500 L341 500 Z " />
<glyph glyph-name="six" unicode="6" horiz-adv-x="566" d="M550 750 C303 698 66 469 66 283 C66 134 180 -10 298 -10 C409 -10 515 113 515 240 C515 353 396 461 272 461 C196 461 122 406 94 337 C136 513 340 702 551 746 L550 750 L550 750 Z M86 271 C86 365 176 455 270 455 C385 455 495 350 495 240 C495 115 398 -5 297 -5 C189 -5 86 130 86 271 L86 271 Z " />
<glyph glyph-name="seven" unicode="7" horiz-adv-x="440" d="M105 554 C99 540 88 516 81 499 L80 499 L77 491 L76 491 C68 475 56 446 49 430 C50 430 56 422 55 423 L60 432 C74 458 120 483 153 483 C245 483 339 482 431 483 L122 -221 L137 -221 L436 484 L436 499 L160 499 C127 499 102 519 109 539 L111 546 C111 546 108 551 106 553 L105 554 L105 554 Z " />
<glyph glyph-name="eight" unicode="8" horiz-adv-x="544" d="M255 394 C259 392 263 390 267 389 C380 343 489 267 489 188 C489 90 386 -5 279 -5 C173 -5 72 83 72 174 C72 252 162 360 256 394 L255 394 L255 394 Z M251 396 C150 357 55 250 55 174 C55 80 165 -10 279 -10 C394 -10 505 83 505 180 C505 272 402 354 291 402 C386 439 476 533 476 597 C476 681 378 761 277 761 C176 761 79 676 79 587 C79 523 161 439 251 397 L251 396 L251 396 Z M286 405 C282 407 278 409 274 410 C182 447 94 532 94 596 C94 679 185 759 280 759 C371 759 458 680 458 597 C458 531 374 438 285 406 L286 405 L286 405 Z " />
<glyph glyph-name="nine" unicode="9" horiz-adv-x="566" d="M16 -250 C263 -198 500 31 500 217 C500 366 386 510 268 510 C157 510 51 387 51 260 C51 147 170 39 294 39 C370 39 444 94 472 163 C430 -13 226 -202 15 -246 L16 -250 L16 -250 Z M480 229 C480 135 390 45 296 45 C181 45 71 150 71 260 C71 385 168 505 269 505 C377 505 480 370 480 229 L480 229 Z " />
<glyph glyph-name="colon" unicode="&#x3a;" horiz-adv-x="135" d="M145 405 C145 431 105 431 105 406 C105 380 145 380 145 405 L145 405 Z M145 15 C145 41 105 41 105 16 C105 -10 145 -10 145 15 L145 15 Z " />
<glyph glyph-name="semicolon" unicode="&#x3b;" horiz-adv-x="258" d="M145 405 C145 431 105 431 105 406 C105 380 145 380 145 405 L145 405 Z M174 45 C178 32 180 18 180 3 C180 -53 124 -106 65 -106 L65 -111 C128 -111 188 -52 188 10 C188 37 180 63 168 82 C159 101 142 115 124 115 C93 115 64 86 64 55 C64 24 93 -5 124 -5 C147 -5 169 18 173 45 L174 45 L174 45 Z " />
<glyph glyph-name="equal" unicode="&#x3d;" horiz-adv-x="523" d="M73 204 L73 196 L453 196 L453 204 L73 204 L73 204 Z M73 304 L73 296 L453 296 L453 304 L73 304 L73 304 Z " />
<glyph glyph-name="question" unicode="&#x3f;" horiz-adv-x="309" d="M145 15 C145 41 105 41 105 16 C105 -10 145 -10 145 15 L145 15 Z M119 145 C119 145 122 359 125 360 C191 360 244 409 278 460 C292 480 305 525 305 551 C305 658 227 760 145 760 C135 760 126 753 126 745 C126 740 131 735 137 735 C141 735 148 739 152 739 C227 739 299 646 299 549 C299 528 286 489 273 469 C242 424 191 380 118 380 C116 379 115 145 115 145 L119 145 L119 145 Z " />
<glyph glyph-name="at" unicode="&#x40;" horiz-adv-x="1122" d="M1046 0 C989 -123 751 -241 561 -241 C311 -241 71 4 71 259 C71 514 311 759 561 759 C811 759 1051 555 1051 343 C1051 169 952 2 849 2 C730 2 640 99 665 200 L735 480 L716 480 L688 369 C681 432 625 490 566 490 C433 490 305 348 305 201 C305 107 387 17 473 17 C534 17 610 87 642 167 C641 75 731 -5 845 -5 C958 -5 1066 166 1066 343 C1066 558 818 764 560 764 C302 764 54 517 54 259 C54 2 304 -244 564 -244 C755 -244 994 -124 1052 0 L1046 0 L1046 0 Z M684 356 L645 200 C623 112 543 28 482 28 C402 28 326 115 326 205 C326 347 443 484 564 484 C625 484 684 422 685 356 L684 356 L684 356 Z " />
<glyph glyph-name="A" unicode="A" horiz-adv-x="718" d="M11 0 L287 0 L287 3 L267 3 C211 3 175 58 190 117 L247 293 L513 293 L563 121 C579 60 540 3 483 3 L463 3 L463 0 L717 0 L717 3 L703 3 C662 3 605 62 587 124 L587 124 C524 339 462 555 398 770 L396 770 C398 758 391 744 382 743 L385 733 L183 115 C159 57 88 4 32 4 L12 4 L11 0 L11 0 Z M250 301 L388 726 L511 301 L250 301 L250 301 Z " />
<glyph glyph-name="B" unicode="B" horiz-adv-x="587" d="M301 2 L251 2 C219 2 188 45 188 89 L188 385 L318 385 C422 385 522 292 522 195 C522 62 414 2 301 2 L301 2 Z M79 747 L93 747 C129 747 164 712 164 676 L164 74 C164 38 129 3 93 3 L79 3 L79 0 L308 0 C430 0 547 61 547 195 C547 293 444 387 336 388 C446 406 541 485 541 566 C541 659 458 748 273 748 L79 748 L79 747 L79 747 Z M286 387 L188 387 L188 743 L264 743 C438 743 517 655 517 564 C517 474 404 387 286 387 L286 387 Z " />
<glyph glyph-name="C" unicode="C" horiz-adv-x="676" d="M625 127 L625 127 L625 127 L625 127 Z M628 4 L628 210 L614 210 C612 203 610 189 608 182 C597 128 537 54 482 26 C440 7 395 -5 350 -5 C220 -5 96 181 96 375 C96 568 226 754 361 754 C406 754 449 743 488 725 C540 696 596 623 608 568 C610 561 612 547 614 540 L628 540 L628 743 L621 743 C621 737 620 724 620 718 C618 687 581 680 544 702 C493 736 430 760 360 760 C213 760 72 571 72 375 C72 179 208 -10 349 -10 C418 -10 487 15 543 50 C581 71 619 62 621 30 C621 23 622 11 622 4 L628 4 L628 4 Z " />
<glyph glyph-name="D" unicode="D" horiz-adv-x="774" d="M261 5 C205 5 188 46 188 88 L188 745 L289 745 C516 745 694 564 694 375 C694 167 482 5 261 5 L261 5 Z M79 747 L93 747 C129 747 164 712 164 676 L164 74 C164 38 129 3 93 3 L79 3 L79 0 L268 0 C498 0 719 165 719 375 C719 566 539 750 308 750 L79 750 L79 747 L79 747 Z " />
<glyph glyph-name="E" unicode="E" horiz-adv-x="556" d="M399 250 L399 526 L389 526 L384 492 C377 440 322 391 271 391 L149 391 L149 745 L332 745 C383 745 444 696 457 644 L466 610 L476 610 C472 645 464 713 460 748 L459 748 L459 750 L20 750 L20 747 L36 747 C81 747 125 702 125 656 L125 94 C125 48 81 3 36 3 L20 3 L20 0 L484 0 L484 2 C490 35 501 97 507 130 L497 130 L491 111 C474 57 396 5 332 5 L237 5 C170 5 149 46 149 88 L149 385 L271 385 C322 385 377 336 384 284 L389 250 L399 250 L399 250 Z " />
<glyph glyph-name="F" unicode="F" horiz-adv-x="570" d="M428 250 L428 526 L418 526 L413 492 C406 440 351 391 300 391 L188 391 L188 746 L370 746 C421 746 482 697 495 645 L504 611 L514 611 C510 646 502 713 498 748 L498 750 L59 750 L59 747 L75 747 C120 747 164 702 164 656 L164 94 C164 48 120 3 75 3 L59 3 L59 0 L293 0 L293 3 L277 3 C232 3 188 48 188 94 L188 385 L300 385 C351 385 406 336 413 284 L418 250 L428 250 L428 250 Z " />
<glyph glyph-name="G" unicode="G" horiz-adv-x="749" d="M506 11 C538 18 584 34 584 51 L584 26 C584 27 514 11 506 9 L506 11 L506 11 Z M628 538 L628 741 L621 741 C621 735 620 722 620 716 C618 685 581 678 544 700 C493 734 430 758 360 758 C213 758 72 569 72 373 C72 177 208 -12 350 -12 C471 -12 608 23 687 60 L686 64 C664 54 637 44 608 35 L608 214 C608 268 648 320 689 320 L703 320 L703 323 L490 323 L490 320 L504 320 C545 320 585 268 585 214 L585 28 C575 25 565 22 555 19 C497 9 398 -7 354 -7 C223 -7 97 179 97 373 C97 566 227 752 362 752 C407 752 450 741 489 723 C541 694 597 621 609 566 C611 559 613 545 615 538 L628 538 L628 538 Z " />
<glyph glyph-name="H" unicode="H" horiz-adv-x="721" d="M661 3 L647 3 C611 3 576 38 576 74 L576 676 C576 712 611 747 647 747 L661 747 L661 750 L467 750 L467 747 L481 747 C517 747 552 712 552 676 L552 389 L160 389 L160 676 C160 712 195 747 231 747 L245 747 L245 750 L51 750 L51 747 L65 747 C101 747 136 712 136 676 L136 74 C136 38 101 3 65 3 L51 3 L51 0 L245 0 L245 3 L231 3 C195 3 160 38 160 74 L160 383 L552 383 L552 74 C552 38 517 3 481 3 L467 3 L467 0 L661 0 L661 3 L661 3 Z " />
<glyph glyph-name="I" unicode="I" horiz-adv-x="323" d="M263 3 L249 3 C213 3 178 38 178 74 L178 676 C178 712 213 747 249 747 L263 747 L263 750 L69 750 L69 747 L83 747 C119 747 154 712 154 676 L154 74 C154 38 119 3 83 3 L69 3 L69 0 L263 0 L263 3 L263 3 Z " />
<glyph glyph-name="J" unicode="J" horiz-adv-x="347" d="M287 750 L93 750 L93 747 L107 747 C143 747 178 712 178 676 L178 0 C178 -151 101 -212 59 -212 C49 -212 51 -193 41 -193 C36 -193 31 -198 31 -204 C31 -212 42 -220 53 -220 C106 -220 202 -144 202 44 L202 676 C202 712 237 747 273 747 L287 747 L287 750 L287 750 Z " />
<glyph glyph-name="K" unicode="K" horiz-adv-x="668" d="M621 750 L354 750 L354 747 L386 747 C445 747 455 691 407 631 L188 375 L188 676 C188 712 223 747 259 747 L273 747 L273 750 L79 750 L79 747 L93 747 C129 747 164 712 164 676 L164 74 C164 38 129 3 93 3 L79 3 L79 0 L273 0 L273 3 L259 3 C223 3 188 38 188 74 L188 375 L553 0 L665 0 L665 3 L651 3 C615 3 547 38 512 74 L512 74 L207 390 C285 480 363 571 441 661 C479 705 557 747 601 747 L620 747 L621 750 L621 750 Z " />
<glyph glyph-name="L" unicode="L" horiz-adv-x="612" d="M287 750 L93 750 L93 747 L107 747 C143 747 178 712 178 676 L178 74 C178 38 143 3 107 3 L93 3 L93 0 L537 0 L537 2 L538 2 C543 34 554 97 560 129 L550 129 L544 110 C527 56 449 4 385 4 L290 4 C223 4 202 45 202 88 L202 676 C202 712 237 747 273 747 L287 747 L287 750 L287 750 Z " />
<glyph glyph-name="M" unicode="M" horiz-adv-x="831" d="M796 750 L688 750 L438 31 L166 750 L54 750 L54 747 L68 747 C99 747 138 722 158 692 C152 486 146 280 140 74 C139 38 103 3 67 3 L53 3 L53 0 L231 0 L231 3 L217 3 C181 3 147 38 148 74 L148 74 L163 684 C164 681 165 678 166 675 L167 675 C254 450 341 224 428 -1 L434 -1 L690 728 C696 510 702 292 708 74 C709 38 675 3 639 3 L625 3 L625 0 L819 0 L819 3 L805 3 C769 3 733 38 732 74 L715 679 C716 714 749 747 784 747 L798 747 L796 750 L796 750 Z " />
<glyph glyph-name="N" unicode="N" horiz-adv-x="724" d="M42 747 L56 747 C81 747 117 730 144 707 L143 74 L143 74 C143 38 108 3 72 3 L58 3 L58 0 L235 0 L235 3 L221 3 C185 3 150 38 150 74 L150 74 L149 702 C157 695 164 688 169 680 C312 453 456 227 598 -1 L603 -1 L604 675 L604 675 C604 711 639 746 675 746 L689 746 L689 749 L512 749 L512 746 L526 746 C562 746 597 711 597 675 L598 43 L154 749 L41 749 L42 747 L42 747 Z " />
<glyph glyph-name="O" unicode="O" horiz-adv-x="767" d="M96 375 C96 568 238 754 385 754 C539 754 687 568 687 375 C687 182 536 -4 378 -4 C234 -4 96 182 96 375 L96 375 Z M71 375 C71 179 221 -10 377 -10 C548 -10 712 179 712 375 C712 571 553 760 387 760 C226 760 71 571 71 375 L71 375 Z " />
<glyph glyph-name="P" unicode="P" horiz-adv-x="483" d="M227 3 L213 3 C177 3 142 38 142 74 L142 360 L192 360 C330 360 463 435 463 542 C463 648 355 750 242 750 L33 750 L33 747 L47 747 C83 747 118 712 118 676 L118 74 C118 38 83 3 47 3 L33 3 L33 0 L227 0 L227 3 L227 3 Z M142 365 L142 746 L236 746 C340 746 440 648 440 546 C440 440 318 365 192 365 L142 365 L142 365 Z " />
<glyph glyph-name="Q" unicode="Q" horiz-adv-x="762" d="M1062 -52 L1060 -50 C1034 -71 897 -92 780 -92 C631 -92 429 -52 360 -9 C366 -9 372 -9 378 -9 C549 -9 713 180 713 376 C713 572 554 761 388 761 C227 761 72 572 72 376 C72 194 201 18 344 -7 C424 -61 635 -112 778 -112 C887 -112 1028 -83 1064 -52 L1062 -52 L1062 -52 Z M355 -6 C222 9 98 188 98 375 C98 568 240 754 387 754 C541 754 689 568 689 375 C689 180 534 -7 373 -7 C368 -7 359 -6 355 -6 L355 -6 Z " />
<glyph glyph-name="R" unicode="R" horiz-adv-x="652" d="M79 747 L93 747 C129 747 164 712 164 676 L164 74 C164 38 129 3 93 3 L79 3 L79 0 L273 0 L273 3 L259 3 C223 3 188 38 188 74 L188 374 L356 374 C364 351 427 208 492 64 C515 13 543 1 642 1 L642 2 C564 2 542 13 519 64 C455 208 393 347 380 376 C460 386 532 451 532 542 C532 648 446 750 357 750 L79 750 L79 747 L79 747 Z M188 380 L188 745 L350 745 C430 745 507 647 507 546 C507 449 434 380 357 380 L188 380 L188 380 Z " />
<glyph glyph-name="S" unicode="S" horiz-adv-x="541" d="M55 232 L55 2 L62 2 C62 10 63 25 63 33 C65 69 102 79 140 53 C192 15 256 -11 309 -11 C406 -11 500 78 500 170 C500 236 419 338 316 386 C193 443 97 541 97 596 C97 676 166 753 237 753 C255 753 274 750 293 745 C353 729 422 652 435 587 C437 579 439 565 441 557 L455 557 L455 751 L448 751 C448 745 447 735 447 729 C445 702 412 695 380 715 L380 715 C337 741 283 759 237 759 C156 759 78 675 78 587 C78 526 176 421 302 362 C402 315 481 222 481 163 C481 78 397 -3 309 -3 C276 -3 239 7 204 23 C149 50 85 134 73 198 C71 206 69 222 67 230 L55 232 L55 232 Z M57 149 L57 149 L57 149 L57 149 Z " />
<glyph glyph-name="T" unicode="T" horiz-adv-x="775" d="M693 795 L691 788 C683 769 628 750 576 750 L199 750 C147 750 92 769 85 788 L83 795 L74 795 C68 780 62 765 55 750 L55 749 C41 715 16 652 3 618 L13 618 L24 637 C53 691 133 743 187 743 L376 743 L376 73 C376 37 341 2 305 2 L291 2 L291 -1 L484 -1 L484 2 L470 2 C434 2 399 37 399 73 L399 743 L589 743 C643 743 723 691 752 637 L763 618 L773 618 C759 651 734 713 721 746 L722 746 L702 794 L693 795 L693 795 Z " />
<glyph glyph-name="U" unicode="U" horiz-adv-x="646" d="M616 29 L602 25 C566 15 531 41 531 77 L531 750 L422 750 L422 747 L436 747 C472 747 507 712 507 676 L507 164 C469 83 344 5 251 5 C201 5 153 110 153 220 L153 750 L44 750 L44 747 L58 747 C94 747 129 712 129 676 L129 220 C129 103 184 -10 242 -10 C338 -10 468 70 507 153 L507 0 L519 0 C544 6 591 19 616 26 L616 29 L616 29 Z " />
<glyph glyph-name="V" unicode="V" horiz-adv-x="730" d="M701 750 L453 750 L453 747 L481 747 C542 747 580 690 560 629 L348 32 L156 635 C142 693 179 746 234 746 L254 746 L254 749 L18 749 L18 746 L29 746 C62 746 112 687 131 625 L131 625 C198 413 265 201 332 -11 L336 -11 L569 632 C593 691 649 745 686 745 L700 745 L701 750 L701 750 Z " />
<glyph glyph-name="W" unicode="W" horiz-adv-x="1075" d="M255 750 L46 750 L46 747 L57 747 C89 747 132 701 147 651 C208 431 268 210 331 -9 L337 -9 L339 -3 L576 490 C619 324 662 157 706 -9 L712 -9 L713 -2 L913 654 C932 703 984 748 1023 748 L1037 748 L1037 751 L789 751 L789 748 L832 748 C882 748 915 702 903 652 L718 34 C665 238 612 443 560 647 C547 699 583 748 635 748 L663 748 L663 751 L428 751 L428 748 L440 748 C475 748 521 699 534 647 C547 598 560 549 572 501 L348 29 C290 235 230 442 173 647 C158 699 190 748 237 748 L253 748 L255 750 L255 750 Z " />
<glyph glyph-name="X" unicode="X" horiz-adv-x="751" d="M287 750 L86 750 L86 747 L96 747 C125 747 173 714 198 678 L382 373 C317 275 252 177 187 79 C161 40 100 3 61 3 L42 3 L42 0 L269 0 L269 3 L222 3 C186 3 172 35 191 71 L385 368 C443 272 502 175 560 79 C583 40 569 3 530 3 L503 3 L503 0 L704 0 L704 3 L694 3 C665 3 617 36 592 72 L402 386 L588 676 C615 713 673 747 710 747 L729 747 L729 750 L500 750 L500 747 L547 747 C586 747 599 710 575 671 L575 671 L399 391 C343 484 286 577 230 670 C207 709 221 746 260 746 L287 746 L287 750 L287 750 Z " />
<glyph glyph-name="Y" unicode="Y" horiz-adv-x="718" d="M259 0 L493 0 L493 3 L477 3 C432 3 388 48 388 94 L388 336 L572 671 L573 671 C594 710 652 747 690 747 L709 747 L709 750 L479 750 L479 747 L527 747 C564 747 581 714 566 678 L387 344 C325 453 263 562 201 671 C179 710 195 747 233 747 L261 747 L261 750 L60 750 L60 747 L70 747 C100 747 151 710 173 671 L173 671 L365 336 L365 94 C365 48 321 3 276 3 L260 3 L259 0 L259 0 Z " />
<glyph glyph-name="Z" unicode="Z" horiz-adv-x="652" d="M68 618 L73 637 C85 688 151 738 212 743 L584 744 L25 4 L25 -1 L606 -1 L608 6 L607 6 C611 21 624 75 637 131 L627 131 L620 112 C601 61 529 11 467 5 L54 4 L611 744 L611 749 L71 749 L70 742 L71 742 C70 727 65 673 60 617 L68 618 L68 618 Z " />
<glyph glyph-name="bracketleft" unicode="&#x5b;" horiz-adv-x="277" d="M117 744 L327 744 L327 750 L110 750 L110 -195 L327 -195 L327 -189 L117 -189 L117 744 L117 744 Z " />
<glyph glyph-name="backslash" unicode="&#x5c;" horiz-adv-x="328" d="M46 770 L306 -80 L318 -80 L58 770 L46 770 L46 770 Z " />
<glyph glyph-name="bracketright" unicode="&#x5d;" horiz-adv-x="280" d="M163 744 L163 -189 L-47 -189 L-47 -195 L170 -195 L170 750 L-47 750 L-47 744 L163 744 L163 744 Z " />
<glyph glyph-name="asciicircum" unicode="&#x5e;" horiz-adv-x="340" d="M177 774 C174 782 167 782 164 774 L24 561 L27 559 L171 758 L315 559 L318 561 L177 774 L177 774 Z " />
<glyph glyph-name="underscore" unicode="&#x5f;" horiz-adv-x="455" d="M5 -50 L5 -61 L450 -61 L450 -50 L5 -50 L5 -50 Z " />
<glyph glyph-name="grave" unicode="&#x60;" horiz-adv-x="340" d="M-37 762 C-37 760 0 725 38 690 L174 564 L177 567 L47 699 C11 736 -25 772 -27 772 C-32 772 -37 767 -37 762 L-37 762 Z " />
<glyph glyph-name="a" unicode="a" horiz-adv-x="512" d="M522 56 L514 60 C509 34 482 9 459 9 C429 9 400 36 400 64 L400 361 C400 448 334 510 266 510 C172 510 81 406 81 360 C81 353 86 346 91 346 C104 346 116 352 116 356 C116 360 96 370 96 373 C96 413 176 504 259 504 C321 504 380 448 380 368 L380 266 C160 198 61 146 61 73 C61 30 118 -11 177 -11 C222 -11 309 29 379 91 L379 63 C379 28 414 -6 450 -6 C481 -6 516 24 521 55 L522 56 L522 56 Z M379 260 L379 96 C313 38 230 0 187 0 C132 0 80 37 80 75 C80 147 173 198 379 261 L379 260 L379 260 Z " />
<glyph glyph-name="b" unicode="b" horiz-adv-x="490" d="M95 750 L85 750 C66 745 29 735 10 730 L10 724 L20 726 C48 730 75 701 75 668 L75 268 L71 125 C72 121 73 117 75 113 L75 -1 L76 -1 L84 74 L95 74 L95 79 C133 29 201 -11 258 -11 C353 -11 445 117 445 250 C445 380 342 504 234 504 C198 504 131 457 95 408 L95 750 L95 750 Z M95 111 L95 402 C130 450 192 496 224 496 C324 496 421 374 421 247 C421 118 341 -6 258 -6 C197 -6 121 49 95 110 L95 111 L95 111 Z " />
<glyph glyph-name="c" unicode="c" horiz-adv-x="434" d="M404 128 L401 129 C372 64 285 2 223 2 C142 2 64 125 64 254 C64 382 146 505 231 505 C290 505 365 456 384 405 C386 400 391 395 394 395 C401 395 406 400 404 405 C385 459 301 510 233 510 C137 510 45 379 45 242 C45 113 129 -10 216 -10 C281 -10 373 58 404 128 L404 128 Z " />
<glyph glyph-name="d" unicode="d" horiz-adv-x="584" d="M569 28 L555 24 C519 14 484 40 484 76 L484 750 L474 750 L464 747 L464 746 C444 741 415 733 399 729 L399 723 L409 725 C437 729 464 700 464 667 L464 415 C431 464 366 510 313 510 C163 510 45 386 45 256 C45 123 163 -5 286 -5 C347 -5 433 35 464 77 L464 0 L474 0 C498 6 545 19 569 25 L569 28 L569 28 Z M464 375 L464 84 C434 43 351 4 294 4 C177 4 65 130 65 262 C65 386 175 505 316 505 C371 505 446 435 464 376 L464 375 L464 375 Z " />
<glyph glyph-name="e" unicode="e" horiz-adv-x="522" d="M80 340 L492 340 C474 444 378 510 291 510 C166 510 45 404 45 238 C45 112 155 -10 269 -10 C351 -10 455 61 482 135 L479 135 C454 68 354 3 273 3 C167 3 66 122 66 246 C66 280 71 311 80 339 L80 340 L80 340 Z M468 345 L82 344 C116 444 202 504 290 504 C364 504 447 443 467 345 L468 345 L468 345 Z " />
<glyph glyph-name="f" unicode="f" horiz-adv-x="319" d="M221 3 L192 3 C174 3 156 21 156 39 L156 489 L309 489 L309 500 L156 500 C156 627 212 749 284 749 C314 749 356 635 381 635 C404 635 426 657 426 680 C426 718 360 755 291 755 C204 755 136 630 136 500 L26 491 L26 489 L136 489 L136 39 C136 21 118 3 100 3 L71 3 L71 0 L221 0 L221 3 L221 3 Z " />
<glyph glyph-name="g" unicode="g" horiz-adv-x="520" d="M524 454 C482 454 440 427 427 394 C404 458 335 510 263 510 C175 510 91 432 91 350 C91 276 157 206 233 191 C143 184 64 148 64 110 C64 72 118 36 177 32 C116 15 59 -43 59 -91 C59 -162 163 -230 272 -230 C381 -230 485 -160 485 -88 C485 -17 414 52 302 52 L189 52 C131 52 76 83 76 115 C76 152 168 188 263 188 C361 188 462 286 429 389 C442 417 478 440 514 440 C518 440 526 432 530 432 C543 432 538 453 525 453 L524 454 L524 454 Z M264 192 C186 192 112 269 112 349 C112 428 186 504 264 504 C342 504 416 428 416 349 C416 269 342 192 264 192 L264 192 Z M182 31 C184 31 186 31 188 31 L300 31 C403 31 469 -30 469 -94 C469 -161 373 -226 273 -226 C172 -226 75 -158 75 -87 C75 -40 126 16 181 31 L182 31 L182 31 Z " />
<glyph glyph-name="h" unicode="h" horiz-adv-x="491" d="M35 724 L45 726 C73 730 100 701 100 668 L100 39 C100 21 82 3 64 3 L35 3 L35 0 L185 0 L185 3 L156 3 C138 3 120 21 120 39 L120 363 C159 431 235 496 274 496 C331 496 376 447 376 395 L376 39 C376 21 358 3 340 3 L311 3 L311 0 L461 0 L461 3 L432 3 C414 3 396 21 396 39 L396 395 C396 454 348 510 286 510 C243 510 162 441 120 369 L120 750 L110 750 C91 745 54 735 35 730 L35 724 L35 724 Z " />
<glyph glyph-name="i" unicode="i" horiz-adv-x="225" d="M140 635 C140 661 100 661 100 636 C100 610 140 610 140 635 L140 635 Z M45 474 L55 476 C83 480 110 451 110 418 L110 39 C110 21 92 3 74 3 L45 3 L45 0 L195 0 L195 3 L166 3 C148 3 130 21 130 39 L130 500 L120 500 C101 495 64 485 45 480 L45 474 L45 474 Z " />
<glyph glyph-name="j" unicode="j" horiz-adv-x="205" d="M125 636 C125 662 85 662 85 637 C85 611 125 611 125 636 L125 636 Z M30 474 L40 476 C68 480 95 451 95 418 L95 12 C95 -47 76 -116 56 -127 C26 -127 -30 -100 -60 -100 C-83 -100 -105 -120 -105 -140 C-105 -165 -76 -187 -45 -185 C-39 -185 12 -158 60 -130 C88 -114 115 -44 115 12 L115 500 L105 500 C86 495 49 485 30 480 L30 474 L30 474 Z " />
<glyph glyph-name="k" unicode="k" horiz-adv-x="408" d="M434 501 L168 501 L168 498 L219 498 C281 498 281 439 218 377 L120 280 L120 750 L110 750 C91 745 54 735 35 730 L35 724 L45 726 C73 730 100 701 100 668 L100 39 C100 21 82 3 64 3 L35 3 L35 0 L185 0 L185 3 L156 3 C138 3 120 21 120 39 L120 280 L292 53 C306 27 300 5 276 5 L267 5 L267 2 L331 2 L332 1 L358 1 L357 2 L406 2 L406 5 L398 5 C377 5 329 40 302 76 L301 76 L138 291 L270 421 C316 462 387 499 421 499 L434 499 L434 501 L434 501 Z " />
<glyph glyph-name="l" unicode="l" horiz-adv-x="215" d="M35 724 L45 726 C73 730 100 701 100 668 L100 39 C100 21 82 3 64 3 L35 3 L35 0 L185 0 L185 3 L156 3 C138 3 120 21 120 39 L120 750 L110 750 C91 745 54 735 35 730 L35 724 L35 724 Z " />
<glyph glyph-name="m" unicode="m" horiz-adv-x="793" d="M35 474 L45 476 C73 480 100 451 100 418 L100 39 C100 21 82 3 64 3 L35 3 L35 0 L185 0 L185 3 L156 3 C138 3 120 21 120 39 L120 368 C157 433 231 495 271 495 C343 495 389 446 389 395 L389 39 C389 21 371 3 353 3 L324 3 L324 0 L474 0 L474 3 L445 3 C427 3 409 21 409 39 L409 370 C446 434 520 495 560 495 C632 495 678 446 678 395 L678 40 C678 22 660 4 642 4 L613 4 L613 1 L678 1 L678 0 L698 0 L698 1 L763 1 L763 4 L734 4 C716 4 698 22 698 40 L698 395 C698 454 648 510 568 510 C526 510 449 444 409 376 L409 395 C409 454 359 510 279 510 C238 510 160 443 120 374 L120 500 L110 500 C91 495 54 485 35 480 L35 474 L35 474 Z " />
<glyph glyph-name="n" unicode="n" horiz-adv-x="504" d="M35 474 L45 476 C73 480 100 451 100 418 L100 39 C100 21 82 3 64 3 L35 3 L35 0 L185 0 L185 3 L156 3 C138 3 120 21 120 39 L120 363 C159 430 231 495 267 495 C335 495 389 414 389 330 L389 39 C389 21 371 3 353 3 L324 3 L324 0 L474 0 L474 3 L445 3 C427 3 409 21 409 39 L409 330 C409 422 352 510 279 510 C239 510 162 441 120 369 L120 500 L110 500 C91 495 54 485 35 480 L35 474 L35 474 Z " />
<glyph glyph-name="o" unicode="o" horiz-adv-x="596" d="M67 250 C67 380 180 504 298 504 C415 504 528 380 528 250 C528 120 415 -4 298 -4 C180 -4 67 120 67 250 L67 250 Z M45 250 C45 117 169 -10 298 -10 C427 -10 551 117 551 250 C551 383 427 510 298 510 C169 510 45 383 45 250 L45 250 Z " />
<glyph glyph-name="p" unicode="p" horiz-adv-x="504" d="M20 474 L30 476 C58 480 85 451 85 418 L85 -181 C85 -199 67 -217 49 -217 L20 -217 L20 -220 L170 -220 L170 -217 L141 -217 C123 -217 105 -199 105 -181 L105 87 C135 36 185 -5 223 -5 C344 -5 460 134 460 252 C460 384 356 510 248 510 C201 510 132 470 105 428 L105 500 L95 500 C76 495 39 485 20 480 L20 474 L20 474 Z M105 130 L105 420 C131 462 195 502 237 502 C340 502 438 376 438 245 C438 133 333 0 223 0 C183 0 125 64 105 130 L105 130 Z " />
<glyph glyph-name="q" unicode="q" horiz-adv-x="562" d="M557 -217 L528 -217 C510 -217 492 -199 492 -181 L492 500 L491 500 L484 440 L472 428 L472 414 C434 467 357 510 292 510 C152 510 43 386 43 256 C43 123 166 -5 294 -5 C357 -5 443 32 474 72 L474 -181 C474 -199 456 -217 438 -217 L409 -217 L409 -220 L559 -220 L557 -217 L557 -217 Z M474 388 L474 79 C444 40 361 3 302 3 C180 3 63 129 63 261 C63 385 163 505 291 505 C361 505 446 449 473 388 L474 388 L474 388 Z " />
<glyph glyph-name="r" unicode="r" horiz-adv-x="314" d="M36 474 L46 476 C74 480 101 451 101 418 L101 39 C101 21 83 3 65 3 L36 3 L36 0 L186 0 L186 3 L157 3 C139 3 121 21 121 39 L121 370 C142 437 208 501 257 501 C269 501 280 484 280 466 C280 451 304 451 304 466 C304 488 285 510 266 510 C212 510 141 447 121 381 L121 500 L111 500 C92 495 55 485 36 480 L36 474 L36 474 Z " />
<glyph glyph-name="s" unicode="s" horiz-adv-x="416" d="M336 348 L336 508 L331 508 C331 504 330 495 330 491 C329 477 290 479 250 495 C227 505 203 511 181 511 C122 511 65 455 65 397 C65 349 136 276 227 243 C295 218 349 155 349 109 C349 51 292 -4 232 -4 C230 -4 177 2 179 7 C125 26 70 97 67 151 C67 156 65 167 65 172 L60 172 L60 2 L65 2 C65 7 66 17 66 22 C67 40 106 37 145 16 L145 16 C174 0 206 -10 233 -10 C301 -10 366 51 366 114 C366 163 309 232 237 258 C149 290 80 358 80 403 C80 455 130 505 182 505 C196 505 211 502 226 498 C285 477 331 414 331 348 L336 348 L336 348 Z " />
<glyph glyph-name="t" unicode="t" horiz-adv-x="306" d="M269 500 L115 500 L115 620 L114 620 L30 500 L30 490 L95 490 L95 103 C95 34 144 -10 196 -10 C221 -10 270 17 296 45 L294 46 C272 22 227 -1 202 -1 C157 -1 114 37 114 98 L115 489 L269 489 L269 500 L269 500 Z " />
<glyph glyph-name="u" unicode="u" horiz-adv-x="495" d="M480 26 L469 23 C436 14 405 41 405 77 L405 500 L320 500 L320 497 L349 497 C367 497 385 479 385 461 L385 130 C354 64 280 4 226 4 C170 4 116 80 116 160 L116 500 L31 500 L31 497 L60 497 C78 497 96 479 96 461 L96 160 C96 73 155 -10 217 -10 C274 -10 352 54 385 125 L385 0 L395 0 C417 6 458 17 480 23 L480 26 L480 26 Z " />
<glyph glyph-name="v" unicode="v" horiz-adv-x="445" d="M439 500 L301 500 L301 497 L311 497 C338 497 353 460 340 421 L340 421 L199 -10 L205 -10 C253 134 300 278 348 421 C361 460 400 497 428 497 L438 497 L439 500 L439 500 Z M156 500 L5 500 L5 497 L15 497 C43 497 78 461 89 423 L198 -9 L210 29 L111 422 C101 461 118 498 146 498 L156 498 L156 500 L156 500 Z " />
<glyph glyph-name="w" unicode="w" horiz-adv-x="662" d="M638 500 L499 500 L499 497 L509 497 C536 497 550 460 537 421 L537 421 L405 31 L317 431 C313 466 331 497 357 497 L367 497 L367 500 L216 500 L216 497 L225 497 C253 497 288 460 297 421 L297 421 L313 350 L200 -10 L206 -10 L316 335 L392 -10 L398 -10 C448 134 497 278 547 421 C560 460 600 497 628 497 L638 497 L638 500 L638 500 Z M175 500 L24 500 L24 497 L33 497 C61 497 96 460 105 421 L105 421 L200 -10 L213 32 L125 430 C121 465 139 496 165 496 L175 496 L175 500 L175 500 Z " />
<glyph glyph-name="x" unicode="x" horiz-adv-x="484" d="M451 500 L314 500 L314 497 L324 497 C349 497 357 464 341 428 L252 257 L152 424 C131 462 136 497 163 497 L172 497 L172 500 L20 500 L20 497 L30 497 C58 497 107 460 130 421 L130 421 L239 238 L126 76 C99 38 48 3 21 3 L11 3 L11 0 L148 0 L148 3 L139 3 C113 3 110 34 130 69 L242 234 L337 75 C358 37 353 2 326 2 L317 2 L317 -1 L469 -1 L469 2 L459 2 C431 2 382 39 359 78 L256 251 L347 420 L348 420 C369 459 416 496 444 496 L453 496 L451 500 L451 500 Z " />
<glyph glyph-name="y" unicode="y" horiz-adv-x="483" d="M459 500 L321 500 L321 497 L331 497 C359 497 373 460 360 421 C317 292 276 160 231 32 L113 431 C106 466 122 497 148 497 L158 497 L158 500 L7 500 L7 497 L17 497 C45 497 83 460 94 421 L94 421 L219 -2 C200 -57 182 -112 163 -167 C158 -181 142 -194 136 -194 C117 -194 106 -184 87 -184 C68 -184 50 -202 50 -221 C50 -241 70 -260 91 -260 C106 -260 152 -215 168 -169 L223 -10 C272 137 322 283 371 429 C386 465 423 498 449 498 L459 498 L459 500 L459 500 Z " />
<glyph glyph-name="z" unicode="z" horiz-adv-x="475" d="M61 497 C61 497 48 447 34 395 L46 395 L53 410 C72 451 137 490 190 494 L412 495 L41 5 L41 0 L325 0 L429 -10 C429 -10 429 0 430 0 L430 1 C433 20 438 61 442 104 L430 104 L425 89 C413 48 355 9 303 5 L65 4 L435 494 L435 499 L122 499 C96 499 74 512 77 526 L78 531 L70 531 C70 529 63 496 62 496 L61 497 L61 497 Z " />
<glyph glyph-name="braceleft" unicode="&#x7b;" horiz-adv-x="236" d="M231 750 L191 750 C129 750 70 691 70 630 L70 383 C70 343 45 312 15 312 L15 308 C45 308 70 274 70 230 L70 -10 C70 -71 129 -130 191 -130 L231 -130 L231 -127 L195 -127 C139 -127 86 -70 86 -10 L86 218 C86 265 56 310 24 310 C56 310 86 351 86 394 L86 630 C86 690 139 747 195 747 L231 747 L231 750 L231 750 Z " />
<glyph glyph-name="bar" unicode="&#x7c;" horiz-adv-x="136" d="M60 800 L60 -250 L76 -250 L76 800 L60 800 L60 800 Z " />
<glyph glyph-name="braceright" unicode="&#x7d;" horiz-adv-x="236" d="M5 750 L5 747 L41 747 C97 747 150 690 150 630 L150 394 C150 351 180 310 212 310 C180 310 150 265 150 218 L150 -10 C150 -70 97 -127 41 -127 L5 -127 L5 -130 L45 -130 C107 -130 166 -71 166 -10 L166 230 C166 274 191 308 221 308 L221 312 C192 312 166 343 166 383 L166 630 C166 691 107 750 45 750 L5 750 L5 750 Z " />
<glyph glyph-name="asciitilde" unicode="&#x7e;" horiz-adv-x="340" d="M27 310 C27 346 51 381 75 381 C122 381 213 316 260 316 C289 316 317 353 317 391 L313 391 C313 360 289 331 264 331 C217 331 126 396 79 396 C50 396 23 354 23 310 L27 310 L27 310 Z " />
<glyph glyph-name="exclamdown" unicode="&#xa1;" horiz-adv-x="164" d="M62 485 C62 459 102 459 102 484 C102 510 62 510 62 485 L62 485 Z M82 -255 C90 -255 95 -222 94 -188 C94 -188 84 168 84 290 L80 290 C80 168 70 -188 70 -188 C69 -222 74 -255 82 -255 L82 -255 Z " />
<glyph glyph-name="cent" unicode="&#xa2;" horiz-adv-x="434" d="M211 575 L211 508 C123 490 45 369 45 243 C45 116 126 -5 211 -10 L211 -75 L225 -75 L225 -10 C289 -4 374 61 404 128 L401 129 C372 65 287 4 225 3 L225 506 C287 510 364 457 383 406 C385 401 390 396 393 396 C400 396 405 401 403 406 C384 460 296 516 224 511 L224 576 L211 575 L211 575 Z M210 4 C133 15 63 132 63 255 C63 373 133 487 210 504 L210 4 L210 4 Z " />
<glyph glyph-name="acute" unicode="&#xb4;" horiz-adv-x="340" d="M176 564 L312 690 C350 726 387 761 387 762 C387 767 382 772 377 772 C377 772 340 736 303 699 L173 567 L176 564 L176 564 Z " />
<glyph glyph-name="questiondown" unicode="&#xbf;" horiz-adv-x="309" d="M164 485 C164 459 204 459 204 484 C204 510 164 510 164 485 L164 485 Z M190 355 C190 355 187 141 184 140 C118 140 65 91 31 40 C17 20 4 -25 4 -51 C4 -158 82 -260 164 -260 C174 -260 183 -253 183 -245 C183 -240 178 -235 172 -235 C168 -235 161 -239 157 -239 C82 -239 10 -146 10 -49 C10 -28 23 11 36 31 C67 76 118 120 191 120 C193 121 194 355 194 355 L190 355 L190 355 Z " />
<glyph glyph-name="Agrave" unicode="&#xc0;" horiz-adv-x="718" d="M11 0 L287 0 L287 3 L267 3 C211 3 175 58 190 117 L247 293 L513 293 L563 121 C579 60 540 3 483 3 L463 3 L463 0 L717 0 L717 3 L703 3 C662 3 605 62 587 124 L587 124 C524 339 462 555 398 770 L396 770 C398 758 391 744 382 743 L385 733 L183 115 C159 57 88 4 32 4 L12 4 L11 0 L11 0 Z M188 1013 C188 1011 225 976 263 941 L399 815 L402 818 L272 950 C236 987 200 1023 198 1023 C193 1023 188 1018 188 1013 L188 1013 Z M250 301 L388 726 L511 301 L250 301 L250 301 Z " />
<glyph glyph-name="Aacute" unicode="&#xc1;" horiz-adv-x="718" d="M400 814 L536 940 C574 976 611 1011 611 1012 C611 1017 606 1022 601 1022 C601 1022 564 986 527 949 L397 817 L400 814 L400 814 Z M11 0 L287 0 L287 3 L267 3 C211 3 175 58 190 117 L247 293 L513 293 L563 121 C579 60 540 3 483 3 L463 3 L463 0 L717 0 L717 3 L703 3 C662 3 605 62 587 124 L587 124 C524 339 462 555 398 770 L396 770 C398 758 391 744 382 743 L385 733 L183 115 C159 57 88 4 32 4 L12 4 L11 0 L11 0 Z M250 301 L388 726 L511 301 L250 301 L250 301 Z " />
<glyph glyph-name="Acircumflex" unicode="&#xc2;" horiz-adv-x="718" d="M11 0 L287 0 L287 3 L267 3 C211 3 175 58 190 117 L247 293 L513 293 L563 121 C579 60 540 3 483 3 L463 3 L463 0 L717 0 L717 3 L703 3 C662 3 605 62 587 124 L587 124 C524 339 462 555 398 770 L396 770 C398 758 391 744 382 743 L385 733 L183 115 C159 57 88 4 32 4 L12 4 L11 0 L11 0 Z M402 1025 C399 1033 392 1033 389 1025 L249 812 L252 810 L396 1009 L540 810 L543 812 L402 1025 L402 1025 Z M251 301 L389 726 L512 301 L251 301 L251 301 Z " />
<glyph glyph-name="Atilde" unicode="&#xc3;" horiz-adv-x="718" d="M251 870 C251 906 275 941 299 941 C346 941 437 876 484 876 C513 876 541 913 541 951 L537 951 C537 920 513 891 488 891 C441 891 350 956 303 956 C274 956 247 914 247 870 L251 870 L251 870 Z M11 0 L287 0 L287 3 L267 3 C211 3 175 58 190 117 L247 293 L513 293 L563 121 C579 60 540 3 483 3 L463 3 L463 0 L717 0 L717 3 L703 3 C662 3 605 62 587 124 L587 124 C524 339 462 555 398 770 L396 770 C398 758 391 744 382 743 L385 733 L183 115 C159 57 88 4 32 4 L12 4 L11 0 L11 0 Z M250 301 L388 726 L511 301 L250 301 L250 301 Z " />
<glyph glyph-name="Adieresis" unicode="&#xc4;" horiz-adv-x="718" d="M478 885 C478 911 438 911 438 886 C438 860 478 860 478 885 L478 885 Z M350 885 C350 911 310 911 310 886 C310 860 350 860 350 885 L350 885 Z M11 0 L287 0 L287 3 L267 3 C211 3 175 58 190 117 L247 293 L513 293 L563 121 C579 60 540 3 483 3 L463 3 L463 0 L717 0 L717 3 L703 3 C662 3 605 62 587 124 L587 124 C524 339 462 555 398 770 L396 770 C398 758 391 744 382 743 L385 733 L183 115 C159 57 88 4 32 4 L12 4 L11 0 L11 0 Z M250 301 L388 726 L511 301 L250 301 L250 301 Z " />
<glyph glyph-name="Aring" unicode="&#xc5;" horiz-adv-x="718" d="M305 905 C305 951 349 995 394 995 C439 995 483 951 483 905 C483 864 435 815 394 815 C353 815 305 864 305 905 L305 905 Z M299 905 C299 861 350 810 394 810 C438 810 489 861 489 905 C489 953 442 1000 394 1000 C346 1000 299 953 299 905 L299 905 Z M11 0 L287 0 L287 3 L267 3 C211 3 175 58 190 117 L247 293 L513 293 L563 121 C579 60 540 3 483 3 L463 3 L463 0 L717 0 L717 3 L703 3 C662 3 605 62 587 124 L587 124 C524 339 462 555 398 770 L396 770 C398 758 391 744 382 743 L385 733 L183 115 C159 57 88 4 32 4 L12 4 L11 0 L11 0 Z M250 301 L388 726 L511 301 L250 301 L250 301 Z " />
<glyph glyph-name="Egrave" unicode="&#xc8;" horiz-adv-x="595" d="M124 1012 C124 1010 161 975 199 940 L335 814 L338 817 L208 949 C172 986 136 1022 134 1022 C129 1022 124 1017 124 1012 L124 1012 Z M438 250 L438 526 L428 526 L423 492 C416 440 361 391 310 391 L188 391 L188 745 L371 745 C422 745 483 696 496 644 L505 610 L515 610 C511 645 503 713 499 748 L498 748 L498 750 L59 750 L59 747 L75 747 C120 747 164 702 164 656 L164 94 C164 48 120 3 75 3 L59 3 L59 0 L523 0 L523 2 C529 35 540 97 546 130 L536 130 L530 111 C513 57 435 5 371 5 L276 5 C209 5 188 46 188 88 L188 385 L310 385 C361 385 416 336 423 284 L428 250 L438 250 L438 250 Z " />
<glyph glyph-name="Eacute" unicode="&#xc9;" horiz-adv-x="595" d="M337 814 L473 940 C511 976 548 1011 548 1012 C548 1017 543 1022 538 1022 C538 1022 501 986 464 949 L334 817 L337 814 L337 814 Z M438 250 L438 526 L428 526 L423 492 C416 440 361 391 310 391 L188 391 L188 745 L371 745 C422 745 483 696 496 644 L505 610 L515 610 C511 645 503 713 499 748 L498 748 L498 750 L59 750 L59 747 L75 747 C120 747 164 702 164 656 L164 94 C164 48 120 3 75 3 L59 3 L59 0 L523 0 L523 2 C529 35 540 97 546 130 L536 130 L530 111 C513 57 435 5 371 5 L276 5 C209 5 188 46 188 88 L188 385 L310 385 C361 385 416 336 423 284 L428 250 L438 250 L438 250 Z " />
<glyph glyph-name="Ecircumflex" unicode="&#xca;" horiz-adv-x="595" d="M338 1024 C335 1032 328 1032 325 1024 L185 811 L188 809 L332 1008 L476 809 L479 811 L338 1024 L338 1024 Z M439 250 L439 526 L429 526 L424 492 C417 440 362 391 311 391 L189 391 L189 745 L372 745 C423 745 484 696 497 644 L506 610 L516 610 C512 645 504 713 500 748 L499 748 L499 750 L60 750 L60 747 L76 747 C121 747 165 702 165 656 L165 94 C165 48 121 3 76 3 L60 3 L60 0 L524 0 L524 2 C530 35 541 97 547 130 L537 130 L531 111 C514 57 436 5 372 5 L277 5 C210 5 189 46 189 88 L189 385 L311 385 C362 385 417 336 424 284 L429 250 L439 250 L439 250 Z " />
<glyph glyph-name="Edieresis" unicode="&#xcb;" horiz-adv-x="595" d="M415 885 C415 911 375 911 375 886 C375 860 415 860 415 885 L415 885 Z M287 885 C287 911 247 911 247 886 C247 860 287 860 287 885 L287 885 Z M438 250 L438 526 L428 526 L423 492 C416 440 361 391 310 391 L188 391 L188 745 L371 745 C422 745 483 696 496 644 L505 610 L515 610 C511 645 503 713 499 748 L498 748 L498 750 L59 750 L59 747 L75 747 C120 747 164 702 164 656 L164 94 C164 48 120 3 75 3 L59 3 L59 0 L523 0 L523 2 C529 35 540 97 546 130 L536 130 L530 111 C513 57 435 5 371 5 L276 5 C209 5 188 46 188 88 L188 385 L310 385 C361 385 416 336 423 284 L428 250 L438 250 L438 250 Z " />
<glyph glyph-name="Igrave" unicode="&#xcc;" horiz-adv-x="347" d="M-17 1012 C-17 1010 20 975 58 940 L194 814 L197 817 L67 949 C31 986 -5 1022 -7 1022 C-12 1022 -17 1017 -17 1012 L-17 1012 Z M287 3 L273 3 C237 3 202 38 202 74 L202 676 C202 712 237 747 273 747 L287 747 L287 750 L93 750 L93 747 L107 747 C143 747 178 712 178 676 L178 74 C178 38 143 3 107 3 L93 3 L93 0 L287 0 L287 3 L287 3 Z " />
<glyph glyph-name="Iacute" unicode="&#xcd;" horiz-adv-x="347" d="M196 814 L332 940 C370 976 407 1011 407 1012 C407 1017 402 1022 397 1022 C397 1022 360 986 323 949 L193 817 L196 814 L196 814 Z M287 3 L273 3 C237 3 202 38 202 74 L202 676 C202 712 237 747 273 747 L287 747 L287 750 L93 750 L93 747 L107 747 C143 747 178 712 178 676 L178 74 C178 38 143 3 107 3 L93 3 L93 0 L287 0 L287 3 L287 3 Z " />
<glyph glyph-name="Icircumflex" unicode="&#xce;" horiz-adv-x="347" d="M197 1024 C194 1032 187 1032 184 1024 L44 811 L47 809 L191 1008 L335 809 L338 811 L197 1024 L197 1024 Z M288 3 L274 3 C238 3 203 38 203 74 L203 676 C203 712 238 747 274 747 L288 747 L288 750 L94 750 L94 747 L108 747 C144 747 179 712 179 676 L179 74 C179 38 144 3 108 3 L94 3 L94 0 L288 0 L288 3 L288 3 Z " />
<glyph glyph-name="Idieresis" unicode="&#xcf;" horiz-adv-x="347" d="M274 885 C274 911 234 911 234 886 C234 860 274 860 274 885 L274 885 Z M146 885 C146 911 106 911 106 886 C106 860 146 860 146 885 L146 885 Z M287 3 L273 3 C237 3 202 38 202 74 L202 676 C202 712 237 747 273 747 L287 747 L287 750 L93 750 L93 747 L107 747 C143 747 178 712 178 676 L178 74 C178 38 143 3 107 3 L93 3 L93 0 L287 0 L287 3 L287 3 Z " />
<glyph glyph-name="Ntilde" unicode="&#xd1;" horiz-adv-x="750" d="M231 870 C231 906 255 941 279 941 C326 941 417 876 464 876 C493 876 521 913 521 951 L517 951 C517 920 493 891 468 891 C421 891 330 956 283 956 C254 956 227 914 227 870 L231 870 L231 870 Z M42 747 L56 747 C81 747 117 730 144 707 L143 74 L143 74 C143 38 108 3 72 3 L58 3 L58 0 L235 0 L235 3 L221 3 C185 3 150 38 150 74 L150 74 L149 702 C157 695 164 688 169 680 C312 453 456 227 598 -1 L603 -1 L604 675 L604 675 C604 711 639 746 675 746 L689 746 L689 749 L512 749 L512 746 L526 746 C562 746 597 711 597 675 L598 43 L154 749 L41 749 L42 747 L42 747 Z " />
<glyph glyph-name="Ograve" unicode="&#xd2;" horiz-adv-x="767" d="M96 375 C96 568 238 754 385 754 C539 754 687 568 687 375 C687 182 536 -4 378 -4 C234 -4 96 182 96 375 L96 375 Z M71 375 C71 179 221 -10 377 -10 C548 -10 712 179 712 375 C712 571 553 760 387 760 C226 760 71 571 71 375 L71 375 Z M180 1012 C180 1010 217 975 255 940 L391 814 L394 817 L264 949 C228 986 192 1022 190 1022 C185 1022 180 1017 180 1012 L180 1012 Z " />
<glyph glyph-name="Oacute" unicode="&#xd3;" horiz-adv-x="767" d="M393 814 L529 940 C567 976 604 1011 604 1012 C604 1017 599 1022 594 1022 C594 1022 557 986 520 949 L390 817 L393 814 L393 814 Z M96 375 C96 568 238 754 385 754 C539 754 687 568 687 375 C687 182 536 -4 378 -4 C234 -4 96 182 96 375 L96 375 Z M71 375 C71 179 221 -10 377 -10 C548 -10 712 179 712 375 C712 571 553 760 387 760 C226 760 71 571 71 375 L71 375 Z " />
<glyph glyph-name="Ocircumflex" unicode="&#xd4;" horiz-adv-x="767" d="M96 375 C96 568 238 754 385 754 C539 754 687 568 687 375 C687 182 536 -4 378 -4 C234 -4 96 182 96 375 L96 375 Z M71 375 C71 179 221 -10 377 -10 C548 -10 712 179 712 375 C712 571 553 760 387 760 C226 760 71 571 71 375 L71 375 Z M394 1024 C391 1032 384 1032 381 1024 L241 811 L244 809 L388 1008 L532 809 L535 811 L394 1024 L394 1024 Z " />
<glyph glyph-name="Otilde" unicode="&#xd5;" horiz-adv-x="767" d="M244 870 C244 906 268 941 292 941 C339 941 430 876 477 876 C506 876 534 913 534 951 L530 951 C530 920 506 891 481 891 C434 891 343 956 296 956 C267 956 240 914 240 870 L244 870 L244 870 Z M96 375 C96 568 238 754 385 754 C539 754 687 568 687 375 C687 182 536 -4 378 -4 C234 -4 96 182 96 375 L96 375 Z M71 375 C71 179 221 -10 377 -10 C548 -10 712 179 712 375 C712 571 553 760 387 760 C226 760 71 571 71 375 L71 375 Z " />
<glyph glyph-name="Odieresis" unicode="&#xd6;" horiz-adv-x="767" d="M471 885 C471 911 431 911 431 886 C431 860 471 860 471 885 L471 885 Z M343 885 C343 911 303 911 303 886 C303 860 343 860 343 885 L343 885 Z M96 375 C96 568 238 754 385 754 C539 754 687 568 687 375 C687 182 536 -4 378 -4 C234 -4 96 182 96 375 L96 375 Z M71 375 C71 179 221 -10 377 -10 C548 -10 712 179 712 375 C712 571 553 760 387 760 C226 760 71 571 71 375 L71 375 Z " />
<glyph glyph-name="Oslash" unicode="&#xd8;" horiz-adv-x="767" d="M75 -13 C75 -13 111 30 171 102 C227 34 301 -10 377 -10 C548 -10 712 179 712 375 C712 471 674 565 616 636 C649 676 683 716 717 757 L709 763 C676 723 643 683 610 644 C550 714 470 760 388 760 C227 760 72 571 72 375 C72 278 109 182 165 110 C104 37 67 -7 67 -7 L75 -13 L75 -13 Z M598 631 C429 429 273 242 174 124 C126 193 95 283 95 375 C95 568 237 754 384 754 C463 754 540 705 597 631 L598 631 L598 631 Z M603 623 C653 554 685 465 685 375 C685 182 534 -4 376 -4 C303 -4 232 43 179 115 C277 233 433 420 602 623 L603 623 L603 623 Z " />
<glyph glyph-name="Ugrave" unicode="&#xd9;" horiz-adv-x="646" d="M123 1012 C123 1010 160 975 198 940 L334 814 L337 817 L207 949 C171 986 135 1022 133 1022 C128 1022 123 1017 123 1012 L123 1012 Z M616 29 L602 25 C566 15 531 41 531 77 L531 750 L422 750 L422 747 L436 747 C472 747 507 712 507 676 L507 164 C469 83 344 5 251 5 C201 5 153 110 153 220 L153 750 L44 750 L44 747 L58 747 C94 747 129 712 129 676 L129 220 C129 103 184 -10 242 -10 C338 -10 468 70 507 153 L507 0 L519 0 C544 6 591 19 616 26 L616 29 L616 29 Z " />
<glyph glyph-name="Uacute" unicode="&#xda;" horiz-adv-x="646" d="M336 814 L472 940 C510 976 547 1011 547 1012 C547 1017 542 1022 537 1022 C537 1022 500 986 463 949 L333 817 L336 814 L336 814 Z M616 29 L602 25 C566 15 531 41 531 77 L531 750 L422 750 L422 747 L436 747 C472 747 507 712 507 676 L507 164 C469 83 344 5 251 5 C201 5 153 110 153 220 L153 750 L44 750 L44 747 L58 747 C94 747 129 712 129 676 L129 220 C129 103 184 -10 242 -10 C338 -10 468 70 507 153 L507 0 L519 0 C544 6 591 19 616 26 L616 29 L616 29 Z " />
<glyph glyph-name="Ucircumflex" unicode="&#xdb;" horiz-adv-x="646" d="M337 1024 C334 1032 327 1032 324 1024 L184 811 L187 809 L331 1008 L475 809 L478 811 L337 1024 L337 1024 Z M617 29 L603 25 C567 15 532 41 532 77 L532 750 L423 750 L423 747 L437 747 C473 747 508 712 508 676 L508 164 C470 83 345 5 252 5 C202 5 154 110 154 220 L154 750 L45 750 L45 747 L59 747 C95 747 130 712 130 676 L130 220 C130 103 185 -10 243 -10 C339 -10 469 70 508 153 L508 0 L520 0 C545 6 592 19 617 26 L617 29 L617 29 Z " />
<glyph glyph-name="Udieresis" unicode="&#xdc;" horiz-adv-x="646" d="M414 885 C414 911 374 911 374 886 C374 860 414 860 414 885 L414 885 Z M286 885 C286 911 246 911 246 886 C246 860 286 860 286 885 L286 885 Z M616 29 L602 25 C566 15 531 41 531 77 L531 750 L422 750 L422 747 L436 747 C472 747 507 712 507 676 L507 164 C469 83 344 5 251 5 C201 5 153 110 153 220 L153 750 L44 750 L44 747 L58 747 C94 747 129 712 129 676 L129 220 C129 103 184 -10 242 -10 C338 -10 468 70 507 153 L507 0 L519 0 C544 6 591 19 616 26 L616 29 L616 29 Z " />
<glyph glyph-name="Yacute" unicode="&#xdd;" horiz-adv-x="667" d="M343 814 L479 940 C517 976 554 1011 554 1012 C554 1017 549 1022 544 1022 C544 1022 507 986 470 949 L340 817 L343 814 L343 814 Z M220 0 L454 0 L454 3 L438 3 C393 3 349 48 349 94 L349 336 L533 671 L534 671 C555 710 613 747 651 747 L670 747 L670 750 L440 750 L440 747 L488 747 C525 747 542 714 527 678 L348 344 C286 453 224 562 162 671 C140 710 156 747 194 747 L222 747 L222 750 L21 750 L21 747 L31 747 C61 747 112 710 134 671 L134 671 L326 336 L326 94 C326 48 282 3 237 3 L221 3 L220 0 L220 0 Z " />
<glyph glyph-name="agrave" unicode="&#xe0;" horiz-adv-x="512" d="M522 56 L514 60 C509 34 482 9 459 9 C429 9 400 36 400 64 L400 361 C400 448 334 510 266 510 C172 510 81 406 81 360 C81 353 86 346 91 346 C104 346 116 352 116 356 C116 360 96 370 96 373 C96 413 176 504 259 504 C321 504 380 448 380 368 L380 266 C160 198 61 146 61 73 C61 30 118 -11 177 -11 C222 -11 309 29 379 91 L379 63 C379 28 414 -6 450 -6 C481 -6 516 24 521 55 L522 56 L522 56 Z M58 761 C58 759 95 724 133 689 L269 563 L272 566 L142 698 C106 735 70 771 68 771 C63 771 58 766 58 761 L58 761 Z M379 260 L379 96 C313 38 230 0 187 0 C132 0 80 37 80 75 C80 147 173 198 379 261 L379 260 L379 260 Z " />
<glyph glyph-name="aacute" unicode="&#xe1;" horiz-adv-x="512" d="M272 564 L408 690 C446 726 483 761 483 762 C483 767 478 772 473 772 C473 772 436 736 399 699 L269 567 L272 564 L272 564 Z M522 56 L514 60 C509 34 482 9 459 9 C429 9 400 36 400 64 L400 361 C400 448 334 510 266 510 C172 510 81 406 81 360 C81 353 86 346 91 346 C104 346 116 352 116 356 C116 360 96 370 96 373 C96 413 176 504 259 504 C321 504 380 448 380 368 L380 266 C160 198 61 146 61 73 C61 30 118 -11 177 -11 C222 -11 309 29 379 91 L379 63 C379 28 414 -6 450 -6 C481 -6 516 24 521 55 L522 56 L522 56 Z M379 260 L379 96 C313 38 230 0 187 0 C132 0 80 37 80 75 C80 147 173 198 379 261 L379 260 L379 260 Z " />
<glyph glyph-name="acircumflex" unicode="&#xe2;" horiz-adv-x="512" d="M522 56 L514 60 C509 34 482 9 459 9 C429 9 400 36 400 64 L400 361 C400 448 334 510 266 510 C172 510 81 406 81 360 C81 353 86 346 91 346 C104 346 116 352 116 356 C116 360 96 370 96 373 C96 413 176 504 259 504 C321 504 380 448 380 368 L380 266 C160 198 61 146 61 73 C61 30 118 -11 177 -11 C222 -11 309 29 379 91 L379 63 C379 28 414 -6 450 -6 C481 -6 516 24 521 55 L522 56 L522 56 Z M272 773 C269 781 262 781 259 773 L119 560 L122 558 L266 757 L410 558 L413 560 L272 773 L272 773 Z M380 260 L380 96 C314 38 231 0 188 0 C133 0 81 37 81 75 C81 147 174 198 380 261 L380 260 L380 260 Z " />
<glyph glyph-name="atilde" unicode="&#xe3;" horiz-adv-x="512" d="M123 620 C123 656 147 691 171 691 C218 691 309 626 356 626 C385 626 413 663 413 701 L409 701 C409 670 385 641 360 641 C313 641 222 706 175 706 C146 706 119 664 119 620 L123 620 L123 620 Z M522 56 L514 60 C509 34 482 9 459 9 C429 9 400 36 400 64 L400 361 C400 448 334 510 266 510 C172 510 81 406 81 360 C81 353 86 346 91 346 C104 346 116 352 116 356 C116 360 96 370 96 373 C96 413 176 504 259 504 C321 504 380 448 380 368 L380 266 C160 198 61 146 61 73 C61 30 118 -11 177 -11 C222 -11 309 29 379 91 L379 63 C379 28 414 -6 450 -6 C481 -6 516 24 521 55 L522 56 L522 56 Z M379 260 L379 96 C313 38 230 0 187 0 C132 0 80 37 80 75 C80 147 173 198 379 261 L379 260 L379 260 Z " />
<glyph glyph-name="adieresis" unicode="&#xe4;" horiz-adv-x="512" d="M350 635 C350 661 310 661 310 636 C310 610 350 610 350 635 L350 635 Z M222 635 C222 661 182 661 182 636 C182 610 222 610 222 635 L222 635 Z M522 56 L514 60 C509 34 482 9 459 9 C429 9 400 36 400 64 L400 361 C400 448 334 510 266 510 C172 510 81 406 81 360 C81 353 86 346 91 346 C104 346 116 352 116 356 C116 360 96 370 96 373 C96 413 176 504 259 504 C321 504 380 448 380 368 L380 266 C160 198 61 146 61 73 C61 30 118 -11 177 -11 C222 -11 309 29 379 91 L379 63 C379 28 414 -6 450 -6 C481 -6 516 24 521 55 L522 56 L522 56 Z M379 260 L379 96 C313 38 230 0 187 0 C132 0 80 37 80 75 C80 147 173 198 379 261 L379 260 L379 260 Z " />
<glyph glyph-name="aring" unicode="&#xe5;" horiz-adv-x="512" d="M177 655 C177 701 221 745 266 745 C311 745 355 701 355 655 C355 614 307 565 266 565 C225 565 177 614 177 655 L177 655 Z M171 655 C171 611 222 560 266 560 C310 560 361 611 361 655 C361 703 314 750 266 750 C218 750 171 703 171 655 L171 655 Z M522 56 L514 60 C509 34 482 9 459 9 C429 9 400 36 400 64 L400 361 C400 448 334 510 266 510 C172 510 81 406 81 360 C81 353 86 346 91 346 C104 346 116 352 116 356 C116 360 96 370 96 373 C96 413 176 504 259 504 C321 504 380 448 380 368 L380 266 C160 198 61 146 61 73 C61 30 118 -11 177 -11 C222 -11 309 29 379 91 L379 63 C379 28 414 -6 450 -6 C481 -6 516 24 521 55 L522 56 L522 56 Z M379 260 L379 96 C313 38 230 0 187 0 C132 0 80 37 80 75 C80 147 173 198 379 261 L379 260 L379 260 Z " />
<glyph glyph-name="egrave" unicode="&#xe8;" horiz-adv-x="522" d="M84 762 C84 760 121 725 159 690 L295 564 L298 567 L168 699 C132 736 96 772 94 772 C89 772 84 767 84 762 L84 762 Z M80 340 L492 340 C474 444 378 510 291 510 C166 510 45 404 45 238 C45 112 155 -10 269 -10 C351 -10 455 61 482 135 L479 135 C454 68 354 3 273 3 C167 3 66 122 66 246 C66 280 71 311 80 339 L80 340 L80 340 Z M468 345 L82 344 C116 444 202 504 290 504 C364 504 447 443 467 345 L468 345 L468 345 Z " />
<glyph glyph-name="eacute" unicode="&#xe9;" horiz-adv-x="522" d="M297 564 L433 690 C471 726 508 761 508 762 C508 767 503 772 498 772 C498 772 461 736 424 699 L294 567 L297 564 L297 564 Z M80 340 L492 340 C474 444 378 510 291 510 C166 510 45 404 45 238 C45 112 155 -10 269 -10 C351 -10 455 61 482 135 L479 135 C454 68 354 3 273 3 C167 3 66 122 66 246 C66 280 71 311 80 339 L80 340 L80 340 Z M468 345 L82 344 C116 444 202 504 290 504 C364 504 447 443 467 345 L468 345 L468 345 Z " />
<glyph glyph-name="ecircumflex" unicode="&#xea;" horiz-adv-x="522" d="M298 774 C295 782 288 782 285 774 L145 561 L148 559 L292 758 L436 559 L439 561 L298 774 L298 774 Z M81 340 L493 340 C475 444 379 510 292 510 C167 510 46 404 46 238 C46 112 156 -10 270 -10 C352 -10 456 61 483 135 L480 135 C455 68 355 3 274 3 C168 3 67 122 67 246 C67 280 72 311 81 339 L81 340 L81 340 Z M469 345 L83 344 C117 444 203 504 291 504 C365 504 448 443 468 345 L469 345 L469 345 Z " />
<glyph glyph-name="edieresis" unicode="&#xeb;" horiz-adv-x="522" d="M375 635 C375 661 335 661 335 636 C335 610 375 610 375 635 L375 635 Z M247 635 C247 661 207 661 207 636 C207 610 247 610 247 635 L247 635 Z M80 340 L492 340 C474 444 378 510 291 510 C166 510 45 404 45 238 C45 112 155 -10 269 -10 C351 -10 455 61 482 135 L479 135 C454 68 354 3 273 3 C167 3 66 122 66 246 C66 280 71 311 80 339 L80 340 L80 340 Z M468 345 L82 344 C116 444 202 504 290 504 C364 504 447 443 467 345 L468 345 L468 345 Z " />
<glyph glyph-name="igrave" unicode="&#xec;" horiz-adv-x="271" d="M-56 763 C-56 761 -19 726 19 691 L155 565 L158 568 L28 700 C-8 737 -44 773 -46 773 C-51 773 -56 768 -56 763 L-56 763 Z M76 477 L105 485 C123 490 141 477 141 459 L141 39 C141 21 123 3 105 3 L76 3 L76 0 L226 0 L226 3 L197 3 C179 3 161 21 161 39 L161 500 L151 500 C132 495 95 485 76 480 L76 477 L76 477 Z " />
<glyph glyph-name="iacute" unicode="&#xed;" horiz-adv-x="271" d="M-56 763 C-56 761 -19 726 19 691 L155 565 L158 568 L28 700 C-8 737 -44 773 -46 773 C-51 773 -56 768 -56 763 L-56 763 Z M76 477 L105 485 C123 490 141 477 141 459 L141 39 C141 21 123 3 105 3 L76 3 L76 0 L226 0 L226 3 L197 3 C179 3 161 21 161 39 L161 500 L151 500 C132 495 95 485 76 480 L76 477 L76 477 Z " />
<glyph glyph-name="icircumflex" unicode="&#xee;" horiz-adv-x="271" d="M158 775 C155 783 148 783 145 775 L5 562 L8 560 L152 759 L296 560 L299 562 L158 775 L158 775 Z M77 477 L106 485 C124 490 142 477 142 459 L142 39 C142 21 124 3 106 3 L77 3 L77 0 L227 0 L227 3 L198 3 C180 3 162 21 162 39 L162 500 L152 500 C133 495 96 485 77 480 L77 477 L77 477 Z " />
<glyph glyph-name="idieresis" unicode="&#xef;" horiz-adv-x="271" d="M235 636 C235 662 195 662 195 637 C195 611 235 611 235 636 L235 636 Z M107 636 C107 662 67 662 67 637 C67 611 107 611 107 636 L107 636 Z M76 477 L105 485 C123 490 141 477 141 459 L141 39 C141 21 123 3 105 3 L76 3 L76 0 L226 0 L226 3 L197 3 C179 3 161 21 161 39 L161 500 L151 500 C132 495 95 485 76 480 L76 477 L76 477 Z " />
<glyph glyph-name="ntilde" unicode="&#xf1;" horiz-adv-x="504" d="M111 621 C111 657 135 692 159 692 C206 692 297 627 344 627 C373 627 401 664 401 702 L398 702 C398 671 374 642 348 642 C301 642 211 707 164 707 C135 707 108 665 108 621 L111 621 L111 621 Z M35 474 L45 476 C73 480 100 451 100 418 L100 39 C100 21 82 3 64 3 L35 3 L35 0 L185 0 L185 3 L156 3 C138 3 120 21 120 39 L120 363 C159 430 231 495 267 495 C335 495 389 414 389 330 L389 39 C389 21 371 3 353 3 L324 3 L324 0 L474 0 L474 3 L445 3 C427 3 409 21 409 39 L409 330 C409 422 352 510 279 510 C239 510 162 441 120 369 L120 500 L110 500 C91 495 54 485 35 480 L35 474 L35 474 Z " />
<glyph glyph-name="ograve" unicode="&#xf2;" horiz-adv-x="596" d="M67 250 C67 380 180 504 298 504 C415 504 528 380 528 250 C528 120 415 -4 298 -4 C180 -4 67 120 67 250 L67 250 Z M45 250 C45 117 169 -10 298 -10 C427 -10 551 117 551 250 C551 383 427 510 298 510 C169 510 45 383 45 250 L45 250 Z M91 762 C91 760 128 725 166 690 L302 564 L305 567 L175 699 C139 736 103 772 101 772 C96 772 91 767 91 762 L91 762 Z " />
<glyph glyph-name="oacute" unicode="&#xf3;" horiz-adv-x="596" d="M304 564 L440 690 C478 726 515 761 515 762 C515 767 510 772 505 772 C505 772 468 736 431 699 L301 567 L304 564 L304 564 Z M67 250 C67 380 180 504 298 504 C415 504 528 380 528 250 C528 120 415 -4 298 -4 C180 -4 67 120 67 250 L67 250 Z M45 250 C45 117 169 -10 298 -10 C427 -10 551 117 551 250 C551 383 427 510 298 510 C169 510 45 383 45 250 L45 250 Z " />
<glyph glyph-name="ocircumflex" unicode="&#xf4;" horiz-adv-x="596" d="M67 250 C67 380 180 504 298 504 C415 504 528 380 528 250 C528 120 415 -4 298 -4 C180 -4 67 120 67 250 L67 250 Z M45 250 C45 117 169 -10 298 -10 C427 -10 551 117 551 250 C551 383 427 510 298 510 C169 510 45 383 45 250 L45 250 Z M305 774 C302 782 295 782 292 774 L152 561 L155 559 L299 758 L443 559 L446 561 L305 774 L305 774 Z " />
<glyph glyph-name="otilde" unicode="&#xf5;" horiz-adv-x="596" d="M155 620 C155 656 179 691 203 691 C250 691 341 626 388 626 C417 626 445 663 445 701 L441 701 C441 670 417 641 392 641 C345 641 254 706 207 706 C178 706 151 664 151 620 L155 620 L155 620 Z M67 250 C67 380 180 504 298 504 C415 504 528 380 528 250 C528 120 415 -4 298 -4 C180 -4 67 120 67 250 L67 250 Z M45 250 C45 117 169 -10 298 -10 C427 -10 551 117 551 250 C551 383 427 510 298 510 C169 510 45 383 45 250 L45 250 Z " />
<glyph glyph-name="odieresis" unicode="&#xf6;" horiz-adv-x="596" d="M382 635 C382 661 342 661 342 636 C342 610 382 610 382 635 L382 635 Z M254 635 C254 661 214 661 214 636 C214 610 254 610 254 635 L254 635 Z M67 250 C67 380 180 504 298 504 C415 504 528 380 528 250 C528 120 415 -4 298 -4 C180 -4 67 120 67 250 L67 250 Z M45 250 C45 117 169 -10 298 -10 C427 -10 551 117 551 250 C551 383 427 510 298 510 C169 510 45 383 45 250 L45 250 Z " />
<glyph glyph-name="oslash" unicode="&#xf8;" horiz-adv-x="596" d="M48 -12 C48 -12 77 18 126 68 C173 21 235 -10 298 -10 C427 -10 551 117 551 250 C551 315 521 379 475 427 C501 454 527 481 553 508 L547 512 C521 485 495 458 469 432 C422 479 360 510 297 510 C168 510 44 383 44 250 C44 185 74 121 120 73 C71 22 42 -8 42 -8 L48 -12 L48 -12 Z M460 422 C329 287 208 163 130 83 C91 129 66 189 66 250 C66 380 179 504 297 504 C357 504 416 471 459 422 L460 422 L460 422 Z M464 417 C502 371 527 311 527 250 C527 120 414 -4 297 -4 C237 -4 178 28 135 77 C212 157 333 281 464 416 L464 417 L464 417 Z " />
<glyph glyph-name="ugrave" unicode="&#xf9;" horiz-adv-x="495" d="M42 762 C42 760 79 725 118 690 L255 564 L257 567 L127 699 C91 736 55 772 52 772 C47 772 42 767 42 762 L42 762 Z M480 26 L469 23 C436 14 405 41 405 77 L405 500 L320 500 L320 497 L349 497 C367 497 385 479 385 461 L385 130 C354 64 280 4 226 4 C170 4 116 80 116 160 L116 500 L31 500 L31 497 L60 497 C78 497 96 479 96 461 L96 160 C96 73 155 -10 217 -10 C274 -10 352 54 385 125 L385 0 L395 0 C417 6 458 17 480 23 L480 26 L480 26 Z " />
<glyph glyph-name="uacute" unicode="&#xfa;" horiz-adv-x="495" d="M256 564 L393 690 C432 726 469 762 469 762 C469 767 464 772 459 772 C458 772 421 736 384 699 L254 567 L256 564 L256 564 Z M480 26 L469 23 C436 14 405 41 405 77 L405 500 L320 500 L320 497 L349 497 C367 497 385 479 385 461 L385 130 C354 64 280 4 226 4 C170 4 116 80 116 160 L116 500 L31 500 L31 497 L60 497 C78 497 96 479 96 461 L96 160 C96 73 155 -10 217 -10 C274 -10 352 54 385 125 L385 0 L395 0 C417 6 458 17 480 23 L480 26 L480 26 Z " />
<glyph glyph-name="ucircumflex" unicode="&#xfb;" horiz-adv-x="495" d="M258 774 C255 783 246 782 243 774 L104 561 L107 559 L251 757 L394 559 L397 561 L258 774 L258 774 Z M480 26 L469 23 C436 14 405 41 405 77 L405 500 L320 500 L320 497 L349 497 C367 497 385 479 385 461 L385 130 C354 64 280 4 226 4 C170 4 116 80 116 160 L116 500 L31 500 L31 497 L60 497 C78 497 96 479 96 461 L96 160 C96 73 155 -10 217 -10 C274 -10 352 54 385 125 L385 0 L395 0 C417 6 458 17 480 23 L480 26 L480 26 Z " />
<glyph glyph-name="udieresis" unicode="&#xfc;" horiz-adv-x="495" d="M334 635 C334 661 294 661 294 636 C294 610 334 610 334 635 L334 635 Z M207 635 C207 661 167 661 167 636 C167 610 207 610 207 635 L207 635 Z M480 26 L469 23 C436 14 405 41 405 77 L405 500 L320 500 L320 497 L349 497 C367 497 385 479 385 461 L385 130 C354 64 280 4 226 4 C170 4 116 80 116 160 L116 500 L31 500 L31 497 L60 497 C78 497 96 479 96 461 L96 160 C96 73 155 -10 217 -10 C274 -10 352 54 385 125 L385 0 L395 0 C417 6 458 17 480 23 L480 26 L480 26 Z " />
<glyph glyph-name="ydieresis" unicode="&#xff;" horiz-adv-x="465" d="M323 635 C323 661 283 661 283 636 C283 610 323 610 323 635 L323 635 Z M195 635 C195 661 155 661 155 636 C155 610 195 610 195 635 L195 635 Z M459 500 L321 500 L321 497 L331 497 C359 497 373 460 360 421 C317 292 276 160 231 32 L113 431 C106 466 122 497 148 497 L158 497 L158 500 L7 500 L7 497 L17 497 C45 497 83 460 94 421 L94 421 L219 -2 C200 -57 182 -112 163 -167 C158 -181 142 -194 136 -194 C117 -194 106 -184 87 -184 C68 -184 50 -202 50 -221 C50 -241 70 -260 91 -260 C106 -260 152 -215 168 -169 L223 -10 C272 137 322 283 371 429 C386 465 423 498 449 498 L459 498 L459 500 L459 500 Z " />
<glyph glyph-name="Amacron" unicode="&#x100;" horiz-adv-x="718" d="M244 907 L544 907 L544 920 L244 920 L244 907 L244 907 Z M11 0 L287 0 L287 3 L267 3 C211 3 175 58 190 117 L247 293 L513 293 L563 121 C579 60 540 3 483 3 L463 3 L463 0 L717 0 L717 3 L703 3 C662 3 605 62 587 124 L587 124 C524 339 462 555 398 770 L396 770 C398 758 391 744 382 743 L385 733 L183 115 C159 57 88 4 32 4 L12 4 L11 0 L11 0 Z M250 301 L388 726 L511 301 L250 301 L250 301 Z " />
<glyph glyph-name="amacron" unicode="&#x101;" horiz-adv-x="512" d="M116 657 L416 657 L416 670 L116 670 L116 657 L116 657 Z M522 56 L514 60 C509 34 482 9 459 9 C429 9 400 36 400 64 L400 361 C400 448 334 510 266 510 C172 510 81 406 81 360 C81 353 86 346 91 346 C104 346 116 352 116 356 C116 360 96 370 96 373 C96 413 176 504 259 504 C321 504 380 448 380 368 L380 266 C160 198 61 146 61 73 C61 30 118 -11 177 -11 C222 -11 309 29 379 91 L379 63 C379 28 414 -6 450 -6 C481 -6 516 24 521 55 L522 56 L522 56 Z M379 260 L379 96 C313 38 230 0 187 0 C132 0 80 37 80 75 C80 147 173 198 379 261 L379 260 L379 260 Z " />
<glyph glyph-name="Abreve" unicode="&#x102;" horiz-adv-x="718" d="M278 995 C279 949 336 904 394 904 C452 904 509 948 510 994 L506 995 C505 956 450 919 394 919 C338 919 283 956 282 995 L278 995 L278 995 Z M11 0 L287 0 L287 3 L267 3 C211 3 175 58 190 117 L247 293 L513 293 L563 121 C579 60 540 3 483 3 L463 3 L463 0 L717 0 L717 3 L703 3 C662 3 605 62 587 124 L587 124 C524 339 462 555 398 770 L396 770 C398 758 391 744 382 743 L385 733 L183 115 C159 57 88 4 32 4 L12 4 L11 0 L11 0 Z M250 301 L388 726 L511 301 L250 301 L250 301 Z " />
<glyph glyph-name="abreve" unicode="&#x103;" horiz-adv-x="512" d="M150 745 C151 699 208 654 266 654 C324 654 381 698 382 744 L378 745 C377 706 322 669 266 669 C210 669 155 706 154 745 L150 745 L150 745 Z M522 56 L514 60 C509 34 482 9 459 9 C429 9 400 36 400 64 L400 361 C400 448 334 510 266 510 C172 510 81 406 81 360 C81 353 86 346 91 346 C104 346 116 352 116 356 C116 360 96 370 96 373 C96 413 176 504 259 504 C321 504 380 448 380 368 L380 266 C160 198 61 146 61 73 C61 30 118 -11 177 -11 C222 -11 309 29 379 91 L379 63 C379 28 414 -6 450 -6 C481 -6 516 24 521 55 L522 56 L522 56 Z M379 260 L379 96 C313 38 230 0 187 0 C132 0 80 37 80 75 C80 147 173 198 379 261 L379 260 L379 260 Z " />
<glyph glyph-name="Cacute" unicode="&#x106;" horiz-adv-x="676" d="M365 814 L501 940 C539 976 576 1011 576 1012 C576 1017 571 1022 566 1022 C566 1022 529 986 492 949 L362 817 L365 814 L365 814 Z M625 127 L625 127 L625 127 L625 127 Z M628 4 L628 210 L614 210 C612 203 610 189 608 182 C597 128 537 54 482 26 C440 7 395 -5 350 -5 C220 -5 96 181 96 375 C96 568 226 754 361 754 C406 754 449 743 488 725 C540 696 596 623 608 568 C610 561 612 547 614 540 L628 540 L628 743 L621 743 C621 737 620 724 620 718 C618 687 581 680 544 702 C493 736 430 760 360 760 C213 760 72 571 72 375 C72 179 208 -10 349 -10 C418 -10 487 15 543 50 C581 71 619 62 621 30 C621 23 622 11 622 4 L628 4 L628 4 Z " />
<glyph glyph-name="Ccircumflex" unicode="&#x108;" horiz-adv-x="676" d="M366 1024 C363 1032 356 1032 353 1024 L213 811 L216 809 L360 1008 L504 809 L507 811 L366 1024 L366 1024 Z M626 127 L626 127 L626 127 L626 127 Z M629 4 L629 210 L615 210 C613 203 611 189 609 182 C598 128 538 54 483 26 C441 7 396 -5 351 -5 C221 -5 97 181 97 375 C97 568 227 754 362 754 C407 754 450 743 489 725 C541 696 597 623 609 568 C611 561 613 547 615 540 L629 540 L629 743 L622 743 C622 737 621 724 621 718 C619 687 582 680 545 702 C494 736 431 760 361 760 C214 760 73 571 73 375 C73 179 209 -10 350 -10 C419 -10 488 15 544 50 C582 71 620 62 622 30 C622 23 623 11 623 4 L629 4 L629 4 Z " />
<glyph glyph-name="Cdot" unicode="&#x10a;" horiz-adv-x="676" d="M379 885 C379 911 339 911 339 886 C339 860 379 860 379 885 L379 885 Z M625 127 L625 127 L625 127 L625 127 Z M628 4 L628 210 L614 210 C612 203 610 189 608 182 C597 128 537 54 482 26 C440 7 395 -5 350 -5 C220 -5 96 181 96 375 C96 568 226 754 361 754 C406 754 449 743 488 725 C540 696 596 623 608 568 C610 561 612 547 614 540 L628 540 L628 743 L621 743 C621 737 620 724 620 718 C618 687 581 680 544 702 C493 736 430 760 360 760 C213 760 72 571 72 375 C72 179 208 -10 349 -10 C418 -10 487 15 543 50 C581 71 619 62 621 30 C621 23 622 11 622 4 L628 4 L628 4 Z " />
<glyph glyph-name="cdot" unicode="&#x10b;" horiz-adv-x="434" d="M253 635 C253 661 213 661 213 636 C213 610 253 610 253 635 L253 635 Z M404 128 L401 129 C372 64 285 2 223 2 C142 2 64 125 64 254 C64 382 146 505 231 505 C290 505 365 456 384 405 C386 400 391 395 394 395 C401 395 406 400 404 405 C385 459 301 510 233 510 C137 510 45 379 45 242 C45 113 129 -10 216 -10 C281 -10 373 58 404 128 L404 128 Z " />
<glyph glyph-name="Ccaron" unicode="&#x10c;" horiz-adv-x="676" d="M503 1041 L359 842 L215 1041 L212 1039 L352 826 C355 818 362 818 365 826 L505 1039 L503 1041 L503 1041 Z M624 127 L624 127 L624 127 L624 127 Z M627 4 L627 210 L613 210 C611 203 609 189 607 182 C596 128 536 54 481 26 C439 7 394 -5 349 -5 C219 -5 95 181 95 375 C95 568 225 754 360 754 C405 754 448 743 487 725 C539 696 595 623 607 568 C609 561 611 547 613 540 L627 540 L627 743 L620 743 C620 737 619 724 619 718 C617 687 580 680 543 702 C492 736 429 760 359 760 C212 760 71 571 71 375 C71 179 207 -10 348 -10 C417 -10 486 15 542 50 C580 71 618 62 620 30 C620 23 621 11 621 4 L627 4 L627 4 Z " />
<glyph glyph-name="ccaron" unicode="&#x10d;" horiz-adv-x="434" d="M377 791 L233 592 L89 791 L86 789 L226 576 C229 568 236 568 239 576 L379 789 L377 791 L377 791 Z M403 128 L400 129 C371 64 284 2 222 2 C141 2 63 125 63 254 C63 382 145 505 230 505 C289 505 364 456 383 405 C385 400 390 395 393 395 C400 395 405 400 403 405 C384 459 300 510 232 510 C136 510 44 379 44 242 C44 113 128 -10 215 -10 C280 -10 372 58 403 128 L403 128 Z " />
<glyph glyph-name="Dcaron" unicode="&#x10e;" horiz-adv-x="774" d="M573 1041 L429 842 L285 1041 L282 1039 L422 826 C425 818 432 818 435 826 L575 1039 L573 1041 L573 1041 Z M260 5 C204 5 187 46 187 88 L187 745 L288 745 C515 745 693 564 693 375 C693 167 481 5 260 5 L260 5 Z M78 747 L92 747 C128 747 163 712 163 676 L163 74 C163 38 128 3 92 3 L78 3 L78 0 L267 0 C497 0 718 165 718 375 C718 566 538 750 307 750 L78 750 L78 747 L78 747 Z " />
<glyph glyph-name="dcaron" unicode="&#x10f;" horiz-adv-x="584" d="M568 759 C563 759 553 691 548 654 L533 543 L537 542 L559 651 C568 694 577 746 577 756 C577 758 573 759 568 759 L568 759 Z M569 28 L555 24 C519 14 484 40 484 76 L484 750 L474 750 L464 747 L464 746 C444 741 415 733 399 729 L399 723 L409 725 C437 729 464 700 464 667 L464 415 C431 464 366 510 313 510 C163 510 45 386 45 256 C45 123 163 -5 286 -5 C347 -5 433 35 464 77 L464 0 L474 0 C498 6 545 19 569 25 L569 28 L569 28 Z M464 375 L464 84 C434 43 351 4 294 4 C177 4 65 130 65 262 C65 386 175 505 316 505 C371 505 446 435 464 376 L464 375 L464 375 Z " />
<glyph glyph-name="Emacron" unicode="&#x112;" horiz-adv-x="595" d="M181 907 L481 907 L481 920 L181 920 L181 907 L181 907 Z M438 250 L438 526 L428 526 L423 492 C416 440 361 391 310 391 L188 391 L188 745 L371 745 C422 745 483 696 496 644 L505 610 L515 610 C511 645 503 713 499 748 L498 748 L498 750 L59 750 L59 747 L75 747 C120 747 164 702 164 656 L164 94 C164 48 120 3 75 3 L59 3 L59 0 L523 0 L523 2 C529 35 540 97 546 130 L536 130 L530 111 C513 57 435 5 371 5 L276 5 C209 5 188 46 188 88 L188 385 L310 385 C361 385 416 336 423 284 L428 250 L438 250 L438 250 Z " />
<glyph glyph-name="emacron" unicode="&#x113;" horiz-adv-x="522" d="M141 657 L441 657 L441 670 L141 670 L141 657 L141 657 Z M80 340 L492 340 C474 444 378 510 291 510 C166 510 45 404 45 238 C45 112 155 -10 269 -10 C351 -10 455 61 482 135 L479 135 C454 68 354 3 273 3 C167 3 66 122 66 246 C66 280 71 311 80 339 L80 340 L80 340 Z M468 345 L82 344 C116 444 202 504 290 504 C364 504 447 443 467 345 L468 345 L468 345 Z " />
<glyph glyph-name="Ebreve" unicode="&#x114;" horiz-adv-x="595" d="M215 995 C216 949 273 904 331 904 C389 904 446 948 447 994 L443 995 C442 956 387 919 331 919 C275 919 220 956 219 995 L215 995 L215 995 Z M438 250 L438 526 L428 526 L423 492 C416 440 361 391 310 391 L188 391 L188 745 L371 745 C422 745 483 696 496 644 L505 610 L515 610 C511 645 503 713 499 748 L498 748 L498 750 L59 750 L59 747 L75 747 C120 747 164 702 164 656 L164 94 C164 48 120 3 75 3 L59 3 L59 0 L523 0 L523 2 C529 35 540 97 546 130 L536 130 L530 111 C513 57 435 5 371 5 L276 5 C209 5 188 46 188 88 L188 385 L310 385 C361 385 416 336 423 284 L428 250 L438 250 L438 250 Z " />
<glyph glyph-name="ebreve" unicode="&#x115;" horiz-adv-x="522" d="M175 745 C176 699 233 654 291 654 C349 654 406 698 407 744 L403 745 C402 706 347 669 291 669 C235 669 180 706 179 745 L175 745 L175 745 Z M80 340 L492 340 C474 444 378 510 291 510 C166 510 45 404 45 238 C45 112 155 -10 269 -10 C351 -10 455 61 482 135 L479 135 C454 68 354 3 273 3 C167 3 66 122 66 246 C66 280 71 311 80 339 L80 340 L80 340 Z M468 345 L82 344 C116 444 202 504 290 504 C364 504 447 443 467 345 L468 345 L468 345 Z " />
<glyph glyph-name="Edot" unicode="&#x116;" horiz-adv-x="595" d="M351 885 C351 911 311 911 311 886 C311 860 351 860 351 885 L351 885 Z M438 250 L438 526 L428 526 L423 492 C416 440 361 391 310 391 L188 391 L188 745 L371 745 C422 745 483 696 496 644 L505 610 L515 610 C511 645 503 713 499 748 L498 748 L498 750 L59 750 L59 747 L75 747 C120 747 164 702 164 656 L164 94 C164 48 120 3 75 3 L59 3 L59 0 L523 0 L523 2 C529 35 540 97 546 130 L536 130 L530 111 C513 57 435 5 371 5 L276 5 C209 5 188 46 188 88 L188 385 L310 385 C361 385 416 336 423 284 L428 250 L438 250 L438 250 Z " />
<glyph glyph-name="edot" unicode="&#x117;" horiz-adv-x="522" d="M311 635 C311 661 271 661 271 636 C271 610 311 610 311 635 L311 635 Z M80 340 L492 340 C474 444 378 510 291 510 C166 510 45 404 45 238 C45 112 155 -10 269 -10 C351 -10 455 61 482 135 L479 135 C454 68 354 3 273 3 C167 3 66 122 66 246 C66 280 71 311 80 339 L80 340 L80 340 Z M468 345 L82 344 C116 444 202 504 290 504 C364 504 447 443 467 345 L468 345 L468 345 Z " />
<glyph glyph-name="Ecaron" unicode="&#x11a;" horiz-adv-x="595" d="M475 1041 L331 842 L187 1041 L184 1039 L324 826 C327 818 334 818 337 826 L477 1039 L475 1041 L475 1041 Z M437 250 L437 526 L427 526 L422 492 C415 440 360 391 309 391 L187 391 L187 745 L370 745 C421 745 482 696 495 644 L504 610 L514 610 C510 645 502 713 498 748 L497 748 L497 750 L58 750 L58 747 L74 747 C119 747 163 702 163 656 L163 94 C163 48 119 3 74 3 L58 3 L58 0 L522 0 L522 2 C528 35 539 97 545 130 L535 130 L529 111 C512 57 434 5 370 5 L275 5 C208 5 187 46 187 88 L187 385 L309 385 C360 385 415 336 422 284 L427 250 L437 250 L437 250 Z " />
<glyph glyph-name="ecaron" unicode="&#x11b;" horiz-adv-x="522" d="M435 791 L291 592 L147 791 L144 789 L284 576 C287 568 294 568 297 576 L437 789 L435 791 L435 791 Z M79 340 L491 340 C473 444 377 510 290 510 C165 510 44 404 44 238 C44 112 154 -10 268 -10 C350 -10 454 61 481 135 L478 135 C453 68 353 3 272 3 C166 3 65 122 65 246 C65 280 70 311 79 339 L79 340 L79 340 Z M467 345 L81 344 C115 444 201 504 289 504 C363 504 446 443 466 345 L467 345 L467 345 Z " />
<glyph glyph-name="Gcircumflex" unicode="&#x11c;" horiz-adv-x="749" d="M366 1024 C363 1032 356 1032 353 1024 L213 811 L216 809 L360 1008 L504 809 L507 811 L366 1024 L366 1024 Z M507 11 C539 18 585 34 585 51 L585 26 C585 27 515 11 507 9 L507 11 L507 11 Z M629 538 L629 741 L622 741 C622 735 621 722 621 716 C619 685 582 678 545 700 C494 734 431 758 361 758 C214 758 73 569 73 373 C73 177 209 -12 351 -12 C472 -12 609 23 688 60 L687 64 C665 54 638 44 609 35 L609 214 C609 268 649 320 690 320 L704 320 L704 323 L491 323 L491 320 L505 320 C546 320 586 268 586 214 L586 28 C576 25 566 22 556 19 C498 9 399 -7 355 -7 C224 -7 98 179 98 373 C98 566 228 752 363 752 C408 752 451 741 490 723 C542 694 598 621 610 566 C612 559 614 545 616 538 L629 538 L629 538 Z " />
<glyph glyph-name="Gbreve" unicode="&#x11e;" horiz-adv-x="749" d="M243 995 C244 949 301 904 359 904 C417 904 474 948 475 994 L471 995 C470 956 415 919 359 919 C303 919 248 956 247 995 L243 995 L243 995 Z M506 11 C538 18 584 34 584 51 L584 26 C584 27 514 11 506 9 L506 11 L506 11 Z M628 538 L628 741 L621 741 C621 735 620 722 620 716 C618 685 581 678 544 700 C493 734 430 758 360 758 C213 758 72 569 72 373 C72 177 208 -12 350 -12 C471 -12 608 23 687 60 L686 64 C664 54 637 44 608 35 L608 214 C608 268 648 320 689 320 L703 320 L703 323 L490 323 L490 320 L504 320 C545 320 585 268 585 214 L585 28 C575 25 565 22 555 19 C497 9 398 -7 354 -7 C223 -7 97 179 97 373 C97 566 227 752 362 752 C407 752 450 741 489 723 C541 694 597 621 609 566 C611 559 613 545 615 538 L628 538 L628 538 Z " />
<glyph glyph-name="gbreve" unicode="&#x11f;" horiz-adv-x="520" d="M147 745 C148 699 205 654 263 654 C321 654 378 698 379 744 L375 745 C374 706 319 669 263 669 C207 669 152 706 151 745 L147 745 L147 745 Z M524 454 C482 454 440 427 427 394 C404 458 335 510 263 510 C175 510 91 432 91 350 C91 276 157 206 233 191 C143 184 64 148 64 110 C64 72 118 36 177 32 C116 15 59 -43 59 -91 C59 -162 163 -230 272 -230 C381 -230 485 -160 485 -88 C485 -17 414 52 302 52 L189 52 C131 52 76 83 76 115 C76 152 168 188 263 188 C361 188 462 286 429 389 C442 417 478 440 514 440 C518 440 526 432 530 432 C543 432 538 453 525 453 L524 454 L524 454 Z M264 192 C186 192 112 269 112 349 C112 428 186 504 264 504 C342 504 416 428 416 349 C416 269 342 192 264 192 L264 192 Z M182 31 C184 31 186 31 188 31 L300 31 C403 31 469 -30 469 -94 C469 -161 373 -226 273 -226 C172 -226 75 -158 75 -87 C75 -40 126 16 181 31 L182 31 L182 31 Z " />
<glyph glyph-name="Gdot" unicode="&#x120;" horiz-adv-x="749" d="M379 885 C379 911 339 911 339 886 C339 860 379 860 379 885 L379 885 Z M506 11 C538 18 584 34 584 51 L584 26 C584 27 514 11 506 9 L506 11 L506 11 Z M628 538 L628 741 L621 741 C621 735 620 722 620 716 C618 685 581 678 544 700 C493 734 430 758 360 758 C213 758 72 569 72 373 C72 177 208 -12 350 -12 C471 -12 608 23 687 60 L686 64 C664 54 637 44 608 35 L608 214 C608 268 648 320 689 320 L703 320 L703 323 L490 323 L490 320 L504 320 C545 320 585 268 585 214 L585 28 C575 25 565 22 555 19 C497 9 398 -7 354 -7 C223 -7 97 179 97 373 C97 566 227 752 362 752 C407 752 450 741 489 723 C541 694 597 621 609 566 C611 559 613 545 615 538 L628 538 L628 538 Z " />
<glyph glyph-name="gdot" unicode="&#x121;" horiz-adv-x="520" d="M283 635 C283 661 243 661 243 636 C243 610 283 610 283 635 L283 635 Z M524 454 C482 454 440 427 427 394 C404 458 335 510 263 510 C175 510 91 432 91 350 C91 276 157 206 233 191 C143 184 64 148 64 110 C64 72 118 36 177 32 C116 15 59 -43 59 -91 C59 -162 163 -230 272 -230 C381 -230 485 -160 485 -88 C485 -17 414 52 302 52 L189 52 C131 52 76 83 76 115 C76 152 168 188 263 188 C361 188 462 286 429 389 C442 417 478 440 514 440 C518 440 526 432 530 432 C543 432 538 453 525 453 L524 454 L524 454 Z M264 192 C186 192 112 269 112 349 C112 428 186 504 264 504 C342 504 416 428 416 349 C416 269 342 192 264 192 L264 192 Z M182 31 C184 31 186 31 188 31 L300 31 C403 31 469 -30 469 -94 C469 -161 373 -226 273 -226 C172 -226 75 -158 75 -87 C75 -40 126 16 181 31 L182 31 L182 31 Z " />
<glyph glyph-name="Hcircumflex" unicode="&#x124;" horiz-adv-x="785" d="M427 1024 C424 1032 417 1032 414 1024 L274 811 L277 809 L421 1008 L565 809 L568 811 L427 1024 L427 1024 Z M726 3 L712 3 C676 3 641 38 641 74 L641 676 C641 712 676 747 712 747 L726 747 L726 750 L532 750 L532 747 L546 747 C582 747 617 712 617 676 L617 389 L225 389 L225 676 C225 712 260 747 296 747 L310 747 L310 750 L116 750 L116 747 L130 747 C166 747 201 712 201 676 L201 74 C201 38 166 3 130 3 L116 3 L116 0 L310 0 L310 3 L296 3 C260 3 225 38 225 74 L225 383 L617 383 L617 74 C617 38 582 3 546 3 L532 3 L532 0 L726 0 L726 3 L726 3 Z " />
<glyph glyph-name="Itilde" unicode="&#x128;" horiz-adv-x="347" d="M47 870 C47 906 71 941 95 941 C142 941 233 876 280 876 C309 876 337 913 337 951 L333 951 C333 920 309 891 284 891 C237 891 146 956 99 956 C70 956 43 914 43 870 L47 870 L47 870 Z M287 3 L273 3 C237 3 202 38 202 74 L202 676 C202 712 237 747 273 747 L287 747 L287 750 L93 750 L93 747 L107 747 C143 747 178 712 178 676 L178 74 C178 38 143 3 107 3 L93 3 L93 0 L287 0 L287 3 L287 3 Z " />
<glyph glyph-name="itilde" unicode="&#x129;" horiz-adv-x="271" d="M8 621 C8 657 32 692 56 692 C103 692 194 627 241 627 C270 627 298 664 298 702 L294 702 C294 671 270 642 245 642 C198 642 107 707 60 707 C31 707 4 665 4 621 L8 621 L8 621 Z M76 477 L105 485 C123 490 141 477 141 459 L141 39 C141 21 123 3 105 3 L76 3 L76 0 L226 0 L226 3 L197 3 C179 3 161 21 161 39 L161 500 L151 500 C132 495 95 485 76 480 L76 477 L76 477 Z " />
<glyph glyph-name="Imacron" unicode="&#x12a;" horiz-adv-x="347" d="M40 907 L340 907 L340 920 L40 920 L40 907 L40 907 Z M287 3 L273 3 C237 3 202 38 202 74 L202 676 C202 712 237 747 273 747 L287 747 L287 750 L93 750 L93 747 L107 747 C143 747 178 712 178 676 L178 74 C178 38 143 3 107 3 L93 3 L93 0 L287 0 L287 3 L287 3 Z " />
<glyph glyph-name="imacron" unicode="&#x12b;" horiz-adv-x="271" d="M1 658 L301 658 L301 671 L1 671 L1 658 L1 658 Z M76 477 L105 485 C123 490 141 477 141 459 L141 39 C141 21 123 3 105 3 L76 3 L76 0 L226 0 L226 3 L197 3 C179 3 161 21 161 39 L161 500 L151 500 C132 495 95 485 76 480 L76 477 L76 477 Z " />
<glyph glyph-name="Ibreve" unicode="&#x12c;" horiz-adv-x="347" d="M74 995 C75 949 132 904 190 904 C248 904 305 948 306 994 L302 995 C301 956 246 919 190 919 C134 919 79 956 78 995 L74 995 L74 995 Z M287 3 L273 3 C237 3 202 38 202 74 L202 676 C202 712 237 747 273 747 L287 747 L287 750 L93 750 L93 747 L107 747 C143 747 178 712 178 676 L178 74 C178 38 143 3 107 3 L93 3 L93 0 L287 0 L287 3 L287 3 Z " />
<glyph glyph-name="ibreve" unicode="&#x12d;" horiz-adv-x="271" d="M35 746 C36 700 93 655 151 655 C209 655 266 699 267 745 L263 746 C262 707 207 670 151 670 C95 670 40 707 39 746 L35 746 L35 746 Z M76 477 L105 485 C123 490 141 477 141 459 L141 39 C141 21 123 3 105 3 L76 3 L76 0 L226 0 L226 3 L197 3 C179 3 161 21 161 39 L161 500 L151 500 C132 495 95 485 76 480 L76 477 L76 477 Z " />
<glyph glyph-name="Idot" unicode="&#x130;" horiz-adv-x="347" d="M210 885 C210 911 170 911 170 886 C170 860 210 860 210 885 L210 885 Z M287 3 L273 3 C237 3 202 38 202 74 L202 676 C202 712 237 747 273 747 L287 747 L287 750 L93 750 L93 747 L107 747 C143 747 178 712 178 676 L178 74 C178 38 143 3 107 3 L93 3 L93 0 L287 0 L287 3 L287 3 Z " />
<glyph glyph-name="dotlessi" unicode="&#x131;" horiz-adv-x="271" d="M76 477 L105 485 C123 490 141 477 141 459 L141 39 C141 21 123 3 105 3 L76 3 L76 0 L226 0 L226 3 L197 3 C179 3 161 21 161 39 L161 500 L151 500 C132 495 95 485 76 480 L76 477 L76 477 Z " />
<glyph glyph-name="Jcircumflex" unicode="&#x134;" horiz-adv-x="347" d="M197 1024 C194 1032 187 1032 184 1024 L44 811 L47 809 L191 1008 L335 809 L338 811 L197 1024 L197 1024 Z M288 750 L94 750 L94 747 L108 747 C144 747 179 712 179 676 L179 0 C179 -151 102 -212 60 -212 C50 -212 52 -193 42 -193 C37 -193 32 -198 32 -204 C32 -212 43 -220 54 -220 C107 -220 203 -144 203 44 L203 676 C203 712 238 747 274 747 L288 747 L288 750 L288 750 Z " />
<glyph glyph-name="Lacute" unicode="&#x139;" horiz-adv-x="612" d="M196 814 L332 940 C370 976 407 1011 407 1012 C407 1017 402 1022 397 1022 C397 1022 360 986 323 949 L193 817 L196 814 L196 814 Z M287 750 L93 750 L93 747 L107 747 C143 747 178 712 178 676 L178 74 C178 38 143 3 107 3 L93 3 L93 0 L537 0 L537 2 L538 2 C543 34 554 97 560 129 L550 129 L544 110 C527 56 449 4 385 4 L290 4 C223 4 202 45 202 88 L202 676 C202 712 237 747 273 747 L287 747 L287 750 L287 750 Z " />
<glyph glyph-name="Lcaron" unicode="&#x13d;" horiz-adv-x="612" d="M386 809 C381 809 371 741 366 704 L351 593 L355 592 L377 701 C386 744 395 796 395 806 C395 808 391 809 386 809 L386 809 Z M287 750 L93 750 L93 747 L107 747 C143 747 178 712 178 676 L178 74 C178 38 143 3 107 3 L93 3 L93 0 L537 0 L537 2 L538 2 C543 34 554 97 560 129 L550 129 L544 110 C527 56 449 4 385 4 L290 4 C223 4 202 45 202 88 L202 676 C202 712 237 747 273 747 L287 747 L287 750 L287 750 Z " />
<glyph glyph-name="lcaron" unicode="&#x13e;" horiz-adv-x="215" d="M204 760 C199 760 189 692 184 655 L169 544 L173 543 L195 652 C204 695 213 747 213 757 C213 759 209 760 204 760 L204 760 Z M35 724 L45 726 C73 730 100 701 100 668 L100 39 C100 21 82 3 64 3 L35 3 L35 0 L185 0 L185 3 L156 3 C138 3 120 21 120 39 L120 750 L110 750 C91 745 54 735 35 730 L35 724 L35 724 Z " />
<glyph glyph-name="Nacute" unicode="&#x143;" horiz-adv-x="750" d="M280 814 L416 940 C454 976 491 1011 491 1012 C491 1017 486 1022 481 1022 C481 1022 444 986 407 949 L277 817 L280 814 L280 814 Z M42 747 L56 747 C81 747 117 730 144 707 L143 74 L143 74 C143 38 108 3 72 3 L58 3 L58 0 L235 0 L235 3 L221 3 C185 3 150 38 150 74 L150 74 L149 702 C157 695 164 688 169 680 C312 453 456 227 598 -1 L603 -1 L604 675 L604 675 C604 711 639 746 675 746 L689 746 L689 749 L512 749 L512 746 L526 746 C562 746 597 711 597 675 L598 43 L154 749 L41 749 L42 747 L42 747 Z " />
<glyph glyph-name="Ncaron" unicode="&#x147;" horiz-adv-x="750" d="M518 1041 L374 842 L230 1041 L227 1039 L367 826 C370 818 377 818 380 826 L520 1039 L518 1041 L518 1041 Z M41 747 L55 747 C80 747 116 730 143 707 L142 74 L142 74 C142 38 107 3 71 3 L57 3 L57 0 L234 0 L234 3 L220 3 C184 3 149 38 149 74 L149 74 L148 702 C156 695 163 688 168 680 C311 453 455 227 597 -1 L602 -1 L603 675 L603 675 C603 711 638 746 674 746 L688 746 L688 749 L511 749 L511 746 L525 746 C561 746 596 711 596 675 L597 43 L153 749 L40 749 L41 747 L41 747 Z " />
<glyph glyph-name="ncaron" unicode="&#x148;" horiz-adv-x="504" d="M398 792 L255 594 L111 792 L108 790 L247 577 C250 569 259 568 262 577 L401 790 L398 792 L398 792 Z M35 474 L45 476 C73 480 100 451 100 418 L100 39 C100 21 82 3 64 3 L35 3 L35 0 L185 0 L185 3 L156 3 C138 3 120 21 120 39 L120 363 C159 430 231 495 267 495 C335 495 389 414 389 330 L389 39 C389 21 371 3 353 3 L324 3 L324 0 L474 0 L474 3 L445 3 C427 3 409 21 409 39 L409 330 C409 422 352 510 279 510 C239 510 162 441 120 369 L120 500 L110 500 C91 495 54 485 35 480 L35 474 L35 474 Z " />
<glyph glyph-name="Omacron" unicode="&#x14c;" horiz-adv-x="767" d="M237 907 L537 907 L537 920 L237 920 L237 907 L237 907 Z M96 375 C96 568 238 754 385 754 C539 754 687 568 687 375 C687 182 536 -4 378 -4 C234 -4 96 182 96 375 L96 375 Z M71 375 C71 179 221 -10 377 -10 C548 -10 712 179 712 375 C712 571 553 760 387 760 C226 760 71 571 71 375 L71 375 Z " />
<glyph glyph-name="omacron" unicode="&#x14d;" horiz-adv-x="596" d="M148 657 L448 657 L448 670 L148 670 L148 657 L148 657 Z M67 250 C67 380 180 504 298 504 C415 504 528 380 528 250 C528 120 415 -4 298 -4 C180 -4 67 120 67 250 L67 250 Z M45 250 C45 117 169 -10 298 -10 C427 -10 551 117 551 250 C551 383 427 510 298 510 C169 510 45 383 45 250 L45 250 Z " />
<glyph glyph-name="Obreve" unicode="&#x14e;" horiz-adv-x="767" d="M271 995 C272 949 329 904 387 904 C445 904 502 948 503 994 L499 995 C498 956 443 919 387 919 C331 919 276 956 275 995 L271 995 L271 995 Z M96 375 C96 568 238 754 385 754 C539 754 687 568 687 375 C687 182 536 -4 378 -4 C234 -4 96 182 96 375 L96 375 Z M71 375 C71 179 221 -10 377 -10 C548 -10 712 179 712 375 C712 571 553 760 387 760 C226 760 71 571 71 375 L71 375 Z " />
<glyph glyph-name="obreve" unicode="&#x14f;" horiz-adv-x="596" d="M182 745 C183 699 240 654 298 654 C356 654 413 698 414 744 L410 745 C409 706 354 669 298 669 C242 669 187 706 186 745 L182 745 L182 745 Z M67 250 C67 380 180 504 298 504 C415 504 528 380 528 250 C528 120 415 -4 298 -4 C180 -4 67 120 67 250 L67 250 Z M45 250 C45 117 169 -10 298 -10 C427 -10 551 117 551 250 C551 383 427 510 298 510 C169 510 45 383 45 250 L45 250 Z " />
<glyph glyph-name="Racute" unicode="&#x154;" horiz-adv-x="652" d="M341 814 L478 940 C517 976 554 1012 554 1012 C554 1017 549 1022 544 1022 C543 1022 506 986 469 949 L339 817 L341 814 L341 814 Z M79 747 L93 747 C129 747 164 712 164 676 L164 74 C164 38 129 3 93 3 L79 3 L79 0 L273 0 L273 3 L259 3 C223 3 188 38 188 74 L188 374 L356 374 C364 351 427 208 492 64 C515 13 543 1 642 1 L642 2 C564 2 542 13 519 64 C455 208 393 347 380 376 C460 386 532 451 532 542 C532 648 446 750 357 750 L79 750 L79 747 L79 747 Z M188 380 L188 745 L350 745 C430 745 507 647 507 546 C507 449 434 380 357 380 L188 380 L188 380 Z " />
<glyph glyph-name="Rcaron" unicode="&#x158;" horiz-adv-x="652" d="M479 1041 L336 843 L192 1041 L189 1039 L328 826 C331 818 340 817 343 826 L482 1039 L479 1041 L479 1041 Z M79 747 L93 747 C129 747 164 712 164 676 L164 74 C164 38 129 3 93 3 L79 3 L79 0 L273 0 L273 3 L259 3 C223 3 188 38 188 74 L188 374 L356 374 C364 351 427 208 492 64 C515 13 543 1 642 1 L642 2 C564 2 542 13 519 64 C455 208 393 347 380 376 C460 386 532 451 532 542 C532 648 446 750 357 750 L79 750 L79 747 L79 747 Z M188 380 L188 745 L350 745 C430 745 507 647 507 546 C507 449 434 380 357 380 L188 380 L188 380 Z " />
<glyph glyph-name="rcaron" unicode="&#x159;" horiz-adv-x="314" d="M344 792 L201 594 L57 792 L54 790 L193 577 C196 569 205 568 208 577 L347 790 L344 792 L344 792 Z M36 474 L46 476 C74 480 101 451 101 418 L101 39 C101 21 83 3 65 3 L36 3 L36 0 L186 0 L186 3 L157 3 C139 3 121 21 121 39 L121 370 C142 437 208 501 257 501 C269 501 280 484 280 466 C280 451 304 451 304 466 C304 488 285 510 266 510 C212 510 141 447 121 381 L121 500 L111 500 C92 495 55 485 36 480 L36 474 L36 474 Z " />
<glyph glyph-name="Sacute" unicode="&#x15a;" horiz-adv-x="541" d="M280 814 L416 940 C454 976 491 1011 491 1012 C491 1017 486 1022 481 1022 C481 1022 444 986 407 949 L277 817 L280 814 L280 814 Z M55 232 L55 2 L62 2 C62 10 63 25 63 33 C65 69 102 79 140 53 C192 15 256 -11 309 -11 C406 -11 500 78 500 170 C500 236 419 338 316 386 C193 443 97 541 97 596 C97 676 166 753 237 753 C255 753 274 750 293 745 C353 729 422 652 435 587 C437 579 439 565 441 557 L455 557 L455 751 L448 751 C448 745 447 735 447 729 C445 702 412 695 380 715 L380 715 C337 741 283 759 237 759 C156 759 78 675 78 587 C78 526 176 421 302 362 C402 315 481 222 481 163 C481 78 397 -3 309 -3 C276 -3 239 7 204 23 C149 50 85 134 73 198 C71 206 69 222 67 230 L55 232 L55 232 Z M57 149 L57 149 L57 149 L57 149 Z " />
<glyph glyph-name="Scircumflex" unicode="&#x15c;" horiz-adv-x="541" d="M55 232 L55 2 L62 2 C62 10 63 25 63 33 C65 69 102 79 140 53 C192 15 256 -11 309 -11 C406 -11 500 78 500 170 C500 236 419 338 316 386 C193 443 97 541 97 596 C97 676 166 753 237 753 C255 753 274 750 293 745 C353 729 422 652 435 587 C437 579 439 565 441 557 L455 557 L455 751 L448 751 C448 745 447 735 447 729 C445 702 412 695 380 715 L380 715 C337 741 283 759 237 759 C156 759 78 675 78 587 C78 526 176 421 302 362 C402 315 481 222 481 163 C481 78 397 -3 309 -3 C276 -3 239 7 204 23 C149 50 85 134 73 198 C71 206 69 222 67 230 L55 232 L55 232 Z M279 1022 C276 1030 269 1030 266 1022 L126 809 L129 807 L273 1006 L417 807 L420 809 L279 1022 L279 1022 Z M58 149 L58 149 L58 149 L58 149 Z " />
<glyph glyph-name="Scaron" unicode="&#x160;" horiz-adv-x="541" d="M418 1041 L274 842 L130 1041 L127 1039 L267 826 C270 818 277 818 280 826 L420 1039 L418 1041 L418 1041 Z M54 232 L54 2 L61 2 C61 10 62 25 62 33 C64 69 101 79 139 53 C191 15 255 -11 308 -11 C405 -11 499 78 499 170 C499 236 418 338 315 386 C192 443 96 541 96 596 C96 676 165 753 236 753 C254 753 273 750 292 745 C352 729 421 652 434 587 C436 579 438 565 440 557 L454 557 L454 751 L447 751 C447 745 446 735 446 729 C444 702 411 695 379 715 L379 715 C336 741 282 759 236 759 C155 759 77 675 77 587 C77 526 175 421 301 362 C401 315 480 222 480 163 C480 78 396 -3 308 -3 C275 -3 238 7 203 23 C148 50 84 134 72 198 C70 206 68 222 66 230 L54 232 L54 232 Z M56 149 L56 149 L56 149 L56 149 Z " />
<glyph glyph-name="scaron" unicode="&#x161;" horiz-adv-x="416" d="M377 791 L233 592 L89 791 L86 789 L226 576 C229 568 236 568 239 576 L379 789 L377 791 L377 791 Z M335 348 L335 508 L330 508 C330 504 329 495 329 491 C328 477 289 479 249 495 C226 505 202 511 180 511 C121 511 64 455 64 397 C64 349 135 276 226 243 C294 218 348 155 348 109 C348 51 291 -4 231 -4 C229 -4 176 2 178 7 C124 26 69 97 66 151 C66 156 64 167 64 172 L59 172 L59 2 L64 2 C64 7 65 17 65 22 C66 40 105 37 144 16 L144 16 C173 0 205 -10 232 -10 C300 -10 365 51 365 114 C365 163 308 232 236 258 C148 290 79 358 79 403 C79 455 129 505 181 505 C195 505 210 502 225 498 C284 477 330 414 330 348 L335 348 L335 348 Z " />
<glyph glyph-name="Tcaron" unicode="&#x164;" horiz-adv-x="775" d="M532 1041 L388 842 L244 1041 L241 1039 L381 826 C384 818 391 818 394 826 L534 1039 L532 1041 L532 1041 Z M692 795 L690 788 C682 769 627 750 575 750 L198 750 C146 750 91 769 84 788 L82 795 L73 795 C67 780 61 765 54 750 L54 749 C40 715 15 652 2 618 L12 618 L23 637 C52 691 132 743 186 743 L375 743 L375 73 C375 37 340 2 304 2 L290 2 L290 -1 L483 -1 L483 2 L469 2 C433 2 398 37 398 73 L398 743 L588 743 C642 743 722 691 751 637 L762 618 L772 618 C758 651 733 713 720 746 L721 746 L701 794 L692 795 L692 795 Z " />
<glyph glyph-name="tcaron" unicode="&#x165;" horiz-adv-x="306" d="M269 500 L115 500 L115 620 L114 620 L30 500 L30 490 L95 490 L95 103 C95 34 144 -10 196 -10 C221 -10 270 17 296 45 L294 46 C272 22 227 -1 202 -1 C157 -1 114 37 114 98 L115 489 L269 489 L269 500 L269 500 Z M350 759 C345 759 335 691 330 654 L315 543 L319 542 L341 651 C350 694 359 746 359 756 C359 758 355 759 350 759 L350 759 Z " />
<glyph glyph-name="Utilde" unicode="&#x168;" horiz-adv-x="646" d="M187 870 C187 906 211 941 235 941 C282 941 373 876 420 876 C449 876 477 913 477 951 L473 951 C473 920 449 891 424 891 C377 891 286 956 239 956 C210 956 183 914 183 870 L187 870 L187 870 Z M616 29 L602 25 C566 15 531 41 531 77 L531 750 L422 750 L422 747 L436 747 C472 747 507 712 507 676 L507 164 C469 83 344 5 251 5 C201 5 153 110 153 220 L153 750 L44 750 L44 747 L58 747 C94 747 129 712 129 676 L129 220 C129 103 184 -10 242 -10 C338 -10 468 70 507 153 L507 0 L519 0 C544 6 591 19 616 26 L616 29 L616 29 Z " />
<glyph glyph-name="utilde" unicode="&#x169;" horiz-adv-x="495" d="M107 620 C107 656 131 691 155 691 C202 691 293 626 340 626 C369 626 397 663 397 701 L394 701 C394 670 370 641 344 641 C297 641 207 706 160 706 C131 706 104 664 104 620 L107 620 L107 620 Z M480 26 L469 23 C436 14 405 41 405 77 L405 500 L320 500 L320 497 L349 497 C367 497 385 479 385 461 L385 130 C354 64 280 4 226 4 C170 4 116 80 116 160 L116 500 L31 500 L31 497 L60 497 C78 497 96 479 96 461 L96 160 C96 73 155 -10 217 -10 C274 -10 352 54 385 125 L385 0 L395 0 C417 6 458 17 480 23 L480 26 L480 26 Z " />
<glyph glyph-name="Umacron" unicode="&#x16a;" horiz-adv-x="646" d="M180 907 L480 907 L480 920 L180 920 L180 907 L180 907 Z M616 29 L602 25 C566 15 531 41 531 77 L531 750 L422 750 L422 747 L436 747 C472 747 507 712 507 676 L507 164 C469 83 344 5 251 5 C201 5 153 110 153 220 L153 750 L44 750 L44 747 L58 747 C94 747 129 712 129 676 L129 220 C129 103 184 -10 242 -10 C338 -10 468 70 507 153 L507 0 L519 0 C544 6 591 19 616 26 L616 29 L616 29 Z " />
<glyph glyph-name="umacron" unicode="&#x16b;" horiz-adv-x="495" d="M101 657 L401 657 L401 670 L101 670 L101 657 L101 657 Z M480 26 L469 23 C436 14 405 41 405 77 L405 500 L320 500 L320 497 L349 497 C367 497 385 479 385 461 L385 130 C354 64 280 4 226 4 C170 4 116 80 116 160 L116 500 L31 500 L31 497 L60 497 C78 497 96 479 96 461 L96 160 C96 73 155 -10 217 -10 C274 -10 352 54 385 125 L385 0 L395 0 C417 6 458 17 480 23 L480 26 L480 26 Z " />
<glyph glyph-name="Ubreve" unicode="&#x16c;" horiz-adv-x="646" d="M214 995 C215 949 272 904 330 904 C388 904 445 948 446 994 L442 995 C441 956 386 919 330 919 C274 919 219 956 218 995 L214 995 L214 995 Z M616 29 L602 25 C566 15 531 41 531 77 L531 750 L422 750 L422 747 L436 747 C472 747 507 712 507 676 L507 164 C469 83 344 5 251 5 C201 5 153 110 153 220 L153 750 L44 750 L44 747 L58 747 C94 747 129 712 129 676 L129 220 C129 103 184 -10 242 -10 C338 -10 468 70 507 153 L507 0 L519 0 C544 6 591 19 616 26 L616 29 L616 29 Z " />
<glyph glyph-name="ubreve" unicode="&#x16d;" horiz-adv-x="495" d="M135 745 C136 699 193 654 251 654 C309 654 365 698 366 744 L362 745 C361 706 307 669 251 669 C195 669 140 706 139 745 L135 745 L135 745 Z M480 26 L469 23 C436 14 405 41 405 77 L405 500 L320 500 L320 497 L349 497 C367 497 385 479 385 461 L385 130 C354 64 280 4 226 4 C170 4 116 80 116 160 L116 500 L31 500 L31 497 L60 497 C78 497 96 479 96 461 L96 160 C96 73 155 -10 217 -10 C274 -10 352 54 385 125 L385 0 L395 0 C417 6 458 17 480 23 L480 26 L480 26 Z " />
<glyph glyph-name="Uring" unicode="&#x16e;" horiz-adv-x="646" d="M241 905 C241 951 285 995 330 995 C375 995 419 951 419 905 C419 864 371 815 330 815 C289 815 241 864 241 905 L241 905 Z M235 905 C235 861 286 810 330 810 C374 810 425 861 425 905 C425 953 378 1000 330 1000 C282 1000 235 953 235 905 L235 905 Z M616 29 L602 25 C566 15 531 41 531 77 L531 750 L422 750 L422 747 L436 747 C472 747 507 712 507 676 L507 164 C469 83 344 5 251 5 C201 5 153 110 153 220 L153 750 L44 750 L44 747 L58 747 C94 747 129 712 129 676 L129 220 C129 103 184 -10 242 -10 C338 -10 468 70 507 153 L507 0 L519 0 C544 6 591 19 616 26 L616 29 L616 29 Z " />
<glyph glyph-name="uring" unicode="&#x16f;" horiz-adv-x="495" d="M161 655 C161 701 205 745 251 745 C296 745 340 701 340 655 C340 614 292 565 251 565 C210 565 161 614 161 655 L161 655 Z M155 655 C155 611 207 560 251 560 C295 560 346 611 346 655 C346 703 299 750 251 750 C202 750 155 703 155 655 L155 655 Z M480 26 L469 23 C436 14 405 41 405 77 L405 500 L320 500 L320 497 L349 497 C367 497 385 479 385 461 L385 130 C354 64 280 4 226 4 C170 4 116 80 116 160 L116 500 L31 500 L31 497 L60 497 C78 497 96 479 96 461 L96 160 C96 73 155 -10 217 -10 C274 -10 352 54 385 125 L385 0 L395 0 C417 6 458 17 480 23 L480 26 L480 26 Z " />
<glyph glyph-name="Wcircumflex" unicode="&#x174;" horiz-adv-x="1023" d="M229 750 L20 750 L20 747 L31 747 C63 747 106 701 121 651 C182 431 242 210 305 -9 L311 -9 L313 -3 L550 490 C593 324 636 157 680 -9 L686 -9 L687 -2 L887 654 C906 703 958 748 997 748 L1011 748 L1011 751 L763 751 L763 748 L806 748 C856 748 889 702 877 652 L692 34 C639 238 586 443 534 647 C521 699 557 748 609 748 L637 748 L637 751 L402 751 L402 748 L414 748 C449 748 495 699 508 647 C521 598 534 549 546 501 L322 29 C264 235 204 442 147 647 C132 699 164 748 211 748 L227 748 L229 750 L229 750 Z M511 1025 C508 1033 501 1033 498 1025 L358 812 L361 810 L505 1009 L649 810 L652 812 L511 1025 L511 1025 Z " />
<glyph glyph-name="Ycircumflex" unicode="&#x176;" horiz-adv-x="667" d="M220 0 L454 0 L454 3 L438 3 C393 3 349 48 349 94 L349 336 L533 671 L534 671 C555 710 613 747 651 747 L670 747 L670 750 L440 750 L440 747 L488 747 C525 747 542 714 527 678 L348 344 C286 453 224 562 162 671 C140 710 156 747 194 747 L222 747 L222 750 L21 750 L21 747 L31 747 C61 747 112 710 134 671 L134 671 L326 336 L326 94 C326 48 282 3 237 3 L221 3 L220 0 L220 0 Z M345 1024 C342 1032 335 1032 332 1024 L192 811 L195 809 L339 1008 L483 809 L486 811 L345 1024 L345 1024 Z " />
<glyph glyph-name="Ydieresis" unicode="&#x178;" horiz-adv-x="667" d="M421 885 C421 911 381 911 381 886 C381 860 421 860 421 885 L421 885 Z M293 885 C293 911 253 911 253 886 C253 860 293 860 293 885 L293 885 Z M220 0 L454 0 L454 3 L438 3 C393 3 349 48 349 94 L349 336 L533 671 L534 671 C555 710 613 747 651 747 L670 747 L670 750 L440 750 L440 747 L488 747 C525 747 542 714 527 678 L348 344 C286 453 224 562 162 671 C140 710 156 747 194 747 L222 747 L222 750 L21 750 L21 747 L31 747 C61 747 112 710 134 671 L134 671 L326 336 L326 94 C326 48 282 3 237 3 L221 3 L220 0 L220 0 Z " />
<glyph glyph-name="Zacute" unicode="&#x179;" horiz-adv-x="652" d="M347 814 L483 940 C521 976 558 1011 558 1012 C558 1017 553 1022 548 1022 C548 1022 511 986 474 949 L344 817 L347 814 L347 814 Z M68 618 L73 637 C85 688 151 738 212 743 L584 744 L25 4 L25 -1 L606 -1 L608 6 L607 6 C611 21 624 75 637 131 L627 131 L620 112 C601 61 529 11 467 5 L54 4 L611 744 L611 749 L71 749 L70 742 L71 742 C70 727 65 673 60 617 L68 618 L68 618 Z " />
<glyph glyph-name="Zdot" unicode="&#x17b;" horiz-adv-x="652" d="M361 885 C361 911 321 911 321 886 C321 860 361 860 361 885 L361 885 Z M68 618 L73 637 C85 688 151 738 212 743 L584 744 L25 4 L25 -1 L606 -1 L608 6 L607 6 C611 21 624 75 637 131 L627 131 L620 112 C601 61 529 11 467 5 L54 4 L611 744 L611 749 L71 749 L70 742 L71 742 C70 727 65 673 60 617 L68 618 L68 618 Z " />
<glyph glyph-name="zdot" unicode="&#x17c;" horiz-adv-x="475" d="M270 635 C270 661 230 661 230 636 C230 610 270 610 270 635 L270 635 Z M61 497 C61 497 48 447 34 395 L46 395 L53 410 C72 451 137 490 190 494 L412 495 L41 5 L41 0 L325 0 L429 -10 C429 -10 429 0 430 0 L430 1 C433 20 438 61 442 104 L430 104 L425 89 C413 48 355 9 303 5 L65 4 L435 494 L435 499 L122 499 C96 499 74 512 77 526 L78 531 L70 531 C70 529 63 496 62 496 L61 497 L61 497 Z " />
<glyph glyph-name="Zcaron" unicode="&#x17d;" horiz-adv-x="652" d="M485 1041 L341 842 L197 1041 L194 1039 L334 826 C337 818 344 818 347 826 L487 1039 L485 1041 L485 1041 Z M67 618 L72 637 C84 688 150 738 211 743 L583 744 L24 4 L24 -1 L605 -1 L607 6 L606 6 C610 21 623 75 636 131 L626 131 L619 112 C600 61 528 11 466 5 L53 4 L610 744 L610 749 L70 749 L69 742 L70 742 C69 727 64 673 59 617 L67 618 L67 618 Z " />
<glyph glyph-name="zcaron" unicode="&#x17e;" horiz-adv-x="475" d="M394 791 L250 592 L106 791 L103 789 L243 576 C246 568 253 568 256 576 L396 789 L394 791 L394 791 Z M60 497 C60 497 47 447 33 395 L45 395 L52 410 C71 451 136 490 189 494 L411 495 L40 5 L40 0 L324 0 L428 -10 C428 -10 428 0 429 0 L429 1 C432 20 437 61 441 104 L429 104 L424 89 C412 48 354 9 302 5 L64 4 L434 494 L434 499 L121 499 C95 499 73 512 76 526 L77 531 L69 531 C69 529 62 496 61 496 L60 497 L60 497 Z " />
<glyph glyph-name="oogonek" unicode="&#x1eb;" horiz-adv-x="685" d="M910 -52 L909 -50 C883 -71 768 -92 674 -92 C559 -92 389 -51 321 -9 C327 -10 333 -10 339 -10 C490 -10 636 138 636 292 C636 446 495 593 349 593 C208 593 72 446 72 292 C72 150 183 13 307 -8 C386 -61 566 -111 673 -111 C760 -111 877 -83 912 -53 L910 -52 L910 -52 Z M319 -8 L317 -8 C202 5 96 145 96 291 C96 442 220 587 349 587 C484 587 614 442 614 291 C614 138 477 -9 335 -9 C331 -9 322 -10 319 -8 L319 -8 Z " />
<glyph glyph-name="Adotabove" unicode="&#x226;" horiz-adv-x="718" d="M414 885 C414 911 374 911 374 886 C374 860 414 860 414 885 L414 885 Z M11 0 L287 0 L287 3 L267 3 C211 3 175 58 190 117 L247 293 L513 293 L563 121 C579 60 540 3 483 3 L463 3 L463 0 L717 0 L717 3 L703 3 C662 3 605 62 587 124 L587 124 C524 339 462 555 398 770 L396 770 C398 758 391 744 382 743 L385 733 L183 115 C159 57 88 4 32 4 L12 4 L11 0 L11 0 Z M250 301 L388 726 L511 301 L250 301 L250 301 Z " />
<glyph glyph-name="G_sc" unicode="&#x262;" horiz-adv-x="672" d="M625 253 L414 253 L414 250 L428 250 C469 250 509 198 509 144 L509 42 L509 28 C508 28 509 25 509 25 L509 24 L529 29 L529 32 C558 42 585 53 608 64 L607 67 C584 56 557 45 529 35 L529 145 C529 199 569 251 610 251 L624 251 L625 253 L625 253 Z M550 403 L550 604 L543 604 C543 598 542 585 542 579 C540 549 500 539 460 560 L460 560 C420 581 372 595 318 595 C192 595 70 448 70 294 C70 140 190 -8 314 -8 C370 -8 436 5 497 23 C490 22 480 20 468 18 C472 19 475 20 478 21 C435 9 353 -4 319 -4 C204 -4 94 142 94 294 C94 445 205 590 321 590 C347 590 372 586 395 580 C452 565 518 492 531 432 C533 425 535 411 537 404 L550 403 L550 403 Z M510 44 C510 38 510 33 510 30 C500 27 489 24 478 21 C496 28 507 36 509 44 L510 44 L510 44 Z M509 25 C509 25 504 24 496 22 C500 23 504 24 508 25 C508 24 508 24 508 24 L509 25 L509 25 Z " />
<glyph glyph-name="I_sc" unicode="&#x26a;" horiz-adv-x="346" d="M286 3 L272 3 C236 3 201 38 201 74 L201 509 C201 545 236 580 272 580 L286 580 L286 583 L94 583 L94 580 L108 580 C144 580 179 545 179 509 L179 74 C179 38 144 3 108 3 L94 3 L94 0 L286 0 L286 3 L286 3 Z " />
<glyph glyph-name="N_sc" unicode="&#x274;" horiz-adv-x="675" d="M44 580 L58 580 C82 580 116 564 143 543 L142 74 L142 74 C142 38 107 3 71 3 L57 3 L57 0 L234 0 L234 3 L220 3 C184 3 149 38 149 74 L149 74 L148 539 C159 530 169 520 176 510 L176 510 C292 340 407 170 523 0 L527 0 L529 509 L529 509 C529 545 564 580 600 580 L614 580 L614 583 L437 583 L437 580 L451 580 C487 580 522 545 522 509 L522 509 L523 30 L522 31 L153 583 L43 583 L44 580 L44 580 Z " />
<glyph glyph-name="R_sc" unicode="&#x280;" horiz-adv-x="574" d="M80 580 L94 580 C130 580 165 545 165 509 L165 74 C165 38 130 3 94 3 L80 3 L80 0 L271 0 L271 3 L257 3 C221 3 186 38 186 74 L186 290 L297 290 C307 270 365 159 424 48 C445 8 471 -1 564 -1 L564 0 C491 0 470 9 449 48 C390 158 333 265 319 291 C392 299 456 350 456 420 C456 503 379 582 298 582 L80 582 L80 580 L80 580 Z M186 295 L186 578 L292 578 C364 578 433 503 433 424 C433 348 367 295 298 295 L186 295 L186 295 Z " />
<glyph glyph-name="Y_sc" unicode="&#x28f;" horiz-adv-x="589" d="M219 583 L21 583 L21 580 L31 580 C60 580 108 547 134 511 L289 260 L289 94 C289 48 245 3 200 3 L184 3 L184 0 L415 0 L415 3 L399 3 C354 3 310 48 310 94 L310 261 L453 504 L454 504 C477 543 536 580 574 580 L593 580 L593 583 L364 583 L364 580 L412 580 C449 580 464 547 447 510 L308 268 L160 511 C141 548 156 581 193 581 L220 581 L219 583 L219 583 Z " />
<glyph glyph-name="B_sc" unicode="&#x299;" horiz-adv-x="499" d="M300 2 L250 2 C217 2 186 45 186 89 L186 299 L317 299 C378 299 436 227 436 152 C436 49 369 2 300 2 L300 2 Z M80 580 L94 580 C130 580 165 545 165 509 L165 74 C165 38 130 3 94 3 L80 3 L80 0 L306 0 C384 0 459 47 459 152 C459 229 396 303 331 303 L322 303 C393 319 453 379 453 442 C453 514 389 583 246 583 L80 583 L80 580 L80 580 Z M284 303 L186 303 L186 579 L237 579 C371 579 432 511 432 440 C432 370 359 303 284 303 L284 303 Z " />
<glyph glyph-name="H_sc" unicode="&#x29c;" horiz-adv-x="712" d="M652 3 L638 3 C602 3 567 38 567 74 L567 509 C567 545 602 580 638 580 L652 580 L652 583 L461 583 L461 580 L475 580 C511 580 546 545 546 509 L546 303 L222 303 L222 509 C222 545 257 580 293 580 L307 580 L307 583 L116 583 L116 580 L130 580 C166 580 201 545 201 509 L201 74 C201 38 166 3 130 3 L116 3 L116 0 L307 0 L307 3 L293 3 C257 3 222 38 222 74 L222 298 L546 298 L546 74 C546 38 511 3 475 3 L461 3 L461 0 L652 0 L652 3 L652 3 Z " />
<glyph glyph-name="L_sc" unicode="&#x29f;" horiz-adv-x="536" d="M286 583 L94 583 L94 580 L108 580 C144 580 179 545 179 509 L179 74 C179 38 144 3 108 3 L94 3 L94 0 L461 0 L461 2 L462 2 C468 34 479 97 485 129 L475 129 L469 110 C453 56 375 4 311 4 L289 4 C222 4 201 45 201 88 L201 509 C201 545 236 580 272 580 L286 580 L286 583 L286 583 Z " />
<glyph glyph-name="circumflex" unicode="&#x2c6;" horiz-adv-x="340" d="M177 774 C174 782 167 782 164 774 L24 561 L27 559 L171 758 L315 559 L318 561 L177 774 L177 774 Z " />
<glyph glyph-name="caron" unicode="&#x2c7;" horiz-adv-x="340" d="M314 791 L170 592 L26 791 L23 789 L163 576 C166 568 173 568 176 576 L316 789 L314 791 L314 791 Z " />
<glyph glyph-name="firsttonechinese" unicode="&#x2c9;" horiz-adv-x="340" d="M20 657 L320 657 L320 670 L20 670 L20 657 L20 657 Z " />
<glyph glyph-name="breve" unicode="&#x2d8;" horiz-adv-x="340" d="M54 745 C55 699 112 654 170 654 C228 654 285 698 286 744 L282 745 C281 706 226 669 170 669 C114 669 59 706 58 745 L54 745 L54 745 Z " />
<glyph glyph-name="dotaccent" unicode="&#x2d9;" horiz-adv-x="340" d="M190 635 C190 661 150 661 150 636 C150 610 190 610 190 635 L190 635 Z " />
<glyph glyph-name="ring" unicode="&#x2da;" horiz-adv-x="340" d="M81 655 C81 701 125 745 170 745 C215 745 259 701 259 655 C259 614 211 565 170 565 C129 565 81 614 81 655 L81 655 Z M75 655 C75 611 126 560 170 560 C214 560 265 611 265 655 C265 703 218 750 170 750 C122 750 75 703 75 655 L75 655 Z " />
<glyph glyph-name="A_sc" unicode="&#x1d00;" horiz-adv-x="646" d="M11 0 L287 0 L287 3 L267 3 C210 3 175 59 194 119 L233 227 L457 227 L490 121 C507 60 470 2 413 2 L393 2 L393 -1 L644 -1 L644 2 L630 2 C589 2 531 61 511 123 L511 123 C460 283 410 443 359 602 L357 602 C359 590 354 578 346 577 C347 574 348 570 349 567 L186 115 C161 56 87 2 30 2 L10 2 L11 0 L11 0 Z M234 232 L351 561 L455 232 L234 232 L234 232 Z " />
<glyph glyph-name="C_sc" unicode="&#x1d04;" horiz-adv-x="599" d="M551 -23 L551 181 L537 181 C535 174 533 160 531 153 C519 95 450 24 392 7 L392 7 C366 0 339 -4 312 -4 C201 -4 94 142 94 293 C94 444 205 589 321 589 C347 589 372 585 395 579 C452 564 518 491 531 431 C533 424 535 410 537 403 L551 403 L551 604 L544 604 C544 598 543 585 543 579 C541 549 501 539 461 560 L461 560 C421 581 373 595 319 595 C193 595 71 448 71 294 C71 140 188 -8 310 -8 C364 -8 417 7 461 29 C501 47 541 36 543 5 C543 -2 544 -14 544 -21 L551 -23 L551 -23 Z M548 101 L548 101 L548 101 L548 101 Z " />
<glyph glyph-name="D_sc" unicode="&#x1d05;" horiz-adv-x="697" d="M236 4 C198 4 186 45 186 88 L186 579 L253 579 C458 579 619 438 619 292 C619 130 431 4 236 4 L236 4 Z M80 580 L94 580 C130 580 165 545 165 509 L165 74 C165 38 130 3 94 3 L80 3 L80 0 L242 0 C446 0 642 128 642 292 C642 440 479 583 270 583 L80 583 L80 580 L80 580 Z " />
<glyph glyph-name="E_sc" unicode="&#x1d07;" horiz-adv-x="533" d="M376 164 L376 439 L366 439 L361 405 C354 353 299 304 248 304 L186 304 L186 579 L309 579 C360 579 421 530 434 478 L443 444 L453 444 C449 479 441 546 437 581 L436 581 L436 583 L60 583 L60 580 L76 580 C121 580 165 535 165 489 L165 94 C165 48 121 3 76 3 L60 3 L60 0 L461 0 L461 2 C467 35 478 97 484 130 L474 130 L468 111 C452 57 374 5 310 5 L274 5 C207 5 186 46 186 88 L186 299 L248 299 C299 299 354 250 361 198 L366 164 L376 164 L376 164 Z " />
<glyph glyph-name="J_sc" unicode="&#x1d0a;" horiz-adv-x="346" d="M286 583 L94 583 L94 580 L108 580 C144 580 179 545 179 509 L179 2 C179 -152 111 -213 73 -213 C64 -213 66 -196 57 -196 C52 -196 48 -201 48 -206 C48 -213 58 -220 68 -220 C115 -220 201 -145 201 42 L201 509 C201 545 236 580 272 580 L286 580 L286 583 L286 583 Z " />
<glyph glyph-name="K_sc" unicode="&#x1d0b;" horiz-adv-x="589" d="M543 583 L278 583 L278 580 L310 580 C370 580 379 525 333 465 L186 292 L186 509 C186 545 221 580 257 580 L271 580 L271 583 L80 583 L80 580 L94 580 C130 580 165 545 165 509 L165 74 C165 38 130 3 94 3 L80 3 L80 0 L271 0 L271 3 L257 3 C221 3 186 38 186 74 L186 292 L478 0 L586 0 L586 3 L572 3 C536 3 467 38 431 74 L203 305 C257 368 311 431 366 493 C404 537 482 579 525 579 L544 579 L543 583 L543 583 Z " />
<glyph glyph-name="M_sc" unicode="&#x1d0d;" horiz-adv-x="754" d="M549 0 L740 0 L740 3 L726 3 C692 3 657 34 652 68 C647 215 641 363 637 510 C636 546 669 581 705 581 L719 581 L719 584 L614 584 L401 30 L164 582 L164 584 L54 584 L54 581 L69 581 C98 581 135 558 157 530 L140 68 C135 34 100 3 66 3 L52 3 L52 0 L230 0 L230 3 L216 3 C182 3 150 35 148 69 L162 523 C165 518 168 513 170 508 L378 28 L390 -1 L395 -1 L615 565 C620 401 627 236 632 73 C633 37 600 2 564 2 L550 2 L549 0 L549 0 Z " />
<glyph glyph-name="O_sc" unicode="&#x1d0f;" horiz-adv-x="690" d="M94 292 C94 443 218 588 347 588 C482 588 612 443 612 292 C612 141 478 -5 339 -5 C214 -5 94 141 94 292 L94 292 Z M71 292 C71 138 202 -10 338 -10 C489 -10 635 138 635 292 C635 446 494 593 348 593 C207 593 71 446 71 292 L71 292 Z " />
<glyph glyph-name="P_sc" unicode="&#x1d18;" horiz-adv-x="436" d="M276 3 L262 3 C226 3 191 38 191 74 L191 279 L226 279 C323 279 416 338 416 421 C416 504 340 583 261 583 L85 583 L85 580 L99 580 C135 580 170 545 170 509 L170 74 C170 38 135 3 99 3 L85 3 L85 0 L276 0 L276 3 L276 3 Z M191 284 L191 580 L256 580 C328 580 397 504 397 425 C397 342 313 284 226 284 L191 284 L191 284 Z " />
<glyph glyph-name="T_sc" unicode="&#x1d1b;" horiz-adv-x="715" d="M633 628 L631 621 C623 602 568 583 516 583 L199 583 C147 583 92 602 85 621 L83 628 L74 628 C68 613 62 598 55 583 L55 582 L54 581 L54 581 C41 548 16 486 3 453 L13 453 L24 472 C53 526 133 578 187 578 L347 578 L347 74 C347 38 312 3 276 3 L262 3 L262 0 L453 0 L453 3 L439 3 C403 3 368 38 368 74 L368 578 L529 578 C583 578 663 526 692 472 L703 453 L713 453 C700 486 675 548 662 581 L662 581 L642 628 L633 628 L633 628 Z " />
<glyph glyph-name="U_sc" unicode="&#x1d1c;" horiz-adv-x="567" d="M45 579 L59 579 C95 579 130 544 130 508 L130 202 C130 94 164 -10 200 -10 C283 -10 397 61 431 135 L431 0 L442 0 C468 8 513 19 537 25 L537 28 L523 24 C487 14 452 40 452 76 L452 583 L431 583 L431 582 L346 582 L346 579 L360 579 C396 579 431 544 431 508 L431 145 C397 73 289 4 209 4 C179 4 151 101 151 202 L151 583 L130 583 L130 582 L45 582 L45 579 L45 579 Z " />
<glyph glyph-name="V_sc" unicode="&#x1d20;" horiz-adv-x="639" d="M623 583 L376 583 L376 580 L404 580 C466 580 502 521 478 459 L478 459 L313 32 C263 174 212 317 162 459 C140 521 175 580 233 580 L253 580 L253 583 L20 583 L20 580 L31 580 C63 580 115 521 136 459 L137 459 C190 303 244 147 297 -10 L302 -10 L491 472 C518 529 573 580 609 580 L623 580 L623 583 L623 583 Z " />
<glyph glyph-name="W_sc" unicode="&#x1d21;" horiz-adv-x="900" d="M577 583 L345 583 L345 580 L357 580 C390 580 434 537 451 489 L479 389 L293 26 C246 177 198 329 152 480 C136 532 166 581 213 581 L229 581 L229 584 L22 584 L22 581 L33 581 C64 581 106 539 125 491 C175 324 224 156 276 -10 L281 -10 L482 380 C518 250 553 120 590 -9 L595 -9 C651 154 706 318 762 480 C780 532 836 581 877 581 L891 581 L891 584 L644 584 L644 581 L687 581 C738 581 771 532 754 480 L603 30 C561 180 519 330 478 480 C464 532 499 581 551 581 L579 581 L577 583 L577 583 Z " />
<glyph glyph-name="Z_sc" unicode="&#x1d22;" horiz-adv-x="592" d="M68 452 L73 471 C85 522 151 572 212 577 L525 578 L24 3 L24 -1 L545 -1 C546 6 562 76 574 129 L564 129 L557 110 C537 59 464 9 402 4 L48 3 L547 578 L547 582 L67 582 L66 576 L67 576 C66 563 61 508 56 451 L68 452 L68 452 Z " />
<glyph glyph-name="Wgrave" unicode="&#x1e80;" horiz-adv-x="1023" d="M229 750 L20 750 L20 747 L31 747 C63 747 106 701 121 651 C182 431 242 210 305 -9 L311 -9 L313 -3 L550 490 C593 324 636 157 680 -9 L686 -9 L687 -2 L887 654 C906 703 958 748 997 748 L1011 748 L1011 751 L763 751 L763 748 L806 748 C856 748 889 702 877 652 L692 34 C639 238 586 443 534 647 C521 699 557 748 609 748 L637 748 L637 751 L402 751 L402 748 L414 748 C449 748 495 699 508 647 C521 598 534 549 546 501 L322 29 C264 235 204 442 147 647 C132 699 164 748 211 748 L227 748 L229 750 L229 750 Z M297 1013 C297 1011 334 976 372 941 L508 815 L511 818 L381 950 C345 987 309 1023 307 1023 C302 1023 297 1018 297 1013 L297 1013 Z " />
<glyph glyph-name="Wacute" unicode="&#x1e82;" horiz-adv-x="1023" d="M512 814 L648 940 C686 976 723 1011 723 1012 C723 1017 718 1022 713 1022 C713 1022 676 986 639 949 L509 817 L512 814 L512 814 Z M229 750 L20 750 L20 747 L31 747 C63 747 106 701 121 651 C182 431 242 210 305 -9 L311 -9 L313 -3 L550 490 C593 324 636 157 680 -9 L686 -9 L687 -2 L887 654 C906 703 958 748 997 748 L1011 748 L1011 751 L763 751 L763 748 L806 748 C856 748 889 702 877 652 L692 34 C639 238 586 443 534 647 C521 699 557 748 609 748 L637 748 L637 751 L402 751 L402 748 L414 748 C449 748 495 699 508 647 C521 598 534 549 546 501 L322 29 C264 235 204 442 147 647 C132 699 164 748 211 748 L227 748 L229 750 L229 750 Z " />
<glyph glyph-name="Wdieresis" unicode="&#x1e84;" horiz-adv-x="1023" d="M590 885 C590 911 550 911 550 886 C550 860 590 860 590 885 L590 885 Z M462 885 C462 911 422 911 422 886 C422 860 462 860 462 885 L462 885 Z M229 750 L20 750 L20 747 L31 747 C63 747 106 701 121 651 C182 431 242 210 305 -9 L311 -9 L313 -3 L550 490 C593 324 636 157 680 -9 L686 -9 L687 -2 L887 654 C906 703 958 748 997 748 L1011 748 L1011 751 L763 751 L763 748 L806 748 C856 748 889 702 877 652 L692 34 C639 238 586 443 534 647 C521 699 557 748 609 748 L637 748 L637 751 L402 751 L402 748 L414 748 C449 748 495 699 508 647 C521 598 534 549 546 501 L322 29 C264 235 204 442 147 647 C132 699 164 748 211 748 L227 748 L229 750 L229 750 Z " />
<glyph glyph-name="Etilde" unicode="&#x1ebc;" horiz-adv-x="595" d="M188 870 C188 906 212 941 236 941 C283 941 374 876 421 876 C450 876 478 913 478 951 L474 951 C474 920 450 891 425 891 C378 891 287 956 240 956 C211 956 184 914 184 870 L188 870 L188 870 Z M438 250 L438 526 L428 526 L423 492 C416 440 361 391 310 391 L188 391 L188 745 L371 745 C422 745 483 696 496 644 L505 610 L515 610 C511 645 503 713 499 748 L498 748 L498 750 L59 750 L59 747 L75 747 C120 747 164 702 164 656 L164 94 C164 48 120 3 75 3 L59 3 L59 0 L523 0 L523 2 C529 35 540 97 546 130 L536 130 L530 111 C513 57 435 5 371 5 L276 5 C209 5 188 46 188 88 L188 385 L310 385 C361 385 416 336 423 284 L428 250 L438 250 L438 250 Z " />
<glyph glyph-name="Ygrave" unicode="&#x1ef2;" horiz-adv-x="667" d="M220 0 L454 0 L454 3 L438 3 C393 3 349 48 349 94 L349 336 L533 671 L534 671 C555 710 613 747 651 747 L670 747 L670 750 L440 750 L440 747 L488 747 C525 747 542 714 527 678 L348 344 C286 453 224 562 162 671 C140 710 156 747 194 747 L222 747 L222 750 L21 750 L21 747 L31 747 C61 747 112 710 134 671 L134 671 L326 336 L326 94 C326 48 282 3 237 3 L221 3 L220 0 L220 0 Z M131 1012 C131 1010 168 975 206 940 L342 814 L345 817 L215 949 C179 986 143 1022 141 1022 C136 1022 131 1017 131 1012 L131 1012 Z " />
<glyph glyph-name="quoteleft" unicode="&#x2018;" horiz-adv-x="448" d="M99 631 C99 636 95 640 90 640 L90 653 C87 653 84 648 84 642 C84 690 107 743 130 749 L120 760 C99 754 78 694 78 638 C78 622 99 615 99 632 L99 631 L99 631 Z " />
<glyph glyph-name="quoteright" unicode="&#x2019;" d="" />
<glyph glyph-name="quotedblleft" unicode="&#x201c;" horiz-adv-x="448" d="M146 631 C146 636 142 640 137 640 L137 653 C134 653 131 648 131 642 C131 690 154 743 177 749 L167 760 C146 754 125 694 125 638 C125 622 146 615 146 632 L146 631 L146 631 Z M87 632 C87 637 83 641 78 641 L78 654 C75 654 72 649 72 643 C72 691 95 744 118 750 L108 761 C87 755 66 695 66 639 C66 623 87 616 87 633 L87 632 L87 632 Z " />
<glyph glyph-name="quotedblright" unicode="&#x201d;" horiz-adv-x="448" d="M143 745 C143 689 138 634 132 632 L143 621 C146 622 149 685 149 749 C149 755 143 760 137 760 C125 760 126 741 137 741 L137 728 C140 728 143 736 143 745 L143 745 Z M84 745 C84 689 79 634 73 632 L84 621 C87 622 90 685 90 749 C90 755 84 760 78 760 C66 760 67 741 78 741 L78 728 C81 728 84 736 84 745 L84 745 Z " />
<glyph glyph-name="perthousand" unicode="&#x2030;" horiz-adv-x="1116" d="M836 200 C836 296 896 389 958 389 C1023 389 1085 292 1085 192 C1085 93 1025 -3 963 -3 C898 -3 836 96 836 200 L836 200 Z M816 196 C816 91 887 -10 961 -10 C1034 -10 1104 92 1104 199 C1104 299 1034 395 961 395 C887 395 816 297 816 196 L816 196 Z M50 560 C50 659 110 754 172 754 C237 754 299 655 299 552 C299 455 239 362 177 362 C112 362 50 459 50 560 L50 560 Z M30 557 C30 454 101 355 175 355 C248 355 318 455 318 559 C318 662 248 760 175 760 C101 760 30 661 30 557 L30 557 Z M513 199 C513 296 571 389 632 389 C698 389 762 292 762 191 C762 92 701 -3 637 -3 C574 -3 513 96 513 199 L513 199 Z M493 196 C493 91 563 -10 635 -10 C709 -10 781 92 781 198 C781 298 709 395 635 395 C563 395 493 297 493 196 L493 196 Z M179 -3 L644 747 L635 753 L170 3 L179 -3 L179 -3 Z " />
<glyph glyph-name="fraction" unicode="&#x2044;" horiz-adv-x="503" d="M34 -3 L499 747 L491 753 L26 3 L34 -3 L34 -3 Z " />
<glyph glyph-name="Euro" unicode="&#x20ac;" horiz-adv-x="726" d="M678 4 L678 123 L675 126 L675 126 L678 122 L678 209 L664 209 C662 202 660 188 658 181 C646 124 580 46 524 22 L524 22 C484 5 441 -6 399 -6 C278 -6 162 156 147 335 L460 335 L462 349 L146 349 C145 366 145 383 146 400 L462 400 L464 414 L147 414 C163 592 285 754 411 754 C452 754 491 745 527 730 L527 730 C582 706 646 628 658 569 C659 562 663 548 664 541 L678 541 L678 744 L672 744 C672 738 670 725 670 719 C668 687 629 681 590 706 L590 706 C539 739 477 762 408 762 C271 762 139 597 122 416 L56 416 L54 402 L121 402 C120 385 120 368 121 351 L54 351 L52 337 L122 337 C138 156 265 -9 397 -9 C465 -9 532 14 587 48 C627 72 667 64 669 31 C669 24 671 12 671 5 L678 4 L678 4 Z " />
<glyph glyph-name="F_sc" unicode="&#xa730;" horiz-adv-x="508" d="M366 164 L366 439 L356 439 L351 405 C344 353 289 304 238 304 L186 304 L186 580 L308 580 C359 580 420 531 433 479 L442 445 L452 445 C448 480 440 547 436 582 L436 583 L60 583 L60 580 L76 580 C121 580 165 535 165 489 L165 94 C165 48 121 3 76 3 L60 3 L60 0 L291 0 L291 3 L275 3 C230 3 186 48 186 94 L186 299 L238 299 C289 299 344 250 351 198 L356 164 L366 164 L366 164 Z " />
<glyph glyph-name="S_sc" unicode="&#xa731;" horiz-adv-x="480" d="M55 199 L55 -31 L62 -31 C62 -23 63 -8 63 0 C65 36 103 50 142 32 C184 7 233 -10 275 -10 C359 -10 440 59 440 130 C440 181 371 262 282 303 C178 352 96 428 96 467 C96 529 153 588 213 588 C214 588 228 588 228 587 C289 581 361 512 375 445 C377 438 379 423 381 416 L395 416 L395 609 L388 609 C388 603 387 592 387 586 C385 559 350 550 315 567 L315 567 C283 583 246 593 213 593 C145 593 80 527 80 459 C80 413 163 330 269 281 C355 241 423 167 423 124 C423 59 350 -3 275 -3 C254 -3 231 1 208 8 C151 29 87 105 75 167 C73 175 71 190 69 198 L55 199 L55 199 Z " />
<glyph glyph-name="X_sc" unicode="&#xf078;" horiz-adv-x="636" d="M639 583 L411 583 L411 580 L458 580 C495 580 508 547 487 511 L348 306 L216 510 C195 547 208 581 245 581 L272 581 L272 584 L74 584 L74 581 L84 581 C114 581 168 544 193 505 L193 505 L332 290 C281 220 230 150 179 80 C151 41 87 4 48 4 L29 4 L29 1 L255 1 L255 4 L208 4 C171 4 159 37 181 73 L333 286 L470 74 C491 37 478 3 441 3 L414 3 L414 0 L612 0 L612 3 L602 3 C572 3 518 40 493 79 L493 79 L349 301 L493 509 C522 546 581 580 618 580 L637 580 L639 583 L639 583 Z " />
</font>
</svg>
