<?xml version="1.0" encoding="UTF-8"?>
<svg xmlns="http://www.w3.org/2000/svg" xmlns:xlink="http://www.w3.org/1999/xlink" version="1.2" >
<font id="Sharis Black">
<font-face  font-family="Sharis" units-per-em="1024" ascent="975" descent="-300" font-style="normal" font-weight="900" font-stretch="normal" cap-height="750" x-height="500" underline-position="-125" underline-thickness="50" />
<missing-glyph  horiz-adv-x="650" d="" />
<glyph glyph-name="NULL" d="" />
<glyph glyph-name="CR" unicode="&#xd;" horiz-adv-x="256" d="" />
<glyph glyph-name="space" unicode="&#x20;" horiz-adv-x="289" d="" />
<glyph glyph-name="exclam" unicode="&#x21;" horiz-adv-x="323" d="M162 -5 C210 -5 242 27 242 75 C242 123 210 155 162 155 C114 155 82 123 82 75 C82 27 114 -5 162 -5 L162 -5 Z M162 755 C68 755 53 698 70 612 L148 210 L176 210 L254 612 C270 698 255 755 162 755 L162 755 Z " />
<glyph glyph-name="quotedbl" unicode="&#x22;" horiz-adv-x="356" d="M732 750 C685 750 678 732 688 705 L741 560 L759 560 L812 705 C822 732 815 750 768 750 L732 750 L732 750 Z " />
<glyph glyph-name="numbersign" unicode="&#x23;" horiz-adv-x="586" d="M424 642 L404 518 L239 518 L259 642 L250 642 L230 518 L75 518 L59 402 L212 402 L189 258 L30 258 L14 142 L171 142 L148 0 L156 0 L179 142 L345 142 L322 0 L330 0 L353 142 L500 142 L516 258 L371 258 L394 402 L550 402 L566 518 L413 518 L433 642 L424 642 L424 642 Z M220 402 L385 402 L362 258 L196 258 L220 402 L220 402 Z " />
<glyph glyph-name="dollar" unicode="&#x24;" horiz-adv-x="590" d="M308 825 L308 759 C301 759 294 759 287 759 C281 759 275 759 269 759 L269 824 L227 824 L227 754 C119 733 50 652 50 539 C50 433 110 340 227 292 L227 13 C176 39 126 94 92 166 L82 161 C66 187 55 211 51 229 C48 242 46 250 46 250 C46 250 45 242 44 229 C43 216 43 208 43 208 L43 142 L43 139 L43 70 C43 70 43 55 44 34 C45 12 46 -3 46 -3 C46 -3 48 12 51 34 C54 59 82 72 118 48 C149 23 186 5 225 -5 L225 -78 L267 -78 L267 -12 C274 -13 281 -13 288 -13 C294 -13 300 -13 306 -13 L306 -78 L348 -78 L348 -8 C471 12 549 96 549 214 C549 314 481 405 348 456 L348 738 C357 734 366 729 375 724 C412 701 444 665 465 621 L475 626 C490 602 501 578 506 557 C509 544 511 536 511 536 C511 536 512 544 512 557 C513 570 514 578 514 578 L514 640 L514 644 L514 701 C514 701 513 712 512 730 C512 747 511 758 511 758 C511 758 509 747 506 729 C502 707 482 692 457 709 L456 709 C426 730 389 745 348 753 L348 824 L308 825 L308 825 Z M331 745 L325 747 C327 747 329 746 331 745 L331 745 Z M268 276 C282 271 295 266 307 261 L307 -1 C301 -2 295 -2 289 -2 C282 -2 275 -1 268 0 L268 276 L268 276 Z M348 239 C392 213 415 189 415 169 C415 96 390 41 348 15 L348 239 L348 239 Z M268 495 L268 753 C273 754 279 755 285 755 C292 755 299 754 306 753 L306 476 C292 482 279 488 267 495 L268 495 L268 495 Z M225 524 C194 550 179 578 179 605 C179 663 196 708 225 733 L225 524 L225 524 Z " />
<glyph glyph-name="ampersand" unicode="&#x26;" horiz-adv-x="344" d="M365 471 C464 508 528 561 528 609 C528 699 442 760 314 760 C204 760 130 692 130 590 C130 531 158 484 202 428 C93 382 22 292 22 195 C22 72 111 -9 244 -9 C325 -9 408 29 485 97 L505 73 C548 24 625 -9 699 -9 C774 -9 832 52 843 144 L816 153 C813 130 791 114 761 114 C707 114 657 129 637 153 L588 211 C647 291 699 389 740 501 L705 501 C668 398 616 311 557 247 L377 458 C373 463 369 468 365 472 L365 471 L365 471 Z M346 495 C295 557 262 607 262 671 C262 705 283 727 314 727 C369 727 405 684 405 619 C405 568 382 523 345 496 L346 495 L346 495 Z M435 156 C401 140 366 131 331 131 C240 131 179 175 179 241 C179 310 196 368 224 403 C230 395 237 387 244 379 L435 156 L435 156 Z " />
<glyph glyph-name="quotesingle" unicode="&#x27;" horiz-adv-x="218" d="" />
<glyph glyph-name="parenleft" unicode="&#x28;" horiz-adv-x="608" d="M320 760 C156 650 47 455 47 273 C47 101 153 -94 313 -214 L322 -197 C221 -121 153 67 153 273 C153 484 223 672 329 743 L320 760 L320 760 Z " />
<glyph glyph-name="parenright" unicode="&#x29;" horiz-adv-x="608" d="M21 743 C127 674 197 486 197 273 C197 57 129 -131 28 -197 L37 -214 C197 -111 303 84 303 273 C303 459 194 654 30 760 L21 743 L21 743 Z " />
<glyph glyph-name="asterisk" unicode="&#x2a;" horiz-adv-x="300" d="M144 630 L23 610 C1 606 -2 583 16 552 C33 522 55 513 69 530 L147 626 L104 510 C96 489 115 475 150 475 C185 475 204 489 196 510 L153 626 L231 530 C245 513 267 522 284 552 C302 583 299 606 277 610 L156 630 L277 650 C299 654 302 677 284 707 C267 738 245 747 231 730 L153 634 L196 750 C204 771 185 785 150 785 C115 785 96 771 104 750 L147 634 L69 730 C55 747 33 738 16 707 C-2 677 1 654 23 650 L144 630 L144 630 Z " />
<glyph glyph-name="plus" unicode="&#x2b;" horiz-adv-x="651" d="M267 476 L267 303 L100 303 L100 197 L267 197 L267 24 L384 24 L384 197 L551 197 L551 303 L384 303 L384 476 L267 476 L267 476 Z " />
<glyph glyph-name="comma" unicode="&#x2c;" horiz-adv-x="261" d="M167 21 C169 13 170 4 170 -5 C170 -66 128 -106 64 -106 L64 -111 C140 -111 190 -62 190 12 C190 74 164 115 124 115 C88 115 64 91 64 55 C64 19 88 -5 124 -5 C143 -5 158 5 166 21 L167 21 L167 21 Z " />
<glyph glyph-name="hyphen" unicode="&#x2d;" horiz-adv-x="461" d="M80 226 L381 226 L381 344 L80 344 L80 226 L80 226 Z " />
<glyph glyph-name="period" unicode="&#x2e;" horiz-adv-x="195" d="M125 -5 C173 -5 205 27 205 75 C205 123 173 155 125 155 C77 155 45 123 45 75 C45 27 77 -5 125 -5 L125 -5 Z " />
<glyph glyph-name="slash" unicode="&#x2f;" horiz-adv-x="408" d="M290 770 L8 -80 L96 -80 L378 770 L290 770 L290 770 Z " />
<glyph glyph-name="zero" unicode="0" horiz-adv-x="617" d="M305 52 C199 52 108 131 108 250 C108 357 187 448 305 448 C411 448 502 369 502 250 C502 143 423 52 305 52 L305 52 Z M37 250 C37 94 160 -10 305 -10 C466 -10 573 110 573 250 C573 406 450 510 305 510 C144 510 37 390 37 250 L37 250 Z " />
<glyph glyph-name="one" unicode="1" horiz-adv-x="430" d="M290 23 L290 477 C290 490 313 492 348 492 L390 492 C390 492 380 494 365 496 C350 498 340 500 340 500 L215 500 L90 500 C90 500 80 498 65 496 C50 494 40 492 40 492 L82 492 C117 492 140 490 140 477 L140 23 C140 10 117 8 82 8 L40 8 C40 8 50 6 65 4 C80 2 90 0 90 0 L215 0 L340 0 C340 0 350 2 365 4 C380 6 390 8 390 8 L348 8 C313 8 290 10 290 23 L290 23 Z " />
<glyph glyph-name="two" unicode="2" horiz-adv-x="599" d="M71 288 C86 362 153 411 239 411 C305 411 349 372 349 314 C349 199 202 102 30 26 L30 0 L321 0 L388 0 L472 0 L555 133 L555 133 C561 143 567 153 573 162 C573 162 576 169 580 180 C585 191 588 198 588 198 L561 156 C553 142 529 133 437 133 L294 133 C417 206 499 280 499 349 C499 445 422 510 307 510 C172 510 65 424 40 295 L71 288 L71 288 Z " />
<glyph glyph-name="three" unicode="3" horiz-adv-x="514" d="M15 -202 L20 -232 C292 -203 474 -101 474 24 C474 135 399 219 287 234 L286 233 C373 286 425 339 425 389 C425 462 351 510 241 510 C128 510 39 447 17 352 L49 343 C57 380 110 405 180 405 C232 405 266 378 266 337 C266 269 203 216 109 176 L109 146 C233 129 316 63 316 -18 C316 -110 196 -184 15 -202 L15 -202 Z " />
<glyph glyph-name="four" unicode="4" horiz-adv-x="679" d="M159 115 L296 282 L296 115 L159 115 L159 115 Z M553 115 L446 115 L446 283 L446 530 L427 530 L15 26 L15 0 L64 0 L296 0 L296 -220 L446 -220 L446 0 L587 0 C637 0 646 -5 645 -13 L639 -55 C639 -55 642 -49 645 -41 C649 -33 651 -27 651 -27 C655 -1 660 34 663 60 C667 86 672 121 675 147 C675 147 675 154 674 163 C673 173 672 180 672 180 L666 137 C664 124 646 115 553 115 L553 115 Z " />
<glyph glyph-name="five" unicode="5" horiz-adv-x="481" d="M61 -237 C295 -208 451 -91 451 56 C451 199 309 294 96 294 L89 294 L103 365 L378 370 C382 392 387 422 392 445 C395 467 401 497 405 520 C405 520 404 524 403 530 C402 536 401 540 401 540 L398 523 C395 509 378 500 294 500 L74 500 L11 160 L38 136 L80 136 C223 136 319 84 319 5 C319 -104 214 -190 57 -209 L61 -237 L61 -237 Z " />
<glyph glyph-name="six" unicode="6" horiz-adv-x="601" d="M581 750 C253 750 34 570 34 300 C34 114 140 -10 298 -10 C447 -10 546 89 546 238 C546 372 459 462 328 462 C278 462 237 444 207 412 C261 608 400 729 587 729 L581 750 L581 750 Z M183 221 C183 362 240 456 325 456 C368 456 397 372 397 247 C397 97 357 -3 297 -3 C229 -3 183 87 183 221 L183 221 Z " />
<glyph glyph-name="seven" unicode="7" horiz-adv-x="472" d="M133 500 C56 500 43 505 47 513 L59 540 C59 540 55 536 50 530 C45 524 42 520 42 520 C30 494 15 460 4 434 C-8 408 -23 374 -34 348 C-35 348 -36 341 -38 332 C-40 322 -41 315 -41 315 L-27 348 C-18 367 -4 380 38 380 L407 380 L408 381 L99 -220 L213 -220 L467 485 L467 500 L464 500 L133 500 L133 500 Z " />
<glyph glyph-name="eight" unicode="8" horiz-adv-x="571" d="M200 348 C214 341 229 334 245 328 C349 290 418 243 418 132 C418 50 362 -5 279 -5 C206 -5 157 67 157 174 C157 246 173 308 200 348 L200 348 Z M172 365 C82 317 26 246 26 174 C26 64 127 -10 279 -10 C431 -10 532 73 532 199 C532 322 472 387 375 435 C458 479 509 539 509 599 C509 696 416 760 277 760 C143 760 53 686 53 574 C53 485 99 412 173 364 L172 365 L172 365 Z M345 449 C330 456 314 462 297 468 C223 495 173 553 173 629 C173 704 215 754 277 754 C339 754 381 686 381 585 C381 530 368 482 345 448 L345 449 L345 449 Z " />
<glyph glyph-name="nine" unicode="9" horiz-adv-x="601" d="M21 -250 C349 -250 568 -70 568 200 C568 386 462 510 304 510 C155 510 56 411 56 262 C56 128 143 38 274 38 C324 38 365 56 395 88 C341 -108 202 -229 15 -229 L21 -250 L21 -250 Z M419 279 C419 138 362 44 277 44 C234 44 205 128 205 253 C205 403 245 503 305 503 C373 503 419 413 419 279 L419 279 Z " />
<glyph glyph-name="colon" unicode="&#x3a;" horiz-adv-x="135" d="M125 385 C173 385 205 417 205 465 C205 513 173 545 125 545 C77 545 45 513 45 465 C45 417 77 385 125 385 L125 385 Z M125 -5 C173 -5 205 27 205 75 C205 123 173 155 125 155 C77 155 45 123 45 75 C45 27 77 -5 125 -5 L125 -5 Z " />
<glyph glyph-name="semicolon" unicode="&#x3b;" horiz-adv-x="261" d="M125 385 C173 385 205 417 205 465 C205 513 173 545 125 545 C77 545 45 513 45 465 C45 417 77 385 125 385 L125 385 Z M167 21 C169 13 170 4 170 -5 C170 -66 128 -106 64 -106 L64 -111 C140 -111 190 -62 190 12 C190 74 164 115 124 115 C88 115 64 91 64 55 C64 19 88 -5 124 -5 C143 -5 158 5 166 21 L167 21 L167 21 Z " />
<glyph glyph-name="equal" unicode="&#x3d;" horiz-adv-x="574" d="M93 233 L93 167 L505 167 L505 233 L93 233 L93 233 Z M93 333 L93 267 L505 267 L505 333 L93 333 L93 333 Z " />
<glyph glyph-name="question" unicode="&#x3f;" horiz-adv-x="289" d="M125 -5 C173 -5 205 27 205 75 C205 123 173 155 125 155 C77 155 45 123 45 75 C45 27 77 -5 125 -5 L125 -5 Z M130 275 L125 360 C233 360 264 387 292 429 C311 456 324 509 324 559 C324 680 252 760 145 760 C60 760 4 716 4 649 C4 605 36 575 85 575 C121 575 163 601 200 601 C248 601 280 577 280 541 C280 535 271 519 259 500 C234 464 205 440 97 440 L104 275 L130 275 L130 275 Z " />
<glyph glyph-name="at" unicode="&#x40;" horiz-adv-x="1245" d="M1083 0 C1018 -139 846 -232 653 -232 C365 -232 173 -36 173 259 C173 554 353 750 623 750 C894 750 1074 587 1074 343 C1074 145 1006 13 904 13 C851 13 835 88 863 200 L933 480 L791 480 L777 422 C752 464 699 490 629 490 C423 490 285 367 285 183 C285 72 364 -1 484 -1 C583 -1 666 33 714 88 C727 9 785 -39 877 -39 C1065 -39 1190 114 1190 343 C1190 612 963 791 623 791 C283 791 56 578 56 259 C56 -60 295 -273 653 -273 C865 -273 1057 -164 1133 0 L1083 0 L1083 0 Z M760 356 L721 200 C721 199 721 198 721 197 C703 127 640 81 562 81 C495 81 450 133 450 210 C450 352 520 447 626 447 C707 447 761 410 762 355 L760 356 L760 356 Z " />
<glyph glyph-name="A" unicode="A" horiz-adv-x="868" d="M726 128 L725 128 L514 697 L487 770 L472 770 C446 733 396 704 346 697 L350 686 L192 158 L192 158 C155 32 111 8 55 8 L12 8 C12 8 19 6 29 4 C38 2 45 0 45 0 L145 0 L153 0 L165 0 L285 0 C285 0 292 2 301 4 C311 6 318 8 318 8 L278 8 C208 8 167 29 194 138 L240 293 L492 293 L556 117 C587 26 557 8 503 8 L463 8 C463 8 470 6 479 4 C489 2 496 0 496 0 L598 0 L665 0 L774 0 L834 0 C834 0 840 2 850 4 C860 6 866 8 866 8 L824 8 C792 8 763 27 727 128 L726 128 L726 128 Z M242 300 L353 679 L489 300 L242 300 L242 300 Z " />
<glyph glyph-name="B" unicode="B" horiz-adv-x="815" d="M296 745 L384 745 C528 745 562 669 562 554 C562 454 495 387 395 387 L296 387 L296 677 L296 745 L296 745 Z M469 387 C628 403 730 474 730 573 C730 680 666 751 395 751 L297 751 L187 751 L77 751 C77 751 66 749 50 747 C35 745 24 743 24 743 L66 743 C104 743 129 733 129 678 L129 74 C129 19 104 9 66 9 L24 9 C24 9 35 7 50 5 C66 3 77 1 77 1 L187 1 L297 1 L417 1 C632 1 776 38 776 195 C776 306 654 381 469 388 L469 387 L469 387 Z M397 384 L424 384 C524 384 591 308 591 195 C591 42 518 6 409 6 L359 6 C321 6 296 25 296 53 L296 74 L296 384 L397 384 L397 384 Z " />
<glyph glyph-name="C" unicode="C" horiz-adv-x="834" d="M709 711 L708 711 C657 742 590 760 484 760 C211 760 30 606 30 375 C30 144 207 -10 473 -10 C577 -10 651 10 707 43 C747 64 780 51 786 28 C790 10 793 -2 793 -2 L793 28 L793 58 L793 117 L793 117 L792 118 L792 125 L792 193 C792 193 792 201 791 214 C790 227 790 235 790 235 C790 235 788 227 785 214 C779 191 756 154 723 118 C653 44 576 -4 474 -4 C318 -4 213 148 213 375 C213 602 322 754 485 754 C534 754 575 744 611 725 L611 725 C617 722 623 719 629 716 C674 689 713 649 753 601 L753 601 C770 577 782 554 786 536 C789 523 791 515 791 515 C791 515 792 523 792 536 C793 549 794 557 794 557 L794 624 L794 633 L794 691 C794 691 793 702 792 720 C792 737 791 748 791 748 C791 748 789 737 786 720 C782 696 749 685 708 711 L709 711 L709 711 Z " />
<glyph glyph-name="D" unicode="D" horiz-adv-x="961" d="M128 677 L128 73 C128 18 103 8 65 8 L23 8 C23 8 34 6 49 4 C65 2 76 0 76 0 L128 0 L186 0 L296 0 L388 0 C699 0 906 127 906 375 C906 600 746 750 435 750 L296 750 L186 750 L128 750 L76 750 C76 750 65 748 49 746 C34 744 23 742 23 742 L65 742 C103 742 128 732 128 677 L128 677 Z M296 745 L415 745 C617 745 722 597 722 375 C722 131 586 5 381 5 C304 5 296 24 296 52 L296 73 L296 677 L296 745 L296 745 Z " />
<glyph glyph-name="E" unicode="E" horiz-adv-x="734" d="M672 124 L667 88 C660 38 639 5 555 5 L348 5 C301 5 296 24 296 52 L296 73 L296 385 L469 385 C553 385 569 346 569 287 L569 245 C569 245 571 259 573 280 C575 301 577 315 577 315 L577 385 L577 388 L577 391 L577 461 C577 461 575 475 573 496 C571 517 569 531 569 531 L569 489 C569 430 553 391 469 391 L296 391 L296 677 L296 745 L530 745 C630 745 632 707 636 650 L639 624 C639 629 640 638 641 650 C642 669 643 681 643 681 C642 691 641 705 640 715 C640 725 639 739 638 749 L530 749 L297 749 L187 749 L129 749 L77 749 C77 749 66 747 50 745 C35 743 24 741 24 741 L66 741 C104 741 129 731 129 676 L129 72 C129 17 104 7 66 7 L24 7 C24 7 35 5 50 3 C66 1 77 -1 77 -1 L129 -1 L187 -1 L297 -1 L555 -1 L663 -1 C664 9 666 23 668 33 C669 43 671 57 673 67 L673 98 C673 109 673 118 673 123 L672 124 L672 124 Z M673 123 C673 127 673 129 673 129 L673 123 L673 123 Z M639 623 L639 619 C639 619 639 620 639 623 L639 623 Z " />
<glyph glyph-name="F" unicode="F" horiz-adv-x="709" d="M641 625 C641 630 642 640 643 653 C643 671 644 684 644 684 C643 694 642 707 641 717 C640 727 639 740 638 750 L530 750 L297 750 L187 750 L129 750 L77 750 C77 750 66 748 50 746 C35 744 24 742 24 742 L66 742 C104 742 129 732 129 677 L129 73 C129 18 104 8 66 8 L24 8 C24 8 35 6 50 4 C66 2 77 0 77 0 L129 0 L213 0 L297 0 L349 0 C349 0 360 2 375 4 C391 6 402 8 402 8 L359 8 C322 8 297 18 297 73 L297 379 L507 379 C549 366 560 333 562 288 L564 240 C564 240 565 255 566 276 C567 298 568 313 568 313 L568 379 L568 384 L568 385 L568 455 C568 455 567 469 566 489 C565 510 564 524 564 524 L562 476 C560 421 543 385 460 385 L297 385 L297 677 L297 746 L451 746 C602 746 633 713 638 663 L641 625 L641 625 Z M642 625 L642 621 C642 621 642 623 642 626 L642 625 L642 625 Z " />
<glyph glyph-name="G" unicode="G" horiz-adv-x="921" d="M709 711 L708 711 C657 742 590 760 484 760 C211 760 30 606 30 375 C30 144 212 -10 484 -10 C603 -10 693 6 769 32 L779 34 L779 35 C802 43 824 52 845 62 L843 66 C828 59 808 53 780 48 L780 258 C780 308 797 318 823 318 L865 318 C865 318 856 320 844 322 C831 324 822 326 822 326 L692 326 L562 326 C562 326 552 324 537 322 C522 320 512 318 512 318 L555 318 C589 318 612 308 612 258 L613 180 C611 91 567 32 501 32 C330 32 216 170 216 376 C216 603 325 755 488 755 C537 755 578 745 614 726 L614 726 C620 723 626 720 632 717 C677 690 716 650 756 602 L756 602 C773 578 785 555 789 537 C792 524 794 516 794 516 C794 516 795 524 795 537 C796 550 797 558 797 558 L797 625 L797 634 L797 692 C797 692 796 703 795 721 C795 738 794 749 794 749 C794 749 792 738 789 721 C785 697 752 686 711 712 L709 711 L709 711 Z " />
<glyph glyph-name="H" unicode="H" horiz-adv-x="965" d="M820 68 L820 682 C820 732 845 742 883 742 L925 742 C925 742 915 744 899 746 C883 748 873 750 873 750 L737 750 L600 750 C600 750 590 748 574 746 C558 744 548 742 548 742 L590 742 C628 742 653 732 653 682 L653 386 L332 386 L332 682 C332 732 357 742 394 742 L437 742 C437 742 426 744 410 746 C395 748 384 750 384 750 L248 750 L112 750 C112 750 101 748 85 746 C70 744 59 742 59 742 L101 742 C139 742 164 732 164 682 L164 68 C164 18 139 8 101 8 L59 8 C59 8 70 6 85 4 C101 2 112 0 112 0 L248 0 L384 0 C384 0 395 2 410 4 C426 6 437 8 437 8 L394 8 C357 8 332 18 332 68 L332 380 L653 380 L653 68 C653 18 628 8 590 8 L548 8 C548 8 558 6 574 4 C590 2 600 0 600 0 L737 0 L873 0 C873 0 883 2 899 4 C915 6 925 8 925 8 L883 8 C845 8 820 18 820 68 L820 68 Z " />
<glyph glyph-name="I" unicode="I" horiz-adv-x="418" d="M274 68 L274 682 C274 732 299 742 337 742 L379 742 C379 742 368 744 353 746 C337 748 326 750 326 750 L190 750 L54 750 C54 750 43 748 27 746 C12 744 1 742 1 742 L43 742 C81 742 106 732 106 682 L106 68 C106 18 81 8 43 8 L1 8 C1 8 12 6 27 4 C43 2 54 0 54 0 L190 0 L326 0 C326 0 337 2 353 4 C368 6 379 8 379 8 L337 8 C299 8 274 18 274 68 L274 68 Z " />
<glyph glyph-name="J" unicode="J" horiz-adv-x="418" d="M106 682 L106 -136 C106 -199 33 -211 -20 -211 C-104 -211 -67 -70 -152 -70 C-199 -70 -231 -102 -231 -149 C-231 -192 -149 -220 -26 -220 C100 -220 275 -156 274 180 L274 682 C274 732 299 742 337 742 L379 742 C379 742 368 744 353 746 C337 748 326 750 326 750 L190 750 L54 750 C54 750 43 748 27 746 C12 744 1 742 1 742 L43 742 C81 742 106 732 106 682 L106 682 Z " />
<glyph glyph-name="K" unicode="K" horiz-adv-x="912" d="M598 5 C601 1 602 0 602 0 L738 0 L828 0 L874 0 C874 0 880 2 890 4 C900 6 906 8 906 8 L856 8 C835 8 799 36 772 67 L433 474 L603 653 L603 653 L603 653 L641 693 C684 734 713 743 741 743 L783 743 C783 743 777 745 767 747 C757 749 751 751 751 751 L696 751 L635 751 L626 751 L519 751 C519 751 512 749 502 747 C493 745 486 743 486 743 L522 743 C576 743 599 726 530 641 L296 375 L296 690 C296 734 321 742 358 742 L401 742 C401 742 390 744 374 746 C359 748 348 750 348 750 L296 750 L212 750 L128 750 L76 750 C76 750 65 748 49 746 C34 744 23 742 23 742 L65 742 C103 742 128 734 128 690 L128 60 C128 16 103 8 65 8 L23 8 C23 8 34 6 49 4 C65 2 76 0 76 0 L128 0 L212 0 L296 0 L348 0 C348 0 359 2 374 4 C390 6 401 8 401 8 L358 8 C321 8 296 16 296 60 L296 375 L598 5 L598 5 Z " />
<glyph glyph-name="L" unicode="L" horiz-adv-x="723" d="M648 28 C651 37 653 47 655 55 C659 71 665 93 670 109 C670 109 673 126 677 151 C679 167 681 180 682 187 L672 151 C652 78 613 29 474 29 L325 29 C278 29 273 38 273 52 L273 73 L273 677 C273 732 298 742 336 742 L378 742 C378 742 367 744 352 746 C336 748 325 750 325 750 L273 750 L189 750 L105 750 L53 750 C53 750 42 748 26 746 C11 744 0 742 0 742 L42 742 C80 742 105 732 105 677 L105 73 C105 18 80 8 42 8 L0 8 C0 8 11 6 26 4 C42 2 53 0 53 0 L105 0 L163 0 L273 0 L467 0 L639 0 L648 28 L648 28 Z M682 187 C683 192 684 195 684 195 L682 187 L682 187 Z " />
<glyph glyph-name="M" unicode="M" horiz-adv-x="1000" d="M904 73 L903 73 L885 593 L886 592 C883 718 906 742 943 742 L985 742 C985 742 979 744 969 746 C959 748 953 750 953 750 L880 750 L837 750 L779 750 L721 750 L535 213 L327 750 L191 750 L150 750 L125 750 L56 750 C56 750 50 748 40 746 C30 744 24 742 24 742 L66 742 C99 742 126 734 148 696 L129 115 C122 26 89 8 43 8 L1 8 C1 8 7 6 17 4 C27 2 33 0 33 0 L125 0 L155 0 L184 0 L277 0 C277 0 283 2 293 4 C303 6 309 8 309 8 L267 8 C219 8 187 24 184 105 L189 606 L365 213 L460 0 L502 0 L724 602 L737 73 L737 73 C739 18 713 8 674 8 L632 8 C632 8 642 6 658 4 C674 2 684 0 684 0 L739 0 L820 0 L906 0 L956 0 C956 0 967 2 983 4 C998 6 1009 8 1009 8 L966 8 C930 8 905 18 904 73 L904 73 Z " />
<glyph glyph-name="N" unicode="N" horiz-adv-x="854" d="M182 128 L182 128 L178 555 L455 238 L664 0 L697 0 L708 662 C712 729 744 742 791 742 L833 742 C833 742 820 744 802 746 C783 748 770 750 770 750 L710 750 L684 750 L659 750 L597 750 C597 750 585 748 566 746 C547 744 535 742 535 742 L577 742 C624 742 656 727 660 653 L663 259 L585 345 L217 749 L177 749 L136 749 L100 749 L9 749 L-17 749 C-17 749 -24 747 -33 745 C-43 743 -50 741 -50 741 L8 741 C12 741 20 735 46 706 L46 706 L135 604 L133 118 C129 25 97 6 51 6 L8 6 C8 6 15 4 25 2 C34 0 41 -2 41 -2 L133 -2 L159 -2 L184 -2 L276 -2 C276 -2 283 0 292 2 C302 4 309 6 309 6 L266 6 C216 6 182 25 183 126 L182 128 L182 128 Z " />
<glyph glyph-name="O" unicode="O" horiz-adv-x="973" d="M460 -3 C317 -3 221 148 221 375 C221 602 320 753 467 753 C623 753 726 602 726 375 C726 148 620 -3 460 -3 L460 -3 Z M29 375 C29 144 201 -10 459 -10 C734 -10 918 144 918 375 C918 606 738 760 469 760 C205 760 29 606 29 375 L29 375 Z " />
<glyph glyph-name="P" unicode="P" horiz-adv-x="761" d="M254 0 L338 0 L390 0 C390 0 401 2 416 4 C432 6 443 8 443 8 L400 8 C363 8 338 18 338 73 L338 329 L395 329 C603 329 741 393 741 536 C741 664 626 750 453 750 L338 750 L228 750 L170 750 L118 750 C118 750 107 748 91 746 C76 744 65 742 65 742 L107 742 C145 742 170 732 170 677 L170 73 C170 18 145 8 107 8 L65 8 C65 8 76 6 91 4 C107 2 118 0 118 0 L170 0 L254 0 L254 0 Z M338 365 L338 677 L338 722 C359 722 389 721 411 721 C515 721 584 658 584 564 C584 427 509 365 395 365 L338 365 L338 365 Z " />
<glyph glyph-name="Q" unicode="Q" horiz-adv-x="968" d="M1307 -52 L1305 -50 C1275 -75 1130 -92 941 -92 C750 -92 571 -61 455 -10 C456 -10 457 -10 458 -10 C733 -10 917 144 917 375 C917 606 737 760 468 760 C204 760 28 606 28 375 C28 255 110 156 206 88 L205 88 C449 -83 735 -198 922 -198 C1049 -198 1202 -140 1306 -52 L1307 -52 L1307 -52 Z M459 -3 C387 -3 220 148 220 375 C220 602 319 753 466 753 C622 753 725 602 725 375 C725 148 619 -3 459 -3 L459 -3 Z " />
<glyph glyph-name="R" unicode="R" horiz-adv-x="930" d="M921 0 L921 13 C837 13 831 15 786 68 C672 202 585 305 543 355 C652 382 718 440 718 535 C718 664 581 750 376 750 L296 750 L186 750 L76 750 C76 750 65 748 49 746 C34 744 23 742 23 742 L65 742 C103 742 128 732 128 677 L128 73 C128 18 103 8 65 8 L23 8 C23 8 34 6 49 4 C65 2 76 0 76 0 L212 0 L348 0 C348 0 359 2 374 4 C390 6 401 8 401 8 L358 8 C321 8 296 18 296 73 L296 338 L371 338 C401 296 482 196 591 68 C647 3 660 0 922 0 L921 0 L921 0 Z M297 716 L327 716 C451 716 534 657 534 567 C534 438 471 380 377 380 L297 380 L297 677 L297 716 L297 716 Z " />
<glyph glyph-name="S" unicode="S" horiz-adv-x="590" d="M459 711 L458 711 C414 742 353 760 287 760 C145 760 51 672 51 540 C51 430 116 334 241 288 C357 246 417 202 417 169 C417 66 367 -2 291 -2 C220 -2 141 66 93 167 L83 162 C67 188 56 212 52 230 C49 243 47 251 47 251 C47 251 46 243 45 230 C44 217 44 209 44 209 L44 143 L44 140 L44 71 C44 71 44 56 45 35 C46 13 47 -2 47 -2 C47 -2 49 13 52 35 C55 60 83 73 119 49 C167 11 228 -11 290 -11 C446 -11 550 80 550 216 C550 318 479 411 340 461 C235 499 181 553 181 603 C181 693 223 753 286 753 C305 753 324 749 342 742 L332 745 C347 740 362 733 376 724 C413 701 445 665 466 621 L476 626 C491 602 502 578 507 557 C510 544 512 536 512 536 C512 536 513 544 513 557 C514 570 515 578 515 578 L515 640 L515 644 L515 701 C515 701 514 712 513 730 C513 747 512 758 512 758 C512 758 510 747 507 729 C503 707 483 692 458 709 L459 711 L459 711 Z M332 744 L326 746 C328 746 330 745 332 744 L332 744 Z " />
<glyph glyph-name="T" unicode="T" horiz-adv-x="806" d="M25 607 L40 645 C54 683 79 708 163 708 L319 708 L319 68 C319 18 294 8 257 8 L214 8 C214 8 225 6 241 4 C256 2 267 0 267 0 L403 0 L539 0 C539 0 550 2 566 4 C581 6 592 8 592 8 L550 8 C512 8 487 18 487 68 L487 708 L644 708 C728 708 753 683 766 645 L782 603 C782 603 780 614 776 630 C772 646 770 657 770 657 C764 673 756 693 751 709 L751 749 L736 749 C734 756 732 763 730 769 C730 769 727 773 722 779 C718 785 715 789 715 789 L721 772 C726 758 714 749 629 749 L488 749 L320 749 L179 749 C95 749 82 758 87 772 L94 789 C94 789 91 785 86 779 C81 773 78 769 78 769 C76 763 74 756 72 749 L57 749 L57 707 L57 707 C51 691 43 672 38 657 C38 657 36 646 32 630 C30 619 28 611 27 607 L25 607 L25 607 Z M27 607 C26 605 26 604 26 604 L27 607 L27 607 Z " />
<glyph glyph-name="U" unicode="U" horiz-adv-x="900" d="M786 98 L786 677 L786 750 L676 750 L566 750 C566 750 555 748 539 746 C524 744 513 742 513 742 L555 742 C593 742 618 732 618 677 L618 219 C584 146 510 98 432 98 C329 98 261 149 261 226 L261 677 L261 750 L151 750 L41 750 C41 750 30 748 14 746 C-1 744 -12 742 -12 742 L30 742 C68 742 93 732 93 677 L93 226 C93 85 201 -10 364 -10 C473 -10 575 51 618 143 L618 98 L618 0 L644 0 L890 49 L890 53 C803 48 786 54 786 98 L786 98 Z " />
<glyph glyph-name="V" unicode="V" horiz-adv-x="924" d="M77 702 L326 212 L439 -10 L473 -10 L761 622 L761 622 C762 624 763 626 764 628 L781 666 C813 729 839 742 868 742 L911 742 C911 742 904 744 894 746 C885 748 878 750 878 750 L819 750 L752 750 L749 750 L620 750 C620 750 613 748 603 746 C594 744 587 742 587 742 L626 742 C700 742 741 723 699 622 L699 622 L530 213 L303 641 C266 726 304 743 371 743 L410 743 C410 743 403 745 393 747 C384 749 377 751 377 751 L245 751 L200 751 L52 751 L23 751 C23 751 17 749 7 747 C-3 745 -9 743 -9 743 L48 743 C53 743 59 737 76 703 L77 702 L77 702 Z " />
<glyph glyph-name="W" unicode="W" horiz-adv-x="1249" d="M375 742 L383 742 L417 742 C449 742 473 736 491 702 L491 702 L597 500 L597 500 L503 211 L503 212 L298 629 C253 724 285 742 346 742 L375 742 L375 742 Z M380 743 C377 744 373 745 368 746 C358 748 352 750 352 750 L239 750 L189 750 L55 750 L26 750 C26 750 20 748 10 746 C0 744 -6 742 -6 742 L51 742 C56 742 68 723 118 622 L119 622 L322 212 L432 -10 L476 -10 L633 434 L733 244 L866 -10 L911 -10 L1120 666 C1143 729 1167 742 1195 742 L1237 742 C1237 742 1231 744 1221 746 C1211 748 1205 750 1205 750 L1145 750 L1076 750 L1074 750 L943 750 C943 750 937 748 927 746 C917 744 911 742 911 742 L951 742 C1025 742 1069 723 1040 622 L1040 622 L935 245 L708 661 C676 729 708 742 767 742 L805 742 C805 742 798 744 788 746 C779 748 772 750 772 750 L660 750 L590 750 L466 750 L407 750 C407 750 401 748 391 746 C386 745 382 744 379 743 L380 743 L380 743 Z " />
<glyph glyph-name="X" unicode="X" horiz-adv-x="895" d="M712 128 L712 128 L486 434 L643 592 L643 592 L643 592 L770 719 C796 736 816 741 835 741 L878 741 C878 741 871 743 861 745 C852 747 845 749 845 749 L800 749 L734 749 L725 749 L622 749 C622 749 616 747 606 745 C596 743 590 741 590 741 L626 741 C682 741 702 720 613 611 L613 611 L478 444 L336 637 C276 724 296 741 342 741 L379 741 C379 741 373 743 363 745 C353 747 347 749 347 749 L254 749 L183 749 L56 749 L19 749 C19 749 13 747 3 745 C-7 743 -13 741 -13 741 L33 741 C50 741 76 722 150 621 L150 621 L359 336 L170 107 L170 107 C100 23 62 7 24 7 L-18 7 C-18 7 -11 5 -2 3 C8 1 15 -1 15 -1 L81 -1 L148 -1 L157 -1 L300 -1 C300 -1 307 1 317 3 C326 5 333 7 333 7 L296 7 C217 7 173 23 226 101 L252 136 L252 136 L252 136 L381 305 L516 121 C586 24 567 6 519 6 L482 6 C482 6 489 4 498 2 C508 0 515 -2 515 -2 L607 -2 L684 -2 L807 -2 L853 -2 C853 -2 860 0 870 2 C879 4 886 6 886 6 L844 6 C818 6 787 25 713 126 L712 128 L712 128 Z " />
<glyph glyph-name="Y" unicode="Y" horiz-adv-x="833" d="M327 622 L327 622 L327 622 L316 638 C261 724 275 741 312 741 L349 741 C349 741 343 743 333 745 C323 747 317 749 317 749 L244 749 L168 749 L47 749 L19 749 C19 749 13 747 3 745 C-7 743 -13 741 -13 741 L44 741 C49 741 65 722 133 621 L133 621 L345 307 L345 67 C345 17 320 7 283 7 L240 7 C240 7 251 5 267 3 C282 1 293 -1 293 -1 L429 -1 L566 -1 C566 -1 576 1 592 3 C608 5 618 7 618 7 L576 7 C538 7 513 17 513 67 L513 335 L683 639 C733 724 759 741 782 741 L825 741 C825 741 818 743 808 745 C799 747 792 749 792 749 L744 749 L731 749 L726 749 L659 749 C659 749 652 747 643 745 C633 743 626 741 626 741 L665 741 C699 741 715 727 682 660 L509 343 L327 622 L327 622 Z " />
<glyph glyph-name="Z" unicode="Z" horiz-adv-x="683" d="M207 0 L490 0 L637 0 C642 19 648 44 653 62 C657 81 663 106 668 125 C668 125 671 141 674 164 C678 188 681 204 680 204 L667 160 C648 98 617 56 525 50 L231 41 L640 715 L640 750 L476 750 L227 750 L69 750 C66 731 63 705 60 686 C57 666 54 640 51 621 C51 621 50 604 50 578 C49 552 49 534 49 534 L55 574 C67 652 99 704 220 704 L220 705 L451 711 L24 36 L24 1 L207 0 L207 0 Z " />
<glyph glyph-name="bracketleft" unicode="&#x5b;" horiz-adv-x="311" d="M152 706 L362 706 L362 750 L152 750 L99 750 L99 -195 L152 -195 L362 -195 L362 -151 L152 -151 L152 706 L152 706 Z " />
<glyph glyph-name="backslash" unicode="&#x5c;" horiz-adv-x="366" d="M8 770 L268 -80 L356 -80 L96 770 L8 770 L8 770 Z " />
<glyph glyph-name="bracketright" unicode="&#x5d;" horiz-adv-x="314" d="M152 706 L152 -151 L-58 -151 L-58 -195 L152 -195 L205 -195 L205 750 L152 750 L-58 750 L-58 706 L152 706 L152 706 Z " />
<glyph glyph-name="underscore" unicode="&#x5f;" horiz-adv-x="525" d="M5 -50 L5 -133 L521 -133 L521 -50 L5 -50 L5 -50 Z " />
<glyph glyph-name="a" unicode="a" horiz-adv-x="546" d="M556 147 L535 158 C529 124 507 102 481 102 C451 102 431 117 431 140 L431 349 C431 460 367 510 270 510 C137 510 48 414 48 360 C48 312 82 280 133 280 C170 280 195 313 195 337 C195 360 175 375 175 406 C175 440 211 501 265 501 C275 501 282 471 282 404 L281 268 C76 231 27 209 27 101 C27 35 75 -10 148 -10 C187 -10 235 15 291 80 C311 28 357 -4 419 -4 C486 -4 541 57 556 148 L556 147 L556 147 Z M281 263 L281 141 C281 122 284 104 289 88 C273 76 252 71 229 71 C199 71 179 90 179 118 C179 226 199 247 282 263 L281 263 L281 263 Z " />
<glyph glyph-name="b" unicode="b" horiz-adv-x="761" d="M139 0 L147 0 L213 65 L213 65 C229 20 308 -10 409 -10 C593 -10 716 96 716 254 C716 405 609 505 449 505 C397 505 335 479 289 439 L289 684 L289 747 L262 747 L96 700 C96 700 88 696 75 690 C62 684 54 680 54 680 L96 692 C122 700 139 696 139 649 L139 195 L139 0 L139 0 Z M289 416 C322 442 365 459 403 459 C490 459 548 370 548 237 C548 100 494 9 414 9 C352 9 302 33 289 70 L289 195 L289 416 L289 416 Z " />
<glyph glyph-name="c" unicode="c" horiz-adv-x="595" d="M566 128 L545 137 C530 104 472 82 401 82 C272 82 187 161 187 279 C187 397 255 476 357 476 C382 476 409 448 425 405 C441 360 471 330 500 330 C561 330 591 360 575 405 C552 468 468 510 366 510 C160 510 23 400 23 234 C23 88 153 -10 348 -10 C441 -10 529 45 566 128 L566 128 Z " />
<glyph glyph-name="d" unicode="d" horiz-adv-x="624" d="M395 57 L395 -10 L421 -10 L587 31 C587 31 596 35 608 41 C621 46 630 50 630 50 L587 39 C562 33 545 45 545 128 L545 668 L545 747 L518 747 L352 700 C352 700 344 696 331 690 C318 684 310 680 310 680 L352 692 C378 700 395 693 395 633 L395 492 C358 503 312 510 261 510 C108 510 30 405 30 247 C30 96 113 -5 238 -5 C301 -5 362 19 395 56 L395 57 L395 57 Z M395 398 L395 108 C369 76 332 56 300 56 C230 56 183 148 183 287 C183 394 215 465 278 465 C324 465 370 436 394 399 L395 398 L395 398 Z " />
<glyph glyph-name="e" unicode="e" horiz-adv-x="578" d="M186 340 L383 340 L507 340 L549 340 C527 462 436 510 313 510 C139 510 23 396 23 225 C23 84 128 -10 286 -10 C405 -10 504 46 535 130 L517 137 C507 108 429 89 322 89 C238 89 182 168 182 286 C182 305 183 323 186 340 L186 340 Z M483 383 C491 383 499 383 507 383 L483 383 L483 383 Z M375 379 L194 374 C213 437 253 475 305 475 C333 475 358 448 375 380 L375 379 L375 379 Z " />
<glyph glyph-name="f" unicode="f" horiz-adv-x="441" d="M254 421 L432 421 L432 500 L254 500 C254 625 289 709 356 709 C427 709 462 635 521 635 C548 635 566 653 566 680 C566 725 503 755 410 755 C208 755 104 653 104 500 L26 438 L26 421 L103 421 L104 421 L104 23 C104 10 87 8 61 8 L19 8 C19 8 27 6 40 4 C53 2 61 0 61 0 L179 0 L296 0 C296 0 305 2 317 4 C330 6 339 8 339 8 L296 8 C271 8 254 10 254 23 L254 421 L254 421 Z " />
<glyph glyph-name="g" unicode="g" horiz-adv-x="551" d="M209 350 C209 425 230 475 262 475 C295 475 316 425 316 350 C316 274 295 223 262 223 C230 223 209 274 209 350 L209 350 Z M164 -33 C168 -33 172 -33 176 -33 L299 -33 C367 -32 393 -53 393 -83 C393 -151 349 -196 283 -196 C207 -196 156 -143 156 -63 C156 -51 159 -40 164 -32 L164 -33 L164 -33 Z M119 -21 C66 -38 32 -67 32 -98 C32 -177 129 -229 274 -229 C419 -229 516 -156 516 -47 C516 51 460 117 315 118 L183 118 C153 118 133 129 133 146 C133 172 185 189 262 189 C385 189 466 254 466 351 C466 370 463 388 457 404 C471 423 486 434 498 434 C491 434 486 429 486 423 C486 391 514 370 556 370 C593 370 617 398 617 441 C617 474 594 496 560 496 C514 496 469 472 443 434 C410 482 346 511 263 511 C141 511 60 447 60 351 C60 286 97 235 158 209 C88 191 45 152 45 101 C45 42 73 -2 119 -21 L119 -21 Z " />
<glyph glyph-name="h" unicode="h" horiz-adv-x="778" d="M508 23 C508 10 491 8 466 8 L423 8 C423 8 432 6 445 4 C457 2 466 0 466 0 L583 0 L701 0 C701 0 709 2 722 4 C735 6 743 8 743 8 L701 8 C675 8 658 10 658 23 L658 265 C658 412 602 510 495 510 C401 510 303 467 250 401 L250 684 L250 747 L223 747 L57 700 C57 700 49 696 36 690 C23 684 15 680 15 680 L57 692 C83 700 100 696 100 649 L100 23 C100 10 83 8 57 8 L15 8 C15 8 23 6 36 4 C49 2 57 0 57 0 L175 0 L292 0 C292 0 301 2 313 4 C326 6 335 8 335 8 L292 8 C267 8 250 10 250 23 L250 394 C255 400 318 404 409 404 C474 404 508 348 508 265 L508 23 L508 23 Z " />
<glyph glyph-name="i" unicode="i" horiz-adv-x="368" d="M184 615 C232 615 264 647 264 695 C264 743 232 775 184 775 C136 775 104 743 104 695 C104 647 136 615 184 615 L184 615 Z M28 434 L66 445 C92 452 109 448 109 402 L109 23 C109 10 96 8 76 8 L34 8 C34 8 41 6 52 4 C64 2 71 0 71 0 L184 0 L296 0 C296 0 304 2 315 4 C326 6 334 8 334 8 L291 8 C272 8 259 10 259 23 L259 437 L259 500 L232 500 L66 452 C66 452 58 448 45 442 C37 438 31 435 27 433 L28 434 L28 434 Z M27 433 C24 432 23 432 23 432 L27 433 L27 433 Z " />
<glyph glyph-name="j" unicode="j" horiz-adv-x="338" d="M174 615 C222 615 254 647 254 695 C254 743 222 775 174 775 C126 775 94 743 94 695 C94 647 126 615 174 615 L174 615 Z M18 434 L56 445 C82 452 99 448 99 402 L99 88 C99 -9 73 -88 34 -110 C6 -110 -29 -100 -56 -100 C-83 -100 -101 -116 -101 -140 C-101 -169 -77 -187 -41 -185 C-35 -184 7 -162 64 -130 C175 -66 249 21 249 88 L249 437 L249 500 L222 500 L56 452 C56 452 48 448 35 442 C27 438 21 435 17 433 L18 434 L18 434 Z M17 433 C14 432 13 432 13 432 L17 433 L17 433 Z " />
<glyph glyph-name="k" unicode="k" horiz-adv-x="816" d="M631 0 L750 0 L765 0 C765 0 771 2 781 4 C791 6 797 8 797 8 L742 8 L732 18 C731 19 730 21 728 23 L727 23 L419 331 L667 476 L668 476 C690 489 697 491 702 491 L759 491 C759 491 752 493 743 495 C733 497 726 499 726 499 L707 499 L634 499 L604 499 L481 499 C481 499 475 497 465 495 C455 493 449 491 449 491 L478 491 C560 491 578 469 388 355 L259 279 L259 683 L259 746 L232 746 L66 699 C66 699 58 695 45 689 C32 683 24 679 24 679 L66 691 C92 699 109 695 109 648 L109 22 C109 9 96 7 76 7 L34 7 C34 7 41 5 52 3 C64 1 71 -1 71 -1 L184 -1 L296 -1 C296 -1 304 1 315 3 C326 5 334 7 334 7 L291 7 C272 7 259 9 259 22 L259 279 L527 22 L527 22 C540 9 526 7 502 7 L466 7 C466 7 472 5 482 3 C492 1 498 -1 498 -1 L551 -1 L631 0 L631 0 Z " />
<glyph glyph-name="l" unicode="l" horiz-adv-x="358" d="M249 23 L249 684 L249 747 L222 747 L56 700 C56 700 48 696 35 690 C22 684 14 680 14 680 L56 692 C82 700 99 696 99 649 L99 23 C99 10 84 8 61 8 L19 8 C19 8 27 6 39 4 C51 2 59 0 59 0 L174 0 L289 0 C289 0 297 2 309 4 C321 6 329 8 329 8 L286 8 C264 8 249 10 249 23 L249 23 Z " />
<glyph glyph-name="m" unicode="m" horiz-adv-x="1064" d="M590 406 L590 399 L733 399 C784 399 804 345 804 265 L804 43 C804 14 791 8 772 8 L729 8 C729 8 737 6 748 4 C759 2 767 0 767 0 L882 0 L997 0 C997 0 1005 2 1018 4 C1031 6 1039 8 1039 8 L997 8 C971 8 954 14 954 43 L954 265 C954 412 909 510 794 510 C723 510 641 469 590 406 L590 406 Z M448 43 C448 14 435 8 416 8 L373 8 C373 8 381 6 392 4 C403 2 411 0 411 0 L521 0 L631 0 C631 0 637 2 647 4 C657 6 663 8 663 8 L621 8 C607 8 598 14 598 43 L598 265 C598 412 553 510 438 510 C372 510 294 469 243 406 L243 437 L243 500 L216 500 L50 440 C50 440 42 435 29 428 C16 421 8 416 8 416 L50 432 C76 441 93 438 93 392 L93 43 C93 14 76 8 50 8 L8 8 C8 8 16 6 29 4 C42 2 50 0 50 0 L164 0 L278 0 C278 0 285 2 295 4 C306 6 313 8 313 8 L270 8 C254 8 243 14 243 43 L243 399 L377 399 C428 399 448 345 448 265 L448 43 L448 43 Z " />
<glyph glyph-name="n" unicode="n" horiz-adv-x="708" d="M448 23 C448 10 433 8 411 8 L368 8 C368 8 376 6 388 4 C400 2 408 0 408 0 L523 0 L638 0 C638 0 646 2 658 4 C670 6 678 8 678 8 L636 8 C613 8 598 10 598 23 L598 257 C598 409 544 510 438 510 C376 510 298 465 243 397 L243 437 L243 500 L216 500 L50 440 C50 440 42 435 29 428 C16 421 8 416 8 416 L50 432 C76 441 93 438 93 392 L93 23 C93 10 78 8 55 8 L13 8 C13 8 21 6 33 4 C45 2 53 0 53 0 L168 0 L283 0 C283 0 291 2 303 4 C315 6 323 8 323 8 L280 8 C258 8 243 10 243 23 L243 376 C275 414 336 440 397 440 C431 440 448 367 448 257 L448 23 L448 23 Z " />
<glyph glyph-name="o" unicode="o" horiz-adv-x="640" d="M309 -3 C236 -3 188 98 188 250 C188 402 236 503 309 503 C382 503 430 402 430 250 C430 98 382 -3 309 -3 L309 -3 Z M23 250 C23 94 137 -10 309 -10 C481 -10 595 94 595 250 C595 406 481 510 309 510 C137 510 23 406 23 250 L23 250 Z " />
<glyph glyph-name="p" unicode="p" horiz-adv-x="720" d="M244 449 L244 500 L217 500 L51 440 C51 440 43 435 30 428 C17 421 9 416 9 416 L51 432 C77 441 94 438 94 392 L94 -175 C94 -206 77 -212 51 -212 L9 -212 C9 -212 17 -214 30 -216 C43 -218 51 -220 51 -220 L169 -220 L286 -220 C286 -220 295 -218 307 -216 C320 -214 329 -212 329 -212 L286 -212 C261 -212 244 -206 244 -175 L244 74 C284 25 348 -5 416 -5 C572 -5 676 118 676 262 C676 411 572 510 416 510 C346 510 281 486 245 448 L244 449 L244 449 Z M245 89 L245 389 C274 424 312 447 348 447 C446 447 512 354 512 215 C512 99 473 0 415 0 C348 0 284 35 245 90 L245 89 L245 89 Z " />
<glyph glyph-name="q" unicode="q" horiz-adv-x="657" d="M526 -197 L526 390 L526 440 L526 500 L517 500 L468 440 C445 482 375 510 292 510 C117 510 27 405 27 247 C27 96 112 -5 240 -5 C300 -5 350 13 377 43 L377 -197 C377 -210 360 -212 334 -212 L292 -212 C292 -212 301 -214 313 -216 C326 -218 335 -220 335 -220 L452 -220 L570 -220 C570 -220 578 -218 591 -216 C604 -214 612 -212 612 -212 L570 -212 C544 -212 527 -210 527 -197 L526 -197 L526 -197 Z M377 390 L377 92 C359 70 332 57 302 57 C230 57 182 149 182 288 C182 401 216 476 283 476 C311 476 348 442 376 390 L377 390 L377 390 Z " />
<glyph glyph-name="r" unicode="r" horiz-adv-x="593" d="M249 394 L249 437 L249 500 L222 500 L56 440 C56 440 48 435 35 428 C22 421 14 416 14 416 L56 432 C82 441 99 438 99 392 L99 23 C99 10 86 8 66 8 L24 8 C24 8 31 6 42 4 C54 2 61 0 61 0 L176 0 L291 0 C291 0 300 2 312 4 C325 6 334 8 334 8 L291 8 C266 8 249 10 249 23 L249 381 C273 417 310 440 346 440 C383 440 407 426 407 405 C407 352 442 317 495 317 C548 317 583 352 583 405 C583 468 516 510 416 510 C356 510 290 464 248 394 L249 394 L249 394 Z " />
<glyph glyph-name="s" unicode="s" horiz-adv-x="479" d="M297 497 L276 500 C312 488 347 455 368 409 L386 418 C396 399 401 379 401 360 L401 344 C401 344 402 351 405 360 C407 370 408 377 408 377 L408 428 L408 431 L408 485 C408 485 407 490 405 498 C402 505 401 510 401 510 L401 481 C401 472 380 472 348 487 C320 502 285 511 247 511 C134 511 58 452 58 364 C58 284 105 218 195 194 C273 173 313 139 313 105 C313 40 279 -4 228 -4 C224 -4 220 -4 216 -3 L217 -3 C215 -3 213 -3 211 -3 C174 7 133 50 105 111 L87 102 C78 122 73 142 73 160 L73 176 C73 176 71 170 69 160 C67 150 65 144 65 144 L65 97 L65 92 L65 50 C65 50 67 41 69 29 C71 16 73 7 73 7 L73 29 C73 34 106 27 156 5 L158 5 C179 -4 202 -9 225 -9 C346 -9 426 54 426 148 C426 217 369 278 258 308 C195 325 162 367 162 416 C162 470 195 506 244 506 C254 506 264 504 274 501 L245 506 C263 506 280 503 295 498 L297 497 L297 497 Z " />
<glyph glyph-name="t" unicode="t" horiz-adv-x="470" d="M416 500 L249 500 L249 620 L238 620 L34 431 L34 421 L99 421 L99 217 C99 54 171 -10 280 -10 C388 -10 460 55 460 154 L441 154 C441 98 395 61 326 61 C276 61 244 95 245 184 L249 421 L416 421 L416 500 L416 500 Z " />
<glyph glyph-name="u" unicode="u" horiz-adv-x="700" d="M446 78 L446 -10 L472 -10 L638 31 C638 31 647 35 660 41 C672 46 681 50 681 50 L638 39 C613 33 596 42 596 108 L596 477 L596 500 L504 500 L413 500 C413 500 406 498 396 496 C386 494 380 492 380 492 L422 492 C436 492 446 490 446 477 L446 134 C428 109 380 94 320 94 C265 94 228 122 228 165 L228 477 L228 500 L136 500 L44 500 C44 500 38 498 28 496 C18 494 11 492 11 492 L54 492 C68 492 78 490 78 477 L78 165 C78 60 147 -10 250 -10 C334 -10 412 42 447 123 L446 78 L446 78 Z " />
<glyph glyph-name="v" unicode="v" horiz-adv-x="669" d="M63 473 L310 -10 L354 -10 L562 459 C576 486 595 491 619 491 L661 491 C661 491 655 493 645 495 C635 497 629 499 629 499 L580 499 L539 499 L511 499 L449 499 C449 499 442 497 432 495 C423 493 416 491 416 491 L455 491 C487 491 506 486 496 461 L496 461 L310 -11 L384 177 L230 466 C220 487 229 491 245 491 L288 491 C288 491 282 493 272 495 C262 497 256 499 256 499 L213 499 L135 499 L49 499 L15 499 C15 499 9 497 -1 495 C-11 493 -17 491 -17 491 L33 491 C44 491 53 488 63 472 L63 473 L63 473 Z " />
<glyph glyph-name="w" unicode="w" horiz-adv-x="1053" d="M417 477 L483 350 L320 -10 L364 -10 L513 292 L669 -10 L713 -10 L929 457 C944 486 963 492 987 492 L1030 492 C1030 492 1023 494 1013 496 C1004 498 997 500 997 500 L948 500 L906 500 L878 500 L815 500 C815 500 809 498 799 496 C789 494 783 492 783 492 L822 492 C853 492 872 488 864 466 L745 177 L583 479 C579 489 581 491 585 491 L638 491 C638 491 631 493 621 495 C612 497 605 499 605 499 L572 499 L490 499 L404 499 L375 499 C375 499 368 497 358 495 C349 493 342 491 342 491 L398 491 C404 491 410 488 417 475 L417 477 L417 477 Z M52 475 L320 -12 L403 172 L222 473 C215 487 216 490 221 490 L273 490 C273 490 266 492 257 494 C247 496 240 498 240 498 L207 498 L125 498 L39 498 L10 498 C10 498 4 496 -6 494 C-16 492 -22 490 -22 490 L33 490 C39 490 45 487 53 474 L52 475 L52 475 Z " />
<glyph glyph-name="x" unicode="x" horiz-adv-x="689" d="M85 43 C59 14 43 8 27 8 L-19 8 C-19 8 -13 6 -3 4 C7 2 13 0 13 0 L49 0 L100 0 L118 0 L186 0 C186 0 192 2 202 4 C212 6 218 8 218 8 L182 8 C149 8 130 13 147 39 L156 51 L268 201 L385 45 C408 13 399 7 380 7 L340 7 C340 7 347 5 356 3 C366 1 373 -1 373 -1 L420 -1 L502 -1 L604 -1 L630 -1 C630 -1 637 1 647 3 C656 5 663 7 663 7 L606 7 C601 7 594 13 573 40 L403 267 L547 447 L548 447 C575 484 593 491 612 491 L658 491 C658 491 651 493 642 495 C632 497 625 499 625 499 L589 499 L544 499 L520 499 L463 499 C463 499 456 497 447 495 C437 493 430 491 430 491 L467 491 C493 491 507 485 492 459 L378 301 L257 462 C243 485 252 490 269 490 L309 490 C309 490 302 492 292 494 C283 496 276 498 276 498 L229 498 L152 498 L45 498 L28 498 C28 498 22 496 12 494 C2 492 -4 490 -4 490 L51 490 L245 231 L85 43 L85 43 Z " />
<glyph glyph-name="y" unicode="y" horiz-adv-x="689" d="M67 466 L325 -10 L272 -140 C266 -155 254 -165 242 -165 C206 -165 192 -112 156 -112 C105 -112 71 -142 71 -187 C71 -242 106 -279 159 -279 C220 -279 276 -240 300 -181 L369 -10 L583 462 C598 487 617 492 640 492 L682 492 C682 492 676 494 666 496 C656 498 650 500 650 500 L601 500 L560 500 L532 500 L470 500 C470 500 463 498 453 496 C444 494 437 492 437 492 L476 492 C506 492 524 488 519 467 L326 -10 L401 177 L234 466 L234 466 C222 488 230 492 246 492 L289 492 C289 492 283 494 273 496 C263 498 257 500 257 500 L214 500 L137 500 L50 500 L17 500 C17 500 10 498 0 496 C-9 494 -16 492 -16 492 L35 492 C46 492 56 488 68 466 L67 466 L67 466 Z " />
<glyph glyph-name="z" unicode="z" horiz-adv-x="506" d="M108 538 C107 536 105 533 103 529 C99 523 96 519 96 519 C95 513 93 506 91 499 L84 499 L84 473 C83 469 82 465 81 461 C76 444 70 420 65 403 C65 403 62 393 58 378 C54 363 51 353 51 353 L71 395 C84 423 104 443 155 450 L289 456 L41 34 L41 -1 L199 -1 L314 -1 L462 -1 C464 13 467 33 469 47 C471 62 474 81 476 96 L481 121 C484 136 485 146 485 146 L469 103 C458 75 436 54 365 48 L323 46 C321 46 319 46 317 46 L317 46 L225 42 L468 464 L468 499 L315 499 L112 499 C107 499 101 503 102 509 L108 538 L108 538 Z M110 537 L110 539 C110 539 110 538 109 537 L110 537 L110 537 Z " />
<glyph glyph-name="bar" unicode="&#x7c;" horiz-adv-x="236" d="M60 797 L60 -250 L177 -250 L177 797 L60 797 L60 797 Z " />
<glyph glyph-name="exclamdown" unicode="&#xa1;" horiz-adv-x="323" d="M162 505 C114 505 82 473 82 425 C82 377 114 345 162 345 C210 345 242 377 242 425 C242 473 210 505 162 505 L162 505 Z M162 -255 C255 -255 270 -198 254 -112 L176 290 L148 290 L70 -112 C54 -198 69 -255 162 -255 L162 -255 Z " />
<glyph glyph-name="cent" unicode="&#xa2;" horiz-adv-x="595" d="M329 575 L329 509 C144 497 23 391 23 235 C23 94 145 -2 329 -8 L329 -73 L372 -73 L372 -7 C456 2 532 54 566 130 L545 139 C530 106 472 84 401 84 C391 84 381 84 372 85 L372 474 C392 466 412 441 425 407 C441 362 471 332 500 332 C561 332 591 362 575 407 C552 469 471 511 372 513 L372 578 L329 575 L329 575 Z M329 94 C241 118 187 187 187 281 C187 388 243 463 329 476 L329 94 L329 94 Z " />
<glyph glyph-name="questiondown" unicode="&#xbf;" horiz-adv-x="289" d="M165 505 C117 505 85 473 85 425 C85 377 117 345 165 345 C213 345 245 377 245 425 C245 473 213 505 165 505 L165 505 Z M160 225 L165 140 C57 140 26 113 -2 71 C-21 44 -34 -9 -34 -59 C-34 -180 38 -260 145 -260 C230 -260 286 -216 286 -149 C286 -105 254 -75 205 -75 C169 -75 127 -101 90 -101 C42 -101 10 -77 10 -41 C10 -35 18 -19 31 0 C56 36 85 60 193 60 L186 225 L160 225 L160 225 Z " />
<glyph glyph-name="Agrave" unicode="&#xc0;" horiz-adv-x="868" d="M726 128 L725 128 L514 697 L487 770 L472 770 C446 733 396 704 346 697 L350 686 L192 158 L192 158 C155 32 111 8 55 8 L12 8 C12 8 19 6 29 4 C38 2 45 0 45 0 L145 0 L153 0 L165 0 L285 0 C285 0 292 2 301 4 C311 6 318 8 318 8 L278 8 C208 8 167 29 194 138 L240 293 L492 293 L556 117 C587 26 557 8 503 8 L463 8 C463 8 470 6 479 4 C489 2 496 0 496 0 L598 0 L665 0 L774 0 L834 0 C834 0 840 2 850 4 C860 6 866 8 866 8 L824 8 C792 8 763 27 727 128 L726 128 L726 128 Z M353 993 C331 1030 314 1054 305 1054 C264 1054 230 1020 230 980 C230 970 252 950 284 925 L431 810 L450 829 L353 993 L353 993 Z M242 300 L353 679 L489 300 L242 300 L242 300 Z " />
<glyph glyph-name="Aacute" unicode="&#xc1;" horiz-adv-x="868" d="M440 810 L587 925 C619 951 641 971 641 980 C641 1020 607 1054 566 1054 C559 1054 541 1030 519 993 L421 829 L440 810 L440 810 Z M726 128 L725 128 L514 697 L487 770 L472 770 C446 733 396 704 346 697 L350 686 L192 158 L192 158 C155 32 111 8 55 8 L12 8 C12 8 19 6 29 4 C38 2 45 0 45 0 L145 0 L153 0 L165 0 L285 0 C285 0 292 2 301 4 C311 6 318 8 318 8 L278 8 C208 8 167 29 194 138 L240 293 L492 293 L556 117 C587 26 557 8 503 8 L463 8 C463 8 470 6 479 4 C489 2 496 0 496 0 L598 0 L665 0 L774 0 L834 0 C834 0 840 2 850 4 C860 6 866 8 866 8 L824 8 C792 8 763 27 727 128 L726 128 L726 128 Z M242 300 L353 679 L489 300 L242 300 L242 300 Z " />
<glyph glyph-name="Acircumflex" unicode="&#xc2;" horiz-adv-x="868" d="M726 128 L725 128 L514 697 L487 770 L472 770 C446 733 396 704 346 697 L350 686 L192 158 L192 158 C155 32 111 8 55 8 L12 8 C12 8 19 6 29 4 C38 2 45 0 45 0 L145 0 L153 0 L165 0 L285 0 C285 0 292 2 301 4 C311 6 318 8 318 8 L278 8 C208 8 167 29 194 138 L240 293 L492 293 L556 117 C587 26 557 8 503 8 L463 8 C463 8 470 6 479 4 C489 2 496 0 496 0 L598 0 L665 0 L774 0 L834 0 C834 0 840 2 850 4 C860 6 866 8 866 8 L824 8 C792 8 763 27 727 128 L726 128 L726 128 Z M431 897 L568 803 L588 820 L484 985 C474 1001 448 1039 431 1039 C414 1039 388 1002 378 986 L274 820 L294 803 L431 897 L431 897 Z M242 300 L353 679 L489 300 L242 300 L242 300 Z " />
<glyph glyph-name="Atilde" unicode="&#xc3;" horiz-adv-x="868" d="M265 870 C265 899 284 919 313 919 C377 919 440 854 504 854 C561 854 599 920 599 1019 L595 1019 C595 983 572 959 538 959 C474 959 411 1024 348 1024 C296 1024 261 962 261 870 L265 870 L265 870 Z M726 128 L725 128 L514 697 L487 770 L472 770 C446 733 396 704 346 697 L350 686 L192 158 L192 158 C155 32 111 8 55 8 L12 8 C12 8 19 6 29 4 C38 2 45 0 45 0 L145 0 L153 0 L165 0 L285 0 C285 0 292 2 301 4 C311 6 318 8 318 8 L278 8 C208 8 167 29 194 138 L240 293 L492 293 L556 117 C587 26 557 8 503 8 L463 8 C463 8 470 6 479 4 C489 2 496 0 496 0 L598 0 L665 0 L774 0 L834 0 C834 0 840 2 850 4 C860 6 866 8 866 8 L824 8 C792 8 763 27 727 128 L726 128 L726 128 Z M242 300 L353 679 L489 300 L242 300 L242 300 Z " />
<glyph glyph-name="Adieresis" unicode="&#xc4;" horiz-adv-x="868" d="M521 865 C569 865 601 897 601 945 C601 993 569 1025 521 1025 C473 1025 441 993 441 945 C441 897 473 865 521 865 L521 865 Z M339 865 C387 865 419 897 419 945 C419 993 387 1025 339 1025 C291 1025 259 993 259 945 C259 897 291 865 339 865 L339 865 Z M726 128 L725 128 L514 697 L487 770 L472 770 C446 733 396 704 346 697 L350 686 L192 158 L192 158 C155 32 111 8 55 8 L12 8 C12 8 19 6 29 4 C38 2 45 0 45 0 L145 0 L153 0 L165 0 L285 0 C285 0 292 2 301 4 C311 6 318 8 318 8 L278 8 C208 8 167 29 194 138 L240 293 L492 293 L556 117 C587 26 557 8 503 8 L463 8 C463 8 470 6 479 4 C489 2 496 0 496 0 L598 0 L665 0 L774 0 L834 0 C834 0 840 2 850 4 C860 6 866 8 866 8 L824 8 C792 8 763 27 727 128 L726 128 L726 128 Z M242 300 L353 679 L489 300 L242 300 L242 300 Z " />
<glyph glyph-name="Aring" unicode="&#xc5;" horiz-adv-x="868" d="M430 845 C400 845 375 873 375 905 C375 941 397 965 430 965 C463 965 485 941 485 905 C485 873 460 845 430 845 L430 845 Z M331 905 C331 854 377 810 430 810 C483 810 529 854 529 905 C529 962 489 1000 430 1000 C371 1000 331 962 331 905 L331 905 Z M726 128 L725 128 L514 697 L487 770 L472 770 C446 733 396 704 346 697 L350 686 L192 158 L192 158 C155 32 111 8 55 8 L12 8 C12 8 19 6 29 4 C38 2 45 0 45 0 L145 0 L153 0 L165 0 L285 0 C285 0 292 2 301 4 C311 6 318 8 318 8 L278 8 C208 8 167 29 194 138 L240 293 L492 293 L556 117 C587 26 557 8 503 8 L463 8 C463 8 470 6 479 4 C489 2 496 0 496 0 L598 0 L665 0 L774 0 L834 0 C834 0 840 2 850 4 C860 6 866 8 866 8 L824 8 C792 8 763 27 727 128 L726 128 L726 128 Z M242 300 L353 679 L489 300 L242 300 L242 300 Z " />
<glyph glyph-name="Egrave" unicode="&#xc8;" horiz-adv-x="734" d="M304 993 C283 1030 265 1054 256 1054 C216 1054 181 1020 181 980 C181 970 203 950 235 925 L383 810 L402 829 L304 993 L304 993 Z M672 124 L667 88 C660 38 639 5 555 5 L348 5 C301 5 296 24 296 52 L296 73 L296 385 L469 385 C553 385 569 346 569 287 L569 245 C569 245 571 259 573 280 C575 301 577 315 577 315 L577 385 L577 388 L577 391 L577 461 C577 461 575 475 573 496 C571 517 569 531 569 531 L569 489 C569 430 553 391 469 391 L296 391 L296 677 L296 745 L530 745 C630 745 632 707 636 650 L639 624 C639 629 640 638 641 650 C642 669 643 681 643 681 C642 691 641 705 640 715 C640 725 639 739 638 749 L530 749 L297 749 L187 749 L129 749 L77 749 C77 749 66 747 50 745 C35 743 24 741 24 741 L66 741 C104 741 129 731 129 676 L129 72 C129 17 104 7 66 7 L24 7 C24 7 35 5 50 3 C66 1 77 -1 77 -1 L129 -1 L187 -1 L297 -1 L555 -1 L663 -1 C664 9 666 23 668 33 C669 43 671 57 673 67 L673 98 C673 109 673 118 673 123 L672 124 L672 124 Z M673 123 C673 127 673 129 673 129 L673 123 L673 123 Z M639 623 L639 619 C639 619 639 620 639 623 L639 623 Z " />
<glyph glyph-name="Eacute" unicode="&#xc9;" horiz-adv-x="734" d="M392 810 L540 925 C572 951 594 971 594 980 C594 1020 559 1054 519 1054 C511 1054 493 1030 471 993 L374 829 L392 810 L392 810 Z M672 124 L667 88 C660 38 639 5 555 5 L348 5 C301 5 296 24 296 52 L296 73 L296 385 L469 385 C553 385 569 346 569 287 L569 245 C569 245 571 259 573 280 C575 301 577 315 577 315 L577 385 L577 388 L577 391 L577 461 C577 461 575 475 573 496 C571 517 569 531 569 531 L569 489 C569 430 553 391 469 391 L296 391 L296 677 L296 745 L530 745 C630 745 632 707 636 650 L639 624 C639 629 640 638 641 650 C642 669 643 681 643 681 C642 691 641 705 640 715 C640 725 639 739 638 749 L530 749 L297 749 L187 749 L129 749 L77 749 C77 749 66 747 50 745 C35 743 24 741 24 741 L66 741 C104 741 129 731 129 676 L129 72 C129 17 104 7 66 7 L24 7 C24 7 35 5 50 3 C66 1 77 -1 77 -1 L129 -1 L187 -1 L297 -1 L555 -1 L663 -1 C664 9 666 23 668 33 C669 43 671 57 673 67 L673 98 C673 109 673 118 673 123 L672 124 L672 124 Z M673 123 C673 127 673 129 673 129 L673 123 L673 123 Z M639 623 L639 619 C639 619 639 620 639 623 L639 623 Z " />
<glyph glyph-name="Ecircumflex" unicode="&#xca;" horiz-adv-x="734" d="M382 897 L519 803 L540 820 L436 985 C426 1001 400 1039 383 1039 C365 1039 340 1002 330 986 L225 820 L246 803 L382 897 L382 897 Z M672 124 L667 88 C660 38 639 5 555 5 L348 5 C301 5 296 24 296 52 L296 73 L296 385 L469 385 C553 385 569 346 569 287 L569 245 C569 245 571 259 573 280 C575 301 577 315 577 315 L577 385 L577 388 L577 391 L577 461 C577 461 575 475 573 496 C571 517 569 531 569 531 L569 489 C569 430 553 391 469 391 L296 391 L296 677 L296 745 L530 745 C630 745 632 707 636 650 L639 624 C639 629 640 638 641 650 C642 669 643 681 643 681 C642 691 641 705 640 715 C640 725 639 739 638 749 L530 749 L297 749 L187 749 L129 749 L77 749 C77 749 66 747 50 745 C35 743 24 741 24 741 L66 741 C104 741 129 731 129 676 L129 72 C129 17 104 7 66 7 L24 7 C24 7 35 5 50 3 C66 1 77 -1 77 -1 L129 -1 L187 -1 L297 -1 L555 -1 L663 -1 C664 9 666 23 668 33 C669 43 671 57 673 67 L673 98 C673 109 673 118 673 123 L672 124 L672 124 Z M673 123 C673 127 673 129 673 129 L673 123 L673 123 Z M639 623 L639 619 C639 619 639 620 639 623 L639 623 Z " />
<glyph glyph-name="Edieresis" unicode="&#xcb;" horiz-adv-x="734" d="M473 865 C521 865 553 897 553 945 C553 993 521 1025 473 1025 C425 1025 393 993 393 945 C393 897 425 865 473 865 L473 865 Z M292 865 C340 865 372 897 372 945 C372 993 340 1025 292 1025 C244 1025 212 993 212 945 C212 897 244 865 292 865 L292 865 Z M672 124 L667 88 C660 38 639 5 555 5 L348 5 C301 5 296 24 296 52 L296 73 L296 385 L469 385 C553 385 569 346 569 287 L569 245 C569 245 571 259 573 280 C575 301 577 315 577 315 L577 385 L577 388 L577 391 L577 461 C577 461 575 475 573 496 C571 517 569 531 569 531 L569 489 C569 430 553 391 469 391 L296 391 L296 677 L296 745 L530 745 C630 745 632 707 636 650 L639 624 C639 629 640 638 641 650 C642 669 643 681 643 681 C642 691 641 705 640 715 C640 725 639 739 638 749 L530 749 L297 749 L187 749 L129 749 L77 749 C77 749 66 747 50 745 C35 743 24 741 24 741 L66 741 C104 741 129 731 129 676 L129 72 C129 17 104 7 66 7 L24 7 C24 7 35 5 50 3 C66 1 77 -1 77 -1 L129 -1 L187 -1 L297 -1 L555 -1 L663 -1 C664 9 666 23 668 33 C669 43 671 57 673 67 L673 98 C673 109 673 118 673 123 L672 124 L672 124 Z M673 123 C673 127 673 129 673 129 L673 123 L673 123 Z M639 623 L639 619 C639 619 639 620 639 623 L639 623 Z " />
<glyph glyph-name="Igrave" unicode="&#xcc;" horiz-adv-x="418" d="M111 993 C90 1030 73 1054 64 1054 C23 1054 -11 1020 -11 980 C-11 970 11 950 43 925 L190 810 L209 829 L111 993 L111 993 Z M274 68 L274 682 C274 732 299 742 337 742 L379 742 C379 742 368 744 353 746 C337 748 326 750 326 750 L190 750 L54 750 C54 750 43 748 27 746 C12 744 1 742 1 742 L43 742 C81 742 106 732 106 682 L106 68 C106 18 81 8 43 8 L1 8 C1 8 12 6 27 4 C43 2 54 0 54 0 L190 0 L326 0 C326 0 337 2 353 4 C368 6 379 8 379 8 L337 8 C299 8 274 18 274 68 L274 68 Z " />
<glyph glyph-name="Iacute" unicode="&#xcd;" horiz-adv-x="418" d="M200 810 L347 925 C379 951 401 971 401 980 C401 1020 367 1054 326 1054 C319 1054 301 1030 279 993 L181 829 L200 810 L200 810 Z M274 68 L274 682 C274 732 299 742 337 742 L379 742 C379 742 368 744 353 746 C337 748 326 750 326 750 L190 750 L54 750 C54 750 43 748 27 746 C12 744 1 742 1 742 L43 742 C81 742 106 732 106 682 L106 68 C106 18 81 8 43 8 L1 8 C1 8 12 6 27 4 C43 2 54 0 54 0 L190 0 L326 0 C326 0 337 2 353 4 C368 6 379 8 379 8 L337 8 C299 8 274 18 274 68 L274 68 Z " />
<glyph glyph-name="Icircumflex" unicode="&#xce;" horiz-adv-x="418" d="M190 897 L327 803 L347 820 L243 985 C233 1001 207 1039 190 1039 C173 1039 147 1002 137 986 L33 820 L53 803 L190 897 L190 897 Z M274 68 L274 682 C274 732 299 742 337 742 L379 742 C379 742 368 744 353 746 C337 748 326 750 326 750 L190 750 L54 750 C54 750 43 748 27 746 C12 744 1 742 1 742 L43 742 C81 742 106 732 106 682 L106 68 C106 18 81 8 43 8 L1 8 C1 8 12 6 27 4 C43 2 54 0 54 0 L190 0 L326 0 C326 0 337 2 353 4 C368 6 379 8 379 8 L337 8 C299 8 274 18 274 68 L274 68 Z " />
<glyph glyph-name="Idieresis" unicode="&#xcf;" horiz-adv-x="418" d="M281 865 C329 865 361 897 361 945 C361 993 329 1025 281 1025 C233 1025 201 993 201 945 C201 897 233 865 281 865 L281 865 Z M99 865 C147 865 179 897 179 945 C179 993 147 1025 99 1025 C51 1025 19 993 19 945 C19 897 51 865 99 865 L99 865 Z M274 68 L274 682 C274 732 299 742 337 742 L379 742 C379 742 368 744 353 746 C337 748 326 750 326 750 L190 750 L54 750 C54 750 43 748 27 746 C12 744 1 742 1 742 L43 742 C81 742 106 732 106 682 L106 68 C106 18 81 8 43 8 L1 8 C1 8 12 6 27 4 C43 2 54 0 54 0 L190 0 L326 0 C326 0 337 2 353 4 C368 6 379 8 379 8 L337 8 C299 8 274 18 274 68 L274 68 Z " />
<glyph glyph-name="Ntilde" unicode="&#xd1;" horiz-adv-x="854" d="M256 870 C256 899 275 919 304 919 C368 919 431 854 495 854 C552 854 590 920 590 1019 L586 1019 C586 983 563 959 529 959 C465 959 402 1024 339 1024 C287 1024 252 962 252 870 L256 870 L256 870 Z M182 128 L182 128 L178 555 L455 238 L664 0 L697 0 L708 662 C712 729 744 742 791 742 L833 742 C833 742 820 744 802 746 C783 748 770 750 770 750 L710 750 L684 750 L659 750 L597 750 C597 750 585 748 566 746 C547 744 535 742 535 742 L577 742 C624 742 656 727 660 653 L663 259 L585 345 L217 749 L177 749 L136 749 L100 749 L9 749 L-17 749 C-17 749 -24 747 -33 745 C-43 743 -50 741 -50 741 L8 741 C12 741 20 735 46 706 L46 706 L135 604 L133 118 C129 25 97 6 51 6 L8 6 C8 6 15 4 25 2 C34 0 41 -2 41 -2 L133 -2 L159 -2 L184 -2 L276 -2 C276 -2 283 0 292 2 C302 4 309 6 309 6 L266 6 C216 6 182 25 183 126 L182 128 L182 128 Z " />
<glyph glyph-name="Ograve" unicode="&#xd2;" horiz-adv-x="973" d="M460 -3 C317 -3 221 148 221 375 C221 602 320 753 467 753 C623 753 726 602 726 375 C726 148 620 -3 460 -3 L460 -3 Z M29 375 C29 144 201 -10 459 -10 C734 -10 918 144 918 375 C918 606 738 760 469 760 C205 760 29 606 29 375 L29 375 Z M390 993 C369 1030 351 1054 342 1054 C302 1054 267 1020 267 980 C267 970 289 950 321 925 L469 810 L488 829 L390 993 L390 993 Z " />
<glyph glyph-name="Oacute" unicode="&#xd3;" horiz-adv-x="973" d="M478 810 L626 925 C658 951 680 971 680 980 C680 1020 645 1054 605 1054 C597 1054 579 1030 557 993 L460 829 L478 810 L478 810 Z M460 -3 C317 -3 221 148 221 375 C221 602 320 753 467 753 C623 753 726 602 726 375 C726 148 620 -3 460 -3 L460 -3 Z M29 375 C29 144 201 -10 459 -10 C734 -10 918 144 918 375 C918 606 738 760 469 760 C205 760 29 606 29 375 L29 375 Z " />
<glyph glyph-name="Ocircumflex" unicode="&#xd4;" horiz-adv-x="973" d="M460 -3 C317 -3 221 148 221 375 C221 602 320 753 467 753 C623 753 726 602 726 375 C726 148 620 -3 460 -3 L460 -3 Z M29 375 C29 144 201 -10 459 -10 C734 -10 918 144 918 375 C918 606 738 760 469 760 C205 760 29 606 29 375 L29 375 Z M468 897 L605 803 L626 820 L522 985 C512 1001 486 1039 469 1039 C451 1039 426 1002 416 986 L311 820 L332 803 L468 897 L468 897 Z " />
<glyph glyph-name="Otilde" unicode="&#xd5;" horiz-adv-x="973" d="M304 870 C304 899 323 919 352 919 C416 919 479 854 542 854 C599 854 637 920 637 1019 L633 1019 C633 983 610 959 577 959 C513 959 450 1024 386 1024 C334 1024 300 962 300 870 L304 870 L304 870 Z M460 -3 C317 -3 221 148 221 375 C221 602 320 753 467 753 C623 753 726 602 726 375 C726 148 620 -3 460 -3 L460 -3 Z M29 375 C29 144 201 -10 459 -10 C734 -10 918 144 918 375 C918 606 738 760 469 760 C205 760 29 606 29 375 L29 375 Z " />
<glyph glyph-name="Odieresis" unicode="&#xd6;" horiz-adv-x="973" d="M559 865 C607 865 639 897 639 945 C639 993 607 1025 559 1025 C511 1025 479 993 479 945 C479 897 511 865 559 865 L559 865 Z M378 865 C426 865 458 897 458 945 C458 993 426 1025 378 1025 C330 1025 298 993 298 945 C298 897 330 865 378 865 L378 865 Z M460 -3 C317 -3 221 148 221 375 C221 602 320 753 467 753 C623 753 726 602 726 375 C726 148 620 -3 460 -3 L460 -3 Z M29 375 C29 144 201 -10 459 -10 C734 -10 918 144 918 375 C918 606 738 760 469 760 C205 760 29 606 29 375 L29 375 Z " />
<glyph glyph-name="Oslash" unicode="&#xd8;" horiz-adv-x="973" d="M33 -14 L154 90 C229 26 334 -10 459 -10 C734 -10 918 144 918 375 C918 488 875 583 799 650 L922 756 L914 764 L791 657 C713 722 602 759 470 759 C206 759 30 605 30 374 C30 260 72 165 146 98 L26 -6 L33 -14 L33 -14 Z M461 -3 C366 -3 292 64 253 175 L699 562 C717 508 727 445 727 375 C727 148 621 -3 461 -3 L461 -3 Z M249 187 C232 241 223 304 223 375 C223 602 322 753 469 753 C573 753 654 686 696 574 L249 187 L249 187 Z " />
<glyph glyph-name="Ugrave" unicode="&#xd9;" horiz-adv-x="900" d="M361 993 C339 1030 322 1054 313 1054 C273 1054 238 1020 238 980 C238 970 260 950 292 925 L440 810 L458 829 L361 993 L361 993 Z M786 98 L786 677 L786 750 L676 750 L566 750 C566 750 555 748 539 746 C524 744 513 742 513 742 L555 742 C593 742 618 732 618 677 L618 219 C584 146 510 98 432 98 C329 98 261 149 261 226 L261 677 L261 750 L151 750 L41 750 C41 750 30 748 14 746 C-1 744 -12 742 -12 742 L30 742 C68 742 93 732 93 677 L93 226 C93 85 201 -10 364 -10 C473 -10 575 51 618 143 L618 98 L618 0 L644 0 L890 49 L890 53 C803 48 786 54 786 98 L786 98 Z " />
<glyph glyph-name="Uacute" unicode="&#xda;" horiz-adv-x="900" d="M449 810 L597 925 C629 951 650 971 650 980 C650 1020 616 1054 576 1054 C568 1054 550 1030 528 993 L430 829 L449 810 L449 810 Z M786 98 L786 677 L786 750 L676 750 L566 750 C566 750 555 748 539 746 C524 744 513 742 513 742 L555 742 C593 742 618 732 618 677 L618 219 C584 146 510 98 432 98 C329 98 261 149 261 226 L261 677 L261 750 L151 750 L41 750 C41 750 30 748 14 746 C-1 744 -12 742 -12 742 L30 742 C68 742 93 732 93 677 L93 226 C93 85 201 -10 364 -10 C473 -10 575 51 618 143 L618 98 L618 0 L644 0 L890 49 L890 53 C803 48 786 54 786 98 L786 98 Z " />
<glyph glyph-name="Ucircumflex" unicode="&#xdb;" horiz-adv-x="900" d="M439 897 L576 803 L597 820 L493 985 C482 1001 457 1039 439 1039 C422 1039 397 1002 387 986 L282 820 L302 803 L439 897 L439 897 Z M786 98 L786 677 L786 750 L676 750 L566 750 C566 750 555 748 539 746 C524 744 513 742 513 742 L555 742 C593 742 618 732 618 677 L618 219 C584 146 510 98 432 98 C329 98 261 149 261 226 L261 677 L261 750 L151 750 L41 750 C41 750 30 748 14 746 C-1 744 -12 742 -12 742 L30 742 C68 742 93 732 93 677 L93 226 C93 85 201 -10 364 -10 C473 -10 575 51 618 143 L618 98 L618 0 L644 0 L890 49 L890 53 C803 48 786 54 786 98 L786 98 Z " />
<glyph glyph-name="Udieresis" unicode="&#xdc;" horiz-adv-x="900" d="M530 865 C578 865 610 897 610 945 C610 993 578 1025 530 1025 C482 1025 450 993 450 945 C450 897 482 865 530 865 L530 865 Z M349 865 C397 865 429 897 429 945 C429 993 397 1025 349 1025 C301 1025 269 993 269 945 C269 897 301 865 349 865 L349 865 Z M786 98 L786 677 L786 750 L676 750 L566 750 C566 750 555 748 539 746 C524 744 513 742 513 742 L555 742 C593 742 618 732 618 677 L618 219 C584 146 510 98 432 98 C329 98 261 149 261 226 L261 677 L261 750 L151 750 L41 750 C41 750 30 748 14 746 C-1 744 -12 742 -12 742 L30 742 C68 742 93 732 93 677 L93 226 C93 85 201 -10 364 -10 C473 -10 575 51 618 143 L618 98 L618 0 L644 0 L890 49 L890 53 C803 48 786 54 786 98 L786 98 Z " />
<glyph glyph-name="Yacute" unicode="&#xdd;" horiz-adv-x="833" d="M438 810 L585 925 C618 951 639 971 639 980 C639 1020 605 1054 565 1054 C557 1054 539 1030 517 993 L419 829 L438 810 L438 810 Z M327 622 L327 622 L327 622 L316 638 C261 724 275 741 312 741 L349 741 C349 741 343 743 333 745 C323 747 317 749 317 749 L244 749 L168 749 L47 749 L19 749 C19 749 13 747 3 745 C-7 743 -13 741 -13 741 L44 741 C49 741 65 722 133 621 L133 621 L345 307 L345 67 C345 17 320 7 283 7 L240 7 C240 7 251 5 267 3 C282 1 293 -1 293 -1 L429 -1 L566 -1 C566 -1 576 1 592 3 C608 5 618 7 618 7 L576 7 C538 7 513 17 513 67 L513 335 L683 639 C733 724 759 741 782 741 L825 741 C825 741 818 743 808 745 C799 747 792 749 792 749 L744 749 L731 749 L726 749 L659 749 C659 749 652 747 643 745 C633 743 626 741 626 741 L665 741 C699 741 715 727 682 660 L509 343 L327 622 L327 622 Z " />
<glyph glyph-name="agrave" unicode="&#xe0;" horiz-adv-x="589" d="M159 743 C138 780 121 804 112 804 C71 804 37 770 37 730 C37 720 59 700 91 675 L238 560 L257 579 L159 743 L159 743 Z M360 57 L360 -10 L386 -10 L552 31 C552 31 561 35 573 41 C586 46 595 50 595 50 L552 39 C527 33 510 45 510 128 L510 450 L510 510 L492 510 L399 468 C360 494 304 510 237 510 C100 510 29 405 29 247 C29 96 104 -5 217 -5 C272 -5 327 19 359 56 L360 57 L360 57 Z M359 403 L359 108 C334 76 303 56 279 56 C221 56 182 148 182 287 C182 394 207 465 255 465 C305 465 343 439 359 403 L359 403 Z " />
<glyph glyph-name="aacute" unicode="&#xe1;" horiz-adv-x="589" d="M248 560 L395 675 C427 701 449 721 449 730 C449 770 415 804 374 804 C366 804 348 780 326 743 L229 579 L248 560 L248 560 Z M360 57 L360 -10 L386 -10 L552 31 C552 31 561 35 573 41 C586 46 595 50 595 50 L552 39 C527 33 510 45 510 128 L510 450 L510 510 L492 510 L399 468 C360 494 304 510 237 510 C100 510 29 405 29 247 C29 96 104 -5 217 -5 C272 -5 327 19 359 56 L360 57 L360 57 Z M359 403 L359 108 C334 76 303 56 279 56 C221 56 182 148 182 287 C182 394 207 465 255 465 C305 465 343 439 359 403 L359 403 Z " />
<glyph glyph-name="acircumflex" unicode="&#xe2;" horiz-adv-x="589" d="M238 647 L375 553 L395 570 L291 735 C281 751 255 789 238 789 C221 789 195 752 185 736 L81 570 L101 553 L238 647 L238 647 Z M360 57 L360 -10 L386 -10 L552 31 C552 31 561 35 573 41 C586 46 595 50 595 50 L552 39 C527 33 510 45 510 128 L510 450 L510 510 L492 510 L399 468 C360 494 304 510 237 510 C100 510 29 405 29 247 C29 96 104 -5 217 -5 C272 -5 327 19 359 56 L360 57 L360 57 Z M359 403 L359 108 C334 76 303 56 279 56 C221 56 182 148 182 287 C182 394 207 465 255 465 C305 465 343 439 359 403 L359 403 Z " />
<glyph glyph-name="atilde" unicode="&#xe3;" horiz-adv-x="589" d="M73 620 C73 649 92 669 121 669 C185 669 248 604 312 604 C369 604 407 670 407 769 L403 769 C403 733 380 709 346 709 C282 709 219 774 156 774 C104 774 69 712 69 620 L73 620 L73 620 Z M360 57 L360 -10 L386 -10 L552 31 C552 31 561 35 573 41 C586 46 595 50 595 50 L552 39 C527 33 510 45 510 128 L510 450 L510 510 L492 510 L399 468 C360 494 304 510 237 510 C100 510 29 405 29 247 C29 96 104 -5 217 -5 C272 -5 327 19 359 56 L360 57 L360 57 Z M359 403 L359 108 C334 76 303 56 279 56 C221 56 182 148 182 287 C182 394 207 465 255 465 C305 465 343 439 359 403 L359 403 Z " />
<glyph glyph-name="adieresis" unicode="&#xe4;" horiz-adv-x="589" d="M329 615 C377 615 409 647 409 695 C409 743 377 775 329 775 C281 775 249 743 249 695 C249 647 281 615 329 615 L329 615 Z M147 615 C195 615 227 647 227 695 C227 743 195 775 147 775 C99 775 67 743 67 695 C67 647 99 615 147 615 L147 615 Z M360 57 L360 -10 L386 -10 L552 31 C552 31 561 35 573 41 C586 46 595 50 595 50 L552 39 C527 33 510 45 510 128 L510 450 L510 510 L492 510 L399 468 C360 494 304 510 237 510 C100 510 29 405 29 247 C29 96 104 -5 217 -5 C272 -5 327 19 359 56 L360 57 L360 57 Z M359 403 L359 108 C334 76 303 56 279 56 C221 56 182 148 182 287 C182 394 207 465 255 465 C305 465 343 439 359 403 L359 403 Z " />
<glyph glyph-name="aring" unicode="&#xe5;" horiz-adv-x="589" d="M238 595 C208 595 183 623 183 655 C183 691 205 715 238 715 C271 715 293 691 293 655 C293 623 268 595 238 595 L238 595 Z M139 655 C139 604 185 560 238 560 C291 560 337 604 337 655 C337 712 297 750 238 750 C179 750 139 712 139 655 L139 655 Z M360 57 L360 -10 L386 -10 L552 31 C552 31 561 35 573 41 C586 46 595 50 595 50 L552 39 C527 33 510 45 510 128 L510 450 L510 510 L492 510 L399 468 C360 494 304 510 237 510 C100 510 29 405 29 247 C29 96 104 -5 217 -5 C272 -5 327 19 359 56 L360 57 L360 57 Z M359 403 L359 108 C334 76 303 56 279 56 C221 56 182 148 182 287 C182 394 207 465 255 465 C305 465 343 439 359 403 L359 403 Z " />
<glyph glyph-name="egrave" unicode="&#xe8;" horiz-adv-x="578" d="M234 743 C213 780 196 804 187 804 C146 804 112 770 112 730 C112 720 133 700 166 675 L313 560 L332 579 L234 743 L234 743 Z M186 340 L383 340 L507 340 L549 340 C527 462 436 510 313 510 C139 510 23 396 23 225 C23 84 128 -10 286 -10 C405 -10 504 46 535 130 L517 137 C507 108 429 89 322 89 C238 89 182 168 182 286 C182 305 183 323 186 340 L186 340 Z M483 383 C491 383 499 383 507 383 L483 383 L483 383 Z M375 379 L194 374 C213 437 253 475 305 475 C333 475 358 448 375 380 L375 379 L375 379 Z " />
<glyph glyph-name="eacute" unicode="&#xe9;" horiz-adv-x="578" d="M322 560 L470 675 C502 701 524 721 524 730 C524 770 489 804 449 804 C441 804 423 780 401 743 L304 579 L322 560 L322 560 Z M186 340 L383 340 L507 340 L549 340 C527 462 436 510 313 510 C139 510 23 396 23 225 C23 84 128 -10 286 -10 C405 -10 504 46 535 130 L517 137 C507 108 429 89 322 89 C238 89 182 168 182 286 C182 305 183 323 186 340 L186 340 Z M483 383 C491 383 499 383 507 383 L483 383 L483 383 Z M375 379 L194 374 C213 437 253 475 305 475 C333 475 358 448 375 380 L375 379 L375 379 Z " />
<glyph glyph-name="ecircumflex" unicode="&#xea;" horiz-adv-x="578" d="M313 647 L450 553 L470 570 L366 735 C356 751 330 789 313 789 C295 789 270 752 260 736 L156 570 L176 553 L313 647 L313 647 Z M186 340 L383 340 L507 340 L549 340 C527 462 436 510 313 510 C139 510 23 396 23 225 C23 84 128 -10 286 -10 C405 -10 504 46 535 130 L517 137 C507 108 429 89 322 89 C238 89 182 168 182 286 C182 305 183 323 186 340 L186 340 Z M483 383 C491 383 499 383 507 383 L483 383 L483 383 Z M375 379 L194 374 C213 437 253 475 305 475 C333 475 358 448 375 380 L375 379 L375 379 Z " />
<glyph glyph-name="edieresis" unicode="&#xeb;" horiz-adv-x="578" d="M403 615 C451 615 483 647 483 695 C483 743 451 775 403 775 C355 775 323 743 323 695 C323 647 355 615 403 615 L403 615 Z M222 615 C270 615 302 647 302 695 C302 743 270 775 222 775 C174 775 142 743 142 695 C142 647 174 615 222 615 L222 615 Z M186 340 L383 340 L507 340 L549 340 C527 462 436 510 313 510 C139 510 23 396 23 225 C23 84 128 -10 286 -10 C405 -10 504 46 535 130 L517 137 C507 108 429 89 322 89 C238 89 182 168 182 286 C182 305 183 323 186 340 L186 340 Z M483 383 C491 383 499 383 507 383 L483 383 L483 383 Z M375 379 L194 374 C213 437 253 475 305 475 C333 475 358 448 375 380 L375 379 L375 379 Z " />
<glyph glyph-name="igrave" unicode="&#xec;" horiz-adv-x="358" d="M95 743 C74 780 56 804 47 804 C7 804 -28 770 -28 730 C-28 720 -6 700 26 675 L174 560 L193 579 L95 743 L95 743 Z M249 23 L249 396 L249 500 L222 500 L17 445 L17 441 C86 444 99 439 99 396 L99 23 C99 10 84 8 61 8 L19 8 C19 8 27 6 39 4 C51 2 59 0 59 0 L174 0 L290 0 C290 0 298 2 311 4 C324 6 332 8 332 8 L289 8 C265 8 249 10 249 23 L249 23 Z " />
<glyph glyph-name="iacute" unicode="&#xed;" horiz-adv-x="358" d="M95 743 C74 780 56 804 47 804 C7 804 -28 770 -28 730 C-28 720 -6 700 26 675 L174 560 L193 579 L95 743 L95 743 Z M249 23 L249 396 L249 500 L222 500 L17 445 L17 441 C86 444 99 439 99 396 L99 23 C99 10 84 8 61 8 L19 8 C19 8 27 6 39 4 C51 2 59 0 59 0 L174 0 L290 0 C290 0 298 2 311 4 C324 6 332 8 332 8 L289 8 C265 8 249 10 249 23 L249 23 Z " />
<glyph glyph-name="icircumflex" unicode="&#xee;" horiz-adv-x="358" d="M173 647 L310 553 L331 570 L227 735 C217 751 191 789 174 789 C156 789 131 752 121 736 L16 570 L37 553 L173 647 L173 647 Z M249 23 L249 396 L249 500 L222 500 L17 445 L17 441 C86 444 99 439 99 396 L99 23 C99 10 84 8 61 8 L19 8 C19 8 27 6 39 4 C51 2 59 0 59 0 L174 0 L290 0 C290 0 298 2 311 4 C324 6 332 8 332 8 L289 8 C265 8 249 10 249 23 L249 23 Z " />
<glyph glyph-name="idieresis" unicode="&#xef;" horiz-adv-x="358" d="M264 615 C312 615 344 647 344 695 C344 743 312 775 264 775 C216 775 184 743 184 695 C184 647 216 615 264 615 L264 615 Z M83 615 C131 615 163 647 163 695 C163 743 131 775 83 775 C35 775 3 743 3 695 C3 647 35 615 83 615 L83 615 Z M249 23 L249 396 L249 500 L222 500 L17 445 L17 441 C86 444 99 439 99 396 L99 23 C99 10 84 8 61 8 L19 8 C19 8 27 6 39 4 C51 2 59 0 59 0 L174 0 L290 0 C290 0 298 2 311 4 C324 6 332 8 332 8 L289 8 C265 8 249 10 249 23 L249 23 Z " />
<glyph glyph-name="ntilde" unicode="&#xf1;" horiz-adv-x="708" d="M181 620 C181 649 200 669 229 669 C293 669 355 604 419 604 C476 604 514 670 514 769 L510 769 C510 733 487 709 454 709 C390 709 327 774 263 774 C211 774 177 712 177 620 L181 620 L181 620 Z M448 23 C448 10 433 8 411 8 L368 8 C368 8 376 6 388 4 C400 2 408 0 408 0 L523 0 L638 0 C638 0 646 2 658 4 C670 6 678 8 678 8 L636 8 C613 8 598 10 598 23 L598 257 C598 409 544 510 438 510 C376 510 298 465 243 397 L243 437 L243 500 L216 500 L50 440 C50 440 42 435 29 428 C16 421 8 416 8 416 L50 432 C76 441 93 438 93 392 L93 23 C93 10 78 8 55 8 L13 8 C13 8 21 6 33 4 C45 2 53 0 53 0 L168 0 L283 0 C283 0 291 2 303 4 C315 6 323 8 323 8 L280 8 C258 8 243 10 243 23 L243 376 C275 414 336 440 397 440 C431 440 448 367 448 257 L448 23 L448 23 Z " />
<glyph glyph-name="ograve" unicode="&#xf2;" horiz-adv-x="640" d="M309 -3 C236 -3 188 98 188 250 C188 402 236 503 309 503 C382 503 430 402 430 250 C430 98 382 -3 309 -3 L309 -3 Z M23 250 C23 94 137 -10 309 -10 C481 -10 595 94 595 250 C595 406 481 510 309 510 C137 510 23 406 23 250 L23 250 Z M230 743 C209 780 192 804 183 804 C142 804 108 770 108 730 C108 720 130 700 162 675 L309 560 L328 579 L230 743 L230 743 Z " />
<glyph glyph-name="oacute" unicode="&#xf3;" horiz-adv-x="640" d="M319 560 L466 675 C498 701 520 721 520 730 C520 770 486 804 445 804 C437 804 419 780 397 743 L300 579 L319 560 L319 560 Z M309 -3 C236 -3 188 98 188 250 C188 402 236 503 309 503 C382 503 430 402 430 250 C430 98 382 -3 309 -3 L309 -3 Z M23 250 C23 94 137 -10 309 -10 C481 -10 595 94 595 250 C595 406 481 510 309 510 C137 510 23 406 23 250 L23 250 Z " />
<glyph glyph-name="ocircumflex" unicode="&#xf4;" horiz-adv-x="640" d="M309 -3 C236 -3 188 98 188 250 C188 402 236 503 309 503 C382 503 430 402 430 250 C430 98 382 -3 309 -3 L309 -3 Z M23 250 C23 94 137 -10 309 -10 C481 -10 595 94 595 250 C595 406 481 510 309 510 C137 510 23 406 23 250 L23 250 Z M309 647 L446 553 L466 570 L362 735 C352 751 326 789 309 789 C292 789 266 752 256 736 L152 570 L172 553 L309 647 L309 647 Z " />
<glyph glyph-name="otilde" unicode="&#xf5;" horiz-adv-x="640" d="M144 620 C144 649 163 669 192 669 C256 669 319 604 383 604 C440 604 478 670 478 769 L474 769 C474 733 451 709 417 709 C353 709 290 774 227 774 C175 774 140 712 140 620 L144 620 L144 620 Z M309 -3 C236 -3 188 98 188 250 C188 402 236 503 309 503 C382 503 430 402 430 250 C430 98 382 -3 309 -3 L309 -3 Z M23 250 C23 94 137 -10 309 -10 C481 -10 595 94 595 250 C595 406 481 510 309 510 C137 510 23 406 23 250 L23 250 Z " />
<glyph glyph-name="odieresis" unicode="&#xf6;" horiz-adv-x="640" d="M400 615 C448 615 480 647 480 695 C480 743 448 775 400 775 C352 775 320 743 320 695 C320 647 352 615 400 615 L400 615 Z M218 615 C266 615 298 647 298 695 C298 743 266 775 218 775 C170 775 138 743 138 695 C138 647 170 615 218 615 L218 615 Z M309 -3 C236 -3 188 98 188 250 C188 402 236 503 309 503 C382 503 430 402 430 250 C430 98 382 -3 309 -3 L309 -3 Z M23 250 C23 94 137 -10 309 -10 C481 -10 595 94 595 250 C595 406 481 510 309 510 C137 510 23 406 23 250 L23 250 Z " />
<glyph glyph-name="oslash" unicode="&#xf8;" horiz-adv-x="640" d="M25 -13 L104 59 C154 15 224 -10 308 -10 C480 -10 594 94 594 250 C594 326 567 390 519 435 L598 506 L593 512 L514 440 C464 484 394 509 310 509 C138 509 24 405 24 249 C24 173 51 109 99 64 L20 -7 L25 -13 L25 -13 Z M309 -3 C255 -3 215 53 198 144 L423 348 C428 319 431 286 431 250 C431 98 383 -3 310 -3 L309 -3 L309 -3 Z M197 152 C192 181 189 214 189 250 C189 402 237 503 310 503 C364 503 404 447 421 356 L197 152 L197 152 Z " />
<glyph glyph-name="ugrave" unicode="&#xf9;" horiz-adv-x="700" d="M258 743 C236 780 219 804 210 804 C169 804 135 770 135 730 C135 720 157 700 189 675 L336 560 L355 579 L258 743 L258 743 Z M446 78 L446 -10 L472 -10 L638 31 C638 31 647 35 660 41 C672 46 681 50 681 50 L638 39 C613 33 596 42 596 108 L596 477 L596 500 L504 500 L413 500 C413 500 406 498 396 496 C386 494 380 492 380 492 L422 492 C436 492 446 490 446 477 L446 134 C428 109 380 94 320 94 C265 94 228 122 228 165 L228 477 L228 500 L136 500 L44 500 C44 500 38 498 28 496 C18 494 11 492 11 492 L54 492 C68 492 78 490 78 477 L78 165 C78 60 147 -10 250 -10 C334 -10 412 42 447 123 L446 78 L446 78 Z " />
<glyph glyph-name="uacute" unicode="&#xfa;" horiz-adv-x="700" d="M346 560 L493 675 C526 701 547 721 547 730 C547 770 513 804 472 804 C465 804 447 780 425 743 L327 579 L346 560 L346 560 Z M446 78 L446 -10 L472 -10 L638 31 C638 31 647 35 660 41 C672 46 681 50 681 50 L638 39 C613 33 596 42 596 108 L596 477 L596 500 L504 500 L413 500 C413 500 406 498 396 496 C386 494 380 492 380 492 L422 492 C436 492 446 490 446 477 L446 134 C428 109 380 94 320 94 C265 94 228 122 228 165 L228 477 L228 500 L136 500 L44 500 C44 500 38 498 28 496 C18 494 11 492 11 492 L54 492 C68 492 78 490 78 477 L78 165 C78 60 147 -10 250 -10 C334 -10 412 42 447 123 L446 78 L446 78 Z " />
<glyph glyph-name="ucircumflex" unicode="&#xfb;" horiz-adv-x="700" d="M336 647 L473 553 L493 570 L389 735 C379 751 353 789 336 789 C319 789 294 752 283 736 L179 570 L199 553 L336 647 L336 647 Z M446 78 L446 -10 L472 -10 L638 31 C638 31 647 35 660 41 C672 46 681 50 681 50 L638 39 C613 33 596 42 596 108 L596 477 L596 500 L504 500 L413 500 C413 500 406 498 396 496 C386 494 380 492 380 492 L422 492 C436 492 446 490 446 477 L446 134 C428 109 380 94 320 94 C265 94 228 122 228 165 L228 477 L228 500 L136 500 L44 500 C44 500 38 498 28 496 C18 494 11 492 11 492 L54 492 C68 492 78 490 78 477 L78 165 C78 60 147 -10 250 -10 C334 -10 412 42 447 123 L446 78 L446 78 Z " />
<glyph glyph-name="udieresis" unicode="&#xfc;" horiz-adv-x="700" d="M427 615 C475 615 507 647 507 695 C507 743 475 775 427 775 C379 775 347 743 347 695 C347 647 379 615 427 615 L427 615 Z M246 615 C294 615 326 647 326 695 C326 743 294 775 246 775 C198 775 166 743 166 695 C166 647 198 615 246 615 L246 615 Z M446 78 L446 -10 L472 -10 L638 31 C638 31 647 35 660 41 C672 46 681 50 681 50 L638 39 C613 33 596 42 596 108 L596 477 L596 500 L504 500 L413 500 C413 500 406 498 396 496 C386 494 380 492 380 492 L422 492 C436 492 446 490 446 477 L446 134 C428 109 380 94 320 94 C265 94 228 122 228 165 L228 477 L228 500 L136 500 L44 500 C44 500 38 498 28 496 C18 494 11 492 11 492 L54 492 C68 492 78 490 78 477 L78 165 C78 60 147 -10 250 -10 C334 -10 412 42 447 123 L446 78 L446 78 Z " />
<glyph glyph-name="ydieresis" unicode="&#xff;" horiz-adv-x="689" d="M463 615 C511 615 543 647 543 695 C543 743 511 775 463 775 C415 775 383 743 383 695 C383 647 415 615 463 615 L463 615 Z M281 615 C329 615 361 647 361 695 C361 743 329 775 281 775 C233 775 201 743 201 695 C201 647 233 615 281 615 L281 615 Z M67 466 L325 -10 L272 -140 C266 -155 254 -165 242 -165 C206 -165 192 -112 156 -112 C105 -112 71 -142 71 -187 C71 -242 106 -279 159 -279 C220 -279 276 -240 300 -181 L369 -10 L583 462 C598 487 617 492 640 492 L682 492 C682 492 676 494 666 496 C656 498 650 500 650 500 L601 500 L560 500 L532 500 L470 500 C470 500 463 498 453 496 C444 494 437 492 437 492 L476 492 C506 492 524 488 519 467 L326 -10 L401 177 L234 466 L234 466 C222 488 230 492 246 492 L289 492 C289 492 283 494 273 496 C263 498 257 500 257 500 L214 500 L137 500 L50 500 L17 500 C17 500 10 498 0 496 C-9 494 -16 492 -16 492 L35 492 C46 492 56 488 68 466 L67 466 L67 466 Z " />
<glyph glyph-name="Amacron" unicode="&#x100;" horiz-adv-x="868" d="M257 884 L604 884 L604 988 L257 988 L257 884 L257 884 Z M726 128 L725 128 L514 697 L487 770 L472 770 C446 733 396 704 346 697 L350 686 L192 158 L192 158 C155 32 111 8 55 8 L12 8 C12 8 19 6 29 4 C38 2 45 0 45 0 L145 0 L153 0 L165 0 L285 0 C285 0 292 2 301 4 C311 6 318 8 318 8 L278 8 C208 8 167 29 194 138 L240 293 L492 293 L556 117 C587 26 557 8 503 8 L463 8 C463 8 470 6 479 4 C489 2 496 0 496 0 L598 0 L665 0 L774 0 L834 0 C834 0 840 2 850 4 C860 6 866 8 866 8 L824 8 C792 8 763 27 727 128 L726 128 L726 128 Z M242 300 L353 679 L489 300 L242 300 L242 300 Z " />
<glyph glyph-name="amacron" unicode="&#x101;" horiz-adv-x="589" d="M64 634 L411 634 L411 738 L64 738 L64 634 L64 634 Z M360 57 L360 -10 L386 -10 L552 31 C552 31 561 35 573 41 C586 46 595 50 595 50 L552 39 C527 33 510 45 510 128 L510 450 L510 510 L492 510 L399 468 C360 494 304 510 237 510 C100 510 29 405 29 247 C29 96 104 -5 217 -5 C272 -5 327 19 359 56 L360 57 L360 57 Z M359 403 L359 108 C334 76 303 56 279 56 C221 56 182 148 182 287 C182 394 207 465 255 465 C305 465 343 439 359 403 L359 403 Z " />
<glyph glyph-name="Abreve" unicode="&#x102;" horiz-adv-x="868" d="M260 994 C274 899 342 836 430 836 C518 836 586 898 600 991 L569 995 C564 963 509 941 430 941 C352 941 296 964 291 998 L260 994 L260 994 Z M726 128 L725 128 L514 697 L487 770 L472 770 C446 733 396 704 346 697 L350 686 L192 158 L192 158 C155 32 111 8 55 8 L12 8 C12 8 19 6 29 4 C38 2 45 0 45 0 L145 0 L153 0 L165 0 L285 0 C285 0 292 2 301 4 C311 6 318 8 318 8 L278 8 C208 8 167 29 194 138 L240 293 L492 293 L556 117 C587 26 557 8 503 8 L463 8 C463 8 470 6 479 4 C489 2 496 0 496 0 L598 0 L665 0 L774 0 L834 0 C834 0 840 2 850 4 C860 6 866 8 866 8 L824 8 C792 8 763 27 727 128 L726 128 L726 128 Z M242 300 L353 679 L489 300 L242 300 L242 300 Z " />
<glyph glyph-name="abreve" unicode="&#x103;" horiz-adv-x="589" d="M68 744 C82 649 150 586 238 586 C326 586 394 648 408 741 L377 745 C372 713 317 691 238 691 C160 691 104 714 99 748 L68 744 L68 744 Z M360 57 L360 -10 L386 -10 L552 31 C552 31 561 35 573 41 C586 46 595 50 595 50 L552 39 C527 33 510 45 510 128 L510 450 L510 510 L492 510 L399 468 C360 494 304 510 237 510 C100 510 29 405 29 247 C29 96 104 -5 217 -5 C272 -5 327 19 359 56 L360 57 L360 57 Z M359 403 L359 108 C334 76 303 56 279 56 C221 56 182 148 182 287 C182 394 207 465 255 465 C305 465 343 439 359 403 L359 403 Z " />
<glyph glyph-name="Cacute" unicode="&#x106;" horiz-adv-x="834" d="M494 810 L642 925 C674 951 696 971 696 980 C696 1020 661 1054 621 1054 C613 1054 595 1030 573 993 L476 829 L494 810 L494 810 Z M709 711 L708 711 C657 742 590 760 484 760 C211 760 30 606 30 375 C30 144 207 -10 473 -10 C577 -10 651 10 707 43 C747 64 780 51 786 28 C790 10 793 -2 793 -2 L793 28 L793 58 L793 117 L793 117 L792 118 L792 125 L792 193 C792 193 792 201 791 214 C790 227 790 235 790 235 C790 235 788 227 785 214 C779 191 756 154 723 118 C653 44 576 -4 474 -4 C318 -4 213 148 213 375 C213 602 322 754 485 754 C534 754 575 744 611 725 L611 725 C617 722 623 719 629 716 C674 689 713 649 753 601 L753 601 C770 577 782 554 786 536 C789 523 791 515 791 515 C791 515 792 523 792 536 C793 549 794 557 794 557 L794 624 L794 633 L794 691 C794 691 793 702 792 720 C792 737 791 748 791 748 C791 748 789 737 786 720 C782 696 749 685 708 711 L709 711 L709 711 Z " />
<glyph glyph-name="Ccircumflex" unicode="&#x108;" horiz-adv-x="834" d="M709 711 L708 711 C657 742 590 760 484 760 C211 760 30 606 30 375 C30 144 207 -10 473 -10 C577 -10 651 10 707 43 C747 64 780 51 786 28 C790 10 793 -2 793 -2 L793 28 L793 58 L793 117 L793 117 L792 118 L792 125 L792 193 C792 193 792 201 791 214 C790 227 790 235 790 235 C790 235 788 227 785 214 C779 191 756 154 723 118 C653 44 576 -4 474 -4 C318 -4 213 148 213 375 C213 602 322 754 485 754 C534 754 575 744 611 725 L611 725 C617 722 623 719 629 716 C674 689 713 649 753 601 L753 601 C770 577 782 554 786 536 C789 523 791 515 791 515 C791 515 792 523 792 536 C793 549 794 557 794 557 L794 624 L794 633 L794 691 C794 691 793 702 792 720 C792 737 791 748 791 748 C791 748 789 737 786 720 C782 696 749 685 708 711 L709 711 L709 711 Z M484 897 L621 803 L641 820 L537 985 C527 1001 501 1039 484 1039 C466 1039 441 1002 431 986 L327 820 L347 803 L484 897 L484 897 Z " />
<glyph glyph-name="Cdot" unicode="&#x10a;" horiz-adv-x="834" d="M485 865 C533 865 565 897 565 945 C565 993 533 1025 485 1025 C437 1025 405 993 405 945 C405 897 437 865 485 865 L485 865 Z M709 711 L708 711 C657 742 590 760 484 760 C211 760 30 606 30 375 C30 144 207 -10 473 -10 C577 -10 651 10 707 43 C747 64 780 51 786 28 C790 10 793 -2 793 -2 L793 28 L793 58 L793 117 L793 117 L792 118 L792 125 L792 193 C792 193 792 201 791 214 C790 227 790 235 790 235 C790 235 788 227 785 214 C779 191 756 154 723 118 C653 44 576 -4 474 -4 C318 -4 213 148 213 375 C213 602 322 754 485 754 C534 754 575 744 611 725 L611 725 C617 722 623 719 629 716 C674 689 713 649 753 601 L753 601 C770 577 782 554 786 536 C789 523 791 515 791 515 C791 515 792 523 792 536 C793 549 794 557 794 557 L794 624 L794 633 L794 691 C794 691 793 702 792 720 C792 737 791 748 791 748 C791 748 789 737 786 720 C782 696 749 685 708 711 L709 711 L709 711 Z " />
<glyph glyph-name="cdot" unicode="&#x10b;" horiz-adv-x="595" d="M366 615 C414 615 446 647 446 695 C446 743 414 775 366 775 C318 775 286 743 286 695 C286 647 318 615 366 615 L366 615 Z M566 128 L545 137 C530 104 472 82 401 82 C272 82 187 161 187 279 C187 397 255 476 357 476 C382 476 409 448 425 405 C441 360 471 330 500 330 C561 330 591 360 575 405 C552 468 468 510 366 510 C160 510 23 400 23 234 C23 88 153 -10 348 -10 C441 -10 529 45 566 128 L566 128 Z " />
<glyph glyph-name="Ccaron" unicode="&#x10c;" horiz-adv-x="834" d="M709 711 L708 711 C657 742 590 760 484 760 C211 760 30 606 30 375 C30 144 207 -10 473 -10 C577 -10 651 10 707 43 C747 64 780 51 786 28 C790 10 793 -2 793 -2 L793 28 L793 58 L793 117 L793 117 L792 118 L792 125 L792 193 C792 193 792 201 791 214 C790 227 790 235 790 235 C790 235 788 227 785 214 C779 191 756 154 723 118 C653 44 576 -4 474 -4 C318 -4 213 148 213 375 C213 602 322 754 485 754 C534 754 575 744 611 725 L611 725 C617 722 623 719 629 716 C674 689 713 649 753 601 L753 601 C770 577 782 554 786 536 C789 523 791 515 791 515 C791 515 792 523 792 536 C793 549 794 557 794 557 L794 624 L794 633 L794 691 C794 691 793 702 792 720 C792 737 791 748 791 748 C791 748 789 737 786 720 C782 696 749 685 708 711 L709 711 L709 711 Z M484 953 L621 1047 L641 1030 L537 865 C527 849 501 811 484 811 C466 811 441 848 431 864 L327 1030 L347 1047 L484 953 L484 953 Z " />
<glyph glyph-name="ccaron" unicode="&#x10d;" horiz-adv-x="595" d="M566 128 L545 137 C530 104 472 82 401 82 C272 82 187 161 187 279 C187 397 255 476 357 476 C382 476 409 448 425 405 C441 360 471 330 500 330 C561 330 591 360 575 405 C552 468 468 510 366 510 C160 510 23 400 23 234 C23 88 153 -10 348 -10 C441 -10 529 45 566 128 L566 128 Z M366 703 L503 797 L523 780 L419 615 C409 599 383 561 366 561 C348 561 323 598 313 614 L208 780 L229 797 L366 703 L366 703 Z " />
<glyph glyph-name="Dcaron" unicode="&#x10e;" horiz-adv-x="961" d="M425 953 L562 1047 L582 1030 L478 865 C468 849 442 811 425 811 C407 811 382 848 372 864 L268 1030 L288 1047 L425 953 L425 953 Z M128 677 L128 73 C128 18 103 8 65 8 L23 8 C23 8 34 6 49 4 C65 2 76 0 76 0 L128 0 L186 0 L296 0 L388 0 C699 0 906 127 906 375 C906 600 746 750 435 750 L296 750 L186 750 L128 750 L76 750 C76 750 65 748 49 746 C34 744 23 742 23 742 L65 742 C103 742 128 732 128 677 L128 677 Z M296 745 L415 745 C617 745 722 597 722 375 C722 131 586 5 381 5 C304 5 296 24 296 52 L296 73 L296 677 L296 745 L296 745 Z " />
<glyph glyph-name="dcaron" unicode="&#x10f;" horiz-adv-x="624" d="M671 627 C692 662 705 704 705 732 C705 747 678 753 638 754 C607 753 595 690 594 644 L588 531 L614 526 L671 627 L671 627 Z M395 57 L395 -10 L421 -10 L587 31 C587 31 596 35 608 41 C621 46 630 50 630 50 L587 39 C562 33 545 45 545 128 L545 668 L545 747 L518 747 L352 700 C352 700 344 696 331 690 C318 684 310 680 310 680 L352 692 C378 700 395 693 395 633 L395 492 C358 503 312 510 261 510 C108 510 30 405 30 247 C30 96 113 -5 238 -5 C301 -5 362 19 395 56 L395 57 L395 57 Z M395 398 L395 108 C369 76 332 56 300 56 C230 56 183 148 183 287 C183 394 215 465 278 465 C324 465 370 436 394 399 L395 398 L395 398 Z " />
<glyph glyph-name="Emacron" unicode="&#x112;" horiz-adv-x="734" d="M209 884 L556 884 L556 988 L209 988 L209 884 L209 884 Z M672 124 L667 88 C660 38 639 5 555 5 L348 5 C301 5 296 24 296 52 L296 73 L296 385 L469 385 C553 385 569 346 569 287 L569 245 C569 245 571 259 573 280 C575 301 577 315 577 315 L577 385 L577 388 L577 391 L577 461 C577 461 575 475 573 496 C571 517 569 531 569 531 L569 489 C569 430 553 391 469 391 L296 391 L296 677 L296 745 L530 745 C630 745 632 707 636 650 L639 624 C639 629 640 638 641 650 C642 669 643 681 643 681 C642 691 641 705 640 715 C640 725 639 739 638 749 L530 749 L297 749 L187 749 L129 749 L77 749 C77 749 66 747 50 745 C35 743 24 741 24 741 L66 741 C104 741 129 731 129 676 L129 72 C129 17 104 7 66 7 L24 7 C24 7 35 5 50 3 C66 1 77 -1 77 -1 L129 -1 L187 -1 L297 -1 L555 -1 L663 -1 C664 9 666 23 668 33 C669 43 671 57 673 67 L673 98 C673 109 673 118 673 123 L672 124 L672 124 Z M673 123 C673 127 673 129 673 129 L673 123 L673 123 Z M639 623 L639 619 C639 619 639 620 639 623 L639 623 Z " />
<glyph glyph-name="emacron" unicode="&#x113;" horiz-adv-x="578" d="M139 634 L486 634 L486 738 L139 738 L139 634 L139 634 Z M186 340 L383 340 L507 340 L549 340 C527 462 436 510 313 510 C139 510 23 396 23 225 C23 84 128 -10 286 -10 C405 -10 504 46 535 130 L517 137 C507 108 429 89 322 89 C238 89 182 168 182 286 C182 305 183 323 186 340 L186 340 Z M483 383 C491 383 499 383 507 383 L483 383 L483 383 Z M375 379 L194 374 C213 437 253 475 305 475 C333 475 358 448 375 380 L375 379 L375 379 Z " />
<glyph glyph-name="Ebreve" unicode="&#x114;" horiz-adv-x="734" d="M212 994 C227 899 295 836 383 836 C470 836 539 898 553 991 L522 995 C516 963 461 941 383 941 C304 941 249 964 244 998 L212 994 L212 994 Z M672 124 L667 88 C660 38 639 5 555 5 L348 5 C301 5 296 24 296 52 L296 73 L296 385 L469 385 C553 385 569 346 569 287 L569 245 C569 245 571 259 573 280 C575 301 577 315 577 315 L577 385 L577 388 L577 391 L577 461 C577 461 575 475 573 496 C571 517 569 531 569 531 L569 489 C569 430 553 391 469 391 L296 391 L296 677 L296 745 L530 745 C630 745 632 707 636 650 L639 624 C639 629 640 638 641 650 C642 669 643 681 643 681 C642 691 641 705 640 715 C640 725 639 739 638 749 L530 749 L297 749 L187 749 L129 749 L77 749 C77 749 66 747 50 745 C35 743 24 741 24 741 L66 741 C104 741 129 731 129 676 L129 72 C129 17 104 7 66 7 L24 7 C24 7 35 5 50 3 C66 1 77 -1 77 -1 L129 -1 L187 -1 L297 -1 L555 -1 L663 -1 C664 9 666 23 668 33 C669 43 671 57 673 67 L673 98 C673 109 673 118 673 123 L672 124 L672 124 Z M673 123 C673 127 673 129 673 129 L673 123 L673 123 Z M639 623 L639 619 C639 619 639 620 639 623 L639 623 Z " />
<glyph glyph-name="ebreve" unicode="&#x115;" horiz-adv-x="578" d="M142 744 C157 649 225 586 313 586 C400 586 469 648 483 741 L452 745 C446 713 391 691 313 691 C235 691 179 714 174 748 L142 744 L142 744 Z M186 340 L383 340 L507 340 L549 340 C527 462 436 510 313 510 C139 510 23 396 23 225 C23 84 128 -10 286 -10 C405 -10 504 46 535 130 L517 137 C507 108 429 89 322 89 C238 89 182 168 182 286 C182 305 183 323 186 340 L186 340 Z M483 383 C491 383 499 383 507 383 L483 383 L483 383 Z M375 379 L194 374 C213 437 253 475 305 475 C333 475 358 448 375 380 L375 379 L375 379 Z " />
<glyph glyph-name="Edot" unicode="&#x116;" horiz-adv-x="734" d="M383 865 C431 865 463 897 463 945 C463 993 431 1025 383 1025 C335 1025 303 993 303 945 C303 897 335 865 383 865 L383 865 Z M672 124 L667 88 C660 38 639 5 555 5 L348 5 C301 5 296 24 296 52 L296 73 L296 385 L469 385 C553 385 569 346 569 287 L569 245 C569 245 571 259 573 280 C575 301 577 315 577 315 L577 385 L577 388 L577 391 L577 461 C577 461 575 475 573 496 C571 517 569 531 569 531 L569 489 C569 430 553 391 469 391 L296 391 L296 677 L296 745 L530 745 C630 745 632 707 636 650 L639 624 C639 629 640 638 641 650 C642 669 643 681 643 681 C642 691 641 705 640 715 C640 725 639 739 638 749 L530 749 L297 749 L187 749 L129 749 L77 749 C77 749 66 747 50 745 C35 743 24 741 24 741 L66 741 C104 741 129 731 129 676 L129 72 C129 17 104 7 66 7 L24 7 C24 7 35 5 50 3 C66 1 77 -1 77 -1 L129 -1 L187 -1 L297 -1 L555 -1 L663 -1 C664 9 666 23 668 33 C669 43 671 57 673 67 L673 98 C673 109 673 118 673 123 L672 124 L672 124 Z M673 123 C673 127 673 129 673 129 L673 123 L673 123 Z M639 623 L639 619 C639 619 639 620 639 623 L639 623 Z " />
<glyph glyph-name="edot" unicode="&#x117;" horiz-adv-x="578" d="M313 615 C361 615 393 647 393 695 C393 743 361 775 313 775 C265 775 233 743 233 695 C233 647 265 615 313 615 L313 615 Z M186 340 L383 340 L507 340 L549 340 C527 462 436 510 313 510 C139 510 23 396 23 225 C23 84 128 -10 286 -10 C405 -10 504 46 535 130 L517 137 C507 108 429 89 322 89 C238 89 182 168 182 286 C182 305 183 323 186 340 L186 340 Z M483 383 C491 383 499 383 507 383 L483 383 L483 383 Z M375 379 L194 374 C213 437 253 475 305 475 C333 475 358 448 375 380 L375 379 L375 379 Z " />
<glyph glyph-name="Ecaron" unicode="&#x11a;" horiz-adv-x="734" d="M382 953 L519 1047 L540 1030 L436 865 C426 849 400 811 383 811 C365 811 340 848 330 864 L225 1030 L246 1047 L382 953 L382 953 Z M672 124 L667 88 C660 38 639 5 555 5 L348 5 C301 5 296 24 296 52 L296 73 L296 385 L469 385 C553 385 569 346 569 287 L569 245 C569 245 571 259 573 280 C575 301 577 315 577 315 L577 385 L577 388 L577 391 L577 461 C577 461 575 475 573 496 C571 517 569 531 569 531 L569 489 C569 430 553 391 469 391 L296 391 L296 677 L296 745 L530 745 C630 745 632 707 636 650 L639 624 C639 629 640 638 641 650 C642 669 643 681 643 681 C642 691 641 705 640 715 C640 725 639 739 638 749 L530 749 L297 749 L187 749 L129 749 L77 749 C77 749 66 747 50 745 C35 743 24 741 24 741 L66 741 C104 741 129 731 129 676 L129 72 C129 17 104 7 66 7 L24 7 C24 7 35 5 50 3 C66 1 77 -1 77 -1 L129 -1 L187 -1 L297 -1 L555 -1 L663 -1 C664 9 666 23 668 33 C669 43 671 57 673 67 L673 98 C673 109 673 118 673 123 L672 124 L672 124 Z M673 123 C673 127 673 129 673 129 L673 123 L673 123 Z M639 623 L639 619 C639 619 639 620 639 623 L639 623 Z " />
<glyph glyph-name="ecaron" unicode="&#x11b;" horiz-adv-x="578" d="M313 703 L450 797 L470 780 L366 615 C356 599 330 561 313 561 C295 561 270 598 260 614 L156 780 L176 797 L313 703 L313 703 Z M186 340 L383 340 L507 340 L549 340 C527 462 436 510 313 510 C139 510 23 396 23 225 C23 84 128 -10 286 -10 C405 -10 504 46 535 130 L517 137 C507 108 429 89 322 89 C238 89 182 168 182 286 C182 305 183 323 186 340 L186 340 Z M483 383 C491 383 499 383 507 383 L483 383 L483 383 Z M375 379 L194 374 C213 437 253 475 305 475 C333 475 358 448 375 380 L375 379 L375 379 Z " />
<glyph glyph-name="Gcircumflex" unicode="&#x11c;" horiz-adv-x="921" d="M709 711 L708 711 C657 742 590 760 484 760 C211 760 30 606 30 375 C30 144 212 -10 484 -10 C603 -10 693 6 769 32 L779 34 L779 35 C802 43 824 52 845 62 L843 66 C828 59 808 53 780 48 L780 258 C780 308 797 318 823 318 L865 318 C865 318 856 320 844 322 C831 324 822 326 822 326 L692 326 L562 326 C562 326 552 324 537 322 C522 320 512 318 512 318 L555 318 C589 318 612 308 612 258 L613 180 C611 91 567 32 501 32 C330 32 216 170 216 376 C216 603 325 755 488 755 C537 755 578 745 614 726 L614 726 C620 723 626 720 632 717 C677 690 716 650 756 602 L756 602 C773 578 785 555 789 537 C792 524 794 516 794 516 C794 516 795 524 795 537 C796 550 797 558 797 558 L797 625 L797 634 L797 692 C797 692 796 703 795 721 C795 738 794 749 794 749 C794 749 792 738 789 721 C785 697 752 686 711 712 L709 711 L709 711 Z M487 898 L624 804 L644 821 L540 986 C530 1002 504 1040 487 1040 C469 1040 444 1003 434 987 L330 821 L350 804 L487 898 L487 898 Z " />
<glyph glyph-name="Gbreve" unicode="&#x11e;" horiz-adv-x="921" d="M314 994 C329 899 397 836 485 836 C572 836 641 898 655 991 L624 995 C618 963 563 941 485 941 C407 941 351 964 346 998 L314 994 L314 994 Z M709 711 L708 711 C657 742 590 760 484 760 C211 760 30 606 30 375 C30 144 212 -10 484 -10 C603 -10 693 6 769 32 L779 34 L779 35 C802 43 824 52 845 62 L843 66 C828 59 808 53 780 48 L780 258 C780 308 797 318 823 318 L865 318 C865 318 856 320 844 322 C831 324 822 326 822 326 L692 326 L562 326 C562 326 552 324 537 322 C522 320 512 318 512 318 L555 318 C589 318 612 308 612 258 L613 180 C611 91 567 32 501 32 C330 32 216 170 216 376 C216 603 325 755 488 755 C537 755 578 745 614 726 L614 726 C620 723 626 720 632 717 C677 690 716 650 756 602 L756 602 C773 578 785 555 789 537 C792 524 794 516 794 516 C794 516 795 524 795 537 C796 550 797 558 797 558 L797 625 L797 634 L797 692 C797 692 796 703 795 721 C795 738 794 749 794 749 C794 749 792 738 789 721 C785 697 752 686 711 712 L709 711 L709 711 Z " />
<glyph glyph-name="gbreve" unicode="&#x11f;" horiz-adv-x="551" d="M92 744 C107 649 175 586 262 586 C350 586 419 648 433 741 L401 745 C396 713 341 691 262 691 C184 691 129 714 123 748 L92 744 L92 744 Z M209 350 C209 425 230 475 262 475 C295 475 316 425 316 350 C316 274 295 223 262 223 C230 223 209 274 209 350 L209 350 Z M164 -33 C168 -33 172 -33 176 -33 L299 -33 C367 -32 393 -53 393 -83 C393 -151 349 -196 283 -196 C207 -196 156 -143 156 -63 C156 -51 159 -40 164 -32 L164 -33 L164 -33 Z M119 -21 C66 -38 32 -67 32 -98 C32 -177 129 -229 274 -229 C419 -229 516 -156 516 -47 C516 51 460 117 315 118 L183 118 C153 118 133 129 133 146 C133 172 185 189 262 189 C385 189 466 254 466 351 C466 370 463 388 457 404 C471 423 486 434 498 434 C491 434 486 429 486 423 C486 391 514 370 556 370 C593 370 617 398 617 441 C617 474 594 496 560 496 C514 496 469 472 443 434 C410 482 346 511 263 511 C141 511 60 447 60 351 C60 286 97 235 158 209 C88 191 45 152 45 101 C45 42 73 -2 119 -21 L119 -21 Z " />
<glyph glyph-name="Gdot" unicode="&#x120;" horiz-adv-x="921" d="M485 865 C533 865 565 897 565 945 C565 993 533 1025 485 1025 C437 1025 405 993 405 945 C405 897 437 865 485 865 L485 865 Z M709 711 L708 711 C657 742 590 760 484 760 C211 760 30 606 30 375 C30 144 212 -10 484 -10 C603 -10 693 6 769 32 L779 34 L779 35 C802 43 824 52 845 62 L843 66 C828 59 808 53 780 48 L780 258 C780 308 797 318 823 318 L865 318 C865 318 856 320 844 322 C831 324 822 326 822 326 L692 326 L562 326 C562 326 552 324 537 322 C522 320 512 318 512 318 L555 318 C589 318 612 308 612 258 L613 180 C611 91 567 32 501 32 C330 32 216 170 216 376 C216 603 325 755 488 755 C537 755 578 745 614 726 L614 726 C620 723 626 720 632 717 C677 690 716 650 756 602 L756 602 C773 578 785 555 789 537 C792 524 794 516 794 516 C794 516 795 524 795 537 C796 550 797 558 797 558 L797 625 L797 634 L797 692 C797 692 796 703 795 721 C795 738 794 749 794 749 C794 749 792 738 789 721 C785 697 752 686 711 712 L709 711 L709 711 Z " />
<glyph glyph-name="gdot" unicode="&#x121;" horiz-adv-x="551" d="M262 615 C310 615 342 647 342 695 C342 743 310 775 262 775 C214 775 182 743 182 695 C182 647 214 615 262 615 L262 615 Z M209 350 C209 425 230 475 262 475 C295 475 316 425 316 350 C316 274 295 223 262 223 C230 223 209 274 209 350 L209 350 Z M164 -33 C168 -33 172 -33 176 -33 L299 -33 C367 -32 393 -53 393 -83 C393 -151 349 -196 283 -196 C207 -196 156 -143 156 -63 C156 -51 159 -40 164 -32 L164 -33 L164 -33 Z M119 -21 C66 -38 32 -67 32 -98 C32 -177 129 -229 274 -229 C419 -229 516 -156 516 -47 C516 51 460 117 315 118 L183 118 C153 118 133 129 133 146 C133 172 185 189 262 189 C385 189 466 254 466 351 C466 370 463 388 457 404 C471 423 486 434 498 434 C491 434 486 429 486 423 C486 391 514 370 556 370 C593 370 617 398 617 441 C617 474 594 496 560 496 C514 496 469 472 443 434 C410 482 346 511 263 511 C141 511 60 447 60 351 C60 286 97 235 158 209 C88 191 45 152 45 101 C45 42 73 -2 119 -21 L119 -21 Z " />
<glyph glyph-name="Hcircumflex" unicode="&#x124;" horiz-adv-x="965" d="M492 897 L629 803 L649 820 L545 985 C535 1001 509 1039 492 1039 C475 1039 450 1002 440 986 L335 820 L355 803 L492 897 L492 897 Z M820 68 L820 682 C820 732 845 742 883 742 L925 742 C925 742 915 744 899 746 C883 748 873 750 873 750 L737 750 L600 750 C600 750 590 748 574 746 C558 744 548 742 548 742 L590 742 C628 742 653 732 653 682 L653 386 L332 386 L332 682 C332 732 357 742 394 742 L437 742 C437 742 426 744 410 746 C395 748 384 750 384 750 L248 750 L112 750 C112 750 101 748 85 746 C70 744 59 742 59 742 L101 742 C139 742 164 732 164 682 L164 68 C164 18 139 8 101 8 L59 8 C59 8 70 6 85 4 C101 2 112 0 112 0 L248 0 L384 0 C384 0 395 2 410 4 C426 6 437 8 437 8 L394 8 C357 8 332 18 332 68 L332 380 L653 380 L653 68 C653 18 628 8 590 8 L548 8 C548 8 558 6 574 4 C590 2 600 0 600 0 L737 0 L873 0 C873 0 883 2 899 4 C915 6 925 8 925 8 L883 8 C845 8 820 18 820 68 L820 68 Z " />
<glyph glyph-name="Itilde" unicode="&#x128;" horiz-adv-x="418" d="M25 870 C25 899 44 919 73 919 C137 919 200 854 264 854 C321 854 359 920 359 1019 L355 1019 C355 983 332 959 298 959 C234 959 171 1024 108 1024 C56 1024 21 962 21 870 L25 870 L25 870 Z M274 68 L274 682 C274 732 299 742 337 742 L379 742 C379 742 368 744 353 746 C337 748 326 750 326 750 L190 750 L54 750 C54 750 43 748 27 746 C12 744 1 742 1 742 L43 742 C81 742 106 732 106 682 L106 68 C106 18 81 8 43 8 L1 8 C1 8 12 6 27 4 C43 2 54 0 54 0 L190 0 L326 0 C326 0 337 2 353 4 C368 6 379 8 379 8 L337 8 C299 8 274 18 274 68 L274 68 Z " />
<glyph glyph-name="itilde" unicode="&#x129;" horiz-adv-x="358" d="M9 620 C9 649 28 669 57 669 C121 669 184 604 247 604 C304 604 342 670 342 769 L338 769 C338 733 315 709 282 709 C218 709 155 774 91 774 C39 774 5 712 5 620 L9 620 L9 620 Z M249 23 L249 396 L249 500 L222 500 L17 445 L17 441 C86 444 99 439 99 396 L99 23 C99 10 84 8 61 8 L19 8 C19 8 27 6 39 4 C51 2 59 0 59 0 L174 0 L290 0 C290 0 298 2 311 4 C324 6 332 8 332 8 L289 8 C265 8 249 10 249 23 L249 23 Z " />
<glyph glyph-name="Imacron" unicode="&#x12a;" horiz-adv-x="418" d="M16 884 L364 884 L364 988 L16 988 L16 884 L16 884 Z M274 68 L274 682 C274 732 299 742 337 742 L379 742 C379 742 368 744 353 746 C337 748 326 750 326 750 L190 750 L54 750 C54 750 43 748 27 746 C12 744 1 742 1 742 L43 742 C81 742 106 732 106 682 L106 68 C106 18 81 8 43 8 L1 8 C1 8 12 6 27 4 C43 2 54 0 54 0 L190 0 L326 0 C326 0 337 2 353 4 C368 6 379 8 379 8 L337 8 C299 8 274 18 274 68 L274 68 Z " />
<glyph glyph-name="imacron" unicode="&#x12b;" horiz-adv-x="358" d="M0 634 L347 634 L347 738 L0 738 L0 634 L0 634 Z M249 23 L249 396 L249 500 L222 500 L17 445 L17 441 C86 444 99 439 99 396 L99 23 C99 10 84 8 61 8 L19 8 C19 8 27 6 39 4 C51 2 59 0 59 0 L174 0 L290 0 C290 0 298 2 311 4 C324 6 332 8 332 8 L289 8 C265 8 249 10 249 23 L249 23 Z " />
<glyph glyph-name="Ibreve" unicode="&#x12c;" horiz-adv-x="418" d="M20 994 C34 899 102 836 190 836 C278 836 346 898 360 991 L329 995 C324 963 269 941 190 941 C112 941 56 964 51 998 L20 994 L20 994 Z M274 68 L274 682 C274 732 299 742 337 742 L379 742 C379 742 368 744 353 746 C337 748 326 750 326 750 L190 750 L54 750 C54 750 43 748 27 746 C12 744 1 742 1 742 L43 742 C81 742 106 732 106 682 L106 68 C106 18 81 8 43 8 L1 8 C1 8 12 6 27 4 C43 2 54 0 54 0 L190 0 L326 0 C326 0 337 2 353 4 C368 6 379 8 379 8 L337 8 C299 8 274 18 274 68 L274 68 Z " />
<glyph glyph-name="ibreve" unicode="&#x12d;" horiz-adv-x="358" d="M3 744 C18 649 86 586 173 586 C261 586 330 648 344 741 L312 745 C307 713 252 691 174 691 C95 691 40 714 35 748 L3 744 L3 744 Z M249 23 L249 396 L249 500 L222 500 L17 445 L17 441 C86 444 99 439 99 396 L99 23 C99 10 84 8 61 8 L19 8 C19 8 27 6 39 4 C51 2 59 0 59 0 L174 0 L290 0 C290 0 298 2 311 4 C324 6 332 8 332 8 L289 8 C265 8 249 10 249 23 L249 23 Z " />
<glyph glyph-name="Idot" unicode="&#x130;" horiz-adv-x="418" d="M190 865 C238 865 270 897 270 945 C270 993 238 1025 190 1025 C142 1025 110 993 110 945 C110 897 142 865 190 865 L190 865 Z M274 68 L274 682 C274 732 299 742 337 742 L379 742 C379 742 368 744 353 746 C337 748 326 750 326 750 L190 750 L54 750 C54 750 43 748 27 746 C12 744 1 742 1 742 L43 742 C81 742 106 732 106 682 L106 68 C106 18 81 8 43 8 L1 8 C1 8 12 6 27 4 C43 2 54 0 54 0 L190 0 L326 0 C326 0 337 2 353 4 C368 6 379 8 379 8 L337 8 C299 8 274 18 274 68 L274 68 Z " />
<glyph glyph-name="dotlessi" unicode="&#x131;" horiz-adv-x="358" d="M249 23 L249 396 L249 500 L222 500 L17 445 L17 441 C86 444 99 439 99 396 L99 23 C99 10 84 8 61 8 L19 8 C19 8 27 6 39 4 C51 2 59 0 59 0 L174 0 L290 0 C290 0 298 2 311 4 C324 6 332 8 332 8 L289 8 C265 8 249 10 249 23 L249 23 Z " />
<glyph glyph-name="Jcircumflex" unicode="&#x134;" horiz-adv-x="418" d="M190 897 L327 803 L347 820 L243 985 C233 1001 207 1039 190 1039 C173 1039 147 1002 137 986 L33 820 L53 803 L190 897 L190 897 Z M106 682 L106 -136 C106 -199 33 -211 -20 -211 C-104 -211 -67 -70 -152 -70 C-199 -70 -231 -102 -231 -149 C-231 -192 -149 -220 -26 -220 C100 -220 275 -156 274 180 L274 682 C274 732 299 742 337 742 L379 742 C379 742 368 744 353 746 C337 748 326 750 326 750 L190 750 L54 750 C54 750 43 748 27 746 C12 744 1 742 1 742 L43 742 C81 742 106 732 106 682 L106 682 Z " />
<glyph glyph-name="Lacute" unicode="&#x139;" horiz-adv-x="723" d="M200 810 L347 925 C379 951 401 971 401 980 C401 1020 367 1054 326 1054 C319 1054 301 1030 279 993 L181 829 L200 810 L200 810 Z M648 28 C651 37 653 47 655 55 C659 71 665 93 670 109 C670 109 673 126 677 151 C679 167 681 180 682 187 L672 151 C652 78 613 29 474 29 L325 29 C278 29 273 38 273 52 L273 73 L273 677 C273 732 298 742 336 742 L378 742 C378 742 367 744 352 746 C336 748 325 750 325 750 L273 750 L189 750 L105 750 L53 750 C53 750 42 748 26 746 C11 744 0 742 0 742 L42 742 C80 742 105 732 105 677 L105 73 C105 18 80 8 42 8 L0 8 C0 8 11 6 26 4 C42 2 53 0 53 0 L105 0 L163 0 L273 0 L467 0 L639 0 L648 28 L648 28 Z M682 187 C683 192 684 195 684 195 L682 187 L682 187 Z " />
<glyph glyph-name="Lcaron" unicode="&#x13d;" horiz-adv-x="723" d="M501 680 C521 715 534 757 534 784 C534 800 507 806 467 806 C436 806 425 743 423 697 L417 584 L443 579 L501 680 L501 680 Z M648 28 C651 37 653 47 655 55 C659 71 665 93 670 109 C670 109 673 126 677 151 C679 167 681 180 682 187 L672 151 C652 78 613 29 474 29 L325 29 C278 29 273 38 273 52 L273 73 L273 677 C273 732 298 742 336 742 L378 742 C378 742 367 744 352 746 C336 748 325 750 325 750 L273 750 L189 750 L105 750 L53 750 C53 750 42 748 26 746 C11 744 0 742 0 742 L42 742 C80 742 105 732 105 677 L105 73 C105 18 80 8 42 8 L0 8 C0 8 11 6 26 4 C42 2 53 0 53 0 L105 0 L163 0 L273 0 L467 0 L639 0 L648 28 L648 28 Z M682 187 C683 192 684 195 684 195 L682 187 L682 187 Z " />
<glyph glyph-name="lcaron" unicode="&#x13e;" horiz-adv-x="358" d="M375 627 C396 662 409 704 409 732 C409 747 382 753 342 754 C311 753 299 690 298 644 L292 531 L318 526 L375 627 L375 627 Z M249 23 L249 684 L249 747 L222 747 L56 700 C56 700 48 696 35 690 C22 684 14 680 14 680 L56 692 C82 700 99 696 99 649 L99 23 C99 10 84 8 61 8 L19 8 C19 8 27 6 39 4 C51 2 59 0 59 0 L174 0 L289 0 C289 0 297 2 309 4 C321 6 329 8 329 8 L286 8 C264 8 249 10 249 23 L249 23 Z " />
<glyph glyph-name="Nacute" unicode="&#x143;" horiz-adv-x="854" d="M331 810 L478 925 C510 951 532 971 532 980 C532 1020 498 1054 457 1054 C450 1054 432 1030 410 993 L312 829 L331 810 L331 810 Z M182 128 L182 128 L178 555 L455 238 L664 0 L697 0 L708 662 C712 729 744 742 791 742 L833 742 C833 742 820 744 802 746 C783 748 770 750 770 750 L710 750 L684 750 L659 750 L597 750 C597 750 585 748 566 746 C547 744 535 742 535 742 L577 742 C624 742 656 727 660 653 L663 259 L585 345 L217 749 L177 749 L136 749 L100 749 L9 749 L-17 749 C-17 749 -24 747 -33 745 C-43 743 -50 741 -50 741 L8 741 C12 741 20 735 46 706 L46 706 L135 604 L133 118 C129 25 97 6 51 6 L8 6 C8 6 15 4 25 2 C34 0 41 -2 41 -2 L133 -2 L159 -2 L184 -2 L276 -2 C276 -2 283 0 292 2 C302 4 309 6 309 6 L266 6 C216 6 182 25 183 126 L182 128 L182 128 Z " />
<glyph glyph-name="Ncaron" unicode="&#x147;" horiz-adv-x="854" d="M182 128 L182 128 L178 555 L455 238 L664 0 L697 0 L708 662 C712 729 744 742 791 742 L833 742 C833 742 820 744 802 746 C783 748 770 750 770 750 L710 750 L684 750 L659 750 L597 750 C597 750 585 748 566 746 C547 744 535 742 535 742 L577 742 C624 742 656 727 660 653 L663 259 L585 345 L217 749 L177 749 L136 749 L100 749 L9 749 L-17 749 C-17 749 -24 747 -33 745 C-43 743 -50 741 -50 741 L8 741 C12 741 20 735 46 706 L46 706 L135 604 L133 118 C129 25 97 6 51 6 L8 6 C8 6 15 4 25 2 C34 0 41 -2 41 -2 L133 -2 L159 -2 L184 -2 L276 -2 C276 -2 283 0 292 2 C302 4 309 6 309 6 L266 6 C216 6 182 25 183 126 L182 128 L182 128 Z M422 951 L559 1045 L579 1028 L475 863 C465 847 439 809 422 809 C405 809 379 846 369 862 L265 1028 L285 1045 L422 951 L422 951 Z " />
<glyph glyph-name="ncaron" unicode="&#x148;" horiz-adv-x="708" d="M345 703 L482 797 L503 780 L399 615 C389 599 363 561 345 561 C328 561 303 598 293 614 L188 780 L209 797 L345 703 L345 703 Z M448 23 C448 10 433 8 411 8 L368 8 C368 8 376 6 388 4 C400 2 408 0 408 0 L523 0 L638 0 C638 0 646 2 658 4 C670 6 678 8 678 8 L636 8 C613 8 598 10 598 23 L598 257 C598 409 544 510 438 510 C376 510 298 465 243 397 L243 437 L243 500 L216 500 L50 440 C50 440 42 435 29 428 C16 421 8 416 8 416 L50 432 C76 441 93 438 93 392 L93 23 C93 10 78 8 55 8 L13 8 C13 8 21 6 33 4 C45 2 53 0 53 0 L168 0 L283 0 C283 0 291 2 303 4 C315 6 323 8 323 8 L280 8 C258 8 243 10 243 23 L243 376 C275 414 336 440 397 440 C431 440 448 367 448 257 L448 23 L448 23 Z " />
<glyph glyph-name="Omacron" unicode="&#x14c;" horiz-adv-x="973" d="M295 884 L642 884 L642 988 L295 988 L295 884 L295 884 Z M460 -3 C317 -3 221 148 221 375 C221 602 320 753 467 753 C623 753 726 602 726 375 C726 148 620 -3 460 -3 L460 -3 Z M29 375 C29 144 201 -10 459 -10 C734 -10 918 144 918 375 C918 606 738 760 469 760 C205 760 29 606 29 375 L29 375 Z " />
<glyph glyph-name="omacron" unicode="&#x14d;" horiz-adv-x="640" d="M135 634 L482 634 L482 738 L135 738 L135 634 L135 634 Z M309 -3 C236 -3 188 98 188 250 C188 402 236 503 309 503 C382 503 430 402 430 250 C430 98 382 -3 309 -3 L309 -3 Z M23 250 C23 94 137 -10 309 -10 C481 -10 595 94 595 250 C595 406 481 510 309 510 C137 510 23 406 23 250 L23 250 Z " />
<glyph glyph-name="Obreve" unicode="&#x14e;" horiz-adv-x="973" d="M298 994 C313 899 381 836 469 836 C556 836 625 898 639 991 L607 995 C602 963 547 941 469 941 C390 941 335 964 330 998 L298 994 L298 994 Z M460 -3 C317 -3 221 148 221 375 C221 602 320 753 467 753 C623 753 726 602 726 375 C726 148 620 -3 460 -3 L460 -3 Z M29 375 C29 144 201 -10 459 -10 C734 -10 918 144 918 375 C918 606 738 760 469 760 C205 760 29 606 29 375 L29 375 Z " />
<glyph glyph-name="obreve" unicode="&#x14f;" horiz-adv-x="640" d="M139 744 C153 649 221 586 309 586 C397 586 465 648 479 741 L448 745 C443 713 388 691 309 691 C231 691 175 714 170 748 L139 744 L139 744 Z M309 -3 C236 -3 188 98 188 250 C188 402 236 503 309 503 C382 503 430 402 430 250 C430 98 382 -3 309 -3 L309 -3 Z M23 250 C23 94 137 -10 309 -10 C481 -10 595 94 595 250 C595 406 481 510 309 510 C137 510 23 406 23 250 L23 250 Z " />
<glyph glyph-name="Racute" unicode="&#x154;" horiz-adv-x="930" d="M340 810 L488 925 C520 951 542 971 542 980 C542 1020 507 1054 467 1054 C459 1054 441 1030 419 993 L322 829 L340 810 L340 810 Z M921 0 L921 13 C837 13 831 15 786 68 C672 202 585 305 543 355 C652 382 718 440 718 535 C718 664 581 750 376 750 L296 750 L186 750 L76 750 C76 750 65 748 49 746 C34 744 23 742 23 742 L65 742 C103 742 128 732 128 677 L128 73 C128 18 103 8 65 8 L23 8 C23 8 34 6 49 4 C65 2 76 0 76 0 L212 0 L348 0 C348 0 359 2 374 4 C390 6 401 8 401 8 L358 8 C321 8 296 18 296 73 L296 338 L371 338 C401 296 482 196 591 68 C647 3 660 0 922 0 L921 0 L921 0 Z M297 716 L327 716 C451 716 534 657 534 567 C534 438 471 380 377 380 L297 380 L297 677 L297 716 L297 716 Z " />
<glyph glyph-name="Rcaron" unicode="&#x158;" horiz-adv-x="930" d="M921 0 L921 13 C837 13 831 15 786 68 C672 202 585 305 543 355 C652 382 718 440 718 535 C718 664 581 750 376 750 L296 750 L186 750 L76 750 C76 750 65 748 49 746 C34 744 23 742 23 742 L65 742 C103 742 128 732 128 677 L128 73 C128 18 103 8 65 8 L23 8 C23 8 34 6 49 4 C65 2 76 0 76 0 L212 0 L348 0 C348 0 359 2 374 4 C390 6 401 8 401 8 L358 8 C321 8 296 18 296 73 L296 338 L371 338 C401 296 482 196 591 68 C647 3 660 0 922 0 L921 0 L921 0 Z M332 953 L469 1047 L489 1030 L385 865 C375 849 349 811 332 811 C314 811 289 848 279 864 L175 1030 L195 1047 L332 953 L332 953 Z M297 716 L327 716 C451 716 534 657 534 567 C534 438 471 380 377 380 L297 380 L297 677 L297 716 L297 716 Z " />
<glyph glyph-name="rcaron" unicode="&#x159;" horiz-adv-x="593" d="M328 703 L465 797 L485 780 L381 615 C371 599 345 561 328 561 C310 561 285 598 275 614 L171 780 L191 797 L328 703 L328 703 Z M249 394 L249 437 L249 500 L222 500 L56 440 C56 440 48 435 35 428 C22 421 14 416 14 416 L56 432 C82 441 99 438 99 392 L99 23 C99 10 86 8 66 8 L24 8 C24 8 31 6 42 4 C54 2 61 0 61 0 L176 0 L291 0 C291 0 300 2 312 4 C325 6 334 8 334 8 L291 8 C266 8 249 10 249 23 L249 381 C273 417 310 440 346 440 C383 440 407 426 407 405 C407 352 442 317 495 317 C548 317 583 352 583 405 C583 468 516 510 416 510 C356 510 290 464 248 394 L249 394 L249 394 Z " />
<glyph glyph-name="Sacute" unicode="&#x15a;" horiz-adv-x="590" d="M298 810 L446 925 C478 951 500 971 500 980 C500 1020 466 1054 425 1054 C417 1054 399 1030 377 993 L280 829 L298 810 L298 810 Z M459 711 L458 711 C414 742 353 760 287 760 C145 760 51 672 51 540 C51 430 116 334 241 288 C357 246 417 202 417 169 C417 66 367 -2 291 -2 C220 -2 141 66 93 167 L83 162 C67 188 56 212 52 230 C49 243 47 251 47 251 C47 251 46 243 45 230 C44 217 44 209 44 209 L44 143 L44 140 L44 71 C44 71 44 56 45 35 C46 13 47 -2 47 -2 C47 -2 49 13 52 35 C55 60 83 73 119 49 C167 11 228 -11 290 -11 C446 -11 550 80 550 216 C550 318 479 411 340 461 C235 499 181 553 181 603 C181 693 223 753 286 753 C305 753 324 749 342 742 L332 745 C347 740 362 733 376 724 C413 701 445 665 466 621 L476 626 C491 602 502 578 507 557 C510 544 512 536 512 536 C512 536 513 544 513 557 C514 570 515 578 515 578 L515 640 L515 644 L515 701 C515 701 514 712 513 730 C513 747 512 758 512 758 C512 758 510 747 507 729 C503 707 483 692 458 709 L459 711 L459 711 Z M332 744 L326 746 C328 746 330 745 332 744 L332 744 Z " />
<glyph glyph-name="Scircumflex" unicode="&#x15c;" horiz-adv-x="590" d="M459 711 L458 711 C414 742 353 760 287 760 C145 760 51 672 51 540 C51 430 116 334 241 288 C357 246 417 202 417 169 C417 66 367 -2 291 -2 C220 -2 141 66 93 167 L83 162 C67 188 56 212 52 230 C49 243 47 251 47 251 C47 251 46 243 45 230 C44 217 44 209 44 209 L44 143 L44 140 L44 71 C44 71 44 56 45 35 C46 13 47 -2 47 -2 C47 -2 49 13 52 35 C55 60 83 73 119 49 C167 11 228 -11 290 -11 C446 -11 550 80 550 216 C550 318 479 411 340 461 C235 499 181 553 181 603 C181 693 223 753 286 753 C305 753 324 749 342 742 L332 745 C347 740 362 733 376 724 C413 701 445 665 466 621 L476 626 C491 602 502 578 507 557 C510 544 512 536 512 536 C512 536 513 544 513 557 C514 570 515 578 515 578 L515 640 L515 644 L515 701 C515 701 514 712 513 730 C513 747 512 758 512 758 C512 758 510 747 507 729 C503 707 483 692 458 709 L459 711 L459 711 Z M288 895 L425 801 L445 818 L341 983 C331 999 305 1037 288 1037 C270 1037 245 1000 235 984 L131 818 L151 801 L288 895 L288 895 Z M332 744 L326 746 C328 746 330 745 332 744 L332 744 Z " />
<glyph glyph-name="Scaron" unicode="&#x160;" horiz-adv-x="590" d="M459 711 L458 711 C414 742 353 760 287 760 C145 760 51 672 51 540 C51 430 116 334 241 288 C357 246 417 202 417 169 C417 66 367 -2 291 -2 C220 -2 141 66 93 167 L83 162 C67 188 56 212 52 230 C49 243 47 251 47 251 C47 251 46 243 45 230 C44 217 44 209 44 209 L44 143 L44 140 L44 71 C44 71 44 56 45 35 C46 13 47 -2 47 -2 C47 -2 49 13 52 35 C55 60 83 73 119 49 C167 11 228 -11 290 -11 C446 -11 550 80 550 216 C550 318 479 411 340 461 C235 499 181 553 181 603 C181 693 223 753 286 753 C305 753 324 749 342 742 L332 745 C347 740 362 733 376 724 C413 701 445 665 466 621 L476 626 C491 602 502 578 507 557 C510 544 512 536 512 536 C512 536 513 544 513 557 C514 570 515 578 515 578 L515 640 L515 644 L515 701 C515 701 514 712 513 730 C513 747 512 758 512 758 C512 758 510 747 507 729 C503 707 483 692 458 709 L459 711 L459 711 Z M288 951 L425 1045 L445 1028 L341 863 C331 847 305 809 288 809 C270 809 245 846 235 862 L131 1028 L151 1045 L288 951 L288 951 Z M332 744 L326 746 C328 746 330 745 332 744 L332 744 Z " />
<glyph glyph-name="scaron" unicode="&#x161;" horiz-adv-x="479" d="M228 703 L365 797 L385 780 L281 615 C271 599 245 561 228 561 C211 561 185 598 175 614 L71 780 L91 797 L228 703 L228 703 Z M297 497 L276 500 C312 488 347 455 368 409 L386 418 C396 399 401 379 401 360 L401 344 C401 344 402 351 405 360 C407 370 408 377 408 377 L408 428 L408 431 L408 485 C408 485 407 490 405 498 C402 505 401 510 401 510 L401 481 C401 472 380 472 348 487 C320 502 285 511 247 511 C134 511 58 452 58 364 C58 284 105 218 195 194 C273 173 313 139 313 105 C313 40 279 -4 228 -4 C224 -4 220 -4 216 -3 L217 -3 C215 -3 213 -3 211 -3 C174 7 133 50 105 111 L87 102 C78 122 73 142 73 160 L73 176 C73 176 71 170 69 160 C67 150 65 144 65 144 L65 97 L65 92 L65 50 C65 50 67 41 69 29 C71 16 73 7 73 7 L73 29 C73 34 106 27 156 5 L158 5 C179 -4 202 -9 225 -9 C346 -9 426 54 426 148 C426 217 369 278 258 308 C195 325 162 367 162 416 C162 470 195 506 244 506 C254 506 264 504 274 501 L245 506 C263 506 280 503 295 498 L297 497 L297 497 Z " />
<glyph glyph-name="Tcaron" unicode="&#x164;" horiz-adv-x="806" d="M403 953 L540 1047 L560 1030 L456 865 C446 849 420 811 403 811 C386 811 361 848 350 864 L246 1030 L266 1047 L403 953 L403 953 Z M25 607 L40 645 C54 683 79 708 163 708 L319 708 L319 68 C319 18 294 8 257 8 L214 8 C214 8 225 6 241 4 C256 2 267 0 267 0 L403 0 L539 0 C539 0 550 2 566 4 C581 6 592 8 592 8 L550 8 C512 8 487 18 487 68 L487 708 L644 708 C728 708 753 683 766 645 L782 603 C782 603 780 614 776 630 C772 646 770 657 770 657 C764 673 756 693 751 709 L751 749 L736 749 C734 756 732 763 730 769 C730 769 727 773 722 779 C718 785 715 789 715 789 L721 772 C726 758 714 749 629 749 L488 749 L320 749 L179 749 C95 749 82 758 87 772 L94 789 C94 789 91 785 86 779 C81 773 78 769 78 769 C76 763 74 756 72 749 L57 749 L57 707 L57 707 C51 691 43 672 38 657 C38 657 36 646 32 630 C30 619 28 611 27 607 L25 607 L25 607 Z M27 607 C26 605 26 604 26 604 L27 607 L27 607 Z " />
<glyph glyph-name="tcaron" unicode="&#x165;" horiz-adv-x="470" d="M416 500 L249 500 L249 620 L238 620 L34 431 L34 421 L99 421 L99 217 C99 54 171 -10 280 -10 C388 -10 460 55 460 154 L441 154 C441 98 395 61 326 61 C276 61 244 95 245 184 L249 421 L416 421 L416 500 L416 500 Z M557 627 C577 662 591 704 591 732 C591 747 564 753 523 754 C493 753 481 690 479 644 L474 531 L500 526 L557 627 L557 627 Z " />
<glyph glyph-name="Utilde" unicode="&#x168;" horiz-adv-x="900" d="M274 870 C274 899 293 919 323 919 C386 919 449 854 513 854 C570 854 608 920 608 1019 L604 1019 C604 983 581 959 547 959 C484 959 421 1024 357 1024 C305 1024 270 962 270 870 L274 870 L274 870 Z M786 98 L786 677 L786 750 L676 750 L566 750 C566 750 555 748 539 746 C524 744 513 742 513 742 L555 742 C593 742 618 732 618 677 L618 219 C584 146 510 98 432 98 C329 98 261 149 261 226 L261 677 L261 750 L151 750 L41 750 C41 750 30 748 14 746 C-1 744 -12 742 -12 742 L30 742 C68 742 93 732 93 677 L93 226 C93 85 201 -10 364 -10 C473 -10 575 51 618 143 L618 98 L618 0 L644 0 L890 49 L890 53 C803 48 786 54 786 98 L786 98 Z " />
<glyph glyph-name="utilde" unicode="&#x169;" horiz-adv-x="700" d="M171 620 C171 649 190 669 219 669 C283 669 346 604 410 604 C467 604 505 670 505 769 L501 769 C501 733 478 709 444 709 C381 709 318 774 254 774 C202 774 167 712 167 620 L171 620 L171 620 Z M446 78 L446 -10 L472 -10 L638 31 C638 31 647 35 660 41 C672 46 681 50 681 50 L638 39 C613 33 596 42 596 108 L596 477 L596 500 L504 500 L413 500 C413 500 406 498 396 496 C386 494 380 492 380 492 L422 492 C436 492 446 490 446 477 L446 134 C428 109 380 94 320 94 C265 94 228 122 228 165 L228 477 L228 500 L136 500 L44 500 C44 500 38 498 28 496 C18 494 11 492 11 492 L54 492 C68 492 78 490 78 477 L78 165 C78 60 147 -10 250 -10 C334 -10 412 42 447 123 L446 78 L446 78 Z " />
<glyph glyph-name="Umacron" unicode="&#x16a;" horiz-adv-x="900" d="M266 884 L613 884 L613 988 L266 988 L266 884 L266 884 Z M786 98 L786 677 L786 750 L676 750 L566 750 C566 750 555 748 539 746 C524 744 513 742 513 742 L555 742 C593 742 618 732 618 677 L618 219 C584 146 510 98 432 98 C329 98 261 149 261 226 L261 677 L261 750 L151 750 L41 750 C41 750 30 748 14 746 C-1 744 -12 742 -12 742 L30 742 C68 742 93 732 93 677 L93 226 C93 85 201 -10 364 -10 C473 -10 575 51 618 143 L618 98 L618 0 L644 0 L890 49 L890 53 C803 48 786 54 786 98 L786 98 Z " />
<glyph glyph-name="umacron" unicode="&#x16b;" horiz-adv-x="700" d="M163 634 L510 634 L510 738 L163 738 L163 634 L163 634 Z M446 78 L446 -10 L472 -10 L638 31 C638 31 647 35 660 41 C672 46 681 50 681 50 L638 39 C613 33 596 42 596 108 L596 477 L596 500 L504 500 L413 500 C413 500 406 498 396 496 C386 494 380 492 380 492 L422 492 C436 492 446 490 446 477 L446 134 C428 109 380 94 320 94 C265 94 228 122 228 165 L228 477 L228 500 L136 500 L44 500 C44 500 38 498 28 496 C18 494 11 492 11 492 L54 492 C68 492 78 490 78 477 L78 165 C78 60 147 -10 250 -10 C334 -10 412 42 447 123 L446 78 L446 78 Z " />
<glyph glyph-name="Ubreve" unicode="&#x16c;" horiz-adv-x="900" d="M269 994 C284 899 352 836 439 836 C527 836 596 898 610 991 L578 995 C573 963 518 941 439 941 C361 941 306 964 300 998 L269 994 L269 994 Z M786 98 L786 677 L786 750 L676 750 L566 750 C566 750 555 748 539 746 C524 744 513 742 513 742 L555 742 C593 742 618 732 618 677 L618 219 C584 146 510 98 432 98 C329 98 261 149 261 226 L261 677 L261 750 L151 750 L41 750 C41 750 30 748 14 746 C-1 744 -12 742 -12 742 L30 742 C68 742 93 732 93 677 L93 226 C93 85 201 -10 364 -10 C473 -10 575 51 618 143 L618 98 L618 0 L644 0 L890 49 L890 53 C803 48 786 54 786 98 L786 98 Z " />
<glyph glyph-name="ubreve" unicode="&#x16d;" horiz-adv-x="700" d="M166 744 C180 649 248 586 336 586 C424 586 492 648 507 741 L475 745 C470 713 415 691 336 691 C258 691 202 714 197 748 L166 744 L166 744 Z M446 78 L446 -10 L472 -10 L638 31 C638 31 647 35 660 41 C672 46 681 50 681 50 L638 39 C613 33 596 42 596 108 L596 477 L596 500 L504 500 L413 500 C413 500 406 498 396 496 C386 494 380 492 380 492 L422 492 C436 492 446 490 446 477 L446 134 C428 109 380 94 320 94 C265 94 228 122 228 165 L228 477 L228 500 L136 500 L44 500 C44 500 38 498 28 496 C18 494 11 492 11 492 L54 492 C68 492 78 490 78 477 L78 165 C78 60 147 -10 250 -10 C334 -10 412 42 447 123 L446 78 L446 78 Z " />
<glyph glyph-name="Uring" unicode="&#x16e;" horiz-adv-x="900" d="M439 845 C409 845 384 873 384 905 C384 941 406 965 439 965 C473 965 495 941 495 905 C495 873 469 845 439 845 L439 845 Z M340 905 C340 854 386 810 439 810 C493 810 539 854 539 905 C539 962 499 1000 439 1000 C380 1000 340 962 340 905 L340 905 Z M786 98 L786 677 L786 750 L676 750 L566 750 C566 750 555 748 539 746 C524 744 513 742 513 742 L555 742 C593 742 618 732 618 677 L618 219 C584 146 510 98 432 98 C329 98 261 149 261 226 L261 677 L261 750 L151 750 L41 750 C41 750 30 748 14 746 C-1 744 -12 742 -12 742 L30 742 C68 742 93 732 93 677 L93 226 C93 85 201 -10 364 -10 C473 -10 575 51 618 143 L618 98 L618 0 L644 0 L890 49 L890 53 C803 48 786 54 786 98 L786 98 Z " />
<glyph glyph-name="uring" unicode="&#x16f;" horiz-adv-x="700" d="M336 595 C306 595 281 623 281 655 C281 691 303 715 336 715 C369 715 391 691 391 655 C391 623 366 595 336 595 L336 595 Z M237 655 C237 604 283 560 336 560 C390 560 436 604 436 655 C436 712 396 750 336 750 C277 750 237 712 237 655 L237 655 Z M446 78 L446 -10 L472 -10 L638 31 C638 31 647 35 660 41 C672 46 681 50 681 50 L638 39 C613 33 596 42 596 108 L596 477 L596 500 L504 500 L413 500 C413 500 406 498 396 496 C386 494 380 492 380 492 L422 492 C436 492 446 490 446 477 L446 134 C428 109 380 94 320 94 C265 94 228 122 228 165 L228 477 L228 500 L136 500 L44 500 C44 500 38 498 28 496 C18 494 11 492 11 492 L54 492 C68 492 78 490 78 477 L78 165 C78 60 147 -10 250 -10 C334 -10 412 42 447 123 L446 78 L446 78 Z " />
<glyph glyph-name="Wcircumflex" unicode="&#x174;" horiz-adv-x="1249" d="M599 897 L736 803 L756 820 L652 985 C642 1001 616 1039 599 1039 C582 1039 557 1002 547 986 L442 820 L462 803 L599 897 L599 897 Z M375 742 L383 742 L417 742 C449 742 473 736 491 702 L491 702 L597 500 L597 500 L503 211 L503 212 L298 629 C253 724 285 742 346 742 L375 742 L375 742 Z M380 743 C377 744 373 745 368 746 C358 748 352 750 352 750 L239 750 L189 750 L55 750 L26 750 C26 750 20 748 10 746 C0 744 -6 742 -6 742 L51 742 C56 742 68 723 118 622 L119 622 L322 212 L432 -10 L476 -10 L633 434 L733 244 L866 -10 L911 -10 L1120 666 C1143 729 1167 742 1195 742 L1237 742 C1237 742 1231 744 1221 746 C1211 748 1205 750 1205 750 L1145 750 L1076 750 L1074 750 L943 750 C943 750 937 748 927 746 C917 744 911 742 911 742 L951 742 C1025 742 1069 723 1040 622 L1040 622 L935 245 L708 661 C676 729 708 742 767 742 L805 742 C805 742 798 744 788 746 C779 748 772 750 772 750 L660 750 L590 750 L466 750 L407 750 C407 750 401 748 391 746 C386 745 382 744 379 743 L380 743 L380 743 Z " />
<glyph glyph-name="Ycircumflex" unicode="&#x176;" horiz-adv-x="833" d="M428 897 L565 803 L585 820 L481 985 C471 1001 445 1039 428 1039 C411 1039 386 1002 376 986 L271 820 L291 803 L428 897 L428 897 Z M327 622 L327 622 L327 622 L316 638 C261 724 275 741 312 741 L349 741 C349 741 343 743 333 745 C323 747 317 749 317 749 L244 749 L168 749 L47 749 L19 749 C19 749 13 747 3 745 C-7 743 -13 741 -13 741 L44 741 C49 741 65 722 133 621 L133 621 L345 307 L345 67 C345 17 320 7 283 7 L240 7 C240 7 251 5 267 3 C282 1 293 -1 293 -1 L429 -1 L566 -1 C566 -1 576 1 592 3 C608 5 618 7 618 7 L576 7 C538 7 513 17 513 67 L513 335 L683 639 C733 724 759 741 782 741 L825 741 C825 741 818 743 808 745 C799 747 792 749 792 749 L744 749 L731 749 L726 749 L659 749 C659 749 652 747 643 745 C633 743 626 741 626 741 L665 741 C699 741 715 727 682 660 L509 343 L327 622 L327 622 Z " />
<glyph glyph-name="Ydieresis" unicode="&#x178;" horiz-adv-x="833" d="M519 865 C567 865 599 897 599 945 C599 993 567 1025 519 1025 C471 1025 439 993 439 945 C439 897 471 865 519 865 L519 865 Z M338 865 C386 865 418 897 418 945 C418 993 386 1025 338 1025 C290 1025 258 993 258 945 C258 897 290 865 338 865 L338 865 Z M327 622 L327 622 L327 622 L316 638 C261 724 275 741 312 741 L349 741 C349 741 343 743 333 745 C323 747 317 749 317 749 L244 749 L168 749 L47 749 L19 749 C19 749 13 747 3 745 C-7 743 -13 741 -13 741 L44 741 C49 741 65 722 133 621 L133 621 L345 307 L345 67 C345 17 320 7 283 7 L240 7 C240 7 251 5 267 3 C282 1 293 -1 293 -1 L429 -1 L566 -1 C566 -1 576 1 592 3 C608 5 618 7 618 7 L576 7 C538 7 513 17 513 67 L513 335 L683 639 C733 724 759 741 782 741 L825 741 C825 741 818 743 808 745 C799 747 792 749 792 749 L744 749 L731 749 L726 749 L659 749 C659 749 652 747 643 745 C633 743 626 741 626 741 L665 741 C699 741 715 727 682 660 L509 343 L327 622 L327 622 Z " />
<glyph glyph-name="Zacute" unicode="&#x179;" horiz-adv-x="683" d="M365 810 L513 925 C545 951 567 971 567 980 C567 1020 532 1054 492 1054 C484 1054 466 1030 444 993 L347 829 L365 810 L365 810 Z M207 0 L490 0 L637 0 C642 19 648 44 653 62 C657 81 663 106 668 125 C668 125 671 141 674 164 C678 188 681 204 680 204 L667 160 C648 98 617 56 525 50 L231 41 L640 715 L640 750 L476 750 L227 750 L69 750 C66 731 63 705 60 686 C57 666 54 640 51 621 C51 621 50 604 50 578 C49 552 49 534 49 534 L55 574 C67 652 99 704 220 704 L220 705 L451 711 L24 36 L24 1 L207 0 L207 0 Z " />
<glyph glyph-name="Zdot" unicode="&#x17b;" horiz-adv-x="683" d="M356 865 C404 865 436 897 436 945 C436 993 404 1025 356 1025 C308 1025 276 993 276 945 C276 897 308 865 356 865 L356 865 Z M207 0 L490 0 L637 0 C642 19 648 44 653 62 C657 81 663 106 668 125 C668 125 671 141 674 164 C678 188 681 204 680 204 L667 160 C648 98 617 56 525 50 L231 41 L640 715 L640 750 L476 750 L227 750 L69 750 C66 731 63 705 60 686 C57 666 54 640 51 621 C51 621 50 604 50 578 C49 552 49 534 49 534 L55 574 C67 652 99 704 220 704 L220 705 L451 711 L24 36 L24 1 L207 0 L207 0 Z " />
<glyph glyph-name="zdot" unicode="&#x17c;" horiz-adv-x="506" d="M275 615 C323 615 355 647 355 695 C355 743 323 775 275 775 C227 775 195 743 195 695 C195 647 227 615 275 615 L275 615 Z M108 538 C107 536 105 533 103 529 C99 523 96 519 96 519 C95 513 93 506 91 499 L84 499 L84 473 C83 469 82 465 81 461 C76 444 70 420 65 403 C65 403 62 393 58 378 C54 363 51 353 51 353 L71 395 C84 423 104 443 155 450 L289 456 L41 34 L41 -1 L199 -1 L314 -1 L462 -1 C464 13 467 33 469 47 C471 62 474 81 476 96 L481 121 C484 136 485 146 485 146 L469 103 C458 75 436 54 365 48 L323 46 C321 46 319 46 317 46 L317 46 L225 42 L468 464 L468 499 L315 499 L112 499 C107 499 101 503 102 509 L108 538 L108 538 Z M110 537 L110 539 C110 539 110 538 109 537 L110 537 L110 537 Z " />
<glyph glyph-name="Zcaron" unicode="&#x17d;" horiz-adv-x="683" d="M356 953 L493 1047 L513 1030 L409 865 C399 849 373 811 356 811 C338 811 313 848 303 864 L199 1030 L219 1047 L356 953 L356 953 Z M207 0 L490 0 L637 0 C642 19 648 44 653 62 C657 81 663 106 668 125 C668 125 671 141 674 164 C678 188 681 204 680 204 L667 160 C648 98 617 56 525 50 L231 41 L640 715 L640 750 L476 750 L227 750 L69 750 C66 731 63 705 60 686 C57 666 54 640 51 621 C51 621 50 604 50 578 C49 552 49 534 49 534 L55 574 C67 652 99 704 220 704 L220 705 L451 711 L24 36 L24 1 L207 0 L207 0 Z " />
<glyph glyph-name="zcaron" unicode="&#x17e;" horiz-adv-x="506" d="M274 703 L411 797 L432 780 L328 615 C318 599 292 561 275 561 C257 561 232 598 222 614 L117 780 L138 797 L274 703 L274 703 Z M108 538 C107 536 105 533 103 529 C99 523 96 519 96 519 C95 513 93 506 91 499 L84 499 L84 473 C83 469 82 465 81 461 C76 444 70 420 65 403 C65 403 62 393 58 378 C54 363 51 353 51 353 L71 395 C84 423 104 443 155 450 L289 456 L41 34 L41 -1 L199 -1 L314 -1 L462 -1 C464 13 467 33 469 47 C471 62 474 81 476 96 L481 121 C484 136 485 146 485 146 L469 103 C458 75 436 54 365 48 L323 46 C321 46 319 46 317 46 L317 46 L225 42 L468 464 L468 499 L315 499 L112 499 C107 499 101 503 102 509 L108 538 L108 538 Z M110 537 L110 539 C110 539 110 538 109 537 L110 537 L110 537 Z " />
<glyph glyph-name="oogonek" unicode="&#x1eb;" horiz-adv-x="862" d="M1115 -53 L1113 -51 C1083 -76 960 -93 806 -93 C652 -93 500 -61 397 -10 C400 -10 403 -10 406 -10 C648 -10 810 111 810 292 C810 472 652 593 416 593 C186 593 32 472 32 292 C32 204 93 131 169 78 L167 79 C397 -80 645 -187 787 -187 C886 -187 1016 -133 1113 -53 L1115 -53 L1115 -53 Z M407 -4 C389 -4 364 6 337 25 C332 29 327 33 323 37 L323 37 C265 86 206 176 206 292 C206 469 290 587 416 587 C549 587 638 469 638 292 C638 114 546 -4 408 -4 L407 -4 L407 -4 Z " />
<glyph glyph-name="Adotabove" unicode="&#x226;" horiz-adv-x="868" d="M430 865 C478 865 510 897 510 945 C510 993 478 1025 430 1025 C382 1025 350 993 350 945 C350 897 382 865 430 865 L430 865 Z M726 128 L725 128 L514 697 L487 770 L472 770 C446 733 396 704 346 697 L350 686 L192 158 L192 158 C155 32 111 8 55 8 L12 8 C12 8 19 6 29 4 C38 2 45 0 45 0 L145 0 L153 0 L165 0 L285 0 C285 0 292 2 301 4 C311 6 318 8 318 8 L278 8 C208 8 167 29 194 138 L240 293 L492 293 L556 117 C587 26 557 8 503 8 L463 8 C463 8 470 6 479 4 C489 2 496 0 496 0 L598 0 L665 0 L774 0 L834 0 C834 0 840 2 850 4 C860 6 866 8 866 8 L824 8 C792 8 763 27 727 128 L726 128 L726 128 Z M242 300 L353 679 L489 300 L242 300 L242 300 Z " />
<glyph glyph-name="G_sc" unicode="&#x262;" horiz-adv-x="819" d="M607 563 L607 563 C566 582 511 593 429 593 C193 593 36 472 36 292 C36 111 195 -10 434 -10 C467 -10 498 -8 528 -4 L531 -5 L531 -3 L531 -3 L531 -5 L550 -1 C581 4 610 11 638 20 L677 29 L677 33 C700 41 722 50 744 60 L743 63 C725 55 704 48 677 42 L678 183 C678 233 695 243 721 243 L763 243 C763 243 754 245 742 247 C729 249 720 251 720 251 L599 251 L477 251 C477 251 467 249 452 247 C437 245 427 243 427 243 L469 243 C504 243 527 233 527 183 L530 26 L530 26 L527 160 C527 79 495 25 448 25 C300 25 201 131 201 290 C201 467 293 586 431 586 C527 586 584 544 641 479 C663 451 679 422 684 398 C687 386 689 377 689 377 C689 377 690 386 691 398 C691 411 692 420 692 420 L692 485 L692 493 L692 550 C692 550 691 557 691 566 C690 576 689 582 689 582 C689 582 687 571 684 554 C682 542 650 541 606 562 L607 563 L607 563 Z " />
<glyph glyph-name="I_sc" unicode="&#x26a;" horiz-adv-x="410" d="M265 68 L265 516 C265 566 290 576 328 576 L370 576 C370 576 360 577 344 579 C328 582 318 583 318 583 L190 583 L62 583 C62 583 52 582 36 579 C20 577 10 576 10 576 L52 576 C90 576 115 566 115 516 L115 68 C115 18 90 8 52 8 L10 8 C10 8 20 6 36 4 C52 2 62 0 62 0 L190 0 L318 0 C318 0 328 2 344 4 C360 6 370 8 370 8 L328 8 C290 8 265 18 265 68 L265 68 Z " />
<glyph glyph-name="N_sc" unicode="&#x274;" horiz-adv-x="760" d="M178 128 L178 128 L175 421 L416 167 L574 0 L604 0 L613 476 L613 476 L613 476 L613 485 C616 560 648 575 696 575 L738 575 C738 575 726 576 707 578 C688 581 676 582 676 582 L615 582 L592 582 L570 582 L508 582 C508 582 496 581 477 578 C458 576 446 575 446 575 L488 575 C535 575 567 560 571 486 L573 164 L503 244 L209 582 L173 582 L136 582 L102 582 L21 582 L-4 582 C-4 582 -10 581 -20 578 C-30 576 -36 575 -36 575 L21 575 C24 575 29 572 40 562 L136 461 L135 137 L135 137 C135 28 102 7 52 7 L10 7 C10 7 16 5 26 3 C36 1 42 -1 42 -1 L135 -1 L157 -1 L180 -1 L272 -1 C272 -1 279 1 289 3 C298 5 305 7 305 7 L263 7 C212 7 178 26 179 127 L178 128 L178 128 Z " />
<glyph glyph-name="R_sc" unicode="&#x280;" horiz-adv-x="767" d="M758 0 L758 12 C698 12 694 14 658 53 C568 153 498 231 462 272 C558 294 616 340 616 414 C616 515 493 582 309 582 L283 582 L181 582 L80 582 C80 582 69 581 54 578 C38 576 27 575 27 575 L70 575 C107 575 132 565 132 510 L132 72 C132 17 107 7 70 7 L27 7 C27 7 38 5 54 3 C69 1 80 -1 80 -1 L208 -1 L336 -1 C336 -1 346 1 362 3 C378 5 388 7 388 7 L346 7 C308 7 283 17 283 72 L283 257 L306 257 C332 223 396 148 481 52 C526 1 537 -1 758 -1 L758 0 L758 0 Z M283 552 C384 547 450 505 450 443 C450 341 394 295 309 295 L283 295 L283 510 L283 552 L283 552 Z " />
<glyph glyph-name="Y_sc" unicode="&#x28f;" horiz-adv-x="731" d="M318 456 L318 456 C245 557 257 576 297 576 L334 576 C334 576 327 577 317 579 C308 582 301 583 301 583 L229 583 L162 583 L50 583 L24 583 C24 583 17 582 7 579 C-2 577 -9 576 -9 576 L48 576 C52 576 61 567 91 526 L301 236 L301 68 C301 18 276 8 238 8 L196 8 C196 8 206 6 222 4 C238 2 248 0 248 0 L376 0 L504 0 C504 0 515 2 530 4 C546 6 557 8 557 8 L514 8 C477 8 452 18 452 68 L452 261 L579 478 C630 560 656 576 680 576 L722 576 C722 576 715 577 706 579 C696 582 689 583 689 583 L641 583 L630 583 L624 583 L558 583 C558 583 551 582 541 579 C532 577 525 576 525 576 L563 576 C598 576 614 560 572 483 L448 267 L318 456 L318 456 Z " />
<glyph glyph-name="B_sc" unicode="&#x299;" horiz-adv-x="694" d="M283 579 L343 579 C440 579 463 519 463 430 C463 352 431 301 382 301 L283 301 L283 511 L283 579 L283 579 Z M442 301 C547 315 613 369 613 445 C613 528 563 583 352 583 L283 583 L181 583 L80 583 C80 583 69 582 54 579 C38 577 27 576 27 576 L70 576 C107 576 132 566 132 511 L132 73 C132 18 107 8 70 8 L27 8 C27 8 38 6 54 4 C69 2 80 0 80 0 L181 0 L283 0 L403 0 C554 0 655 29 655 151 C655 238 570 297 442 301 L442 301 Z M384 297 L414 297 C459 297 489 238 489 151 C489 32 452 4 397 4 L347 4 C309 4 283 23 283 52 L283 73 L283 297 L384 297 L384 297 Z " />
<glyph glyph-name="H_sc" unicode="&#x29c;" horiz-adv-x="867" d="M722 68 L722 516 C722 566 747 576 785 576 L827 576 C827 576 817 577 801 579 C785 582 775 583 775 583 L647 583 L519 583 C519 583 508 582 493 579 C477 577 466 576 466 576 L509 576 C546 576 571 566 571 516 L571 301 L319 301 L319 516 C319 566 344 576 382 576 L424 576 C424 576 414 577 398 579 C382 582 372 583 372 583 L244 583 L116 583 C116 583 105 582 90 579 C74 577 63 576 63 576 L106 576 C143 576 168 566 168 516 L168 68 C168 18 143 8 106 8 L63 8 C63 8 74 6 90 4 C105 2 116 0 116 0 L244 0 L372 0 C372 0 382 2 398 4 C414 6 424 8 424 8 L382 8 C344 8 319 18 319 68 L319 295 L571 295 L571 68 C571 18 546 8 509 8 L466 8 C466 8 477 6 493 4 C508 2 519 0 519 0 L647 0 L775 0 C775 0 785 2 801 4 C817 6 827 8 827 8 L785 8 C747 8 722 18 722 68 L722 68 Z " />
<glyph glyph-name="L_sc" unicode="&#x29f;" horiz-adv-x="627" d="M553 26 L553 26 C556 36 559 46 561 54 C566 70 571 92 576 108 C576 108 579 125 583 150 C587 175 590 192 590 192 L579 149 C559 76 520 27 381 27 L318 27 C271 27 266 37 266 53 L266 74 L266 512 C266 567 291 577 329 577 L371 577 C371 577 361 578 345 580 C329 583 319 584 319 584 L266 584 L191 584 L116 584 L63 584 C63 584 53 583 37 580 C21 578 11 577 11 577 L53 577 C91 577 116 567 116 512 L116 74 C116 19 91 9 53 9 L11 9 C11 9 21 7 37 5 C53 3 63 1 63 1 L116 1 L165 1 L266 1 L374 1 L547 1 L554 1 L553 26 L553 26 Z " />
<glyph glyph-name="A_sc" unicode="&#x1d00;" horiz-adv-x="773" d="M628 128 L628 128 L460 546 L438 603 L423 603 C404 576 358 553 310 546 L314 536 L313 536 L188 136 C150 29 108 8 55 8 L13 8 C13 8 19 6 29 4 C39 2 45 0 45 0 L145 0 L152 0 L165 0 L285 0 C285 0 291 2 301 4 C311 6 317 8 317 8 L277 8 C203 8 161 32 201 158 L201 158 L222 227 L432 227 L475 114 C506 25 477 8 424 8 L384 8 C384 8 391 6 401 4 C410 2 417 0 417 0 L519 0 L577 0 L678 0 L737 0 C737 0 744 2 753 4 C763 6 770 8 770 8 L727 8 C695 8 666 27 627 128 L628 128 L628 128 Z M223 233 L315 530 L429 233 L223 233 L223 233 Z " />
<glyph glyph-name="C_sc" unicode="&#x1d04;" horiz-adv-x="733" d="M607 563 L607 563 C566 582 511 593 429 593 C193 593 36 472 36 292 C36 111 190 -10 420 -10 C502 -10 562 2 608 23 C647 38 680 21 686 -1 C691 -19 694 -31 694 -31 L694 -1 L694 29 L694 89 L694 95 L694 161 C694 161 693 170 693 183 C692 195 691 204 691 204 C691 204 689 195 686 183 C677 143 629 77 568 37 C527 10 480 -6 424 -6 C291 -6 203 113 203 291 C203 468 295 587 433 587 C529 587 586 545 643 480 C665 452 681 423 686 399 C689 387 691 378 691 378 C691 378 692 387 693 399 C693 412 694 421 694 421 L694 486 L694 494 L694 551 C694 551 693 558 693 567 C692 577 691 583 691 583 C691 583 689 572 686 555 C684 543 652 542 608 563 L607 563 L607 563 Z " />
<glyph glyph-name="D_sc" unicode="&#x1d05;" horiz-adv-x="857" d="M132 511 L132 73 C132 18 107 8 70 8 L27 8 C27 8 38 6 54 4 C69 2 80 0 80 0 L132 0 L181 0 L283 0 L348 0 C620 0 802 99 802 292 C802 466 659 583 380 583 L283 583 L181 583 L132 583 L80 583 C80 583 69 582 54 579 C38 577 27 576 27 576 L70 576 C107 576 132 566 132 511 L132 511 Z M283 579 L362 579 C543 579 636 464 636 292 C636 102 518 5 341 5 C289 5 283 24 283 52 L283 73 L283 511 L283 579 L283 579 Z " />
<glyph glyph-name="E_sc" unicode="&#x1d07;" horiz-adv-x="652" d="M590 125 L585 88 C578 38 557 5 473 5 L335 5 C288 5 283 24 283 52 L283 73 L283 299 L387 299 C471 299 487 260 487 202 L487 159 C487 159 489 173 491 194 C494 215 495 229 495 229 L495 299 L495 302 L495 305 L495 375 C495 375 494 389 491 410 C489 431 487 445 487 445 L487 403 C487 344 471 305 387 305 L283 305 L283 511 L283 579 L448 579 C548 579 550 541 554 484 L556 454 C556 454 557 466 558 485 C559 504 560 516 560 516 C559 526 558 540 557 550 C557 560 556 574 555 583 L447 583 L283 583 L181 583 L132 583 L80 583 C80 583 69 582 54 579 C38 577 27 576 27 576 L70 576 C107 576 132 566 132 511 L132 73 C132 18 107 8 70 8 L27 8 C27 8 38 6 54 4 C69 2 80 0 80 0 L132 0 L181 0 L283 0 L472 0 L580 0 C581 10 583 24 585 34 C586 43 588 57 590 67 C589 67 590 80 590 99 C590 110 590 119 590 124 L590 125 L590 125 Z M590 124 C590 127 590 129 590 129 L590 124 L590 124 Z " />
<glyph glyph-name="J_sc" unicode="&#x1d0a;" horiz-adv-x="410" d="M115 516 L114 -121 C114 -197 50 -212 4 -212 C-73 -212 -39 -85 -115 -85 C-158 -85 -187 -114 -187 -156 C-187 -195 -113 -220 -2 -220 C111 -220 266 -158 266 165 L265 516 C265 566 290 576 328 576 L370 576 C370 576 360 577 344 579 C328 582 318 583 318 583 L190 583 L62 583 C62 583 52 582 36 579 C20 577 10 576 10 576 L52 576 C90 576 115 566 115 516 L115 516 Z " />
<glyph glyph-name="K_sc" unicode="&#x1d0b;" horiz-adv-x="794" d="M651 73 L651 73 L403 383 L540 530 C581 568 609 576 637 576 L679 576 C679 576 673 577 663 579 C653 582 647 583 647 583 L591 583 L536 583 L534 583 L426 583 C426 583 420 582 410 579 C400 577 394 576 394 576 L430 576 C487 576 510 558 431 463 L284 292 L284 523 C284 568 309 576 347 576 L389 576 C389 576 379 577 363 579 C347 582 337 583 337 583 L284 583 L209 583 L133 583 L81 583 C81 583 70 582 55 579 C39 577 28 576 28 576 L71 576 C108 576 133 568 133 523 L133 60 C133 16 108 8 71 8 L28 8 C28 8 39 6 55 4 C70 2 81 0 81 0 L133 0 L209 0 L284 0 L337 0 C337 0 347 2 363 4 C379 6 389 8 389 8 L347 8 C309 8 284 16 284 60 L284 292 L463 73 L463 73 C518 6 523 0 523 0 L640 0 L710 0 L757 0 C757 0 763 2 773 4 C783 6 789 8 789 8 L739 8 C719 8 679 40 652 73 L651 73 L651 73 Z " />
<glyph glyph-name="M_sc" unicode="&#x1d0d;" horiz-adv-x="898" d="M801 73 L801 73 L785 426 C782 552 805 576 841 576 L883 576 C883 576 877 577 867 579 C857 582 851 583 851 583 L778 583 L743 583 L688 583 L635 583 L492 202 L308 583 L188 583 L183 583 L151 583 L127 583 L58 583 C58 583 52 582 42 579 C32 577 26 576 26 576 L68 576 C100 576 126 569 149 535 L133 138 L132 138 C128 29 94 8 44 8 L2 8 C2 8 9 6 18 4 C28 2 35 0 35 0 L127 0 L153 0 L180 0 L272 0 C272 0 279 2 288 4 C298 6 305 8 305 8 L262 8 C211 8 178 27 182 128 L182 128 L187 463 L317 202 L417 0 L455 0 L640 460 L652 63 C651 17 626 8 589 8 L547 8 C547 8 557 6 573 4 C589 2 599 0 599 0 L654 0 L727 0 L805 0 L854 0 C854 0 865 2 880 4 C896 6 907 8 907 8 L864 8 C828 8 804 18 802 73 L801 73 L801 73 Z " />
<glyph glyph-name="O_sc" unicode="&#x1d0f;" horiz-adv-x="867" d="M409 -4 C288 -4 207 114 207 292 C207 469 291 587 417 587 C550 587 639 469 639 292 C639 114 547 -4 409 -4 L409 -4 Z M34 292 C34 111 184 -10 408 -10 C650 -10 812 111 812 292 C812 472 654 593 418 593 C188 593 34 472 34 292 L34 292 Z " />
<glyph glyph-name="P_sc" unicode="&#x1d18;" horiz-adv-x="631" d="M245 0 L321 0 L373 0 C373 0 384 2 400 4 C415 6 426 8 426 8 L384 8 C346 8 321 18 321 73 L321 252 L361 252 C511 252 611 303 611 416 C611 516 527 583 402 583 L321 583 L219 583 L170 583 L118 583 C118 583 107 582 91 579 C76 577 65 576 65 576 L107 576 C145 576 170 566 170 511 L170 73 C170 18 145 8 107 8 L65 8 C65 8 76 6 91 4 C107 2 118 0 118 0 L170 0 L245 0 L245 0 Z M321 284 L321 511 L321 558 L364 558 C427 558 470 511 470 441 C470 333 427 284 361 284 L321 284 L321 284 Z " />
<glyph glyph-name="T_sc" unicode="&#x1d1b;" horiz-adv-x="736" d="M25 445 L40 483 C54 521 79 546 163 546 L293 546 L293 68 C293 18 268 8 230 8 L188 8 C188 8 199 6 214 4 C230 2 241 0 241 0 L368 0 L496 0 C496 0 507 2 523 4 C538 6 549 8 549 8 L507 8 C469 8 444 18 444 68 L444 546 L574 546 C658 546 683 521 697 483 L712 441 C712 441 710 452 707 467 C703 483 701 494 701 494 C695 509 688 529 682 546 L682 583 L668 583 C665 590 662 597 660 603 C660 603 657 607 653 613 C648 619 645 623 645 623 L651 606 C656 592 643 583 560 583 L443 583 L292 583 L175 583 C92 583 79 592 84 606 L90 623 C90 623 87 619 82 613 C78 607 75 603 75 603 C73 597 70 590 67 583 L53 583 L53 546 C47 529 40 509 34 494 C34 494 32 483 28 467 C26 457 24 449 23 445 L25 445 L25 445 Z M23 445 C22 443 22 442 22 442 L23 445 L23 445 Z " />
<glyph glyph-name="U_sc" unicode="&#x1d1c;" horiz-adv-x="788" d="M674 98 L674 511 L674 583 L572 583 L470 583 C470 583 460 582 444 579 C428 577 418 576 418 576 L460 576 C498 576 523 566 523 511 L523 192 C494 129 430 87 365 87 C295 87 248 134 248 205 L248 511 L248 583 L146 583 L45 583 C45 583 34 582 19 579 C3 577 -8 576 -8 576 L35 576 C72 576 97 566 97 511 L97 205 C97 76 180 -10 304 -10 C398 -10 485 44 523 124 L523 98 L523 0 L547 0 L778 49 L778 53 C691 48 674 54 674 98 L674 98 Z " />
<glyph glyph-name="V_sc" unicode="&#x1d20;" horiz-adv-x="817" d="M83 536 L261 219 L390 -10 L420 -10 L679 513 C709 564 734 575 762 575 L804 575 C804 575 798 576 788 578 C778 581 772 582 772 582 L713 582 L652 582 L646 582 L520 582 C520 582 513 581 504 578 C494 576 487 575 487 575 L526 575 C598 575 639 557 601 464 L492 218 L322 455 L323 455 C266 556 297 575 359 575 L396 575 C396 575 390 576 380 578 C370 581 364 582 364 582 L231 582 L197 582 L58 582 L29 582 C29 582 23 581 13 578 C3 576 -3 575 -3 575 L54 575 C59 575 66 569 84 535 L83 536 L83 536 Z " />
<glyph glyph-name="W_sc" unicode="&#x1d21;" horiz-adv-x="1091" d="M332 576 L353 576 C385 576 410 570 429 536 L429 536 L514 389 L514 389 L449 189 L449 191 L297 456 L298 456 C242 557 272 576 332 576 L332 576 Z M340 582 C338 582 337 582 337 582 L224 582 L184 582 L59 582 L30 582 C30 582 24 581 14 578 C4 576 -2 575 -2 575 L55 575 C60 575 73 556 128 455 L129 455 L274 190 L384 -11 L423 -11 L547 332 L613 218 L745 -11 L785 -11 L960 504 C985 563 1009 576 1037 576 L1079 576 C1079 576 1073 577 1063 579 C1053 582 1047 583 1047 583 L987 583 L925 583 L920 583 L792 583 C792 583 786 582 776 579 C766 577 760 576 760 576 L800 576 C874 576 917 557 886 456 L886 456 L814 220 L639 487 L639 487 C595 563 625 577 683 577 L720 577 C720 577 714 578 704 580 C694 583 688 584 688 584 L575 584 L515 584 L401 584 L343 584 C343 584 342 584 340 584 L340 582 L340 582 Z " />
<glyph glyph-name="Z_sc" unicode="&#x1d22;" horiz-adv-x="614" d="M609 195 L596 154 C579 96 551 55 470 45 L215 37 L572 551 L572 582 L424 582 L228 582 L70 582 C67 564 64 539 61 520 C59 502 55 477 53 459 C53 459 52 441 52 415 C51 389 50 372 50 372 L57 411 C68 485 96 535 199 541 L398 546 L25 30 L25 -2 L189 -2 L420 -2 L568 -2 C572 16 578 40 583 58 C587 75 593 99 598 117 C598 117 600 133 604 157 C606 174 608 187 609 193 L609 195 L609 195 Z M609 193 C609 195 609 196 609 196 L609 193 L609 193 Z " />
<glyph glyph-name="Wgrave" unicode="&#x1e80;" horiz-adv-x="1249" d="M521 993 C499 1030 482 1054 473 1054 C433 1054 398 1020 398 980 C398 970 420 950 452 925 L600 810 L618 829 L521 993 L521 993 Z M375 742 L383 742 L417 742 C449 742 473 736 491 702 L491 702 L597 500 L597 500 L503 211 L503 212 L298 629 C253 724 285 742 346 742 L375 742 L375 742 Z M380 743 C377 744 373 745 368 746 C358 748 352 750 352 750 L239 750 L189 750 L55 750 L26 750 C26 750 20 748 10 746 C0 744 -6 742 -6 742 L51 742 C56 742 68 723 118 622 L119 622 L322 212 L432 -10 L476 -10 L633 434 L733 244 L866 -10 L911 -10 L1120 666 C1143 729 1167 742 1195 742 L1237 742 C1237 742 1231 744 1221 746 C1211 748 1205 750 1205 750 L1145 750 L1076 750 L1074 750 L943 750 C943 750 937 748 927 746 C917 744 911 742 911 742 L951 742 C1025 742 1069 723 1040 622 L1040 622 L935 245 L708 661 C676 729 708 742 767 742 L805 742 C805 742 798 744 788 746 C779 748 772 750 772 750 L660 750 L590 750 L466 750 L407 750 C407 750 401 748 391 746 C386 745 382 744 379 743 L380 743 L380 743 Z " />
<glyph glyph-name="Wacute" unicode="&#x1e82;" horiz-adv-x="1249" d="M609 810 L756 925 C789 951 810 971 810 980 C810 1020 776 1054 735 1054 C728 1054 710 1030 688 993 L590 829 L609 810 L609 810 Z M375 742 L383 742 L417 742 C449 742 473 736 491 702 L491 702 L597 500 L597 500 L503 211 L503 212 L298 629 C253 724 285 742 346 742 L375 742 L375 742 Z M380 743 C377 744 373 745 368 746 C358 748 352 750 352 750 L239 750 L189 750 L55 750 L26 750 C26 750 20 748 10 746 C0 744 -6 742 -6 742 L51 742 C56 742 68 723 118 622 L119 622 L322 212 L432 -10 L476 -10 L633 434 L733 244 L866 -10 L911 -10 L1120 666 C1143 729 1167 742 1195 742 L1237 742 C1237 742 1231 744 1221 746 C1211 748 1205 750 1205 750 L1145 750 L1076 750 L1074 750 L943 750 C943 750 937 748 927 746 C917 744 911 742 911 742 L951 742 C1025 742 1069 723 1040 622 L1040 622 L935 245 L708 661 C676 729 708 742 767 742 L805 742 C805 742 798 744 788 746 C779 748 772 750 772 750 L660 750 L590 750 L466 750 L407 750 C407 750 401 748 391 746 C386 745 382 744 379 743 L380 743 L380 743 Z " />
<glyph glyph-name="Wdieresis" unicode="&#x1e84;" horiz-adv-x="1249" d="M690 865 C738 865 770 897 770 945 C770 993 738 1025 690 1025 C642 1025 610 993 610 945 C610 897 642 865 690 865 L690 865 Z M509 865 C557 865 589 897 589 945 C589 993 557 1025 509 1025 C461 1025 429 993 429 945 C429 897 461 865 509 865 L509 865 Z M375 742 L383 742 L417 742 C449 742 473 736 491 702 L491 702 L597 500 L597 500 L503 211 L503 212 L298 629 C253 724 285 742 346 742 L375 742 L375 742 Z M380 743 C377 744 373 745 368 746 C358 748 352 750 352 750 L239 750 L189 750 L55 750 L26 750 C26 750 20 748 10 746 C0 744 -6 742 -6 742 L51 742 C56 742 68 723 118 622 L119 622 L322 212 L432 -10 L476 -10 L633 434 L733 244 L866 -10 L911 -10 L1120 666 C1143 729 1167 742 1195 742 L1237 742 C1237 742 1231 744 1221 746 C1211 748 1205 750 1205 750 L1145 750 L1076 750 L1074 750 L943 750 C943 750 937 748 927 746 C917 744 911 742 911 742 L951 742 C1025 742 1069 723 1040 622 L1040 622 L935 245 L708 661 C676 729 708 742 767 742 L805 742 C805 742 798 744 788 746 C779 748 772 750 772 750 L660 750 L590 750 L466 750 L407 750 C407 750 401 748 391 746 C386 745 382 744 379 743 L380 743 L380 743 Z " />
<glyph glyph-name="Etilde" unicode="&#x1ebc;" horiz-adv-x="734" d="M218 870 C218 899 237 919 266 919 C330 919 393 854 456 854 C514 854 552 920 552 1019 L548 1019 C548 983 525 959 491 959 C427 959 364 1024 300 1024 C248 1024 214 962 214 870 L218 870 L218 870 Z M672 124 L667 88 C660 38 639 5 555 5 L348 5 C301 5 296 24 296 52 L296 73 L296 385 L469 385 C553 385 569 346 569 287 L569 245 C569 245 571 259 573 280 C575 301 577 315 577 315 L577 385 L577 388 L577 391 L577 461 C577 461 575 475 573 496 C571 517 569 531 569 531 L569 489 C569 430 553 391 469 391 L296 391 L296 677 L296 745 L530 745 C630 745 632 707 636 650 L639 624 C639 629 640 638 641 650 C642 669 643 681 643 681 C642 691 641 705 640 715 C640 725 639 739 638 749 L530 749 L297 749 L187 749 L129 749 L77 749 C77 749 66 747 50 745 C35 743 24 741 24 741 L66 741 C104 741 129 731 129 676 L129 72 C129 17 104 7 66 7 L24 7 C24 7 35 5 50 3 C66 1 77 -1 77 -1 L129 -1 L187 -1 L297 -1 L555 -1 L663 -1 C664 9 666 23 668 33 C669 43 671 57 673 67 L673 98 C673 109 673 118 673 123 L672 124 L672 124 Z M673 123 C673 127 673 129 673 129 L673 123 L673 123 Z M639 623 L639 619 C639 619 639 620 639 623 L639 623 Z " />
<glyph glyph-name="Ygrave" unicode="&#x1ef2;" horiz-adv-x="833" d="M350 993 C328 1030 311 1054 302 1054 C262 1054 227 1020 227 980 C227 970 249 950 281 925 L429 810 L447 829 L350 993 L350 993 Z M327 622 L327 622 L327 622 L316 638 C261 724 275 741 312 741 L349 741 C349 741 343 743 333 745 C323 747 317 749 317 749 L244 749 L168 749 L47 749 L19 749 C19 749 13 747 3 745 C-7 743 -13 741 -13 741 L44 741 C49 741 65 722 133 621 L133 621 L345 307 L345 67 C345 17 320 7 283 7 L240 7 C240 7 251 5 267 3 C282 1 293 -1 293 -1 L429 -1 L566 -1 C566 -1 576 1 592 3 C608 5 618 7 618 7 L576 7 C538 7 513 17 513 67 L513 335 L683 639 C733 724 759 741 782 741 L825 741 C825 741 818 743 808 745 C799 747 792 749 792 749 L744 749 L731 749 L726 749 L659 749 C659 749 652 747 643 745 C633 743 626 741 626 741 L665 741 C699 741 715 727 682 660 L509 343 L327 622 L327 622 Z " />
<glyph glyph-name="quoteleft" unicode="&#x2018;" horiz-adv-x="798" d="" />
<glyph glyph-name="quoteright" unicode="&#x2019;" horiz-adv-x="266" d="" />
<glyph glyph-name="quotedblleft" unicode="&#x201c;" horiz-adv-x="798" d="M339 640 C321 640 306 632 296 617 L296 617 C296 682 329 734 379 748 L369 759 C298 740 251 672 251 589 C251 534 286 498 339 498 C382 498 410 526 410 568 C410 611 382 639 339 639 L339 640 L339 640 Z " />
<glyph glyph-name="quotedblright" unicode="&#x201d;" horiz-adv-x="798" d="M382 640 C379 578 336 526 273 509 L284 499 C370 522 428 591 428 673 C428 725 393 760 339 760 C297 760 269 732 269 689 C269 647 297 619 339 619 C357 619 372 627 382 641 L382 640 L382 640 Z " />
<glyph glyph-name="Euro" unicode="&#x20ac;" horiz-adv-x="884" d="M759 711 L758 711 C707 742 640 760 534 760 C317 760 158 663 102 507 L69 507 L54 400 L81 400 C81 392 81 384 81 376 C81 368 81 360 81 352 L54 352 L39 245 L102 245 C157 89 312 -8 523 -8 C627 -8 701 12 757 45 C797 66 830 53 836 30 C840 12 843 0 843 0 L843 30 L843 60 L843 119 L843 119 L842 120 L842 127 L842 195 C842 195 842 203 841 216 C840 229 840 237 840 237 C840 237 838 229 835 216 C829 193 806 156 773 120 C703 46 626 -2 524 -2 C401 -2 310 93 277 245 L581 245 L596 352 L264 352 C264 360 264 368 264 376 C264 384 264 392 264 400 L596 400 L611 507 L278 507 C312 659 407 754 536 754 C585 754 626 744 662 725 L662 725 C668 722 674 719 680 716 C725 689 764 649 804 601 L804 601 C821 577 833 554 837 536 C840 523 842 515 842 515 C842 515 843 523 843 536 C844 549 845 557 845 557 L845 624 L845 633 L845 691 C845 691 844 702 843 720 C843 737 842 748 842 748 C842 748 840 737 837 720 C833 696 800 685 759 711 L759 711 Z " />
<glyph glyph-name="F_sc" unicode="&#xa730;" horiz-adv-x="627" d="M559 458 C559 463 560 473 561 485 C561 504 562 517 562 517 C561 527 560 540 559 550 C558 560 557 573 556 582 L448 582 L284 582 L182 582 L133 582 L81 582 C81 582 70 581 55 578 C39 576 28 575 28 575 L71 575 C108 575 133 565 133 510 L133 72 C133 17 108 7 71 7 L28 7 C28 7 39 5 55 3 C70 1 81 -1 81 -1 L133 -1 L209 -1 L284 -1 L337 -1 C337 -1 347 1 363 3 C379 5 389 7 389 7 L347 7 C309 7 284 17 284 72 L284 293 L422 293 C467 281 479 247 481 201 L483 153 C483 153 484 168 485 190 C486 211 487 226 487 226 L487 293 L487 297 L487 298 L487 368 C487 368 486 382 485 403 C484 424 483 438 483 438 L481 390 C479 335 462 298 379 298 L285 298 L285 510 L285 578 L370 578 C521 578 552 545 557 496 L559 458 L559 458 Z M561 457 L561 453 C561 453 561 455 561 458 L561 457 L561 457 Z " />
<glyph glyph-name="S_sc" unicode="&#xa731;" horiz-adv-x="519" d="M301 579 L254 588 C270 588 286 585 302 579 L301 579 L301 579 Z M301 579 C308 576 315 573 322 569 C354 551 382 521 399 483 L407 487 C421 465 431 442 436 420 C439 407 441 398 441 398 C441 398 442 407 443 420 C443 432 444 441 444 441 L444 501 L444 504 L444 561 C444 561 443 568 443 578 C442 588 441 594 441 594 C441 594 439 583 436 566 C434 554 414 550 387 563 C352 583 306 595 256 595 C137 595 57 524 57 419 C57 331 109 253 211 215 C310 179 361 149 361 130 C361 51 319 -1 257 -1 C239 -1 221 4 203 13 L204 13 C197 16 190 20 183 24 C147 47 114 86 91 135 L84 132 C70 156 60 180 55 200 C52 212 50 221 50 221 C50 221 49 212 48 200 C48 187 47 178 47 178 L47 116 L47 111 L47 43 C47 43 48 29 48 7 C49 -15 50 -29 50 -29 C50 -29 52 -15 55 7 C58 33 91 50 132 26 L133 26 C169 6 212 -6 256 -6 C390 -6 480 67 480 176 C480 256 419 331 301 374 C216 404 173 443 173 478 C173 546 206 592 255 592 C271 592 287 589 302 583 L301 579 L301 579 Z " />
<glyph glyph-name="X_sc" unicode="&#xf078;" horiz-adv-x="792" d="M602 128 L601 128 L434 341 L673 561 C696 573 715 577 733 577 L775 577 C775 577 769 578 759 580 C749 583 743 584 743 584 L699 584 L635 584 L631 584 L528 584 C528 584 522 583 512 580 C502 578 496 577 496 577 L531 577 C587 577 606 556 511 447 L511 447 L427 351 L344 457 L345 457 C266 558 284 577 333 577 L369 577 C369 577 363 578 353 580 C343 583 337 584 337 584 L244 584 L183 584 L66 584 L30 584 C30 584 23 583 14 580 C4 578 -3 577 -3 577 L43 577 C58 577 82 561 145 483 L320 261 L183 109 L183 109 C107 25 68 9 30 9 L-12 9 C-12 9 -6 7 4 5 C14 3 20 1 20 1 L86 1 L146 1 L159 1 L299 1 C299 1 305 3 315 5 C325 7 331 9 331 9 L295 9 C215 9 173 25 229 102 L257 136 C258 137 259 138 260 139 L260 139 L340 236 L440 109 C501 26 482 10 436 10 L400 10 C400 10 406 8 416 6 C426 4 432 2 432 2 L525 2 L591 2 L704 2 L751 2 C751 2 757 4 767 6 C777 8 783 10 783 10 L741 10 C715 10 683 29 604 130 L602 128 L602 128 Z " />
</font>
</svg>
