<?xml version="1.0" encoding="UTF-8"?>
<svg xmlns="http://www.w3.org/2000/svg" xmlns:xlink="http://www.w3.org/1999/xlink" version="1.2" >
<font id="Sharis Light">
<font-face  font-family="Sharis" units-per-em="1024" ascent="975" descent="-300" font-style="normal" font-weight="300" font-stretch="normal" cap-height="750" x-height="500" underline-position="-125" underline-thickness="50" />
<missing-glyph  horiz-adv-x="650" d="" />
<glyph glyph-name="NULL" d="" />
<glyph glyph-name="CR" unicode="&#xd;" horiz-adv-x="256" d="" />
<glyph glyph-name="space" unicode="&#x20;" horiz-adv-x="289" d="" />
<glyph glyph-name="exclam" unicode="&#x21;" horiz-adv-x="201" d="M101 -5 C122 -5 136 9 136 30 C136 52 122 66 101 66 C79 66 65 52 65 30 C65 9 79 -5 101 -5 L101 -5 Z M101 755 C73 755 67 721 70 671 L96 210 L105 210 L131 671 C134 721 128 755 101 755 L101 755 Z " />
<glyph glyph-name="quotedbl" unicode="&#x22;" horiz-adv-x="356" d="M744 750 C728 750 726 732 729 705 L747 560 L753 560 L771 705 C774 732 772 750 756 750 L744 750 L744 750 Z " />
<glyph glyph-name="numbersign" unicode="&#x23;" horiz-adv-x="566" d="M418 681 L390 479 L217 479 L246 681 L243 681 L214 479 L65 479 L60 441 L209 441 L177 219 L26 219 L20 181 L172 181 L146 0 L149 0 L175 181 L349 181 L323 0 L325 0 L351 181 L498 181 L503 219 L356 219 L388 441 L542 441 L548 479 L393 479 L422 681 L418 681 L418 681 Z M212 441 L385 441 L354 219 L180 219 L212 441 L212 441 Z " />
<glyph glyph-name="dollar" unicode="&#x24;" horiz-adv-x="576" d="M321 825 L321 755 C301 759 280 761 259 761 L259 761 L259 826 L242 826 L242 760 C140 753 74 682 74 578 C74 515 131 443 242 379 L242 6 C214 15 187 28 163 45 C117 83 74 166 62 219 C59 232 57 241 57 241 C57 241 56 232 55 219 C55 207 54 198 54 198 L54 148 L54 137 L54 76 C54 76 55 61 55 39 C56 18 57 3 57 3 C57 3 59 18 62 39 C65 66 93 80 129 55 C162 29 201 10 243 -1 L243 -76 L260 -76 L260 -5 C280 -9 301 -11 322 -11 L322 -11 L322 -76 L339 -76 L339 -10 C459 -3 537 72 537 181 C537 259 469 343 339 404 L339 747 L338 747 L338 747 L338 747 C353 743 367 737 380 730 L356 739 C417 709 471 628 485 570 C488 557 490 548 490 548 C490 548 490 557 491 570 C492 582 493 591 493 591 L493 641 L493 645 L493 698 C493 698 492 710 491 727 C490 744 490 756 490 756 C490 756 488 744 485 727 C481 705 460 690 436 707 L435 707 C408 726 374 741 337 750 L337 824 L321 825 L321 825 Z M337 746 L337 746 C343 744 349 741 355 738 L337 746 L337 746 Z M256 367 C270 359 285 351 301 344 C307 341 313 338 319 335 L319 -9 L319 -9 C298 -9 277 -6 257 -1 L256 367 L256 367 Z M337 327 C439 273 491 214 491 163 C491 66 430 -1 337 -9 L337 327 L337 327 Z M257 443 L257 756 L257 756 C278 756 299 754 319 750 L319 411 C296 422 275 433 256 444 L257 443 L257 443 Z M239 454 C157 505 115 556 115 596 C115 685 164 747 239 755 L239 454 L239 454 Z " />
<glyph glyph-name="ampersand" unicode="&#x26;" horiz-adv-x="330" d="M311 471 L316 466 C407 493 468 552 468 613 C468 701 407 760 315 760 C218 760 153 697 153 603 C153 565 207 499 289 404 L504 152 C430 78 350 36 273 36 C169 36 100 108 100 216 C100 321 162 410 255 438 L246 441 C127 404 48 308 48 201 C48 74 126 -10 244 -10 C335 -10 430 44 516 138 L550 98 C606 33 666 -11 700 -11 C767 -11 819 52 831 147 L822 150 C813 78 773 30 721 30 C693 30 643 68 594 124 L549 176 C616 261 677 371 724 499 L712 499 C667 374 607 268 540 189 L334 429 C252 524 198 590 198 629 C198 700 245 747 316 747 C383 747 428 694 428 615 C428 549 381 492 312 470 L311 471 L311 471 Z " />
<glyph glyph-name="quotesingle" unicode="&#x27;" horiz-adv-x="218" d="" />
<glyph glyph-name="parenleft" unicode="&#x28;" horiz-adv-x="508" d="M320 760 C177 664 82 469 82 273 C82 85 174 -110 313 -214 L316 -209 C197 -119 118 74 118 273 C118 479 200 671 323 754 L320 760 L320 760 Z " />
<glyph glyph-name="parenright" unicode="&#x29;" horiz-adv-x="508" d="M27 754 C150 674 232 482 232 273 C232 61 153 -131 34 -209 L37 -214 C176 -125 268 70 268 273 C268 473 173 668 30 760 L27 754 L27 754 Z " />
<glyph glyph-name="asterisk" unicode="&#x2a;" horiz-adv-x="268" d="M150 630 L165 750 C167 761 161 769 150 769 C139 769 133 761 135 750 L150 630 L150 630 Z M150 630 L246 557 C255 550 265 551 271 560 C276 570 272 579 262 583 L150 630 L150 630 Z M150 630 L54 703 C45 710 35 709 29 700 C24 690 28 681 38 677 L150 630 L150 630 Z M150 630 L262 677 C272 681 276 690 271 700 C265 709 255 710 246 703 L150 630 L150 630 Z M150 630 L38 583 C28 579 24 570 29 560 C35 551 45 550 54 557 L150 630 L150 630 Z M150 630 L135 510 C133 499 139 491 150 491 C161 491 167 499 165 510 L150 630 L150 630 Z " />
<glyph glyph-name="plus" unicode="&#x2b;" horiz-adv-x="651" d="M306 476 L306 268 L100 268 L100 232 L306 232 L306 24 L345 24 L345 232 L551 232 L551 268 L345 268 L345 476 L306 476 L306 476 Z " />
<glyph glyph-name="comma" unicode="&#x2c;" horiz-adv-x="257" d="M175 48 C179 35 181 20 181 3 C181 -65 135 -110 65 -110 L65 -111 C139 -111 188 -63 188 8 C188 50 177 83 159 100 C150 109 138 114 124 114 C88 114 64 90 64 54 C64 18 88 -6 124 -6 C152 -6 171 15 173 47 L175 48 L175 48 Z " />
<glyph glyph-name="hyphen" unicode="&#x2d;" horiz-adv-x="461" d="M80 265 L381 265 L381 305 L80 305 L80 265 L80 265 Z " />
<glyph glyph-name="period" unicode="&#x2e;" horiz-adv-x="195" d="M125 -5 C146 -5 160 9 160 30 C160 52 146 66 125 66 C104 66 90 52 90 30 C90 9 104 -5 125 -5 L125 -5 Z " />
<glyph glyph-name="slash" unicode="&#x2f;" horiz-adv-x="378" d="M319 770 L37 -80 L67 -80 L349 770 L319 770 L319 770 Z " />
<glyph glyph-name="zero" unicode="0" horiz-adv-x="605" d="M305 11 C180 11 73 107 73 250 C73 379 166 489 305 489 C430 489 537 393 537 250 C537 121 444 11 305 11 L305 11 Z M49 250 C49 94 167 -10 305 -10 C459 -10 561 110 561 250 C561 406 443 510 305 510 C151 510 49 390 49 250 L49 250 Z " />
<glyph glyph-name="one" unicode="1" horiz-adv-x="330" d="M190 23 L190 477 C190 490 213 492 248 492 L290 492 C290 492 280 494 265 496 C250 498 240 500 240 500 L165 500 L90 500 C90 500 80 498 65 496 C50 494 40 492 40 492 L82 492 C117 492 140 490 140 477 L140 23 C140 10 117 8 82 8 L40 8 C40 8 50 6 65 4 C80 2 90 0 90 0 L165 0 L240 0 C240 0 250 2 265 4 C280 6 290 8 290 8 L248 8 C213 8 190 10 190 23 L190 23 Z " />
<glyph glyph-name="two" unicode="2" horiz-adv-x="558" d="M56 291 C77 400 155 472 252 472 C346 472 409 416 409 331 C409 210 235 99 30 9 L30 0 L361 0 L428 0 L456 0 L484 44 L483 44 C489 54 496 65 502 75 C502 75 505 82 509 93 C514 103 517 110 517 110 L490 68 C482 54 458 45 366 45 L125 45 C313 137 459 241 459 344 C459 444 386 511 277 511 C163 511 70 424 45 295 L56 291 L56 291 Z " />
<glyph glyph-name="three" unicode="3" horiz-adv-x="440" d="M18 -222 L20 -232 C248 -208 400 -116 400 -2 C400 90 304 166 160 186 C309 255 404 324 404 384 C404 460 335 510 231 510 C128 510 44 446 22 351 L33 348 C50 424 122 475 211 475 C295 475 351 432 351 367 C351 301 248 231 93 166 L93 156 C245 134 347 65 347 -17 C347 -119 216 -202 18 -222 L18 -222 Z " />
<glyph glyph-name="four" unicode="4" horiz-adv-x="679" d="M655 1 C656 8 657 15 658 21 C660 35 663 55 664 70 C665 70 664 76 663 86 C662 96 661 102 661 102 L655 60 C654 46 635 37 542 37 L446 37 L446 446 L446 529 L440 529 L15 8 L15 -1 L31 -1 L396 -1 L396 -221 L446 -221 L446 -1 L587 -1 C637 -1 646 -6 645 -14 L639 -56 C639 -56 642 -50 645 -42 C649 -34 651 -28 651 -28 C652 -20 653 -10 654 0 L654 0 L655 1 L655 1 Z M61 38 L395 447 L395 447 L395 38 L62 38 L61 38 L61 38 Z " />
<glyph glyph-name="five" unicode="5" horiz-adv-x="459" d="M60 -232 C282 -205 429 -93 429 47 C429 180 295 268 93 268 L85 268 L130 455 L372 457 L377 489 C379 499 381 510 383 520 C383 520 382 524 381 530 C380 536 379 540 379 540 L376 523 C373 509 356 500 272 500 L120 500 L57 223 L66 215 L88 215 C266 215 385 141 385 30 C385 -98 255 -199 59 -223 L60 -232 L60 -232 Z " />
<glyph glyph-name="six" unicode="6" horiz-adv-x="598" d="M581 750 C268 750 59 565 59 287 C59 109 160 -10 310 -10 C452 -10 546 90 546 239 C546 372 446 461 295 461 C208 461 143 420 115 353 C152 590 330 742 583 742 L581 750 L581 750 Z M108 259 C108 378 183 457 294 457 C415 457 496 371 496 241 C496 91 422 -9 310 -9 C189 -9 108 98 108 259 L108 259 Z " />
<glyph glyph-name="seven" unicode="7" horiz-adv-x="469" d="M133 500 C88 500 81 505 84 513 L97 540 C97 540 93 536 88 530 C83 524 80 520 80 520 C74 506 66 488 59 474 C53 460 45 442 39 428 C39 428 38 421 35 411 C34 402 32 395 32 395 L46 427 C55 447 69 460 111 460 L444 460 L459 479 L118 -220 L156 -220 L464 485 L464 500 L463 500 L133 500 L133 500 Z " />
<glyph glyph-name="eight" unicode="8" horiz-adv-x="574" d="M244 387 C253 383 263 379 273 375 C407 325 496 272 496 165 C496 61 414 -8 290 -8 C171 -8 91 65 91 174 C91 266 152 349 245 386 L244 387 L244 387 Z M242 387 C124 344 48 261 48 173 C48 63 145 -11 291 -11 C437 -11 535 68 535 187 C535 298 452 357 324 409 C435 450 507 523 507 597 C507 695 419 760 288 760 C158 760 72 689 72 583 C72 503 139 434 241 388 L242 387 L242 387 Z M320 411 C310 415 300 419 290 423 C183 463 111 528 111 603 C111 697 181 759 287 759 C393 759 463 693 463 594 C463 517 407 447 320 412 L320 411 L320 411 Z " />
<glyph glyph-name="nine" unicode="9" horiz-adv-x="598" d="M17 -250 C330 -250 539 -65 540 213 C539 391 439 510 288 510 C146 510 52 410 52 261 C52 128 153 39 303 39 C389 39 454 80 483 146 C446 -91 268 -243 15 -243 L17 -250 L17 -250 Z M490 240 C490 121 416 42 304 42 C183 42 102 128 102 258 C102 408 177 508 288 508 C409 508 490 401 490 240 L490 240 Z " />
<glyph glyph-name="colon" unicode="&#x3a;" horiz-adv-x="135" d="M125 385 C146 385 160 399 160 420 C160 442 146 456 125 456 C104 456 90 442 90 420 C90 399 104 385 125 385 L125 385 Z M125 -5 C146 -5 160 9 160 30 C160 52 146 66 125 66 C104 66 90 52 90 30 C90 9 104 -5 125 -5 L125 -5 Z " />
<glyph glyph-name="semicolon" unicode="&#x3b;" horiz-adv-x="257" d="M125 385 C146 385 160 399 160 420 C160 442 146 456 125 456 C104 456 90 442 90 420 C90 399 104 385 125 385 L125 385 Z M175 48 C179 35 181 20 181 3 C181 -65 135 -110 65 -110 L65 -111 C139 -111 188 -63 188 8 C188 50 177 83 159 100 C150 109 138 114 124 114 C88 114 64 90 64 54 C64 18 88 -6 124 -6 C152 -6 171 15 173 47 L175 48 L175 48 Z " />
<glyph glyph-name="equal" unicode="&#x3d;" horiz-adv-x="559" d="M78 211 L78 189 L489 189 L489 211 L78 211 L78 211 Z M78 311 L78 289 L489 289 L489 311 L78 311 L78 311 Z " />
<glyph glyph-name="question" unicode="&#x3f;" horiz-adv-x="304" d="M125 -5 C146 -5 160 9 160 30 C160 52 146 66 125 66 C104 66 90 52 90 30 C90 9 104 -5 125 -5 L125 -5 Z M121 175 L125 360 C210 360 244 397 281 453 C298 478 309 518 309 553 C309 677 243 760 145 760 C117 760 98 745 98 723 C98 708 109 698 125 698 C137 698 151 707 163 707 C242 707 295 643 295 547 C295 527 285 498 270 476 C243 437 213 410 108 410 L113 175 L121 175 L121 175 Z " />
<glyph glyph-name="at" unicode="&#x40;" horiz-adv-x="1186" d="M1091 0 C1024 -143 828 -239 601 -239 C297 -239 94 -40 94 259 C94 558 294 757 593 757 C893 757 1093 591 1093 343 C1093 140 1014 4 894 4 C772 4 710 82 739 200 L809 480 L762 480 L738 386 C726 449 673 490 598 490 C424 490 308 373 308 197 C308 87 382 13 493 13 C575 13 647 61 684 137 C688 45 762 -13 884 -13 C1032 -13 1130 129 1130 343 C1130 599 915 770 592 770 C269 770 54 566 54 259 C54 -48 272 -252 600 -252 C833 -252 1036 -151 1107 0 L1091 0 L1091 0 Z M730 355 L691 200 C667 105 598 41 519 41 C425 41 363 107 363 207 C363 368 457 476 597 476 C676 476 729 428 729 355 L730 355 L730 355 Z " />
<glyph glyph-name="A" unicode="A" horiz-adv-x="776" d="M640 128 L639 128 L442 732 L430 770 L424 770 C409 748 394 733 386 732 L389 722 L389 722 L199 158 L199 158 C157 32 112 8 56 8 L14 8 C14 8 20 6 30 4 C40 2 46 0 46 0 L146 0 L149 0 L164 0 L281 0 C281 0 288 2 298 4 C307 6 314 8 314 8 L274 8 C200 8 159 32 202 158 L202 158 L248 296 L527 296 L581 128 L580 128 C613 27 582 8 526 8 L487 8 C487 8 493 6 503 4 C513 2 519 0 519 0 L622 0 L630 0 L680 0 L740 0 C740 0 747 2 756 4 C766 6 773 8 773 8 L730 8 C698 8 671 27 639 128 L640 128 L640 128 Z M248 299 L389 719 L525 299 L248 299 L248 299 Z " />
<glyph glyph-name="B" unicode="B" horiz-adv-x="672" d="M212 748 L307 748 C514 748 562 674 562 563 C562 457 462 386 312 386 L212 386 L212 677 L212 748 L212 748 Z M362 386 C517 398 617 468 617 568 C617 677 559 749 310 749 L212 749 L158 749 L104 749 C104 749 93 747 77 745 C62 743 51 741 51 741 L93 741 C131 741 156 731 156 676 L156 72 C156 17 131 7 93 7 L51 7 C51 7 62 5 77 3 C93 1 104 -1 104 -1 L158 -1 L212 -1 L332 -1 C513 -1 633 36 633 192 C633 307 525 384 362 386 L362 386 Z M312 384 L351 384 C483 384 571 308 571 193 C571 38 475 2 330 2 L280 2 C239 2 212 22 212 52 L212 73 L212 384 L312 384 L312 384 Z " />
<glyph glyph-name="C" unicode="C" horiz-adv-x="742" d="M606 711 L605 711 C556 742 494 760 402 760 C197 760 61 606 61 375 C61 144 193 -10 390 -10 C483 -10 552 10 607 44 C648 66 681 55 687 33 C691 15 694 3 694 3 L694 33 L694 62 L694 119 L694 121 L694 121 L693 122 L693 175 C693 175 693 183 692 196 C691 209 691 217 691 217 C691 217 689 209 686 196 C674 147 622 66 565 34 L566 34 C517 7 460 -9 390 -9 C229 -9 121 144 121 374 C121 604 233 757 401 757 C462 757 509 746 549 727 C614 695 673 607 687 551 C690 538 692 530 692 530 C692 530 693 538 693 551 C694 564 695 572 695 572 L695 626 L695 628 L695 683 C695 683 694 695 693 712 C693 729 692 741 692 741 C692 741 690 729 687 712 C683 690 649 681 605 709 L606 711 L606 711 Z " />
<glyph glyph-name="D" unicode="D" horiz-adv-x="846" d="M156 677 L156 73 C156 18 131 8 93 8 L51 8 C51 8 62 6 77 4 C93 2 104 0 104 0 L156 0 L158 0 L212 0 L304 0 C596 0 791 127 791 375 C791 600 641 750 351 750 L212 750 L158 750 L156 750 L104 750 C104 750 93 748 77 746 C62 744 51 742 51 742 L93 742 C131 742 156 732 156 677 L156 677 Z M212 748 L344 748 C599 748 730 599 730 375 C730 129 559 2 302 2 C221 2 212 22 212 52 L212 73 L212 677 L212 748 L212 748 Z " />
<glyph glyph-name="E" unicode="E" horiz-adv-x="650" d="M471 0 L578 0 C579 10 581 22 583 32 C584 42 586 55 587 64 C587 64 587 77 588 96 C588 114 589 127 588 127 L582 84 C576 35 555 2 471 2 L264 2 C217 2 212 22 212 52 L212 73 L212 385 L386 385 C470 385 486 346 486 287 L486 245 C486 245 487 259 489 280 C492 301 493 315 493 315 L493 385 L493 386 L493 387 L493 457 C493 457 492 471 489 492 C487 513 486 527 486 527 L486 485 C486 426 470 387 386 387 L212 387 L212 677 L212 748 L446 748 C547 748 549 710 552 654 L554 623 C555 623 555 636 556 654 C557 673 558 686 558 686 C557 695 556 708 556 718 C555 728 554 740 553 750 L446 750 L212 750 L158 750 L156 750 L104 750 C104 750 93 748 77 746 C62 744 51 742 51 742 L93 742 C131 742 156 732 156 677 L156 73 C156 18 131 8 93 8 L51 8 C51 8 62 6 77 4 C93 2 104 0 104 0 L156 0 L158 0 L212 0 L471 0 L471 0 Z " />
<glyph glyph-name="F" unicode="F" horiz-adv-x="625" d="M405 383 C462 374 475 338 477 288 L479 240 C479 240 480 255 481 276 C482 298 483 313 483 313 L483 383 L483 385 L483 457 C483 457 482 471 481 492 C480 514 479 528 479 528 L477 480 C475 423 458 385 376 385 L212 385 L212 677 L212 749 L366 749 C517 749 549 716 553 666 L557 624 C557 624 557 637 558 655 C558 674 559 687 559 687 C558 697 557 709 556 719 C555 728 554 740 553 750 L446 750 L212 750 L158 750 L156 750 L104 750 C104 750 93 748 77 746 C62 744 51 742 51 742 L93 742 C131 742 156 732 156 677 L156 73 C156 18 131 8 93 8 L51 8 C51 8 62 6 77 4 C93 2 104 0 104 0 L156 0 L184 0 L212 0 L264 0 C264 0 275 2 291 4 C306 6 317 8 317 8 L275 8 C237 8 212 18 212 73 L212 383 L405 383 L405 383 Z " />
<glyph glyph-name="G" unicode="G" horiz-adv-x="819" d="M606 711 L605 711 C556 742 494 760 402 760 C197 760 61 606 61 375 C61 144 194 -10 392 -10 C509 -10 598 6 674 32 L676 32 L676 32 C702 41 727 51 751 62 L751 63 C728 52 703 42 675 34 L675 255 C675 305 692 315 718 315 L760 315 C760 315 752 317 739 319 C726 321 718 323 718 323 L644 323 L570 323 C570 323 560 321 545 319 C530 317 520 315 520 315 L562 315 C597 315 620 305 620 255 L621 21 L621 21 L620 80 C620 47 577 22 506 10 L607 18 C551 8 483 2 397 2 L507 10 C476 5 439 2 398 2 C233 2 123 150 123 373 C123 603 235 756 403 756 C464 756 511 745 551 726 C616 694 675 606 689 550 C692 537 694 529 694 529 C694 529 695 537 695 550 C696 563 697 571 697 571 L697 625 L697 627 L697 682 C697 682 696 694 695 711 C695 728 694 740 694 740 C694 740 692 728 689 711 C685 689 651 680 607 708 L606 711 L606 711 Z " />
<glyph glyph-name="H" unicode="H" horiz-adv-x="853" d="M709 68 L709 682 C709 732 734 742 771 742 L814 742 C814 742 803 744 787 746 C772 748 761 750 761 750 L681 750 L600 750 C600 750 590 748 574 746 C558 744 548 742 548 742 L590 742 C628 742 653 732 653 682 L653 384 L248 384 L248 682 C248 732 273 742 311 742 L353 742 C353 742 342 744 327 746 C311 748 300 750 300 750 L220 750 L140 750 C140 750 129 748 113 746 C98 744 87 742 87 742 L129 742 C167 742 192 732 192 682 L192 68 C192 18 167 8 129 8 L87 8 C87 8 98 6 113 4 C129 2 140 0 140 0 L220 0 L300 0 C300 0 311 2 327 4 C342 6 353 8 353 8 L311 8 C273 8 248 18 248 68 L248 382 L653 382 L653 68 C653 18 628 8 590 8 L548 8 C548 8 558 6 574 4 C590 2 600 0 600 0 L681 0 L761 0 C761 0 772 2 787 4 C803 6 814 8 814 8 L771 8 C734 8 709 18 709 68 L709 68 Z " />
<glyph glyph-name="I" unicode="I" horiz-adv-x="362" d="M218 68 L218 682 C218 732 243 742 281 742 L323 742 C323 742 312 744 297 746 C281 748 270 750 270 750 L190 750 L110 750 C110 750 99 748 83 746 C68 744 57 742 57 742 L99 742 C137 742 162 732 162 682 L162 68 C162 18 137 8 99 8 L57 8 C57 8 68 6 83 4 C99 2 110 0 110 0 L190 0 L270 0 C270 0 281 2 297 4 C312 6 323 8 323 8 L281 8 C243 8 218 18 218 68 L218 68 Z " />
<glyph glyph-name="J" unicode="J" horiz-adv-x="362" d="M162 682 L162 -31 C162 -187 87 -217 32 -217 C4 -217 16 -170 -12 -170 C-28 -170 -39 -181 -39 -196 C-39 -211 -11 -220 30 -220 C109 -220 218 -173 218 75 L218 682 C218 732 243 742 281 742 L323 742 C323 742 312 744 297 746 C281 748 270 750 270 750 L190 750 L110 750 C110 750 99 748 83 746 C68 744 57 742 57 742 L99 742 C137 742 162 732 162 682 L162 682 Z " />
<glyph glyph-name="K" unicode="K" horiz-adv-x="753" d="M596 73 L595 73 L258 408 L521 680 C574 732 605 742 633 742 L675 742 C675 742 669 744 659 746 C649 748 643 750 643 750 L588 750 L564 750 L550 750 L457 750 C457 750 450 748 441 746 C431 744 424 742 424 742 L460 742 C514 742 536 725 461 640 L211 375 L211 690 C211 734 236 742 274 742 L316 742 C316 742 305 744 290 746 C274 748 263 750 263 750 L211 750 L183 750 L155 750 L103 750 C103 750 92 748 76 746 C61 744 50 742 50 742 L92 742 C130 742 155 734 155 690 L155 60 C155 16 130 8 92 8 L50 8 C50 8 61 6 76 4 C92 2 103 0 103 0 L155 0 L183 0 L211 0 L263 0 C263 0 274 2 290 4 C305 6 316 8 316 8 L274 8 C236 8 211 16 211 60 L211 375 L592 0 L652 0 L668 0 L713 0 C713 0 719 2 729 4 C739 6 745 8 745 8 L695 8 C674 8 628 40 595 73 L596 73 L596 73 Z " />
<glyph glyph-name="L" unicode="L" horiz-adv-x="667" d="M592 9 C595 21 599 35 602 45 C605 59 610 77 614 90 C614 90 617 107 621 132 C623 148 625 161 626 168 L616 132 C596 59 557 10 418 10 L269 10 C222 10 217 27 217 52 L217 73 L217 677 C217 732 242 742 280 742 L322 742 C322 742 311 744 296 746 C280 748 269 750 269 750 L217 750 L189 750 L161 750 L109 750 C109 750 98 748 82 746 C67 744 56 742 56 742 L98 742 C136 742 161 732 161 677 L161 73 C161 18 136 8 98 8 L56 8 C56 8 67 6 82 4 C98 2 109 0 109 0 L161 0 L163 0 L217 0 L416 0 L589 0 L592 9 L592 9 Z M626 168 C627 173 628 176 628 176 L626 168 L626 168 Z " />
<glyph glyph-name="M" unicode="M" horiz-adv-x="899" d="M135 750 L134 750 L66 750 C66 750 59 748 50 746 C40 744 33 742 33 742 L76 742 C108 742 134 735 156 698 L140 138 L140 138 C137 29 103 8 54 8 L11 8 C11 8 18 6 28 4 C37 2 44 0 44 0 L136 0 L146 0 L156 0 L248 0 C248 0 255 2 264 4 C274 6 281 8 281 8 L239 8 C192 8 161 24 158 106 L169 670 L421 71 L451 0 L465 0 L728 700 L745 73 L745 73 C746 18 720 8 682 8 L640 8 C640 8 650 6 666 4 C682 2 692 0 692 0 L747 0 L773 0 L803 0 L853 0 C853 0 863 2 879 4 C895 6 905 8 905 8 L863 8 C830 8 807 16 801 58 L785 592 L785 592 C782 718 806 742 843 742 L885 742 C885 742 879 744 869 746 C859 748 853 750 853 750 L790 750 L780 750 L747 750 L727 750 L477 70 L477 71 L203 750 L171 750 L158 750 L135 750 L135 750 Z " />
<glyph glyph-name="N" unicode="N" horiz-adv-x="804" d="M169 750 L155 750 L142 750 L120 750 L99 750 L72 750 C72 750 66 748 56 746 C46 744 40 742 40 742 L97 742 C102 742 109 736 130 707 L130 707 L142 691 L141 138 L141 138 C141 29 108 8 58 8 L16 8 C16 8 22 6 32 4 C42 2 48 0 48 0 L141 0 L149 0 L158 0 L250 0 C250 0 257 2 266 4 C276 6 283 8 283 8 L240 8 C194 8 162 24 157 106 L155 672 L586 79 L644 0 L655 0 L658 642 L659 642 C659 726 692 742 741 742 L784 742 C784 742 771 744 752 746 C734 748 721 750 721 750 L659 750 L651 750 L643 750 L580 750 C580 750 568 748 549 746 C530 744 518 742 518 742 L560 742 C610 742 643 726 643 642 L643 642 L644 95 L632 112 L169 750 L169 750 Z " />
<glyph glyph-name="O" unicode="O" horiz-adv-x="845" d="M411 -8 C239 -8 125 145 125 375 C125 605 243 758 420 758 C604 758 726 605 726 375 C726 145 600 -8 411 -8 L411 -8 Z M61 375 C61 144 201 -10 411 -10 C638 -10 790 144 790 375 C790 606 642 760 421 760 C205 760 61 606 61 375 L61 375 Z " />
<glyph glyph-name="P" unicode="P" horiz-adv-x="623" d="M198 0 L226 0 L278 0 C278 0 289 2 305 4 C320 6 331 8 331 8 L289 8 C251 8 226 18 226 73 L226 353 L284 353 C475 353 603 411 603 541 C603 666 498 750 342 750 L226 750 L172 750 L170 750 L118 750 C118 750 107 748 91 746 C76 744 65 742 65 742 L107 742 C145 742 170 732 170 677 L170 73 C170 18 145 8 107 8 L65 8 C65 8 76 6 91 4 C107 2 118 0 118 0 L170 0 L198 0 L198 0 Z M226 365 L226 677 L226 741 C257 741 297 740 327 740 C462 740 551 664 551 550 C551 422 444 365 284 365 L226 365 L226 365 Z " />
<glyph glyph-name="Q" unicode="Q" horiz-adv-x="840" d="M1179 -54 L1179 -53 C1149 -78 1023 -94 864 -94 C673 -94 486 -60 390 -8 C397 -9 404 -10 410 -10 C637 -10 789 144 789 375 C789 606 641 760 420 760 C204 760 60 606 60 375 C60 184 228 46 345 4 L342 5 C480 -75 685 -128 856 -128 C996 -128 1125 -98 1178 -53 L1179 -54 L1179 -54 Z M410 -7 C324 -7 124 146 124 376 C124 606 242 759 419 759 C603 759 725 606 725 376 C725 146 599 -7 410 -7 L410 -7 Z " />
<glyph glyph-name="R" unicode="R" horiz-adv-x="753" d="M744 0 L744 4 C650 4 645 7 610 68 L438 369 C540 382 605 436 605 539 C605 665 517 749 385 749 L213 749 L159 749 L105 749 C105 749 94 747 78 745 C63 743 52 741 52 741 L94 741 C132 741 157 731 157 676 L157 72 C157 17 132 7 94 7 L52 7 C52 7 63 5 78 3 C94 1 105 -1 105 -1 L185 -1 L265 -1 C265 -1 276 1 292 3 C307 5 318 7 318 7 L276 7 C238 7 213 17 213 72 L213 365 L382 365 C396 335 458 221 546 67 C582 2 590 -1 745 -1 L744 0 L744 0 Z M213 738 L369 738 C473 738 543 663 543 550 C543 432 480 379 385 379 L213 379 L213 676 L213 738 L213 738 Z " />
<glyph glyph-name="S" unicode="S" horiz-adv-x="576" d="M437 708 L436 708 C391 740 328 759 260 759 C148 759 74 686 74 576 C74 502 152 416 304 345 C429 287 493 220 493 164 C493 61 424 -8 321 -8 C264 -8 209 11 163 44 C117 82 74 165 62 218 C59 231 57 240 57 240 C57 240 56 231 55 218 C55 206 54 197 54 197 L54 147 L54 136 L54 75 C54 75 55 60 55 38 C56 17 57 2 57 2 C57 2 59 17 62 38 C65 65 93 79 129 54 C181 13 249 -11 321 -11 C451 -11 537 66 537 180 C537 258 469 342 338 403 C193 471 118 543 118 597 C118 693 175 757 260 757 C304 757 346 747 382 729 L358 738 C419 708 473 627 487 569 C490 556 492 547 492 547 C492 547 492 556 493 569 C494 581 495 590 495 590 L495 640 L495 644 L495 697 C495 697 494 709 493 726 C492 743 492 755 492 755 C492 755 490 743 487 726 C483 704 462 689 438 706 L437 708 L437 708 Z M358 737 L338 745 C345 743 352 740 359 737 L358 737 L358 737 Z " />
<glyph glyph-name="T" unicode="T" horiz-adv-x="806" d="M82 789 C81 787 78 784 75 780 C70 774 67 770 67 770 C65 764 62 757 59 750 L54 750 L54 736 C53 733 52 730 51 727 C46 714 40 697 35 685 C35 685 33 674 29 658 C27 647 25 639 24 635 L39 673 C53 711 78 736 162 736 L374 736 L374 68 C374 18 349 8 312 8 L269 8 C269 8 280 6 295 4 C311 2 322 0 322 0 L402 0 L483 0 C483 0 493 2 509 4 C525 6 535 8 535 8 L493 8 C455 8 430 18 430 68 L430 736 L643 736 C727 736 752 711 765 673 L781 631 C781 631 779 642 775 658 C771 674 769 685 769 685 C764 697 758 714 754 727 C753 730 752 734 751 738 L751 750 L746 750 C743 757 740 764 738 770 C738 770 735 774 731 780 C726 786 723 790 723 790 L729 773 C734 759 722 750 638 750 L430 750 L374 750 L167 750 C83 750 70 759 75 773 L82 789 L82 789 Z M81 789 L81 790 C81 790 81 790 80 789 L81 789 L81 789 Z M24 635 C23 633 23 632 23 632 L24 635 L24 635 Z " />
<glyph glyph-name="U" unicode="U" horiz-adv-x="733" d="M618 98 L618 677 L618 750 L564 750 L510 750 C510 750 499 748 483 746 C468 744 457 742 457 742 L499 742 C537 742 562 732 562 677 L562 181 C519 88 418 26 311 26 C231 26 177 106 177 226 L177 677 L177 750 L123 750 L69 750 C69 750 58 748 42 746 C27 744 16 742 16 742 L58 742 C96 742 121 732 121 677 L121 226 C121 85 188 -10 288 -10 C406 -10 516 56 562 156 L562 98 L562 0 L571 0 L722 49 L722 53 C635 48 618 54 618 98 L618 98 Z " />
<glyph glyph-name="V" unicode="V" horiz-adv-x="794" d="M102 702 L340 71 L370 -10 L382 -10 L647 647 C682 726 709 742 739 742 L781 742 C781 742 775 744 765 746 C755 748 749 750 749 750 L689 750 L667 750 L641 750 L534 750 C534 750 528 748 518 746 C508 744 502 742 502 742 L541 742 C614 742 655 723 618 624 L402 71 L196 622 L196 622 C158 723 200 742 274 742 L313 742 C313 742 307 744 297 746 C287 748 281 750 281 750 L168 750 L148 750 L84 750 L54 750 C54 750 48 748 38 746 C28 744 22 742 22 742 L79 742 C84 742 89 736 102 702 L102 702 Z " />
<glyph glyph-name="W" unicode="W" horiz-adv-x="1123" d="M519 702 L587 500 L587 500 L384 70 L384 71 L191 622 L191 622 C157 723 191 742 251 742 L291 742 C291 742 285 744 275 746 C265 748 259 750 259 750 L157 750 L146 750 L85 750 L55 750 C55 750 48 748 39 746 C29 744 22 742 22 742 L80 742 C84 742 93 725 124 637 L318 71 L346 -10 L361 -10 L595 477 L728 81 L758 -10 L773 -10 L977 622 L977 622 C1008 723 1036 742 1068 742 L1111 742 C1111 742 1104 744 1094 746 C1085 748 1078 750 1078 750 L1018 750 L995 750 L970 750 L863 750 C863 750 856 748 846 746 C837 744 830 742 830 742 L870 742 C944 742 987 723 955 622 L955 622 L787 82 L596 662 C577 730 613 743 673 743 L712 743 C712 743 706 745 696 747 C686 749 680 751 680 751 L567 751 L561 751 L503 751 L443 751 C443 751 436 749 427 747 C417 745 410 743 410 743 L453 743 C484 743 507 737 519 703 L519 702 L519 702 Z " />
<glyph glyph-name="X" unicode="X" horiz-adv-x="784" d="M214 109 L389 354 L553 111 C608 25 588 8 541 8 L504 8 C504 8 511 6 520 4 C530 2 537 0 537 0 L629 0 L640 0 L696 0 L743 0 C743 0 749 2 759 4 C769 6 775 8 775 8 L733 8 C710 8 683 23 629 99 L424 402 L572 593 L572 592 C574 595 576 598 578 601 L634 674 C681 729 707 742 729 742 L771 742 C771 742 764 744 755 746 C745 748 738 750 738 750 L692 750 L667 750 L651 750 L564 750 C564 750 558 748 548 746 C538 744 532 742 532 742 L569 742 C621 742 644 723 582 629 L422 404 L262 641 C210 725 231 741 278 741 L315 741 C315 741 308 743 298 745 C289 747 282 749 282 749 L190 749 L184 749 L124 749 L86 749 C86 749 80 747 70 745 C60 743 54 741 54 741 L100 741 C117 741 142 722 210 621 L210 621 L384 363 L186 96 C129 22 94 7 58 7 L16 7 C16 7 22 5 32 3 C42 1 48 -1 48 -1 L115 -1 L138 -1 L169 -1 L290 -1 C290 -1 297 1 306 3 C316 5 323 7 323 7 L286 7 C206 7 163 24 216 108 L214 109 L214 109 Z " />
<glyph glyph-name="Y" unicode="Y" horiz-adv-x="728" d="M211 642 C162 725 177 741 212 741 L249 741 C249 741 243 743 233 745 C223 747 217 749 217 749 L144 749 L134 749 L79 749 L51 749 C51 749 44 747 35 745 C25 743 18 741 18 741 L76 741 C80 741 95 722 158 621 L159 621 L342 328 L342 67 C342 17 317 7 279 7 L237 7 C237 7 247 5 263 3 C279 1 289 -1 289 -1 L370 -1 L450 -1 C450 -1 461 1 477 3 C492 5 503 7 503 7 L460 7 C423 7 398 17 398 67 L398 338 L564 621 L564 621 C623 722 651 741 677 741 L719 741 C719 741 713 743 703 745 C693 747 687 749 687 749 L639 749 L635 749 L624 749 L562 749 C562 749 556 747 546 745 C536 743 530 741 530 741 L567 741 C606 741 621 723 566 631 L566 630 L397 340 L211 642 L211 642 Z " />
<glyph glyph-name="Z" unicode="Z" horiz-adv-x="683" d="M86 0 L490 0 L637 0 C641 14 645 32 649 46 C652 60 657 78 660 92 C660 92 662 108 666 132 C670 155 673 171 672 171 L659 127 C641 65 611 23 520 17 L96 13 L641 738 L641 750 L587 750 L228 750 L70 750 C68 735 65 715 63 701 C61 686 58 666 56 652 C56 652 56 634 55 608 C54 582 54 565 54 565 L60 604 C73 683 104 735 226 735 L226 735 L578 737 L25 11 L25 -1 L86 0 L86 0 Z " />
<glyph glyph-name="bracketleft" unicode="&#x5b;" horiz-adv-x="285" d="M125 735 L335 735 L335 750 L125 750 L108 750 L108 -195 L125 -195 L335 -195 L335 -180 L125 -180 L125 735 L125 735 Z " />
<glyph glyph-name="backslash" unicode="&#x5c;" horiz-adv-x="336" d="M37 770 L297 -80 L327 -80 L67 770 L37 770 L37 770 Z " />
<glyph glyph-name="bracketright" unicode="&#x5d;" horiz-adv-x="288" d="M161 735 L161 -180 L-49 -180 L-49 -195 L161 -195 L178 -195 L178 750 L161 750 L-49 750 L-49 735 L161 735 L161 735 Z " />
<glyph glyph-name="underscore" unicode="&#x5f;" horiz-adv-x="525" d="M5 -50 L5 -78 L521 -78 L521 -50 L5 -50 L5 -50 Z " />
<glyph glyph-name="a" unicode="a" horiz-adv-x="543" d="M554 77 L543 83 C538 52 516 31 488 31 C454 31 431 51 431 81 L431 358 C431 463 371 510 281 510 C156 510 73 414 73 360 C73 339 83 325 99 325 C119 325 132 339 132 350 C132 366 112 380 112 392 C112 434 179 508 278 508 C340 508 381 467 381 377 L381 267 C115 220 53 196 53 81 C53 27 103 -9 179 -9 C251 -9 322 18 381 87 L381 83 C381 32 416 -3 468 -3 C510 -3 545 30 554 79 L554 77 L554 77 Z M381 267 L381 90 C336 39 274 19 207 19 C146 19 105 46 105 88 C105 204 158 228 382 267 L381 267 L381 267 Z " />
<glyph glyph-name="b" unicode="b" horiz-adv-x="658" d="M164 0 L166 0 L182 66 L182 65 C220 20 300 -10 382 -10 C521 -10 613 95 613 251 C613 404 516 505 370 505 C330 505 268 469 213 413 L213 684 L213 747 L204 747 L120 723 C120 723 112 719 99 713 C86 708 78 704 78 703 L120 716 C146 723 163 719 163 672 L163 195 L164 0 L164 0 Z M213 406 C263 457 319 490 354 490 C476 490 557 392 557 246 C557 96 488 -4 384 -4 C319 -4 250 26 214 70 L214 195 L213 406 L213 406 Z " />
<glyph glyph-name="c" unicode="c" horiz-adv-x="510" d="M481 128 L474 131 C445 65 370 21 287 21 C176 21 102 118 102 264 C102 405 175 499 285 499 C354 499 414 461 434 405 C439 390 449 380 459 380 C479 380 489 390 484 405 C461 468 383 510 288 510 C146 510 51 401 51 239 C51 89 138 -10 269 -10 C359 -10 444 45 481 128 L481 128 Z " />
<glyph glyph-name="d" unicode="d" horiz-adv-x="625" d="M495 89 C462 45 396 16 328 16 C195 16 106 117 106 267 C106 404 186 495 342 495 C401 495 465 447 495 391 L495 98 L495 89 L495 89 Z M495 72 L495 -10 L504 -10 L588 11 C588 11 596 15 609 20 C622 26 630 29 630 29 L588 19 C562 12 545 24 545 108 L545 668 L545 747 L536 747 L453 723 C453 723 444 719 431 713 C419 708 410 704 410 703 L452 716 C478 723 495 717 495 657 L495 444 C457 483 397 511 335 511 C150 511 54 408 54 255 C54 99 155 -4 306 -4 C385 -4 459 26 494 73 L495 72 L495 72 Z " />
<glyph glyph-name="e" unicode="e" horiz-adv-x="577" d="M114 340 L492 340 L534 340 L548 340 C526 462 440 510 324 510 C160 510 50 400 50 235 C50 88 149 -10 299 -10 C410 -10 505 47 536 133 L530 136 C505 68 418 23 311 23 C186 23 103 116 103 255 C103 286 107 314 114 340 L114 340 Z M532 355 C533 355 534 355 535 355 L532 355 L532 355 Z M490 355 L119 352 C149 443 223 499 322 499 C404 499 467 458 490 355 L490 355 Z " />
<glyph glyph-name="f" unicode="f" horiz-adv-x="366" d="M179 474 L357 474 L357 500 L179 500 C179 644 226 740 317 740 C394 740 382 635 446 635 C473 635 491 653 491 680 C491 725 428 755 335 755 C199 755 129 653 129 500 L26 479 L26 474 L129 474 L129 23 C129 10 112 8 86 8 L44 8 C44 8 52 6 65 4 C78 2 86 0 86 0 L154 0 L221 0 C221 0 230 2 242 4 C255 6 264 8 264 8 L221 8 C196 8 179 10 179 23 L179 474 L179 474 Z " />
<glyph glyph-name="g" unicode="g" horiz-adv-x="551" d="M134 350 C134 439 190 498 275 498 C360 498 416 439 416 350 C416 260 360 200 275 200 C190 200 134 260 134 350 L134 350 Z M176 18 C181 18 187 18 193 18 L314 18 C430 18 475 -25 475 -89 C475 -167 400 -218 287 -218 C171 -218 94 -163 94 -80 C94 -37 126 1 176 18 L176 18 Z M165 19 C98 -1 54 -44 54 -93 C54 -175 147 -230 286 -230 C424 -230 517 -169 517 -79 C517 9 462 67 320 67 L196 67 C132 67 90 89 90 122 C90 162 164 188 276 188 C391 188 467 253 467 350 C467 363 466 376 463 388 C480 440 512 474 544 474 C561 474 573 458 573 434 C573 423 582 416 596 416 C608 416 616 426 616 440 C616 473 596 495 565 495 C519 495 477 457 458 399 C436 467 368 510 274 510 C159 510 83 446 83 350 C83 272 132 215 211 196 C118 186 59 153 59 107 C59 60 100 26 164 18 L165 19 L165 19 Z " />
<glyph glyph-name="h" unicode="h" horiz-adv-x="628" d="M458 23 C458 10 441 8 416 8 L373 8 C373 8 382 6 395 4 C407 2 416 0 416 0 L483 0 L551 0 C551 0 559 2 572 4 C585 6 593 8 593 8 L551 8 C525 8 508 10 508 23 L508 365 C508 452 463 510 375 510 C320 510 240 457 175 376 L175 684 L175 747 L166 747 L82 723 C82 723 74 719 61 713 C48 708 40 704 40 703 L82 716 C108 723 125 719 125 672 L125 23 C125 10 108 8 82 8 L40 8 C40 8 48 6 61 4 C74 2 82 0 82 0 L150 0 L217 0 C217 0 226 2 238 4 C251 6 260 8 260 8 L217 8 C192 8 175 10 175 23 L175 374 C225 434 293 475 346 475 C420 475 458 431 458 365 L458 23 L458 23 Z " />
<glyph glyph-name="i" unicode="i" horiz-adv-x="293" d="M159 615 C178 615 191 628 191 647 C191 667 178 680 159 680 C139 680 126 667 126 647 C126 628 139 615 159 615 L159 615 Z M184 23 L184 437 L184 500 L175 500 L91 476 C91 476 83 472 70 466 C57 460 49 456 49 456 L91 468 C117 476 134 472 134 425 L134 23 C134 10 121 8 101 8 L59 8 C59 8 66 6 77 4 C89 2 96 0 96 0 L159 0 L221 0 C221 0 229 2 240 4 C251 6 259 8 259 8 L216 8 C197 8 184 10 184 23 L184 23 Z " />
<glyph glyph-name="j" unicode="j" horiz-adv-x="263" d="M149 615 C168 615 181 628 181 647 C181 667 168 680 149 680 C129 680 116 667 116 647 C116 628 129 615 149 615 L149 615 Z M124 425 L124 29 C124 -47 106 -108 79 -123 C44 -123 3 -100 -31 -100 C-58 -100 -76 -116 -76 -140 C-76 -169 -52 -187 -16 -185 C-10 -184 32 -162 89 -130 C140 -101 174 -37 174 29 L174 437 L174 500 L165 500 L81 476 C81 476 73 472 60 466 C47 460 39 456 39 456 L81 468 C107 476 124 472 124 425 L124 425 Z " />
<glyph glyph-name="k" unicode="k" horiz-adv-x="574" d="M457 0 L509 0 L524 0 C524 0 531 2 540 4 C550 6 557 8 557 8 L502 8 L235 301 L457 472 L464 477 C480 490 486 492 491 492 L548 492 C548 492 542 494 532 496 C522 498 516 500 516 500 L493 500 L469 500 L416 500 L316 500 C316 500 310 498 300 496 C290 494 284 492 284 492 L316 492 C398 492 426 470 288 360 L184 280 L184 684 L184 747 L175 747 L91 723 C91 723 83 719 70 713 C57 708 49 704 49 703 L91 716 C117 723 134 719 134 672 L134 23 C134 10 121 8 101 8 L59 8 C59 8 66 6 77 4 C89 2 96 0 96 0 L159 0 L221 0 C221 0 229 2 240 4 C251 6 259 8 259 8 L216 8 C197 8 184 10 184 23 L184 280 L423 21 C431 10 416 8 394 8 L357 8 C357 8 364 6 373 4 C383 2 390 0 390 0 L442 0 L457 0 L457 0 Z " />
<glyph glyph-name="l" unicode="l" horiz-adv-x="283" d="M174 23 L174 684 L174 747 L165 747 L81 723 C81 723 73 719 60 713 C47 708 39 704 39 703 L81 716 C107 723 124 719 124 672 L124 23 C124 10 109 8 86 8 L44 8 C44 8 52 6 64 4 C76 2 84 0 84 0 L149 0 L214 0 C214 0 222 2 234 4 C246 6 254 8 254 8 L211 8 C189 8 174 10 174 23 L174 23 Z " />
<glyph glyph-name="m" unicode="m" horiz-adv-x="939" d="M779 43 C779 14 766 8 747 8 L704 8 C704 8 712 6 723 4 C734 2 742 0 742 0 L807 0 L872 0 C872 0 880 2 893 4 C906 6 914 8 914 8 L872 8 C846 8 829 14 829 43 L829 365 C829 452 787 510 681 510 C633 510 560 460 497 383 C491 460 448 510 349 510 C303 510 230 459 167 381 L167 437 L167 500 L158 500 L74 470 C74 470 66 465 53 458 C40 451 32 446 32 446 L74 462 C100 471 117 468 117 422 L117 43 C117 14 100 8 74 8 L32 8 C32 8 40 6 53 4 C66 2 74 0 74 0 L138 0 L202 0 C202 0 209 2 219 4 C230 6 237 8 237 8 L194 8 C178 8 167 14 167 43 L167 379 C213 435 278 473 328 473 C414 473 447 430 447 365 L447 43 C447 14 434 8 415 8 L372 8 C372 8 380 6 391 4 C402 2 410 0 410 0 L470 0 L530 0 C530 0 536 2 546 4 C556 6 562 8 562 8 L520 8 C506 8 497 14 497 43 L497 365 C497 370 497 375 497 380 C543 435 608 472 659 472 C745 472 778 429 778 364 L779 43 L779 43 Z " />
<glyph glyph-name="n" unicode="n" horiz-adv-x="608" d="M448 23 C448 10 433 8 411 8 L368 8 C368 8 376 6 388 4 C400 2 408 0 408 0 L473 0 L538 0 C538 0 546 2 558 4 C570 6 578 8 578 8 L536 8 C513 8 498 10 498 23 L498 357 C498 449 448 510 350 510 C308 510 236 455 168 372 L168 437 L168 500 L159 500 L75 470 C75 470 67 465 54 458 C41 451 33 446 33 446 L75 462 C101 471 118 468 118 422 L118 23 C118 10 103 8 80 8 L38 8 C38 8 46 6 58 4 C70 2 78 0 78 0 L143 0 L208 0 C208 0 216 2 228 4 C240 6 248 8 248 8 L205 8 C183 8 168 10 168 23 L168 365 C228 438 295 487 336 487 C410 487 448 435 448 357 L448 23 L448 23 Z " />
<glyph glyph-name="o" unicode="o" horiz-adv-x="640" d="M323 -8 C192 -8 105 95 105 250 C105 405 192 508 323 508 C453 508 540 405 540 250 C540 95 453 -8 323 -8 L323 -8 Z M50 250 C50 94 159 -10 323 -10 C486 -10 595 94 595 250 C595 406 486 510 323 510 C159 510 50 406 50 250 L50 250 Z " />
<glyph glyph-name="p" unicode="p" horiz-adv-x="618" d="M119 -175 C119 -206 102 -212 76 -212 L34 -212 C34 -212 42 -214 55 -216 C68 -218 76 -220 76 -220 L144 -220 L211 -220 C211 -220 220 -218 232 -216 C245 -214 254 -212 254 -212 L211 -212 C186 -212 169 -206 169 -175 L169 101 C206 37 269 -4 332 -4 C478 -4 575 115 575 255 C575 409 478 511 332 511 C265 511 202 481 170 435 L170 437 L170 500 L161 500 L77 470 C77 470 69 465 56 458 C43 451 35 446 35 446 L77 462 C103 471 120 468 120 422 L119 -175 L119 -175 Z M170 108 L170 414 C201 460 255 490 308 490 C435 490 520 390 520 239 C520 109 444 -2 331 -2 C269 -2 206 42 171 109 L170 108 L170 108 Z " />
<glyph glyph-name="q" unicode="q" horiz-adv-x="657" d="M527 -197 L527 411 L527 440 L527 500 L524 500 L508 440 C467 482 394 510 326 510 C146 510 53 407 53 254 C53 98 153 -5 302 -5 C388 -5 455 21 477 61 L477 -196 C477 -209 460 -211 434 -211 L392 -211 C392 -211 400 -213 413 -215 C426 -217 434 -219 434 -219 L502 -219 L569 -219 C569 -219 578 -217 591 -215 C603 -213 612 -211 612 -211 L570 -211 C544 -211 527 -209 527 -196 L527 -197 L527 -197 Z M477 412 L477 80 C456 42 397 17 323 17 C192 17 105 118 105 268 C105 407 179 500 323 500 C387 500 449 465 477 412 L477 412 Z " />
<glyph glyph-name="r" unicode="r" horiz-adv-x="430" d="M174 382 L174 437 L174 500 L165 500 L81 470 C81 470 73 465 60 458 C47 451 39 446 39 446 L81 462 C107 471 124 468 124 422 L124 23 C124 10 111 8 91 8 L49 8 C49 8 56 6 67 4 C79 2 86 0 86 0 L151 0 L216 0 C216 0 225 2 237 4 C250 6 259 8 259 8 L216 8 C191 8 174 10 174 23 L174 378 C210 444 267 488 318 488 C344 488 361 474 361 453 C361 435 373 423 391 423 C408 423 420 435 420 453 C420 488 388 511 341 511 C282 511 216 460 174 383 L174 382 L174 382 Z " />
<glyph glyph-name="s" unicode="s" horiz-adv-x="466" d="M287 494 L219 508 L219 508 C246 508 272 502 295 492 L287 494 L287 494 Z M285 494 C343 469 379 415 379 370 L379 353 C379 353 381 360 383 370 C385 379 387 386 387 386 L387 425 L387 434 L387 482 C387 482 385 488 383 496 C381 504 379 510 379 510 L379 481 C379 471 359 470 328 485 C297 502 258 512 216 512 C131 512 74 463 74 391 C74 333 132 274 245 233 C331 201 376 155 376 109 C376 40 328 -6 256 -6 C238 -6 220 -3 203 2 L204 2 C203 2 202 2 201 2 C198 3 195 4 192 5 C124 31 80 102 80 150 L80 166 C80 166 79 159 77 150 C74 140 73 133 73 133 L73 95 L73 93 L73 52 C73 52 74 44 77 31 C79 18 80 10 80 10 L80 31 C80 39 109 34 154 15 C184 0 219 -9 256 -9 C351 -9 415 44 415 122 C415 179 365 234 267 270 C163 308 110 359 110 407 C110 468 153 509 216 509 L216 509 L216 509 L216 509 C241 509 264 504 284 495 L285 494 L285 494 Z " />
<glyph glyph-name="t" unicode="t" horiz-adv-x="358" d="M318 500 L149 500 L149 620 L145 620 L34 500 L34 490 L99 490 L99 129 C99 29 149 -10 224 -10 C270 -10 320 21 349 68 L343 71 C322 37 280 14 239 14 C184 14 147 43 148 118 L149 474 L318 474 L318 500 L318 500 Z " />
<glyph glyph-name="u" unicode="u" horiz-adv-x="600" d="M446 78 L446 -10 L455 -10 L538 11 C538 11 547 14 560 20 C572 26 581 29 581 29 L538 19 C513 12 496 21 496 88 L496 477 L496 500 L454 500 L413 500 C413 500 406 498 396 496 C386 494 380 492 380 492 L422 492 C436 492 446 490 446 477 L446 128 C416 66 348 25 273 25 C200 25 152 81 152 165 L152 477 L152 500 L110 500 L68 500 C68 500 62 498 52 496 C42 494 35 492 35 492 L78 492 C92 492 102 490 102 477 L102 165 C102 60 161 -10 249 -10 C333 -10 410 43 446 124 L446 78 L446 78 Z " />
<glyph glyph-name="v" unicode="v" horiz-adv-x="553" d="M85 474 L247 -10 L262 -10 L442 446 L442 446 C457 485 477 492 503 492 L545 492 C545 492 539 494 529 496 C519 498 513 500 513 500 L463 500 L445 500 L440 500 L378 500 C378 500 371 498 362 496 C352 494 345 492 345 492 L385 492 C414 492 432 488 428 468 L271 53 L142 466 L142 466 C134 488 144 492 162 492 L206 492 C206 492 200 494 190 496 C180 498 174 500 174 500 L131 500 L107 500 L76 500 L41 500 C41 500 35 498 25 496 C15 494 9 492 9 492 L59 492 C69 492 77 489 84 474 L85 474 L85 474 Z " />
<glyph glyph-name="w" unicode="w" horiz-adv-x="854" d="M385 473 L423 349 L285 -10 L300 -10 L431 322 L532 -10 L547 -10 L734 457 C748 486 766 492 789 492 L832 492 C832 492 825 494 815 496 C806 498 799 500 799 500 L750 500 L731 500 L726 500 L664 500 C664 500 657 498 647 496 C638 494 631 492 631 492 L671 492 C702 492 721 488 713 466 L531 -10 L555 53 L439 473 L440 473 C435 489 438 492 444 492 L498 492 C498 492 491 494 482 496 C472 498 465 500 465 500 L432 500 L405 500 L376 500 L345 500 C345 500 339 498 329 496 C319 494 313 492 313 492 L368 492 C375 492 380 489 384 473 L385 473 L385 473 Z M128 481 L284 -10 L308 53 L186 473 L186 473 C181 489 184 492 190 492 L244 492 C244 492 237 494 228 496 C218 498 211 500 211 500 L178 500 L151 500 L122 500 L91 500 C91 500 85 498 75 496 C65 494 59 492 59 492 L114 492 C120 492 124 490 128 481 L128 481 Z " />
<glyph glyph-name="x" unicode="x" horiz-adv-x="586" d="M124 52 L124 52 C95 15 78 8 61 8 L15 8 C15 8 21 6 31 4 C41 2 47 0 47 0 L84 0 L107 0 L111 0 L174 0 C174 0 181 2 190 4 C200 6 207 8 207 8 L170 8 C139 8 121 13 136 39 L275 226 L413 37 C428 12 419 7 401 7 L361 7 C361 7 368 5 378 3 C387 1 394 -1 394 -1 L441 -1 L462 -1 L503 -1 L529 -1 C529 -1 536 1 546 3 C555 5 562 7 562 7 L505 7 C501 7 494 12 476 35 L309 264 L429 447 L429 447 C453 484 469 491 487 491 L533 491 C533 491 526 493 517 495 C507 497 500 499 500 499 L463 499 L441 499 L440 499 L383 499 C383 499 376 497 366 495 C357 493 350 491 350 491 L388 491 C416 491 431 484 409 450 L409 450 L300 276 L164 462 C150 486 159 491 177 491 L217 491 C217 491 210 493 201 495 C191 497 184 499 184 499 L137 499 L122 499 L76 499 L59 499 C59 499 52 497 43 495 C33 493 26 491 26 491 L82 491 L267 237 L124 52 L124 52 Z " />
<glyph glyph-name="y" unicode="y" horiz-adv-x="573" d="M85 475 L262 -10 L211 -140 C206 -155 194 -165 181 -165 C170 -165 165 -147 153 -147 C136 -147 124 -157 124 -172 C124 -191 136 -203 154 -203 C182 -203 209 -183 221 -154 L277 -10 L461 447 L462 446 C477 485 497 492 523 492 L565 492 C565 492 559 494 549 496 C539 498 533 500 533 500 L483 500 L465 500 L460 500 L398 500 C398 500 391 498 382 496 C372 494 365 492 365 492 L405 492 C433 492 451 488 448 469 L262 -10 L286 53 L143 466 L143 466 C135 488 145 492 162 492 L206 492 C206 492 200 494 190 496 C180 498 174 500 174 500 L131 500 L108 500 L76 500 L42 500 C42 500 35 498 25 496 C16 494 9 492 9 492 L60 492 C69 492 78 489 85 475 L85 475 Z " />
<glyph glyph-name="z" unicode="z" horiz-adv-x="506" d="M311 16 L312 16 L103 13 L466 488 L466 500 L415 500 L110 500 C105 500 99 504 100 510 L108 538 C107 536 105 533 103 529 C99 523 96 519 96 519 C95 513 93 506 91 499 L84 499 L84 481 L86 481 C86 479 86 477 86 475 C82 462 78 445 74 432 C74 432 72 422 68 407 C64 392 61 382 61 382 L80 425 C95 457 119 479 191 482 L407 485 L42 10 L42 -2 L95 -2 L417 -2 L463 -2 C464 8 466 21 468 31 C469 41 471 54 473 64 C472 64 474 74 477 89 L482 114 L466 71 C453 37 423 14 313 14 L311 16 L311 16 Z M110 536 L110 538 C110 538 110 537 109 536 L110 536 L110 536 Z " />
<glyph glyph-name="bar" unicode="&#x7c;" horiz-adv-x="158" d="M60 797 L60 -250 L99 -250 L99 797 L60 797 L60 797 Z " />
<glyph glyph-name="exclamdown" unicode="&#xa1;" horiz-adv-x="201" d="M101 505 C79 505 65 491 65 470 C65 448 79 434 101 434 C122 434 136 448 136 470 C136 491 122 505 101 505 L101 505 Z M101 -255 C128 -255 134 -221 131 -171 L105 290 L96 290 L70 -171 C67 -221 73 -255 101 -255 L101 -255 Z " />
<glyph glyph-name="cent" unicode="&#xa2;" horiz-adv-x="510" d="M264 575 L264 509 C135 497 51 391 51 238 C51 90 136 -8 264 -10 L264 -75 L282 -75 L282 -10 C367 -5 446 49 481 128 L474 131 C445 65 370 21 287 21 C285 21 283 21 281 21 L281 499 C282 499 283 499 284 499 C353 499 413 461 433 405 C438 390 448 380 458 380 C478 380 488 390 483 405 C460 468 382 510 287 510 C285 510 283 510 281 510 L281 575 L264 575 L264 575 Z M263 22 C165 35 101 128 101 264 C101 396 165 487 263 498 L263 22 L263 22 Z " />
<glyph glyph-name="questiondown" unicode="&#xbf;" horiz-adv-x="304" d="M180 505 C159 505 145 491 144 470 C145 448 159 434 180 434 C201 434 215 448 215 470 C215 491 201 505 180 505 L180 505 Z M183 325 L180 140 C95 140 61 103 24 47 C7 22 -5 -18 -5 -53 C-5 -177 61 -260 160 -260 C188 -260 207 -245 207 -223 C207 -208 196 -198 180 -198 C168 -198 154 -207 141 -207 C62 -207 10 -143 10 -47 C10 -27 20 2 35 24 C62 63 91 90 197 90 L192 325 L183 325 L183 325 Z " />
<glyph glyph-name="Agrave" unicode="&#xc0;" horiz-adv-x="776" d="M640 128 L639 128 L442 732 L430 770 L424 770 C409 748 394 733 386 732 L389 722 L389 722 L199 158 L199 158 C157 32 112 8 56 8 L14 8 C14 8 20 6 30 4 C40 2 46 0 46 0 L146 0 L149 0 L164 0 L281 0 C281 0 288 2 298 4 C307 6 314 8 314 8 L274 8 C200 8 159 32 202 158 L202 158 L248 296 L527 296 L581 128 L580 128 C613 27 582 8 526 8 L487 8 C487 8 493 6 503 4 C513 2 519 0 519 0 L622 0 L630 0 L680 0 L740 0 C740 0 747 2 756 4 C766 6 773 8 773 8 L730 8 C698 8 671 27 639 128 L640 128 L640 128 Z M300 959 C264 1001 238 1029 232 1029 C218 1029 207 1018 207 1005 C207 999 235 973 277 936 L416 813 L423 820 L300 959 L300 959 Z M248 299 L389 719 L525 299 L248 299 L248 299 Z " />
<glyph glyph-name="Aacute" unicode="&#xc1;" horiz-adv-x="776" d="M420 813 L560 936 C602 974 630 1001 630 1005 C630 1018 618 1029 605 1029 C601 1029 575 1001 537 959 L414 820 L420 813 L420 813 Z M640 128 L639 128 L442 732 L430 770 L424 770 C409 748 394 733 386 732 L389 722 L389 722 L199 158 L199 158 C157 32 112 8 56 8 L14 8 C14 8 20 6 30 4 C40 2 46 0 46 0 L146 0 L149 0 L164 0 L281 0 C281 0 288 2 298 4 C307 6 314 8 314 8 L274 8 C200 8 159 32 202 158 L202 158 L248 296 L527 296 L581 128 L580 128 C613 27 582 8 526 8 L487 8 C487 8 493 6 503 4 C513 2 519 0 519 0 L622 0 L630 0 L680 0 L740 0 C740 0 747 2 756 4 C766 6 773 8 773 8 L730 8 C698 8 671 27 639 128 L640 128 L640 128 Z M248 299 L389 719 L525 299 L248 299 L248 299 Z " />
<glyph glyph-name="Acircumflex" unicode="&#xc2;" horiz-adv-x="776" d="M640 128 L639 128 L442 732 L430 770 L424 770 C409 748 394 733 386 732 L389 722 L389 722 L199 158 L199 158 C157 32 112 8 56 8 L14 8 C14 8 20 6 30 4 C40 2 46 0 46 0 L146 0 L149 0 L164 0 L281 0 C281 0 288 2 298 4 C307 6 314 8 314 8 L274 8 C200 8 159 32 202 158 L202 158 L248 296 L527 296 L581 128 L580 128 C613 27 582 8 526 8 L487 8 C487 8 493 6 503 4 C513 2 519 0 519 0 L622 0 L630 0 L680 0 L740 0 C740 0 747 2 756 4 C766 6 773 8 773 8 L730 8 C698 8 671 27 639 128 L640 128 L640 128 Z M413 977 L555 808 L562 813 L431 1015 C427 1020 418 1033 413 1033 C408 1033 399 1021 395 1015 L264 813 L271 808 L413 977 L413 977 Z M248 299 L389 719 L525 299 L248 299 L248 299 Z " />
<glyph glyph-name="Atilde" unicode="&#xc3;" horiz-adv-x="776" d="M248 870 C248 910 270 936 303 936 C371 936 442 871 511 871 C553 871 581 909 581 966 L580 966 C580 930 557 906 522 906 C454 906 383 971 314 971 C274 971 247 931 247 870 L248 870 L248 870 Z M640 128 L639 128 L442 732 L430 770 L424 770 C409 748 394 733 386 732 L389 722 L389 722 L199 158 L199 158 C157 32 112 8 56 8 L14 8 C14 8 20 6 30 4 C40 2 46 0 46 0 L146 0 L149 0 L164 0 L281 0 C281 0 288 2 298 4 C307 6 314 8 314 8 L274 8 C200 8 159 32 202 158 L202 158 L248 296 L527 296 L581 128 L580 128 C613 27 582 8 526 8 L487 8 C487 8 493 6 503 4 C513 2 519 0 519 0 L622 0 L630 0 L680 0 L740 0 C740 0 747 2 756 4 C766 6 773 8 773 8 L730 8 C698 8 671 27 639 128 L640 128 L640 128 Z M248 299 L389 719 L525 299 L248 299 L248 299 Z " />
<glyph glyph-name="Adieresis" unicode="&#xc4;" horiz-adv-x="776" d="M484 865 C503 865 516 878 516 897 C516 917 503 930 484 930 C465 930 452 917 452 897 C452 878 465 865 484 865 L484 865 Z M344 865 C363 865 376 878 376 897 C376 917 363 930 344 930 C324 930 311 917 311 897 C311 878 324 865 344 865 L344 865 Z M640 128 L639 128 L442 732 L430 770 L424 770 C409 748 394 733 386 732 L389 722 L389 722 L199 158 L199 158 C157 32 112 8 56 8 L14 8 C14 8 20 6 30 4 C40 2 46 0 46 0 L146 0 L149 0 L164 0 L281 0 C281 0 288 2 298 4 C307 6 314 8 314 8 L274 8 C200 8 159 32 202 158 L202 158 L248 296 L527 296 L581 128 L580 128 C613 27 582 8 526 8 L487 8 C487 8 493 6 503 4 C513 2 519 0 519 0 L622 0 L630 0 L680 0 L740 0 C740 0 747 2 756 4 C766 6 773 8 773 8 L730 8 C698 8 671 27 639 128 L640 128 L640 128 Z M248 299 L389 719 L525 299 L248 299 L248 299 Z " />
<glyph glyph-name="Aring" unicode="&#xc5;" horiz-adv-x="776" d="M414 822 C370 822 332 860 332 905 C332 955 365 988 414 988 C463 988 496 955 496 905 C496 860 458 822 414 822 L414 822 Z M317 905 C317 854 362 810 414 810 C466 810 510 854 510 905 C510 962 472 1000 414 1000 C356 1000 317 962 317 905 L317 905 Z M640 128 L639 128 L442 732 L430 770 L424 770 C409 748 394 733 386 732 L389 722 L389 722 L199 158 L199 158 C157 32 112 8 56 8 L14 8 C14 8 20 6 30 4 C40 2 46 0 46 0 L146 0 L149 0 L164 0 L281 0 C281 0 288 2 298 4 C307 6 314 8 314 8 L274 8 C200 8 159 32 202 158 L202 158 L248 296 L527 296 L581 128 L580 128 C613 27 582 8 526 8 L487 8 C487 8 493 6 503 4 C513 2 519 0 519 0 L622 0 L630 0 L680 0 L740 0 C740 0 747 2 756 4 C766 6 773 8 773 8 L730 8 C698 8 671 27 639 128 L640 128 L640 128 Z M248 299 L389 719 L525 299 L248 299 L248 299 Z " />
<glyph glyph-name="Egrave" unicode="&#xc8;" horiz-adv-x="650" d="M242 959 C205 1001 179 1029 174 1029 C160 1029 149 1018 149 1005 C149 999 177 973 219 936 L358 813 L364 820 L242 959 L242 959 Z M471 0 L578 0 C579 10 581 22 583 32 C584 42 586 55 587 64 C587 64 587 77 588 96 C588 114 589 127 588 127 L582 84 C576 35 555 2 471 2 L264 2 C217 2 212 22 212 52 L212 73 L212 385 L386 385 C470 385 486 346 486 287 L486 245 C486 245 487 259 489 280 C492 301 493 315 493 315 L493 385 L493 386 L493 387 L493 457 C493 457 492 471 489 492 C487 513 486 527 486 527 L486 485 C486 426 470 387 386 387 L212 387 L212 677 L212 748 L446 748 C547 748 549 710 552 654 L554 623 C555 623 555 636 556 654 C557 673 558 686 558 686 C557 695 556 708 556 718 C555 728 554 740 553 750 L446 750 L212 750 L158 750 L156 750 L104 750 C104 750 93 748 77 746 C62 744 51 742 51 742 L93 742 C131 742 156 732 156 677 L156 73 C156 18 131 8 93 8 L51 8 C51 8 62 6 77 4 C93 2 104 0 104 0 L156 0 L158 0 L212 0 L471 0 L471 0 Z " />
<glyph glyph-name="Eacute" unicode="&#xc9;" horiz-adv-x="650" d="M361 813 L500 936 C543 974 571 1001 571 1005 C571 1018 559 1029 546 1029 C542 1029 516 1001 477 959 L355 820 L361 813 L361 813 Z M471 0 L578 0 C579 10 581 22 583 32 C584 42 586 55 587 64 C587 64 587 77 588 96 C588 114 589 127 588 127 L582 84 C576 35 555 2 471 2 L264 2 C217 2 212 22 212 52 L212 73 L212 385 L386 385 C470 385 486 346 486 287 L486 245 C486 245 487 259 489 280 C492 301 493 315 493 315 L493 385 L493 386 L493 387 L493 457 C493 457 492 471 489 492 C487 513 486 527 486 527 L486 485 C486 426 470 387 386 387 L212 387 L212 677 L212 748 L446 748 C547 748 549 710 552 654 L554 623 C555 623 555 636 556 654 C557 673 558 686 558 686 C557 695 556 708 556 718 C555 728 554 740 553 750 L446 750 L212 750 L158 750 L156 750 L104 750 C104 750 93 748 77 746 C62 744 51 742 51 742 L93 742 C131 742 156 732 156 677 L156 73 C156 18 131 8 93 8 L51 8 C51 8 62 6 77 4 C93 2 104 0 104 0 L156 0 L158 0 L212 0 L471 0 L471 0 Z " />
<glyph glyph-name="Ecircumflex" unicode="&#xca;" horiz-adv-x="650" d="M355 977 L498 808 L505 813 L373 1015 C370 1020 361 1033 356 1033 C351 1033 342 1021 338 1015 L207 813 L213 808 L355 977 L355 977 Z M472 0 L579 0 C580 10 582 22 584 32 C585 42 587 55 588 64 C588 64 588 77 589 96 C589 114 590 127 589 127 L583 84 C577 35 556 2 472 2 L265 2 C218 2 213 22 213 52 L213 73 L213 385 L387 385 C471 385 487 346 487 287 L487 245 C487 245 488 259 490 280 C493 301 494 315 494 315 L494 385 L494 386 L494 387 L494 457 C494 457 493 471 490 492 C488 513 487 527 487 527 L487 485 C487 426 471 387 387 387 L213 387 L213 677 L213 748 L447 748 C548 748 550 710 553 654 L555 623 C556 623 556 636 557 654 C558 673 559 686 559 686 C558 695 557 708 557 718 C556 728 555 740 554 750 L447 750 L213 750 L159 750 L157 750 L105 750 C105 750 94 748 78 746 C63 744 52 742 52 742 L94 742 C132 742 157 732 157 677 L157 73 C157 18 132 8 94 8 L52 8 C52 8 63 6 78 4 C94 2 105 0 105 0 L157 0 L159 0 L213 0 L472 0 L472 0 Z " />
<glyph glyph-name="Edieresis" unicode="&#xcb;" horiz-adv-x="650" d="M425 865 C444 865 457 878 457 897 C457 917 444 930 425 930 C405 930 392 917 392 897 C392 878 405 865 425 865 L425 865 Z M284 865 C304 865 317 878 317 897 C317 917 304 930 284 930 C265 930 252 917 252 897 C252 878 265 865 284 865 L284 865 Z M471 0 L578 0 C579 10 581 22 583 32 C584 42 586 55 587 64 C587 64 587 77 588 96 C588 114 589 127 588 127 L582 84 C576 35 555 2 471 2 L264 2 C217 2 212 22 212 52 L212 73 L212 385 L386 385 C470 385 486 346 486 287 L486 245 C486 245 487 259 489 280 C492 301 493 315 493 315 L493 385 L493 386 L493 387 L493 457 C493 457 492 471 489 492 C487 513 486 527 486 527 L486 485 C486 426 470 387 386 387 L212 387 L212 677 L212 748 L446 748 C547 748 549 710 552 654 L554 623 C555 623 555 636 556 654 C557 673 558 686 558 686 C557 695 556 708 556 718 C555 728 554 740 553 750 L446 750 L212 750 L158 750 L156 750 L104 750 C104 750 93 748 77 746 C62 744 51 742 51 742 L93 742 C131 742 156 732 156 677 L156 73 C156 18 131 8 93 8 L51 8 C51 8 62 6 77 4 C93 2 104 0 104 0 L156 0 L158 0 L212 0 L471 0 L471 0 Z " />
<glyph glyph-name="Igrave" unicode="&#xcc;" horiz-adv-x="362" d="M77 959 C41 1001 15 1029 9 1029 C-4 1029 -16 1018 -16 1005 C-16 999 12 973 54 936 L193 813 L200 820 L77 959 L77 959 Z M218 68 L218 682 C218 732 243 742 281 742 L323 742 C323 742 312 744 297 746 C281 748 270 750 270 750 L190 750 L110 750 C110 750 99 748 83 746 C68 744 57 742 57 742 L99 742 C137 742 162 732 162 682 L162 68 C162 18 137 8 99 8 L57 8 C57 8 68 6 83 4 C99 2 110 0 110 0 L190 0 L270 0 C270 0 281 2 297 4 C312 6 323 8 323 8 L281 8 C243 8 218 18 218 68 L218 68 Z " />
<glyph glyph-name="Iacute" unicode="&#xcd;" horiz-adv-x="362" d="M197 813 L336 936 C378 974 406 1001 406 1005 C406 1018 394 1029 381 1029 C377 1029 351 1001 313 959 L190 820 L197 813 L197 813 Z M218 68 L218 682 C218 732 243 742 281 742 L323 742 C323 742 312 744 297 746 C281 748 270 750 270 750 L190 750 L110 750 C110 750 99 748 83 746 C68 744 57 742 57 742 L99 742 C137 742 162 732 162 682 L162 68 C162 18 137 8 99 8 L57 8 C57 8 68 6 83 4 C99 2 110 0 110 0 L190 0 L270 0 C270 0 281 2 297 4 C312 6 323 8 323 8 L281 8 C243 8 218 18 218 68 L218 68 Z " />
<glyph glyph-name="Icircumflex" unicode="&#xce;" horiz-adv-x="362" d="M190 977 L332 808 L339 813 L208 1015 C204 1020 195 1033 190 1033 C185 1033 176 1021 172 1015 L41 813 L48 808 L190 977 L190 977 Z M218 68 L218 682 C218 732 243 742 281 742 L323 742 C323 742 312 744 297 746 C281 748 270 750 270 750 L190 750 L110 750 C110 750 99 748 83 746 C68 744 57 742 57 742 L99 742 C137 742 162 732 162 682 L162 68 C162 18 137 8 99 8 L57 8 C57 8 68 6 83 4 C99 2 110 0 110 0 L190 0 L270 0 C270 0 281 2 297 4 C312 6 323 8 323 8 L281 8 C243 8 218 18 218 68 L218 68 Z " />
<glyph glyph-name="Idieresis" unicode="&#xcf;" horiz-adv-x="362" d="M260 865 C280 865 293 878 293 897 C293 917 280 930 260 930 C241 930 228 917 228 897 C228 878 241 865 260 865 L260 865 Z M120 865 C139 865 152 878 152 897 C152 917 139 930 120 930 C100 930 87 917 87 897 C87 878 100 865 120 865 L120 865 Z M218 68 L218 682 C218 732 243 742 281 742 L323 742 C323 742 312 744 297 746 C281 748 270 750 270 750 L190 750 L110 750 C110 750 99 748 83 746 C68 744 57 742 57 742 L99 742 C137 742 162 732 162 682 L162 68 C162 18 137 8 99 8 L57 8 C57 8 68 6 83 4 C99 2 110 0 110 0 L190 0 L270 0 C270 0 281 2 297 4 C312 6 323 8 323 8 L281 8 C243 8 218 18 218 68 L218 68 Z " />
<glyph glyph-name="Ntilde" unicode="&#xd1;" horiz-adv-x="804" d="M234 870 C234 910 256 936 289 936 C357 936 428 871 497 871 C539 871 567 909 567 966 L566 966 C566 930 543 906 508 906 C440 906 369 971 301 971 C260 971 233 931 233 870 L234 870 L234 870 Z M169 750 L155 750 L142 750 L120 750 L99 750 L72 750 C72 750 66 748 56 746 C46 744 40 742 40 742 L97 742 C102 742 109 736 130 707 L130 707 L142 691 L141 138 L141 138 C141 29 108 8 58 8 L16 8 C16 8 22 6 32 4 C42 2 48 0 48 0 L141 0 L149 0 L158 0 L250 0 C250 0 257 2 266 4 C276 6 283 8 283 8 L240 8 C194 8 162 24 157 106 L155 672 L586 79 L644 0 L655 0 L658 642 L659 642 C659 726 692 742 741 742 L784 742 C784 742 771 744 752 746 C734 748 721 750 721 750 L659 750 L651 750 L643 750 L580 750 C580 750 568 748 549 746 C530 744 518 742 518 742 L560 742 C610 742 643 726 643 642 L643 642 L644 95 L632 112 L169 750 L169 750 Z " />
<glyph glyph-name="Ograve" unicode="&#xd2;" horiz-adv-x="845" d="M411 -8 C239 -8 125 145 125 375 C125 605 243 758 420 758 C604 758 726 605 726 375 C726 145 600 -8 411 -8 L411 -8 Z M61 375 C61 144 201 -10 411 -10 C638 -10 790 144 790 375 C790 606 642 760 421 760 C205 760 61 606 61 375 L61 375 Z M308 959 C271 1001 245 1029 240 1029 C226 1029 215 1018 215 1005 C215 999 243 973 285 936 L424 813 L430 820 L308 959 L308 959 Z " />
<glyph glyph-name="Oacute" unicode="&#xd3;" horiz-adv-x="845" d="M427 813 L566 936 C608 974 636 1001 636 1005 C636 1018 625 1029 611 1029 C608 1029 581 1001 543 959 L421 820 L427 813 L427 813 Z M411 -8 C239 -8 125 145 125 375 C125 605 243 758 420 758 C604 758 726 605 726 375 C726 145 600 -8 411 -8 L411 -8 Z M61 375 C61 144 201 -10 411 -10 C638 -10 790 144 790 375 C790 606 642 760 421 760 C205 760 61 606 61 375 L61 375 Z " />
<glyph glyph-name="Ocircumflex" unicode="&#xd4;" horiz-adv-x="845" d="M411 -8 C239 -8 125 145 125 375 C125 605 243 758 420 758 C604 758 726 605 726 375 C726 145 600 -8 411 -8 L411 -8 Z M61 375 C61 144 201 -10 411 -10 C638 -10 790 144 790 375 C790 606 642 760 421 760 C205 760 61 606 61 375 L61 375 Z M421 977 L564 808 L571 813 L439 1015 C436 1020 427 1033 422 1033 C417 1033 408 1021 404 1015 L273 813 L279 808 L421 977 L421 977 Z " />
<glyph glyph-name="Otilde" unicode="&#xd5;" horiz-adv-x="845" d="M255 870 C255 910 277 936 310 936 C378 936 449 871 517 871 C560 871 588 909 588 966 L586 966 C586 930 563 906 529 906 C460 906 389 971 321 971 C281 971 254 931 254 870 L255 870 L255 870 Z M411 -8 C239 -8 125 145 125 375 C125 605 243 758 420 758 C604 758 726 605 726 375 C726 145 600 -8 411 -8 L411 -8 Z M61 375 C61 144 201 -10 411 -10 C638 -10 790 144 790 375 C790 606 642 760 421 760 C205 760 61 606 61 375 L61 375 Z " />
<glyph glyph-name="Odieresis" unicode="&#xd6;" horiz-adv-x="845" d="M491 865 C510 865 523 878 523 897 C523 917 510 930 491 930 C471 930 458 917 458 897 C458 878 471 865 491 865 L491 865 Z M350 865 C370 865 383 878 383 897 C383 917 370 930 350 930 C331 930 318 917 318 897 C318 878 331 865 350 865 L350 865 Z M411 -8 C239 -8 125 145 125 375 C125 605 243 758 420 758 C604 758 726 605 726 375 C726 145 600 -8 411 -8 L411 -8 Z M61 375 C61 144 201 -10 411 -10 C638 -10 790 144 790 375 C790 606 642 760 421 760 C205 760 61 606 61 375 L61 375 Z " />
<glyph glyph-name="Oslash" unicode="&#xd8;" horiz-adv-x="845" d="M62 -11 L160 93 C221 28 307 -9 410 -9 C637 -9 789 145 789 376 C789 490 753 585 690 652 L792 759 L789 761 L688 654 C623 721 531 759 421 759 C205 759 61 605 61 374 C61 258 96 161 158 94 L60 -10 L62 -11 L62 -11 Z M411 -9 C315 -9 237 38 187 120 L663 622 C703 558 726 473 726 374 C726 144 600 -9 411 -9 L411 -9 Z M186 123 C147 188 125 274 125 375 C125 605 243 758 420 758 C524 758 608 709 662 626 L186 123 L186 123 Z " />
<glyph glyph-name="Ugrave" unicode="&#xd9;" horiz-adv-x="733" d="M257 959 C220 1001 194 1029 189 1029 C175 1029 164 1018 164 1005 C164 999 192 973 234 936 L373 813 L379 820 L257 959 L257 959 Z M618 98 L618 677 L618 750 L564 750 L510 750 C510 750 499 748 483 746 C468 744 457 742 457 742 L499 742 C537 742 562 732 562 677 L562 181 C519 88 418 26 311 26 C231 26 177 106 177 226 L177 677 L177 750 L123 750 L69 750 C69 750 58 748 42 746 C27 744 16 742 16 742 L58 742 C96 742 121 732 121 677 L121 226 C121 85 188 -10 288 -10 C406 -10 516 56 562 156 L562 98 L562 0 L571 0 L722 49 L722 53 C635 48 618 54 618 98 L618 98 Z " />
<glyph glyph-name="Uacute" unicode="&#xda;" horiz-adv-x="733" d="M376 813 L515 936 C557 974 585 1001 585 1005 C585 1018 574 1029 560 1029 C557 1029 530 1001 492 959 L370 820 L376 813 L376 813 Z M618 98 L618 677 L618 750 L564 750 L510 750 C510 750 499 748 483 746 C468 744 457 742 457 742 L499 742 C537 742 562 732 562 677 L562 181 C519 88 418 26 311 26 C231 26 177 106 177 226 L177 677 L177 750 L123 750 L69 750 C69 750 58 748 42 746 C27 744 16 742 16 742 L58 742 C96 742 121 732 121 677 L121 226 C121 85 188 -10 288 -10 C406 -10 516 56 562 156 L562 98 L562 0 L571 0 L722 49 L722 53 C635 48 618 54 618 98 L618 98 Z " />
<glyph glyph-name="Ucircumflex" unicode="&#xdb;" horiz-adv-x="733" d="M370 977 L513 808 L520 813 L388 1015 C385 1020 376 1033 371 1033 C365 1033 356 1021 353 1015 L221 813 L228 808 L370 977 L370 977 Z M619 98 L619 677 L619 750 L565 750 L511 750 C511 750 500 748 484 746 C469 744 458 742 458 742 L500 742 C538 742 563 732 563 677 L563 181 C520 88 419 26 312 26 C232 26 178 106 178 226 L178 677 L178 750 L124 750 L70 750 C70 750 59 748 43 746 C28 744 17 742 17 742 L59 742 C97 742 122 732 122 677 L122 226 C122 85 189 -10 289 -10 C407 -10 517 56 563 156 L563 98 L563 0 L572 0 L723 49 L723 53 C636 48 619 54 619 98 L619 98 Z " />
<glyph glyph-name="Udieresis" unicode="&#xdc;" horiz-adv-x="733" d="M440 865 C459 865 472 878 472 897 C472 917 459 930 440 930 C420 930 407 917 407 897 C407 878 420 865 440 865 L440 865 Z M299 865 C319 865 332 878 332 897 C332 917 319 930 299 930 C280 930 267 917 267 897 C267 878 280 865 299 865 L299 865 Z M618 98 L618 677 L618 750 L564 750 L510 750 C510 750 499 748 483 746 C468 744 457 742 457 742 L499 742 C537 742 562 732 562 677 L562 181 C519 88 418 26 311 26 C231 26 177 106 177 226 L177 677 L177 750 L123 750 L69 750 C69 750 58 748 42 746 C27 744 16 742 16 742 L58 742 C96 742 121 732 121 677 L121 226 C121 85 188 -10 288 -10 C406 -10 516 56 562 156 L562 98 L562 0 L571 0 L722 49 L722 53 C635 48 618 54 618 98 L618 98 Z " />
<glyph glyph-name="Yacute" unicode="&#xdd;" horiz-adv-x="728" d="M376 813 L516 936 C558 974 586 1001 586 1005 C586 1018 574 1029 561 1029 C557 1029 531 1001 493 959 L370 820 L376 813 L376 813 Z M211 642 C162 725 177 741 212 741 L249 741 C249 741 243 743 233 745 C223 747 217 749 217 749 L144 749 L134 749 L79 749 L51 749 C51 749 44 747 35 745 C25 743 18 741 18 741 L76 741 C80 741 95 722 158 621 L159 621 L342 328 L342 67 C342 17 317 7 279 7 L237 7 C237 7 247 5 263 3 C279 1 289 -1 289 -1 L370 -1 L450 -1 C450 -1 461 1 477 3 C492 5 503 7 503 7 L460 7 C423 7 398 17 398 67 L398 338 L564 621 L564 621 C623 722 651 741 677 741 L719 741 C719 741 713 743 703 745 C693 747 687 749 687 749 L639 749 L635 749 L624 749 L562 749 C562 749 556 747 546 745 C536 743 530 741 530 741 L567 741 C606 741 621 723 566 631 L566 630 L397 340 L211 642 L211 642 Z " />
<glyph glyph-name="agrave" unicode="&#xe0;" horiz-adv-x="590" d="M201 709 C164 751 138 779 133 779 C119 779 108 768 108 755 C108 749 136 723 178 686 L317 563 L323 570 L201 709 L201 709 Z M460 89 C427 45 367 16 308 16 C187 16 106 117 106 267 C106 404 179 495 320 495 C394 495 447 450 460 392 L460 98 L460 89 L460 89 Z M460 72 L460 -10 L469 -10 L553 11 C553 11 561 15 574 20 C587 26 595 29 595 29 L553 19 C527 12 510 24 510 108 L510 450 L510 510 L504 510 L461 451 C430 486 379 510 315 510 C144 510 56 407 56 254 C56 98 149 -5 288 -5 C358 -5 426 25 461 72 L460 72 L460 72 Z " />
<glyph glyph-name="aacute" unicode="&#xe1;" horiz-adv-x="590" d="M320 563 L459 686 C502 724 530 751 530 755 C530 768 518 779 505 779 C501 779 475 751 436 709 L314 570 L320 563 L320 563 Z M460 89 C427 45 367 16 308 16 C187 16 106 117 106 267 C106 404 179 495 320 495 C394 495 447 450 460 392 L460 98 L460 89 L460 89 Z M460 72 L460 -10 L469 -10 L553 11 C553 11 561 15 574 20 C587 26 595 29 595 29 L553 19 C527 12 510 24 510 108 L510 450 L510 510 L504 510 L461 451 C430 486 379 510 315 510 C144 510 56 407 56 254 C56 98 149 -5 288 -5 C358 -5 426 25 461 72 L460 72 L460 72 Z " />
<glyph glyph-name="acircumflex" unicode="&#xe2;" horiz-adv-x="590" d="M314 727 L457 558 L464 563 L332 765 C329 770 320 783 315 783 C310 783 301 771 297 765 L166 563 L172 558 L314 727 L314 727 Z M461 89 C428 45 368 16 309 16 C188 16 107 117 107 267 C107 404 180 495 321 495 C395 495 448 450 461 392 L461 98 L461 89 L461 89 Z M461 72 L461 -10 L470 -10 L554 11 C554 11 562 15 575 20 C588 26 596 29 596 29 L554 19 C528 12 511 24 511 108 L511 450 L511 510 L505 510 L462 451 C431 486 380 510 316 510 C145 510 57 407 57 254 C57 98 150 -5 289 -5 C359 -5 427 25 462 72 L461 72 L461 72 Z " />
<glyph glyph-name="atilde" unicode="&#xe3;" horiz-adv-x="590" d="M148 620 C148 660 170 686 203 686 C271 686 342 621 410 621 C453 621 481 659 481 716 L479 716 C479 680 456 656 422 656 C354 656 282 721 214 721 C174 721 147 681 147 620 L148 620 L148 620 Z M460 89 C427 45 367 16 308 16 C187 16 106 117 106 267 C106 404 179 495 320 495 C394 495 447 450 460 392 L460 98 L460 89 L460 89 Z M460 72 L460 -10 L469 -10 L553 11 C553 11 561 15 574 20 C587 26 595 29 595 29 L553 19 C527 12 510 24 510 108 L510 450 L510 510 L504 510 L461 451 C430 486 379 510 315 510 C144 510 56 407 56 254 C56 98 149 -5 288 -5 C358 -5 426 25 461 72 L460 72 L460 72 Z " />
<glyph glyph-name="adieresis" unicode="&#xe4;" horiz-adv-x="590" d="M384 615 C403 615 416 628 416 647 C416 667 403 680 384 680 C365 680 352 667 352 647 C352 628 365 615 384 615 L384 615 Z M243 615 C263 615 276 628 276 647 C276 667 263 680 243 680 C224 680 211 667 211 647 C211 628 224 615 243 615 L243 615 Z M460 89 C427 45 367 16 308 16 C187 16 106 117 106 267 C106 404 179 495 320 495 C394 495 447 450 460 392 L460 98 L460 89 L460 89 Z M460 72 L460 -10 L469 -10 L553 11 C553 11 561 15 574 20 C587 26 595 29 595 29 L553 19 C527 12 510 24 510 108 L510 450 L510 510 L504 510 L461 451 C430 486 379 510 315 510 C144 510 56 407 56 254 C56 98 149 -5 288 -5 C358 -5 426 25 461 72 L460 72 L460 72 Z " />
<glyph glyph-name="aring" unicode="&#xe5;" horiz-adv-x="590" d="M314 572 C270 572 232 610 232 655 C232 705 265 738 314 738 C362 738 395 705 395 655 C395 610 358 572 314 572 L314 572 Z M217 655 C217 604 261 560 314 560 C366 560 410 604 410 655 C410 712 371 750 314 750 C256 750 217 712 217 655 L217 655 Z M460 89 C427 45 367 16 308 16 C187 16 106 117 106 267 C106 404 179 495 320 495 C394 495 447 450 460 392 L460 98 L460 89 L460 89 Z M460 72 L460 -10 L469 -10 L553 11 C553 11 561 15 574 20 C587 26 595 29 595 29 L553 19 C527 12 510 24 510 108 L510 450 L510 510 L504 510 L461 451 C430 486 379 510 315 510 C144 510 56 407 56 254 C56 98 149 -5 288 -5 C358 -5 426 25 461 72 L460 72 L460 72 Z " />
<glyph glyph-name="egrave" unicode="&#xe8;" horiz-adv-x="577" d="M211 709 C174 751 148 779 143 779 C129 779 118 768 118 755 C118 749 146 723 188 686 L327 563 L334 570 L211 709 L211 709 Z M114 340 L492 340 L534 340 L548 340 C526 462 440 510 324 510 C160 510 50 400 50 235 C50 88 149 -10 299 -10 C410 -10 505 47 536 133 L530 136 C505 68 418 23 311 23 C186 23 103 116 103 255 C103 286 107 314 114 340 L114 340 Z M532 355 C533 355 534 355 535 355 L532 355 L532 355 Z M490 355 L119 352 C149 443 223 499 322 499 C404 499 467 458 490 355 L490 355 Z " />
<glyph glyph-name="eacute" unicode="&#xe9;" horiz-adv-x="577" d="M330 563 L470 686 C512 724 540 751 540 755 C540 768 528 779 515 779 C511 779 485 751 447 709 L324 570 L330 563 L330 563 Z M114 340 L492 340 L534 340 L548 340 C526 462 440 510 324 510 C160 510 50 400 50 235 C50 88 149 -10 299 -10 C410 -10 505 47 536 133 L530 136 C505 68 418 23 311 23 C186 23 103 116 103 255 C103 286 107 314 114 340 L114 340 Z M532 355 C533 355 534 355 535 355 L532 355 L532 355 Z M490 355 L119 352 C149 443 223 499 322 499 C404 499 467 458 490 355 L490 355 Z " />
<glyph glyph-name="ecircumflex" unicode="&#xea;" horiz-adv-x="577" d="M324 727 L466 558 L473 563 L342 765 C338 770 329 783 324 783 C319 783 310 771 306 765 L175 563 L182 558 L324 727 L324 727 Z M114 340 L492 340 L534 340 L548 340 C526 462 440 510 324 510 C160 510 50 400 50 235 C50 88 149 -10 299 -10 C410 -10 505 47 536 133 L530 136 C505 68 418 23 311 23 C186 23 103 116 103 255 C103 286 107 314 114 340 L114 340 Z M532 355 C533 355 534 355 535 355 L532 355 L532 355 Z M490 355 L119 352 C149 443 223 499 322 499 C404 499 467 458 490 355 L490 355 Z " />
<glyph glyph-name="edieresis" unicode="&#xeb;" horiz-adv-x="577" d="M394 615 C413 615 426 628 426 647 C426 667 413 680 394 680 C375 680 362 667 362 647 C362 628 375 615 394 615 L394 615 Z M254 615 C273 615 286 628 286 647 C286 667 273 680 254 680 C234 680 221 667 221 647 C221 628 234 615 254 615 L254 615 Z M114 340 L492 340 L534 340 L548 340 C526 462 440 510 324 510 C160 510 50 400 50 235 C50 88 149 -10 299 -10 C410 -10 505 47 536 133 L530 136 C505 68 418 23 311 23 C186 23 103 116 103 255 C103 286 107 314 114 340 L114 340 Z M532 355 C533 355 534 355 535 355 L532 355 L532 355 Z M490 355 L119 352 C149 443 223 499 322 499 C404 499 467 458 490 355 L490 355 Z " />
<glyph glyph-name="igrave" unicode="&#xec;" horiz-adv-x="283" d="M36 709 C-1 751 -27 779 -32 779 C-46 779 -57 768 -57 755 C-57 749 -29 723 13 686 L152 563 L158 570 L36 709 L36 709 Z M174 23 L174 396 L174 500 L165 500 L42 445 L42 441 C111 444 124 439 124 396 L124 23 C124 10 109 8 86 8 L44 8 C44 8 52 6 64 4 C76 2 84 0 84 0 L149 0 L215 0 C215 0 223 2 236 4 C249 6 257 8 257 8 L214 8 C190 8 174 10 174 23 L174 23 Z " />
<glyph glyph-name="iacute" unicode="&#xed;" horiz-adv-x="283" d="M36 709 C-1 751 -27 779 -32 779 C-46 779 -57 768 -57 755 C-57 749 -29 723 13 686 L152 563 L158 570 L36 709 L36 709 Z M174 23 L174 396 L174 500 L165 500 L42 445 L42 441 C111 444 124 439 124 396 L124 23 C124 10 109 8 86 8 L44 8 C44 8 52 6 64 4 C76 2 84 0 84 0 L149 0 L215 0 C215 0 223 2 236 4 C249 6 257 8 257 8 L214 8 C190 8 174 10 174 23 L174 23 Z " />
<glyph glyph-name="icircumflex" unicode="&#xee;" horiz-adv-x="283" d="M149 727 L292 558 L299 563 L167 765 C164 770 155 783 150 783 C144 783 135 771 132 765 L0 563 L7 558 L149 727 L149 727 Z M175 23 L175 396 L175 500 L166 500 L43 445 L43 441 C112 444 125 439 125 396 L125 23 C125 10 110 8 87 8 L45 8 C45 8 53 6 65 4 C77 2 85 0 85 0 L150 0 L216 0 C216 0 224 2 237 4 C250 6 258 8 258 8 L215 8 C191 8 175 10 175 23 L175 23 Z " />
<glyph glyph-name="idieresis" unicode="&#xef;" horiz-adv-x="283" d="M219 615 C238 615 251 628 251 647 C251 667 238 680 219 680 C199 680 186 667 186 647 C186 628 199 615 219 615 L219 615 Z M78 615 C98 615 111 628 111 647 C111 667 98 680 78 680 C59 680 46 667 46 647 C46 628 59 615 78 615 L78 615 Z M174 23 L174 396 L174 500 L165 500 L42 445 L42 441 C111 444 124 439 124 396 L124 23 C124 10 109 8 86 8 L44 8 C44 8 52 6 64 4 C76 2 84 0 84 0 L149 0 L215 0 C215 0 223 2 236 4 C249 6 257 8 257 8 L214 8 C190 8 174 10 174 23 L174 23 Z " />
<glyph glyph-name="ntilde" unicode="&#xf1;" horiz-adv-x="608" d="M142 620 C142 660 164 686 197 686 C265 686 336 621 405 621 C447 621 475 659 475 716 L474 716 C474 680 451 656 416 656 C348 656 277 721 208 721 C168 721 141 681 141 620 L142 620 L142 620 Z M448 23 C448 10 433 8 411 8 L368 8 C368 8 376 6 388 4 C400 2 408 0 408 0 L473 0 L538 0 C538 0 546 2 558 4 C570 6 578 8 578 8 L536 8 C513 8 498 10 498 23 L498 357 C498 449 448 510 350 510 C308 510 236 455 168 372 L168 437 L168 500 L159 500 L75 470 C75 470 67 465 54 458 C41 451 33 446 33 446 L75 462 C101 471 118 468 118 422 L118 23 C118 10 103 8 80 8 L38 8 C38 8 46 6 58 4 C70 2 78 0 78 0 L143 0 L208 0 C208 0 216 2 228 4 C240 6 248 8 248 8 L205 8 C183 8 168 10 168 23 L168 365 C228 438 295 487 336 487 C410 487 448 435 448 357 L448 23 L448 23 Z " />
<glyph glyph-name="ograve" unicode="&#xf2;" horiz-adv-x="640" d="M323 -8 C192 -8 105 95 105 250 C105 405 192 508 323 508 C453 508 540 405 540 250 C540 95 453 -8 323 -8 L323 -8 Z M50 250 C50 94 159 -10 323 -10 C486 -10 595 94 595 250 C595 406 486 510 323 510 C159 510 50 406 50 250 L50 250 Z M210 709 C173 751 147 779 142 779 C128 779 117 768 117 755 C117 749 145 723 187 686 L326 563 L332 570 L210 709 L210 709 Z " />
<glyph glyph-name="oacute" unicode="&#xf3;" horiz-adv-x="640" d="M329 563 L468 686 C511 724 539 751 539 755 C539 768 527 779 514 779 C510 779 484 751 446 709 L323 570 L329 563 L329 563 Z M323 -8 C192 -8 105 95 105 250 C105 405 192 508 323 508 C453 508 540 405 540 250 C540 95 453 -8 323 -8 L323 -8 Z M50 250 C50 94 159 -10 323 -10 C486 -10 595 94 595 250 C595 406 486 510 323 510 C159 510 50 406 50 250 L50 250 Z " />
<glyph glyph-name="ocircumflex" unicode="&#xf4;" horiz-adv-x="640" d="M323 -8 C192 -8 105 95 105 250 C105 405 192 508 323 508 C453 508 540 405 540 250 C540 95 453 -8 323 -8 L323 -8 Z M50 250 C50 94 159 -10 323 -10 C486 -10 595 94 595 250 C595 406 486 510 323 510 C159 510 50 406 50 250 L50 250 Z M323 727 L466 558 L473 563 L341 765 C338 770 329 783 324 783 C319 783 310 771 306 765 L175 563 L181 558 L323 727 L323 727 Z " />
<glyph glyph-name="otilde" unicode="&#xf5;" horiz-adv-x="640" d="M157 620 C157 660 179 686 212 686 C280 686 351 621 419 621 C462 621 490 659 490 716 L488 716 C488 680 465 656 431 656 C363 656 292 721 223 721 C183 721 156 681 156 620 L157 620 L157 620 Z M323 -8 C192 -8 105 95 105 250 C105 405 192 508 323 508 C453 508 540 405 540 250 C540 95 453 -8 323 -8 L323 -8 Z M50 250 C50 94 159 -10 323 -10 C486 -10 595 94 595 250 C595 406 486 510 323 510 C159 510 50 406 50 250 L50 250 Z " />
<glyph glyph-name="odieresis" unicode="&#xf6;" horiz-adv-x="640" d="M393 615 C412 615 425 628 425 647 C425 667 412 680 393 680 C374 680 361 667 361 647 C361 628 374 615 393 615 L393 615 Z M253 615 C272 615 285 628 285 647 C285 667 272 680 253 680 C233 680 220 667 220 647 C220 628 233 615 253 615 L253 615 Z M323 -8 C192 -8 105 95 105 250 C105 405 192 508 323 508 C453 508 540 405 540 250 C540 95 453 -8 323 -8 L323 -8 Z M50 250 C50 94 159 -10 323 -10 C486 -10 595 94 595 250 C595 406 486 510 323 510 C159 510 50 406 50 250 L50 250 Z " />
<glyph glyph-name="oslash" unicode="&#xf8;" horiz-adv-x="640" d="M51 -11 L126 61 C174 16 242 -10 323 -10 C486 -10 595 94 595 250 C595 327 568 392 521 437 L596 508 L594 510 L519 439 C471 484 403 510 322 510 C158 510 49 406 49 250 C49 173 76 108 123 63 L48 -9 L51 -11 L51 -11 Z M322 -8 C247 -8 187 26 149 84 L496 415 C524 372 539 316 539 251 C539 96 452 -7 322 -7 L322 -8 L322 -8 Z M147 87 C119 130 104 186 104 251 C104 406 191 509 322 509 C396 509 456 475 494 417 L147 87 L147 87 Z " />
<glyph glyph-name="ugrave" unicode="&#xf9;" horiz-adv-x="600" d="M186 709 C149 751 123 779 118 779 C104 779 93 768 93 755 C93 749 121 723 163 686 L302 563 L308 570 L186 709 L186 709 Z M446 78 L446 -10 L455 -10 L538 11 C538 11 547 14 560 20 C572 26 581 29 581 29 L538 19 C513 12 496 21 496 88 L496 477 L496 500 L454 500 L413 500 C413 500 406 498 396 496 C386 494 380 492 380 492 L422 492 C436 492 446 490 446 477 L446 128 C416 66 348 25 273 25 C200 25 152 81 152 165 L152 477 L152 500 L110 500 L68 500 C68 500 62 498 52 496 C42 494 35 492 35 492 L78 492 C92 492 102 490 102 477 L102 165 C102 60 161 -10 249 -10 C333 -10 410 43 446 124 L446 78 L446 78 Z " />
<glyph glyph-name="uacute" unicode="&#xfa;" horiz-adv-x="600" d="M305 563 L444 686 C487 724 515 751 515 755 C515 768 503 779 490 779 C486 779 460 751 421 709 L299 570 L305 563 L305 563 Z M446 78 L446 -10 L455 -10 L538 11 C538 11 547 14 560 20 C572 26 581 29 581 29 L538 19 C513 12 496 21 496 88 L496 477 L496 500 L454 500 L413 500 C413 500 406 498 396 496 C386 494 380 492 380 492 L422 492 C436 492 446 490 446 477 L446 128 C416 66 348 25 273 25 C200 25 152 81 152 165 L152 477 L152 500 L110 500 L68 500 C68 500 62 498 52 496 C42 494 35 492 35 492 L78 492 C92 492 102 490 102 477 L102 165 C102 60 161 -10 249 -10 C333 -10 410 43 446 124 L446 78 L446 78 Z " />
<glyph glyph-name="ucircumflex" unicode="&#xfb;" horiz-adv-x="600" d="M299 727 L442 558 L449 563 L317 765 C314 770 305 783 300 783 C295 783 286 771 282 765 L151 563 L157 558 L299 727 L299 727 Z M447 78 L447 -10 L456 -10 L539 11 C539 11 548 14 561 20 C573 26 582 29 582 29 L539 19 C514 12 497 21 497 88 L497 477 L497 500 L455 500 L414 500 C414 500 407 498 397 496 C387 494 381 492 381 492 L423 492 C437 492 447 490 447 477 L447 128 C417 66 349 25 274 25 C201 25 153 81 153 165 L153 477 L153 500 L111 500 L69 500 C69 500 63 498 53 496 C43 494 36 492 36 492 L79 492 C93 492 103 490 103 477 L103 165 C103 60 162 -10 250 -10 C334 -10 411 43 447 124 L447 78 L447 78 Z " />
<glyph glyph-name="udieresis" unicode="&#xfc;" horiz-adv-x="600" d="M369 615 C388 615 401 628 401 647 C401 667 388 680 369 680 C350 680 337 667 337 647 C337 628 350 615 369 615 L369 615 Z M228 615 C248 615 261 628 261 647 C261 667 248 680 228 680 C209 680 196 667 196 647 C196 628 209 615 228 615 L228 615 Z M446 78 L446 -10 L455 -10 L538 11 C538 11 547 14 560 20 C572 26 581 29 581 29 L538 19 C513 12 496 21 496 88 L496 477 L496 500 L454 500 L413 500 C413 500 406 498 396 496 C386 494 380 492 380 492 L422 492 C436 492 446 490 446 477 L446 128 C416 66 348 25 273 25 C200 25 152 81 152 165 L152 477 L152 500 L110 500 L68 500 C68 500 62 498 52 496 C42 494 35 492 35 492 L78 492 C92 492 102 490 102 477 L102 165 C102 60 161 -10 249 -10 C333 -10 410 43 446 124 L446 78 L446 78 Z " />
<glyph glyph-name="ydieresis" unicode="&#xff;" horiz-adv-x="573" d="M366 615 C385 615 398 628 398 647 C398 667 385 680 366 680 C347 680 334 667 334 647 C334 628 347 615 366 615 L366 615 Z M226 615 C245 615 258 628 258 647 C258 667 245 680 226 680 C206 680 193 667 193 647 C193 628 206 615 226 615 L226 615 Z M85 475 L262 -10 L211 -140 C206 -155 194 -165 181 -165 C170 -165 165 -147 153 -147 C136 -147 124 -157 124 -172 C124 -191 136 -203 154 -203 C182 -203 209 -183 221 -154 L277 -10 L461 447 L462 446 C477 485 497 492 523 492 L565 492 C565 492 559 494 549 496 C539 498 533 500 533 500 L483 500 L465 500 L460 500 L398 500 C398 500 391 498 382 496 C372 494 365 492 365 492 L405 492 C433 492 451 488 448 469 L262 -10 L286 53 L143 466 L143 466 C135 488 145 492 162 492 L206 492 C206 492 200 494 190 496 C180 498 174 500 174 500 L131 500 L108 500 L76 500 L42 500 C42 500 35 498 25 496 C16 494 9 492 9 492 L60 492 C69 492 78 489 85 475 L85 475 Z " />
<glyph glyph-name="Amacron" unicode="&#x100;" horiz-adv-x="776" d="M240 901 L587 901 L587 936 L240 936 L240 901 L240 901 Z M640 128 L639 128 L442 732 L430 770 L424 770 C409 748 394 733 386 732 L389 722 L389 722 L199 158 L199 158 C157 32 112 8 56 8 L14 8 C14 8 20 6 30 4 C40 2 46 0 46 0 L146 0 L149 0 L164 0 L281 0 C281 0 288 2 298 4 C307 6 314 8 314 8 L274 8 C200 8 159 32 202 158 L202 158 L248 296 L527 296 L581 128 L580 128 C613 27 582 8 526 8 L487 8 C487 8 493 6 503 4 C513 2 519 0 519 0 L622 0 L630 0 L680 0 L740 0 C740 0 747 2 756 4 C766 6 773 8 773 8 L730 8 C698 8 671 27 639 128 L640 128 L640 128 Z M248 299 L389 719 L525 299 L248 299 L248 299 Z " />
<glyph glyph-name="amacron" unicode="&#x101;" horiz-adv-x="590" d="M140 651 L487 651 L487 686 L140 686 L140 651 L140 651 Z M460 89 C427 45 367 16 308 16 C187 16 106 117 106 267 C106 404 179 495 320 495 C394 495 447 450 460 392 L460 98 L460 89 L460 89 Z M460 72 L460 -10 L469 -10 L553 11 C553 11 561 15 574 20 C587 26 595 29 595 29 L553 19 C527 12 510 24 510 108 L510 450 L510 510 L504 510 L461 451 C430 486 379 510 315 510 C144 510 56 407 56 254 C56 98 149 -5 288 -5 C358 -5 426 25 461 72 L460 72 L460 72 Z " />
<glyph glyph-name="Abreve" unicode="&#x102;" horiz-adv-x="776" d="M272 995 C276 931 332 889 414 889 C496 889 552 931 556 994 L545 995 C543 952 490 924 414 924 C337 924 285 953 283 996 L272 995 L272 995 Z M640 128 L639 128 L442 732 L430 770 L424 770 C409 748 394 733 386 732 L389 722 L389 722 L199 158 L199 158 C157 32 112 8 56 8 L14 8 C14 8 20 6 30 4 C40 2 46 0 46 0 L146 0 L149 0 L164 0 L281 0 C281 0 288 2 298 4 C307 6 314 8 314 8 L274 8 C200 8 159 32 202 158 L202 158 L248 296 L527 296 L581 128 L580 128 C613 27 582 8 526 8 L487 8 C487 8 493 6 503 4 C513 2 519 0 519 0 L622 0 L630 0 L680 0 L740 0 C740 0 747 2 756 4 C766 6 773 8 773 8 L730 8 C698 8 671 27 639 128 L640 128 L640 128 Z M248 299 L389 719 L525 299 L248 299 L248 299 Z " />
<glyph glyph-name="abreve" unicode="&#x103;" horiz-adv-x="590" d="M172 745 C175 681 232 639 314 639 C395 639 452 681 455 744 L445 745 C443 702 390 674 314 674 C237 674 185 703 183 746 L172 745 L172 745 Z M460 89 C427 45 367 16 308 16 C187 16 106 117 106 267 C106 404 179 495 320 495 C394 495 447 450 460 392 L460 98 L460 89 L460 89 Z M460 72 L460 -10 L469 -10 L553 11 C553 11 561 15 574 20 C587 26 595 29 595 29 L553 19 C527 12 510 24 510 108 L510 450 L510 510 L504 510 L461 451 C430 486 379 510 315 510 C144 510 56 407 56 254 C56 98 149 -5 288 -5 C358 -5 426 25 461 72 L460 72 L460 72 Z " />
<glyph glyph-name="Cacute" unicode="&#x106;" horiz-adv-x="742" d="M409 813 L548 936 C591 974 619 1001 619 1005 C619 1018 607 1029 594 1029 C590 1029 564 1001 525 959 L403 820 L409 813 L409 813 Z M606 711 L605 711 C556 742 494 760 402 760 C197 760 61 606 61 375 C61 144 193 -10 390 -10 C483 -10 552 10 607 44 C648 66 681 55 687 33 C691 15 694 3 694 3 L694 33 L694 62 L694 119 L694 121 L694 121 L693 122 L693 175 C693 175 693 183 692 196 C691 209 691 217 691 217 C691 217 689 209 686 196 C674 147 622 66 565 34 L566 34 C517 7 460 -9 390 -9 C229 -9 121 144 121 374 C121 604 233 757 401 757 C462 757 509 746 549 727 C614 695 673 607 687 551 C690 538 692 530 692 530 C692 530 693 538 693 551 C694 564 695 572 695 572 L695 626 L695 628 L695 683 C695 683 694 695 693 712 C693 729 692 741 692 741 C692 741 690 729 687 712 C683 690 649 681 605 709 L606 711 L606 711 Z " />
<glyph glyph-name="Ccircumflex" unicode="&#x108;" horiz-adv-x="742" d="M606 711 L605 711 C556 742 494 760 402 760 C197 760 61 606 61 375 C61 144 193 -10 390 -10 C483 -10 552 10 607 44 C648 66 681 55 687 33 C691 15 694 3 694 3 L694 33 L694 62 L694 119 L694 121 L694 121 L693 122 L693 175 C693 175 693 183 692 196 C691 209 691 217 691 217 C691 217 689 209 686 196 C674 147 622 66 565 34 L566 34 C517 7 460 -9 390 -9 C229 -9 121 144 121 374 C121 604 233 757 401 757 C462 757 509 746 549 727 C614 695 673 607 687 551 C690 538 692 530 692 530 C692 530 693 538 693 551 C694 564 695 572 695 572 L695 626 L695 628 L695 683 C695 683 694 695 693 712 C693 729 692 741 692 741 C692 741 690 729 687 712 C683 690 649 681 605 709 L606 711 L606 711 Z M402 975 L545 806 L552 811 L420 1013 C417 1018 408 1031 403 1031 C398 1031 389 1019 385 1013 L254 811 L260 806 L402 975 L402 975 Z " />
<glyph glyph-name="Cdot" unicode="&#x10a;" horiz-adv-x="742" d="M403 865 C422 865 435 878 435 897 C435 917 422 930 403 930 C383 930 370 917 370 897 C370 878 383 865 403 865 L403 865 Z M606 711 L605 711 C556 742 494 760 402 760 C197 760 61 606 61 375 C61 144 193 -10 390 -10 C483 -10 552 10 607 44 C648 66 681 55 687 33 C691 15 694 3 694 3 L694 33 L694 62 L694 119 L694 121 L694 121 L693 122 L693 175 C693 175 693 183 692 196 C691 209 691 217 691 217 C691 217 689 209 686 196 C674 147 622 66 565 34 L566 34 C517 7 460 -9 390 -9 C229 -9 121 144 121 374 C121 604 233 757 401 757 C462 757 509 746 549 727 C614 695 673 607 687 551 C690 538 692 530 692 530 C692 530 693 538 693 551 C694 564 695 572 695 572 L695 626 L695 628 L695 683 C695 683 694 695 693 712 C693 729 692 741 692 741 C692 741 690 729 687 712 C683 690 649 681 605 709 L606 711 L606 711 Z " />
<glyph glyph-name="cdot" unicode="&#x10b;" horiz-adv-x="510" d="M288 615 C307 615 320 628 320 647 C320 667 307 680 288 680 C268 680 255 667 255 647 C255 628 268 615 288 615 L288 615 Z M481 128 L474 131 C445 65 370 21 287 21 C176 21 102 118 102 264 C102 405 175 499 285 499 C354 499 414 461 434 405 C439 390 449 380 459 380 C479 380 489 390 484 405 C461 468 383 510 288 510 C146 510 51 401 51 239 C51 89 138 -10 269 -10 C359 -10 444 45 481 128 L481 128 Z " />
<glyph glyph-name="Ccaron" unicode="&#x10c;" horiz-adv-x="742" d="M606 711 L605 711 C556 742 494 760 402 760 C197 760 61 606 61 375 C61 144 193 -10 390 -10 C483 -10 552 10 607 44 C648 66 681 55 687 33 C691 15 694 3 694 3 L694 33 L694 62 L694 119 L694 121 L694 121 L693 122 L693 175 C693 175 693 183 692 196 C691 209 691 217 691 217 C691 217 689 209 686 196 C674 147 622 66 565 34 L566 34 C517 7 460 -9 390 -9 C229 -9 121 144 121 374 C121 604 233 757 401 757 C462 757 509 746 549 727 C614 695 673 607 687 551 C690 538 692 530 692 530 C692 530 693 538 693 551 C694 564 695 572 695 572 L695 626 L695 628 L695 683 C695 683 694 695 693 712 C693 729 692 741 692 741 C692 741 690 729 687 712 C683 690 649 681 605 709 L606 711 L606 711 Z M402 871 L545 1040 L552 1035 L420 833 C417 828 408 815 403 815 C398 815 389 827 385 833 L254 1035 L260 1040 L402 871 L402 871 Z " />
<glyph glyph-name="ccaron" unicode="&#x10d;" horiz-adv-x="510" d="M481 128 L474 131 C445 65 370 21 287 21 C176 21 102 118 102 264 C102 405 175 499 285 499 C354 499 414 461 434 405 C439 390 449 380 459 380 C479 380 489 390 484 405 C461 468 383 510 288 510 C146 510 51 401 51 239 C51 89 138 -10 269 -10 C359 -10 444 45 481 128 L481 128 Z M288 623 L431 792 L438 787 L307 585 C303 580 294 567 289 567 C284 567 275 579 271 585 L140 787 L146 792 L288 623 L288 623 Z " />
<glyph glyph-name="Dcaron" unicode="&#x10e;" horiz-adv-x="846" d="M443 873 L585 1042 L592 1037 L461 835 C457 830 448 817 443 817 C438 817 429 829 425 835 L294 1037 L301 1042 L443 873 L443 873 Z M156 677 L156 73 C156 18 131 8 93 8 L51 8 C51 8 62 6 77 4 C93 2 104 0 104 0 L156 0 L158 0 L212 0 L304 0 C596 0 791 127 791 375 C791 600 641 750 351 750 L212 750 L158 750 L156 750 L104 750 C104 750 93 748 77 746 C62 744 51 742 51 742 L93 742 C131 742 156 732 156 677 L156 677 Z M212 748 L344 748 C599 748 730 599 730 375 C730 129 559 2 302 2 C221 2 212 22 212 52 L212 73 L212 677 L212 748 L212 748 Z " />
<glyph glyph-name="dcaron" unicode="&#x10f;" horiz-adv-x="625" d="M633 644 C647 689 656 731 656 749 C656 754 647 756 633 756 C623 756 613 694 607 650 L593 539 L602 537 L633 644 L633 644 Z M495 89 C462 45 396 16 328 16 C195 16 106 117 106 267 C106 404 186 495 342 495 C401 495 465 447 495 391 L495 98 L495 89 L495 89 Z M495 72 L495 -10 L504 -10 L588 11 C588 11 596 15 609 20 C622 26 630 29 630 29 L588 19 C562 12 545 24 545 108 L545 668 L545 747 L536 747 L453 723 C453 723 444 719 431 713 C419 708 410 704 410 703 L452 716 C478 723 495 717 495 657 L495 444 C457 483 397 511 335 511 C150 511 54 408 54 255 C54 99 155 -4 306 -4 C385 -4 459 26 494 73 L495 72 L495 72 Z " />
<glyph glyph-name="Emacron" unicode="&#x112;" horiz-adv-x="650" d="M181 901 L528 901 L528 936 L181 936 L181 901 L181 901 Z M471 0 L578 0 C579 10 581 22 583 32 C584 42 586 55 587 64 C587 64 587 77 588 96 C588 114 589 127 588 127 L582 84 C576 35 555 2 471 2 L264 2 C217 2 212 22 212 52 L212 73 L212 385 L386 385 C470 385 486 346 486 287 L486 245 C486 245 487 259 489 280 C492 301 493 315 493 315 L493 385 L493 386 L493 387 L493 457 C493 457 492 471 489 492 C487 513 486 527 486 527 L486 485 C486 426 470 387 386 387 L212 387 L212 677 L212 748 L446 748 C547 748 549 710 552 654 L554 623 C555 623 555 636 556 654 C557 673 558 686 558 686 C557 695 556 708 556 718 C555 728 554 740 553 750 L446 750 L212 750 L158 750 L156 750 L104 750 C104 750 93 748 77 746 C62 744 51 742 51 742 L93 742 C131 742 156 732 156 677 L156 73 C156 18 131 8 93 8 L51 8 C51 8 62 6 77 4 C93 2 104 0 104 0 L156 0 L158 0 L212 0 L471 0 L471 0 Z " />
<glyph glyph-name="emacron" unicode="&#x113;" horiz-adv-x="577" d="M150 651 L497 651 L497 686 L150 686 L150 651 L150 651 Z M114 340 L492 340 L534 340 L548 340 C526 462 440 510 324 510 C160 510 50 400 50 235 C50 88 149 -10 299 -10 C410 -10 505 47 536 133 L530 136 C505 68 418 23 311 23 C186 23 103 116 103 255 C103 286 107 314 114 340 L114 340 Z M532 355 C533 355 534 355 535 355 L532 355 L532 355 Z M490 355 L119 352 C149 443 223 499 322 499 C404 499 467 458 490 355 L490 355 Z " />
<glyph glyph-name="Ebreve" unicode="&#x114;" horiz-adv-x="650" d="M213 995 C216 931 273 889 355 889 C436 889 493 931 496 994 L486 995 C484 952 431 924 355 924 C278 924 226 953 224 996 L213 995 L213 995 Z M471 0 L578 0 C579 10 581 22 583 32 C584 42 586 55 587 64 C587 64 587 77 588 96 C588 114 589 127 588 127 L582 84 C576 35 555 2 471 2 L264 2 C217 2 212 22 212 52 L212 73 L212 385 L386 385 C470 385 486 346 486 287 L486 245 C486 245 487 259 489 280 C492 301 493 315 493 315 L493 385 L493 386 L493 387 L493 457 C493 457 492 471 489 492 C487 513 486 527 486 527 L486 485 C486 426 470 387 386 387 L212 387 L212 677 L212 748 L446 748 C547 748 549 710 552 654 L554 623 C555 623 555 636 556 654 C557 673 558 686 558 686 C557 695 556 708 556 718 C555 728 554 740 553 750 L446 750 L212 750 L158 750 L156 750 L104 750 C104 750 93 748 77 746 C62 744 51 742 51 742 L93 742 C131 742 156 732 156 677 L156 73 C156 18 131 8 93 8 L51 8 C51 8 62 6 77 4 C93 2 104 0 104 0 L156 0 L158 0 L212 0 L471 0 L471 0 Z " />
<glyph glyph-name="ebreve" unicode="&#x115;" horiz-adv-x="577" d="M182 745 C186 681 242 639 324 639 C406 639 462 681 465 744 L455 745 C453 702 400 674 324 674 C247 674 195 703 193 746 L182 745 L182 745 Z M114 340 L492 340 L534 340 L548 340 C526 462 440 510 324 510 C160 510 50 400 50 235 C50 88 149 -10 299 -10 C410 -10 505 47 536 133 L530 136 C505 68 418 23 311 23 C186 23 103 116 103 255 C103 286 107 314 114 340 L114 340 Z M532 355 C533 355 534 355 535 355 L532 355 L532 355 Z M490 355 L119 352 C149 443 223 499 322 499 C404 499 467 458 490 355 L490 355 Z " />
<glyph glyph-name="Edot" unicode="&#x116;" horiz-adv-x="650" d="M355 865 C374 865 387 878 387 897 C387 917 374 930 355 930 C335 930 322 917 322 897 C322 878 335 865 355 865 L355 865 Z M471 0 L578 0 C579 10 581 22 583 32 C584 42 586 55 587 64 C587 64 587 77 588 96 C588 114 589 127 588 127 L582 84 C576 35 555 2 471 2 L264 2 C217 2 212 22 212 52 L212 73 L212 385 L386 385 C470 385 486 346 486 287 L486 245 C486 245 487 259 489 280 C492 301 493 315 493 315 L493 385 L493 386 L493 387 L493 457 C493 457 492 471 489 492 C487 513 486 527 486 527 L486 485 C486 426 470 387 386 387 L212 387 L212 677 L212 748 L446 748 C547 748 549 710 552 654 L554 623 C555 623 555 636 556 654 C557 673 558 686 558 686 C557 695 556 708 556 718 C555 728 554 740 553 750 L446 750 L212 750 L158 750 L156 750 L104 750 C104 750 93 748 77 746 C62 744 51 742 51 742 L93 742 C131 742 156 732 156 677 L156 73 C156 18 131 8 93 8 L51 8 C51 8 62 6 77 4 C93 2 104 0 104 0 L156 0 L158 0 L212 0 L471 0 L471 0 Z " />
<glyph glyph-name="edot" unicode="&#x117;" horiz-adv-x="577" d="M324 615 C343 615 356 628 356 647 C356 667 343 680 324 680 C305 680 292 667 292 647 C292 628 305 615 324 615 L324 615 Z M114 340 L492 340 L534 340 L548 340 C526 462 440 510 324 510 C160 510 50 400 50 235 C50 88 149 -10 299 -10 C410 -10 505 47 536 133 L530 136 C505 68 418 23 311 23 C186 23 103 116 103 255 C103 286 107 314 114 340 L114 340 Z M532 355 C533 355 534 355 535 355 L532 355 L532 355 Z M490 355 L119 352 C149 443 223 499 322 499 C404 499 467 458 490 355 L490 355 Z " />
<glyph glyph-name="Ecaron" unicode="&#x11a;" horiz-adv-x="650" d="M355 873 L498 1042 L505 1037 L373 835 C370 830 361 817 356 817 C351 817 342 829 338 835 L207 1037 L213 1042 L355 873 L355 873 Z M472 0 L579 0 C580 10 582 22 584 32 C585 42 587 55 588 64 C588 64 588 77 589 96 C589 114 590 127 589 127 L583 84 C577 35 556 2 472 2 L265 2 C218 2 213 22 213 52 L213 73 L213 385 L387 385 C471 385 487 346 487 287 L487 245 C487 245 488 259 490 280 C493 301 494 315 494 315 L494 385 L494 386 L494 387 L494 457 C494 457 493 471 490 492 C488 513 487 527 487 527 L487 485 C487 426 471 387 387 387 L213 387 L213 677 L213 748 L447 748 C548 748 550 710 553 654 L555 623 C556 623 556 636 557 654 C558 673 559 686 559 686 C558 695 557 708 557 718 C556 728 555 740 554 750 L447 750 L213 750 L159 750 L157 750 L105 750 C105 750 94 748 78 746 C63 744 52 742 52 742 L94 742 C132 742 157 732 157 677 L157 73 C157 18 132 8 94 8 L52 8 C52 8 63 6 78 4 C94 2 105 0 105 0 L157 0 L159 0 L213 0 L472 0 L472 0 Z " />
<glyph glyph-name="ecaron" unicode="&#x11b;" horiz-adv-x="577" d="M324 623 L466 792 L473 787 L342 585 C338 580 329 567 324 567 C319 567 310 579 306 585 L175 787 L182 792 L324 623 L324 623 Z M114 340 L492 340 L534 340 L548 340 C526 462 440 510 324 510 C160 510 50 400 50 235 C50 88 149 -10 299 -10 C410 -10 505 47 536 133 L530 136 C505 68 418 23 311 23 C186 23 103 116 103 255 C103 286 107 314 114 340 L114 340 Z M532 355 C533 355 534 355 535 355 L532 355 L532 355 Z M490 355 L119 352 C149 443 223 499 322 499 C404 499 467 458 490 355 L490 355 Z " />
<glyph glyph-name="Gcircumflex" unicode="&#x11c;" horiz-adv-x="819" d="M606 711 L605 711 C556 742 494 760 402 760 C197 760 61 606 61 375 C61 144 194 -10 392 -10 C509 -10 598 6 674 32 L676 32 L676 32 C702 41 727 51 751 62 L751 63 C728 52 703 42 675 34 L675 255 C675 305 692 315 718 315 L760 315 C760 315 752 317 739 319 C726 321 718 323 718 323 L644 323 L570 323 C570 323 560 321 545 319 C530 317 520 315 520 315 L562 315 C597 315 620 305 620 255 L621 21 L621 21 L620 81 C620 48 577 23 506 11 L607 19 C551 9 483 3 397 3 L507 11 C476 6 439 3 398 3 C233 3 123 151 123 374 C123 604 235 757 403 757 C464 757 511 746 551 727 C616 695 675 607 689 551 C692 538 694 530 694 530 C694 530 695 538 695 551 C696 564 697 572 697 572 L697 626 L697 628 L697 683 C697 683 696 695 695 712 C695 729 694 741 694 741 C694 741 692 729 689 712 C685 690 651 681 607 709 L606 711 L606 711 Z M404 975 L547 806 L554 811 L422 1013 C419 1018 410 1031 405 1031 C400 1031 391 1019 387 1013 L256 811 L262 806 L404 975 L404 975 Z " />
<glyph glyph-name="Gbreve" unicode="&#x11e;" horiz-adv-x="819" d="M261 995 C264 931 321 889 403 889 C484 889 541 931 544 994 L534 995 C532 952 479 924 403 924 C326 924 274 953 271 996 L261 995 L261 995 Z M606 711 L605 711 C556 742 494 760 402 760 C197 760 61 606 61 375 C61 144 194 -10 392 -10 C509 -10 598 6 674 32 L676 32 L676 32 C702 41 727 51 751 62 L751 63 C728 52 703 42 675 34 L675 255 C675 305 692 315 718 315 L760 315 C760 315 752 317 739 319 C726 321 718 323 718 323 L644 323 L570 323 C570 323 560 321 545 319 C530 317 520 315 520 315 L562 315 C597 315 620 305 620 255 L621 21 L621 21 L620 81 C620 48 577 23 506 11 L607 19 C551 9 483 3 397 3 L507 11 C476 6 439 3 398 3 C233 3 123 151 123 374 C123 604 235 757 403 757 C464 757 511 746 551 727 C616 695 675 607 689 551 C692 538 694 530 694 530 C694 530 695 538 695 551 C696 564 697 572 697 572 L697 626 L697 628 L697 683 C697 683 696 695 695 712 C695 729 694 741 694 741 C694 741 692 729 689 712 C685 690 651 681 607 709 L606 711 L606 711 Z " />
<glyph glyph-name="gbreve" unicode="&#x11f;" horiz-adv-x="551" d="M133 745 C137 681 193 639 275 639 C357 639 413 681 417 744 L406 745 C404 702 351 674 275 674 C198 674 146 703 144 746 L133 745 L133 745 Z M134 350 C134 439 190 498 275 498 C360 498 416 439 416 350 C416 260 360 200 275 200 C190 200 134 260 134 350 L134 350 Z M176 18 C181 18 187 18 193 18 L314 18 C430 18 475 -25 475 -89 C475 -167 400 -218 287 -218 C171 -218 94 -163 94 -80 C94 -37 126 1 176 18 L176 18 Z M165 19 C98 -1 54 -44 54 -93 C54 -175 147 -230 286 -230 C424 -230 517 -169 517 -79 C517 9 462 67 320 67 L196 67 C132 67 90 89 90 122 C90 162 164 188 276 188 C391 188 467 253 467 350 C467 363 466 376 463 388 C480 440 512 474 544 474 C561 474 573 458 573 434 C573 423 582 416 596 416 C608 416 616 426 616 440 C616 473 596 495 565 495 C519 495 477 457 458 399 C436 467 368 510 274 510 C159 510 83 446 83 350 C83 272 132 215 211 196 C118 186 59 153 59 107 C59 60 100 26 164 18 L165 19 L165 19 Z " />
<glyph glyph-name="Gdot" unicode="&#x120;" horiz-adv-x="819" d="M403 865 C422 865 435 878 435 897 C435 917 422 930 403 930 C383 930 370 917 370 897 C370 878 383 865 403 865 L403 865 Z M606 711 L605 711 C556 742 494 760 402 760 C197 760 61 606 61 375 C61 144 194 -10 392 -10 C509 -10 598 6 674 32 L676 32 L676 32 C702 41 727 51 751 62 L751 63 C728 52 703 42 675 34 L675 255 C675 305 692 315 718 315 L760 315 C760 315 752 317 739 319 C726 321 718 323 718 323 L644 323 L570 323 C570 323 560 321 545 319 C530 317 520 315 520 315 L562 315 C597 315 620 305 620 255 L621 21 L621 21 L620 81 C620 48 577 23 506 11 L607 19 C551 9 483 3 397 3 L507 11 C476 6 439 3 398 3 C233 3 123 151 123 374 C123 604 235 757 403 757 C464 757 511 746 551 727 C616 695 675 607 689 551 C692 538 694 530 694 530 C694 530 695 538 695 551 C696 564 697 572 697 572 L697 626 L697 628 L697 683 C697 683 696 695 695 712 C695 729 694 741 694 741 C694 741 692 729 689 712 C685 690 651 681 607 709 L606 711 L606 711 Z " />
<glyph glyph-name="gdot" unicode="&#x121;" horiz-adv-x="551" d="M275 615 C294 615 307 628 307 647 C307 667 294 680 275 680 C256 680 243 667 243 647 C243 628 256 615 275 615 L275 615 Z M134 350 C134 439 190 498 275 498 C360 498 416 439 416 350 C416 260 360 200 275 200 C190 200 134 260 134 350 L134 350 Z M176 18 C181 18 187 18 193 18 L314 18 C430 18 475 -25 475 -89 C475 -167 400 -218 287 -218 C171 -218 94 -163 94 -80 C94 -37 126 1 176 18 L176 18 Z M165 19 C98 -1 54 -44 54 -93 C54 -175 147 -230 286 -230 C424 -230 517 -169 517 -79 C517 9 462 67 320 67 L196 67 C132 67 90 89 90 122 C90 162 164 188 276 188 C391 188 467 253 467 350 C467 363 466 376 463 388 C480 440 512 474 544 474 C561 474 573 458 573 434 C573 423 582 416 596 416 C608 416 616 426 616 440 C616 473 596 495 565 495 C519 495 477 457 458 399 C436 467 368 510 274 510 C159 510 83 446 83 350 C83 272 132 215 211 196 C118 186 59 153 59 107 C59 60 100 26 164 18 L165 19 L165 19 Z " />
<glyph glyph-name="Hcircumflex" unicode="&#x124;" horiz-adv-x="853" d="M451 977 L594 808 L600 813 L469 1015 C465 1020 456 1033 451 1033 C446 1033 437 1021 434 1015 L302 813 L309 808 L451 977 L451 977 Z M710 68 L710 682 C710 732 735 742 772 742 L815 742 C815 742 804 744 788 746 C773 748 762 750 762 750 L682 750 L601 750 C601 750 591 748 575 746 C559 744 549 742 549 742 L591 742 C629 742 654 732 654 682 L654 384 L249 384 L249 682 C249 732 274 742 312 742 L354 742 C354 742 343 744 328 746 C312 748 301 750 301 750 L221 750 L141 750 C141 750 130 748 114 746 C99 744 88 742 88 742 L130 742 C168 742 193 732 193 682 L193 68 C193 18 168 8 130 8 L88 8 C88 8 99 6 114 4 C130 2 141 0 141 0 L221 0 L301 0 C301 0 312 2 328 4 C343 6 354 8 354 8 L312 8 C274 8 249 18 249 68 L249 382 L654 382 L654 68 C654 18 629 8 591 8 L549 8 C549 8 559 6 575 4 C591 2 601 0 601 0 L682 0 L762 0 C762 0 773 2 788 4 C804 6 815 8 815 8 L772 8 C735 8 710 18 710 68 L710 68 Z " />
<glyph glyph-name="Itilde" unicode="&#x128;" horiz-adv-x="362" d="M24 870 C24 910 46 936 79 936 C147 936 218 871 287 871 C329 871 357 909 357 966 L356 966 C356 930 333 906 298 906 C230 906 159 971 90 971 C50 971 23 931 23 870 L24 870 L24 870 Z M218 68 L218 682 C218 732 243 742 281 742 L323 742 C323 742 312 744 297 746 C281 748 270 750 270 750 L190 750 L110 750 C110 750 99 748 83 746 C68 744 57 742 57 742 L99 742 C137 742 162 732 162 682 L162 68 C162 18 137 8 99 8 L57 8 C57 8 68 6 83 4 C99 2 110 0 110 0 L190 0 L270 0 C270 0 281 2 297 4 C312 6 323 8 323 8 L281 8 C243 8 218 18 218 68 L218 68 Z " />
<glyph glyph-name="itilde" unicode="&#x129;" horiz-adv-x="283" d="M-17 620 C-17 660 5 686 38 686 C106 686 177 621 245 621 C287 621 315 659 315 716 L314 716 C314 680 291 656 257 656 C188 656 117 721 49 721 C9 721 -18 681 -18 620 L-17 620 L-17 620 Z M174 23 L174 396 L174 500 L165 500 L42 445 L42 441 C111 444 124 439 124 396 L124 23 C124 10 109 8 86 8 L44 8 C44 8 52 6 64 4 C76 2 84 0 84 0 L149 0 L215 0 C215 0 223 2 236 4 C249 6 257 8 257 8 L214 8 C190 8 174 10 174 23 L174 23 Z " />
<glyph glyph-name="Imacron" unicode="&#x12a;" horiz-adv-x="362" d="M16 901 L364 901 L364 936 L16 936 L16 901 L16 901 Z M218 68 L218 682 C218 732 243 742 281 742 L323 742 C323 742 312 744 297 746 C281 748 270 750 270 750 L190 750 L110 750 C110 750 99 748 83 746 C68 744 57 742 57 742 L99 742 C137 742 162 732 162 682 L162 68 C162 18 137 8 99 8 L57 8 C57 8 68 6 83 4 C99 2 110 0 110 0 L190 0 L270 0 C270 0 281 2 297 4 C312 6 323 8 323 8 L281 8 C243 8 218 18 218 68 L218 68 Z " />
<glyph glyph-name="imacron" unicode="&#x12b;" horiz-adv-x="283" d="M-25 651 L322 651 L322 686 L-25 686 L-25 651 L-25 651 Z M174 23 L174 396 L174 500 L165 500 L42 445 L42 441 C111 444 124 439 124 396 L124 23 C124 10 109 8 86 8 L44 8 C44 8 52 6 64 4 C76 2 84 0 84 0 L149 0 L215 0 C215 0 223 2 236 4 C249 6 257 8 257 8 L214 8 C190 8 174 10 174 23 L174 23 Z " />
<glyph glyph-name="Ibreve" unicode="&#x12c;" horiz-adv-x="362" d="M48 995 C52 931 108 889 190 889 C272 889 328 931 332 994 L321 995 C319 952 266 924 190 924 C114 924 61 953 59 996 L48 995 L48 995 Z M218 68 L218 682 C218 732 243 742 281 742 L323 742 C323 742 312 744 297 746 C281 748 270 750 270 750 L190 750 L110 750 C110 750 99 748 83 746 C68 744 57 742 57 742 L99 742 C137 742 162 732 162 682 L162 68 C162 18 137 8 99 8 L57 8 C57 8 68 6 83 4 C99 2 110 0 110 0 L190 0 L270 0 C270 0 281 2 297 4 C312 6 323 8 323 8 L281 8 C243 8 218 18 218 68 L218 68 Z " />
<glyph glyph-name="ibreve" unicode="&#x12d;" horiz-adv-x="283" d="M7 745 C10 681 67 639 149 639 C230 639 287 681 290 744 L280 745 C277 702 225 674 149 674 C72 674 20 703 17 746 L7 745 L7 745 Z M174 23 L174 396 L174 500 L165 500 L42 445 L42 441 C111 444 124 439 124 396 L124 23 C124 10 109 8 86 8 L44 8 C44 8 52 6 64 4 C76 2 84 0 84 0 L149 0 L215 0 C215 0 223 2 236 4 C249 6 257 8 257 8 L214 8 C190 8 174 10 174 23 L174 23 Z " />
<glyph glyph-name="Idot" unicode="&#x130;" horiz-adv-x="362" d="M190 865 C209 865 222 878 222 897 C222 917 209 930 190 930 C171 930 158 917 158 897 C158 878 171 865 190 865 L190 865 Z M218 68 L218 682 C218 732 243 742 281 742 L323 742 C323 742 312 744 297 746 C281 748 270 750 270 750 L190 750 L110 750 C110 750 99 748 83 746 C68 744 57 742 57 742 L99 742 C137 742 162 732 162 682 L162 68 C162 18 137 8 99 8 L57 8 C57 8 68 6 83 4 C99 2 110 0 110 0 L190 0 L270 0 C270 0 281 2 297 4 C312 6 323 8 323 8 L281 8 C243 8 218 18 218 68 L218 68 Z " />
<glyph glyph-name="dotlessi" unicode="&#x131;" horiz-adv-x="283" d="M174 23 L174 396 L174 500 L165 500 L42 445 L42 441 C111 444 124 439 124 396 L124 23 C124 10 109 8 86 8 L44 8 C44 8 52 6 64 4 C76 2 84 0 84 0 L149 0 L215 0 C215 0 223 2 236 4 C249 6 257 8 257 8 L214 8 C190 8 174 10 174 23 L174 23 Z " />
<glyph glyph-name="Jcircumflex" unicode="&#x134;" horiz-adv-x="362" d="M190 977 L332 808 L339 813 L208 1015 C204 1020 195 1033 190 1033 C185 1033 176 1021 172 1015 L41 813 L48 808 L190 977 L190 977 Z M162 682 L162 -31 C162 -187 87 -217 32 -217 C4 -217 16 -170 -12 -170 C-28 -170 -39 -181 -39 -196 C-39 -211 -11 -220 30 -220 C109 -220 218 -173 218 75 L218 682 C218 732 243 742 281 742 L323 742 C323 742 312 744 297 746 C281 748 270 750 270 750 L190 750 L110 750 C110 750 99 748 83 746 C68 744 57 742 57 742 L99 742 C137 742 162 732 162 682 L162 682 Z " />
<glyph glyph-name="Lacute" unicode="&#x139;" horiz-adv-x="667" d="M197 813 L336 936 C378 974 406 1001 406 1005 C406 1018 394 1029 381 1029 C377 1029 351 1001 313 959 L190 820 L197 813 L197 813 Z M592 9 C595 21 599 35 602 45 C605 59 610 77 614 90 C614 90 617 107 621 132 C623 148 625 161 626 168 L616 132 C596 59 557 10 418 10 L269 10 C222 10 217 27 217 52 L217 73 L217 677 C217 732 242 742 280 742 L322 742 C322 742 311 744 296 746 C280 748 269 750 269 750 L217 750 L189 750 L161 750 L109 750 C109 750 98 748 82 746 C67 744 56 742 56 742 L98 742 C136 742 161 732 161 677 L161 73 C161 18 136 8 98 8 L56 8 C56 8 67 6 82 4 C98 2 109 0 109 0 L161 0 L163 0 L217 0 L416 0 L589 0 L592 9 L592 9 Z M626 168 C627 173 628 176 628 176 L626 168 L626 168 Z " />
<glyph glyph-name="Lcaron" unicode="&#x13d;" horiz-adv-x="667" d="M406 697 C420 742 429 784 429 801 C429 807 420 809 406 809 C396 809 385 747 380 702 L366 591 L374 590 L406 697 L406 697 Z M592 9 C595 21 599 35 602 45 C605 59 610 77 614 90 C614 90 617 107 621 132 C623 148 625 161 626 168 L616 132 C596 59 557 10 418 10 L269 10 C222 10 217 27 217 52 L217 73 L217 677 C217 732 242 742 280 742 L322 742 C322 742 311 744 296 746 C280 748 269 750 269 750 L217 750 L189 750 L161 750 L109 750 C109 750 98 748 82 746 C67 744 56 742 56 742 L98 742 C136 742 161 732 161 677 L161 73 C161 18 136 8 98 8 L56 8 C56 8 67 6 82 4 C98 2 109 0 109 0 L161 0 L163 0 L217 0 L416 0 L589 0 L592 9 L592 9 Z M626 168 C627 173 628 176 628 176 L626 168 L626 168 Z " />
<glyph glyph-name="lcaron" unicode="&#x13e;" horiz-adv-x="283" d="M261 644 C275 689 284 731 284 749 C284 754 275 756 262 756 C251 756 241 694 236 650 L221 539 L230 537 L261 644 L261 644 Z M174 23 L174 684 L174 747 L165 747 L81 723 C81 723 73 719 60 713 C47 708 39 704 39 703 L81 716 C107 723 124 719 124 672 L124 23 C124 10 109 8 86 8 L44 8 C44 8 52 6 64 4 C76 2 84 0 84 0 L149 0 L214 0 C214 0 222 2 234 4 C246 6 254 8 254 8 L211 8 C189 8 174 10 174 23 L174 23 Z " />
<glyph glyph-name="Nacute" unicode="&#x143;" horiz-adv-x="804" d="M307 813 L446 936 C488 974 516 1001 516 1005 C516 1018 504 1029 491 1029 C487 1029 461 1001 423 959 L300 820 L307 813 L307 813 Z M169 750 L155 750 L142 750 L120 750 L99 750 L72 750 C72 750 66 748 56 746 C46 744 40 742 40 742 L97 742 C102 742 109 736 130 707 L130 707 L142 691 L141 138 L141 138 C141 29 108 8 58 8 L16 8 C16 8 22 6 32 4 C42 2 48 0 48 0 L141 0 L149 0 L158 0 L250 0 C250 0 257 2 266 4 C276 6 283 8 283 8 L240 8 C194 8 162 24 157 106 L155 672 L586 79 L644 0 L655 0 L658 642 L659 642 C659 726 692 742 741 742 L784 742 C784 742 771 744 752 746 C734 748 721 750 721 750 L659 750 L651 750 L643 750 L580 750 C580 750 568 748 549 746 C530 744 518 742 518 742 L560 742 C610 742 643 726 643 642 L643 642 L644 95 L632 112 L169 750 L169 750 Z " />
<glyph glyph-name="Ncaron" unicode="&#x147;" horiz-adv-x="804" d="M400 873 L542 1042 L549 1037 L418 835 C414 830 405 817 400 817 C395 817 386 829 383 835 L251 1037 L258 1042 L400 873 L400 873 Z M169 750 L155 750 L142 750 L120 750 L99 750 L72 750 C72 750 66 748 56 746 C46 744 40 742 40 742 L97 742 C102 742 109 736 130 707 L130 707 L142 691 L141 138 L141 138 C141 29 108 8 58 8 L16 8 C16 8 22 6 32 4 C42 2 48 0 48 0 L141 0 L149 0 L158 0 L250 0 C250 0 257 2 266 4 C276 6 283 8 283 8 L240 8 C194 8 162 24 157 106 L155 672 L586 79 L644 0 L655 0 L658 642 L659 642 C659 726 692 742 741 742 L784 742 C784 742 771 744 752 746 C734 748 721 750 721 750 L659 750 L651 750 L643 750 L580 750 C580 750 568 748 549 746 C530 744 518 742 518 742 L560 742 C610 742 643 726 643 642 L643 642 L644 95 L632 112 L169 750 L169 750 Z " />
<glyph glyph-name="ncaron" unicode="&#x148;" horiz-adv-x="608" d="M308 623 L450 792 L457 787 L326 585 C322 580 313 567 308 567 C303 567 294 579 290 585 L159 787 L166 792 L308 623 L308 623 Z M448 23 C448 10 433 8 411 8 L368 8 C368 8 376 6 388 4 C400 2 408 0 408 0 L473 0 L538 0 C538 0 546 2 558 4 C570 6 578 8 578 8 L536 8 C513 8 498 10 498 23 L498 357 C498 449 448 510 350 510 C308 510 236 455 168 372 L168 437 L168 500 L159 500 L75 470 C75 470 67 465 54 458 C41 451 33 446 33 446 L75 462 C101 471 118 468 118 422 L118 23 C118 10 103 8 80 8 L38 8 C38 8 46 6 58 4 C70 2 78 0 78 0 L143 0 L208 0 C208 0 216 2 228 4 C240 6 248 8 248 8 L205 8 C183 8 168 10 168 23 L168 365 C228 438 295 487 336 487 C410 487 448 435 448 357 L448 23 L448 23 Z " />
<glyph glyph-name="Omacron" unicode="&#x14c;" horiz-adv-x="845" d="M247 901 L594 901 L594 936 L247 936 L247 901 L247 901 Z M411 -8 C239 -8 125 145 125 375 C125 605 243 758 420 758 C604 758 726 605 726 375 C726 145 600 -8 411 -8 L411 -8 Z M61 375 C61 144 201 -10 411 -10 C638 -10 790 144 790 375 C790 606 642 760 421 760 C205 760 61 606 61 375 L61 375 Z " />
<glyph glyph-name="omacron" unicode="&#x14d;" horiz-adv-x="640" d="M149 651 L496 651 L496 686 L149 686 L149 651 L149 651 Z M323 -8 C192 -8 105 95 105 250 C105 405 192 508 323 508 C453 508 540 405 540 250 C540 95 453 -8 323 -8 L323 -8 Z M50 250 C50 94 159 -10 323 -10 C486 -10 595 94 595 250 C595 406 486 510 323 510 C159 510 50 406 50 250 L50 250 Z " />
<glyph glyph-name="Obreve" unicode="&#x14e;" horiz-adv-x="845" d="M279 995 C282 931 339 889 421 889 C502 889 559 931 562 994 L552 995 C549 952 497 924 421 924 C344 924 292 953 289 996 L279 995 L279 995 Z M411 -8 C239 -8 125 145 125 375 C125 605 243 758 420 758 C604 758 726 605 726 375 C726 145 600 -8 411 -8 L411 -8 Z M61 375 C61 144 201 -10 411 -10 C638 -10 790 144 790 375 C790 606 642 760 421 760 C205 760 61 606 61 375 L61 375 Z " />
<glyph glyph-name="obreve" unicode="&#x14f;" horiz-adv-x="640" d="M181 745 C185 681 241 639 323 639 C405 639 461 681 464 744 L454 745 C452 702 399 674 323 674 C246 674 194 703 192 746 L181 745 L181 745 Z M323 -8 C192 -8 105 95 105 250 C105 405 192 508 323 508 C453 508 540 405 540 250 C540 95 453 -8 323 -8 L323 -8 Z M50 250 C50 94 159 -10 323 -10 C486 -10 595 94 595 250 C595 406 486 510 323 510 C159 510 50 406 50 250 L50 250 Z " />
<glyph glyph-name="Racute" unicode="&#x154;" horiz-adv-x="753" d="M356 813 L495 936 C537 974 565 1001 565 1005 C565 1018 553 1029 540 1029 C536 1029 510 1001 472 959 L349 820 L356 813 L356 813 Z M744 0 L744 4 C650 4 645 7 610 68 L438 369 C540 382 605 436 605 539 C605 665 517 749 385 749 L213 749 L159 749 L105 749 C105 749 94 747 78 745 C63 743 52 741 52 741 L94 741 C132 741 157 731 157 676 L157 72 C157 17 132 7 94 7 L52 7 C52 7 63 5 78 3 C94 1 105 -1 105 -1 L185 -1 L265 -1 C265 -1 276 1 292 3 C307 5 318 7 318 7 L276 7 C238 7 213 17 213 72 L213 365 L382 365 C396 335 458 221 546 67 C582 2 590 -1 745 -1 L744 0 L744 0 Z M213 738 L369 738 C473 738 543 663 543 550 C543 432 480 379 385 379 L213 379 L213 676 L213 738 L213 738 Z " />
<glyph glyph-name="Rcaron" unicode="&#x158;" horiz-adv-x="753" d="M744 0 L744 4 C650 4 645 7 610 68 L438 369 C540 382 605 436 605 539 C605 665 517 749 385 749 L213 749 L159 749 L105 749 C105 749 94 747 78 745 C63 743 52 741 52 741 L94 741 C132 741 157 731 157 676 L157 72 C157 17 132 7 94 7 L52 7 C52 7 63 5 78 3 C94 1 105 -1 105 -1 L185 -1 L265 -1 C265 -1 276 1 292 3 C307 5 318 7 318 7 L276 7 C238 7 213 17 213 72 L213 365 L382 365 C396 335 458 221 546 67 C582 2 590 -1 745 -1 L744 0 L744 0 Z M350 872 L492 1041 L499 1036 L368 834 C364 829 355 816 350 816 C345 816 336 828 332 834 L201 1036 L208 1041 L350 872 L350 872 Z M213 738 L369 738 C473 738 543 663 543 550 C543 432 480 379 385 379 L213 379 L213 676 L213 738 L213 738 Z " />
<glyph glyph-name="rcaron" unicode="&#x159;" horiz-adv-x="430" d="M268 623 L411 792 L418 787 L286 585 C283 580 273 567 268 567 C263 567 254 579 251 585 L119 787 L126 792 L268 623 L268 623 Z M175 382 L175 437 L175 500 L166 500 L82 470 C82 470 74 465 61 458 C48 451 40 446 40 446 L82 462 C108 471 125 468 125 422 L125 23 C125 10 112 8 92 8 L50 8 C50 8 57 6 68 4 C80 2 87 0 87 0 L152 0 L217 0 C217 0 226 2 238 4 C251 6 260 8 260 8 L217 8 C192 8 175 10 175 23 L175 378 C211 444 268 488 319 488 C345 488 362 474 362 453 C362 435 374 423 392 423 C409 423 421 435 421 453 C421 488 389 511 342 511 C283 511 217 460 175 383 L175 382 L175 382 Z " />
<glyph glyph-name="Sacute" unicode="&#x15a;" horiz-adv-x="576" d="M296 813 L435 936 C477 974 505 1001 505 1005 C505 1018 494 1029 480 1029 C476 1029 450 1001 412 959 L290 820 L296 813 L296 813 Z M437 708 L436 708 C391 740 328 759 260 759 C148 759 74 686 74 576 C74 502 152 416 304 345 C429 287 493 220 493 164 C493 61 424 -8 321 -8 C264 -8 209 11 163 44 C117 82 74 165 62 218 C59 231 57 240 57 240 C57 240 56 231 55 218 C55 206 54 197 54 197 L54 147 L54 136 L54 75 C54 75 55 60 55 38 C56 17 57 2 57 2 C57 2 59 17 62 38 C65 65 93 79 129 54 C181 13 249 -11 321 -11 C451 -11 537 66 537 180 C537 258 469 342 338 403 C193 471 118 543 118 597 C118 693 175 757 260 757 C304 757 346 747 382 729 L358 738 C419 708 473 627 487 569 C490 556 492 547 492 547 C492 547 492 556 493 569 C494 581 495 590 495 590 L495 640 L495 644 L495 697 C495 697 494 709 493 726 C492 743 492 755 492 755 C492 755 490 743 487 726 C483 704 462 689 438 706 L437 708 L437 708 Z M358 737 L338 745 C345 743 352 740 359 737 L358 737 L358 737 Z " />
<glyph glyph-name="Scircumflex" unicode="&#x15c;" horiz-adv-x="576" d="M437 708 L436 708 C391 740 328 759 260 759 C148 759 74 686 74 576 C74 502 152 416 304 345 C429 287 493 220 493 164 C493 61 424 -8 321 -8 C264 -8 209 11 163 44 C117 82 74 165 62 218 C59 231 57 240 57 240 C57 240 56 231 55 218 C55 206 54 197 54 197 L54 147 L54 136 L54 75 C54 75 55 60 55 38 C56 17 57 2 57 2 C57 2 59 17 62 38 C65 65 93 79 129 54 C181 13 249 -11 321 -11 C451 -11 537 66 537 180 C537 258 469 342 338 403 C193 471 118 543 118 597 C118 693 175 757 260 757 C304 757 346 747 382 729 L358 738 C419 708 473 627 487 569 C490 556 492 547 492 547 C492 547 492 556 493 569 C494 581 495 590 495 590 L495 640 L495 644 L495 697 C495 697 494 709 493 726 C492 743 492 755 492 755 C492 755 490 743 487 726 C483 704 462 689 438 706 L437 708 L437 708 Z M291 975 L434 806 L440 811 L309 1013 C305 1018 296 1031 291 1031 C286 1031 277 1019 274 1013 L142 811 L149 806 L291 975 L291 975 Z M359 737 L339 745 C346 743 353 740 360 737 L359 737 L359 737 Z " />
<glyph glyph-name="Scaron" unicode="&#x160;" horiz-adv-x="576" d="M437 708 L436 708 C391 740 328 759 260 759 C148 759 74 686 74 576 C74 502 152 416 304 345 C429 287 493 220 493 164 C493 61 424 -8 321 -8 C264 -8 209 11 163 44 C117 82 74 165 62 218 C59 231 57 240 57 240 C57 240 56 231 55 218 C55 206 54 197 54 197 L54 147 L54 136 L54 75 C54 75 55 60 55 38 C56 17 57 2 57 2 C57 2 59 17 62 38 C65 65 93 79 129 54 C181 13 249 -11 321 -11 C451 -11 537 66 537 180 C537 258 469 342 338 403 C193 471 118 543 118 597 C118 693 175 757 260 757 C304 757 346 747 382 729 L358 738 C419 708 473 627 487 569 C490 556 492 547 492 547 C492 547 492 556 493 569 C494 581 495 590 495 590 L495 640 L495 644 L495 697 C495 697 494 709 493 726 C492 743 492 755 492 755 C492 755 490 743 487 726 C483 704 462 689 438 706 L437 708 L437 708 Z M291 871 L434 1040 L440 1035 L309 833 C305 828 296 815 291 815 C286 815 277 827 274 833 L142 1035 L149 1040 L291 871 L291 871 Z M359 737 L339 745 C346 743 353 740 360 737 L359 737 L359 737 Z " />
<glyph glyph-name="scaron" unicode="&#x161;" horiz-adv-x="466" d="M258 623 L400 792 L407 787 L276 585 C272 580 263 567 258 567 C253 567 244 579 240 585 L109 787 L116 792 L258 623 L258 623 Z M287 494 L219 508 L219 508 C246 508 272 502 295 492 L287 494 L287 494 Z M285 494 C343 469 379 415 379 370 L379 353 C379 353 381 360 383 370 C385 379 387 386 387 386 L387 425 L387 434 L387 482 C387 482 385 488 383 496 C381 504 379 510 379 510 L379 481 C379 471 359 470 328 485 C297 502 258 512 216 512 C131 512 74 463 74 391 C74 333 132 274 245 233 C331 201 376 155 376 109 C376 40 328 -6 256 -6 C238 -6 220 -3 203 2 L204 2 C203 2 202 2 201 2 C198 3 195 4 192 5 C124 31 80 102 80 150 L80 166 C80 166 79 159 77 150 C74 140 73 133 73 133 L73 95 L73 93 L73 52 C73 52 74 44 77 31 C79 18 80 10 80 10 L80 31 C80 39 109 34 154 15 C184 0 219 -9 256 -9 C351 -9 415 44 415 122 C415 179 365 234 267 270 C163 308 110 359 110 407 C110 468 153 509 216 509 L216 509 L216 509 L216 509 C241 509 264 504 284 495 L285 494 L285 494 Z " />
<glyph glyph-name="Tcaron" unicode="&#x164;" horiz-adv-x="806" d="M403 873 L545 1042 L552 1037 L421 835 C417 830 408 817 403 817 C398 817 389 829 386 835 L254 1037 L261 1042 L403 873 L403 873 Z M82 789 C81 787 78 784 75 780 C70 774 67 770 67 770 C65 764 62 757 59 750 L54 750 L54 736 C53 733 52 730 51 727 C46 714 40 697 35 685 C35 685 33 674 29 658 C27 647 25 639 24 635 L39 673 C53 711 78 736 162 736 L374 736 L374 68 C374 18 349 8 312 8 L269 8 C269 8 280 6 295 4 C311 2 322 0 322 0 L402 0 L483 0 C483 0 493 2 509 4 C525 6 535 8 535 8 L493 8 C455 8 430 18 430 68 L430 736 L643 736 C727 736 752 711 765 673 L781 631 C781 631 779 642 775 658 C771 674 769 685 769 685 C764 697 758 714 754 727 C753 730 752 734 751 738 L751 750 L746 750 C743 757 740 764 738 770 C738 770 735 774 731 780 C726 786 723 790 723 790 L729 773 C734 759 722 750 638 750 L430 750 L374 750 L167 750 C83 750 70 759 75 773 L82 789 L82 789 Z M81 789 L81 790 C81 790 81 790 80 789 L81 789 L81 789 Z M24 635 C23 633 23 632 23 632 L24 635 L24 635 Z " />
<glyph glyph-name="tcaron" unicode="&#x165;" horiz-adv-x="358" d="M318 500 L149 500 L149 620 L145 620 L34 500 L34 490 L99 490 L99 129 C99 29 149 -10 224 -10 C270 -10 320 21 349 68 L343 71 C322 37 280 14 239 14 C184 14 147 43 148 118 L149 474 L318 474 L318 500 L318 500 Z M407 644 C421 689 430 731 430 749 C430 754 421 756 407 756 C396 756 386 694 381 650 L367 539 L375 537 L407 644 L407 644 Z " />
<glyph glyph-name="Utilde" unicode="&#x168;" horiz-adv-x="733" d="M204 870 C204 910 226 936 259 936 C327 936 398 871 466 871 C508 871 536 909 536 966 L535 966 C535 930 512 906 478 906 C409 906 338 971 270 971 C230 971 203 931 203 870 L204 870 L204 870 Z M618 98 L618 677 L618 750 L564 750 L510 750 C510 750 499 748 483 746 C468 744 457 742 457 742 L499 742 C537 742 562 732 562 677 L562 181 C519 88 418 26 311 26 C231 26 177 106 177 226 L177 677 L177 750 L123 750 L69 750 C69 750 58 748 42 746 C27 744 16 742 16 742 L58 742 C96 742 121 732 121 677 L121 226 C121 85 188 -10 288 -10 C406 -10 516 56 562 156 L562 98 L562 0 L571 0 L722 49 L722 53 C635 48 618 54 618 98 L618 98 Z " />
<glyph glyph-name="utilde" unicode="&#x169;" horiz-adv-x="600" d="M133 620 C133 660 155 686 188 686 C256 686 327 621 395 621 C438 621 466 659 466 716 L464 716 C464 680 441 656 407 656 C339 656 267 721 199 721 C159 721 132 681 132 620 L133 620 L133 620 Z M446 78 L446 -10 L455 -10 L538 11 C538 11 547 14 560 20 C572 26 581 29 581 29 L538 19 C513 12 496 21 496 88 L496 477 L496 500 L454 500 L413 500 C413 500 406 498 396 496 C386 494 380 492 380 492 L422 492 C436 492 446 490 446 477 L446 128 C416 66 348 25 273 25 C200 25 152 81 152 165 L152 477 L152 500 L110 500 L68 500 C68 500 62 498 52 496 C42 494 35 492 35 492 L78 492 C92 492 102 490 102 477 L102 165 C102 60 161 -10 249 -10 C333 -10 410 43 446 124 L446 78 L446 78 Z " />
<glyph glyph-name="Umacron" unicode="&#x16a;" horiz-adv-x="733" d="M196 901 L543 901 L543 936 L196 936 L196 901 L196 901 Z M618 98 L618 677 L618 750 L564 750 L510 750 C510 750 499 748 483 746 C468 744 457 742 457 742 L499 742 C537 742 562 732 562 677 L562 181 C519 88 418 26 311 26 C231 26 177 106 177 226 L177 677 L177 750 L123 750 L69 750 C69 750 58 748 42 746 C27 744 16 742 16 742 L58 742 C96 742 121 732 121 677 L121 226 C121 85 188 -10 288 -10 C406 -10 516 56 562 156 L562 98 L562 0 L571 0 L722 49 L722 53 C635 48 618 54 618 98 L618 98 Z " />
<glyph glyph-name="umacron" unicode="&#x16b;" horiz-adv-x="600" d="M125 651 L472 651 L472 686 L125 686 L125 651 L125 651 Z M446 78 L446 -10 L455 -10 L538 11 C538 11 547 14 560 20 C572 26 581 29 581 29 L538 19 C513 12 496 21 496 88 L496 477 L496 500 L454 500 L413 500 C413 500 406 498 396 496 C386 494 380 492 380 492 L422 492 C436 492 446 490 446 477 L446 128 C416 66 348 25 273 25 C200 25 152 81 152 165 L152 477 L152 500 L110 500 L68 500 C68 500 62 498 52 496 C42 494 35 492 35 492 L78 492 C92 492 102 490 102 477 L102 165 C102 60 161 -10 249 -10 C333 -10 410 43 446 124 L446 78 L446 78 Z " />
<glyph glyph-name="Ubreve" unicode="&#x16c;" horiz-adv-x="733" d="M228 995 C231 931 288 889 370 889 C451 889 508 931 511 994 L501 995 C498 952 446 924 370 924 C293 924 241 953 238 996 L228 995 L228 995 Z M618 98 L618 677 L618 750 L564 750 L510 750 C510 750 499 748 483 746 C468 744 457 742 457 742 L499 742 C537 742 562 732 562 677 L562 181 C519 88 418 26 311 26 C231 26 177 106 177 226 L177 677 L177 750 L123 750 L69 750 C69 750 58 748 42 746 C27 744 16 742 16 742 L58 742 C96 742 121 732 121 677 L121 226 C121 85 188 -10 288 -10 C406 -10 516 56 562 156 L562 98 L562 0 L571 0 L722 49 L722 53 C635 48 618 54 618 98 L618 98 Z " />
<glyph glyph-name="ubreve" unicode="&#x16d;" horiz-adv-x="600" d="M157 745 C160 681 217 639 299 639 C380 639 437 681 440 744 L430 745 C428 702 375 674 299 674 C222 674 170 703 168 746 L157 745 L157 745 Z M446 78 L446 -10 L455 -10 L538 11 C538 11 547 14 560 20 C572 26 581 29 581 29 L538 19 C513 12 496 21 496 88 L496 477 L496 500 L454 500 L413 500 C413 500 406 498 396 496 C386 494 380 492 380 492 L422 492 C436 492 446 490 446 477 L446 128 C416 66 348 25 273 25 C200 25 152 81 152 165 L152 477 L152 500 L110 500 L68 500 C68 500 62 498 52 496 C42 494 35 492 35 492 L78 492 C92 492 102 490 102 477 L102 165 C102 60 161 -10 249 -10 C333 -10 410 43 446 124 L446 78 L446 78 Z " />
<glyph glyph-name="Uring" unicode="&#x16e;" horiz-adv-x="733" d="M370 822 C325 822 288 860 288 905 C288 955 321 988 370 988 C418 988 451 955 451 905 C451 860 414 822 370 822 L370 822 Z M273 905 C273 854 317 810 370 810 C422 810 466 854 466 905 C466 962 427 1000 370 1000 C312 1000 273 962 273 905 L273 905 Z M618 98 L618 677 L618 750 L564 750 L510 750 C510 750 499 748 483 746 C468 744 457 742 457 742 L499 742 C537 742 562 732 562 677 L562 181 C519 88 418 26 311 26 C231 26 177 106 177 226 L177 677 L177 750 L123 750 L69 750 C69 750 58 748 42 746 C27 744 16 742 16 742 L58 742 C96 742 121 732 121 677 L121 226 C121 85 188 -10 288 -10 C406 -10 516 56 562 156 L562 98 L562 0 L571 0 L722 49 L722 53 C635 48 618 54 618 98 L618 98 Z " />
<glyph glyph-name="uring" unicode="&#x16f;" horiz-adv-x="600" d="M299 572 C255 572 217 610 217 655 C217 705 250 738 299 738 C347 738 380 705 380 655 C380 610 343 572 299 572 L299 572 Z M202 655 C202 604 246 560 299 560 C351 560 395 604 395 655 C395 712 356 750 299 750 C241 750 202 712 202 655 L202 655 Z M446 78 L446 -10 L455 -10 L538 11 C538 11 547 14 560 20 C572 26 581 29 581 29 L538 19 C513 12 496 21 496 88 L496 477 L496 500 L454 500 L413 500 C413 500 406 498 396 496 C386 494 380 492 380 492 L422 492 C436 492 446 490 446 477 L446 128 C416 66 348 25 273 25 C200 25 152 81 152 165 L152 477 L152 500 L110 500 L68 500 C68 500 62 498 52 496 C42 494 35 492 35 492 L78 492 C92 492 102 490 102 477 L102 165 C102 60 161 -10 249 -10 C333 -10 410 43 446 124 L446 78 L446 78 Z " />
<glyph glyph-name="Wcircumflex" unicode="&#x174;" horiz-adv-x="1123" d="M552 977 L695 808 L701 813 L570 1015 C566 1020 557 1033 552 1033 C547 1033 538 1021 535 1015 L403 813 L410 808 L552 977 L552 977 Z M520 702 L588 500 L588 500 L385 70 L385 71 L192 622 L192 622 C158 723 192 742 252 742 L292 742 C292 742 286 744 276 746 C266 748 260 750 260 750 L158 750 L147 750 L86 750 L56 750 C56 750 49 748 40 746 C30 744 23 742 23 742 L81 742 C85 742 94 725 125 637 L319 71 L347 -10 L362 -10 L596 477 L729 81 L759 -10 L774 -10 L978 622 L978 622 C1009 723 1037 742 1069 742 L1112 742 C1112 742 1105 744 1095 746 C1086 748 1079 750 1079 750 L1019 750 L996 750 L971 750 L864 750 C864 750 857 748 847 746 C838 744 831 742 831 742 L871 742 C945 742 988 723 956 622 L956 622 L788 82 L597 662 C578 730 614 743 674 743 L713 743 C713 743 707 745 697 747 C687 749 681 751 681 751 L568 751 L562 751 L504 751 L444 751 C444 751 437 749 428 747 C418 745 411 743 411 743 L454 743 C485 743 508 737 520 703 L520 702 L520 702 Z " />
<glyph glyph-name="Ycircumflex" unicode="&#x176;" horiz-adv-x="728" d="M370 977 L512 808 L519 813 L388 1015 C384 1020 375 1033 370 1033 C365 1033 356 1021 352 1015 L221 813 L228 808 L370 977 L370 977 Z M211 642 C162 725 177 741 212 741 L249 741 C249 741 243 743 233 745 C223 747 217 749 217 749 L144 749 L134 749 L79 749 L51 749 C51 749 44 747 35 745 C25 743 18 741 18 741 L76 741 C80 741 95 722 158 621 L159 621 L342 328 L342 67 C342 17 317 7 279 7 L237 7 C237 7 247 5 263 3 C279 1 289 -1 289 -1 L370 -1 L450 -1 C450 -1 461 1 477 3 C492 5 503 7 503 7 L460 7 C423 7 398 17 398 67 L398 338 L564 621 L564 621 C623 722 651 741 677 741 L719 741 C719 741 713 743 703 745 C693 747 687 749 687 749 L639 749 L635 749 L624 749 L562 749 C562 749 556 747 546 745 C536 743 530 741 530 741 L567 741 C606 741 621 723 566 631 L566 630 L397 340 L211 642 L211 642 Z " />
<glyph glyph-name="Ydieresis" unicode="&#x178;" horiz-adv-x="728" d="M440 865 C459 865 472 878 472 897 C472 917 459 930 440 930 C421 930 408 917 408 897 C408 878 421 865 440 865 L440 865 Z M300 865 C319 865 332 878 332 897 C332 917 319 930 300 930 C280 930 267 917 267 897 C267 878 280 865 300 865 L300 865 Z M211 642 C162 725 177 741 212 741 L249 741 C249 741 243 743 233 745 C223 747 217 749 217 749 L144 749 L134 749 L79 749 L51 749 C51 749 44 747 35 745 C25 743 18 741 18 741 L76 741 C80 741 95 722 158 621 L159 621 L342 328 L342 67 C342 17 317 7 279 7 L237 7 C237 7 247 5 263 3 C279 1 289 -1 289 -1 L370 -1 L450 -1 C450 -1 461 1 477 3 C492 5 503 7 503 7 L460 7 C423 7 398 17 398 67 L398 338 L564 621 L564 621 C623 722 651 741 677 741 L719 741 C719 741 713 743 703 745 C693 747 687 749 687 749 L639 749 L635 749 L624 749 L562 749 C562 749 556 747 546 745 C536 743 530 741 530 741 L567 741 C606 741 621 723 566 631 L566 630 L397 340 L211 642 L211 642 Z " />
<glyph glyph-name="Zacute" unicode="&#x179;" horiz-adv-x="683" d="M362 813 L501 936 C544 974 572 1001 572 1005 C572 1018 560 1029 547 1029 C543 1029 517 1001 479 959 L356 820 L362 813 L362 813 Z M86 0 L490 0 L637 0 C641 14 645 32 649 46 C652 60 657 78 660 92 C660 92 662 108 666 132 C670 155 673 171 672 171 L659 127 C641 65 611 23 520 17 L96 13 L641 738 L641 750 L587 750 L228 750 L70 750 C68 735 65 715 63 701 C61 686 58 666 56 652 C56 652 56 634 55 608 C54 582 54 565 54 565 L60 604 C73 683 104 735 226 735 L226 735 L578 737 L25 11 L25 -1 L86 0 L86 0 Z " />
<glyph glyph-name="Zdot" unicode="&#x17b;" horiz-adv-x="683" d="M356 865 C375 865 388 878 388 897 C388 917 375 930 356 930 C336 930 323 917 323 897 C323 878 336 865 356 865 L356 865 Z M86 0 L490 0 L637 0 C641 14 645 32 649 46 C652 60 657 78 660 92 C660 92 662 108 666 132 C670 155 673 171 672 171 L659 127 C641 65 611 23 520 17 L96 13 L641 738 L641 750 L587 750 L228 750 L70 750 C68 735 65 715 63 701 C61 686 58 666 56 652 C56 652 56 634 55 608 C54 582 54 565 54 565 L60 604 C73 683 104 735 226 735 L226 735 L578 737 L25 11 L25 -1 L86 0 L86 0 Z " />
<glyph glyph-name="zdot" unicode="&#x17c;" horiz-adv-x="506" d="M275 615 C294 615 307 628 307 647 C307 667 294 680 275 680 C255 680 242 667 242 647 C242 628 255 615 275 615 L275 615 Z M311 16 L312 16 L103 13 L466 488 L466 500 L415 500 L110 500 C105 500 99 504 100 510 L108 538 C107 536 105 533 103 529 C99 523 96 519 96 519 C95 513 93 506 91 499 L84 499 L84 481 L86 481 C86 479 86 477 86 475 C82 462 78 445 74 432 C74 432 72 422 68 407 C64 392 61 382 61 382 L80 425 C95 457 119 479 191 482 L407 485 L42 10 L42 -2 L95 -2 L417 -2 L463 -2 C464 8 466 21 468 31 C469 41 471 54 473 64 C472 64 474 74 477 89 L482 114 L466 71 C453 37 423 14 313 14 L311 16 L311 16 Z M110 536 L110 538 C110 538 110 537 109 536 L110 536 L110 536 Z " />
<glyph glyph-name="Zcaron" unicode="&#x17d;" horiz-adv-x="683" d="M356 873 L499 1042 L506 1037 L374 835 C371 830 362 817 357 817 C352 817 343 829 339 835 L208 1037 L214 1042 L356 873 L356 873 Z M87 0 L491 0 L638 0 C642 14 646 32 650 46 C653 60 658 78 661 92 C661 92 663 108 667 132 C671 155 674 171 673 171 L660 127 C642 65 612 23 521 17 L97 13 L642 738 L642 750 L588 750 L229 750 L71 750 C69 735 66 715 64 701 C62 686 59 666 57 652 C57 652 57 634 56 608 C55 582 55 565 55 565 L61 604 C74 683 105 735 227 735 L227 735 L579 737 L26 11 L26 -1 L87 0 L87 0 Z " />
<glyph glyph-name="zcaron" unicode="&#x17e;" horiz-adv-x="506" d="M311 16 L312 16 L103 13 L466 488 L466 500 L415 500 L110 500 C105 500 99 504 100 510 L108 538 C107 536 105 533 103 529 C99 523 96 519 96 519 C95 513 93 506 91 499 L84 499 L84 481 L86 481 C86 479 86 477 86 475 C82 462 78 445 74 432 C74 432 72 422 68 407 C64 392 61 382 61 382 L80 425 C95 457 119 479 191 482 L407 485 L42 10 L42 -2 L95 -2 L417 -2 L463 -2 C464 8 466 21 468 31 C469 41 471 54 473 64 C472 64 474 74 477 89 L482 114 L466 71 C453 37 423 14 313 14 L311 16 L311 16 Z M277 621 L420 790 L427 785 L295 583 C292 578 283 565 278 565 C272 565 263 577 260 583 L128 785 L135 790 L277 621 L277 621 Z M111 536 L111 538 C111 538 111 537 110 536 L111 536 L111 536 Z " />
<glyph glyph-name="oogonek" unicode="&#x1eb;" horiz-adv-x="746" d="M999 -54 C970 -78 865 -94 737 -94 C597 -94 442 -60 346 -9 C353 -10 359 -10 365 -10 C564 -10 697 111 697 292 C697 472 568 593 375 593 C188 593 63 472 63 292 C63 146 201 39 302 3 L301 3 C436 -74 608 -126 732 -126 C841 -126 948 -97 999 -54 L999 -54 Z M365 -8 C292 -8 120 112 120 292 C120 471 222 591 374 591 C533 591 639 471 639 292 C639 112 529 -8 365 -8 L365 -8 Z " />
<glyph glyph-name="Adotabove" unicode="&#x226;" horiz-adv-x="776" d="M414 865 C433 865 446 878 446 897 C446 917 433 930 414 930 C395 930 382 917 382 897 C382 878 395 865 414 865 L414 865 Z M640 128 L639 128 L442 732 L430 770 L424 770 C409 748 394 733 386 732 L389 722 L389 722 L199 158 L199 158 C157 32 112 8 56 8 L14 8 C14 8 20 6 30 4 C40 2 46 0 46 0 L146 0 L149 0 L164 0 L281 0 C281 0 288 2 298 4 C307 6 314 8 314 8 L274 8 C200 8 159 32 202 158 L202 158 L248 296 L527 296 L581 128 L580 128 C613 27 582 8 526 8 L487 8 C487 8 493 6 503 4 C513 2 519 0 519 0 L622 0 L630 0 L680 0 L740 0 C740 0 747 2 756 4 C766 6 773 8 773 8 L730 8 C698 8 671 27 639 128 L640 128 L640 128 Z M248 299 L389 719 L525 299 L248 299 L248 299 Z " />
<glyph glyph-name="G_sc" unicode="&#x262;" horiz-adv-x="727" d="M514 564 L511 565 C473 583 424 593 355 593 C180 593 63 472 63 292 C63 111 178 -10 352 -10 C424 -10 488 1 548 19 L585 28 L585 31 C611 40 636 51 661 63 L661 64 C637 53 612 43 585 34 L586 185 C586 235 603 245 628 245 L671 245 C671 245 662 247 649 249 C637 251 628 253 628 253 L557 253 L485 253 C485 253 475 251 460 249 C445 247 435 245 435 245 L478 245 C512 245 535 235 535 185 L536 67 C532 39 496 18 438 8 L498 13 C456 6 409 2 355 2 C212 2 117 118 117 292 C117 471 212 591 355 591 C393 591 424 587 451 579 L451 579 C519 559 581 474 595 415 C598 402 600 393 600 393 C600 393 601 402 602 415 C602 427 603 436 603 436 L603 489 L603 491 L603 546 C603 546 602 553 602 565 C601 576 600 583 600 583 C600 583 598 572 595 555 C593 542 559 541 513 564 L514 564 L514 564 Z M437 8 C413 4 385 2 355 2 L437 8 L437 8 Z " />
<glyph glyph-name="I_sc" unicode="&#x26a;" horiz-adv-x="360" d="M215 68 L215 516 C215 566 240 576 278 576 L320 576 C320 576 310 577 294 579 C278 582 268 583 268 583 L190 583 L112 583 C112 583 102 582 86 579 C70 577 60 576 60 576 L102 576 C140 576 165 566 165 516 L165 68 C165 18 140 8 102 8 L60 8 C60 8 70 6 86 4 C102 2 112 0 112 0 L190 0 L268 0 C268 0 278 2 294 4 C310 6 320 8 320 8 L278 8 C240 8 215 18 215 68 L215 68 Z " />
<glyph glyph-name="N_sc" unicode="&#x274;" horiz-adv-x="715" d="M156 128 L156 128 L155 518 L514 56 L557 0 L567 0 L570 491 C574 562 606 576 653 576 L695 576 C695 576 683 577 664 579 C645 582 633 583 633 583 L571 583 L563 583 L556 583 L494 583 C494 583 481 582 462 579 C444 577 431 576 431 576 L474 576 C523 576 556 560 556 476 L556 476 L557 63 L545 79 L167 583 L155 583 L143 583 L123 583 L105 583 L78 583 C78 583 72 582 62 579 C52 577 46 576 46 576 L103 576 C107 576 113 572 128 554 L143 534 L142 138 L142 138 C142 29 109 8 60 8 L17 8 C17 8 24 6 33 4 C43 2 50 0 50 0 L142 0 L150 0 L157 0 L250 0 C250 0 256 2 266 4 C276 6 282 8 282 8 L240 8 C190 8 157 27 157 128 L156 128 L156 128 Z " />
<glyph glyph-name="R_sc" unicode="&#x280;" horiz-adv-x="657" d="M648 0 L648 4 C561 4 556 6 524 53 L367 286 C456 297 512 339 512 420 C512 518 434 583 316 583 L207 583 L155 583 L104 583 C104 583 93 582 78 579 C62 577 51 576 51 576 L94 576 C131 576 156 566 156 511 L156 73 C156 18 131 8 94 8 L51 8 C51 8 62 6 78 4 C93 2 104 0 104 0 L182 0 L259 0 C259 0 270 2 285 4 C301 6 312 8 312 8 L269 8 C232 8 207 18 207 73 L207 283 L314 283 C327 259 384 171 464 53 C499 2 506 0 647 0 L648 0 L648 0 Z M207 573 L301 573 C394 573 456 516 456 430 C456 337 400 296 316 296 L207 296 L207 511 L207 573 L207 573 Z " />
<glyph glyph-name="Y_sc" unicode="&#x28f;" horiz-adv-x="636" d="M214 471 C159 559 172 576 208 576 L246 576 C246 576 239 577 229 579 C220 582 213 583 213 583 L141 583 L133 583 L81 583 L54 583 C54 583 47 582 38 579 C28 577 21 576 21 576 L79 576 C82 576 91 566 122 521 L299 255 L299 68 C299 18 274 8 237 8 L194 8 C194 8 205 6 221 4 C236 2 247 0 247 0 L325 0 L402 0 C402 0 413 2 428 4 C444 6 455 8 455 8 L412 8 C375 8 350 18 350 68 L350 263 L487 485 C537 561 563 576 586 576 L628 576 C628 576 622 577 612 579 C602 582 596 583 596 583 L548 583 L544 583 L534 583 L471 583 C471 583 465 582 455 579 C445 577 439 576 439 576 L477 576 C515 576 529 558 472 466 L472 466 L349 266 L214 471 L214 471 Z " />
<glyph glyph-name="B_sc" unicode="&#x299;" horiz-adv-x="566" d="M208 582 L274 582 C427 582 463 524 463 437 C463 355 401 300 307 300 L208 300 L208 511 L208 582 L208 582 Z M336 300 C443 308 513 363 513 443 C513 527 468 583 277 583 L208 583 L156 583 L105 583 C105 583 94 582 79 579 C63 577 52 576 52 576 L95 576 C132 576 157 566 157 511 L157 73 C157 18 132 8 95 8 L52 8 C52 8 63 6 79 4 C94 2 105 0 105 0 L156 0 L208 0 L328 0 C447 0 527 29 527 150 C527 240 457 300 353 300 L336 300 L336 300 Z M308 299 L348 299 C422 299 472 239 472 150 C472 29 414 1 326 1 L276 1 C235 1 208 21 208 52 L208 73 L208 299 L308 299 L308 299 Z " />
<glyph glyph-name="H_sc" unicode="&#x29c;" horiz-adv-x="766" d="M622 68 L622 516 C622 566 647 576 684 576 L727 576 C727 576 716 577 700 579 C685 582 674 583 674 583 L596 583 L519 583 C519 583 508 582 493 579 C477 577 466 576 466 576 L509 576 C546 576 571 566 571 516 L571 299 L244 299 L244 516 C244 566 269 576 306 576 L349 576 C349 576 338 577 322 579 C307 582 296 583 296 583 L219 583 L141 583 C141 583 130 582 115 579 C99 577 88 576 88 576 L131 576 C168 576 193 566 193 516 L193 68 C193 18 168 8 131 8 L88 8 C88 8 99 6 115 4 C130 2 141 0 141 0 L219 0 L296 0 C296 0 307 2 322 4 C338 6 349 8 349 8 L306 8 C269 8 244 18 244 68 L244 297 L571 297 L571 68 C571 18 546 8 509 8 L466 8 C466 8 477 6 493 4 C508 2 519 0 519 0 L596 0 L674 0 C674 0 685 2 700 4 C716 6 727 8 727 8 L684 8 C647 8 622 18 622 68 L622 68 Z " />
<glyph glyph-name="L_sc" unicode="&#x29f;" horiz-adv-x="577" d="M503 9 L503 9 C506 21 510 34 512 45 C516 58 521 76 524 89 C524 89 527 106 532 131 C536 157 539 174 539 174 L528 131 C508 58 469 9 330 9 L267 9 C220 9 215 26 215 52 L215 73 L215 511 C215 566 240 576 278 576 L320 576 C320 576 310 577 294 579 C278 582 268 583 268 583 L215 583 L190 583 L165 583 L112 583 C112 583 102 582 86 579 C70 577 60 576 60 576 L102 576 C140 576 165 566 165 511 L165 73 C165 18 140 8 102 8 L60 8 C60 8 70 6 86 4 C102 2 112 0 112 0 L164 0 L165 0 L215 0 L328 0 L500 0 L503 0 L503 9 L503 9 Z " />
<glyph glyph-name="A_sc" unicode="&#x1d00;" horiz-adv-x="691" d="M231 230 L463 230 L504 111 C530 25 500 8 447 8 L407 8 C407 8 414 6 424 4 C433 2 440 0 440 0 L542 0 L547 0 L595 0 L655 0 C655 0 661 2 671 4 C681 6 687 8 687 8 L645 8 C615 8 588 25 556 111 L395 571 L383 603 L378 603 C365 585 351 572 344 571 L348 560 L202 158 L202 158 C157 32 111 8 56 8 L13 8 C13 8 20 6 29 4 C39 2 46 0 46 0 L145 0 L148 0 L163 0 L280 0 C280 0 287 2 296 4 C306 6 313 8 313 8 L273 8 C204 8 165 29 197 135 L231 230 L231 230 Z M232 232 L349 559 L462 232 L232 232 L232 232 Z " />
<glyph glyph-name="C_sc" unicode="&#x1d04;" horiz-adv-x="650" d="M514 564 L511 565 C473 583 424 593 355 593 C180 593 63 472 63 292 C63 111 176 -10 346 -10 C415 -10 468 1 510 21 L511 21 C555 41 591 28 597 5 C602 -13 605 -25 605 -25 L605 5 L605 35 L605 91 L605 95 L605 147 C605 147 604 156 603 168 C603 181 602 190 602 190 C602 190 600 181 597 168 C586 120 539 47 486 19 C448 2 403 -8 348 -8 C211 -8 120 112 120 292 C120 471 215 591 358 591 C396 591 427 587 454 579 L454 579 C522 559 584 474 598 415 C601 402 603 393 603 393 C603 393 604 402 605 415 C605 427 606 436 606 436 L606 489 L606 491 L606 546 C606 546 605 553 605 565 C604 576 603 583 603 583 C603 583 601 572 598 555 C596 542 562 541 516 564 L514 564 L514 564 Z " />
<glyph glyph-name="D_sc" unicode="&#x1d05;" horiz-adv-x="753" d="M208 583 L157 583 L156 583 L105 583 C105 583 94 582 79 579 C63 577 52 576 52 576 L95 576 C132 576 157 566 157 511 L157 73 C157 18 132 8 95 8 L52 8 C52 8 63 6 79 4 C94 2 105 0 105 0 L156 0 L157 0 L208 0 L272 0 L208 583 L208 583 Z M208 582 L299 582 C527 582 644 466 644 292 C644 100 494 2 270 2 C214 2 208 22 208 52 L208 73 L208 511 L208 582 L208 582 Z " />
<glyph glyph-name="E_sc" unicode="&#x1d07;" horiz-adv-x="577" d="M397 0 L505 0 C506 10 508 22 509 32 C511 42 513 54 514 64 L514 95 C515 114 515 127 515 127 L509 84 C502 35 481 2 397 2 L260 2 C213 2 208 22 208 52 L208 73 L208 299 L312 299 C396 299 412 260 412 202 L412 159 C412 159 414 173 416 194 C418 215 420 229 420 229 L420 299 L420 300 L420 301 L420 371 C420 371 418 385 416 406 C414 427 412 441 412 441 L412 399 C412 340 396 301 312 301 L208 301 L208 511 L208 582 L372 582 C473 582 475 544 479 487 L481 457 C481 457 481 469 482 488 C484 507 484 519 484 519 C484 529 483 542 482 551 C481 561 481 574 480 583 L372 583 L208 583 L157 583 L156 583 L105 583 C105 583 94 582 79 579 C63 577 52 576 52 576 L95 576 C132 576 157 566 157 511 L157 73 C157 18 132 8 95 8 L52 8 C52 8 63 6 79 4 C94 2 105 0 105 0 L156 0 L157 0 L208 0 L397 0 L397 0 Z " />
<glyph glyph-name="J_sc" unicode="&#x1d0a;" horiz-adv-x="360" d="M165 516 L165 -26 C165 -186 98 -217 50 -217 C25 -217 36 -175 11 -175 C-4 -175 -13 -185 -13 -199 C-13 -212 12 -220 48 -220 C118 -220 215 -174 215 70 L215 516 C215 566 240 576 278 576 L320 576 C320 576 310 577 294 579 C278 582 268 583 268 583 L190 583 L112 583 C112 583 102 582 86 579 C70 577 60 576 60 576 L102 576 C140 576 165 566 165 516 L165 516 Z " />
<glyph glyph-name="K_sc" unicode="&#x1d0b;" horiz-adv-x="656" d="M499 73 L498 73 L248 323 L434 518 C484 566 513 576 541 576 L583 576 C583 576 577 577 567 579 C557 582 551 583 551 583 L496 583 L477 583 L460 583 L369 583 C369 583 363 582 353 579 C343 577 337 576 337 576 L372 576 C430 576 451 557 359 456 L361 457 L208 292 L208 523 C208 568 233 576 270 576 L313 576 C313 576 302 577 286 579 C271 582 260 583 260 583 L208 583 L183 583 L157 583 L105 583 C105 583 94 582 79 579 C63 577 52 576 52 576 L95 576 C132 576 157 568 157 523 L157 60 C157 16 132 8 95 8 L52 8 C52 8 63 6 79 4 C94 2 105 0 105 0 L157 0 L183 0 L208 0 L260 0 C260 0 271 2 286 4 C302 6 313 8 313 8 L270 8 C233 8 208 16 208 60 L208 292 L509 0 L563 0 L571 0 L616 0 C616 0 623 2 632 4 C642 6 649 8 649 8 L598 8 C579 8 533 40 499 73 L499 73 Z " />
<glyph glyph-name="M_sc" unicode="&#x1d0d;" horiz-adv-x="807" d="M157 128 L157 128 L168 515 C169 514 170 513 171 512 L171 512 L377 68 L408 1 L421 1 L643 543 L659 62 C657 17 632 8 596 8 L554 8 C554 8 564 6 580 4 C596 2 606 0 606 0 L661 0 L684 0 L712 0 L761 0 C761 0 772 2 788 4 C803 6 814 8 814 8 L772 8 C737 8 714 17 710 64 L696 427 L696 427 C692 553 716 577 753 577 L795 577 C795 577 788 578 778 580 C769 583 762 584 762 584 L702 584 L690 584 L660 584 L642 584 L435 68 L198 584 L171 584 L159 584 L138 584 L133 584 L69 584 C69 584 62 583 52 580 C43 578 36 577 36 577 L78 577 C109 577 135 570 157 537 L142 134 C137 30 103 10 54 10 L12 10 C12 10 18 8 28 6 C38 4 44 2 44 2 L137 2 L146 2 L154 2 L247 2 C247 2 253 4 263 6 C273 8 279 10 279 10 L237 10 C187 10 154 29 158 130 L157 128 L157 128 Z " />
<glyph glyph-name="O_sc" unicode="&#x1d0f;" horiz-adv-x="751" d="M365 -8 C218 -8 120 112 120 292 C120 471 222 591 374 591 C533 591 639 471 639 292 C639 112 529 -8 365 -8 L365 -8 Z M63 292 C63 111 184 -10 365 -10 C564 -10 697 111 697 292 C697 472 568 593 375 593 C188 593 63 472 63 292 L63 292 Z " />
<glyph glyph-name="P_sc" unicode="&#x1d18;" horiz-adv-x="507" d="M220 583 L170 583 L169 583 L118 583 C118 583 107 582 91 579 C76 577 65 576 65 576 L107 576 C145 576 170 566 170 511 L170 73 C170 18 145 8 107 8 L65 8 C65 8 76 6 91 4 C107 2 118 0 118 0 L170 0 L195 0 L220 0 L273 0 C273 0 283 2 299 4 C315 6 325 8 325 8 L283 8 C245 8 220 18 220 73 L220 273 L220 583 L220 583 Z M220 284 L220 511 L220 575 L289 575 C379 575 440 516 440 429 C440 329 368 284 261 284 L220 284 L220 284 Z " />
<glyph glyph-name="T_sc" unicode="&#x1d1b;" horiz-adv-x="736" d="M25 470 L40 508 C54 546 79 571 163 571 L343 571 L343 68 C343 18 318 8 281 8 L238 8 C238 8 249 6 265 4 C280 2 291 0 291 0 L368 0 L446 0 C446 0 457 2 472 4 C488 6 499 8 499 8 L456 8 C419 8 394 18 394 68 L394 571 L574 571 C658 571 683 546 697 508 L712 466 C712 466 710 477 707 493 C703 508 701 519 701 519 C696 532 690 548 685 561 C684 564 683 567 682 570 L682 570 L682 582 L678 582 C675 589 672 596 670 602 C670 602 667 606 663 612 C658 618 655 622 655 622 L661 605 C666 591 654 582 570 582 L394 582 L343 582 L167 582 C83 582 71 591 76 605 L82 622 C82 622 79 618 74 612 C70 606 67 602 67 602 C65 596 62 589 59 582 L55 582 L55 570 C54 566 53 562 52 559 C48 546 42 530 37 517 C37 517 35 506 31 491 C29 480 27 472 26 468 L25 470 L25 470 Z M26 468 C25 466 25 465 25 465 L26 468 L26 468 Z " />
<glyph glyph-name="U_sc" unicode="&#x1d1c;" horiz-adv-x="637" d="M523 98 L523 511 L523 583 L471 583 L420 583 C420 583 410 582 394 579 C378 577 368 576 368 576 L410 576 C448 576 473 566 473 511 L473 158 C434 76 347 22 254 22 C205 22 173 95 173 205 L173 511 L173 583 L121 583 L70 583 C70 583 59 582 44 579 C28 577 17 576 17 576 L60 576 C97 576 122 566 122 511 L122 205 C122 76 167 -10 233 -10 C336 -10 432 48 473 136 L473 98 L473 0 L481 0 L627 49 L627 53 C540 48 523 54 523 98 L523 98 Z " />
<glyph glyph-name="V_sc" unicode="&#x1d20;" horiz-adv-x="700" d="M105 536 L294 73 L328 -10 L338 -10 L556 491 C591 561 617 575 645 575 L688 575 C688 575 681 576 671 578 C662 581 655 582 655 582 L596 582 L576 582 L549 582 L443 582 C443 582 437 581 427 578 C417 576 411 575 411 575 L450 575 C524 575 565 556 522 455 L523 455 L363 72 L198 455 L198 455 C157 556 197 575 269 575 L308 575 C308 575 302 576 292 578 C282 581 276 582 276 582 L166 582 L143 582 L86 582 L56 582 C56 582 50 581 40 578 C30 576 24 575 24 575 L81 575 C86 575 92 569 105 535 L105 536 L105 536 Z " />
<glyph glyph-name="W_sc" unicode="&#x1d21;" horiz-adv-x="977" d="M451 539 L505 389 L344 64 L191 456 L191 456 C153 557 186 576 247 576 L286 576 C286 576 280 577 270 579 C260 582 254 583 254 583 L155 583 L141 583 L86 583 L57 583 C57 583 50 582 40 579 C31 577 24 576 24 576 L81 576 C85 576 92 564 113 510 L280 63 L307 -11 L320 -11 L512 367 L619 72 L649 -11 L662 -11 L828 455 L828 455 C862 556 891 575 923 575 L965 575 C965 575 959 576 949 578 C939 581 933 582 933 582 L873 582 L852 582 L826 582 L720 582 C720 582 713 581 703 578 C694 576 687 575 687 575 L727 575 C801 575 843 556 808 455 L809 455 L677 69 L677 72 L528 486 L529 485 C501 561 537 575 599 575 L638 575 C638 575 632 576 622 578 C612 581 606 582 606 582 L493 582 L491 582 L435 582 L375 582 C375 582 369 581 359 578 C349 576 343 575 343 575 L385 575 C416 575 439 569 451 538 L451 539 L451 539 Z " />
<glyph glyph-name="Z_sc" unicode="&#x1d22;" horiz-adv-x="614" d="M80 0 L420 0 L568 0 C571 14 576 32 579 45 C583 59 587 77 590 90 C590 90 593 106 596 130 C600 153 602 169 602 169 L589 125 C571 64 540 21 450 14 L90 11 L572 572 L572 582 L523 582 L228 582 L70 582 C68 568 65 548 63 534 C61 520 58 500 56 486 C56 486 56 468 55 442 C55 416 54 399 54 399 L60 438 C73 517 104 569 226 569 L226 569 L514 571 L25 9 L25 -2 L80 0 L80 0 Z " />
<glyph glyph-name="Wgrave" unicode="&#x1e80;" horiz-adv-x="1123" d="M438 959 C402 1001 376 1029 370 1029 C357 1029 345 1018 345 1005 C345 999 373 973 416 936 L555 813 L561 820 L438 959 L438 959 Z M519 702 L587 500 L587 500 L384 70 L384 71 L191 622 L191 622 C157 723 191 742 251 742 L291 742 C291 742 285 744 275 746 C265 748 259 750 259 750 L157 750 L146 750 L85 750 L55 750 C55 750 48 748 39 746 C29 744 22 742 22 742 L80 742 C84 742 93 725 124 637 L318 71 L346 -10 L361 -10 L595 477 L728 81 L758 -10 L773 -10 L977 622 L977 622 C1008 723 1036 742 1068 742 L1111 742 C1111 742 1104 744 1094 746 C1085 748 1078 750 1078 750 L1018 750 L995 750 L970 750 L863 750 C863 750 856 748 846 746 C837 744 830 742 830 742 L870 742 C944 742 987 723 955 622 L955 622 L787 82 L596 662 C577 730 613 743 673 743 L712 743 C712 743 706 745 696 747 C686 749 680 751 680 751 L567 751 L561 751 L503 751 L443 751 C443 751 436 749 427 747 C417 745 410 743 410 743 L453 743 C484 743 507 737 519 703 L519 702 L519 702 Z " />
<glyph glyph-name="Wacute" unicode="&#x1e82;" horiz-adv-x="1123" d="M558 813 L697 936 C739 974 767 1001 767 1005 C767 1018 756 1029 742 1029 C738 1029 712 1001 674 959 L552 820 L558 813 L558 813 Z M519 702 L587 500 L587 500 L384 70 L384 71 L191 622 L191 622 C157 723 191 742 251 742 L291 742 C291 742 285 744 275 746 C265 748 259 750 259 750 L157 750 L146 750 L85 750 L55 750 C55 750 48 748 39 746 C29 744 22 742 22 742 L80 742 C84 742 93 725 124 637 L318 71 L346 -10 L361 -10 L595 477 L728 81 L758 -10 L773 -10 L977 622 L977 622 C1008 723 1036 742 1068 742 L1111 742 C1111 742 1104 744 1094 746 C1085 748 1078 750 1078 750 L1018 750 L995 750 L970 750 L863 750 C863 750 856 748 846 746 C837 744 830 742 830 742 L870 742 C944 742 987 723 955 622 L955 622 L787 82 L596 662 C577 730 613 743 673 743 L712 743 C712 743 706 745 696 747 C686 749 680 751 680 751 L567 751 L561 751 L503 751 L443 751 C443 751 436 749 427 747 C417 745 410 743 410 743 L453 743 C484 743 507 737 519 703 L519 702 L519 702 Z " />
<glyph glyph-name="Wdieresis" unicode="&#x1e84;" horiz-adv-x="1123" d="M622 865 C641 865 654 878 654 897 C654 917 641 930 622 930 C602 930 589 917 589 897 C589 878 602 865 622 865 L622 865 Z M481 865 C500 865 513 878 513 897 C513 917 500 930 481 930 C462 930 449 917 449 897 C449 878 462 865 481 865 L481 865 Z M519 702 L587 500 L587 500 L384 70 L384 71 L191 622 L191 622 C157 723 191 742 251 742 L291 742 C291 742 285 744 275 746 C265 748 259 750 259 750 L157 750 L146 750 L85 750 L55 750 C55 750 48 748 39 746 C29 744 22 742 22 742 L80 742 C84 742 93 725 124 637 L318 71 L346 -10 L361 -10 L595 477 L728 81 L758 -10 L773 -10 L977 622 L977 622 C1008 723 1036 742 1068 742 L1111 742 C1111 742 1104 744 1094 746 C1085 748 1078 750 1078 750 L1018 750 L995 750 L970 750 L863 750 C863 750 856 748 846 746 C837 744 830 742 830 742 L870 742 C944 742 987 723 955 622 L955 622 L787 82 L596 662 C577 730 613 743 673 743 L712 743 C712 743 706 745 696 747 C686 749 680 751 680 751 L567 751 L561 751 L503 751 L443 751 C443 751 436 749 427 747 C417 745 410 743 410 743 L453 743 C484 743 507 737 519 703 L519 702 L519 702 Z " />
<glyph glyph-name="Etilde" unicode="&#x1ebc;" horiz-adv-x="650" d="M189 870 C189 910 211 936 244 936 C312 936 383 871 451 871 C494 871 522 909 522 966 L520 966 C520 930 497 906 463 906 C394 906 323 971 255 971 C215 971 188 931 188 870 L189 870 L189 870 Z M471 0 L578 0 C579 10 581 22 583 32 C584 42 586 55 587 64 C587 64 587 77 588 96 C588 114 589 127 588 127 L582 84 C576 35 555 2 471 2 L264 2 C217 2 212 22 212 52 L212 73 L212 385 L386 385 C470 385 486 346 486 287 L486 245 C486 245 487 259 489 280 C492 301 493 315 493 315 L493 385 L493 386 L493 387 L493 457 C493 457 492 471 489 492 C487 513 486 527 486 527 L486 485 C486 426 470 387 386 387 L212 387 L212 677 L212 748 L446 748 C547 748 549 710 552 654 L554 623 C555 623 555 636 556 654 C557 673 558 686 558 686 C557 695 556 708 556 718 C555 728 554 740 553 750 L446 750 L212 750 L158 750 L156 750 L104 750 C104 750 93 748 77 746 C62 744 51 742 51 742 L93 742 C131 742 156 732 156 677 L156 73 C156 18 131 8 93 8 L51 8 C51 8 62 6 77 4 C93 2 104 0 104 0 L156 0 L158 0 L212 0 L471 0 L471 0 Z " />
<glyph glyph-name="Ygrave" unicode="&#x1ef2;" horiz-adv-x="728" d="M257 959 C220 1001 194 1029 189 1029 C175 1029 164 1018 164 1005 C164 999 192 973 234 936 L373 813 L380 820 L257 959 L257 959 Z M211 642 C162 725 177 741 212 741 L249 741 C249 741 243 743 233 745 C223 747 217 749 217 749 L144 749 L134 749 L79 749 L51 749 C51 749 44 747 35 745 C25 743 18 741 18 741 L76 741 C80 741 95 722 158 621 L159 621 L342 328 L342 67 C342 17 317 7 279 7 L237 7 C237 7 247 5 263 3 C279 1 289 -1 289 -1 L370 -1 L450 -1 C450 -1 461 1 477 3 C492 5 503 7 503 7 L460 7 C423 7 398 17 398 67 L398 338 L564 621 L564 621 C623 722 651 741 677 741 L719 741 C719 741 713 743 703 745 C693 747 687 749 687 749 L639 749 L635 749 L624 749 L562 749 C562 749 556 747 546 745 C536 743 530 741 530 741 L567 741 C606 741 621 723 566 631 L566 630 L397 340 L211 642 L211 642 Z " />
<glyph glyph-name="quoteleft" unicode="&#x2018;" horiz-adv-x="598" d="" />
<glyph glyph-name="quoteright" unicode="&#x2019;" horiz-adv-x="66" d="" />
<glyph glyph-name="quotedblleft" unicode="&#x201c;" horiz-adv-x="598" d="M151 640 C145 640 140 638 137 634 C137 635 137 636 137 637 C137 677 159 722 191 750 L181 761 C146 731 122 678 122 628 C122 607 134 594 151 594 C165 594 175 603 175 617 C175 632 165 641 151 641 L151 640 L151 640 Z " />
<glyph glyph-name="quotedblright" unicode="&#x201d;" horiz-adv-x="598" d="M165 720 C165 667 152 621 132 604 L143 593 C166 612 181 667 181 731 C181 748 169 760 151 760 C137 760 128 751 128 736 C128 722 137 713 151 713 C157 713 162 715 165 719 L165 720 L165 720 Z " />
<glyph glyph-name="Euro" unicode="&#x20ac;" horiz-adv-x="792" d="M656 711 L655 711 C606 742 544 760 452 760 C266 760 137 633 115 436 L60 436 L55 400 L113 400 C113 392 113 384 113 376 C113 368 113 360 113 352 L55 352 L50 316 L115 316 C136 119 261 -8 440 -8 C533 -8 602 12 657 46 C698 68 731 57 737 35 C741 17 744 5 744 5 L744 35 L744 64 L744 121 L744 123 L744 123 L743 124 L743 177 C743 177 743 185 742 198 C741 211 741 219 741 219 C741 219 739 211 736 198 C724 149 672 68 615 36 L616 36 C567 9 510 -7 440 -7 C294 -7 191 119 173 315 L503 315 L508 351 L170 351 C170 359 170 367 170 375 C170 383 170 391 170 399 L508 399 L513 435 L173 435 C191 631 297 757 450 757 C511 757 558 746 598 727 C663 695 722 607 736 551 C739 538 741 530 741 530 C741 530 742 538 742 551 C743 564 744 572 744 572 L744 626 L744 628 L744 683 C744 683 743 695 742 712 C742 729 741 741 741 741 C741 741 739 729 736 712 C732 690 698 681 654 709 L656 711 L656 711 Z " />
<glyph glyph-name="F_sc" unicode="&#xa730;" horiz-adv-x="552" d="M323 298 C387 292 401 255 404 202 L405 154 C405 154 406 169 407 191 C409 212 410 227 410 227 L410 298 L410 299 L410 371 C410 371 409 385 407 407 C406 429 405 443 405 443 L404 395 C401 337 384 299 302 299 L208 299 L208 511 L208 582 L292 582 C443 582 475 549 479 499 L483 457 C483 457 483 470 484 489 C485 508 485 521 485 521 C485 530 483 542 482 552 C482 562 481 574 480 583 L372 583 L208 583 L157 583 L156 583 L105 583 C105 583 94 582 79 579 C63 577 52 576 52 576 L95 576 C132 576 157 566 157 511 L157 73 C157 18 132 8 95 8 L52 8 C52 8 63 6 79 4 C94 2 105 0 105 0 L157 0 L183 0 L208 0 L260 0 C260 0 271 2 286 4 C302 6 313 8 313 8 L270 8 C233 8 208 18 208 73 L208 298 L323 298 L323 298 Z " />
<glyph glyph-name="S_sc" unicode="&#xa731;" horiz-adv-x="506" d="M291 581 C351 555 402 485 415 429 C418 416 420 408 420 408 C420 408 421 416 422 429 C422 442 423 450 423 450 L423 499 L423 504 L423 557 C423 557 422 564 422 575 C421 586 420 593 420 593 C420 593 418 582 415 565 C413 552 393 546 366 560 C330 581 282 593 231 593 C137 593 75 536 75 450 C75 393 140 325 266 266 C372 216 427 165 427 125 C427 45 369 -8 282 -8 C244 -8 207 1 174 17 C124 45 75 129 62 187 C59 199 57 208 57 208 C57 208 56 199 56 187 C55 174 54 165 54 165 L54 116 L54 104 L54 43 C54 43 55 29 56 7 C56 -15 57 -29 57 -29 C57 -29 59 -15 62 7 C66 35 96 52 135 31 C176 6 227 -8 282 -8 C393 -8 467 52 467 141 C467 201 409 267 297 320 C176 376 114 431 114 471 C114 544 161 593 231 593 C241 593 251 592 261 591 L258 592 C262 591 266 590 270 589 C289 586 307 581 323 574 L291 581 L291 581 Z M291 583 L261 591 C264 591 267 591 270 590 C277 588 284 586 291 583 L291 583 Z " />
<glyph glyph-name="X_sc" unicode="&#xf078;" horiz-adv-x="692" d="M511 128 L510 128 L377 314 L552 524 C592 566 616 576 637 576 L679 576 C679 576 673 577 663 579 C653 582 647 583 647 583 L601 583 L578 583 L561 583 L476 583 C476 583 469 582 459 579 C450 577 443 576 443 576 L480 576 C535 576 556 555 474 446 L474 445 L376 315 L275 455 L276 455 C204 556 223 575 273 575 L309 575 C309 575 303 576 293 578 C283 581 277 582 277 582 L184 582 L183 582 L125 582 L88 582 C88 582 82 581 72 578 C62 576 56 575 56 575 L101 575 C117 575 139 560 192 489 L341 281 L202 107 L202 107 C135 23 97 7 59 7 L17 7 C17 7 24 5 33 3 C43 1 50 -1 50 -1 L116 -1 L136 -1 L169 -1 L289 -1 C289 -1 295 1 305 3 C315 5 321 7 321 7 L285 7 C197 7 156 28 243 137 L242 137 L347 273 L466 107 C521 24 501 8 455 8 L418 8 C418 8 425 6 435 4 C444 2 451 0 451 0 L543 0 L551 0 L603 0 L650 0 C650 0 657 2 667 4 C676 6 683 8 683 8 L641 8 C615 8 584 27 512 128 L511 128 L511 128 Z " />
</font>
</svg>
