<?xml version="1.0" encoding="UTF-8"?>
<svg xmlns="http://www.w3.org/2000/svg" xmlns:xlink="http://www.w3.org/1999/xlink" version="1.2" >
<font id="Sharis Medium">
<font-face  font-family="Sharis" units-per-em="1024" ascent="975" descent="-300" font-style="normal" font-weight="500" font-stretch="normal" cap-height="750" x-height="500" underline-position="-125" underline-thickness="50" />
<missing-glyph  horiz-adv-x="650" d="" />
<glyph glyph-name="NULL" d="" />
<glyph glyph-name="CR" unicode="&#xd;" horiz-adv-x="256" d="" />
<glyph glyph-name="space" unicode="&#x20;" horiz-adv-x="289" d="" />
<glyph glyph-name="exclam" unicode="&#x21;" horiz-adv-x="225" d="M113 -5 C142 -5 162 15 162 44 C162 74 142 94 113 94 C83 94 63 74 63 44 C63 15 83 -5 113 -5 L113 -5 Z M113 755 C73 755 65 717 70 659 L106 210 L119 210 L156 659 C160 717 152 755 113 755 L113 755 Z " />
<glyph glyph-name="quotedbl" unicode="&#x22;" horiz-adv-x="356" d="M742 750 C720 750 717 732 721 705 L746 560 L754 560 L779 705 C783 732 780 750 758 750 L742 750 L742 750 Z " />
<glyph glyph-name="numbersign" unicode="&#x23;" horiz-adv-x="569" d="M418 673 L391 487 L219 487 L246 673 L242 673 L215 487 L66 487 L59 433 L207 433 L177 227 L26 227 L18 173 L169 173 L144 0 L148 0 L173 173 L345 173 L320 0 L325 0 L350 173 L496 173 L504 227 L358 227 L388 433 L543 433 L551 487 L396 487 L423 673 L418 673 L418 673 Z M212 433 L384 433 L354 227 L182 227 L212 433 L212 433 Z " />
<glyph glyph-name="dollar" unicode="&#x24;" horiz-adv-x="579" d="M317 825 L317 756 C300 758 283 759 265 759 C264 759 263 759 262 759 L262 824 L237 824 L237 758 C135 747 69 674 69 569 C69 497 126 421 237 360 L237 7 C213 16 190 28 168 44 C118 85 73 169 60 222 C57 234 55 243 55 243 C55 243 54 234 54 222 C53 209 52 200 52 200 L52 147 L52 138 L52 75 C52 75 53 60 54 39 C54 17 55 2 55 2 C55 2 57 17 60 39 C64 66 93 80 131 51 L132 51 C163 28 199 11 238 1 L238 -74 L263 -74 L263 -5 C280 -8 297 -10 315 -10 C316 -10 317 -10 318 -10 L318 -75 L343 -75 L343 -9 C462 1 540 77 540 188 C540 270 473 354 343 413 L343 743 L337 745 C339 745 341 744 343 743 L343 743 L343 743 C350 741 357 739 363 736 L352 740 C419 711 478 627 492 567 C495 555 497 546 497 546 C497 546 498 555 499 567 C499 580 500 589 500 589 L500 642 L500 644 L500 699 C500 699 499 711 499 728 C498 745 497 757 497 757 C497 757 495 745 492 728 C489 705 468 690 443 708 L442 708 C415 727 381 742 344 750 L344 823 L317 825 L317 825 Z M344 742 L344 742 C347 741 350 740 353 739 L344 742 L344 742 Z M264 345 C273 340 283 335 293 331 C302 327 311 323 319 319 L319 -9 C318 -9 317 -9 316 -9 C299 -9 282 -7 265 -3 L264 345 L264 345 Z M345 306 C434 258 480 207 480 163 C480 70 427 5 345 -7 L345 306 L345 306 Z M265 451 L265 754 C266 754 267 754 268 754 C286 754 303 752 320 748 L320 422 C300 431 282 440 265 450 L265 451 L265 451 Z M240 465 C169 510 133 556 133 596 C133 679 175 738 240 751 L240 465 L240 465 Z " />
<glyph glyph-name="ampersand" unicode="&#x26;" horiz-adv-x="333" d="M314 468 L318 464 C415 493 480 553 480 612 C480 701 414 760 315 760 C215 760 149 696 149 601 C149 561 187 510 245 440 C125 403 45 306 45 199 C45 73 125 -11 246 -11 C335 -11 428 40 512 129 L542 93 C596 30 659 -11 701 -11 C769 -11 823 52 834 146 L822 150 C814 88 777 46 730 46 C697 46 646 79 604 129 L558 183 C624 267 683 375 728 500 L712 500 C668 379 609 276 543 200 L342 434 C332 445 323 456 314 466 L314 468 L314 468 Z M310 471 C249 544 210 596 210 636 C210 699 252 742 315 742 C380 742 423 691 423 614 C423 548 378 490 310 470 L310 471 L310 471 Z M493 148 C426 87 355 53 286 53 C184 53 117 119 117 219 C117 320 170 404 250 433 C259 422 269 410 279 398 L493 148 L493 148 Z " />
<glyph glyph-name="quotesingle" unicode="&#x27;" horiz-adv-x="218" d="" />
<glyph glyph-name="parenleft" unicode="&#x28;" horiz-adv-x="528" d="M320 760 C173 661 75 466 75 273 C75 88 170 -107 313 -214 L317 -206 C202 -119 125 73 125 273 C125 479 205 671 324 752 L320 760 L320 760 Z " />
<glyph glyph-name="parenright" unicode="&#x29;" horiz-adv-x="528" d="M26 752 C145 674 225 482 225 273 C225 61 148 -131 33 -206 L37 -214 C180 -122 275 73 275 273 C275 470 177 665 30 760 L26 752 L26 752 Z " />
<glyph glyph-name="asterisk" unicode="&#x2a;" horiz-adv-x="284" d="M150 630 L171 750 C174 766 166 777 150 777 C134 777 126 766 129 750 L150 630 L150 630 Z M150 630 L243 551 C256 541 270 543 277 556 C285 570 280 583 265 589 L150 630 L150 630 Z M150 630 L57 709 C44 719 30 717 23 704 C15 690 20 677 35 671 L150 630 L150 630 Z M150 630 L265 671 C280 677 285 690 277 704 C270 717 256 719 243 709 L150 630 L150 630 Z M150 630 L35 589 C20 583 15 570 23 556 C30 543 44 541 57 551 L150 630 L150 630 Z M150 630 L129 510 C126 494 134 483 150 483 C166 483 174 494 171 510 L150 630 L150 630 Z " />
<glyph glyph-name="plus" unicode="&#x2b;" horiz-adv-x="651" d="M298 476 L298 275 L100 275 L100 225 L298 225 L298 24 L353 24 L353 225 L551 225 L551 275 L353 275 L353 476 L298 476 L298 476 Z " />
<glyph glyph-name="comma" unicode="&#x2c;" horiz-adv-x="258" d="M174 41 C177 29 179 16 179 2 C179 -64 133 -108 65 -108 L65 -111 C139 -111 188 -63 188 10 C188 52 177 85 159 102 C150 111 139 116 125 116 C89 116 65 92 65 56 C65 20 89 -4 125 -4 C151 -4 169 14 174 42 L174 41 L174 41 Z " />
<glyph glyph-name="hyphen" unicode="&#x2d;" horiz-adv-x="461" d="M80 258 L381 258 L381 312 L80 312 L80 258 L80 258 Z " />
<glyph glyph-name="period" unicode="&#x2e;" horiz-adv-x="195" d="M125 -5 C154 -5 174 15 174 44 C174 74 154 94 125 94 C96 94 76 74 76 44 C76 15 96 -5 125 -5 L125 -5 Z " />
<glyph glyph-name="slash" unicode="&#x2f;" horiz-adv-x="384" d="M313 770 L31 -80 L73 -80 L355 770 L313 770 L313 770 Z " />
<glyph glyph-name="zero" unicode="0" horiz-adv-x="608" d="M305 19 C184 19 80 111 80 250 C80 375 170 481 305 481 C427 481 530 389 530 250 C530 125 440 19 305 19 L305 19 Z M47 250 C47 94 166 -10 305 -10 C460 -10 563 110 563 250 C563 406 444 510 305 510 C150 510 47 390 47 250 L47 250 Z " />
<glyph glyph-name="one" unicode="1" horiz-adv-x="350" d="M210 23 L210 477 C210 490 233 492 268 492 L310 492 C310 492 300 494 285 496 C270 498 260 500 260 500 L175 500 L90 500 C90 500 80 498 65 496 C50 494 40 492 40 492 L82 492 C117 492 140 490 140 477 L140 23 C140 10 117 8 82 8 L40 8 C40 8 50 6 65 4 C80 2 90 0 90 0 L175 0 L260 0 C260 0 270 2 285 4 C300 6 310 8 310 8 L268 8 C233 8 210 10 210 23 L210 23 Z " />
<glyph glyph-name="two" unicode="2" horiz-adv-x="566" d="M59 291 C78 390 153 457 247 457 C337 457 397 405 397 328 C397 208 228 100 30 12 L30 0 L353 0 L420 0 L459 0 C466 11 474 24 481 36 C483 40 485 44 487 48 L487 48 L496 63 L496 63 C502 73 509 83 514 91 C514 91 517 98 522 109 C526 120 529 127 529 127 L503 85 C494 71 470 62 378 62 L160 62 C335 151 466 248 466 344 C466 444 392 510 282 510 C164 510 68 424 43 294 L59 291 L59 291 Z " />
<glyph glyph-name="three" unicode="3" horiz-adv-x="455" d="M18 -218 L20 -232 C257 -207 415 -113 415 3 C415 100 324 177 188 195 L172 188 C316 256 408 324 408 385 C408 460 338 510 233 510 C128 510 43 446 21 351 L36 347 C52 415 120 461 205 461 C282 461 334 421 334 361 C334 295 239 229 96 168 L96 154 C243 134 341 65 341 -17 C341 -117 212 -198 18 -218 L18 -218 Z " />
<glyph glyph-name="four" unicode="4" horiz-adv-x="679" d="M655 1 C657 11 659 21 660 30 C662 48 666 70 668 87 C668 87 667 94 666 103 C665 113 665 120 665 120 L659 77 C657 64 638 55 545 55 L447 55 L447 415 L447 531 L438 531 L16 13 L16 1 L39 1 L377 1 L377 -219 L447 -219 L447 1 L588 1 C638 1 647 -4 646 -12 L640 -54 C640 -54 643 -48 646 -40 C650 -32 652 -26 652 -26 C653 -18 654 -9 655 0 L655 0 L655 1 L655 1 Z M82 54 L376 415 L376 414 L376 54 L82 54 L82 54 Z " />
<glyph glyph-name="five" unicode="5" horiz-adv-x="463" d="M60 -233 C285 -206 434 -93 434 49 C434 183 298 273 94 273 L82 273 L120 437 L373 439 L384 500 L384 500 C385 507 386 514 387 520 C387 520 387 524 385 530 C384 536 383 540 383 540 L380 523 C378 509 360 500 276 500 L106 500 L43 210 L55 199 L86 199 C258 199 372 130 372 25 C372 -99 247 -197 59 -220 L60 -233 L60 -233 Z " />
<glyph glyph-name="six" unicode="6" horiz-adv-x="598" d="M581 750 C265 750 54 566 54 289 C54 110 156 -10 308 -10 C451 -10 546 90 546 239 C546 372 448 461 302 461 C224 461 164 427 133 370 C176 596 345 740 583 740 L581 750 L581 750 Z M122 252 C122 376 193 458 300 458 C405 458 475 372 475 243 C475 93 408 -7 306 -7 C196 -7 122 97 122 252 L122 252 Z " />
<glyph glyph-name="seven" unicode="7" horiz-adv-x="469" d="M133 500 C81 500 73 505 77 513 L89 540 C89 540 86 536 81 530 C75 524 72 520 72 520 C65 504 55 482 48 466 C41 450 31 428 24 412 C24 412 23 405 21 395 C19 386 17 379 17 379 L32 412 C40 431 54 444 96 444 L437 444 L454 469 L114 -220 L167 -220 L465 485 L465 500 L463 500 L133 500 L133 500 Z " />
<glyph glyph-name="eight" unicode="8" horiz-adv-x="573" d="M231 381 C243 376 255 371 268 366 C395 318 480 266 480 159 C480 59 403 -8 288 -8 C177 -8 104 65 104 174 C104 264 154 343 231 381 L231 381 Z M227 383 C115 339 43 259 43 175 C43 65 141 -9 288 -9 C435 -9 533 71 533 191 C533 305 456 365 335 415 C440 457 507 527 507 598 C507 695 418 760 286 760 C155 760 68 689 68 581 C68 499 130 429 227 383 L227 383 Z M331 416 C319 421 306 426 293 431 C192 469 125 533 125 608 C125 698 190 758 287 758 C384 758 449 691 449 591 C449 518 403 451 331 416 L331 416 Z " />
<glyph glyph-name="nine" unicode="9" horiz-adv-x="598" d="M18 -250 C334 -250 545 -66 545 211 C545 390 443 510 291 510 C148 510 53 410 53 261 C53 128 151 39 297 39 C375 39 435 73 466 130 C423 -96 254 -240 16 -240 L18 -250 L18 -250 Z M477 248 C477 124 406 42 299 42 C194 42 124 128 123 257 C124 407 191 507 293 507 C403 507 477 403 477 248 L477 248 Z " />
<glyph glyph-name="colon" unicode="&#x3a;" horiz-adv-x="135" d="M125 385 C154 385 174 405 174 434 C174 464 154 484 125 484 C96 484 76 464 76 434 C76 405 96 385 125 385 L125 385 Z M125 -5 C154 -5 174 15 174 44 C174 74 154 94 125 94 C96 94 76 74 76 44 C76 15 96 -5 125 -5 L125 -5 Z " />
<glyph glyph-name="semicolon" unicode="&#x3b;" horiz-adv-x="258" d="M125 385 C154 385 174 405 174 434 C174 464 154 484 125 484 C96 484 76 464 76 434 C76 405 96 385 125 385 L125 385 Z M174 41 C177 29 179 16 179 2 C179 -64 133 -108 65 -108 L65 -111 C139 -111 188 -63 188 10 C188 52 177 85 159 102 C150 111 139 116 125 116 C89 116 65 92 65 56 C65 20 89 -4 125 -4 C151 -4 169 14 174 42 L174 41 L174 41 Z " />
<glyph glyph-name="equal" unicode="&#x3d;" horiz-adv-x="562" d="M81 216 L81 184 L492 184 L492 216 L81 216 L81 216 Z M81 316 L81 284 L492 284 L492 316 L81 316 L81 316 Z " />
<glyph glyph-name="question" unicode="&#x3f;" horiz-adv-x="301" d="M125 -5 C154 -5 174 15 174 44 C174 74 154 94 125 94 C96 94 76 74 76 44 C76 15 96 -5 125 -5 L125 -5 Z M123 195 L125 360 C214 360 248 395 283 448 C301 474 312 516 312 554 C312 678 245 760 145 760 C105 760 79 739 79 708 C79 688 94 674 117 674 C134 674 153 686 170 686 C243 686 292 630 292 546 C292 529 282 503 268 481 C247 451 220 430 101 430 L111 195 L123 195 L123 195 Z " />
<glyph glyph-name="at" unicode="&#x40;" horiz-adv-x="1198" d="M1090 0 C1023 -142 832 -237 611 -237 C311 -237 110 -39 110 259 C110 557 306 755 599 755 C893 755 1089 590 1089 343 C1089 141 1012 6 896 6 C788 6 734 84 764 200 L834 480 L767 480 L746 397 C730 454 678 490 605 490 C425 490 305 372 305 194 C305 84 380 10 492 10 C578 10 651 54 690 125 C698 37 768 -18 883 -18 C1038 -18 1142 126 1142 343 C1142 602 925 775 598 775 C272 775 54 569 54 259 C54 -51 277 -257 610 -257 C839 -257 1040 -154 1112 0 L1090 0 L1090 0 Z M735 356 L696 200 C674 109 606 49 527 49 C439 49 380 112 380 208 C380 366 469 471 602 471 C682 471 735 425 735 356 L735 356 Z " />
<glyph glyph-name="A" unicode="A" horiz-adv-x="794" d="M657 128 L657 128 L456 725 L441 770 L433 770 C416 745 394 728 378 725 L381 715 L381 715 L194 147 C154 31 110 8 56 8 L14 8 C14 8 20 6 30 4 C40 2 46 0 46 0 L146 0 L150 0 L164 0 L282 0 C282 0 289 2 298 4 C308 6 315 8 315 8 L275 8 C206 8 166 29 194 134 L247 296 L520 296 L580 113 C606 25 575 8 522 8 L482 8 C482 8 489 6 499 4 C508 2 515 0 515 0 L617 0 L637 0 L700 0 L760 0 C760 0 766 2 776 4 C786 6 792 8 792 8 L750 8 C718 8 691 27 657 128 L657 128 Z M248 299 L383 711 L519 299 L248 299 L248 299 Z " />
<glyph glyph-name="B" unicode="B" horiz-adv-x="701" d="M229 748 L322 748 C516 748 562 673 562 561 C562 456 468 386 328 386 L229 386 L229 677 L229 748 L229 748 Z M380 386 C538 398 640 468 640 569 C640 677 581 749 327 749 L229 749 L163 749 L98 749 C98 749 87 747 72 745 C56 743 45 741 45 741 L88 741 C125 741 150 731 150 676 L150 72 C150 17 125 7 88 7 L45 7 C45 7 56 5 72 3 C87 1 98 -1 98 -1 L163 -1 L229 -1 L349 -1 C536 -1 661 36 661 192 C661 307 549 384 381 386 L380 386 L380 386 Z M330 384 L367 384 C492 384 576 308 576 193 C576 38 484 2 347 2 L297 2 C257 2 230 22 230 52 L230 73 L230 384 L330 384 L330 384 Z " />
<glyph glyph-name="C" unicode="C" horiz-adv-x="760" d="M630 708 C580 741 516 760 418 760 C200 760 54 606 54 375 C54 144 195 -10 407 -10 C502 -10 571 10 626 43 C666 65 700 54 707 32 C711 14 714 2 714 2 L714 32 L714 61 L714 120 L714 121 L714 179 C714 179 714 188 713 200 C712 213 712 222 712 222 C712 222 710 213 707 200 C697 157 649 84 594 45 C543 12 483 -7 408 -7 C248 -7 141 146 141 375 C141 604 252 757 419 757 C481 757 529 745 570 724 C637 688 695 603 708 550 C711 538 713 529 713 529 C713 529 713 538 714 550 C715 563 715 572 715 572 L715 630 L715 687 C715 687 715 699 714 716 C713 733 713 745 713 745 C713 745 711 733 708 716 C704 695 672 685 630 710 L630 708 L630 708 Z " />
<glyph glyph-name="D" unicode="D" horiz-adv-x="869" d="M150 677 L150 73 C150 18 125 8 88 8 L45 8 C45 8 56 6 72 4 C87 2 98 0 98 0 L150 0 L163 0 L229 0 L321 0 C617 0 814 127 814 375 C814 600 662 750 367 750 L229 750 L163 750 L150 750 L98 750 C98 750 87 748 72 746 C56 744 45 742 45 742 L88 742 C125 742 150 732 150 677 L150 677 Z M229 748 L358 748 C602 748 728 599 728 375 C728 129 564 2 318 2 C238 2 229 22 229 52 L229 73 L229 677 L229 748 L229 748 Z " />
<glyph glyph-name="E" unicode="E" horiz-adv-x="667" d="M487 0 L595 0 C596 10 598 23 600 32 C601 42 603 55 604 65 C604 65 604 77 605 96 L605 127 L599 85 C592 35 571 2 488 2 L281 2 C234 2 229 22 229 52 L229 73 L229 385 L402 385 C486 385 502 346 502 287 L502 245 C502 245 504 259 506 280 C508 301 510 315 510 315 L510 385 L510 386 L510 388 L510 458 C510 458 508 472 506 493 C504 514 502 528 502 528 L502 485 C502 427 486 388 402 388 L229 388 L229 677 L229 748 L463 748 C563 748 565 710 569 653 L571 623 C571 623 572 635 573 654 C574 673 575 685 575 685 C574 695 573 708 572 718 C572 727 571 740 570 750 L462 750 L229 750 L163 750 L150 750 L98 750 C98 750 87 748 72 746 C56 744 45 742 45 742 L88 742 C125 742 150 732 150 677 L150 73 C150 18 125 8 88 8 L45 8 C45 8 56 6 72 4 C87 2 98 0 98 0 L150 0 L163 0 L229 0 L487 0 L487 0 Z " />
<glyph glyph-name="F" unicode="F" horiz-adv-x="642" d="M427 382 C479 372 492 337 494 288 L496 240 C496 240 497 255 498 276 C499 298 500 313 500 313 L500 382 L500 384 L500 385 L500 456 C500 456 499 470 498 492 C497 513 496 527 496 527 L494 479 C492 423 474 385 392 385 L229 385 L229 677 L229 748 L383 748 C533 748 565 715 570 665 L573 623 C573 623 574 636 574 655 C575 674 576 687 576 687 C575 697 574 709 573 718 C572 728 571 740 570 750 L462 750 L229 750 L163 750 L150 750 L98 750 C98 750 87 748 72 746 C56 744 45 742 45 742 L88 742 C125 742 150 732 150 677 L150 73 C150 18 125 8 88 8 L45 8 C45 8 56 6 72 4 C87 2 98 0 98 0 L150 0 L190 0 L229 0 L281 0 C281 0 292 2 307 4 C323 6 334 8 334 8 L291 8 C254 8 229 18 229 73 L229 382 L427 382 L427 382 Z " />
<glyph glyph-name="G" unicode="G" horiz-adv-x="839" d="M620 257 L621 97 C616 51 555 18 462 10 L562 14 C521 10 474 8 419 8 L462 10 C448 9 434 8 419 8 C253 8 142 154 142 374 C142 603 253 756 420 756 C482 756 530 744 571 723 C638 687 696 602 709 549 C712 537 714 528 714 528 C714 528 714 537 715 549 C716 562 716 571 716 571 L716 629 L716 686 C716 686 716 698 715 715 C714 732 714 744 714 744 C714 744 712 732 709 715 C705 694 673 684 631 709 C581 742 517 761 419 761 C201 761 55 607 55 376 C55 145 198 -9 412 -9 C527 -9 615 6 690 31 L698 33 L698 34 C724 43 748 53 771 64 L770 65 C749 55 725 46 698 38 L698 257 C698 307 715 317 741 317 L783 317 C783 317 774 319 762 321 C749 323 740 325 740 325 L655 325 L570 325 C570 325 560 323 545 321 C530 319 520 317 520 317 L562 317 C597 317 620 307 620 257 L620 257 Z " />
<glyph glyph-name="H" unicode="H" horiz-adv-x="876" d="M731 68 L731 682 C731 732 756 742 794 742 L836 742 C836 742 826 744 810 746 C794 748 784 750 784 750 L692 750 L600 750 C600 750 590 748 574 746 C558 744 548 742 548 742 L590 742 C628 742 653 732 653 682 L653 385 L265 385 L265 682 C265 732 290 742 327 742 L370 742 C370 742 359 744 343 746 C328 748 317 750 317 750 L226 750 L134 750 C134 750 123 748 108 746 C92 744 81 742 81 742 L124 742 C161 742 186 732 186 682 L186 68 C186 18 161 8 124 8 L81 8 C81 8 92 6 108 4 C123 2 134 0 134 0 L226 0 L317 0 C317 0 328 2 343 4 C359 6 370 8 370 8 L327 8 C290 8 265 18 265 68 L265 381 L653 381 L653 68 C653 18 628 8 590 8 L548 8 C548 8 558 6 574 4 C590 2 600 0 600 0 L692 0 L784 0 C784 0 794 2 810 4 C826 6 836 8 836 8 L794 8 C756 8 731 18 731 68 L731 68 Z " />
<glyph glyph-name="I" unicode="I" horiz-adv-x="374" d="M229 68 L229 682 C229 732 254 742 292 742 L334 742 C334 742 324 744 308 746 C292 748 282 750 282 750 L190 750 L98 750 C98 750 88 748 72 746 C56 744 46 742 46 742 L88 742 C126 742 151 732 151 682 L151 68 C151 18 126 8 88 8 L46 8 C46 8 56 6 72 4 C88 2 98 0 98 0 L190 0 L282 0 C282 0 292 2 308 4 C324 6 334 8 334 8 L292 8 C254 8 229 18 229 68 L229 68 Z " />
<glyph glyph-name="J" unicode="J" horiz-adv-x="374" d="M151 682 L151 -52 C151 -190 76 -216 22 -216 C-18 -216 0 -150 -40 -150 C-62 -150 -77 -165 -77 -187 C-77 -207 -39 -220 19 -220 C107 -220 229 -169 229 96 L229 682 C229 732 254 742 292 742 L334 742 C334 742 324 744 308 746 C292 748 282 750 282 750 L190 750 L98 750 C98 750 88 748 72 746 C56 744 46 742 46 742 L88 742 C126 742 151 732 151 682 L151 682 Z " />
<glyph glyph-name="K" unicode="K" horiz-adv-x="785" d="M670 0 L701 0 L746 0 C746 0 752 2 762 4 C772 6 778 8 778 8 L728 8 C710 8 671 34 640 63 L293 422 L514 652 L515 652 C586 728 621 742 654 742 L697 742 C697 742 690 744 680 746 C671 748 664 750 664 750 L609 750 L577 750 L567 750 L469 750 C469 750 463 748 453 746 C443 744 437 742 437 742 L472 742 C529 742 550 724 464 629 L228 375 L228 690 C228 734 253 742 290 742 L333 742 C333 742 322 744 306 746 C291 748 280 750 280 750 L228 750 L189 750 L149 750 L97 750 C97 750 86 748 71 746 C55 744 44 742 44 742 L87 742 C124 742 149 734 149 690 L149 60 C149 16 124 8 87 8 L44 8 C44 8 55 6 71 4 C86 2 97 0 97 0 L149 0 L189 0 L228 0 L280 0 C280 0 291 2 306 4 C322 6 333 8 333 8 L290 8 C253 8 228 16 228 60 L228 375 L594 0 L670 0 L670 0 Z " />
<glyph glyph-name="L" unicode="L" horiz-adv-x="678" d="M603 13 L603 13 C606 24 609 37 612 47 C616 61 621 80 625 94 C625 94 628 111 632 136 C637 161 640 178 640 178 L628 136 C609 62 569 13 431 13 L281 13 C234 13 229 29 229 52 L229 73 L229 677 C229 732 254 742 292 742 L334 742 C334 742 324 744 308 746 C292 748 282 750 282 750 L229 750 L190 750 L151 750 L98 750 C98 750 88 748 72 746 C56 744 46 742 46 742 L88 742 C126 742 151 732 151 677 L151 73 C151 18 126 8 88 8 L46 8 C46 8 56 6 72 4 C88 2 98 0 98 0 L151 0 L164 0 L229 0 L427 0 L600 0 L603 0 L603 13 L603 13 Z " />
<glyph glyph-name="M" unicode="M" horiz-adv-x="919" d="M133 750 L64 750 C64 750 57 748 48 746 C38 744 31 742 31 742 L74 742 C106 742 132 735 154 698 L138 138 L138 138 C135 29 101 8 52 8 L9 8 C9 8 16 6 26 4 C35 2 42 0 42 0 L134 0 L148 0 L162 0 L254 0 C254 0 261 2 270 4 C280 6 287 8 287 8 L244 8 C198 8 166 24 164 105 L174 655 L411 99 L453 0 L473 0 L728 680 L743 73 L743 73 C745 18 719 8 681 8 L638 8 C638 8 649 6 665 4 C680 2 691 0 691 0 L745 0 L782 0 L824 0 L874 0 C874 0 884 2 900 4 C916 6 926 8 926 8 L884 8 C851 8 828 16 822 58 L805 620 C807 722 830 742 864 742 L906 742 C906 742 899 744 889 746 C880 748 873 750 873 750 L801 750 L800 750 L754 750 L726 750 L489 100 L228 750 L176 750 L156 750 L146 750 L133 750 L133 750 Z " />
<glyph glyph-name="N" unicode="N" horiz-adv-x="814" d="M178 750 L160 750 L140 750 L116 750 L81 750 L54 750 C54 750 48 748 38 746 C28 744 22 742 22 742 L79 742 C84 742 91 736 113 707 L113 707 L140 672 L139 138 L139 138 C139 29 106 8 56 8 L14 8 C14 8 21 6 30 4 C40 2 47 0 47 0 L139 0 L151 0 L163 0 L255 0 C255 0 262 2 271 4 C281 6 288 8 288 8 L245 8 C199 8 167 24 162 106 L160 645 L564 111 L648 0 L664 0 L668 642 L669 642 C668 726 701 742 751 742 L794 742 C794 742 781 744 762 746 C744 748 731 750 731 750 L669 750 L657 750 L646 750 L584 750 C584 750 571 748 552 746 C534 744 521 742 521 742 L564 742 C613 742 646 726 646 642 L646 642 L647 130 L626 158 L178 750 L178 750 Z " />
<glyph glyph-name="O" unicode="O" horiz-adv-x="870" d="M421 -7 C255 -7 144 146 144 375 C144 604 258 757 430 757 C607 757 726 604 726 375 C726 146 604 -7 421 -7 L421 -7 Z M55 375 C55 144 201 -10 420 -10 C658 -10 816 144 816 375 C816 606 662 760 430 760 C205 760 55 606 55 375 L55 375 Z " />
<glyph glyph-name="P" unicode="P" horiz-adv-x="650" d="M209 0 L248 0 L301 0 C301 0 311 2 327 4 C343 6 353 8 353 8 L311 8 C273 8 248 18 248 73 L248 348 L306 348 C501 348 631 407 631 540 C631 666 524 750 364 750 L248 750 L183 750 L170 750 L118 750 C118 750 107 748 91 746 C76 744 65 742 65 742 L107 742 C145 742 170 732 170 677 L170 73 C170 18 145 8 107 8 L65 8 C65 8 76 6 91 4 C107 2 118 0 118 0 L170 0 L209 0 L209 0 Z M248 365 L248 677 L248 737 L344 737 C472 737 558 663 558 553 C558 423 457 365 306 365 L248 365 L248 365 Z " />
<glyph glyph-name="Q" unicode="Q" horiz-adv-x="865" d="M1205 -54 L1204 -53 C1175 -78 1045 -94 879 -94 C693 -94 507 -61 401 -9 C408 -10 414 -10 420 -10 C658 -10 816 144 816 375 C816 606 662 760 430 760 C205 760 55 606 55 375 C55 200 203 69 322 16 L321 16 C489 -79 709 -143 871 -143 C1009 -143 1142 -107 1206 -54 L1205 -54 L1205 -54 Z M422 -7 C411 -7 398 -4 384 1 C383 1 382 1 381 1 L378 2 C285 39 144 179 144 374 C144 603 258 756 430 756 C607 756 726 603 726 374 C726 145 604 -8 421 -8 L422 -7 L422 -7 Z " />
<glyph glyph-name="R" unicode="R" horiz-adv-x="796" d="M787 0 L787 6 C692 6 686 8 649 68 C555 215 485 324 459 365 C562 382 627 438 627 538 C627 665 529 749 383 749 L229 749 L163 749 L98 749 C98 749 87 747 72 745 C56 743 45 741 45 741 L88 741 C125 741 150 731 150 676 L150 72 C150 17 125 7 88 7 L45 7 C45 7 56 5 72 3 C87 1 98 -1 98 -1 L190 -1 L281 -1 C281 -1 292 1 307 3 C323 5 334 7 334 7 L291 7 C254 7 229 17 229 72 L229 359 L378 359 C396 325 464 214 558 67 C599 2 608 -1 787 -1 L787 0 L787 0 Z M229 733 L359 733 C468 733 540 661 540 553 C540 433 477 379 383 379 L229 379 L229 676 L229 733 L229 733 Z " />
<glyph glyph-name="S" unicode="S" horiz-adv-x="579" d="M441 709 L440 709 C395 741 333 760 265 760 C147 760 69 684 69 570 C69 487 144 399 291 334 C414 280 477 218 477 166 C477 63 412 -6 314 -6 C262 -6 211 12 167 44 C117 85 72 169 59 222 C56 234 54 243 54 243 C54 243 53 234 53 222 C52 209 51 200 51 200 L51 147 L51 138 L51 75 C51 75 52 60 53 39 C53 17 54 2 54 2 C54 2 56 17 59 39 C63 66 92 80 130 51 L131 51 C182 13 247 -9 315 -9 C450 -9 540 70 540 190 C540 273 472 358 339 417 C202 477 131 545 131 601 C131 695 185 758 266 758 C290 758 314 754 337 747 L336 747 C338 746 340 745 342 744 C349 742 356 739 363 736 L352 740 C419 711 478 627 492 567 C495 555 497 546 497 546 C497 546 498 555 499 567 C499 580 500 589 500 589 L500 642 L500 644 L500 699 C500 699 499 711 499 728 C498 745 497 757 497 757 C497 757 495 745 492 728 C489 705 468 690 443 708 L441 709 L441 709 Z M353 740 L338 745 C340 745 342 744 344 743 C347 742 350 741 353 740 L353 740 Z " />
<glyph glyph-name="T" unicode="T" horiz-adv-x="806" d="M83 788 C82 786 80 783 77 779 C72 773 69 769 69 769 C67 763 65 756 63 749 L56 749 L56 729 L56 729 C55 727 54 725 53 723 C48 710 41 692 36 678 C36 678 34 667 30 651 C28 641 26 633 25 628 L40 667 C54 704 79 729 163 729 L364 729 L364 67 C364 17 339 7 301 7 L259 7 C259 7 270 5 285 3 C301 1 312 -1 312 -1 L403 -1 L495 -1 C495 -1 505 1 521 3 C537 5 547 7 547 7 L505 7 C467 7 442 17 442 67 L442 729 L644 729 C728 729 753 704 766 667 L782 624 C782 624 780 635 776 651 C772 667 770 678 770 678 C765 692 758 710 754 723 C753 725 752 727 751 730 L751 749 L744 749 C742 756 740 763 738 769 C738 769 735 773 731 779 C726 785 723 789 723 789 L729 772 C734 758 722 749 638 749 L443 749 L365 749 L171 749 C87 749 74 758 79 772 L83 788 L83 788 Z M84 787 L85 789 C85 789 85 788 84 787 L84 787 Z M26 628 C25 626 25 625 25 625 L26 628 L26 628 Z " />
<glyph glyph-name="U" unicode="U" horiz-adv-x="766" d="M652 98 L652 677 L652 750 L586 750 L521 750 C521 750 510 748 495 746 C479 744 468 742 468 742 L511 742 C548 742 573 732 573 677 L573 189 C532 99 436 40 335 40 C250 40 194 115 194 226 L194 677 L194 750 L128 750 L63 750 C63 750 52 748 37 746 C21 744 10 742 10 742 L53 742 C90 742 115 732 115 677 L115 226 C115 85 190 -10 303 -10 C420 -10 528 55 573 153 L573 98 L573 0 L586 0 L756 49 L756 53 C669 48 652 54 652 98 L652 98 Z " />
<glyph glyph-name="V" unicode="V" horiz-adv-x="820" d="M97 702 L340 99 L384 -10 L400 -10 L662 622 L662 622 C662 623 662 624 662 625 L669 642 C705 725 732 741 764 741 L806 741 C806 741 799 743 790 745 C780 747 773 749 773 749 L714 749 L683 749 L662 749 L550 749 C550 749 544 747 534 745 C524 743 518 741 518 741 L557 741 C631 741 672 722 632 621 L632 621 L383 -11 L426 98 L214 629 C179 723 220 741 292 741 L331 741 C331 741 325 743 315 745 C305 747 299 749 299 749 L173 749 L166 749 L77 749 L47 749 C47 749 41 747 31 745 C21 743 15 741 15 741 L72 741 C77 741 83 735 96 701 L97 702 L97 702 Z " />
<glyph glyph-name="W" unicode="W" horiz-adv-x="1148" d="M513 702 L589 500 L411 98 L411 100 L208 638 C179 726 213 743 271 743 L311 743 C311 743 304 745 294 747 C285 749 278 751 278 751 L166 751 L164 751 L79 751 L50 751 C50 751 43 749 34 747 C24 745 17 743 17 743 L75 743 C79 743 88 725 123 633 L323 100 L364 -9 L385 -9 L602 468 L735 115 L781 -9 L801 -9 L1003 623 L1004 623 C1034 724 1062 743 1095 743 L1137 743 C1137 743 1130 745 1121 747 C1111 749 1104 751 1104 751 L1044 751 L1012 751 L992 751 L880 751 C880 751 873 749 863 747 C854 745 847 743 847 743 L887 743 C961 743 1004 724 973 623 L973 623 L817 111 L818 115 L617 669 C600 731 635 743 692 743 L732 743 C732 743 725 745 716 747 C706 749 699 751 699 751 L587 751 L568 751 L496 751 L437 751 C437 751 430 749 420 747 C411 745 404 743 404 743 L446 743 C478 743 501 737 514 703 L513 702 L513 702 Z " />
<glyph glyph-name="X" unicode="X" horiz-adv-x="806" d="M629 128 L629 128 L436 409 L669 695 C706 733 730 742 751 742 L793 742 C793 742 787 744 777 746 C767 748 761 750 761 750 L714 750 L679 750 L669 750 L577 750 C577 750 570 748 560 746 C551 744 544 742 544 742 L581 742 C637 742 659 721 578 612 L578 612 L433 413 L282 632 C220 724 240 742 288 742 L325 742 C325 742 318 744 309 746 C299 748 292 750 292 750 L200 750 L181 750 L107 750 L70 750 C70 750 64 748 54 746 C44 744 38 742 38 742 L84 742 C101 742 126 723 195 622 L195 622 L376 358 L187 108 L186 107 C122 23 85 7 48 7 L5 7 C5 7 12 5 22 3 C31 1 38 -1 38 -1 L105 -1 L136 -1 L163 -1 L288 -1 C288 -1 295 1 305 3 C314 5 321 7 321 7 L284 7 C201 7 158 26 224 120 L233 132 C234 133 235 134 236 135 L236 135 L385 341 L538 119 C602 23 582 5 534 5 L497 5 C497 5 503 3 513 1 C523 -1 529 -3 529 -3 L622 -3 L646 -3 L715 -3 L762 -3 C762 -3 769 -1 778 1 C788 3 795 5 795 5 L752 5 C726 5 696 24 627 125 L629 128 L629 128 Z " />
<glyph glyph-name="Y" unicode="Y" horiz-adv-x="749" d="M232 642 C182 725 196 741 232 741 L269 741 C269 741 263 743 253 745 C243 747 237 749 237 749 L164 749 L141 749 L72 749 L44 749 C44 749 38 747 28 745 C18 743 12 741 12 741 L69 741 C74 741 89 722 153 621 L153 621 L342 324 L342 67 C342 17 317 7 280 7 L237 7 C237 7 248 5 264 3 C279 1 290 -1 290 -1 L382 -1 L473 -1 C473 -1 484 1 499 3 C515 5 526 7 526 7 L483 7 C446 7 421 17 421 67 L421 337 L586 621 L586 621 C644 722 672 741 698 741 L740 741 C740 741 734 743 724 745 C714 747 708 749 708 749 L660 749 L654 749 L645 749 L581 749 C581 749 575 747 565 745 C555 743 549 741 549 741 L587 741 C625 741 640 723 586 631 L586 631 L419 342 L232 642 L232 642 Z " />
<glyph glyph-name="Z" unicode="Z" horiz-adv-x="683" d="M495 23 L495 23 L123 18 L641 735 L641 751 L565 751 L228 751 L70 751 C68 735 65 714 63 699 C60 683 58 662 55 646 C55 646 55 629 54 603 C54 577 53 560 53 560 L59 599 C71 675 100 726 209 730 L552 734 L25 17 L25 1 L110 1 L490 1 L637 1 C641 16 646 36 650 50 C653 65 658 85 662 100 C662 100 664 116 668 139 C672 163 674 179 674 179 L661 135 C641 68 607 24 495 24 L495 23 L495 23 Z " />
<glyph glyph-name="bracketleft" unicode="&#x5b;" horiz-adv-x="290" d="M131 729 L341 729 L341 750 L131 750 L106 750 L106 -195 L131 -195 L341 -195 L341 -174 L131 -174 L131 729 L131 729 Z " />
<glyph glyph-name="backslash" unicode="&#x5c;" horiz-adv-x="342" d="M31 770 L291 -80 L333 -80 L73 770 L31 770 L31 770 Z " />
<glyph glyph-name="bracketright" unicode="&#x5d;" horiz-adv-x="293" d="M159 729 L159 -174 L-51 -174 L-51 -195 L159 -195 L184 -195 L184 750 L159 750 L-51 750 L-51 729 L159 729 L159 729 Z " />
<glyph glyph-name="underscore" unicode="&#x5f;" horiz-adv-x="525" d="M5 -50 L5 -89 L521 -89 L521 -50 L5 -50 L5 -50 Z " />
<glyph glyph-name="a" unicode="a" horiz-adv-x="544" d="M554 91 L542 98 C536 66 514 45 487 45 C453 45 431 64 431 93 L431 357 C431 462 370 510 279 510 C152 510 68 414 68 360 C68 331 83 311 105 311 C128 311 143 331 143 346 C143 365 123 386 123 404 C123 441 184 507 275 507 C327 507 362 468 362 382 L362 267 C108 223 48 198 48 85 C48 28 98 -10 173 -10 C237 -10 303 16 361 83 C365 30 403 -4 457 -4 C504 -4 543 35 553 92 L554 91 L554 91 Z M361 266 L360 94 C360 92 360 90 360 88 C321 46 267 29 209 29 C155 29 118 55 118 94 C118 210 164 232 361 267 L361 266 L361 266 Z " />
<glyph glyph-name="b" unicode="b" horiz-adv-x="678" d="M159 0 L163 0 L186 66 L186 65 C224 20 304 -10 388 -10 C535 -10 634 95 634 252 C634 404 535 505 386 505 C343 505 282 471 229 419 L229 684 L229 747 L216 747 L116 719 C116 718 108 714 95 709 C82 703 74 699 74 699 L116 711 C142 719 159 715 159 668 L159 195 L159 0 L159 0 Z M229 409 C275 454 328 484 364 484 C479 484 555 388 555 244 C555 97 489 -1 390 -1 C329 -1 264 27 229 70 L229 195 L229 409 L229 409 Z " />
<glyph glyph-name="c" unicode="c" horiz-adv-x="527" d="M497 128 L487 132 C461 73 389 33 309 33 C194 33 118 128 118 270 C118 404 190 494 299 494 C359 494 412 458 431 405 C439 384 453 370 466 370 C495 370 509 384 501 405 C478 468 399 510 303 510 C149 510 46 401 46 237 C46 89 141 -10 284 -10 C375 -10 460 45 497 128 L497 128 Z " />
<glyph glyph-name="d" unicode="d" horiz-adv-x="624" d="M475 94 C443 52 383 24 324 24 C203 24 123 123 123 271 C123 403 194 490 330 490 C387 490 446 446 476 392 L476 97 L475 94 L475 94 Z M476 68 L476 -11 L488 -11 L588 14 C588 14 597 18 610 23 C622 29 631 32 631 32 L589 22 C563 16 546 27 546 111 L546 667 L546 746 L534 746 L433 718 C433 717 425 713 412 708 C399 702 391 698 391 698 L433 710 C459 717 476 711 476 651 L476 457 C438 487 382 508 322 508 C143 508 51 405 51 250 C51 96 148 -7 294 -7 C370 -7 441 23 476 67 L476 68 L476 68 Z " />
<glyph glyph-name="e" unicode="e" horiz-adv-x="577" d="M128 340 L470 340 L528 340 L548 340 C526 462 439 510 322 510 C156 510 45 399 45 233 C45 87 145 -10 296 -10 C409 -10 505 47 536 133 L527 136 C506 76 420 36 313 36 C196 36 118 126 118 261 C118 289 121 315 127 339 L128 340 L128 340 Z M522 360 C524 360 526 360 528 360 L522 360 L522 360 Z M466 359 L132 355 C160 440 228 492 318 492 C388 492 443 454 465 358 L466 359 L466 359 Z " />
<glyph glyph-name="f" unicode="f" horiz-adv-x="381" d="M194 463 L372 463 L372 500 L194 500 C194 640 238 733 325 733 C399 733 399 635 461 635 C488 635 506 653 506 680 C506 725 443 755 350 755 C201 755 124 653 124 500 L26 471 L26 463 L124 463 L124 23 C124 10 107 8 81 8 L39 8 C39 8 47 6 60 4 C73 2 81 0 81 0 L159 0 L236 0 C236 0 245 2 257 4 C270 6 279 8 279 8 L236 8 C211 8 194 10 194 23 L194 463 L194 463 Z " />
<glyph glyph-name="g" unicode="g" horiz-adv-x="551" d="M149 350 C149 436 198 494 272 494 C347 494 396 436 396 350 C396 262 347 204 272 204 C198 204 149 262 149 350 L149 350 Z M170 8 C176 7 182 7 189 7 L311 7 C417 7 459 -31 459 -89 C459 -164 390 -214 286 -214 C178 -214 106 -159 106 -78 C106 -40 131 -8 170 8 L170 8 Z M154 10 C90 -9 49 -49 49 -93 C49 -175 142 -229 282 -229 C423 -229 516 -166 516 -71 C516 18 461 78 318 78 L193 78 C136 78 98 98 98 128 C98 164 168 189 272 189 C389 189 466 254 466 351 C466 367 464 382 460 396 C483 439 513 466 536 466 C548 466 556 452 556 431 C556 417 569 407 589 407 C606 407 617 420 617 440 C617 473 596 495 565 495 C524 495 481 461 455 411 C429 472 363 510 273 510 C157 510 80 446 80 350 C80 275 126 219 200 197 C113 186 58 152 58 105 C58 55 96 19 155 9 L154 10 L154 10 Z " />
<glyph glyph-name="h" unicode="h" horiz-adv-x="658" d="M468 23 C468 10 451 8 426 8 L383 8 C383 8 392 6 405 4 C417 2 426 0 426 0 L503 0 L581 0 C581 0 589 2 602 4 C615 6 623 8 623 8 L581 8 C555 8 538 10 538 23 L538 345 C538 444 491 510 399 510 C337 510 253 459 190 381 L190 684 L190 747 L177 747 L77 719 C77 718 69 714 56 709 C43 703 35 699 35 699 L77 711 C103 719 120 715 120 668 L120 23 C120 10 103 8 77 8 L35 8 C35 8 43 6 56 4 C69 2 77 0 77 0 L155 0 L232 0 C232 0 241 2 253 4 C266 6 275 8 275 8 L232 8 C207 8 190 10 190 23 L190 378 C231 428 298 461 359 461 C431 461 468 415 468 345 L468 23 L468 23 Z " />
<glyph glyph-name="i" unicode="i" horiz-adv-x="308" d="M164 615 C191 615 209 633 209 660 C209 688 191 706 164 706 C136 706 118 688 118 660 C118 633 136 615 164 615 L164 615 Z M199 23 L199 437 L199 500 L186 500 L86 471 C86 471 78 467 65 461 C52 455 44 451 44 451 L86 464 C112 471 129 467 129 420 L129 23 C129 10 116 8 96 8 L54 8 C54 8 61 6 72 4 C84 2 91 0 91 0 L164 0 L236 0 C236 0 244 2 255 4 C266 6 274 8 274 8 L231 8 C212 8 199 10 199 23 L199 23 Z " />
<glyph glyph-name="j" unicode="j" horiz-adv-x="278" d="M154 615 C181 615 199 633 199 660 C199 688 181 706 154 706 C126 706 108 688 108 660 C108 633 126 615 154 615 L154 615 Z M119 420 L119 41 C119 -39 99 -104 70 -121 C37 -121 -3 -100 -36 -100 C-63 -100 -81 -116 -81 -140 C-81 -169 -57 -187 -21 -185 C-15 -184 27 -162 84 -130 C147 -93 189 -25 189 41 L189 437 L189 500 L176 500 L76 471 C76 471 68 467 55 461 C42 455 34 451 34 451 L76 464 C102 471 119 467 119 420 L119 420 Z " />
<glyph glyph-name="k" unicode="k" horiz-adv-x="622" d="M492 0 L557 0 L572 0 C572 0 579 2 589 4 C598 6 605 8 605 8 L550 8 L539 20 C538 21 537 22 536 23 L536 23 L272 308 L513 482 C526 491 531 492 535 492 L592 492 C592 492 586 494 576 496 C566 498 560 500 560 500 L538 500 L504 500 L455 500 L351 500 C351 500 345 498 335 496 C325 494 319 492 319 492 L350 492 C432 492 458 470 308 358 L201 280 L201 684 L201 747 L188 747 L88 719 C88 718 80 714 67 709 C54 703 46 699 46 699 L88 711 C114 719 131 715 131 668 L131 23 C131 10 118 8 98 8 L56 8 C56 8 63 6 74 4 C86 2 93 0 93 0 L166 0 L238 0 C238 0 246 2 257 4 C268 6 276 8 276 8 L233 8 C214 8 201 10 201 23 L201 280 L444 23 L444 23 C456 10 442 8 417 8 L381 8 C381 8 387 6 397 4 C407 2 413 0 413 0 L466 0 L492 0 L492 0 Z " />
<glyph glyph-name="l" unicode="l" horiz-adv-x="298" d="M189 23 L189 684 L189 747 L176 747 L76 719 C76 718 68 714 55 709 C42 703 34 699 34 699 L76 711 C102 719 119 715 119 668 L119 23 C119 10 104 8 81 8 L39 8 C39 8 47 6 59 4 C71 2 79 0 79 0 L154 0 L229 0 C229 0 237 2 249 4 C261 6 269 8 269 8 L226 8 C204 8 189 10 189 23 L189 23 Z " />
<glyph glyph-name="m" unicode="m" horiz-adv-x="964" d="M784 43 C784 14 771 8 752 8 L709 8 C709 8 717 6 728 4 C739 2 747 0 747 0 L822 0 L897 0 C897 0 905 2 918 4 C931 6 939 8 939 8 L897 8 C871 8 854 14 854 43 L854 345 C854 444 812 510 703 510 C651 510 576 462 515 388 C504 463 460 511 367 511 C317 511 243 462 183 387 L183 438 L183 501 L170 501 L70 465 C70 465 62 460 49 453 C36 446 28 441 28 441 L70 457 C96 466 113 463 113 417 L113 44 C113 15 96 9 70 9 L28 9 C28 9 36 7 49 5 C62 3 70 1 70 1 L144 1 L218 1 C218 1 225 3 235 5 C246 7 253 9 253 9 L210 9 C194 9 183 15 183 44 L183 384 C219 429 282 459 339 459 C417 459 448 414 448 346 L448 44 C448 15 435 9 416 9 L373 9 C373 9 381 7 392 5 C403 3 411 1 411 1 L481 1 L551 1 C551 1 557 3 567 5 C577 7 583 9 583 9 L541 9 C527 9 518 15 518 44 L518 346 C518 360 517 373 515 386 C552 430 615 459 674 459 C752 459 783 414 783 346 L784 43 L784 43 Z " />
<glyph glyph-name="n" unicode="n" horiz-adv-x="628" d="M448 23 C448 10 433 8 411 8 L368 8 C368 8 376 6 388 4 C400 2 408 0 408 0 L483 0 L558 0 C558 0 566 2 578 4 C590 6 598 8 598 8 L556 8 C533 8 518 10 518 23 L518 337 C518 441 467 510 367 510 C322 510 248 457 183 377 L183 437 L183 500 L170 500 L70 464 C70 464 62 459 49 452 C36 445 28 440 28 440 L70 456 C96 465 113 462 113 416 L113 23 C113 10 98 8 75 8 L33 8 C33 8 41 6 53 4 C65 2 73 0 73 0 L148 0 L223 0 C223 0 231 2 243 4 C255 6 263 8 263 8 L220 8 C198 8 183 10 183 23 L183 367 C237 433 303 477 348 477 C414 477 448 421 448 337 L448 23 L448 23 Z " />
<glyph glyph-name="o" unicode="o" horiz-adv-x="640" d="M320 -7 C201 -7 122 96 122 250 C122 404 201 507 320 507 C439 507 518 404 518 250 C518 96 439 -7 320 -7 L320 -7 Z M45 250 C45 94 155 -10 320 -10 C485 -10 595 94 595 250 C595 406 485 510 320 510 C155 510 45 406 45 250 L45 250 Z " />
<glyph glyph-name="p" unicode="p" horiz-adv-x="639" d="M184 438 L184 500 L171 500 L71 464 C71 464 63 459 50 452 C37 445 29 440 29 440 L71 456 C97 465 114 462 114 416 L114 -175 C114 -206 97 -212 71 -212 L29 -212 C29 -212 37 -214 50 -216 C63 -218 71 -220 71 -220 L149 -220 L226 -220 C226 -220 235 -218 247 -216 C260 -214 269 -212 269 -212 L226 -212 C201 -212 184 -206 184 -175 L184 95 C221 35 284 -4 348 -4 C495 -4 594 116 594 257 C594 409 495 511 348 511 C280 511 218 483 185 439 L184 438 L184 438 Z M185 103 L185 410 C216 453 267 481 316 481 C437 481 518 382 518 233 C518 106 450 -2 348 -2 C285 -2 222 39 186 102 L185 103 L185 103 Z " />
<glyph glyph-name="q" unicode="q" horiz-adv-x="657" d="M527 -197 L527 399 L527 440 L527 500 L523 500 L500 440 C459 482 387 510 319 510 C140 510 48 407 48 252 C48 98 145 -5 290 -5 C370 -5 433 19 457 57 L457 -197 C457 -210 440 -212 414 -212 L372 -212 C372 -212 380 -214 393 -216 C406 -218 414 -220 414 -220 L492 -220 L569 -220 C569 -220 578 -218 590 -216 C603 -214 612 -212 612 -212 L569 -212 C544 -212 527 -210 527 -197 L527 -197 Z M457 399 L457 82 C435 47 383 25 318 25 C199 25 119 124 119 273 C119 406 185 495 314 495 C369 495 425 457 456 400 L457 399 L457 399 Z " />
<glyph glyph-name="r" unicode="r" horiz-adv-x="462" d="M189 385 L189 437 L189 500 L176 500 L76 464 C76 464 68 459 55 452 C42 445 34 440 34 440 L76 456 C102 465 119 462 119 416 L119 23 C119 10 106 8 86 8 L44 8 C44 8 51 6 62 4 C74 2 81 0 81 0 L156 0 L231 0 C231 0 240 2 252 4 C265 6 274 8 274 8 L231 8 C206 8 189 10 189 23 L189 380 C223 439 275 477 324 477 C352 477 371 463 371 442 C371 418 387 401 412 401 C436 401 453 418 453 442 C453 483 414 510 356 510 C297 510 231 461 189 385 L189 385 Z " />
<glyph glyph-name="s" unicode="s" horiz-adv-x="469" d="M329 487 L327 487 C298 501 262 509 224 509 C133 509 73 458 73 382 C73 319 129 258 236 222 C321 194 365 150 365 106 C365 37 320 -9 252 -9 C235 -9 218 -6 202 -1 L207 -2 C130 20 79 98 79 150 L79 167 C79 167 77 160 75 150 C73 141 71 134 71 134 L71 93 L71 92 L71 50 C71 50 73 42 75 29 C77 16 79 8 79 8 L79 29 C79 36 112 30 161 8 L162 8 C189 -4 219 -11 251 -11 C351 -11 418 44 418 125 C418 186 366 243 266 276 C170 307 121 356 121 407 C121 467 162 507 223 507 C246 507 269 502 290 493 L224 506 C249 506 271 501 291 493 L290 493 C295 491 299 489 303 487 C354 460 384 410 384 367 L384 351 C384 351 386 357 388 367 C390 377 392 383 392 383 L392 424 L392 432 L392 482 C392 482 390 487 388 495 C386 504 384 509 384 509 L384 480 C384 470 362 468 328 486 L329 487 L329 487 Z " />
<glyph glyph-name="t" unicode="t" horiz-adv-x="380" d="M338 500 L169 500 L169 620 L164 620 L34 481 L34 471 L99 471 L99 147 C99 34 153 -10 235 -10 C290 -10 345 28 371 84 L363 88 C344 49 302 23 256 23 C203 23 167 53 167 131 L169 463 L338 463 L338 500 L338 500 Z " />
<glyph glyph-name="u" unicode="u" horiz-adv-x="620" d="M446 78 L446 -10 L458 -10 L558 15 C558 15 567 19 580 24 C592 30 601 33 601 33 L558 23 C533 17 516 25 516 92 L516 477 L516 500 L464 500 L413 500 C413 500 406 498 396 496 C386 494 380 492 380 492 L422 492 C436 492 446 490 446 477 L446 128 C419 74 355 39 282 39 C213 39 167 89 167 165 L167 477 L167 500 L115 500 L63 500 C63 500 57 498 47 496 C37 494 30 492 30 492 L73 492 C87 492 97 490 97 477 L97 165 C97 60 158 -10 249 -10 C333 -10 410 43 446 124 L446 78 L446 78 Z " />
<glyph glyph-name="v" unicode="v" horiz-adv-x="576" d="M81 474 L260 -10 L281 -10 L469 455 C484 486 503 492 527 492 L570 492 C570 492 563 494 553 496 C544 498 537 500 537 500 L488 500 L465 500 L456 500 L393 500 C393 500 387 498 377 496 C367 494 361 492 361 492 L400 492 C432 492 451 487 441 462 L441 462 L294 79 L159 467 L159 467 C151 489 161 493 178 493 L222 493 C222 493 216 495 206 497 C196 499 190 501 190 501 L147 501 L113 501 L71 501 L36 501 C36 501 30 499 20 497 C10 495 4 493 4 493 L54 493 C64 493 73 490 80 475 L81 474 L81 474 Z " />
<glyph glyph-name="w" unicode="w" horiz-adv-x="894" d="M392 473 L435 350 L435 350 L327 78 L192 480 C189 490 192 492 197 492 L250 492 C250 492 244 494 234 496 C224 498 218 500 218 500 L185 500 L147 500 L106 500 L76 500 C76 500 69 498 59 496 C50 494 43 492 43 492 L99 492 C104 492 109 490 114 478 L292 -9 L313 -9 L447 316 L560 -9 L580 -9 L768 447 L768 447 C783 486 804 493 830 493 L872 493 C872 493 866 495 856 497 C846 499 840 501 840 501 L790 501 L767 501 L757 501 L695 501 C695 501 688 499 679 497 C669 495 662 493 662 493 L702 493 C732 493 751 489 745 469 L594 79 L470 474 L470 474 C464 490 467 493 473 493 L527 493 C527 493 520 495 511 497 C501 499 494 501 494 501 L461 501 L423 501 L383 501 L352 501 C352 501 346 499 336 497 C326 495 320 493 320 493 L375 493 C381 493 386 490 392 474 L392 473 L392 473 Z " />
<glyph glyph-name="x" unicode="x" horiz-adv-x="607" d="M118 52 L117 52 C89 15 71 8 54 8 L8 8 C8 8 14 6 24 4 C34 2 40 0 40 0 L77 0 L108 0 L109 0 L177 0 C177 0 183 2 193 4 C203 6 209 8 209 8 L172 8 C141 8 123 13 138 39 L273 222 L402 46 C424 14 415 8 395 8 L356 8 C356 8 362 6 372 4 C382 2 388 0 388 0 L436 0 L468 0 L521 0 L548 0 C548 0 555 2 564 4 C574 6 581 8 581 8 L523 8 C519 8 511 15 486 48 L321 273 L449 448 L450 448 C475 485 492 492 511 492 L557 492 C557 492 550 494 540 496 C531 498 524 500 524 500 L487 500 L461 500 L455 500 L398 500 C398 500 391 498 381 496 C372 494 365 492 365 492 L402 492 C431 492 445 485 421 451 L421 451 L309 289 L188 454 C166 486 175 492 195 492 L234 492 C234 492 228 494 218 496 C208 498 202 500 202 500 L154 500 L127 500 L69 500 L52 500 C52 500 45 498 35 496 C26 494 19 492 19 492 L75 492 L262 237 L118 52 L118 52 Z " />
<glyph glyph-name="y" unicode="y" horiz-adv-x="596" d="M82 473 L275 -10 L224 -140 C218 -155 206 -165 194 -165 C177 -165 170 -140 154 -140 C130 -140 114 -154 114 -175 C114 -201 130 -218 155 -218 C190 -218 222 -194 236 -159 L295 -10 L490 460 C504 487 523 492 545 492 L588 492 C588 492 581 494 571 496 C562 498 555 500 555 500 L506 500 L483 500 L474 500 L411 500 C411 500 405 498 395 496 C385 494 379 492 379 492 L418 492 C450 492 469 487 459 462 L459 462 L274 -10 L308 78 L159 466 L160 466 C151 488 160 492 177 492 L221 492 C221 492 215 494 205 496 C195 498 189 500 189 500 L146 500 L112 500 L70 500 L35 500 C35 500 29 498 19 496 C9 494 3 492 3 492 L53 492 C64 492 73 489 81 473 L82 473 L82 473 Z " />
<glyph glyph-name="z" unicode="z" horiz-adv-x="506" d="M312 22 L313 22 L127 18 L466 484 L466 500 L395 500 L110 500 C105 500 99 504 100 510 L108 538 C107 536 105 533 103 529 C99 523 96 519 96 519 C95 513 93 506 91 499 L84 499 L84 474 L84 474 L84 474 C80 460 75 442 72 428 C72 428 69 418 65 403 C61 388 58 378 58 378 L77 420 C91 451 114 473 180 477 L383 482 L41 16 L41 0 L115 0 L396 0 L462 0 C464 11 466 25 467 36 C469 47 471 61 472 72 L477 97 L482 122 L466 79 C453 45 423 22 313 22 L312 22 L312 22 Z M109 538 L109 540 C109 540 109 539 108 538 L109 538 L109 538 Z " />
<glyph glyph-name="bar" unicode="&#x7c;" horiz-adv-x="174" d="M60 797 L60 -250 L114 -250 L114 797 L60 797 L60 797 Z " />
<glyph glyph-name="exclamdown" unicode="&#xa1;" horiz-adv-x="225" d="M113 505 C83 505 64 485 63 456 C64 426 83 406 113 406 C143 406 162 426 162 456 C162 485 143 505 113 505 L113 505 Z M113 -255 C152 -255 160 -217 156 -159 L119 290 L106 290 L70 -159 C66 -217 74 -255 113 -255 L113 -255 Z " />
<glyph glyph-name="cent" unicode="&#xa2;" horiz-adv-x="527" d="M275 575 L275 509 C137 497 46 392 46 238 C46 93 137 -5 275 -9 L275 -74 L300 -74 L300 -8 C385 -2 462 51 497 129 L487 133 C461 74 389 34 309 34 C306 34 303 34 300 34 L300 495 C360 495 413 459 432 406 C440 385 454 371 467 371 C496 371 510 385 502 406 C479 469 400 511 304 511 C303 511 302 511 301 511 L301 576 L275 575 L275 575 Z M276 37 C180 54 119 144 119 271 C119 395 181 481 276 493 L276 37 L276 37 Z " />
<glyph glyph-name="questiondown" unicode="&#xbf;" horiz-adv-x="301" d="M177 505 C147 505 128 485 127 456 C128 426 147 406 177 406 C206 406 226 426 226 456 C226 485 206 505 177 505 L177 505 Z M179 305 L177 140 C88 140 54 105 18 52 C1 26 -10 -16 -11 -54 C-10 -178 56 -260 157 -260 C196 -260 223 -239 223 -208 C223 -188 208 -174 185 -174 C168 -174 148 -186 131 -186 C58 -186 10 -130 10 -46 C10 -29 19 -3 34 19 C55 49 82 70 201 70 L191 305 L179 305 L179 305 Z " />
<glyph glyph-name="Agrave" unicode="&#xc0;" horiz-adv-x="794" d="M657 128 L657 128 L456 725 L441 770 L433 770 C416 745 394 728 378 725 L381 715 L381 715 L194 147 C154 31 110 8 56 8 L14 8 C14 8 20 6 30 4 C40 2 46 0 46 0 L146 0 L150 0 L164 0 L282 0 C282 0 289 2 298 4 C308 6 315 8 315 8 L275 8 C206 8 166 29 194 134 L247 296 L520 296 L580 113 C606 25 575 8 522 8 L482 8 C482 8 489 6 499 4 C508 2 515 0 515 0 L617 0 L637 0 L700 0 L760 0 C760 0 766 2 776 4 C786 6 792 8 792 8 L750 8 C718 8 691 27 657 128 L657 128 Z M311 966 C279 1007 254 1034 247 1034 C229 1034 213 1018 213 1000 C213 993 239 968 279 934 L420 813 L429 822 L311 966 L311 966 Z M248 299 L383 711 L519 299 L248 299 L248 299 Z " />
<glyph glyph-name="Aacute" unicode="&#xc1;" horiz-adv-x="794" d="M424 813 L565 934 C605 969 632 994 632 1000 C632 1018 616 1034 597 1034 C592 1034 567 1007 533 966 L416 822 L424 813 L424 813 Z M657 128 L657 128 L456 725 L441 770 L433 770 C416 745 394 728 378 725 L381 715 L381 715 L194 147 C154 31 110 8 56 8 L14 8 C14 8 20 6 30 4 C40 2 46 0 46 0 L146 0 L150 0 L164 0 L282 0 C282 0 289 2 298 4 C308 6 315 8 315 8 L275 8 C206 8 166 29 194 134 L247 296 L520 296 L580 113 C606 25 575 8 522 8 L482 8 C482 8 489 6 499 4 C508 2 515 0 515 0 L617 0 L637 0 L700 0 L760 0 C760 0 766 2 776 4 C786 6 792 8 792 8 L750 8 C718 8 691 27 657 128 L657 128 Z M248 299 L383 711 L519 299 L248 299 L248 299 Z " />
<glyph glyph-name="Acircumflex" unicode="&#xc2;" horiz-adv-x="794" d="M657 128 L657 128 L456 725 L441 770 L433 770 C416 745 394 728 378 725 L381 715 L381 715 L194 147 C154 31 110 8 56 8 L14 8 C14 8 20 6 30 4 C40 2 46 0 46 0 L146 0 L150 0 L164 0 L282 0 C282 0 289 2 298 4 C308 6 315 8 315 8 L275 8 C206 8 166 29 194 134 L247 296 L520 296 L580 113 C606 25 575 8 522 8 L482 8 C482 8 489 6 499 4 C508 2 515 0 515 0 L617 0 L637 0 L700 0 L760 0 C760 0 766 2 776 4 C786 6 792 8 792 8 L750 8 C718 8 691 27 657 128 L657 128 Z M417 958 L558 807 L568 815 L442 1009 C437 1017 425 1034 417 1034 C410 1034 397 1017 393 1010 L266 815 L276 807 L417 958 L417 958 Z M248 299 L383 711 L519 299 L248 299 L248 299 Z " />
<glyph glyph-name="Atilde" unicode="&#xc3;" horiz-adv-x="794" d="M252 870 C252 908 273 933 305 933 C372 933 442 868 509 868 C554 868 584 912 584 977 L583 977 C583 941 560 917 525 917 C458 917 389 982 321 982 C278 982 250 937 250 870 L252 870 L252 870 Z M657 128 L657 128 L456 725 L441 770 L433 770 C416 745 394 728 378 725 L381 715 L381 715 L194 147 C154 31 110 8 56 8 L14 8 C14 8 20 6 30 4 C40 2 46 0 46 0 L146 0 L150 0 L164 0 L282 0 C282 0 289 2 298 4 C308 6 315 8 315 8 L275 8 C206 8 166 29 194 134 L247 296 L520 296 L580 113 C606 25 575 8 522 8 L482 8 C482 8 489 6 499 4 C508 2 515 0 515 0 L617 0 L637 0 L700 0 L760 0 C760 0 766 2 776 4 C786 6 792 8 792 8 L750 8 C718 8 691 27 657 128 L657 128 Z M248 299 L383 711 L519 299 L248 299 L248 299 Z " />
<glyph glyph-name="Adieresis" unicode="&#xc4;" horiz-adv-x="794" d="M491 865 C519 865 537 883 537 910 C537 938 519 956 491 956 C464 956 446 938 446 910 C446 883 464 865 491 865 L491 865 Z M343 865 C370 865 388 883 388 910 C388 938 370 956 343 956 C316 956 298 938 298 910 C298 883 316 865 343 865 L343 865 Z M657 128 L657 128 L456 725 L441 770 L433 770 C416 745 394 728 378 725 L381 715 L381 715 L194 147 C154 31 110 8 56 8 L14 8 C14 8 20 6 30 4 C40 2 46 0 46 0 L146 0 L150 0 L164 0 L282 0 C282 0 289 2 298 4 C308 6 315 8 315 8 L275 8 C206 8 166 29 194 134 L247 296 L520 296 L580 113 C606 25 575 8 522 8 L482 8 C482 8 489 6 499 4 C508 2 515 0 515 0 L617 0 L637 0 L700 0 L760 0 C760 0 766 2 776 4 C786 6 792 8 792 8 L750 8 C718 8 691 27 657 128 L657 128 Z M248 299 L383 711 L519 299 L248 299 L248 299 Z " />
<glyph glyph-name="Aring" unicode="&#xc5;" horiz-adv-x="794" d="M417 826 C376 826 341 862 341 905 C341 952 371 984 417 984 C463 984 494 952 494 905 C494 862 459 826 417 826 L417 826 Z M320 905 C320 854 365 810 417 810 C469 810 514 854 514 905 C514 962 475 1000 417 1000 C359 1000 320 962 320 905 L320 905 Z M657 128 L657 128 L456 725 L441 770 L433 770 C416 745 394 728 378 725 L381 715 L381 715 L194 147 C154 31 110 8 56 8 L14 8 C14 8 20 6 30 4 C40 2 46 0 46 0 L146 0 L150 0 L164 0 L282 0 C282 0 289 2 298 4 C308 6 315 8 315 8 L275 8 C206 8 166 29 194 134 L247 296 L520 296 L580 113 C606 25 575 8 522 8 L482 8 C482 8 489 6 499 4 C508 2 515 0 515 0 L617 0 L637 0 L700 0 L760 0 C760 0 766 2 776 4 C786 6 792 8 792 8 L750 8 C718 8 691 27 657 128 L657 128 Z M248 299 L383 711 L519 299 L248 299 L248 299 Z " />
<glyph glyph-name="Egrave" unicode="&#xc8;" horiz-adv-x="667" d="M254 966 C222 1007 197 1034 191 1034 C172 1034 156 1018 156 1000 C156 993 182 968 222 934 L363 813 L372 822 L254 966 L254 966 Z M487 0 L595 0 C596 10 598 23 600 32 C601 42 603 55 604 65 C604 65 604 77 605 96 L605 127 L599 85 C592 35 571 2 488 2 L281 2 C234 2 229 22 229 52 L229 73 L229 385 L402 385 C486 385 502 346 502 287 L502 245 C502 245 504 259 506 280 C508 301 510 315 510 315 L510 385 L510 386 L510 388 L510 458 C510 458 508 472 506 493 C504 514 502 528 502 528 L502 485 C502 427 486 388 402 388 L229 388 L229 677 L229 748 L463 748 C563 748 565 710 569 653 L571 623 C571 623 572 635 573 654 C574 673 575 685 575 685 C574 695 573 708 572 718 C572 727 571 740 570 750 L462 750 L229 750 L163 750 L150 750 L98 750 C98 750 87 748 72 746 C56 744 45 742 45 742 L88 742 C125 742 150 732 150 677 L150 73 C150 18 125 8 88 8 L45 8 C45 8 56 6 72 4 C87 2 98 0 98 0 L150 0 L163 0 L229 0 L487 0 L487 0 Z " />
<glyph glyph-name="Eacute" unicode="&#xc9;" horiz-adv-x="667" d="M367 813 L508 934 C548 969 575 994 575 1000 C575 1018 559 1034 540 1034 C535 1034 510 1007 476 966 L359 822 L367 813 L367 813 Z M487 0 L595 0 C596 10 598 23 600 32 C601 42 603 55 604 65 C604 65 604 77 605 96 L605 127 L599 85 C592 35 571 2 488 2 L281 2 C234 2 229 22 229 52 L229 73 L229 385 L402 385 C486 385 502 346 502 287 L502 245 C502 245 504 259 506 280 C508 301 510 315 510 315 L510 385 L510 386 L510 388 L510 458 C510 458 508 472 506 493 C504 514 502 528 502 528 L502 485 C502 427 486 388 402 388 L229 388 L229 677 L229 748 L463 748 C563 748 565 710 569 653 L571 623 C571 623 572 635 573 654 C574 673 575 685 575 685 C574 695 573 708 572 718 C572 727 571 740 570 750 L462 750 L229 750 L163 750 L150 750 L98 750 C98 750 87 748 72 746 C56 744 45 742 45 742 L88 742 C125 742 150 732 150 677 L150 73 C150 18 125 8 88 8 L45 8 C45 8 56 6 72 4 C87 2 98 0 98 0 L150 0 L163 0 L229 0 L487 0 L487 0 Z " />
<glyph glyph-name="Ecircumflex" unicode="&#xca;" horiz-adv-x="667" d="M360 958 L501 807 L511 815 L385 1009 C380 1017 368 1034 360 1034 C353 1034 341 1017 336 1010 L210 815 L219 807 L360 958 L360 958 Z M487 0 L595 0 C596 10 598 23 600 32 C601 42 603 55 604 65 C604 65 604 77 605 96 L605 127 L599 85 C592 35 571 2 488 2 L281 2 C234 2 229 22 229 52 L229 73 L229 385 L402 385 C486 385 502 346 502 287 L502 245 C502 245 504 259 506 280 C508 301 510 315 510 315 L510 385 L510 386 L510 388 L510 458 C510 458 508 472 506 493 C504 514 502 528 502 528 L502 485 C502 427 486 388 402 388 L229 388 L229 677 L229 748 L463 748 C563 748 565 710 569 653 L571 623 C571 623 572 635 573 654 C574 673 575 685 575 685 C574 695 573 708 572 718 C572 727 571 740 570 750 L462 750 L229 750 L163 750 L150 750 L98 750 C98 750 87 748 72 746 C56 744 45 742 45 742 L88 742 C125 742 150 732 150 677 L150 73 C150 18 125 8 88 8 L45 8 C45 8 56 6 72 4 C87 2 98 0 98 0 L150 0 L163 0 L229 0 L487 0 L487 0 Z " />
<glyph glyph-name="Edieresis" unicode="&#xcb;" horiz-adv-x="667" d="M435 865 C462 865 480 883 480 910 C480 938 462 956 435 956 C407 956 389 938 389 910 C389 883 407 865 435 865 L435 865 Z M286 865 C313 865 331 883 331 910 C331 938 313 956 286 956 C259 956 241 938 241 910 C241 883 259 865 286 865 L286 865 Z M487 0 L595 0 C596 10 598 23 600 32 C601 42 603 55 604 65 C604 65 604 77 605 96 L605 127 L599 85 C592 35 571 2 488 2 L281 2 C234 2 229 22 229 52 L229 73 L229 385 L402 385 C486 385 502 346 502 287 L502 245 C502 245 504 259 506 280 C508 301 510 315 510 315 L510 385 L510 386 L510 388 L510 458 C510 458 508 472 506 493 C504 514 502 528 502 528 L502 485 C502 427 486 388 402 388 L229 388 L229 677 L229 748 L463 748 C563 748 565 710 569 653 L571 623 C571 623 572 635 573 654 C574 673 575 685 575 685 C574 695 573 708 572 718 C572 727 571 740 570 750 L462 750 L229 750 L163 750 L150 750 L98 750 C98 750 87 748 72 746 C56 744 45 742 45 742 L88 742 C125 742 150 732 150 677 L150 73 C150 18 125 8 88 8 L45 8 C45 8 56 6 72 4 C87 2 98 0 98 0 L150 0 L163 0 L229 0 L487 0 L487 0 Z " />
<glyph glyph-name="Igrave" unicode="&#xcc;" horiz-adv-x="374" d="M84 966 C51 1007 27 1034 20 1034 C1 1034 -15 1018 -15 1000 C-15 993 12 968 52 934 L193 813 L202 822 L84 966 L84 966 Z M229 68 L229 682 C229 732 254 742 292 742 L334 742 C334 742 324 744 308 746 C292 748 282 750 282 750 L190 750 L98 750 C98 750 88 748 72 746 C56 744 46 742 46 742 L88 742 C126 742 151 732 151 682 L151 68 C151 18 126 8 88 8 L46 8 C46 8 56 6 72 4 C88 2 98 0 98 0 L190 0 L282 0 C282 0 292 2 308 4 C324 6 334 8 334 8 L292 8 C254 8 229 18 229 68 L229 68 Z " />
<glyph glyph-name="Iacute" unicode="&#xcd;" horiz-adv-x="374" d="M197 813 L338 934 C378 969 405 994 405 1000 C405 1018 389 1034 370 1034 C365 1034 340 1007 306 966 L188 822 L197 813 L197 813 Z M229 68 L229 682 C229 732 254 742 292 742 L334 742 C334 742 324 744 308 746 C292 748 282 750 282 750 L190 750 L98 750 C98 750 88 748 72 746 C56 744 46 742 46 742 L88 742 C126 742 151 732 151 682 L151 68 C151 18 126 8 88 8 L46 8 C46 8 56 6 72 4 C88 2 98 0 98 0 L190 0 L282 0 C282 0 292 2 308 4 C324 6 334 8 334 8 L292 8 C254 8 229 18 229 68 L229 68 Z " />
<glyph glyph-name="Icircumflex" unicode="&#xce;" horiz-adv-x="374" d="M190 958 L331 807 L341 815 L215 1009 C210 1017 198 1034 190 1034 C182 1034 170 1017 165 1010 L39 815 L49 807 L190 958 L190 958 Z M229 68 L229 682 C229 732 254 742 292 742 L334 742 C334 742 324 744 308 746 C292 748 282 750 282 750 L190 750 L98 750 C98 750 88 748 72 746 C56 744 46 742 46 742 L88 742 C126 742 151 732 151 682 L151 68 C151 18 126 8 88 8 L46 8 C46 8 56 6 72 4 C88 2 98 0 98 0 L190 0 L282 0 C282 0 292 2 308 4 C324 6 334 8 334 8 L292 8 C254 8 229 18 229 68 L229 68 Z " />
<glyph glyph-name="Idieresis" unicode="&#xcf;" horiz-adv-x="374" d="M264 865 C292 865 310 883 310 910 C310 938 292 956 264 956 C237 956 219 938 219 910 C219 883 237 865 264 865 L264 865 Z M116 865 C143 865 161 883 161 910 C161 938 143 956 116 956 C88 956 70 938 70 910 C70 883 88 865 116 865 L116 865 Z M229 68 L229 682 C229 732 254 742 292 742 L334 742 C334 742 324 744 308 746 C292 748 282 750 282 750 L190 750 L98 750 C98 750 88 748 72 746 C56 744 46 742 46 742 L88 742 C126 742 151 732 151 682 L151 68 C151 18 126 8 88 8 L46 8 C46 8 56 6 72 4 C88 2 98 0 98 0 L190 0 L282 0 C282 0 292 2 308 4 C324 6 334 8 334 8 L292 8 C254 8 229 18 229 68 L229 68 Z " />
<glyph glyph-name="Ntilde" unicode="&#xd1;" horiz-adv-x="814" d="M239 870 C239 908 260 933 292 933 C360 933 429 868 496 868 C542 868 572 912 572 977 L570 977 C570 941 547 917 512 917 C445 917 376 982 308 982 C265 982 237 937 237 870 L239 870 L239 870 Z M178 750 L160 750 L140 750 L116 750 L81 750 L54 750 C54 750 48 748 38 746 C28 744 22 742 22 742 L79 742 C84 742 91 736 113 707 L113 707 L140 672 L139 138 L139 138 C139 29 106 8 56 8 L14 8 C14 8 21 6 30 4 C40 2 47 0 47 0 L139 0 L151 0 L163 0 L255 0 C255 0 262 2 271 4 C281 6 288 8 288 8 L245 8 C199 8 167 24 162 106 L160 645 L564 111 L648 0 L664 0 L668 642 L669 642 C668 726 701 742 751 742 L794 742 C794 742 781 744 762 746 C744 748 731 750 731 750 L669 750 L657 750 L646 750 L584 750 C584 750 571 748 552 746 C534 744 521 742 521 742 L564 742 C613 742 646 726 646 642 L646 642 L647 130 L626 158 L178 750 L178 750 Z " />
<glyph glyph-name="Ograve" unicode="&#xd2;" horiz-adv-x="870" d="M421 -7 C255 -7 144 146 144 375 C144 604 258 757 430 757 C607 757 726 604 726 375 C726 146 604 -7 421 -7 L421 -7 Z M55 375 C55 144 201 -10 420 -10 C658 -10 816 144 816 375 C816 606 662 760 430 760 C205 760 55 606 55 375 L55 375 Z M324 966 C292 1007 267 1034 260 1034 C242 1034 226 1018 226 1000 C226 993 252 968 292 934 L433 813 L442 822 L324 966 L324 966 Z " />
<glyph glyph-name="Oacute" unicode="&#xd3;" horiz-adv-x="870" d="M437 813 L578 934 C618 969 645 994 645 1000 C645 1018 629 1034 610 1034 C605 1034 580 1007 546 966 L429 822 L437 813 L437 813 Z M421 -7 C255 -7 144 146 144 375 C144 604 258 757 430 757 C607 757 726 604 726 375 C726 146 604 -7 421 -7 L421 -7 Z M55 375 C55 144 201 -10 420 -10 C658 -10 816 144 816 375 C816 606 662 760 430 760 C205 760 55 606 55 375 L55 375 Z " />
<glyph glyph-name="Ocircumflex" unicode="&#xd4;" horiz-adv-x="870" d="M421 -7 C255 -7 144 146 144 375 C144 604 258 757 430 757 C607 757 726 604 726 375 C726 146 604 -7 421 -7 L421 -7 Z M55 375 C55 144 201 -10 420 -10 C658 -10 816 144 816 375 C816 606 662 760 430 760 C205 760 55 606 55 375 L55 375 Z M430 958 L571 807 L581 815 L455 1009 C450 1017 438 1034 430 1034 C423 1034 411 1017 406 1010 L279 815 L289 807 L430 958 L430 958 Z " />
<glyph glyph-name="Otilde" unicode="&#xd5;" horiz-adv-x="870" d="M265 870 C265 908 286 933 318 933 C385 933 455 868 522 868 C567 868 597 912 597 977 L596 977 C596 941 573 917 538 917 C471 917 402 982 334 982 C291 982 263 937 263 870 L265 870 L265 870 Z M421 -7 C255 -7 144 146 144 375 C144 604 258 757 430 757 C607 757 726 604 726 375 C726 146 604 -7 421 -7 L421 -7 Z M55 375 C55 144 201 -10 420 -10 C658 -10 816 144 816 375 C816 606 662 760 430 760 C205 760 55 606 55 375 L55 375 Z " />
<glyph glyph-name="Odieresis" unicode="&#xd6;" horiz-adv-x="870" d="M504 865 C532 865 550 883 550 910 C550 938 532 956 504 956 C477 956 459 938 459 910 C459 883 477 865 504 865 L504 865 Z M356 865 C383 865 401 883 401 910 C401 938 383 956 356 956 C329 956 311 938 311 910 C311 883 329 865 356 865 L356 865 Z M421 -7 C255 -7 144 146 144 375 C144 604 258 757 430 757 C607 757 726 604 726 375 C726 146 604 -7 421 -7 L421 -7 Z M55 375 C55 144 201 -10 420 -10 C658 -10 816 144 816 375 C816 606 662 760 430 760 C205 760 55 606 55 375 L55 375 Z " />
<glyph glyph-name="Oslash" unicode="&#xd8;" horiz-adv-x="870" d="M56 -12 L159 92 C223 27 313 -10 420 -10 C658 -10 816 144 816 375 C816 489 778 584 712 651 L817 758 L813 762 L708 655 C641 722 545 760 430 760 C205 760 55 606 55 375 C55 259 92 163 156 96 L53 -8 L56 -12 L56 -12 Z M421 -7 C325 -7 247 44 199 132 L672 610 C707 547 726 467 726 374 C726 145 604 -8 421 -8 L421 -7 L421 -7 Z M196 136 C163 199 144 280 144 374 C144 603 258 756 430 756 C534 756 618 704 670 615 L196 136 L196 136 Z " />
<glyph glyph-name="Ugrave" unicode="&#xd9;" horiz-adv-x="766" d="M278 966 C245 1007 220 1034 214 1034 C195 1034 179 1018 179 1000 C179 993 206 968 245 934 L386 813 L395 822 L278 966 L278 966 Z M652 98 L652 677 L652 750 L586 750 L521 750 C521 750 510 748 495 746 C479 744 468 742 468 742 L511 742 C548 742 573 732 573 677 L573 189 C532 99 436 40 335 40 C250 40 194 115 194 226 L194 677 L194 750 L128 750 L63 750 C63 750 52 748 37 746 C21 744 10 742 10 742 L53 742 C90 742 115 732 115 677 L115 226 C115 85 190 -10 303 -10 C420 -10 528 55 573 153 L573 98 L573 0 L586 0 L756 49 L756 53 C669 48 652 54 652 98 L652 98 Z " />
<glyph glyph-name="Uacute" unicode="&#xda;" horiz-adv-x="766" d="M391 813 L531 934 C571 969 598 994 598 1000 C598 1018 582 1034 563 1034 C558 1034 533 1007 499 966 L382 822 L391 813 L391 813 Z M652 98 L652 677 L652 750 L586 750 L521 750 C521 750 510 748 495 746 C479 744 468 742 468 742 L511 742 C548 742 573 732 573 677 L573 189 C532 99 436 40 335 40 C250 40 194 115 194 226 L194 677 L194 750 L128 750 L63 750 C63 750 52 748 37 746 C21 744 10 742 10 742 L53 742 C90 742 115 732 115 677 L115 226 C115 85 190 -10 303 -10 C420 -10 528 55 573 153 L573 98 L573 0 L586 0 L756 49 L756 53 C669 48 652 54 652 98 L652 98 Z " />
<glyph glyph-name="Ucircumflex" unicode="&#xdb;" horiz-adv-x="766" d="M384 959 L526 807 L535 815 L409 1009 C404 1017 392 1034 384 1034 C377 1034 365 1017 360 1010 L234 815 L243 807 L384 959 L384 959 Z M653 98 L653 677 L653 750 L587 750 L522 750 C522 750 511 748 496 746 C480 744 469 742 469 742 L512 742 C549 742 574 732 574 677 L574 189 C533 99 437 40 336 40 C251 40 195 115 195 226 L195 677 L195 750 L129 750 L64 750 C64 750 53 748 38 746 C22 744 11 742 11 742 L54 742 C91 742 116 732 116 677 L116 226 C116 85 191 -10 304 -10 C421 -10 529 55 574 153 L574 98 L574 0 L587 0 L757 49 L757 53 C670 48 653 54 653 98 L653 98 Z " />
<glyph glyph-name="Udieresis" unicode="&#xdc;" horiz-adv-x="766" d="M458 865 C485 865 503 883 503 910 C503 938 485 956 458 956 C430 956 412 938 412 910 C412 883 430 865 458 865 L458 865 Z M309 865 C336 865 354 883 354 910 C354 938 336 956 309 956 C282 956 264 938 264 910 C264 883 282 865 309 865 L309 865 Z M652 98 L652 677 L652 750 L586 750 L521 750 C521 750 510 748 495 746 C479 744 468 742 468 742 L511 742 C548 742 573 732 573 677 L573 189 C532 99 436 40 335 40 C250 40 194 115 194 226 L194 677 L194 750 L128 750 L63 750 C63 750 52 748 37 746 C21 744 10 742 10 742 L53 742 C90 742 115 732 115 677 L115 226 C115 85 190 -10 303 -10 C420 -10 528 55 573 153 L573 98 L573 0 L586 0 L756 49 L756 53 C669 48 652 54 652 98 L652 98 Z " />
<glyph glyph-name="Yacute" unicode="&#xdd;" horiz-adv-x="749" d="M389 813 L530 934 C569 969 596 994 596 1000 C596 1018 580 1034 561 1034 C556 1034 531 1007 497 966 L380 822 L389 813 L389 813 Z M232 642 C182 725 196 741 232 741 L269 741 C269 741 263 743 253 745 C243 747 237 749 237 749 L164 749 L141 749 L72 749 L44 749 C44 749 38 747 28 745 C18 743 12 741 12 741 L69 741 C74 741 89 722 153 621 L153 621 L342 324 L342 67 C342 17 317 7 280 7 L237 7 C237 7 248 5 264 3 C279 1 290 -1 290 -1 L382 -1 L473 -1 C473 -1 484 1 499 3 C515 5 526 7 526 7 L483 7 C446 7 421 17 421 67 L421 337 L586 621 L586 621 C644 722 672 741 698 741 L740 741 C740 741 734 743 724 745 C714 747 708 749 708 749 L660 749 L654 749 L645 749 L581 749 C581 749 575 747 565 745 C555 743 549 741 549 741 L587 741 C625 741 640 723 586 631 L586 631 L419 342 L232 642 L232 642 Z " />
<glyph glyph-name="agrave" unicode="&#xe0;" horiz-adv-x="589" d="M193 716 C160 757 135 784 129 784 C110 784 94 768 94 750 C94 743 121 718 161 684 L301 563 L310 572 L193 716 L193 716 Z M440 93 C408 51 354 23 303 23 C194 23 122 122 122 270 C122 402 185 489 307 489 C376 489 426 449 440 396 L440 98 L440 93 L440 93 Z M440 69 L440 -10 L452 -10 L552 15 C552 15 561 19 574 24 C586 30 595 33 595 33 L553 23 C527 17 510 28 510 112 L510 450 L510 510 L502 510 L447 457 C414 489 362 510 299 510 C134 510 50 407 50 252 C50 98 139 -5 273 -5 C340 -5 405 25 439 69 L440 69 L440 69 Z " />
<glyph glyph-name="aacute" unicode="&#xe1;" horiz-adv-x="589" d="M306 563 L447 684 C486 719 513 744 513 750 C513 768 497 784 478 784 C473 784 448 757 414 716 L297 572 L306 563 L306 563 Z M440 93 C408 51 354 23 303 23 C194 23 122 122 122 270 C122 402 185 489 307 489 C376 489 426 449 440 396 L440 98 L440 93 L440 93 Z M440 69 L440 -10 L452 -10 L552 15 C552 15 561 19 574 24 C586 30 595 33 595 33 L553 23 C527 17 510 28 510 112 L510 450 L510 510 L502 510 L447 457 C414 489 362 510 299 510 C134 510 50 407 50 252 C50 98 139 -5 273 -5 C340 -5 405 25 439 69 L440 69 L440 69 Z " />
<glyph glyph-name="acircumflex" unicode="&#xe2;" horiz-adv-x="589" d="M299 709 L441 557 L450 565 L324 759 C319 767 307 784 300 784 C292 784 280 767 275 760 L149 565 L158 557 L299 709 L299 709 Z M441 93 C409 51 355 23 304 23 C195 23 123 122 123 270 C123 402 186 489 308 489 C377 489 427 449 441 396 L441 98 L441 93 L441 93 Z M441 69 L441 -10 L453 -10 L553 15 C553 15 562 19 575 24 C587 30 596 33 596 33 L554 23 C528 17 511 28 511 112 L511 450 L511 510 L503 510 L448 457 C415 489 363 510 300 510 C135 510 51 407 51 252 C51 98 140 -5 274 -5 C341 -5 406 25 440 69 L441 69 L441 69 Z " />
<glyph glyph-name="atilde" unicode="&#xe3;" horiz-adv-x="589" d="M133 620 C133 658 154 683 186 683 C254 683 323 618 391 618 C436 618 466 662 466 727 L464 727 C464 691 441 667 407 667 C339 667 270 732 202 732 C160 732 131 687 131 620 L133 620 L133 620 Z M440 93 C408 51 354 23 303 23 C194 23 122 122 122 270 C122 402 185 489 307 489 C376 489 426 449 440 396 L440 98 L440 93 L440 93 Z M440 69 L440 -10 L452 -10 L552 15 C552 15 561 19 574 24 C586 30 595 33 595 33 L553 23 C527 17 510 28 510 112 L510 450 L510 510 L502 510 L447 457 C414 489 362 510 299 510 C134 510 50 407 50 252 C50 98 139 -5 273 -5 C340 -5 405 25 439 69 L440 69 L440 69 Z " />
<glyph glyph-name="adieresis" unicode="&#xe4;" horiz-adv-x="589" d="M373 615 C400 615 418 633 418 660 C418 688 400 706 373 706 C346 706 328 688 328 660 C328 633 346 615 373 615 L373 615 Z M224 615 C252 615 270 633 270 660 C270 688 252 706 224 706 C197 706 179 688 179 660 C179 633 197 615 224 615 L224 615 Z M440 93 C408 51 354 23 303 23 C194 23 122 122 122 270 C122 402 185 489 307 489 C376 489 426 449 440 396 L440 98 L440 93 L440 93 Z M440 69 L440 -10 L452 -10 L552 15 C552 15 561 19 574 24 C586 30 595 33 595 33 L553 23 C527 17 510 28 510 112 L510 450 L510 510 L502 510 L447 457 C414 489 362 510 299 510 C134 510 50 407 50 252 C50 98 139 -5 273 -5 C340 -5 405 25 439 69 L440 69 L440 69 Z " />
<glyph glyph-name="aring" unicode="&#xe5;" horiz-adv-x="589" d="M299 576 C257 576 222 612 222 655 C222 702 253 734 299 734 C344 734 375 702 375 655 C375 612 340 576 299 576 L299 576 Z M201 655 C201 604 246 560 299 560 C351 560 396 604 396 655 C396 712 357 750 299 750 C240 750 201 712 201 655 L201 655 Z M440 93 C408 51 354 23 303 23 C194 23 122 122 122 270 C122 402 185 489 307 489 C376 489 426 449 440 396 L440 98 L440 93 L440 93 Z M440 69 L440 -10 L452 -10 L552 15 C552 15 561 19 574 24 C586 30 595 33 595 33 L553 23 C527 17 510 28 510 112 L510 450 L510 510 L502 510 L447 457 C414 489 362 510 299 510 C134 510 50 407 50 252 C50 98 139 -5 273 -5 C340 -5 405 25 439 69 L440 69 L440 69 Z " />
<glyph glyph-name="egrave" unicode="&#xe8;" horiz-adv-x="577" d="M216 716 C183 757 158 784 152 784 C133 784 117 768 117 750 C117 743 144 718 184 684 L324 563 L333 572 L216 716 L216 716 Z M128 340 L470 340 L528 340 L548 340 C526 462 439 510 322 510 C156 510 45 399 45 233 C45 87 145 -10 296 -10 C409 -10 505 47 536 133 L527 136 C506 76 420 36 313 36 C196 36 118 126 118 261 C118 289 121 315 127 339 L128 340 L128 340 Z M522 360 C524 360 526 360 528 360 L522 360 L522 360 Z M466 359 L132 355 C160 440 228 492 318 492 C388 492 443 454 465 358 L466 359 L466 359 Z " />
<glyph glyph-name="eacute" unicode="&#xe9;" horiz-adv-x="577" d="M329 563 L470 684 C509 719 536 744 536 750 C536 768 520 784 501 784 C496 784 471 757 438 716 L320 572 L329 563 L329 563 Z M128 340 L470 340 L528 340 L548 340 C526 462 439 510 322 510 C156 510 45 399 45 233 C45 87 145 -10 296 -10 C409 -10 505 47 536 133 L527 136 C506 76 420 36 313 36 C196 36 118 126 118 261 C118 289 121 315 127 339 L128 340 L128 340 Z M522 360 C524 360 526 360 528 360 L522 360 L522 360 Z M466 359 L132 355 C160 440 228 492 318 492 C388 492 443 454 465 358 L466 359 L466 359 Z " />
<glyph glyph-name="ecircumflex" unicode="&#xea;" horiz-adv-x="577" d="M322 709 L464 557 L473 565 L347 759 C343 767 330 784 323 784 C315 784 303 767 298 760 L172 565 L181 557 L322 709 L322 709 Z M129 340 L471 340 L529 340 L549 340 C527 462 440 510 323 510 C157 510 46 399 46 233 C46 87 146 -10 297 -10 C410 -10 506 47 537 133 L528 136 C507 76 421 36 314 36 C197 36 119 126 119 261 C119 289 122 315 128 339 L129 340 L129 340 Z M523 360 C525 360 527 360 529 360 L523 360 L523 360 Z M467 359 L133 355 C161 440 229 492 319 492 C389 492 444 454 466 358 L467 359 L467 359 Z " />
<glyph glyph-name="edieresis" unicode="&#xeb;" horiz-adv-x="577" d="M396 615 C423 615 441 633 441 660 C441 688 423 706 396 706 C369 706 351 688 351 660 C351 633 369 615 396 615 L396 615 Z M247 615 C275 615 293 633 293 660 C293 688 275 706 247 706 C220 706 202 688 202 660 C202 633 220 615 247 615 L247 615 Z M128 340 L470 340 L528 340 L548 340 C526 462 439 510 322 510 C156 510 45 399 45 233 C45 87 145 -10 296 -10 C409 -10 505 47 536 133 L527 136 C506 76 420 36 313 36 C196 36 118 126 118 261 C118 289 121 315 127 339 L128 340 L128 340 Z M522 360 C524 360 526 360 528 360 L522 360 L522 360 Z M466 359 L132 355 C160 440 228 492 318 492 C388 492 443 454 465 358 L466 359 L466 359 Z " />
<glyph glyph-name="igrave" unicode="&#xec;" horiz-adv-x="298" d="M48 716 C15 757 -10 784 -16 784 C-35 784 -51 768 -51 750 C-51 743 -24 718 15 684 L156 563 L165 572 L48 716 L48 716 Z M189 23 L189 396 L189 500 L176 500 L37 445 L37 441 C106 444 119 439 119 396 L119 23 C119 10 104 8 81 8 L39 8 C39 8 47 6 59 4 C71 2 79 0 79 0 L154 0 L230 0 C230 0 238 2 251 4 C264 6 272 8 272 8 L229 8 C205 8 189 10 189 23 L189 23 Z " />
<glyph glyph-name="iacute" unicode="&#xed;" horiz-adv-x="298" d="M48 716 C15 757 -10 784 -16 784 C-35 784 -51 768 -51 750 C-51 743 -24 718 15 684 L156 563 L165 572 L48 716 L48 716 Z M189 23 L189 396 L189 500 L176 500 L37 445 L37 441 C106 444 119 439 119 396 L119 23 C119 10 104 8 81 8 L39 8 C39 8 47 6 59 4 C71 2 79 0 79 0 L154 0 L230 0 C230 0 238 2 251 4 C264 6 272 8 272 8 L229 8 C205 8 189 10 189 23 L189 23 Z " />
<glyph glyph-name="icircumflex" unicode="&#xee;" horiz-adv-x="298" d="M154 709 L296 557 L305 565 L179 759 C174 767 162 784 155 784 C147 784 135 767 130 760 L4 565 L13 557 L154 709 L154 709 Z M190 23 L190 396 L190 500 L177 500 L38 445 L38 441 C107 444 120 439 120 396 L120 23 C120 10 105 8 82 8 L40 8 C40 8 48 6 60 4 C72 2 80 0 80 0 L155 0 L231 0 C231 0 239 2 252 4 C265 6 273 8 273 8 L230 8 C206 8 190 10 190 23 L190 23 Z " />
<glyph glyph-name="idieresis" unicode="&#xef;" horiz-adv-x="298" d="M228 615 C255 615 273 633 273 660 C273 688 255 706 228 706 C200 706 182 688 182 660 C182 633 200 615 228 615 L228 615 Z M79 615 C107 615 125 633 125 660 C125 688 107 706 79 706 C52 706 34 688 34 660 C34 633 52 615 79 615 L79 615 Z M189 23 L189 396 L189 500 L176 500 L37 445 L37 441 C106 444 119 439 119 396 L119 23 C119 10 104 8 81 8 L39 8 C39 8 47 6 59 4 C71 2 79 0 79 0 L154 0 L230 0 C230 0 238 2 251 4 C264 6 272 8 272 8 L229 8 C205 8 189 10 189 23 L189 23 Z " />
<glyph glyph-name="ntilde" unicode="&#xf1;" horiz-adv-x="628" d="M150 620 C150 658 171 683 203 683 C271 683 340 618 408 618 C453 618 483 662 483 727 L481 727 C481 691 458 667 424 667 C356 667 287 732 219 732 C177 732 148 687 148 620 L150 620 L150 620 Z M448 23 C448 10 433 8 411 8 L368 8 C368 8 376 6 388 4 C400 2 408 0 408 0 L483 0 L558 0 C558 0 566 2 578 4 C590 6 598 8 598 8 L556 8 C533 8 518 10 518 23 L518 337 C518 441 467 510 367 510 C322 510 248 457 183 377 L183 437 L183 500 L170 500 L70 464 C70 464 62 459 49 452 C36 445 28 440 28 440 L70 456 C96 465 113 462 113 416 L113 23 C113 10 98 8 75 8 L33 8 C33 8 41 6 53 4 C65 2 73 0 73 0 L148 0 L223 0 C223 0 231 2 243 4 C255 6 263 8 263 8 L220 8 C198 8 183 10 183 23 L183 367 C237 433 303 477 348 477 C414 477 448 421 448 337 L448 23 L448 23 Z " />
<glyph glyph-name="ograve" unicode="&#xf2;" horiz-adv-x="640" d="M320 -7 C201 -7 122 96 122 250 C122 404 201 507 320 507 C439 507 518 404 518 250 C518 96 439 -7 320 -7 L320 -7 Z M45 250 C45 94 155 -10 320 -10 C485 -10 595 94 595 250 C595 406 485 510 320 510 C155 510 45 406 45 250 L45 250 Z M214 716 C181 757 157 784 150 784 C131 784 115 768 115 750 C115 743 142 718 182 684 L323 563 L332 572 L214 716 L214 716 Z " />
<glyph glyph-name="oacute" unicode="&#xf3;" horiz-adv-x="640" d="M327 563 L468 684 C508 719 535 744 535 750 C535 768 519 784 500 784 C495 784 470 757 436 716 L318 572 L327 563 L327 563 Z M320 -7 C201 -7 122 96 122 250 C122 404 201 507 320 507 C439 507 518 404 518 250 C518 96 439 -7 320 -7 L320 -7 Z M45 250 C45 94 155 -10 320 -10 C485 -10 595 94 595 250 C595 406 485 510 320 510 C155 510 45 406 45 250 L45 250 Z " />
<glyph glyph-name="ocircumflex" unicode="&#xf4;" horiz-adv-x="640" d="M320 -7 C201 -7 122 96 122 250 C122 404 201 507 320 507 C439 507 518 404 518 250 C518 96 439 -7 320 -7 L320 -7 Z M45 250 C45 94 155 -10 320 -10 C485 -10 595 94 595 250 C595 406 485 510 320 510 C155 510 45 406 45 250 L45 250 Z M320 708 L461 557 L471 565 L345 759 C340 767 328 784 320 784 C312 784 300 767 295 760 L169 565 L179 557 L320 708 L320 708 Z " />
<glyph glyph-name="otilde" unicode="&#xf5;" horiz-adv-x="640" d="M155 620 C155 658 176 683 208 683 C275 683 345 618 412 618 C457 618 487 662 487 727 L485 727 C485 691 462 667 428 667 C361 667 291 732 224 732 C181 732 153 687 153 620 L155 620 L155 620 Z M320 -7 C201 -7 122 96 122 250 C122 404 201 507 320 507 C439 507 518 404 518 250 C518 96 439 -7 320 -7 L320 -7 Z M45 250 C45 94 155 -10 320 -10 C485 -10 595 94 595 250 C595 406 485 510 320 510 C155 510 45 406 45 250 L45 250 Z " />
<glyph glyph-name="odieresis" unicode="&#xf6;" horiz-adv-x="640" d="M394 615 C422 615 440 633 440 660 C440 688 422 706 394 706 C367 706 349 688 349 660 C349 633 367 615 394 615 L394 615 Z M246 615 C273 615 291 633 291 660 C291 688 273 706 246 706 C218 706 200 688 200 660 C200 633 218 615 246 615 L246 615 Z M320 -7 C201 -7 122 96 122 250 C122 404 201 507 320 507 C439 507 518 404 518 250 C518 96 439 -7 320 -7 L320 -7 Z M45 250 C45 94 155 -10 320 -10 C485 -10 595 94 595 250 C595 406 485 510 320 510 C155 510 45 406 45 250 L45 250 Z " />
<glyph glyph-name="oslash" unicode="&#xf8;" horiz-adv-x="640" d="M46 -11 L122 60 C170 15 238 -11 320 -11 C485 -11 595 93 595 249 C595 326 568 390 521 435 L597 507 L594 509 L518 438 C470 483 402 509 320 509 C155 509 45 405 45 249 C45 172 72 108 119 63 L43 -9 L46 -11 L46 -11 Z M320 -7 C248 -7 191 30 157 93 L485 402 C506 361 518 309 518 249 C518 95 439 -8 320 -8 L320 -7 L320 -7 Z M155 96 C134 137 122 189 122 249 C122 403 201 506 320 506 C392 506 449 469 483 406 L155 96 L155 96 Z " />
<glyph glyph-name="ugrave" unicode="&#xf9;" horiz-adv-x="620" d="M200 716 C168 757 143 784 136 784 C118 784 102 768 102 750 C102 743 128 718 168 684 L309 563 L318 572 L200 716 L200 716 Z M446 78 L446 -10 L458 -10 L558 15 C558 15 567 19 580 24 C592 30 601 33 601 33 L558 23 C533 17 516 25 516 92 L516 477 L516 500 L464 500 L413 500 C413 500 406 498 396 496 C386 494 380 492 380 492 L422 492 C436 492 446 490 446 477 L446 128 C419 74 355 39 282 39 C213 39 167 89 167 165 L167 477 L167 500 L115 500 L63 500 C63 500 57 498 47 496 C37 494 30 492 30 492 L73 492 C87 492 97 490 97 477 L97 165 C97 60 158 -10 249 -10 C333 -10 410 43 446 124 L446 78 L446 78 Z " />
<glyph glyph-name="uacute" unicode="&#xfa;" horiz-adv-x="620" d="M313 563 L454 684 C494 719 521 744 521 750 C521 768 505 784 486 784 C481 784 456 757 422 716 L305 572 L313 563 L313 563 Z M446 78 L446 -10 L458 -10 L558 15 C558 15 567 19 580 24 C592 30 601 33 601 33 L558 23 C533 17 516 25 516 92 L516 477 L516 500 L464 500 L413 500 C413 500 406 498 396 496 C386 494 380 492 380 492 L422 492 C436 492 446 490 446 477 L446 128 C419 74 355 39 282 39 C213 39 167 89 167 165 L167 477 L167 500 L115 500 L63 500 C63 500 57 498 47 496 C37 494 30 492 30 492 L73 492 C87 492 97 490 97 477 L97 165 C97 60 158 -10 249 -10 C333 -10 410 43 446 124 L446 78 L446 78 Z " />
<glyph glyph-name="ucircumflex" unicode="&#xfb;" horiz-adv-x="620" d="M306 708 L447 557 L457 565 L331 759 C326 767 314 784 306 784 C299 784 286 767 282 760 L155 565 L165 557 L306 708 L306 708 Z M446 78 L446 -10 L458 -10 L558 15 C558 15 567 19 580 24 C592 30 601 33 601 33 L558 23 C533 17 516 25 516 92 L516 477 L516 500 L464 500 L413 500 C413 500 406 498 396 496 C386 494 380 492 380 492 L422 492 C436 492 446 490 446 477 L446 128 C419 74 355 39 282 39 C213 39 167 89 167 165 L167 477 L167 500 L115 500 L63 500 C63 500 57 498 47 496 C37 494 30 492 30 492 L73 492 C87 492 97 490 97 477 L97 165 C97 60 158 -10 249 -10 C333 -10 410 43 446 124 L446 78 L446 78 Z " />
<glyph glyph-name="udieresis" unicode="&#xfc;" horiz-adv-x="620" d="M380 615 C408 615 426 633 426 660 C426 688 408 706 380 706 C353 706 335 688 335 660 C335 633 353 615 380 615 L380 615 Z M232 615 C259 615 277 633 277 660 C277 688 259 706 232 706 C205 706 187 688 187 660 C187 633 205 615 232 615 L232 615 Z M446 78 L446 -10 L458 -10 L558 15 C558 15 567 19 580 24 C592 30 601 33 601 33 L558 23 C533 17 516 25 516 92 L516 477 L516 500 L464 500 L413 500 C413 500 406 498 396 496 C386 494 380 492 380 492 L422 492 C436 492 446 490 446 477 L446 128 C419 74 355 39 282 39 C213 39 167 89 167 165 L167 477 L167 500 L115 500 L63 500 C63 500 57 498 47 496 C37 494 30 492 30 492 L73 492 C87 492 97 490 97 477 L97 165 C97 60 158 -10 249 -10 C333 -10 410 43 446 124 L446 78 L446 78 Z " />
<glyph glyph-name="ydieresis" unicode="&#xff;" horiz-adv-x="596" d="M385 615 C413 615 431 633 431 660 C431 688 413 706 385 706 C358 706 340 688 340 660 C340 633 358 615 385 615 L385 615 Z M237 615 C264 615 282 633 282 660 C282 688 264 706 237 706 C209 706 191 688 191 660 C191 633 209 615 237 615 L237 615 Z M82 473 L275 -10 L224 -140 C218 -155 206 -165 194 -165 C177 -165 170 -140 154 -140 C130 -140 114 -154 114 -175 C114 -201 130 -218 155 -218 C190 -218 222 -194 236 -159 L295 -10 L490 460 C504 487 523 492 545 492 L588 492 C588 492 581 494 571 496 C562 498 555 500 555 500 L506 500 L483 500 L474 500 L411 500 C411 500 405 498 395 496 C385 494 379 492 379 492 L418 492 C450 492 469 487 459 462 L459 462 L274 -10 L308 78 L159 466 L160 466 C151 488 160 492 177 492 L221 492 C221 492 215 494 205 496 C195 498 189 500 189 500 L146 500 L112 500 L70 500 L35 500 C35 500 29 498 19 496 C9 494 3 492 3 492 L53 492 C64 492 73 489 81 473 L82 473 L82 473 Z " />
<glyph glyph-name="Amacron" unicode="&#x100;" horiz-adv-x="794" d="M244 898 L591 898 L591 947 L244 947 L244 898 L244 898 Z M657 128 L657 128 L456 725 L441 770 L433 770 C416 745 394 728 378 725 L381 715 L381 715 L194 147 C154 31 110 8 56 8 L14 8 C14 8 20 6 30 4 C40 2 46 0 46 0 L146 0 L150 0 L164 0 L282 0 C282 0 289 2 298 4 C308 6 315 8 315 8 L275 8 C206 8 166 29 194 134 L247 296 L520 296 L580 113 C606 25 575 8 522 8 L482 8 C482 8 489 6 499 4 C508 2 515 0 515 0 L617 0 L637 0 L700 0 L760 0 C760 0 766 2 776 4 C786 6 792 8 792 8 L750 8 C718 8 691 27 657 128 L657 128 Z M248 299 L383 711 L519 299 L248 299 L248 299 Z " />
<glyph glyph-name="amacron" unicode="&#x101;" horiz-adv-x="589" d="M125 648 L472 648 L472 697 L125 697 L125 648 L125 648 Z M440 93 C408 51 354 23 303 23 C194 23 122 122 122 270 C122 402 185 489 307 489 C376 489 426 449 440 396 L440 98 L440 93 L440 93 Z M440 69 L440 -10 L452 -10 L552 15 C552 15 561 19 574 24 C586 30 595 33 595 33 L553 23 C527 17 510 28 510 112 L510 450 L510 510 L502 510 L447 457 C414 489 362 510 299 510 C134 510 50 407 50 252 C50 98 139 -5 273 -5 C340 -5 405 25 439 69 L440 69 L440 69 Z " />
<glyph glyph-name="Abreve" unicode="&#x102;" horiz-adv-x="794" d="M270 994 C275 925 334 878 417 878 C500 878 559 924 565 993 L550 995 C547 954 494 927 417 927 C340 927 287 955 284 997 L270 994 L270 994 Z M657 128 L657 128 L456 725 L441 770 L433 770 C416 745 394 728 378 725 L381 715 L381 715 L194 147 C154 31 110 8 56 8 L14 8 C14 8 20 6 30 4 C40 2 46 0 46 0 L146 0 L150 0 L164 0 L282 0 C282 0 289 2 298 4 C308 6 315 8 315 8 L275 8 C206 8 166 29 194 134 L247 296 L520 296 L580 113 C606 25 575 8 522 8 L482 8 C482 8 489 6 499 4 C508 2 515 0 515 0 L617 0 L637 0 L700 0 L760 0 C760 0 766 2 776 4 C786 6 792 8 792 8 L750 8 C718 8 691 27 657 128 L657 128 Z M248 299 L383 711 L519 299 L248 299 L248 299 Z " />
<glyph glyph-name="abreve" unicode="&#x103;" horiz-adv-x="589" d="M151 744 C156 675 215 628 299 628 C382 628 441 674 446 743 L431 745 C428 704 375 677 299 677 C222 677 169 705 166 747 L151 744 L151 744 Z M440 93 C408 51 354 23 303 23 C194 23 122 122 122 270 C122 402 185 489 307 489 C376 489 426 449 440 396 L440 98 L440 93 L440 93 Z M440 69 L440 -10 L452 -10 L552 15 C552 15 561 19 574 24 C586 30 595 33 595 33 L553 23 C527 17 510 28 510 112 L510 450 L510 510 L502 510 L447 457 C414 489 362 510 299 510 C134 510 50 407 50 252 C50 98 139 -5 273 -5 C340 -5 405 25 439 69 L440 69 L440 69 Z " />
<glyph glyph-name="Cacute" unicode="&#x106;" horiz-adv-x="760" d="M426 813 L567 934 C607 969 634 994 634 1000 C634 1018 618 1034 599 1034 C594 1034 569 1007 535 966 L418 822 L426 813 L426 813 Z M630 708 C580 741 516 760 418 760 C200 760 54 606 54 375 C54 144 195 -10 407 -10 C502 -10 571 10 626 43 C666 65 700 54 707 32 C711 14 714 2 714 2 L714 32 L714 61 L714 120 L714 121 L714 179 C714 179 714 188 713 200 C712 213 712 222 712 222 C712 222 710 213 707 200 C697 157 649 84 594 45 C543 12 483 -7 408 -7 C248 -7 141 146 141 375 C141 604 252 757 419 757 C481 757 529 745 570 724 C637 688 695 603 708 550 C711 538 713 529 713 529 C713 529 713 538 714 550 C715 563 715 572 715 572 L715 630 L715 687 C715 687 715 699 714 716 C713 733 713 745 713 745 C713 745 711 733 708 716 C704 695 672 685 630 710 L630 708 L630 708 Z " />
<glyph glyph-name="Ccircumflex" unicode="&#x108;" horiz-adv-x="760" d="M419 958 L560 807 L570 815 L444 1009 C439 1017 427 1034 419 1034 C411 1034 399 1017 394 1010 L268 815 L278 807 L419 958 L419 958 Z M630 708 C580 741 516 760 418 760 C200 760 54 606 54 375 C54 144 195 -10 407 -10 C502 -10 571 10 626 43 C666 65 700 54 707 32 C711 14 714 2 714 2 L714 32 L714 61 L714 120 L714 121 L714 179 C714 179 714 188 713 200 C712 213 712 222 712 222 C712 222 710 213 707 200 C697 157 649 84 594 45 C543 12 483 -7 408 -7 C248 -7 141 146 141 375 C141 604 252 757 419 757 C481 757 529 745 570 724 C637 688 695 603 708 550 C711 538 713 529 713 529 C713 529 713 538 714 550 C715 563 715 572 715 572 L715 630 L715 687 C715 687 715 699 714 716 C713 733 713 745 713 745 C713 745 711 733 708 716 C704 695 672 685 630 710 L630 708 L630 708 Z " />
<glyph glyph-name="Cdot" unicode="&#x10a;" horiz-adv-x="760" d="M419 865 C446 865 464 883 464 910 C464 938 446 956 419 956 C392 956 374 938 374 910 C374 883 392 865 419 865 L419 865 Z M630 708 C580 741 516 760 418 760 C200 760 54 606 54 375 C54 144 195 -10 407 -10 C502 -10 571 10 626 43 C666 65 700 54 707 32 C711 14 714 2 714 2 L714 32 L714 61 L714 120 L714 121 L714 179 C714 179 714 188 713 200 C712 213 712 222 712 222 C712 222 710 213 707 200 C697 157 649 84 594 45 C543 12 483 -7 408 -7 C248 -7 141 146 141 375 C141 604 252 757 419 757 C481 757 529 745 570 724 C637 688 695 603 708 550 C711 538 713 529 713 529 C713 529 713 538 714 550 C715 563 715 572 715 572 L715 630 L715 687 C715 687 715 699 714 716 C713 733 713 745 713 745 C713 745 711 733 708 716 C704 695 672 685 630 710 L630 708 L630 708 Z " />
<glyph glyph-name="cdot" unicode="&#x10b;" horiz-adv-x="527" d="M303 615 C330 615 348 633 348 660 C348 688 330 706 303 706 C275 706 257 688 257 660 C257 633 275 615 303 615 L303 615 Z M497 128 L487 132 C461 73 389 33 309 33 C194 33 118 128 118 270 C118 404 190 494 299 494 C359 494 412 458 431 405 C439 384 453 370 466 370 C495 370 509 384 501 405 C478 468 399 510 303 510 C149 510 46 401 46 237 C46 89 141 -10 284 -10 C375 -10 460 45 497 128 L497 128 Z " />
<glyph glyph-name="Ccaron" unicode="&#x10c;" horiz-adv-x="760" d="M419 892 L560 1043 L570 1035 L444 841 C439 833 427 816 419 816 C411 816 399 833 394 840 L268 1035 L278 1043 L419 892 L419 892 Z M630 708 C580 741 516 760 418 760 C200 760 54 606 54 375 C54 144 195 -10 407 -10 C502 -10 571 10 626 43 C666 65 700 54 707 32 C711 14 714 2 714 2 L714 32 L714 61 L714 120 L714 121 L714 179 C714 179 714 188 713 200 C712 213 712 222 712 222 C712 222 710 213 707 200 C697 157 649 84 594 45 C543 12 483 -7 408 -7 C248 -7 141 146 141 375 C141 604 252 757 419 757 C481 757 529 745 570 724 C637 688 695 603 708 550 C711 538 713 529 713 529 C713 529 713 538 714 550 C715 563 715 572 715 572 L715 630 L715 687 C715 687 715 699 714 716 C713 733 713 745 713 745 C713 745 711 733 708 716 C704 695 672 685 630 710 L630 708 L630 708 Z " />
<glyph glyph-name="ccaron" unicode="&#x10d;" horiz-adv-x="527" d="M497 128 L487 132 C461 73 389 33 309 33 C194 33 118 128 118 270 C118 404 190 494 299 494 C359 494 412 458 431 405 C439 384 453 370 466 370 C495 370 509 384 501 405 C478 468 399 510 303 510 C149 510 46 401 46 237 C46 89 141 -10 284 -10 C375 -10 460 45 497 128 L497 128 Z M303 641 L445 793 L454 785 L328 591 C323 583 311 566 304 566 C296 566 284 583 279 590 L153 785 L162 793 L303 641 L303 641 Z " />
<glyph glyph-name="Dcaron" unicode="&#x10e;" horiz-adv-x="869" d="M440 891 L582 1043 L591 1035 L465 841 C460 833 448 816 440 816 C433 816 421 833 416 840 L290 1035 L299 1043 L440 891 L440 891 Z M151 677 L151 73 C151 18 126 8 89 8 L46 8 C46 8 57 6 73 4 C88 2 99 0 99 0 L151 0 L164 0 L230 0 L322 0 C618 0 815 127 815 375 C815 600 663 750 368 750 L230 750 L164 750 L151 750 L99 750 C99 750 88 748 73 746 C57 744 46 742 46 742 L89 742 C126 742 151 732 151 677 L151 677 Z M230 748 L359 748 C603 748 729 599 729 375 C729 129 565 2 319 2 C239 2 230 22 230 52 L230 73 L230 677 L230 748 L230 748 Z " />
<glyph glyph-name="dcaron" unicode="&#x10f;" horiz-adv-x="624" d="M641 641 C656 682 666 724 666 745 C666 752 653 755 634 756 C619 755 609 693 604 648 L592 537 L604 535 L641 641 L641 641 Z M475 94 C443 52 383 24 324 24 C203 24 123 123 123 271 C123 403 194 490 330 490 C387 490 446 446 476 392 L476 97 L475 94 L475 94 Z M476 68 L476 -11 L488 -11 L588 14 C588 14 597 18 610 23 C622 29 631 32 631 32 L589 22 C563 16 546 27 546 111 L546 667 L546 746 L534 746 L433 718 C433 717 425 713 412 708 C399 702 391 698 391 698 L433 710 C459 717 476 711 476 651 L476 457 C438 487 382 508 322 508 C143 508 51 405 51 250 C51 96 148 -7 294 -7 C370 -7 441 23 476 67 L476 68 L476 68 Z " />
<glyph glyph-name="Emacron" unicode="&#x112;" horiz-adv-x="667" d="M187 898 L534 898 L534 947 L187 947 L187 898 L187 898 Z M487 0 L595 0 C596 10 598 23 600 32 C601 42 603 55 604 65 C604 65 604 77 605 96 L605 127 L599 85 C592 35 571 2 488 2 L281 2 C234 2 229 22 229 52 L229 73 L229 385 L402 385 C486 385 502 346 502 287 L502 245 C502 245 504 259 506 280 C508 301 510 315 510 315 L510 385 L510 386 L510 388 L510 458 C510 458 508 472 506 493 C504 514 502 528 502 528 L502 485 C502 427 486 388 402 388 L229 388 L229 677 L229 748 L463 748 C563 748 565 710 569 653 L571 623 C571 623 572 635 573 654 C574 673 575 685 575 685 C574 695 573 708 572 718 C572 727 571 740 570 750 L462 750 L229 750 L163 750 L150 750 L98 750 C98 750 87 748 72 746 C56 744 45 742 45 742 L88 742 C125 742 150 732 150 677 L150 73 C150 18 125 8 88 8 L45 8 C45 8 56 6 72 4 C87 2 98 0 98 0 L150 0 L163 0 L229 0 L487 0 L487 0 Z " />
<glyph glyph-name="emacron" unicode="&#x113;" horiz-adv-x="577" d="M148 648 L495 648 L495 697 L148 697 L148 648 L148 648 Z M128 340 L470 340 L528 340 L548 340 C526 462 439 510 322 510 C156 510 45 399 45 233 C45 87 145 -10 296 -10 C409 -10 505 47 536 133 L527 136 C506 76 420 36 313 36 C196 36 118 126 118 261 C118 289 121 315 127 339 L128 340 L128 340 Z M522 360 C524 360 526 360 528 360 L522 360 L522 360 Z M466 359 L132 355 C160 440 228 492 318 492 C388 492 443 454 465 358 L466 359 L466 359 Z " />
<glyph glyph-name="Ebreve" unicode="&#x114;" horiz-adv-x="667" d="M213 994 C218 925 277 878 360 878 C443 878 502 924 508 993 L493 995 C490 954 437 927 360 927 C284 927 231 955 228 997 L213 994 L213 994 Z M487 0 L595 0 C596 10 598 23 600 32 C601 42 603 55 604 65 C604 65 604 77 605 96 L605 127 L599 85 C592 35 571 2 488 2 L281 2 C234 2 229 22 229 52 L229 73 L229 385 L402 385 C486 385 502 346 502 287 L502 245 C502 245 504 259 506 280 C508 301 510 315 510 315 L510 385 L510 386 L510 388 L510 458 C510 458 508 472 506 493 C504 514 502 528 502 528 L502 485 C502 427 486 388 402 388 L229 388 L229 677 L229 748 L463 748 C563 748 565 710 569 653 L571 623 C571 623 572 635 573 654 C574 673 575 685 575 685 C574 695 573 708 572 718 C572 727 571 740 570 750 L462 750 L229 750 L163 750 L150 750 L98 750 C98 750 87 748 72 746 C56 744 45 742 45 742 L88 742 C125 742 150 732 150 677 L150 73 C150 18 125 8 88 8 L45 8 C45 8 56 6 72 4 C87 2 98 0 98 0 L150 0 L163 0 L229 0 L487 0 L487 0 Z " />
<glyph glyph-name="ebreve" unicode="&#x115;" horiz-adv-x="577" d="M174 744 C180 675 238 628 322 628 C405 628 464 674 469 743 L454 745 C451 704 398 677 322 677 C245 677 192 705 189 747 L174 744 L174 744 Z M128 340 L470 340 L528 340 L548 340 C526 462 439 510 322 510 C156 510 45 399 45 233 C45 87 145 -10 296 -10 C409 -10 505 47 536 133 L527 136 C506 76 420 36 313 36 C196 36 118 126 118 261 C118 289 121 315 127 339 L128 340 L128 340 Z M522 360 C524 360 526 360 528 360 L522 360 L522 360 Z M466 359 L132 355 C160 440 228 492 318 492 C388 492 443 454 465 358 L466 359 L466 359 Z " />
<glyph glyph-name="Edot" unicode="&#x116;" horiz-adv-x="667" d="M360 865 C388 865 406 883 406 910 C406 938 388 956 360 956 C333 956 315 938 315 910 C315 883 333 865 360 865 L360 865 Z M487 0 L595 0 C596 10 598 23 600 32 C601 42 603 55 604 65 C604 65 604 77 605 96 L605 127 L599 85 C592 35 571 2 488 2 L281 2 C234 2 229 22 229 52 L229 73 L229 385 L402 385 C486 385 502 346 502 287 L502 245 C502 245 504 259 506 280 C508 301 510 315 510 315 L510 385 L510 386 L510 388 L510 458 C510 458 508 472 506 493 C504 514 502 528 502 528 L502 485 C502 427 486 388 402 388 L229 388 L229 677 L229 748 L463 748 C563 748 565 710 569 653 L571 623 C571 623 572 635 573 654 C574 673 575 685 575 685 C574 695 573 708 572 718 C572 727 571 740 570 750 L462 750 L229 750 L163 750 L150 750 L98 750 C98 750 87 748 72 746 C56 744 45 742 45 742 L88 742 C125 742 150 732 150 677 L150 73 C150 18 125 8 88 8 L45 8 C45 8 56 6 72 4 C87 2 98 0 98 0 L150 0 L163 0 L229 0 L487 0 L487 0 Z " />
<glyph glyph-name="edot" unicode="&#x117;" horiz-adv-x="577" d="M322 615 C349 615 367 633 367 660 C367 688 349 706 322 706 C294 706 276 688 276 660 C276 633 294 615 322 615 L322 615 Z M128 340 L470 340 L528 340 L548 340 C526 462 439 510 322 510 C156 510 45 399 45 233 C45 87 145 -10 296 -10 C409 -10 505 47 536 133 L527 136 C506 76 420 36 313 36 C196 36 118 126 118 261 C118 289 121 315 127 339 L128 340 L128 340 Z M522 360 C524 360 526 360 528 360 L522 360 L522 360 Z M466 359 L132 355 C160 440 228 492 318 492 C388 492 443 454 465 358 L466 359 L466 359 Z " />
<glyph glyph-name="Ecaron" unicode="&#x11a;" horiz-adv-x="667" d="M360 892 L501 1043 L511 1035 L385 841 C380 833 368 816 360 816 C353 816 341 833 336 840 L210 1035 L219 1043 L360 892 L360 892 Z M487 0 L595 0 C596 10 598 23 600 32 C601 42 603 55 604 65 C604 65 604 77 605 96 L605 127 L599 85 C592 35 571 2 488 2 L281 2 C234 2 229 22 229 52 L229 73 L229 385 L402 385 C486 385 502 346 502 287 L502 245 C502 245 504 259 506 280 C508 301 510 315 510 315 L510 385 L510 386 L510 388 L510 458 C510 458 508 472 506 493 C504 514 502 528 502 528 L502 485 C502 427 486 388 402 388 L229 388 L229 677 L229 748 L463 748 C563 748 565 710 569 653 L571 623 C571 623 572 635 573 654 C574 673 575 685 575 685 C574 695 573 708 572 718 C572 727 571 740 570 750 L462 750 L229 750 L163 750 L150 750 L98 750 C98 750 87 748 72 746 C56 744 45 742 45 742 L88 742 C125 742 150 732 150 677 L150 73 C150 18 125 8 88 8 L45 8 C45 8 56 6 72 4 C87 2 98 0 98 0 L150 0 L163 0 L229 0 L487 0 L487 0 Z " />
<glyph glyph-name="ecaron" unicode="&#x11b;" horiz-adv-x="577" d="M322 641 L464 793 L473 785 L347 591 C343 583 330 566 323 566 C315 566 303 583 298 590 L172 785 L181 793 L322 641 L322 641 Z M129 340 L471 340 L529 340 L549 340 C527 462 440 510 323 510 C157 510 46 399 46 233 C46 87 146 -10 297 -10 C410 -10 506 47 537 133 L528 136 C507 76 421 36 314 36 C197 36 119 126 119 261 C119 289 122 315 128 339 L129 340 L129 340 Z M523 360 C525 360 527 360 529 360 L523 360 L523 360 Z M467 359 L133 355 C161 440 229 492 319 492 C389 492 444 454 466 358 L467 359 L467 359 Z " />
<glyph glyph-name="Gcircumflex" unicode="&#x11c;" horiz-adv-x="839" d="M419 958 L560 807 L570 815 L444 1009 C439 1017 427 1034 419 1034 C411 1034 399 1017 394 1010 L268 815 L278 807 L419 958 L419 958 Z M620 257 L621 97 C616 51 555 18 462 10 L562 14 C521 10 474 8 419 8 L462 10 C448 9 434 8 419 8 C253 8 142 154 142 374 C142 603 253 756 420 756 C482 756 530 744 571 723 C638 687 696 602 709 549 C712 537 714 528 714 528 C714 528 714 537 715 549 C716 562 716 571 716 571 L716 629 L716 686 C716 686 716 698 715 715 C714 732 714 744 714 744 C714 744 712 732 709 715 C705 694 673 684 631 709 C581 742 517 761 419 761 C201 761 55 607 55 376 C55 145 198 -9 412 -9 C527 -9 615 6 690 31 L698 33 L698 34 C724 43 748 53 771 64 L770 65 C749 55 725 46 698 38 L698 257 C698 307 715 317 741 317 L783 317 C783 317 774 319 762 321 C749 323 740 325 740 325 L655 325 L570 325 C570 325 560 323 545 321 C530 319 520 317 520 317 L562 317 C597 317 620 307 620 257 L620 257 Z " />
<glyph glyph-name="Gbreve" unicode="&#x11e;" horiz-adv-x="839" d="M272 994 C277 925 336 878 419 878 C502 878 561 924 566 993 L552 995 C549 954 496 927 419 927 C342 927 289 955 286 997 L272 994 L272 994 Z M620 257 L621 97 C616 51 555 18 462 10 L562 14 C521 10 474 8 419 8 L462 10 C448 9 434 8 419 8 C253 8 142 154 142 374 C142 603 253 756 420 756 C482 756 530 744 571 723 C638 687 696 602 709 549 C712 537 714 528 714 528 C714 528 714 537 715 549 C716 562 716 571 716 571 L716 629 L716 686 C716 686 716 698 715 715 C714 732 714 744 714 744 C714 744 712 732 709 715 C705 694 673 684 631 709 C581 742 517 761 419 761 C201 761 55 607 55 376 C55 145 198 -9 412 -9 C527 -9 615 6 690 31 L698 33 L698 34 C724 43 748 53 771 64 L770 65 C749 55 725 46 698 38 L698 257 C698 307 715 317 741 317 L783 317 C783 317 774 319 762 321 C749 323 740 325 740 325 L655 325 L570 325 C570 325 560 323 545 321 C530 319 520 317 520 317 L562 317 C597 317 620 307 620 257 L620 257 Z " />
<glyph glyph-name="gbreve" unicode="&#x11f;" horiz-adv-x="551" d="M125 744 C130 675 189 628 272 628 C356 628 415 674 420 743 L405 745 C402 704 349 677 272 677 C196 677 143 705 140 747 L125 744 L125 744 Z M149 350 C149 436 198 494 272 494 C347 494 396 436 396 350 C396 262 347 204 272 204 C198 204 149 262 149 350 L149 350 Z M170 8 C176 7 182 7 189 7 L311 7 C417 7 459 -31 459 -89 C459 -164 390 -214 286 -214 C178 -214 106 -159 106 -78 C106 -40 131 -8 170 8 L170 8 Z M154 10 C90 -9 49 -49 49 -93 C49 -175 142 -229 282 -229 C423 -229 516 -166 516 -71 C516 18 461 78 318 78 L193 78 C136 78 98 98 98 128 C98 164 168 189 272 189 C389 189 466 254 466 351 C466 367 464 382 460 396 C483 439 513 466 536 466 C548 466 556 452 556 431 C556 417 569 407 589 407 C606 407 617 420 617 440 C617 473 596 495 565 495 C524 495 481 461 455 411 C429 472 363 510 273 510 C157 510 80 446 80 350 C80 275 126 219 200 197 C113 186 58 152 58 105 C58 55 96 19 155 9 L154 10 L154 10 Z " />
<glyph glyph-name="Gdot" unicode="&#x120;" horiz-adv-x="839" d="M419 865 C446 865 464 883 464 910 C464 938 446 956 419 956 C392 956 374 938 374 910 C374 883 392 865 419 865 L419 865 Z M620 257 L621 97 C616 51 555 18 462 10 L562 14 C521 10 474 8 419 8 L462 10 C448 9 434 8 419 8 C253 8 142 154 142 374 C142 603 253 756 420 756 C482 756 530 744 571 723 C638 687 696 602 709 549 C712 537 714 528 714 528 C714 528 714 537 715 549 C716 562 716 571 716 571 L716 629 L716 686 C716 686 716 698 715 715 C714 732 714 744 714 744 C714 744 712 732 709 715 C705 694 673 684 631 709 C581 742 517 761 419 761 C201 761 55 607 55 376 C55 145 198 -9 412 -9 C527 -9 615 6 690 31 L698 33 L698 34 C724 43 748 53 771 64 L770 65 C749 55 725 46 698 38 L698 257 C698 307 715 317 741 317 L783 317 C783 317 774 319 762 321 C749 323 740 325 740 325 L655 325 L570 325 C570 325 560 323 545 321 C530 319 520 317 520 317 L562 317 C597 317 620 307 620 257 L620 257 Z " />
<glyph glyph-name="gdot" unicode="&#x121;" horiz-adv-x="551" d="M272 615 C300 615 318 633 318 660 C318 688 300 706 272 706 C245 706 227 688 227 660 C227 633 245 615 272 615 L272 615 Z M149 350 C149 436 198 494 272 494 C347 494 396 436 396 350 C396 262 347 204 272 204 C198 204 149 262 149 350 L149 350 Z M170 8 C176 7 182 7 189 7 L311 7 C417 7 459 -31 459 -89 C459 -164 390 -214 286 -214 C178 -214 106 -159 106 -78 C106 -40 131 -8 170 8 L170 8 Z M154 10 C90 -9 49 -49 49 -93 C49 -175 142 -229 282 -229 C423 -229 516 -166 516 -71 C516 18 461 78 318 78 L193 78 C136 78 98 98 98 128 C98 164 168 189 272 189 C389 189 466 254 466 351 C466 367 464 382 460 396 C483 439 513 466 536 466 C548 466 556 452 556 431 C556 417 569 407 589 407 C606 407 617 420 617 440 C617 473 596 495 565 495 C524 495 481 461 455 411 C429 472 363 510 273 510 C157 510 80 446 80 350 C80 275 126 219 200 197 C113 186 58 152 58 105 C58 55 96 19 155 9 L154 10 L154 10 Z " />
<glyph glyph-name="Hcircumflex" unicode="&#x124;" horiz-adv-x="876" d="M459 959 L600 807 L609 815 L484 1009 C479 1017 466 1034 459 1034 C451 1034 439 1017 434 1010 L308 815 L318 807 L459 959 L459 959 Z M731 68 L731 682 C731 732 756 742 794 742 L836 742 C836 742 826 744 810 746 C794 748 784 750 784 750 L692 750 L600 750 C600 750 590 748 574 746 C558 744 548 742 548 742 L590 742 C628 742 653 732 653 682 L653 385 L265 385 L265 682 C265 732 290 742 327 742 L370 742 C370 742 359 744 343 746 C328 748 317 750 317 750 L226 750 L134 750 C134 750 123 748 108 746 C92 744 81 742 81 742 L124 742 C161 742 186 732 186 682 L186 68 C186 18 161 8 124 8 L81 8 C81 8 92 6 108 4 C123 2 134 0 134 0 L226 0 L317 0 C317 0 328 2 343 4 C359 6 370 8 370 8 L327 8 C290 8 265 18 265 68 L265 381 L653 381 L653 68 C653 18 628 8 590 8 L548 8 C548 8 558 6 574 4 C590 2 600 0 600 0 L692 0 L784 0 C784 0 794 2 810 4 C826 6 836 8 836 8 L794 8 C756 8 731 18 731 68 L731 68 Z " />
<glyph glyph-name="Itilde" unicode="&#x128;" horiz-adv-x="374" d="M25 870 C25 908 46 933 78 933 C145 933 215 868 282 868 C327 868 357 912 357 977 L355 977 C355 941 332 917 298 917 C231 917 161 982 94 982 C51 982 23 937 23 870 L25 870 L25 870 Z M229 68 L229 682 C229 732 254 742 292 742 L334 742 C334 742 324 744 308 746 C292 748 282 750 282 750 L190 750 L98 750 C98 750 88 748 72 746 C56 744 46 742 46 742 L88 742 C126 742 151 732 151 682 L151 68 C151 18 126 8 88 8 L46 8 C46 8 56 6 72 4 C88 2 98 0 98 0 L190 0 L282 0 C282 0 292 2 308 4 C324 6 334 8 334 8 L292 8 C254 8 229 18 229 68 L229 68 Z " />
<glyph glyph-name="itilde" unicode="&#x129;" horiz-adv-x="298" d="M-12 620 C-12 658 9 683 41 683 C109 683 178 618 246 618 C291 618 321 662 321 727 L319 727 C319 691 296 667 262 667 C194 667 125 732 57 732 C15 732 -14 687 -14 620 L-12 620 L-12 620 Z M189 23 L189 396 L189 500 L176 500 L37 445 L37 441 C106 444 119 439 119 396 L119 23 C119 10 104 8 81 8 L39 8 C39 8 47 6 59 4 C71 2 79 0 79 0 L154 0 L230 0 C230 0 238 2 251 4 C264 6 272 8 272 8 L229 8 C205 8 189 10 189 23 L189 23 Z " />
<glyph glyph-name="Imacron" unicode="&#x12a;" horiz-adv-x="374" d="M16 898 L364 898 L364 947 L16 947 L16 898 L16 898 Z M229 68 L229 682 C229 732 254 742 292 742 L334 742 C334 742 324 744 308 746 C292 748 282 750 282 750 L190 750 L98 750 C98 750 88 748 72 746 C56 744 46 742 46 742 L88 742 C126 742 151 732 151 682 L151 68 C151 18 126 8 88 8 L46 8 C46 8 56 6 72 4 C88 2 98 0 98 0 L190 0 L282 0 C282 0 292 2 308 4 C324 6 334 8 334 8 L292 8 C254 8 229 18 229 68 L229 68 Z " />
<glyph glyph-name="imacron" unicode="&#x12b;" horiz-adv-x="298" d="M-20 648 L327 648 L327 697 L-20 697 L-20 648 L-20 648 Z M189 23 L189 396 L189 500 L176 500 L37 445 L37 441 C106 444 119 439 119 396 L119 23 C119 10 104 8 81 8 L39 8 C39 8 47 6 59 4 C71 2 79 0 79 0 L154 0 L230 0 C230 0 238 2 251 4 C264 6 272 8 272 8 L229 8 C205 8 189 10 189 23 L189 23 Z " />
<glyph glyph-name="Ibreve" unicode="&#x12c;" horiz-adv-x="374" d="M43 994 C48 925 107 878 190 878 C273 878 332 924 337 993 L323 995 C320 954 267 927 190 927 C113 927 60 955 57 997 L43 994 L43 994 Z M229 68 L229 682 C229 732 254 742 292 742 L334 742 C334 742 324 744 308 746 C292 748 282 750 282 750 L190 750 L98 750 C98 750 88 748 72 746 C56 744 46 742 46 742 L88 742 C126 742 151 732 151 682 L151 68 C151 18 126 8 88 8 L46 8 C46 8 56 6 72 4 C88 2 98 0 98 0 L190 0 L282 0 C282 0 292 2 308 4 C324 6 334 8 334 8 L292 8 C254 8 229 18 229 68 L229 68 Z " />
<glyph glyph-name="ibreve" unicode="&#x12d;" horiz-adv-x="298" d="M6 744 C11 675 70 628 154 628 C237 628 296 674 301 743 L286 745 C283 704 230 677 154 677 C77 677 24 705 21 747 L6 744 L6 744 Z M189 23 L189 396 L189 500 L176 500 L37 445 L37 441 C106 444 119 439 119 396 L119 23 C119 10 104 8 81 8 L39 8 C39 8 47 6 59 4 C71 2 79 0 79 0 L154 0 L230 0 C230 0 238 2 251 4 C264 6 272 8 272 8 L229 8 C205 8 189 10 189 23 L189 23 Z " />
<glyph glyph-name="Idot" unicode="&#x130;" horiz-adv-x="374" d="M190 865 C217 865 235 883 235 910 C235 938 217 956 190 956 C163 956 145 938 145 910 C145 883 163 865 190 865 L190 865 Z M229 68 L229 682 C229 732 254 742 292 742 L334 742 C334 742 324 744 308 746 C292 748 282 750 282 750 L190 750 L98 750 C98 750 88 748 72 746 C56 744 46 742 46 742 L88 742 C126 742 151 732 151 682 L151 68 C151 18 126 8 88 8 L46 8 C46 8 56 6 72 4 C88 2 98 0 98 0 L190 0 L282 0 C282 0 292 2 308 4 C324 6 334 8 334 8 L292 8 C254 8 229 18 229 68 L229 68 Z " />
<glyph glyph-name="dotlessi" unicode="&#x131;" horiz-adv-x="298" d="M189 23 L189 396 L189 500 L176 500 L37 445 L37 441 C106 444 119 439 119 396 L119 23 C119 10 104 8 81 8 L39 8 C39 8 47 6 59 4 C71 2 79 0 79 0 L154 0 L230 0 C230 0 238 2 251 4 C264 6 272 8 272 8 L229 8 C205 8 189 10 189 23 L189 23 Z " />
<glyph glyph-name="Jcircumflex" unicode="&#x134;" horiz-adv-x="374" d="M190 958 L331 807 L341 815 L215 1009 C210 1017 198 1034 190 1034 C182 1034 170 1017 165 1010 L39 815 L49 807 L190 958 L190 958 Z M151 682 L151 -52 C151 -190 76 -216 22 -216 C-18 -216 0 -150 -40 -150 C-62 -150 -77 -165 -77 -187 C-77 -207 -39 -220 19 -220 C107 -220 229 -169 229 96 L229 682 C229 732 254 742 292 742 L334 742 C334 742 324 744 308 746 C292 748 282 750 282 750 L190 750 L98 750 C98 750 88 748 72 746 C56 744 46 742 46 742 L88 742 C126 742 151 732 151 682 L151 682 Z " />
<glyph glyph-name="Lacute" unicode="&#x139;" horiz-adv-x="678" d="M197 813 L338 934 C378 969 405 994 405 1000 C405 1018 389 1034 370 1034 C365 1034 340 1007 306 966 L188 822 L197 813 L197 813 Z M603 13 L603 13 C606 24 609 37 612 47 C616 61 621 80 625 94 C625 94 628 111 632 136 C637 161 640 178 640 178 L628 136 C609 62 569 13 431 13 L281 13 C234 13 229 29 229 52 L229 73 L229 677 C229 732 254 742 292 742 L334 742 C334 742 324 744 308 746 C292 748 282 750 282 750 L229 750 L190 750 L151 750 L98 750 C98 750 88 748 72 746 C56 744 46 742 46 742 L88 742 C126 742 151 732 151 677 L151 73 C151 18 126 8 88 8 L46 8 C46 8 56 6 72 4 C88 2 98 0 98 0 L151 0 L164 0 L229 0 L427 0 L600 0 L603 0 L603 13 L603 13 Z " />
<glyph glyph-name="Lcaron" unicode="&#x13d;" horiz-adv-x="678" d="M603 13 L603 13 C606 24 609 37 612 47 C616 61 621 80 625 94 C625 94 628 111 632 136 C637 161 640 178 640 178 L628 136 C609 62 569 13 431 13 L281 13 C234 13 229 29 229 52 L229 73 L229 677 C229 732 254 742 292 742 L334 742 C334 742 324 744 308 746 C292 748 282 750 282 750 L229 750 L190 750 L151 750 L98 750 C98 750 88 748 72 746 C56 744 46 742 46 742 L88 742 C126 742 151 732 151 677 L151 73 C151 18 126 8 88 8 L46 8 C46 8 56 6 72 4 C88 2 98 0 98 0 L151 0 L164 0 L229 0 L427 0 L600 0 L603 0 L603 13 L603 13 Z M425 693 C440 735 450 777 450 798 C450 805 437 808 418 808 C404 808 393 746 389 701 L376 590 L388 587 L425 693 L425 693 Z " />
<glyph glyph-name="lcaron" unicode="&#x13e;" horiz-adv-x="298" d="M284 641 C299 682 309 724 309 745 C309 752 297 755 278 756 C263 755 253 693 248 648 L235 537 L248 535 L284 641 L284 641 Z M189 23 L189 684 L189 747 L176 747 L76 719 C76 718 68 714 55 709 C42 703 34 699 34 699 L76 711 C102 719 119 715 119 668 L119 23 C119 10 104 8 81 8 L39 8 C39 8 47 6 59 4 C71 2 79 0 79 0 L154 0 L229 0 C229 0 237 2 249 4 C261 6 269 8 269 8 L226 8 C204 8 189 10 189 23 L189 23 Z " />
<glyph glyph-name="Nacute" unicode="&#x143;" horiz-adv-x="814" d="M311 813 L452 934 C492 969 519 994 519 1000 C519 1018 503 1034 484 1034 C479 1034 454 1007 420 966 L303 822 L311 813 L311 813 Z M178 750 L160 750 L140 750 L116 750 L81 750 L54 750 C54 750 48 748 38 746 C28 744 22 742 22 742 L79 742 C84 742 91 736 113 707 L113 707 L140 672 L139 138 L139 138 C139 29 106 8 56 8 L14 8 C14 8 21 6 30 4 C40 2 47 0 47 0 L139 0 L151 0 L163 0 L255 0 C255 0 262 2 271 4 C281 6 288 8 288 8 L245 8 C199 8 167 24 162 106 L160 645 L564 111 L648 0 L664 0 L668 642 L669 642 C668 726 701 742 751 742 L794 742 C794 742 781 744 762 746 C744 748 731 750 731 750 L669 750 L657 750 L646 750 L584 750 C584 750 571 748 552 746 C534 744 521 742 521 742 L564 742 C613 742 646 726 646 642 L646 642 L647 130 L626 158 L178 750 L178 750 Z " />
<glyph glyph-name="Ncaron" unicode="&#x147;" horiz-adv-x="814" d="M404 892 L545 1043 L555 1035 L429 841 C424 833 412 816 404 816 C397 816 385 833 380 840 L254 1035 L263 1043 L404 892 L404 892 Z M178 750 L160 750 L140 750 L116 750 L81 750 L54 750 C54 750 48 748 38 746 C28 744 22 742 22 742 L79 742 C84 742 91 736 113 707 L113 707 L140 672 L139 138 L139 138 C139 29 106 8 56 8 L14 8 C14 8 21 6 30 4 C40 2 47 0 47 0 L139 0 L151 0 L163 0 L255 0 C255 0 262 2 271 4 C281 6 288 8 288 8 L245 8 C199 8 167 24 162 106 L160 645 L564 111 L648 0 L664 0 L668 642 L669 642 C668 726 701 742 751 742 L794 742 C794 742 781 744 762 746 C744 748 731 750 731 750 L669 750 L657 750 L646 750 L584 750 C584 750 571 748 552 746 C534 744 521 742 521 742 L564 742 C613 742 646 726 646 642 L646 642 L647 130 L626 158 L178 750 L178 750 Z " />
<glyph glyph-name="ncaron" unicode="&#x148;" horiz-adv-x="628" d="M316 641 L458 793 L467 785 L341 591 C336 583 324 566 316 566 C309 566 297 583 292 590 L166 785 L175 793 L316 641 L316 641 Z M449 23 C449 10 434 8 412 8 L369 8 C369 8 377 6 389 4 C401 2 409 0 409 0 L484 0 L559 0 C559 0 567 2 579 4 C591 6 599 8 599 8 L557 8 C534 8 519 10 519 23 L519 337 C519 441 468 510 368 510 C323 510 249 457 184 377 L184 437 L184 500 L171 500 L71 464 C71 464 63 459 50 452 C37 445 29 440 29 440 L71 456 C97 465 114 462 114 416 L114 23 C114 10 99 8 76 8 L34 8 C34 8 42 6 54 4 C66 2 74 0 74 0 L149 0 L224 0 C224 0 232 2 244 4 C256 6 264 8 264 8 L221 8 C199 8 184 10 184 23 L184 367 C238 433 304 477 349 477 C415 477 449 421 449 337 L449 23 L449 23 Z " />
<glyph glyph-name="Omacron" unicode="&#x14c;" horiz-adv-x="870" d="M257 898 L604 898 L604 947 L257 947 L257 898 L257 898 Z M421 -7 C255 -7 144 146 144 375 C144 604 258 757 430 757 C607 757 726 604 726 375 C726 146 604 -7 421 -7 L421 -7 Z M55 375 C55 144 201 -10 420 -10 C658 -10 816 144 816 375 C816 606 662 760 430 760 C205 760 55 606 55 375 L55 375 Z " />
<glyph glyph-name="omacron" unicode="&#x14d;" horiz-adv-x="640" d="M146 648 L494 648 L494 697 L146 697 L146 648 L146 648 Z M320 -7 C201 -7 122 96 122 250 C122 404 201 507 320 507 C439 507 518 404 518 250 C518 96 439 -7 320 -7 L320 -7 Z M45 250 C45 94 155 -10 320 -10 C485 -10 595 94 595 250 C595 406 485 510 320 510 C155 510 45 406 45 250 L45 250 Z " />
<glyph glyph-name="Obreve" unicode="&#x14e;" horiz-adv-x="870" d="M283 994 C288 925 347 878 430 878 C513 878 572 924 578 993 L563 995 C560 954 507 927 430 927 C353 927 300 955 297 997 L283 994 L283 994 Z M421 -7 C255 -7 144 146 144 375 C144 604 258 757 430 757 C607 757 726 604 726 375 C726 146 604 -7 421 -7 L421 -7 Z M55 375 C55 144 201 -10 420 -10 C658 -10 816 144 816 375 C816 606 662 760 430 760 C205 760 55 606 55 375 L55 375 Z " />
<glyph glyph-name="obreve" unicode="&#x14f;" horiz-adv-x="640" d="M173 744 C178 675 237 628 320 628 C403 628 462 674 467 743 L453 745 C450 704 397 677 320 677 C243 677 190 705 187 747 L173 744 L173 744 Z M320 -7 C201 -7 122 96 122 250 C122 404 201 507 320 507 C439 507 518 404 518 250 C518 96 439 -7 320 -7 L320 -7 Z M45 250 C45 94 155 -10 320 -10 C485 -10 595 94 595 250 C595 406 485 510 320 510 C155 510 45 406 45 250 L45 250 Z " />
<glyph glyph-name="Racute" unicode="&#x154;" horiz-adv-x="796" d="M353 813 L493 934 C533 969 560 994 560 1000 C560 1018 544 1034 525 1034 C520 1034 495 1007 461 966 L344 822 L353 813 L353 813 Z M787 0 L787 6 C692 6 686 8 649 68 C555 215 485 324 459 365 C562 382 627 438 627 538 C627 665 529 749 383 749 L229 749 L163 749 L98 749 C98 749 87 747 72 745 C56 743 45 741 45 741 L88 741 C125 741 150 731 150 676 L150 72 C150 17 125 7 88 7 L45 7 C45 7 56 5 72 3 C87 1 98 -1 98 -1 L190 -1 L281 -1 C281 -1 292 1 307 3 C323 5 334 7 334 7 L291 7 C254 7 229 17 229 72 L229 359 L378 359 C396 325 464 214 558 67 C599 2 608 -1 787 -1 L787 0 L787 0 Z M229 733 L359 733 C468 733 540 661 540 553 C540 433 477 379 383 379 L229 379 L229 676 L229 733 L229 733 Z " />
<glyph glyph-name="Rcaron" unicode="&#x158;" horiz-adv-x="796" d="M787 0 L787 6 C692 6 686 8 649 68 C555 215 485 324 459 365 C562 382 627 438 627 538 C627 665 529 749 383 749 L229 749 L163 749 L98 749 C98 749 87 747 72 745 C56 743 45 741 45 741 L88 741 C125 741 150 731 150 676 L150 72 C150 17 125 7 88 7 L45 7 C45 7 56 5 72 3 C87 1 98 -1 98 -1 L190 -1 L281 -1 C281 -1 292 1 307 3 C323 5 334 7 334 7 L291 7 C254 7 229 17 229 72 L229 359 L378 359 C396 325 464 214 558 67 C599 2 608 -1 787 -1 L787 0 L787 0 Z M346 890 L488 1042 L497 1034 L371 840 C366 832 354 815 346 815 C339 815 327 832 322 839 L196 1034 L205 1042 L346 890 L346 890 Z M230 733 L360 733 C469 733 541 661 541 553 C541 433 478 379 384 379 L230 379 L230 676 L230 733 L230 733 Z " />
<glyph glyph-name="rcaron" unicode="&#x159;" horiz-adv-x="462" d="M280 641 L422 793 L431 785 L305 591 C300 583 288 566 281 566 C273 566 261 583 256 590 L130 785 L139 793 L280 641 L280 641 Z M190 385 L190 437 L190 500 L177 500 L77 464 C77 464 69 459 56 452 C43 445 35 440 35 440 L77 456 C103 465 120 462 120 416 L120 23 C120 10 107 8 87 8 L45 8 C45 8 52 6 63 4 C75 2 82 0 82 0 L157 0 L232 0 C232 0 241 2 253 4 C266 6 275 8 275 8 L232 8 C207 8 190 10 190 23 L190 380 C224 439 276 477 325 477 C353 477 372 463 372 442 C372 418 388 401 413 401 C437 401 454 418 454 442 C454 483 415 510 357 510 C298 510 232 461 190 385 L190 385 Z " />
<glyph glyph-name="Sacute" unicode="&#x15a;" horiz-adv-x="579" d="M296 813 L437 934 C477 969 504 994 504 1000 C504 1018 488 1034 469 1034 C464 1034 439 1007 405 966 L288 822 L296 813 L296 813 Z M441 709 L440 709 C395 741 333 760 265 760 C147 760 69 684 69 570 C69 487 144 399 291 334 C414 280 477 218 477 166 C477 63 412 -6 314 -6 C262 -6 211 12 167 44 C117 85 72 169 59 222 C56 234 54 243 54 243 C54 243 53 234 53 222 C52 209 51 200 51 200 L51 147 L51 138 L51 75 C51 75 52 60 53 39 C53 17 54 2 54 2 C54 2 56 17 59 39 C63 66 92 80 130 51 L131 51 C182 13 247 -9 315 -9 C450 -9 540 70 540 190 C540 273 472 358 339 417 C202 477 131 545 131 601 C131 695 185 758 266 758 C290 758 314 754 337 747 L336 747 C338 746 340 745 342 744 C349 742 356 739 363 736 L352 740 C419 711 478 627 492 567 C495 555 497 546 497 546 C497 546 498 555 499 567 C499 580 500 589 500 589 L500 642 L500 644 L500 699 C500 699 499 711 499 728 C498 745 497 757 497 757 C497 757 495 745 492 728 C489 705 468 690 443 708 L441 709 L441 709 Z M353 740 L338 745 C340 745 342 744 344 743 C347 742 350 741 353 740 L353 740 Z " />
<glyph glyph-name="Scircumflex" unicode="&#x15c;" horiz-adv-x="579" d="M441 709 L440 709 C395 741 333 760 265 760 C147 760 69 684 69 570 C69 487 144 399 291 334 C414 280 477 218 477 166 C477 63 412 -6 314 -6 C262 -6 211 12 167 44 C117 85 72 169 59 222 C56 234 54 243 54 243 C54 243 53 234 53 222 C52 209 51 200 51 200 L51 147 L51 138 L51 75 C51 75 52 60 53 39 C53 17 54 2 54 2 C54 2 56 17 59 39 C63 66 92 80 130 51 L131 51 C182 13 247 -9 315 -9 C450 -9 540 70 540 190 C540 273 472 358 339 417 C202 477 131 545 131 601 C131 695 185 758 266 758 C290 758 314 754 337 747 L336 747 C338 746 340 745 342 744 C349 742 356 739 363 736 L352 740 C419 711 478 627 492 567 C495 555 497 546 497 546 C497 546 498 555 499 567 C499 580 500 589 500 589 L500 642 L500 644 L500 699 C500 699 499 711 499 728 C498 745 497 757 497 757 C497 757 495 745 492 728 C489 705 468 690 443 708 L441 709 L441 709 Z M292 958 L434 806 L443 814 L317 1008 C312 1016 300 1033 292 1033 C285 1033 273 1016 268 1009 L142 814 L151 806 L292 958 L292 958 Z M354 740 L339 745 C341 745 343 744 345 743 C348 742 351 741 354 740 L354 740 Z " />
<glyph glyph-name="Scaron" unicode="&#x160;" horiz-adv-x="579" d="M441 709 L440 709 C395 741 333 760 265 760 C147 760 69 684 69 570 C69 487 144 399 291 334 C414 280 477 218 477 166 C477 63 412 -6 314 -6 C262 -6 211 12 167 44 C117 85 72 169 59 222 C56 234 54 243 54 243 C54 243 53 234 53 222 C52 209 51 200 51 200 L51 147 L51 138 L51 75 C51 75 52 60 53 39 C53 17 54 2 54 2 C54 2 56 17 59 39 C63 66 92 80 130 51 L131 51 C182 13 247 -9 315 -9 C450 -9 540 70 540 190 C540 273 472 358 339 417 C202 477 131 545 131 601 C131 695 185 758 266 758 C290 758 314 754 337 747 L336 747 C338 746 340 745 342 744 C349 742 356 739 363 736 L352 740 C419 711 478 627 492 567 C495 555 497 546 497 546 C497 546 498 555 499 567 C499 580 500 589 500 589 L500 642 L500 644 L500 699 C500 699 499 711 499 728 C498 745 497 757 497 757 C497 757 495 745 492 728 C489 705 468 690 443 708 L441 709 L441 709 Z M292 890 L434 1042 L443 1034 L317 840 C312 832 300 815 292 815 C285 815 273 832 268 839 L142 1034 L151 1042 L292 890 L292 890 Z M354 740 L339 745 C341 745 343 744 345 743 C348 742 351 741 354 740 L354 740 Z " />
<glyph glyph-name="scaron" unicode="&#x161;" horiz-adv-x="469" d="M329 487 L327 487 C298 501 262 509 224 509 C133 509 73 458 73 382 C73 319 129 258 236 222 C321 194 365 150 365 106 C365 37 320 -9 252 -9 C235 -9 218 -6 202 -1 L207 -2 C130 20 79 98 79 150 L79 167 C79 167 77 160 75 150 C73 141 71 134 71 134 L71 93 L71 92 L71 50 C71 50 73 42 75 29 C77 16 79 8 79 8 L79 29 C79 36 112 30 161 8 L162 8 C189 -4 219 -11 251 -11 C351 -11 418 44 418 125 C418 186 366 243 266 276 C170 307 121 356 121 407 C121 467 162 507 223 507 C246 507 269 502 290 493 L224 506 C249 506 271 501 291 493 L290 493 C295 491 299 489 303 487 C354 460 384 410 384 367 L384 351 C384 351 386 357 388 367 C390 377 392 383 392 383 L392 424 L392 432 L392 482 C392 482 390 487 388 495 C386 504 384 509 384 509 L384 480 C384 470 362 468 328 486 L329 487 L329 487 Z M251 640 L392 792 L402 784 L276 590 C271 582 258 565 251 565 C243 565 231 582 226 589 L100 784 L110 792 L251 640 L251 640 Z " />
<glyph glyph-name="Tcaron" unicode="&#x164;" horiz-adv-x="806" d="M403 892 L544 1043 L554 1035 L428 841 C423 833 411 816 403 816 C396 816 384 833 379 840 L252 1035 L262 1043 L403 892 L403 892 Z M83 788 C82 786 80 783 77 779 C72 773 69 769 69 769 C67 763 65 756 63 749 L56 749 L56 729 L56 729 C55 727 54 725 53 723 C48 710 41 692 36 678 C36 678 34 667 30 651 C28 641 26 633 25 628 L40 667 C54 704 79 729 163 729 L364 729 L364 67 C364 17 339 7 301 7 L259 7 C259 7 270 5 285 3 C301 1 312 -1 312 -1 L403 -1 L495 -1 C495 -1 505 1 521 3 C537 5 547 7 547 7 L505 7 C467 7 442 17 442 67 L442 729 L644 729 C728 729 753 704 766 667 L782 624 C782 624 780 635 776 651 C772 667 770 678 770 678 C765 692 758 710 754 723 C753 725 752 727 751 730 L751 749 L744 749 C742 756 740 763 738 769 C738 769 735 773 731 779 C726 785 723 789 723 789 L729 772 C734 758 722 749 638 749 L443 749 L365 749 L171 749 C87 749 74 758 79 772 L83 788 L83 788 Z M84 787 L85 789 C85 789 85 788 84 787 L84 787 Z M26 628 C25 626 25 625 25 625 L26 628 L26 628 Z " />
<glyph glyph-name="tcaron" unicode="&#x165;" horiz-adv-x="380" d="M338 500 L169 500 L169 620 L164 620 L34 481 L34 471 L99 471 L99 147 C99 34 153 -10 235 -10 C290 -10 345 28 371 84 L363 88 C344 49 302 23 256 23 C203 23 167 53 167 131 L169 463 L338 463 L338 500 L338 500 Z M437 641 C452 682 462 724 462 745 C462 752 449 755 430 756 C415 755 405 693 400 648 L388 537 L400 535 L437 641 L437 641 Z " />
<glyph glyph-name="Utilde" unicode="&#x168;" horiz-adv-x="766" d="M218 870 C218 908 239 933 271 933 C339 933 408 868 476 868 C521 868 551 912 551 977 L549 977 C549 941 526 917 492 917 C424 917 355 982 287 982 C245 982 216 937 216 870 L218 870 L218 870 Z M652 98 L652 677 L652 750 L586 750 L521 750 C521 750 510 748 495 746 C479 744 468 742 468 742 L511 742 C548 742 573 732 573 677 L573 189 C532 99 436 40 335 40 C250 40 194 115 194 226 L194 677 L194 750 L128 750 L63 750 C63 750 52 748 37 746 C21 744 10 742 10 742 L53 742 C90 742 115 732 115 677 L115 226 C115 85 190 -10 303 -10 C420 -10 528 55 573 153 L573 98 L573 0 L586 0 L756 49 L756 53 C669 48 652 54 652 98 L652 98 Z " />
<glyph glyph-name="utilde" unicode="&#x169;" horiz-adv-x="620" d="M141 620 C141 658 162 683 194 683 C261 683 331 618 398 618 C443 618 473 662 473 727 L472 727 C472 691 449 667 414 667 C347 667 278 732 210 732 C167 732 139 687 139 620 L141 620 L141 620 Z M446 78 L446 -10 L458 -10 L558 15 C558 15 567 19 580 24 C592 30 601 33 601 33 L558 23 C533 17 516 25 516 92 L516 477 L516 500 L464 500 L413 500 C413 500 406 498 396 496 C386 494 380 492 380 492 L422 492 C436 492 446 490 446 477 L446 128 C419 74 355 39 282 39 C213 39 167 89 167 165 L167 477 L167 500 L115 500 L63 500 C63 500 57 498 47 496 C37 494 30 492 30 492 L73 492 C87 492 97 490 97 477 L97 165 C97 60 158 -10 249 -10 C333 -10 410 43 446 124 L446 78 L446 78 Z " />
<glyph glyph-name="Umacron" unicode="&#x16a;" horiz-adv-x="766" d="M210 898 L557 898 L557 947 L210 947 L210 898 L210 898 Z M652 98 L652 677 L652 750 L586 750 L521 750 C521 750 510 748 495 746 C479 744 468 742 468 742 L511 742 C548 742 573 732 573 677 L573 189 C532 99 436 40 335 40 C250 40 194 115 194 226 L194 677 L194 750 L128 750 L63 750 C63 750 52 748 37 746 C21 744 10 742 10 742 L53 742 C90 742 115 732 115 677 L115 226 C115 85 190 -10 303 -10 C420 -10 528 55 573 153 L573 98 L573 0 L586 0 L756 49 L756 53 C669 48 652 54 652 98 L652 98 Z " />
<glyph glyph-name="umacron" unicode="&#x16b;" horiz-adv-x="620" d="M133 648 L480 648 L480 697 L133 697 L133 648 L133 648 Z M446 78 L446 -10 L458 -10 L558 15 C558 15 567 19 580 24 C592 30 601 33 601 33 L558 23 C533 17 516 25 516 92 L516 477 L516 500 L464 500 L413 500 C413 500 406 498 396 496 C386 494 380 492 380 492 L422 492 C436 492 446 490 446 477 L446 128 C419 74 355 39 282 39 C213 39 167 89 167 165 L167 477 L167 500 L115 500 L63 500 C63 500 57 498 47 496 C37 494 30 492 30 492 L73 492 C87 492 97 490 97 477 L97 165 C97 60 158 -10 249 -10 C333 -10 410 43 446 124 L446 78 L446 78 Z " />
<glyph glyph-name="Ubreve" unicode="&#x16c;" horiz-adv-x="766" d="M236 994 C241 925 300 878 383 878 C467 878 526 924 531 993 L516 995 C513 954 460 927 383 927 C307 927 254 955 251 997 L236 994 L236 994 Z M652 98 L652 677 L652 750 L586 750 L521 750 C521 750 510 748 495 746 C479 744 468 742 468 742 L511 742 C548 742 573 732 573 677 L573 189 C532 99 436 40 335 40 C250 40 194 115 194 226 L194 677 L194 750 L128 750 L63 750 C63 750 52 748 37 746 C21 744 10 742 10 742 L53 742 C90 742 115 732 115 677 L115 226 C115 85 190 -10 303 -10 C420 -10 528 55 573 153 L573 98 L573 0 L586 0 L756 49 L756 53 C669 48 652 54 652 98 L652 98 Z " />
<glyph glyph-name="ubreve" unicode="&#x16d;" horiz-adv-x="620" d="M159 744 C164 675 223 628 306 628 C389 628 448 674 454 743 L439 745 C436 704 383 677 306 677 C229 677 176 705 173 747 L159 744 L159 744 Z M446 78 L446 -10 L458 -10 L558 15 C558 15 567 19 580 24 C592 30 601 33 601 33 L558 23 C533 17 516 25 516 92 L516 477 L516 500 L464 500 L413 500 C413 500 406 498 396 496 C386 494 380 492 380 492 L422 492 C436 492 446 490 446 477 L446 128 C419 74 355 39 282 39 C213 39 167 89 167 165 L167 477 L167 500 L115 500 L63 500 C63 500 57 498 47 496 C37 494 30 492 30 492 L73 492 C87 492 97 490 97 477 L97 165 C97 60 158 -10 249 -10 C333 -10 410 43 446 124 L446 78 L446 78 Z " />
<glyph glyph-name="Uring" unicode="&#x16e;" horiz-adv-x="766" d="M383 826 C342 826 307 862 307 905 C307 952 338 984 383 984 C429 984 460 952 460 905 C460 862 425 826 383 826 L383 826 Z M286 905 C286 854 331 810 383 810 C436 810 481 854 481 905 C481 962 442 1000 383 1000 C325 1000 286 962 286 905 L286 905 Z M652 98 L652 677 L652 750 L586 750 L521 750 C521 750 510 748 495 746 C479 744 468 742 468 742 L511 742 C548 742 573 732 573 677 L573 189 C532 99 436 40 335 40 C250 40 194 115 194 226 L194 677 L194 750 L128 750 L63 750 C63 750 52 748 37 746 C21 744 10 742 10 742 L53 742 C90 742 115 732 115 677 L115 226 C115 85 190 -10 303 -10 C420 -10 528 55 573 153 L573 98 L573 0 L586 0 L756 49 L756 53 C669 48 652 54 652 98 L652 98 Z " />
<glyph glyph-name="uring" unicode="&#x16f;" horiz-adv-x="620" d="M306 576 C265 576 230 612 230 655 C230 702 260 734 306 734 C352 734 383 702 383 655 C383 612 348 576 306 576 L306 576 Z M209 655 C209 604 254 560 306 560 C358 560 403 604 403 655 C403 712 364 750 306 750 C248 750 209 712 209 655 L209 655 Z M446 78 L446 -10 L458 -10 L558 15 C558 15 567 19 580 24 C592 30 601 33 601 33 L558 23 C533 17 516 25 516 92 L516 477 L516 500 L464 500 L413 500 C413 500 406 498 396 496 C386 494 380 492 380 492 L422 492 C436 492 446 490 446 477 L446 128 C419 74 355 39 282 39 C213 39 167 89 167 165 L167 477 L167 500 L115 500 L63 500 C63 500 57 498 47 496 C37 494 30 492 30 492 L73 492 C87 492 97 490 97 477 L97 165 C97 60 158 -10 249 -10 C333 -10 410 43 446 124 L446 78 L446 78 Z " />
<glyph glyph-name="Wcircumflex" unicode="&#x174;" horiz-adv-x="1148" d="M561 959 L702 807 L712 815 L586 1009 C581 1017 568 1034 561 1034 C553 1034 541 1017 536 1010 L410 815 L420 807 L561 959 L561 959 Z M513 702 L589 500 L411 98 L411 100 L208 638 C179 726 213 743 271 743 L311 743 C311 743 304 745 294 747 C285 749 278 751 278 751 L166 751 L164 751 L79 751 L50 751 C50 751 43 749 34 747 C24 745 17 743 17 743 L75 743 C79 743 88 725 123 633 L323 100 L364 -9 L385 -9 L602 468 L735 115 L781 -9 L801 -9 L1003 623 L1004 623 C1034 724 1062 743 1095 743 L1137 743 C1137 743 1130 745 1121 747 C1111 749 1104 751 1104 751 L1044 751 L1012 751 L992 751 L880 751 C880 751 873 749 863 747 C854 745 847 743 847 743 L887 743 C961 743 1004 724 973 623 L973 623 L817 111 L818 115 L617 669 C600 731 635 743 692 743 L732 743 C732 743 725 745 716 747 C706 749 699 751 699 751 L587 751 L568 751 L496 751 L437 751 C437 751 430 749 420 747 C411 745 404 743 404 743 L446 743 C478 743 501 737 514 703 L513 702 L513 702 Z " />
<glyph glyph-name="Ycircumflex" unicode="&#x176;" horiz-adv-x="749" d="M382 959 L524 807 L533 815 L407 1009 C402 1017 390 1034 383 1034 C375 1034 363 1017 358 1010 L232 815 L241 807 L382 959 L382 959 Z M233 642 C183 725 197 741 233 741 L270 741 C270 741 264 743 254 745 C244 747 238 749 238 749 L165 749 L142 749 L73 749 L45 749 C45 749 39 747 29 745 C19 743 13 741 13 741 L70 741 C75 741 90 722 154 621 L154 621 L343 324 L343 67 C343 17 318 7 281 7 L238 7 C238 7 249 5 265 3 C280 1 291 -1 291 -1 L383 -1 L474 -1 C474 -1 485 1 500 3 C516 5 527 7 527 7 L484 7 C447 7 422 17 422 67 L422 337 L587 621 L587 621 C645 722 673 741 699 741 L741 741 C741 741 735 743 725 745 C715 747 709 749 709 749 L661 749 L655 749 L646 749 L582 749 C582 749 576 747 566 745 C556 743 550 741 550 741 L588 741 C626 741 641 723 587 631 L587 631 L420 342 L233 642 L233 642 Z " />
<glyph glyph-name="Ydieresis" unicode="&#x178;" horiz-adv-x="749" d="M456 865 C483 865 501 883 501 910 C501 938 483 956 456 956 C429 956 411 938 411 910 C411 883 429 865 456 865 L456 865 Z M307 865 C335 865 353 883 353 910 C353 938 335 956 307 956 C280 956 262 938 262 910 C262 883 280 865 307 865 L307 865 Z M232 642 C182 725 196 741 232 741 L269 741 C269 741 263 743 253 745 C243 747 237 749 237 749 L164 749 L141 749 L72 749 L44 749 C44 749 38 747 28 745 C18 743 12 741 12 741 L69 741 C74 741 89 722 153 621 L153 621 L342 324 L342 67 C342 17 317 7 280 7 L237 7 C237 7 248 5 264 3 C279 1 290 -1 290 -1 L382 -1 L473 -1 C473 -1 484 1 499 3 C515 5 526 7 526 7 L483 7 C446 7 421 17 421 67 L421 337 L586 621 L586 621 C644 722 672 741 698 741 L740 741 C740 741 734 743 724 745 C714 747 708 749 708 749 L660 749 L654 749 L645 749 L581 749 C581 749 575 747 565 745 C555 743 549 741 549 741 L587 741 C625 741 640 723 586 631 L586 631 L419 342 L232 642 L232 642 Z " />
<glyph glyph-name="Zacute" unicode="&#x179;" horiz-adv-x="683" d="M363 813 L504 934 C543 969 570 994 570 1000 C570 1018 554 1034 535 1034 C530 1034 505 1007 472 966 L354 822 L363 813 L363 813 Z M495 23 L495 23 L123 18 L641 735 L641 751 L565 751 L228 751 L70 751 C68 735 65 714 63 699 C60 683 58 662 55 646 C55 646 55 629 54 603 C54 577 53 560 53 560 L59 599 C71 675 100 726 209 730 L552 734 L25 17 L25 1 L110 1 L490 1 L637 1 C641 16 646 36 650 50 C653 65 658 85 662 100 C662 100 664 116 668 139 C672 163 674 179 674 179 L661 135 C641 68 607 24 495 24 L495 23 L495 23 Z " />
<glyph glyph-name="Zdot" unicode="&#x17b;" horiz-adv-x="683" d="M356 865 C383 865 401 883 401 910 C401 938 383 956 356 956 C328 956 310 938 310 910 C310 883 328 865 356 865 L356 865 Z M495 23 L495 23 L123 18 L641 735 L641 751 L565 751 L228 751 L70 751 C68 735 65 714 63 699 C60 683 58 662 55 646 C55 646 55 629 54 603 C54 577 53 560 53 560 L59 599 C71 675 100 726 209 730 L552 734 L25 17 L25 1 L110 1 L490 1 L637 1 C641 16 646 36 650 50 C653 65 658 85 662 100 C662 100 664 116 668 139 C672 163 674 179 674 179 L661 135 C641 68 607 24 495 24 L495 23 L495 23 Z " />
<glyph glyph-name="zdot" unicode="&#x17c;" horiz-adv-x="506" d="M275 615 C302 615 320 633 320 660 C320 688 302 706 275 706 C247 706 229 688 229 660 C229 633 247 615 275 615 L275 615 Z M312 22 L313 22 L127 18 L466 484 L466 500 L395 500 L110 500 C105 500 99 504 100 510 L108 538 C107 536 105 533 103 529 C99 523 96 519 96 519 C95 513 93 506 91 499 L84 499 L84 474 L84 474 L84 474 C80 460 75 442 72 428 C72 428 69 418 65 403 C61 388 58 378 58 378 L77 420 C91 451 114 473 180 477 L383 482 L41 16 L41 0 L115 0 L396 0 L462 0 C464 11 466 25 467 36 C469 47 471 61 472 72 L477 97 L482 122 L466 79 C453 45 423 22 313 22 L312 22 L312 22 Z M109 538 L109 540 C109 540 109 539 108 538 L109 538 L109 538 Z " />
<glyph glyph-name="Zcaron" unicode="&#x17d;" horiz-adv-x="683" d="M495 23 L495 23 L123 18 L641 735 L641 751 L565 751 L228 751 L70 751 C68 735 65 714 63 699 C60 683 58 662 55 646 C55 646 55 629 54 603 C54 577 53 560 53 560 L59 599 C71 675 100 726 209 730 L552 734 L25 17 L25 1 L110 1 L490 1 L637 1 C641 16 646 36 650 50 C653 65 658 85 662 100 C662 100 664 116 668 139 C672 163 674 179 674 179 L661 135 C641 68 607 24 495 24 L495 23 L495 23 Z M356 892 L498 1044 L507 1036 L381 842 C377 834 364 817 357 817 C349 817 337 834 332 841 L206 1036 L215 1044 L356 892 L356 892 Z " />
<glyph glyph-name="zcaron" unicode="&#x17e;" horiz-adv-x="506" d="M312 22 L313 22 L127 18 L466 484 L466 500 L395 500 L110 500 C105 500 99 504 100 510 L108 538 C107 536 105 533 103 529 C99 523 96 519 96 519 C95 513 93 506 91 499 L84 499 L84 474 L84 474 L84 474 C80 460 75 442 72 428 C72 428 69 418 65 403 C61 388 58 378 58 378 L77 420 C91 451 114 473 180 477 L383 482 L41 16 L41 0 L115 0 L396 0 L462 0 C464 11 466 25 467 36 C469 47 471 61 472 72 L477 97 L482 122 L466 79 C453 45 423 22 313 22 L312 22 L312 22 Z M276 641 L418 793 L427 785 L301 591 C296 583 284 566 277 566 C269 566 257 583 252 590 L126 785 L135 793 L276 641 L276 641 Z M110 538 L110 540 C110 540 110 539 109 538 L110 538 L110 538 Z " />
<glyph glyph-name="oogonek" unicode="&#x1eb;" horiz-adv-x="770" d="M1022 -54 L1022 -53 C992 -78 884 -94 751 -94 C613 -94 457 -60 354 -8 C361 -9 367 -9 373 -9 C581 -9 720 112 720 293 C720 473 585 594 383 594 C188 594 57 473 57 293 C57 159 178 58 279 14 C443 -77 629 -137 742 -137 C850 -137 961 -103 1021 -53 L1022 -54 L1022 -54 Z M373 -6 C302 -6 136 113 136 293 C136 472 234 592 382 592 C536 592 638 472 638 293 C638 113 532 -6 373 -6 L373 -6 Z " />
<glyph glyph-name="Adotabove" unicode="&#x226;" horiz-adv-x="794" d="M417 865 C444 865 462 883 462 910 C462 938 444 956 417 956 C390 956 372 938 372 910 C372 883 390 865 417 865 L417 865 Z M657 128 L657 128 L456 725 L441 770 L433 770 C416 745 394 728 378 725 L381 715 L381 715 L194 147 C154 31 110 8 56 8 L14 8 C14 8 20 6 30 4 C40 2 46 0 46 0 L146 0 L150 0 L164 0 L282 0 C282 0 289 2 298 4 C308 6 315 8 315 8 L275 8 C206 8 166 29 194 134 L247 296 L520 296 L580 113 C606 25 575 8 522 8 L482 8 C482 8 489 6 499 4 C508 2 515 0 515 0 L617 0 L637 0 L700 0 L760 0 C760 0 766 2 776 4 C786 6 792 8 792 8 L750 8 C718 8 691 27 657 128 L657 128 Z M248 299 L383 711 L519 299 L248 299 L248 299 Z " />
<glyph glyph-name="G_sc" unicode="&#x262;" horiz-adv-x="746" d="M533 564 L531 564 C492 582 442 592 369 592 C182 592 57 471 57 291 C57 110 181 -11 367 -11 C440 -11 504 0 564 18 L603 27 L603 31 C628 40 653 50 677 61 L676 62 C654 52 630 43 603 35 L603 184 C603 234 620 244 646 244 L688 244 C688 244 680 246 667 248 C654 250 646 252 646 252 L564 252 L483 252 C483 252 473 250 458 248 C443 246 433 244 433 244 L475 244 C510 244 533 234 533 184 L534 82 C529 40 477 11 399 6 L446 7 C423 6 399 5 373 5 L398 6 C390 5 382 5 373 5 C230 5 134 119 134 290 C134 469 228 589 370 589 C410 589 443 584 471 575 C539 550 600 467 614 410 C617 397 619 388 619 388 C619 388 620 397 620 410 C621 422 622 431 622 431 L622 488 L622 545 C622 545 621 552 620 563 C620 574 619 581 619 581 C619 581 617 570 614 553 C612 540 578 539 533 562 L533 564 L533 564 Z " />
<glyph glyph-name="I_sc" unicode="&#x26a;" horiz-adv-x="370" d="M225 68 L225 516 C225 566 250 576 288 576 L330 576 C330 576 320 577 304 579 C288 582 278 583 278 583 L190 583 L102 583 C102 583 92 582 76 579 C60 577 50 576 50 576 L92 576 C130 576 155 566 155 516 L155 68 C155 18 130 8 92 8 L50 8 C50 8 60 6 76 4 C92 2 102 0 102 0 L190 0 L278 0 C278 0 288 2 304 4 C320 6 330 8 330 8 L288 8 C250 8 225 18 225 68 L225 68 Z " />
<glyph glyph-name="N_sc" unicode="&#x274;" horiz-adv-x="724" d="M175 583 L158 583 L141 583 L118 583 L87 583 L61 583 C61 583 55 582 45 579 C35 577 29 576 29 576 L86 576 C89 576 93 573 104 561 L140 516 L139 137 L139 137 C139 28 106 7 56 7 L14 7 C14 7 20 5 30 3 C40 1 46 -1 46 -1 L139 -1 L149 -1 L160 -1 L252 -1 C252 -1 259 1 269 3 C278 5 285 7 285 7 L243 7 C195 7 163 24 159 108 L157 494 L496 77 L559 -1 L573 -1 L577 485 C580 560 612 575 660 575 L702 575 C702 575 690 576 671 578 C652 581 640 582 640 582 L578 582 L567 582 L557 582 L495 582 C495 582 482 581 464 578 C445 576 432 575 432 575 L475 575 C524 575 557 559 557 475 L557 475 L558 85 L538 111 L175 583 L175 583 Z " />
<glyph glyph-name="R_sc" unicode="&#x280;" horiz-adv-x="685" d="M675 0 L675 5 C591 5 587 7 553 53 C472 165 411 249 386 283 C477 297 534 341 534 419 C534 517 447 583 315 583 L223 583 L161 583 L100 583 C100 583 89 582 74 579 C58 577 47 576 47 576 L90 576 C127 576 152 566 152 511 L152 73 C152 18 127 8 90 8 L47 8 C47 8 58 6 74 4 C89 2 100 0 100 0 L188 0 L275 0 C275 0 286 2 302 4 C317 6 328 8 328 8 L286 8 C248 8 223 18 223 73 L223 278 L313 278 C330 250 389 165 471 52 C507 1 516 -1 675 -1 L675 0 L675 0 Z M223 568 L294 568 C391 568 456 513 456 432 C456 337 400 295 315 295 L223 295 L223 510 L223 568 L223 568 Z " />
<glyph glyph-name="Y_sc" unicode="&#x28f;" horiz-adv-x="655" d="M241 456 L242 456 C174 557 187 576 225 576 L262 576 C262 576 256 577 246 579 C236 582 230 583 230 583 L157 583 L138 583 L74 583 L47 583 C47 583 40 582 31 579 C21 577 14 576 14 576 L72 576 C75 576 84 566 117 520 L299 251 L299 68 C299 18 274 8 236 8 L194 8 C194 8 204 6 220 4 C236 2 246 0 246 0 L334 0 L422 0 C422 0 432 2 448 4 C464 6 474 8 474 8 L432 8 C394 8 369 18 369 68 L369 263 L510 492 C557 562 582 576 605 576 L647 576 C647 576 640 577 631 579 C621 582 614 583 614 583 L567 583 L561 583 L552 583 L489 583 C489 583 482 582 473 579 C463 577 456 576 456 576 L494 576 C532 576 547 558 490 466 L490 465 L369 265 L241 456 L241 456 Z " />
<glyph glyph-name="B_sc" unicode="&#x299;" horiz-adv-x="592" d="M223 581 L287 581 C430 581 463 523 463 436 C463 354 407 300 322 300 L223 300 L223 511 L223 581 L223 581 Z M351 300 C461 308 533 364 533 443 C533 527 487 583 292 583 L223 583 L161 583 L100 583 C100 583 89 582 74 579 C58 577 47 576 47 576 L90 576 C127 576 152 566 152 511 L152 73 C152 18 127 8 90 8 L47 8 C47 8 58 6 74 4 C89 2 100 0 100 0 L161 0 L223 0 L343 0 C468 0 552 29 552 150 C552 240 478 300 368 300 L351 300 L351 300 Z M323 299 L361 299 C429 299 475 239 475 150 C475 30 421 2 340 2 L290 2 C250 2 223 22 223 52 L223 73 L223 299 L323 299 L323 299 Z " />
<glyph glyph-name="H_sc" unicode="&#x29c;" horiz-adv-x="786" d="M642 68 L642 516 C642 566 667 576 704 576 L747 576 C747 576 736 577 720 579 C705 582 694 583 694 583 L606 583 L519 583 C519 583 508 582 493 579 C477 577 466 576 466 576 L509 576 C546 576 571 566 571 516 L571 299 L259 299 L259 516 C259 566 284 576 322 576 L364 576 C364 576 353 577 338 579 C322 582 311 583 311 583 L224 583 L136 583 C136 583 125 582 110 579 C94 577 83 576 83 576 L126 576 C163 576 188 566 188 516 L188 68 C188 18 163 8 126 8 L83 8 C83 8 94 6 110 4 C125 2 136 0 136 0 L224 0 L311 0 C311 0 322 2 338 4 C353 6 364 8 364 8 L322 8 C284 8 259 18 259 68 L259 296 L571 296 L571 68 C571 18 546 8 509 8 L466 8 C466 8 477 6 493 4 C508 2 519 0 519 0 L606 0 L694 0 C694 0 705 2 720 4 C736 6 747 8 747 8 L704 8 C667 8 642 18 642 68 L642 68 Z " />
<glyph glyph-name="L_sc" unicode="&#x29f;" horiz-adv-x="587" d="M513 12 L512 12 C515 23 518 35 521 45 C525 60 530 78 533 92 C534 92 537 109 541 134 C545 159 548 176 548 176 L537 134 C517 60 478 11 339 11 L276 11 C229 11 224 27 224 51 L224 72 L224 510 C224 565 249 575 287 575 L329 575 C329 575 319 576 303 578 C287 581 277 582 277 582 L224 582 L189 582 L154 582 L101 582 C101 582 91 581 75 578 C59 576 49 575 49 575 L91 575 C129 575 154 565 154 510 L154 72 C154 17 129 7 91 7 L49 7 C49 7 59 5 75 3 C91 1 101 -1 101 -1 L154 -1 L163 -1 L224 -1 L336 -1 L508 -1 L512 -1 L513 12 L513 12 Z " />
<glyph glyph-name="A_sc" unicode="&#x1d00;" horiz-adv-x="707" d="M567 128 L567 128 L409 566 L395 603 L388 603 C373 583 354 568 338 566 L342 555 L196 141 C153 29 110 7 57 7 L15 7 C15 7 21 5 31 3 C41 1 47 -1 47 -1 L147 -1 L150 -1 L165 -1 L283 -1 C283 -1 289 1 299 3 C309 5 315 7 315 7 L276 7 C202 7 161 31 206 157 L205 157 L230 229 L458 229 L494 127 L493 127 C529 26 499 7 443 7 L404 7 C404 7 410 5 420 3 C430 1 436 -1 436 -1 L539 -1 L554 -1 L613 -1 L672 -1 C672 -1 679 1 689 3 C698 5 705 7 705 7 L663 7 C630 7 602 26 567 127 L567 128 L567 128 Z M230 231 L342 552 L456 231 L230 231 L230 231 Z " />
<glyph glyph-name="C_sc" unicode="&#x1d04;" horiz-adv-x="667" d="M533 564 L531 564 C492 582 442 592 369 592 C182 592 57 471 57 291 C57 110 178 -11 360 -11 C435 -11 491 1 535 23 C576 39 609 25 615 3 C620 -15 623 -27 623 -27 L623 3 L623 33 L623 91 L623 93 L623 149 C623 149 622 158 621 170 C621 183 620 192 620 192 C620 192 618 183 615 170 C603 120 548 41 489 15 L489 15 C453 0 412 -9 363 -9 C227 -9 136 111 136 291 C136 470 230 590 372 590 C412 590 445 585 473 576 C541 551 602 468 616 411 C619 398 621 389 621 389 C621 389 622 398 622 411 C623 423 624 432 624 432 L624 489 L624 546 C624 546 623 553 622 564 C622 575 621 582 621 582 C621 582 619 571 616 554 C614 541 580 540 535 563 L533 564 L533 564 Z " />
<glyph glyph-name="D_sc" unicode="&#x1d05;" horiz-adv-x="774" d="M152 511 L152 73 C152 18 127 8 90 8 L47 8 C47 8 58 6 74 4 C89 2 100 0 100 0 L152 0 L161 0 L223 0 L288 0 C547 0 720 99 720 292 C720 466 584 583 320 583 L223 583 L161 583 L152 583 L100 583 C100 583 89 582 74 579 C58 577 47 576 47 576 L90 576 C127 576 152 566 152 511 L152 511 Z M223 581 L312 581 C530 581 642 465 642 292 C642 100 499 2 284 2 C229 2 223 22 223 52 L223 73 L223 511 L223 581 L223 581 Z " />
<glyph glyph-name="E_sc" unicode="&#x1d07;" horiz-adv-x="592" d="M412 0 L520 0 C521 10 523 23 524 32 C526 42 528 55 529 65 L529 96 C530 115 530 127 530 127 L524 85 C517 35 496 2 412 2 L275 2 C228 2 223 22 223 52 L223 73 L223 299 L327 299 C411 299 427 260 427 202 L427 159 C427 159 429 173 431 194 C433 215 435 229 435 229 L435 299 L435 301 L435 302 L435 372 C435 372 433 386 431 407 C429 428 427 442 427 442 L427 400 C427 341 411 302 327 302 L223 302 L223 511 L223 581 L387 581 C488 581 490 543 494 486 L496 456 C496 456 497 469 498 487 C499 506 499 519 499 519 C499 528 498 541 497 551 C496 561 496 574 495 583 L387 583 L223 583 L161 583 L152 583 L100 583 C100 583 89 582 74 579 C58 577 47 576 47 576 L90 576 C127 576 152 566 152 511 L152 73 C152 18 127 8 90 8 L47 8 C47 8 58 6 74 4 C89 2 100 0 100 0 L152 0 L161 0 L223 0 L412 0 L412 0 Z " />
<glyph glyph-name="J_sc" unicode="&#x1d0a;" horiz-adv-x="370" d="M155 516 L155 -45 C155 -189 89 -216 41 -216 C6 -216 21 -157 -15 -157 C-35 -157 -48 -170 -48 -190 C-48 -208 -13 -220 38 -220 C117 -220 225 -171 225 89 L225 516 C225 566 250 576 288 576 L330 576 C330 576 320 577 304 579 C288 582 278 583 278 583 L190 583 L102 583 C102 583 92 582 76 579 C60 577 50 576 50 576 L92 576 C130 576 155 566 155 516 L155 516 Z " />
<glyph glyph-name="K_sc" unicode="&#x1d0b;" horiz-adv-x="683" d="M530 73 L529 73 L279 335 L459 524 C505 567 533 576 560 576 L602 576 C602 576 596 577 586 579 C576 582 570 583 570 583 L515 583 L488 583 L475 583 L380 583 C380 583 374 582 364 579 C354 577 348 576 348 576 L383 576 C442 576 464 557 372 456 L373 456 L223 292 L223 523 C223 568 248 576 286 576 L328 576 C328 576 317 577 302 579 C286 582 275 583 275 583 L223 583 L188 583 L152 583 L100 583 C100 583 89 582 74 579 C58 577 47 576 47 576 L90 576 C127 576 152 568 152 523 L152 60 C152 16 127 8 90 8 L47 8 C47 8 58 6 74 4 C89 2 100 0 100 0 L152 0 L188 0 L223 0 L275 0 C275 0 286 2 302 4 C317 6 328 8 328 8 L286 8 C248 8 223 16 223 60 L223 292 L511 0 L578 0 L599 0 L644 0 C644 0 651 2 660 4 C670 6 677 8 677 8 L626 8 C607 8 562 40 530 73 L530 73 Z " />
<glyph glyph-name="M_sc" unicode="&#x1d0d;" horiz-adv-x="825" d="M726 73 L725 73 L712 426 L712 426 C708 552 732 576 769 576 L811 576 C811 576 804 577 795 579 C785 582 778 583 778 583 L709 583 L706 583 L664 583 L639 583 L446 95 L218 583 L173 583 L156 583 L142 583 L134 583 L65 583 C65 583 58 582 49 579 C39 577 32 576 32 576 L75 576 C106 576 132 569 155 535 L140 137 L140 137 C136 28 102 7 52 7 L10 7 C10 7 17 5 26 3 C36 1 43 -1 43 -1 L135 -1 L147 -1 L159 -1 L252 -1 C252 -1 258 1 268 3 C278 5 284 7 284 7 L242 7 C192 7 159 26 163 127 L162 127 L172 503 L365 93 L409 -1 L427 -1 L642 525 L657 60 C655 15 630 6 594 6 L552 6 C552 6 562 4 578 2 C594 0 604 -2 604 -2 L659 -2 L692 -2 L729 -2 L779 -2 C779 -2 790 0 805 2 C821 4 832 6 832 6 L789 6 C753 6 729 16 727 71 L726 73 L726 73 Z " />
<glyph glyph-name="O_sc" unicode="&#x1d0f;" horiz-adv-x="775" d="M374 -7 C232 -7 137 112 137 292 C137 471 235 591 383 591 C537 591 639 471 639 292 C639 112 533 -7 374 -7 L374 -7 Z M57 292 C57 111 184 -10 373 -10 C581 -10 720 111 720 292 C720 472 585 593 383 593 C188 593 57 472 57 292 L57 292 Z " />
<glyph glyph-name="P_sc" unicode="&#x1d18;" horiz-adv-x="531" d="M205 0 L240 0 L293 0 C293 0 303 2 319 4 C335 6 345 8 345 8 L303 8 C265 8 240 18 240 73 L240 269 L281 269 C420 269 512 316 512 419 C512 518 436 583 321 583 L240 583 L179 583 L170 583 L118 583 C118 583 107 582 91 579 C76 577 65 576 65 576 L107 576 C145 576 170 566 170 511 L170 73 C170 18 145 8 107 8 L65 8 C65 8 76 6 91 4 C107 2 118 0 118 0 L170 0 L205 0 L205 0 Z M240 284 L240 511 L240 571 L304 571 C389 571 446 515 446 431 C446 330 380 284 281 284 L240 284 L240 284 Z " />
<glyph glyph-name="T_sc" unicode="&#x1d1b;" horiz-adv-x="736" d="M25 465 L40 503 C54 541 79 566 163 566 L333 566 L333 68 C333 18 308 8 271 8 L228 8 C228 8 239 6 255 4 C270 2 281 0 281 0 L368 0 L456 0 C456 0 467 2 482 4 C498 6 509 8 509 8 L466 8 C429 8 404 18 404 68 L404 566 L574 566 C658 566 683 541 697 503 L712 461 C712 461 710 472 707 488 C703 503 701 514 701 514 C696 527 690 545 685 559 C684 561 683 564 682 567 L682 583 L676 583 C673 590 670 597 668 603 C668 603 665 607 661 613 C656 619 653 623 653 623 L660 606 C664 592 652 583 568 583 L404 583 L333 583 L169 583 C85 583 73 592 77 606 L84 623 C84 623 81 619 76 613 C72 607 69 603 69 603 C67 597 64 590 61 583 L55 583 L55 567 C54 564 53 561 52 559 C47 545 41 527 36 514 C36 514 34 503 30 488 C28 477 26 469 25 465 L25 465 Z M25 465 C24 463 24 462 24 462 L25 465 L25 465 Z " />
<glyph glyph-name="U_sc" unicode="&#x1d1c;" horiz-adv-x="668" d="M553 98 L553 511 L553 583 L492 583 L430 583 C430 583 420 582 404 579 C388 577 378 576 378 576 L420 576 C458 576 483 566 483 511 L483 165 C446 87 364 35 276 35 C223 35 188 103 188 205 L188 511 L188 583 L126 583 L65 583 C65 583 54 582 39 579 C23 577 12 576 12 576 L55 576 C92 576 117 566 117 511 L117 205 C117 76 169 -10 247 -10 C349 -10 443 47 483 133 L483 98 L483 0 L494 0 L657 49 L657 53 C570 48 553 54 553 98 L553 98 Z " />
<glyph glyph-name="V_sc" unicode="&#x1d20;" horiz-adv-x="724" d="M93 552 L291 102 L340 -10 L354 -10 L577 489 C612 561 639 576 669 576 L711 576 C711 576 704 577 695 579 C685 582 678 583 678 583 L619 583 L591 583 L568 583 L459 583 C459 583 452 582 442 579 C433 577 426 576 426 576 L465 576 C539 576 580 557 537 456 L537 456 L387 103 L220 456 L220 456 C175 557 215 576 286 576 L325 576 C325 576 318 577 308 579 C299 582 292 583 292 583 L171 583 L160 583 L79 583 L50 583 C50 583 43 582 33 579 C24 577 17 576 17 576 L74 576 C78 576 83 572 93 552 L93 552 Z " />
<glyph glyph-name="W_sc" unicode="&#x1d21;" horiz-adv-x="1000" d="M446 541 L507 389 L507 389 L368 89 L212 456 L212 456 C171 557 203 576 264 576 L303 576 C303 576 297 577 287 579 C277 582 271 583 271 583 L161 583 L158 583 L81 583 L51 583 C51 583 45 582 35 579 C25 577 19 576 19 576 L76 576 C80 576 88 564 112 507 L282 89 L322 -10 L341 -10 L519 361 L623 102 L668 -10 L687 -10 L862 485 C891 561 917 576 947 576 L989 576 C989 576 982 577 973 579 C963 582 956 583 956 583 L897 583 L868 583 L846 583 L735 583 C735 583 729 582 719 579 C709 577 703 576 703 576 L742 576 C816 576 859 557 825 456 L825 456 L706 103 L550 487 L551 487 C520 563 555 577 617 577 L656 577 C656 577 650 578 640 580 C630 583 624 584 624 584 L511 584 L497 584 L430 584 L370 584 C370 584 364 583 354 580 C344 578 338 577 338 577 L380 577 C411 577 434 572 447 542 L446 541 L446 541 Z " />
<glyph glyph-name="Z_sc" unicode="&#x1d22;" horiz-adv-x="614" d="M101 0 L420 0 L568 0 C572 14 576 34 580 48 C584 62 588 82 592 96 C592 96 594 112 598 136 C601 159 604 175 604 175 L591 131 C571 68 539 25 442 21 L114 17 L572 570 L572 584 L503 584 L228 584 L70 584 C68 569 65 549 63 533 C61 518 58 498 56 482 C56 482 55 465 55 439 C54 413 53 395 53 395 L60 435 C72 513 103 565 225 565 L225 566 L490 569 L25 16 L25 1 L101 0 L101 0 Z " />
<glyph glyph-name="Wgrave" unicode="&#x1e80;" horiz-adv-x="1148" d="M455 966 C422 1007 398 1034 391 1034 C372 1034 356 1018 356 1000 C356 993 383 968 423 934 L564 813 L572 822 L455 966 L455 966 Z M513 702 L589 500 L411 98 L411 100 L208 638 C179 726 213 743 271 743 L311 743 C311 743 304 745 294 747 C285 749 278 751 278 751 L166 751 L164 751 L79 751 L50 751 C50 751 43 749 34 747 C24 745 17 743 17 743 L75 743 C79 743 88 725 123 633 L323 100 L364 -9 L385 -9 L602 468 L735 115 L781 -9 L801 -9 L1003 623 L1004 623 C1034 724 1062 743 1095 743 L1137 743 C1137 743 1130 745 1121 747 C1111 749 1104 751 1104 751 L1044 751 L1012 751 L992 751 L880 751 C880 751 873 749 863 747 C854 745 847 743 847 743 L887 743 C961 743 1004 724 973 623 L973 623 L817 111 L818 115 L617 669 C600 731 635 743 692 743 L732 743 C732 743 725 745 716 747 C706 749 699 751 699 751 L587 751 L568 751 L496 751 L437 751 C437 751 430 749 420 747 C411 745 404 743 404 743 L446 743 C478 743 501 737 514 703 L513 702 L513 702 Z " />
<glyph glyph-name="Wacute" unicode="&#x1e82;" horiz-adv-x="1148" d="M568 813 L709 934 C749 969 776 994 776 1000 C776 1018 760 1034 741 1034 C736 1034 711 1007 677 966 L559 822 L568 813 L568 813 Z M513 702 L589 500 L411 98 L411 100 L208 638 C179 726 213 743 271 743 L311 743 C311 743 304 745 294 747 C285 749 278 751 278 751 L166 751 L164 751 L79 751 L50 751 C50 751 43 749 34 747 C24 745 17 743 17 743 L75 743 C79 743 88 725 123 633 L323 100 L364 -9 L385 -9 L602 468 L735 115 L781 -9 L801 -9 L1003 623 L1004 623 C1034 724 1062 743 1095 743 L1137 743 C1137 743 1130 745 1121 747 C1111 749 1104 751 1104 751 L1044 751 L1012 751 L992 751 L880 751 C880 751 873 749 863 747 C854 745 847 743 847 743 L887 743 C961 743 1004 724 973 623 L973 623 L817 111 L818 115 L617 669 C600 731 635 743 692 743 L732 743 C732 743 725 745 716 747 C706 749 699 751 699 751 L587 751 L568 751 L496 751 L437 751 C437 751 430 749 420 747 C411 745 404 743 404 743 L446 743 C478 743 501 737 514 703 L513 702 L513 702 Z " />
<glyph glyph-name="Wdieresis" unicode="&#x1e84;" horiz-adv-x="1148" d="M635 865 C662 865 680 883 680 910 C680 938 662 956 635 956 C608 956 590 938 590 910 C590 883 608 865 635 865 L635 865 Z M487 865 C514 865 532 883 532 910 C532 938 514 956 487 956 C459 956 441 938 441 910 C441 883 459 865 487 865 L487 865 Z M513 702 L589 500 L411 98 L411 100 L208 638 C179 726 213 743 271 743 L311 743 C311 743 304 745 294 747 C285 749 278 751 278 751 L166 751 L164 751 L79 751 L50 751 C50 751 43 749 34 747 C24 745 17 743 17 743 L75 743 C79 743 88 725 123 633 L323 100 L364 -9 L385 -9 L602 468 L735 115 L781 -9 L801 -9 L1003 623 L1004 623 C1034 724 1062 743 1095 743 L1137 743 C1137 743 1130 745 1121 747 C1111 749 1104 751 1104 751 L1044 751 L1012 751 L992 751 L880 751 C880 751 873 749 863 747 C854 745 847 743 847 743 L887 743 C961 743 1004 724 973 623 L973 623 L817 111 L818 115 L617 669 C600 731 635 743 692 743 L732 743 C732 743 725 745 716 747 C706 749 699 751 699 751 L587 751 L568 751 L496 751 L437 751 C437 751 430 749 420 747 C411 745 404 743 404 743 L446 743 C478 743 501 737 514 703 L513 702 L513 702 Z " />
<glyph glyph-name="Etilde" unicode="&#x1ebc;" horiz-adv-x="667" d="M195 870 C195 908 216 933 248 933 C316 933 385 868 452 868 C498 868 528 912 528 977 L526 977 C526 941 503 917 468 917 C401 917 332 982 264 982 C221 982 193 937 193 870 L195 870 L195 870 Z M487 0 L595 0 C596 10 598 23 600 32 C601 42 603 55 604 65 C604 65 604 77 605 96 L605 127 L599 85 C592 35 571 2 488 2 L281 2 C234 2 229 22 229 52 L229 73 L229 385 L402 385 C486 385 502 346 502 287 L502 245 C502 245 504 259 506 280 C508 301 510 315 510 315 L510 385 L510 386 L510 388 L510 458 C510 458 508 472 506 493 C504 514 502 528 502 528 L502 485 C502 427 486 388 402 388 L229 388 L229 677 L229 748 L463 748 C563 748 565 710 569 653 L571 623 C571 623 572 635 573 654 C574 673 575 685 575 685 C574 695 573 708 572 718 C572 727 571 740 570 750 L462 750 L229 750 L163 750 L150 750 L98 750 C98 750 87 748 72 746 C56 744 45 742 45 742 L88 742 C125 742 150 732 150 677 L150 73 C150 18 125 8 88 8 L45 8 C45 8 56 6 72 4 C87 2 98 0 98 0 L150 0 L163 0 L229 0 L487 0 L487 0 Z " />
<glyph glyph-name="Ygrave" unicode="&#x1ef2;" horiz-adv-x="749" d="M276 966 C243 1007 218 1034 212 1034 C193 1034 177 1018 177 1000 C177 993 204 968 244 934 L384 813 L393 822 L276 966 L276 966 Z M232 642 C182 725 196 741 232 741 L269 741 C269 741 263 743 253 745 C243 747 237 749 237 749 L164 749 L141 749 L72 749 L44 749 C44 749 38 747 28 745 C18 743 12 741 12 741 L69 741 C74 741 89 722 153 621 L153 621 L342 324 L342 67 C342 17 317 7 280 7 L237 7 C237 7 248 5 264 3 C279 1 290 -1 290 -1 L382 -1 L473 -1 C473 -1 484 1 499 3 C515 5 526 7 526 7 L483 7 C446 7 421 17 421 67 L421 337 L586 621 L586 621 C644 722 672 741 698 741 L740 741 C740 741 734 743 724 745 C714 747 708 749 708 749 L660 749 L654 749 L645 749 L581 749 C581 749 575 747 565 745 C555 743 549 741 549 741 L587 741 C625 741 640 723 586 631 L586 631 L419 342 L232 642 L232 642 Z " />
<glyph glyph-name="quoteleft" unicode="&#x2018;" horiz-adv-x="638" d="" />
<glyph glyph-name="quoteright" unicode="&#x2019;" horiz-adv-x="106" d="" />
<glyph glyph-name="quotedblleft" unicode="&#x201c;" horiz-adv-x="638" d="M189 640 C181 640 174 637 169 631 C169 632 169 633 169 634 C169 674 193 720 228 751 L219 762 C176 726 148 670 148 621 C148 594 164 576 189 576 C209 576 222 589 222 609 C222 629 209 642 189 642 L189 640 L189 640 Z " />
<glyph glyph-name="quotedblright" unicode="&#x201d;" horiz-adv-x="638" d="M209 704 C208 656 188 608 160 584 L171 573 C206 603 230 661 230 718 C230 743 214 759 189 759 C169 759 156 746 156 726 C156 706 169 693 189 693 C198 693 205 697 210 704 L209 704 L209 704 Z " />
<glyph glyph-name="Euro" unicode="&#x20ac;" horiz-adv-x="810" d="M48 300 L110 300 C137 111 269 -10 457 -10 C552 -10 621 10 676 43 C716 65 750 54 757 32 C761 14 764 2 764 2 L764 32 L764 61 L764 120 L764 121 L764 179 C764 179 764 188 763 200 C762 213 762 222 762 222 C762 222 760 213 757 200 C747 157 699 84 644 45 C593 12 533 -7 458 -7 C316 -7 216 113 195 300 L520 300 L527 350 L191 350 C191 358 191 366 191 374 C191 382 191 390 191 398 L527 398 L534 448 L195 448 C217 635 321 755 469 755 C531 755 579 743 620 722 C687 686 745 601 758 548 C761 536 763 527 763 527 C763 527 763 536 764 548 C765 561 765 570 765 570 L765 628 L765 685 C765 685 765 697 764 714 C763 731 763 743 763 743 C763 743 761 731 758 714 C754 693 722 683 680 708 C630 741 566 760 468 760 C275 760 138 639 110 450 L62 450 L55 400 L106 400 C106 392 106 384 106 376 C106 368 106 360 106 352 L55 352 L48 300 L48 300 Z " />
<glyph glyph-name="F_sc" unicode="&#xa730;" horiz-adv-x="567" d="M346 297 C403 288 416 252 419 202 L420 154 C420 154 421 169 423 191 C424 212 425 227 425 227 L425 297 L425 299 L425 371 C425 371 424 385 423 406 C421 428 420 442 420 442 L419 394 C416 337 399 299 317 299 L223 299 L223 511 L223 582 L307 582 C458 582 490 549 494 499 L498 457 C498 457 499 470 499 488 C500 507 500 520 500 520 C500 530 498 542 498 552 C497 562 496 574 495 583 L387 583 L223 583 L161 583 L152 583 L100 583 C100 583 89 582 74 579 C58 577 47 576 47 576 L90 576 C127 576 152 566 152 511 L152 73 C152 18 127 8 90 8 L47 8 C47 8 58 6 74 4 C89 2 100 0 100 0 L152 0 L188 0 L223 0 L275 0 C275 0 286 2 302 4 C317 6 328 8 328 8 L286 8 C248 8 223 18 223 73 L223 297 L346 297 L346 297 Z " />
<glyph glyph-name="S_sc" unicode="&#xa731;" horiz-adv-x="508" d="M292 580 L255 590 C256 590 257 590 258 590 C280 588 301 582 320 573 L292 580 L292 580 Z M292 580 C354 554 406 483 419 427 C422 414 424 406 424 406 C424 406 425 414 426 427 C426 440 427 448 427 448 L427 500 L427 503 L427 558 C427 558 426 565 426 575 C425 586 424 593 424 593 C424 593 422 582 419 565 C417 552 397 547 371 559 C335 581 287 594 234 594 C136 594 70 534 70 444 C70 379 133 309 254 256 C359 210 413 163 413 127 C413 47 358 -6 275 -6 C242 -6 210 2 181 16 L185 15 C129 40 74 129 61 189 C58 201 56 210 56 210 C56 210 55 201 54 189 C53 176 53 167 53 167 L53 115 L53 105 L53 43 C53 43 53 28 54 7 C55 -15 56 -30 56 -30 C56 -30 58 -15 61 7 C64 33 94 50 132 30 C173 5 223 -9 276 -9 C393 -9 470 53 470 147 C470 211 411 280 298 329 C184 379 126 431 126 471 C126 544 170 592 235 592 C242 592 249 592 256 591 L256 591 C257 591 258 591 259 591 C271 590 282 587 293 582 L292 580 L292 580 Z " />
<glyph glyph-name="X_sc" unicode="&#xf078;" horiz-adv-x="712" d="M529 128 L528 128 L388 320 L581 539 C614 568 636 576 656 576 L698 576 C698 576 692 577 682 579 C672 582 666 583 666 583 L620 583 L588 583 L576 583 L486 583 C486 583 479 582 470 579 C460 577 453 576 453 576 L490 576 C545 576 566 555 481 446 L481 446 L386 324 L289 456 L289 456 C216 557 235 576 285 576 L321 576 C321 576 315 577 305 579 C295 582 289 583 289 583 L196 583 L182 583 L113 583 L76 583 C76 583 70 582 60 579 C50 577 44 576 44 576 L90 576 C105 576 127 561 183 487 L336 278 L198 109 L197 109 C128 25 90 9 52 9 L10 9 C10 9 17 7 26 5 C36 3 43 1 43 1 L109 1 L137 1 L166 1 L290 1 C290 1 296 3 306 5 C316 7 322 9 322 9 L286 9 C204 9 162 27 225 114 L345 267 L445 130 L445 130 C519 29 500 10 450 10 L414 10 C414 10 420 8 430 6 C440 4 446 2 446 2 L539 2 L558 2 L622 2 L669 2 C669 2 676 4 685 6 C695 8 702 10 702 10 L659 10 C634 10 603 29 529 130 L529 128 L529 128 Z " />
</font>
</svg>
