<?xml version="1.0" encoding="UTF-8"?>
<svg xmlns="http://www.w3.org/2000/svg" xmlns:xlink="http://www.w3.org/1999/xlink" version="1.2" >
<font id="Thomas Craft Bold">
<font-face  font-family="Thomas Craft" units-per-em="1024" ascent="871" descent="-300" font-style="normal" font-weight="700" font-stretch="normal" cap-height="966" x-height="436" underline-position="-125" underline-thickness="50" />
<missing-glyph  horiz-adv-x="100" d="" />
<glyph glyph-name="NULL" d="" />
<glyph glyph-name="CR" unicode="&#xd;" horiz-adv-x="256" d="" />
<glyph glyph-name="space" unicode="&#x20;" horiz-adv-x="263" d="" />
<glyph glyph-name="exclam" unicode="&#x21;" horiz-adv-x="281" d="M140 -5 C188 -5 220 27 220 75 C220 123 188 155 140 155 C92 155 60 123 60 75 C60 27 92 -5 140 -5 L140 -5 Z M140 675 C85 675 58 626 70 552 L130 176 L151 176 L211 552 C223 626 195 675 140 675 L140 675 Z " />
<glyph glyph-name="quotedbl" unicode="&#x22;" horiz-adv-x="336" d="M208 670 C182 670 168 652 175 625 L215 480 L229 480 L269 625 C276 652 262 670 236 670 L208 670 L208 670 Z M88 670 C62 670 48 652 55 625 L95 480 L109 480 L149 625 C156 652 142 670 116 670 L88 670 L88 670 Z " />
<glyph glyph-name="numbersign" unicode="&#x23;" horiz-adv-x="539" d="M389 576 L366 424 L210 424 L233 576 L226 576 L203 424 L60 424 L47 336 L189 336 L175 244 L28 244 L16 156 L161 156 L137 0 L144 0 L168 156 L324 156 L300 0 L307 0 L331 156 L469 156 L481 244 L345 244 L359 336 L506 336 L519 424 L373 424 L396 576 L389 576 L389 576 Z M196 336 L352 336 L338 244 L182 244 L196 336 L196 336 Z " />
<glyph glyph-name="dollar" unicode="&#x24;" horiz-adv-x="566" d="M47 198 L47 12 L55 12 C56 19 56 27 57 34 C60 65 85 68 120 43 L120 43 C149 22 183 7 219 -2 L219 -75 L259 -75 L259 -9 C272 -10 285 -10 299 -10 L299 -75 L339 -75 L339 -7 C453 9 526 83 526 187 C526 272 462 353 339 401 L339 661 C352 656 364 650 375 643 C406 621 442 574 467 522 L474 508 L489 508 L489 657 L481 657 C480 653 480 647 479 643 C476 625 460 621 438 632 C424 642 408 650 390 657 C385 660 380 663 375 666 L373 663 C362 667 350 670 337 672 L337 744 L297 744 L297 678 C284 679 271 679 257 679 L257 744 L217 744 L217 675 C118 658 56 588 56 489 C56 404 111 325 217 277 L217 11 C196 20 175 33 156 50 C127 77 93 129 67 183 L60 197 L47 198 L47 198 Z M468 566 L468 566 L468 566 L468 566 Z M257 260 C271 255 284 250 296 245 L296 -4 C282 -5 269 -4 256 -1 L257 260 L257 260 Z M336 226 C388 198 415 171 415 148 C415 78 385 26 336 5 L336 226 L336 226 Z M256 435 L256 674 C270 675 283 674 296 672 L296 417 C282 423 269 429 257 435 L256 435 L256 435 Z M217 459 C180 486 161 514 161 540 C161 597 182 641 217 662 L217 459 L217 459 Z " />
<glyph glyph-name="percent" unicode="&#x25;" horiz-adv-x="839" d="M143 514 C143 611 161 675 187 675 C218 675 238 593 238 469 C238 381 220 322 192 322 C163 322 143 399 143 514 L143 514 Z M31 493 C31 387 95 316 190 316 C284 316 347 393 347 508 C347 611 284 680 190 680 C95 680 31 605 31 493 L31 493 Z M601 192 C601 286 622 349 654 349 C693 349 719 268 719 146 C719 56 695 -4 658 -4 C624 -4 601 74 601 192 L601 192 Z M488 170 C488 62 555 -10 656 -10 C759 -10 827 68 827 186 C827 287 759 354 656 354 C555 354 488 280 488 170 L488 170 Z M193 -3 L664 667 L656 673 L186 3 L193 -3 L193 -3 Z " />
<glyph glyph-name="ampersand" unicode="&#x26;" horiz-adv-x="883" d="M344 467 C444 502 508 558 508 610 C508 652 431 680 315 680 C209 680 139 646 139 595 C139 547 171 498 222 435 C107 392 32 299 32 196 C32 72 117 -10 245 -10 C338 -10 430 27 512 93 C515 89 518 85 521 81 C567 26 639 -11 699 -11 C771 -11 827 51 838 144 L818 151 C813 110 785 83 747 83 C701 83 650 106 621 141 C612 152 603 163 594 174 C651 241 699 324 734 419 L707 419 C675 333 626 260 567 205 C413 388 372 431 343 466 L344 467 L344 467 Z M331 481 C275 550 240 602 240 654 C240 653 270 652 315 652 C374 652 413 638 413 616 C413 558 381 506 332 481 L331 481 L331 481 Z M475 137 C424 110 369 95 313 95 C218 95 154 149 154 229 C154 314 185 385 234 418 C279 363 305 338 475 136 L475 137 L475 137 Z " />
<glyph glyph-name="quotesingle" unicode="&#x27;" horiz-adv-x="209" d="M88 670 C62 670 48 652 55 625 L95 480 L109 480 L149 625 C156 652 142 670 116 670 L88 670 L88 670 Z " />
<glyph glyph-name="parenleft" unicode="&#x28;" horiz-adv-x="256" d="M235 680 C129 603 59 482 59 233 C59 -16 129 -137 235 -214 L246 -199 C188 -157 149 -49 149 233 C149 515 188 623 246 665 L235 680 L235 680 Z " />
<glyph glyph-name="parenright" unicode="&#x29;" horiz-adv-x="197" d="M3 667 C65 627 106 453 106 233 C106 13 65 -161 3 -201 L10 -214 C116 -145 187 34 187 233 C187 432 116 611 10 680 L3 667 L3 667 Z " />
<glyph glyph-name="asterisk" unicode="&#x2a;" horiz-adv-x="300" d="M235 460 C251 444 270 449 284 472 C298 495 293 514 272 519 C272 519 248 477 238 459 L235 460 L235 460 Z M273 579 L273 579 L273 579 L273 579 Z M273 579 C294 584 299 603 286 626 C273 649 254 654 239 638 L238 640 L152 550 L150 551 L185 670 C191 691 177 705 150 705 C123 705 109 691 115 670 L150 551 L64 641 L64 640 C48 656 29 651 16 628 C2 604 7 585 28 580 L29 580 C32 586 37 595 42 604 L29 581 L150 551 L150 551 L31 521 L66 460 L149 547 L115 431 C109 410 123 396 150 396 C177 396 191 410 185 431 L151 549 L152 550 L237 462 L272 523 L156 552 L273 581 L273 581 L261 601 C265 593 269 586 272 581 L273 579 L273 579 Z M65 461 C54 479 30 521 30 521 C8 516 3 497 17 474 C30 450 49 445 64 461 L65 461 L65 461 Z " />
<glyph glyph-name="plus" unicode="&#x2b;" horiz-adv-x="631" d="M271 431 L271 255 L100 255 L100 174 L271 174 L271 0 L360 0 L360 174 L531 174 L531 255 L360 255 L360 431 L271 431 L271 431 Z " />
<glyph glyph-name="comma" unicode="&#x2c;" horiz-adv-x="260" d="M170 27 C191 -50 137 -107 65 -107 L65 -111 C140 -111 190 -62 190 11 C190 63 172 101 143 112 C138 114 132 115 126 115 C90 115 66 91 66 55 C66 19 90 -5 126 -5 C147 -5 163 7 171 27 L170 27 L170 27 Z " />
<glyph glyph-name="hyphen" unicode="&#x2d;" horiz-adv-x="441" d="M80 192 L361 192 L361 287 L80 287 L80 192 L80 192 Z " />
<glyph glyph-name="period" unicode="&#x2e;" horiz-adv-x="195" d="M125 -5 C173 -5 205 27 205 75 C205 123 173 155 125 155 C77 155 45 123 45 75 C45 27 77 -5 125 -5 L125 -5 Z " />
<glyph glyph-name="slash" unicode="&#x2f;" horiz-adv-x="398" d="M300 690 L18 -80 L86 -80 L368 690 L300 690 L300 690 Z " />
<glyph glyph-name="zero" unicode="0" horiz-adv-x="534" d="M96 210 C96 303 164 383 265 383 C356 383 434 314 434 210 C434 117 366 37 265 37 C174 37 96 106 96 210 L96 210 Z M41 210 C41 78 144 -10 265 -10 C399 -10 489 91 489 210 C489 342 386 430 265 430 C131 430 41 329 41 210 L41 210 Z " />
<glyph glyph-name="one" unicode="1" horiz-adv-x="301" d="M263 5 C229 5 208 20 208 55 L208 365 C208 400 229 415 263 415 L263 420 L38 420 L38 415 C72 415 93 400 93 365 L93 55 C93 20 72 5 38 5 L38 0 L263 0 L263 5 L263 5 Z " />
<glyph glyph-name="two" unicode="2" horiz-adv-x="565" d="M533 137 L528 131 C515 114 481 102 442 102 L221 102 C364 183 465 254 465 294 C465 376 393 431 285 431 C161 431 63 358 42 248 L66 243 C78 304 142 344 226 344 C300 344 350 314 350 268 C350 203 195 105 14 13 L28 3 C23 2 18 1 14 1 L446 1 L508 100 C517 112 525 124 533 135 L533 137 L533 137 Z " />
<glyph glyph-name="three" unicode="3" horiz-adv-x="468" d="M16 -209 L20 -232 C265 -206 428 -113 428 0 C428 96 349 163 225 178 C332 232 398 283 398 326 C398 388 330 430 227 430 C124 430 41 367 19 272 L44 265 C56 315 110 349 180 349 C237 349 275 324 275 286 C275 250 238 215 178 181 C164 181 161 179 150 166 C136 159 121 152 105 145 L105 122 C109 124 113 126 117 128 C113 125 109 123 106 123 C228 106 309 44 309 -32 C309 -119 193 -190 18 -208 L16 -209 L16 -209 Z " />
<glyph glyph-name="four" unicode="4" horiz-adv-x="641" d="M568 88 L426 88 L426 447 L411 447 L15 20 L15 0 L311 0 L311 -220 L426 -220 L426 0 L556 0 C585 0 602 -8 602 -25 C602 -25 609 -26 612 -26 L616 0 L616 0 L616 2 L622 44 C626 69 630 101 634 126 C629 126 624 128 624 128 C616 105 600 88 568 88 L568 88 Z M311 274 L311 88 L134 88 L311 274 L311 274 Z " />
<glyph glyph-name="five" unicode="5" horiz-adv-x="453" d="M61 -235 C278 -208 423 -93 423 53 C423 178 286 255 85 255 L100 317 L355 320 L369 399 C372 415 375 432 377 446 L367 446 L365 442 C360 429 339 421 312 421 L77 421 L19 153 L39 135 L81 135 C225 135 321 87 321 15 C321 -102 215 -194 57 -213 L61 -235 L61 -235 Z " />
<glyph glyph-name="six" unicode="6" horiz-adv-x="580" d="M561 670 C250 655 42 493 42 265 C42 100 142 -10 292 -10 C432 -10 526 79 526 213 C526 318 439 388 308 388 C250 388 203 369 173 336 C219 522 365 644 566 654 L561 670 L561 670 Z M158 205 C158 312 218 384 307 384 C370 384 412 318 412 220 C412 86 364 -4 292 -4 C212 -4 158 80 158 205 L158 205 Z " />
<glyph glyph-name="seven" unicode="7" horiz-adv-x="451" d="M31 299 C42 317 64 329 95 329 L398 329 L407 343 L104 -220 L192 -220 L446 407 L446 420 L141 420 C111 420 99 425 99 437 C98 437 90 438 89 439 C88 437 82 420 80 420 L57 375 L55 375 C45 353 32 325 22 303 C24 302 29 300 31 299 L31 299 Z " />
<glyph glyph-name="eight" unicode="8" horiz-adv-x="552" d="M198 321 C213 314 229 307 246 301 C353 264 424 233 424 201 C424 77 364 -6 273 -6 C190 -6 134 58 134 155 C134 223 159 283 199 320 L198 321 L198 321 Z M185 328 C93 282 35 217 35 155 C35 56 131 -10 274 -10 C418 -10 514 56 514 154 C514 277 451 339 351 384 C437 427 491 484 491 536 C491 622 404 680 273 680 C146 680 62 614 62 515 C62 435 110 370 187 327 L185 328 L185 328 Z M336 390 C320 397 304 403 287 409 C208 436 155 489 155 557 C155 629 204 677 277 677 C347 677 393 616 393 524 C393 471 372 423 337 391 L336 390 L336 390 Z " />
<glyph glyph-name="nine" unicode="9" horiz-adv-x="580" d="M19 -250 C330 -235 538 -73 538 155 C538 320 438 430 288 430 C148 430 54 341 54 207 C54 102 141 32 272 32 C330 32 377 51 407 84 C361 -102 215 -224 14 -234 L19 -250 L19 -250 Z M422 215 C422 108 362 36 273 36 C210 36 168 102 168 200 C168 334 216 424 288 424 C368 424 422 340 422 215 L422 215 Z " />
<glyph glyph-name="colon" unicode="&#x3a;" horiz-adv-x="135" d="M125 305 C173 305 205 337 205 385 C205 433 173 465 125 465 C77 465 45 433 45 385 C45 337 77 305 125 305 L125 305 Z M125 -5 C173 -5 205 27 205 75 C205 123 173 155 125 155 C77 155 45 123 45 75 C45 27 77 -5 125 -5 L125 -5 Z " />
<glyph glyph-name="semicolon" unicode="&#x3b;" horiz-adv-x="260" d="M125 305 C173 305 205 337 205 385 C205 433 173 465 125 465 C77 465 45 433 45 385 C45 337 77 305 125 305 L125 305 Z M170 27 C191 -50 137 -107 65 -107 L65 -111 C140 -111 190 -62 190 11 C190 63 172 101 143 112 C138 114 132 115 126 115 C90 115 66 91 66 55 C66 19 90 -5 126 -5 C147 -5 163 7 171 27 L170 27 L170 27 Z " />
<glyph glyph-name="equal" unicode="&#x3d;" horiz-adv-x="549" d="M88 186 L88 134 L479 134 L479 186 L88 186 L88 186 Z M88 286 L88 234 L479 234 L479 286 L88 286 L88 286 Z " />
<glyph glyph-name="question" unicode="&#x3f;" horiz-adv-x="295" d="M125 -5 C173 -5 205 27 205 75 C205 123 173 155 125 155 C77 155 45 123 45 75 C45 27 77 -5 125 -5 L125 -5 Z M127 214 C127 214 126 322 125 322 C227 322 258 348 288 387 C307 412 319 456 319 498 C319 607 249 679 145 679 C80 679 37 645 37 594 C37 560 62 537 99 537 C125 537 161 557 187 557 C246 557 285 528 285 484 C285 477 276 460 263 443 C244 418 218 402 97 402 C103 400 107 214 107 214 L127 214 L127 214 Z M97 402 L97 402 L97 402 L97 402 Z " />
<glyph glyph-name="at" unicode="&#x40;" horiz-adv-x="1195" d="M1056 0 C990 -142 812 -237 613 -237 C332 -237 145 -55 145 219 C145 491 326 672 598 672 C869 672 1050 518 1050 288 C1050 121 980 10 874 10 C793 10 762 86 796 200 L857 403 L748 403 L731 348 C712 388 665 412 602 412 C412 412 285 310 285 156 C285 65 359 4 471 4 C555 4 629 41 674 101 C684 20 748 -29 851 -29 C1023 -29 1138 98 1138 289 C1138 539 921 705 596 705 C271 705 54 511 54 220 C54 -65 287 -255 637 -255 C838 -255 1020 -153 1092 1 L1056 0 L1056 0 Z M714 299 L685 201 C661 122 599 69 529 69 C458 69 410 113 410 179 C410 300 485 381 598 381 C668 381 714 348 714 299 L714 299 Z " />
<glyph glyph-name="A" unicode="A" horiz-adv-x="732" d="M202 6 L186 6 C137 6 115 42 129 97 L182 262 L429 262 L490 97 C507 42 486 6 437 6 L421 6 L421 0 L730 0 L730 6 L721 6 C691 6 657 39 634 90 C558 290 481 489 406 689 L392 689 C396 664 356 642 292 633 L296 623 L124 96 C102 41 56 5 5 5 L-11 5 L-11 -1 L203 -1 L202 6 L202 6 Z M185 267 L298 617 L428 267 L185 267 L185 267 Z " />
<glyph glyph-name="B" unicode="B" horiz-adv-x="715" d="M355 2 L305 2 C267 2 241 21 241 49 L241 344 C320 344 373 344 373 343 C465 343 526 275 526 174 C526 35 458 2 355 2 L355 2 Z M51 664 C85 664 106 649 106 614 L106 56 C106 21 85 6 51 6 L51 0 L361 0 C549 0 675 33 675 174 C675 275 566 343 402 347 C546 361 638 423 638 511 C638 606 580 670 331 670 L51 670 L51 664 L51 664 Z M339 347 L241 347 L241 666 L323 666 C469 666 503 598 503 496 C503 407 437 347 339 347 L339 347 Z " />
<glyph glyph-name="C" unicode="C" horiz-adv-x="783" d="M740 15 L740 185 L725 185 C689 96 591 45 592 44 C541 13 491 -5 441 -5 C290 -5 189 131 189 335 C189 539 294 675 451 675 C537 675 594 649 644 605 C680 572 708 531 725 488 L740 488 L740 651 L732 651 C731 646 731 639 730 634 C727 609 704 607 673 628 L673 628 C625 661 559 681 448 681 C203 681 39 543 39 336 C39 129 199 -9 439 -9 C530 -9 600 12 659 46 L659 46 C698 69 726 64 729 35 C730 29 730 22 731 16 L740 15 L740 15 Z M725 121 L725 121 L725 121 L725 121 Z " />
<glyph glyph-name="D" unicode="D" horiz-adv-x="872" d="M319 4 C249 4 241 21 241 46 L241 666 L351 666 C560 666 668 534 668 335 C668 117 528 4 319 4 L319 4 Z M51 665 C85 665 106 650 106 615 L106 55 C106 20 85 5 51 5 L51 0 L325 0 C620 0 817 114 817 335 C817 536 664 670 368 670 L51 670 L51 665 L51 665 Z " />
<glyph glyph-name="E" unicode="E" horiz-adv-x="644" d="M502 239 L502 454 L491 454 L486 429 C477 381 440 349 392 349 L241 349 L241 666 L453 666 C501 666 542 634 557 586 L565 561 L576 561 C572 593 567 636 563 668 L562 668 L562 670 L31 670 L31 665 L43 665 C81 665 106 637 106 595 L106 75 C106 33 81 5 43 5 L31 5 L31 0 L587 0 L587 2 L588 2 C594 31 601 70 606 99 L595 99 L589 84 C570 36 516 4 453 4 L287 4 C246 4 241 21 241 46 L241 344 L392 344 C440 344 477 312 486 264 L491 239 L502 239 L502 239 Z " />
<glyph glyph-name="F" unicode="F" horiz-adv-x="619" d="M492 239 L492 454 L481 454 L476 429 C467 381 430 349 382 349 L241 349 L241 667 L452 667 C500 667 541 635 556 587 L564 562 L575 562 C571 594 566 637 562 669 L562 670 L31 670 L31 665 L43 665 C81 665 106 637 106 595 L106 75 C106 33 81 5 43 5 L31 5 L31 0 L316 0 L316 5 L304 5 C266 5 241 33 241 75 L241 344 L382 344 C430 344 467 312 476 264 L481 239 L492 239 L492 239 Z " />
<glyph glyph-name="G" unicode="G" horiz-adv-x="837" d="M741 488 L741 651 L733 651 C732 646 732 639 731 634 C728 609 705 607 674 628 L674 628 C626 661 560 681 449 681 C204 681 40 543 40 336 C40 129 203 -9 448 -9 C554 -9 637 6 709 30 L725 33 C725 33 725 34 725 36 C748 44 770 53 792 63 L791 66 C772 57 750 49 724 42 C724 67 724 139 724 199 C724 250 746 284 779 284 L789 284 L789 290 L523 290 L523 284 L533 284 C566 284 588 250 588 199 C589 199 589 134 589 126 C582 60 536 17 469 17 C300 17 187 144 187 335 C187 539 292 675 449 675 C535 675 592 649 642 605 C678 572 706 531 723 488 L741 488 L741 488 Z " />
<glyph glyph-name="H" unicode="H" horiz-adv-x="848" d="M789 5 C755 5 734 20 734 55 L734 615 C734 650 755 665 789 665 L789 670 L544 670 L544 665 C578 665 599 650 599 615 L599 347 L277 347 L277 615 C277 650 298 665 332 665 L332 670 L87 670 L87 665 C121 665 142 650 142 615 L142 55 C142 20 121 5 87 5 L87 0 L332 0 L332 5 C298 5 277 20 277 55 L277 342 L599 342 L599 55 C599 20 578 5 544 5 L544 0 L789 0 L789 5 L789 5 Z " />
<glyph glyph-name="I" unicode="I" horiz-adv-x="341" d="M282 5 C248 5 227 20 227 55 L227 615 C227 650 248 665 282 665 L282 670 L37 670 L37 665 C71 665 92 650 92 615 L92 55 C92 20 71 5 37 5 L37 0 L282 0 L282 5 L282 5 Z " />
<glyph glyph-name="J" unicode="J" horiz-adv-x="341" d="M282 670 L37 670 L37 665 C71 665 92 650 92 615 L92 -106 C92 -196 21 -213 -30 -213 C-97 -213 -64 -105 -131 -105 C-168 -105 -192 -129 -192 -166 C-192 -198 -129 -220 -35 -220 C75 -220 228 -161 228 150 C228 270 227 514 227 620 C229 653 249 666 282 666 L282 670 L282 670 Z " />
<glyph glyph-name="K" unicode="K" horiz-adv-x="778" d="M296 670 L51 670 L51 665 C85 665 106 650 106 615 L106 55 C106 20 85 5 51 5 L51 0 L296 0 L296 5 C262 5 241 20 241 55 L241 335 L546 0 L774 0 L774 5 C738 5 705 21 675 55 L675 55 L354 413 C416 475 477 538 539 600 C578 639 628 665 666 665 L678 665 L678 670 L428 670 L428 665 L448 665 C508 665 511 625 455 565 L455 565 L241 335 L241 615 C241 650 262 665 296 665 L296 670 L296 670 Z " />
<glyph glyph-name="L" unicode="L" horiz-adv-x="620" d="M282 670 L37 670 L37 665 C71 665 92 650 92 615 L92 55 C92 20 71 5 37 5 L37 0 L576 0 L576 17 C581 48 588 88 594 118 L583 118 L577 103 C558 55 504 23 441 23 L273 23 C232 23 227 32 227 46 L227 615 C227 650 248 665 282 665 L282 670 L282 670 Z " />
<glyph glyph-name="M" unicode="M" horiz-adv-x="884" d="M850 670 L667 670 L481 175 L260 670 L46 670 L46 665 C78 665 102 652 119 623 L99 50 C96 18 76 4 44 4 L44 -1 L200 -1 L200 4 C167 4 146 19 146 54 L146 54 L153 552 C240 368 327 183 415 -1 L449 -1 L670 558 L684 46 C681 16 661 5 630 5 L630 0 L874 0 L874 5 C840 5 819 20 818 55 L797 618 C797 652 817 666 850 666 L850 670 L850 670 Z " />
<glyph glyph-name="N" unicode="N" horiz-adv-x="753" d="M49 0 L200 0 L200 5 C167 5 145 20 145 55 L145 55 L142 515 C296 343 450 171 604 -1 L631 -1 L640 620 C643 652 664 664 696 664 L696 669 L546 669 L546 664 C580 664 601 649 601 614 L601 614 L603 181 C459 343 316 506 173 669 L-45 669 L-45 664 C-9 664 24 648 54 614 L54 614 L108 554 L107 54 L107 54 C107 19 86 4 52 4 L49 0 L49 0 Z " />
<glyph glyph-name="O" unicode="O" horiz-adv-x="903" d="M187 335 C187 539 287 675 438 675 C596 675 701 539 701 335 C701 131 593 -5 430 -5 C284 -5 187 131 187 335 L187 335 Z M40 335 C40 128 196 -10 429 -10 C680 -10 848 128 848 335 C848 542 684 680 439 680 C200 680 40 542 40 335 L40 335 Z " />
<glyph glyph-name="P" unicode="P" horiz-adv-x="659" d="M330 5 C296 5 275 20 275 55 L275 297 L328 297 C515 297 639 353 639 479 C639 594 536 670 381 670 L85 670 L85 665 C119 665 140 650 140 615 L140 55 C140 20 119 5 85 5 L85 0 L330 0 L330 5 L330 5 Z M275 326 L275 647 L346 647 C446 647 512 589 512 502 C512 381 438 326 328 326 L275 326 L275 326 Z " />
<glyph glyph-name="Q" unicode="Q" horiz-adv-x="898" d="M1212 -51 L1210 -49 C1180 -74 1042 -91 865 -91 C673 -91 484 -58 371 -7 C390 -9 409 -10 429 -10 C680 -10 848 128 848 335 C848 542 684 680 439 680 C200 680 40 542 40 335 C40 210 97 110 194 51 C410 -85 672 -175 850 -175 C978 -175 1123 -125 1212 -50 L1212 -51 L1212 -51 Z M187 336 C187 540 287 676 438 676 C596 676 701 540 701 336 C701 130 590 -7 424 -7 C282 -7 187 130 187 336 L187 336 Z " />
<glyph glyph-name="R" unicode="R" horiz-adv-x="794" d="M51 665 C85 665 106 650 106 615 L106 55 C106 20 85 5 51 5 L51 0 L296 0 L296 5 C262 5 241 20 241 55 L241 306 L323 306 C347 268 416 176 508 58 C552 2 563 0 783 0 L783 7 C710 7 705 9 667 58 C571 180 497 274 462 318 C565 340 628 392 628 478 C628 593 507 669 326 669 L49 669 L51 665 L51 665 Z M239 338 L239 642 L286 642 C402 642 479 587 479 504 C479 389 418 338 326 338 L239 338 L239 338 Z " />
<glyph glyph-name="S" unicode="S" horiz-adv-x="566" d="M489 508 L489 657 L481 657 C480 653 480 647 479 643 C476 625 460 621 438 632 C424 642 408 650 390 657 C385 660 380 663 375 666 L373 663 C341 673 305 679 267 679 C140 679 56 603 56 488 C56 395 121 310 247 264 C359 223 416 180 416 147 C416 56 364 -5 287 -5 C241 -5 195 15 156 50 C127 77 93 129 67 183 L60 197 L45 197 L45 11 L53 11 C54 18 54 26 55 33 C58 64 83 67 118 42 L118 42 C164 9 224 -11 287 -11 C429 -11 524 68 524 187 C524 274 457 357 328 404 C218 444 161 495 161 540 C161 620 203 674 267 674 C305 674 342 662 374 642 C405 620 441 573 466 521 L473 507 L489 508 L489 508 Z M469 566 L469 566 L469 566 L469 566 Z " />
<glyph glyph-name="T" unicode="T" horiz-adv-x="786" d="M715 685 C700 674 656 670 604 670 L181 670 C129 670 86 674 71 685 L62 685 C58 675 53 663 49 653 L56 653 L56 641 C43 609 27 571 15 541 L26 541 L35 556 C64 604 117 636 168 636 L326 636 L326 55 C326 20 305 5 271 5 L271 0 L517 0 L517 5 C483 5 462 20 462 55 L462 636 L617 636 C669 636 722 604 751 556 L760 541 L771 541 C759 570 744 606 731 637 L731 654 L737 654 C735 659 733 664 731 669 L731 671 L730 671 C728 676 726 681 724 686 L715 685 L715 685 Z " />
<glyph glyph-name="U" unicode="U" horiz-adv-x="765" d="M736 38 L727 36 C699 29 681 44 681 74 L681 670 L614 670 L614 671 L491 671 L491 666 C525 666 546 651 546 616 L546 199 C512 126 433 77 350 77 C264 77 206 133 206 218 L206 670 L139 670 L139 671 L16 671 L16 666 C50 666 71 651 71 616 L71 218 C71 81 161 -10 296 -10 C405 -10 505 49 546 138 L546 0 L614 0 L681 18 L681 18 C700 23 719 28 736 32 L736 38 L736 38 Z " />
<glyph glyph-name="V" unicode="V" horiz-adv-x="823" d="M291 670 L-10 670 L-10 664 C20 664 50 629 83 566 C181 374 279 182 377 -10 L404 -10 L675 564 C703 624 743 664 773 664 L782 664 L782 670 L551 670 L551 664 L569 664 C629 664 651 624 625 564 L625 564 L459 179 L245 564 C212 624 224 664 275 664 L291 664 L291 670 L291 670 Z " />
<glyph glyph-name="W" unicode="W" horiz-adv-x="1133" d="M285 670 L14 670 L14 664 C45 664 71 637 97 584 L97 584 C194 386 291 188 389 -10 L423 -10 L592 399 C660 263 728 127 796 -9 L830 -9 L831 -4 L1031 589 C1047 635 1079 665 1111 665 L1121 665 L1121 671 L890 671 L890 665 L923 665 C971 665 993 633 978 585 L979 585 L856 185 L856 188 C787 320 717 453 649 585 C624 633 639 665 687 665 L704 665 L704 671 L409 671 L409 665 C442 665 472 637 498 585 L567 448 L456 164 C386 304 316 445 247 585 C223 633 233 665 272 665 L284 665 L285 670 L285 670 Z " />
<glyph glyph-name="X" unicode="X" horiz-adv-x="789" d="M776 670 L560 670 L560 665 L596 665 C626 665 632 647 611 618 L419 389 L249 611 C225 643 230 664 262 664 L278 664 L278 669 L7 669 L7 664 C33 664 59 647 86 613 L322 304 L104 50 C73 18 38 3 -1 3 L-1 -2 L208 -2 L208 3 L172 3 C140 3 135 23 158 54 L340 281 C397 207 454 133 511 59 C536 26 531 4 498 4 L482 4 L482 -1 L754 -1 L754 4 C727 4 699 23 671 59 L424 381 L663 618 C699 650 735 664 775 664 L776 670 L776 670 Z " />
<glyph glyph-name="Y" unicode="Y" horiz-adv-x="740" d="M249 0 L535 0 L535 5 L523 5 C485 5 460 33 460 75 L460 301 L647 613 C670 649 702 665 743 665 L743 670 L576 670 L576 665 L613 665 C644 665 654 645 639 615 L458 307 L244 617 C227 646 235 665 266 665 L283 665 L283 670 L13 670 L13 665 C40 665 66 646 91 610 L91 610 L324 280 L324 75 C324 33 299 5 261 5 L249 5 L249 0 L249 0 Z " />
<glyph glyph-name="Z" unicode="Z" horiz-adv-x="648" d="M70 538 L74 552 C87 598 132 630 189 635 L472 641 L24 28 L24 1 L616 1 L620 21 C621 21 631 66 647 136 L636 136 L630 122 C610 75 557 42 496 39 L184 32 L619 644 L619 671 L68 671 L65 633 C65 633 59 567 57 539 L70 538 L70 538 Z " />
<glyph glyph-name="bracketleft" unicode="&#x5b;" horiz-adv-x="302" d="M142 636 L352 636 L352 670 L102 670 L102 -195 L352 -195 L352 -161 L142 -161 L142 636 L142 636 Z " />
<glyph glyph-name="backslash" unicode="&#x5c;" horiz-adv-x="356" d="M18 690 L278 -80 L346 -80 L86 690 L18 690 L18 690 Z " />
<glyph glyph-name="bracketright" unicode="&#x5d;" horiz-adv-x="305" d="M155 636 L155 -161 L-55 -161 L-55 -195 L195 -195 L195 670 L-55 670 L-55 636 L155 636 L155 636 Z " />
<glyph glyph-name="asciicircum" unicode="&#x5e;" horiz-adv-x="353" d="M218 666 C210 678 190 707 177 707 C165 707 145 678 137 666 L23 488 L38 475 L177 592 L316 475 L331 488 L218 666 L218 666 Z " />
<glyph glyph-name="underscore" unicode="&#x5f;" horiz-adv-x="480" d="M5 -50 L5 -114 L475 -114 L475 -50 L5 -50 L5 -50 Z " />
<glyph glyph-name="grave" unicode="&#x60;" horiz-adv-x="353" d="M-26 658 C-26 650 -2 628 34 599 L178 481 L193 496 L86 651 C60 690 39 716 32 716 C1 716 -26 689 -26 658 L-26 658 Z " />
<glyph glyph-name="a" unicode="a" horiz-adv-x="523" d="M533 124 L526 128 C521 97 495 77 462 77 C431 77 411 87 411 101 L411 295 C411 388 351 430 262 430 C139 430 57 334 57 280 C57 232 86 200 129 200 C163 200 185 233 185 257 C185 276 165 297 165 319 C165 356 202 423 258 423 C281 423 296 396 296 336 L296 221 C86 183 37 164 37 79 C37 25 83 -11 153 -11 C190 -11 237 14 298 78 C308 27 353 -5 415 -5 C472 -5 519 47 533 124 L533 124 Z M296 217 L296 101 C296 95 296 89 297 83 C271 60 242 51 213 51 C176 51 152 67 152 92 C152 179 179 196 295 217 L296 217 L296 217 Z " />
<glyph glyph-name="b" unicode="b" horiz-adv-x="596" d="M10 639 C32 639 45 624 45 593 L45 0 L51 0 L89 59 C133 16 203 -10 284 -10 C444 -10 551 79 551 213 C551 340 454 425 308 425 C258 425 201 397 160 353 L160 670 L103 670 L103 671 C86 666 66 660 46 655 L45 655 C45 653 12 645 10 644 L10 639 L10 639 Z M160 109 L160 335 C192 368 235 389 272 389 C361 389 421 313 421 199 C421 82 367 4 287 4 C233 4 183 46 159 110 L160 109 L160 109 Z " />
<glyph glyph-name="c" unicode="c" horiz-adv-x="551" d="M521 114 L519 115 C485 53 412 12 338 12 C235 12 167 103 167 240 C167 352 237 426 342 426 C358 426 384 386 406 325 C418 291 442 268 464 268 C511 268 533 291 521 325 C498 388 427 430 343 430 C164 430 45 337 45 197 C45 73 157 -10 325 -10 C401 -10 480 40 521 114 L521 114 Z " />
<glyph glyph-name="d" unicode="d" horiz-adv-x="588" d="M369 639 C391 639 404 624 404 593 L404 354 C377 398 327 430 273 430 C123 430 46 341 46 208 C46 80 128 -5 251 -5 C309 -5 369 24 405 69 L405 0 L462 0 L462 -1 C496 8 541 20 575 29 L575 34 L566 32 C538 25 520 40 520 70 L520 670 L463 670 L463 671 C449 667 432 662 415 657 L405 654 C405 652 372 644 370 643 L369 639 L369 639 Z M405 313 L405 75 C384 54 344 41 300 41 C219 41 165 120 165 238 C165 332 207 395 288 395 C344 395 392 357 406 313 L405 313 L405 313 Z " />
<glyph glyph-name="e" unicode="e" horiz-adv-x="563" d="M169 286 L533 286 C499 390 417 430 314 430 C153 430 45 363 45 190 C45 70 143 -10 289 -10 C386 -10 475 42 511 119 L509 120 C480 56 395 14 298 14 C219 14 166 103 166 237 C166 255 167 271 169 286 L169 286 Z M405 291 L170 290 C184 387 238 426 314 426 C343 426 373 388 405 290 L405 291 L405 291 Z " />
<glyph glyph-name="f" unicode="f" horiz-adv-x="368" d="M232 5 L212 5 C203 5 197 11 197 20 L197 359 L358 359 L358 420 L197 420 C197 551 232 639 299 639 C348 639 395 555 436 555 C463 555 481 573 481 600 C481 645 424 675 339 675 C169 675 82 573 82 420 L-4 373 L-4 359 L82 359 L82 20 C82 11 76 5 67 5 L47 5 L47 0 L232 0 L232 5 L232 5 Z " />
<glyph glyph-name="g" unicode="g" horiz-adv-x="531" d="M554 405 C554 446 524 474 479 474 C444 474 405 445 382 401 C350 420 307 430 257 430 C143 430 67 376 67 294 C67 223 124 173 214 161 C114 155 50 127 50 86 C50 37 83 1 135 -11 C76 -31 39 -63 39 -97 C39 -177 131 -230 268 -230 C405 -230 496 -162 496 -59 C496 36 443 99 305 99 L181 99 C143 99 118 107 118 120 C118 143 174 158 257 158 C370 158 446 212 446 294 C446 338 425 374 388 398 C434 422 467 356 506 356 C535 356 555 376 555 406 L554 405 L554 405 Z M258 163 C213 163 183 216 183 295 C183 374 213 427 258 427 C302 427 332 374 332 295 C332 216 302 163 258 163 L258 163 Z M154 -13 C161 -14 168 -14 175 -14 L293 -14 C371 -14 401 -42 401 -85 C401 -169 348 -225 268 -225 C188 -225 134 -163 134 -69 C134 -45 141 -25 153 -12 L154 -13 L154 -13 Z " />
<glyph glyph-name="h" unicode="h" horiz-adv-x="575" d="M11 639 C33 639 46 624 46 593 L46 20 C46 11 40 5 31 5 L11 5 L11 0 L196 0 L196 5 L176 5 C167 5 161 11 161 20 L161 307 C178 332 235 349 305 349 C365 349 396 297 396 220 L396 20 C396 11 390 5 381 5 L361 5 L361 0 L546 0 L546 5 L526 5 C517 5 511 11 511 20 L511 220 C511 346 463 430 371 430 C291 430 207 383 161 313 L161 670 L104 670 C87 666 67 661 47 656 L46 656 C46 654 13 646 11 645 L11 639 L11 639 Z " />
<glyph glyph-name="i" unicode="i" horiz-adv-x="235" d="M114 535 C158 535 188 565 188 609 C188 654 158 684 114 684 C69 684 39 654 39 609 C39 565 69 535 114 535 L114 535 Z M21 389 C43 389 56 374 56 343 L56 20 C56 11 50 5 41 5 L21 5 L21 0 L206 0 L206 5 L186 5 C177 5 171 11 171 20 L171 420 L114 420 C97 416 77 411 57 406 L56 406 C56 404 23 396 21 395 L21 389 L21 389 Z " />
<glyph glyph-name="j" unicode="j" horiz-adv-x="270" d="M123 535 C167 535 197 565 197 609 C197 654 167 684 123 684 C78 684 48 654 48 609 C48 565 78 535 123 535 L123 535 Z M30 389 C52 389 65 374 65 343 L65 68 C65 -29 46 -104 17 -121 C-15 -121 -58 -100 -90 -100 C-117 -100 -135 -116 -135 -140 C-135 -169 -111 -187 -75 -185 C-68 -185 -26 -163 30 -130 C120 -78 180 1 180 68 L180 420 L123 420 L123 421 C106 416 86 410 66 405 L65 405 C65 403 32 395 30 394 L30 389 L30 389 Z " />
<glyph glyph-name="k" unicode="k" horiz-adv-x="588" d="M11 639 C33 639 46 624 46 593 L46 20 C46 11 40 5 31 5 L11 5 L11 0 L196 0 L196 5 L176 5 C167 5 161 11 161 20 L161 235 L378 38 C400 15 403 5 384 5 L384 0 L583 0 L583 5 C570 5 552 17 525 41 L270 284 L401 356 C473 395 526 415 563 415 L563 420 L353 420 L353 415 L389 415 C449 415 416 375 306 315 L160 235 L160 670 L103 670 C86 666 66 661 46 656 L45 656 C45 654 12 646 10 645 L11 639 L11 639 Z " />
<glyph glyph-name="l" unicode="l" horiz-adv-x="225" d="M11 639 C33 639 46 624 46 593 L46 20 C46 11 40 5 31 5 L11 5 L11 0 L196 0 L196 5 L176 5 C167 5 161 11 161 20 L161 670 L104 670 C87 666 67 661 47 656 L46 656 C46 654 13 646 11 645 L11 639 L11 639 Z " />
<glyph glyph-name="m" unicode="m" horiz-adv-x="875" d="M661 0 L846 0 L846 5 L826 5 C817 5 811 11 811 20 L811 220 C811 346 770 430 665 430 C598 430 523 385 479 318 L479 313 C492 332 547 345 618 345 C674 345 696 295 696 220 L696 20 C696 11 690 5 681 5 L661 5 L661 0 L661 0 Z M11 389 C33 389 46 374 46 343 L46 20 C46 11 40 5 31 5 L11 5 L11 0 L196 0 L196 5 L176 5 C167 5 161 11 161 20 L161 312 C174 332 227 345 293 345 C349 345 371 295 371 220 L371 20 C371 11 365 5 356 5 L336 5 L336 0 L521 0 L521 5 L501 5 C492 5 486 11 486 20 L486 220 C486 346 445 430 340 430 C277 430 205 385 161 318 L161 420 L104 420 C87 416 67 411 47 406 L46 406 C46 404 13 396 11 395 L11 389 L11 389 Z " />
<glyph glyph-name="n" unicode="n" horiz-adv-x="550" d="M11 389 C33 389 46 374 46 343 L46 20 C46 11 40 5 31 5 L11 5 L11 0 L196 0 L196 5 L176 5 C167 5 161 11 161 20 L161 294 C193 343 252 376 308 376 C350 376 371 321 371 238 L371 20 C371 11 365 5 356 5 L336 5 L336 0 L521 0 L521 5 L501 5 C492 5 486 11 486 20 L486 238 C486 353 436 430 340 430 C280 430 208 382 161 311 L161 420 L104 420 C87 416 67 411 47 406 L46 406 C46 404 13 396 11 395 L11 389 L11 389 Z " />
<glyph glyph-name="o" unicode="o" horiz-adv-x="633" d="M172 210 C172 339 230 425 317 425 C403 425 461 339 461 210 C461 81 403 -5 317 -5 C230 -5 172 81 172 210 L172 210 Z M45 210 C45 78 154 -10 317 -10 C480 -10 588 78 588 210 C588 342 480 430 317 430 C154 430 45 342 45 210 L45 210 Z " />
<glyph glyph-name="p" unicode="p" horiz-adv-x="586" d="M-4 389 C18 389 31 374 31 343 L31 -200 C31 -209 25 -215 16 -215 L-4 -215 L-4 -220 L181 -220 L181 -215 L161 -215 C152 -215 146 -209 146 -200 L146 22 C183 5 228 -5 278 -5 C436 -5 541 98 541 219 C541 346 446 430 304 430 C245 430 184 407 146 371 L146 419 L89 419 C72 415 52 410 32 405 L31 405 C31 403 -2 395 -4 394 L-4 389 L-4 389 Z M146 116 L146 331 C177 361 217 380 251 380 C349 380 415 300 415 181 C415 95 363 22 285 22 C219 22 163 59 146 115 L146 116 L146 116 Z " />
<glyph glyph-name="q" unicode="q" horiz-adv-x="526" d="M522 -215 L502 -215 C493 -215 487 -209 487 -200 L487 420 L480 420 L445 365 C406 406 346 430 279 430 C112 430 26 341 26 208 C26 80 110 -5 235 -5 C290 -5 342 18 372 54 L372 -200 C372 -209 366 -215 357 -215 L337 -215 L337 -220 L522 -220 L522 -215 L522 -215 Z M372 310 L372 88 C349 60 316 43 283 43 C200 43 145 122 145 240 C145 338 189 404 273 404 C312 404 351 367 372 310 L372 310 Z " />
<glyph glyph-name="r" unicode="r" horiz-adv-x="452" d="M12 389 C34 389 47 374 47 343 L47 20 C47 11 41 5 32 5 L12 5 L12 0 L197 0 L197 5 L177 5 C168 5 162 11 162 20 L162 316 C182 353 220 376 261 376 C288 376 306 362 306 341 C306 300 333 273 374 273 C415 273 442 300 442 341 C442 394 391 430 315 430 C251 430 192 389 162 325 L162 419 L105 419 C88 415 68 410 48 405 L47 405 C47 403 14 395 12 394 L12 389 L12 389 Z " />
<glyph glyph-name="s" unicode="s" horiz-adv-x="445" d="M60 134 L60 12 L66 12 C66 15 67 20 67 23 C69 39 113 17 139 6 C148 -1 157 -7 166 -11 L169 -4 C185 -8 201 -10 218 -10 C325 -10 396 42 396 119 C396 176 344 227 244 254 C174 273 138 309 138 349 C138 409 196 440 258 420 C288 410 329 368 360 313 C362 310 365 305 367 302 L373 302 L373 413 L367 413 C367 410 366 407 366 404 C365 397 334 405 302 417 C290 425 277 432 264 436 L261 427 C150 444 57 392 57 309 C57 245 104 189 194 165 C269 145 308 115 308 85 C308 30 272 -7 219 -7 C216 -7 172 0 174 4 C148 16 109 63 75 122 C73 125 71 130 69 133 L60 134 L60 134 Z " />
<glyph glyph-name="t" unicode="t" horiz-adv-x="418" d="M369 420 L211 420 L211 521 L203 521 L31 369 L31 359 L96 359 L96 157 C96 37 158 -10 252 -10 C327 -10 389 34 408 101 L394 105 C384 68 341 44 287 44 C240 44 208 68 208 131 L211 359 L369 359 L369 420 L369 420 Z " />
<glyph glyph-name="u" unicode="u" horiz-adv-x="546" d="M337 414 L357 414 C366 414 372 408 372 399 L372 122 C355 90 308 69 247 69 C193 69 157 104 157 156 L157 419 L7 419 L7 414 L27 414 C36 414 42 408 42 399 L42 156 C42 56 103 -11 194 -11 C279 -11 348 37 372 110 L372 -1 L429 -1 L429 -2 C460 6 501 17 532 25 L532 30 C506 22 487 32 487 68 L487 419 L372 419 L372 418 L337 418 L337 414 L337 414 Z " />
<glyph glyph-name="v" unicode="v" horiz-adv-x="542" d="M526 420 L407 420 L407 415 L412 415 C438 415 416 360 416 360 L259 -10 L293 -10 L466 360 C482 396 502 415 526 415 L526 420 L526 420 Z M200 420 L8 420 L8 415 C30 415 48 400 66 370 L260 -10 L317 125 L197 360 C197 360 168 415 196 415 L201 415 L200 420 L200 420 Z " />
<glyph glyph-name="w" unicode="w" horiz-adv-x="890" d="M530 420 L335 420 L335 415 C357 415 375 400 393 370 C406 345 419 319 431 294 L288 -10 L322 -10 L454 250 L586 -10 L619 -10 L807 368 C824 400 842 416 864 416 L864 421 L742 421 L742 416 L747 416 C775 416 750 361 750 361 L645 125 L525 361 C525 361 496 416 524 416 L529 416 L530 420 L530 420 Z M221 421 L26 421 L26 416 C49 416 69 398 88 363 L286 -9 L346 119 L217 361 C199 394 199 416 215 416 L220 416 L221 421 L221 421 Z " />
<glyph glyph-name="x" unicode="x" horiz-adv-x="578" d="M13 0 L130 0 L130 5 L125 5 C111 5 118 25 143 55 L245 175 C275 137 306 98 335 60 C361 27 367 5 352 5 L347 5 L347 0 L554 0 L554 5 C531 5 508 21 481 52 L342 231 C381 274 420 317 460 360 C492 396 520 415 544 415 L544 420 L426 420 L426 415 L431 415 C446 415 440 396 417 367 L323 254 C296 289 268 325 242 360 C216 393 210 415 225 415 L230 415 L230 420 L23 420 L23 415 C46 415 69 399 96 368 L230 196 L93 52 C62 21 37 6 14 6 L13 0 L13 0 Z " />
<glyph glyph-name="y" unicode="y" horiz-adv-x="580" d="M218 420 L27 420 L27 415 C49 415 69 400 92 369 L338 -4 L334 -10 L279 -151 C269 -177 254 -194 252 -194 C230 -194 225 -156 202 -156 C173 -156 153 -176 153 -205 C153 -238 175 -260 207 -260 C237 -260 285 -222 307 -166 L369 -10 C416 116 464 241 512 366 C526 398 543 414 565 414 L565 419 L445 419 L445 414 C467 414 472 396 460 359 L460 359 L381 120 C328 200 274 280 222 360 C200 393 196 415 212 415 L217 415 L218 420 L218 420 Z " />
<glyph glyph-name="z" unicode="z" horiz-adv-x="486" d="M67 422 C65 415 63 406 61 399 L62 399 C60 393 51 360 38 312 L51 312 L58 322 C76 353 115 376 159 383 L305 388 L40 27 L40 0 L441 0 L441 20 L447 20 C447 20 451 55 457 108 L444 108 L439 98 C424 64 382 40 333 37 L183 32 L445 393 L445 420 L108 420 C90 420 77 420 76 421 L76 422 L67 422 L67 422 Z " />
<glyph glyph-name="braceleft" unicode="&#x7b;" horiz-adv-x="262" d="M257 670 L217 670 C131 670 73 620 73 546 L73 342 C73 296 51 271 15 271 L15 269 C51 269 73 246 73 205 L73 -6 C73 -80 131 -130 217 -130 L257 -130 L257 -128 L221 -127 C186 -127 162 -79 162 -6 L162 141 C162 218 107 270 24 270 C107 270 162 324 162 406 L163 546 C163 619 186 667 221 667 L257 667 L257 670 L257 670 Z " />
<glyph glyph-name="bar" unicode="&#x7c;" horiz-adv-x="209" d="M60 720 L60 -250 L149 -250 L149 720 L60 720 L60 720 Z " />
<glyph glyph-name="braceright" unicode="&#x7d;" horiz-adv-x="262" d="M5 670 L5 667 L41 667 C76 667 99 619 99 546 L100 406 C100 324 155 270 238 270 C155 270 100 218 100 141 L100 -6 C100 -79 76 -127 41 -127 L5 -128 L5 -130 L45 -130 C131 -130 189 -80 189 -6 L189 205 C189 246 211 269 247 269 L247 271 C211 271 189 296 189 342 L189 546 C189 620 131 670 45 670 L5 670 L5 670 Z " />
<glyph glyph-name="asciitilde" unicode="&#x7e;" horiz-adv-x="353" d="M26 270 C26 303 44 325 71 325 C124 325 196 260 249 260 C298 260 331 316 331 401 L328 401 C328 365 307 341 276 341 C223 341 151 406 98 406 C53 406 23 352 23 270 L26 270 L26 270 Z " />
<glyph glyph-name="exclamdown" unicode="&#xa1;" horiz-adv-x="281" d="M141 425 C93 425 61 393 61 345 C61 297 93 265 141 265 C189 265 221 297 221 345 C221 393 189 425 141 425 L141 425 Z M141 -255 C196 -255 223 -206 211 -132 C211 -132 151 131 151 244 L130 244 C130 131 70 -132 70 -132 C58 -206 86 -255 141 -255 L141 -255 Z " />
<glyph glyph-name="cent" unicode="&#xa2;" horiz-adv-x="551" d="M308 495 L308 429 C149 418 45 328 45 197 C45 77 149 -5 308 -10 L308 -75 L348 -75 L348 -9 C417 0 485 47 522 114 L520 115 C488 56 420 16 349 13 L349 425 C365 417 388 380 407 326 C419 292 443 269 465 269 C512 269 534 292 522 326 C499 388 430 430 348 432 L348 497 L308 495 L308 495 Z M308 17 C222 33 167 119 167 242 C167 341 222 410 308 424 L308 17 L308 17 Z " />
<glyph glyph-name="acute" unicode="&#xb4;" horiz-adv-x="353" d="M186 481 L330 599 C365 629 389 651 389 658 C389 689 363 716 332 716 C325 716 304 690 277 651 L171 496 L186 481 L186 481 Z " />
<glyph glyph-name="questiondown" unicode="&#xbf;" horiz-adv-x="295" d="M170 425 C122 425 90 393 90 345 C90 297 122 265 170 265 C218 265 250 297 250 345 C250 393 218 425 170 425 L170 425 Z M168 206 C168 206 169 98 170 98 C68 98 37 72 7 33 C-12 8 -24 -36 -24 -78 C-24 -187 46 -259 150 -259 C215 -259 258 -225 258 -174 C258 -140 233 -117 196 -117 C170 -117 134 -137 108 -137 C49 -137 10 -108 10 -64 C10 -57 19 -40 32 -23 C51 2 77 18 198 18 C192 20 188 206 188 206 L168 206 L168 206 Z M198 18 L198 18 L198 18 L198 18 Z " />
<glyph glyph-name="Agrave" unicode="&#xc0;" horiz-adv-x="732" d="M156 908 C156 899 180 877 215 849 L360 731 L374 746 L268 901 C242 940 221 966 213 966 C182 966 156 939 156 908 L156 908 Z M202 6 L186 6 C137 6 115 42 129 97 L182 262 L429 262 L490 97 C507 42 486 6 437 6 L421 6 L421 0 L730 0 L730 6 L721 6 C691 6 657 39 634 90 C558 290 481 489 406 689 L392 689 C396 664 356 642 292 633 L296 623 L124 96 C102 41 56 5 5 5 L-11 5 L-11 -1 L203 -1 L202 6 L202 6 Z M185 267 L298 617 L428 267 L185 267 L185 267 Z " />
<glyph glyph-name="Aacute" unicode="&#xc1;" horiz-adv-x="732" d="M367 731 L512 849 C547 878 571 901 571 908 C571 939 545 966 514 966 C507 966 486 940 459 901 L353 746 L367 731 L367 731 Z M202 6 L186 6 C137 6 115 42 129 97 L182 262 L429 262 L490 97 C507 42 486 6 437 6 L421 6 L421 0 L730 0 L730 6 L721 6 C691 6 657 39 634 90 C558 290 481 489 406 689 L392 689 C396 664 356 642 292 633 L296 623 L124 96 C102 41 56 5 5 5 L-11 5 L-11 -1 L203 -1 L202 6 L202 6 Z M185 267 L298 617 L428 267 L185 267 L185 267 Z " />
<glyph glyph-name="Acircumflex" unicode="&#xc2;" horiz-adv-x="732" d="M399 916 C391 928 371 957 359 957 C346 957 326 928 318 916 L204 738 L220 725 L359 841 L497 725 L513 738 L399 916 L399 916 Z M202 6 L186 6 C137 6 115 42 129 97 L182 262 L429 262 L490 97 C507 42 486 6 437 6 L421 6 L421 0 L730 0 L730 6 L721 6 C691 6 657 39 634 90 C558 290 481 489 406 689 L392 689 C396 664 356 642 292 633 L296 623 L124 96 C102 41 56 5 5 5 L-11 5 L-11 -1 L203 -1 L202 6 L202 6 Z M185 267 L298 617 L428 267 L185 267 L185 267 Z " />
<glyph glyph-name="Atilde" unicode="&#xc3;" horiz-adv-x="732" d="M208 790 C208 823 226 845 253 845 C306 845 378 780 431 780 C480 780 513 836 513 921 L509 921 C509 885 489 861 458 861 C404 861 333 926 279 926 C234 926 204 872 204 790 L208 790 L208 790 Z M202 6 L186 6 C137 6 115 42 129 97 L182 262 L429 262 L490 97 C507 42 486 6 437 6 L421 6 L421 0 L730 0 L730 6 L721 6 C691 6 657 39 634 90 C558 290 481 489 406 689 L392 689 C396 664 356 642 292 633 L296 623 L124 96 C102 41 56 5 5 5 L-11 5 L-11 -1 L203 -1 L202 6 L202 6 Z M185 267 L298 617 L428 267 L185 267 L185 267 Z " />
<glyph glyph-name="Adieresis" unicode="&#xc4;" horiz-adv-x="732" d="M440 785 C484 785 514 815 514 859 C514 904 484 934 440 934 C396 934 366 904 366 859 C366 815 396 785 440 785 L440 785 Z M277 785 C321 785 351 815 351 859 C351 904 321 934 277 934 C233 934 203 904 203 859 C203 815 233 785 277 785 L277 785 Z M202 6 L186 6 C137 6 115 42 129 97 L182 262 L429 262 L490 97 C507 42 486 6 437 6 L421 6 L421 0 L730 0 L730 6 L721 6 C691 6 657 39 634 90 C558 290 481 489 406 689 L392 689 C396 664 356 642 292 633 L296 623 L124 96 C102 41 56 5 5 5 L-11 5 L-11 -1 L203 -1 L202 6 L202 6 Z M185 267 L298 617 L428 267 L185 267 L185 267 Z " />
<glyph glyph-name="Aring" unicode="&#xc5;" horiz-adv-x="732" d="M294 825 C294 866 320 893 359 893 C397 893 423 866 423 825 C423 788 394 757 359 757 C324 757 294 788 294 825 L294 825 Z M260 825 C260 774 306 730 359 730 C412 730 457 774 457 825 C457 882 418 920 359 920 C300 920 260 882 260 825 L260 825 Z M202 6 L186 6 C137 6 115 42 129 97 L182 262 L429 262 L490 97 C507 42 486 6 437 6 L421 6 L421 0 L730 0 L730 6 L721 6 C691 6 657 39 634 90 C558 290 481 489 406 689 L392 689 C396 664 356 642 292 633 L296 623 L124 96 C102 41 56 5 5 5 L-11 5 L-11 -1 L203 -1 L202 6 L202 6 Z M185 267 L298 617 L428 267 L185 267 L185 267 Z " />
<glyph glyph-name="Egrave" unicode="&#xc8;" horiz-adv-x="644" d="M131 908 C131 900 155 878 191 849 L335 731 L350 746 L243 901 C217 940 196 966 189 966 C158 966 131 939 131 908 L131 908 Z M502 239 L502 454 L491 454 L486 429 C477 381 440 349 392 349 L241 349 L241 666 L453 666 C501 666 542 634 557 586 L565 561 L576 561 C572 593 567 636 563 668 L562 668 L562 670 L31 670 L31 665 L43 665 C81 665 106 637 106 595 L106 75 C106 33 81 5 43 5 L31 5 L31 0 L587 0 L587 2 L588 2 C594 31 601 70 606 99 L595 99 L589 84 C570 36 516 4 453 4 L287 4 C246 4 241 21 241 46 L241 344 L392 344 C440 344 477 312 486 264 L491 239 L502 239 L502 239 Z " />
<glyph glyph-name="Eacute" unicode="&#xc9;" horiz-adv-x="644" d="M343 731 L487 849 C523 879 547 902 547 908 C547 939 520 966 489 966 C483 966 463 940 435 901 L328 746 L343 731 L343 731 Z M502 239 L502 454 L491 454 L486 429 C477 381 440 349 392 349 L241 349 L241 666 L453 666 C501 666 542 634 557 586 L565 561 L576 561 C572 593 567 636 563 668 L562 668 L562 670 L31 670 L31 665 L43 665 C81 665 106 637 106 595 L106 75 C106 33 81 5 43 5 L31 5 L31 0 L587 0 L587 2 L588 2 C594 31 601 70 606 99 L595 99 L589 84 C570 36 516 4 453 4 L287 4 C246 4 241 21 241 46 L241 344 L392 344 C440 344 477 312 486 264 L491 239 L502 239 L502 239 Z " />
<glyph glyph-name="Ecircumflex" unicode="&#xca;" horiz-adv-x="644" d="M375 916 C367 928 347 957 334 957 C322 957 302 928 294 916 L180 738 L195 725 L334 842 L473 725 L488 738 L375 916 L375 916 Z M502 239 L502 454 L491 454 L486 429 C477 381 440 349 392 349 L241 349 L241 666 L453 666 C501 666 542 634 557 586 L565 561 L576 561 C572 593 567 636 563 668 L562 668 L562 670 L31 670 L31 665 L43 665 C81 665 106 637 106 595 L106 75 C106 33 81 5 43 5 L31 5 L31 0 L587 0 L587 2 L588 2 C594 31 601 70 606 99 L595 99 L589 84 C570 36 516 4 453 4 L287 4 C246 4 241 21 241 46 L241 344 L392 344 C440 344 477 312 486 264 L491 239 L502 239 L502 239 Z " />
<glyph glyph-name="Edieresis" unicode="&#xcb;" horiz-adv-x="644" d="M415 785 C460 785 490 815 490 859 C490 904 460 934 415 934 C371 934 341 904 341 859 C341 815 371 785 415 785 L415 785 Z M253 785 C297 785 327 815 327 859 C327 904 297 934 253 934 C208 934 178 904 178 859 C178 815 208 785 253 785 L253 785 Z M502 239 L502 454 L491 454 L486 429 C477 381 440 349 392 349 L241 349 L241 666 L453 666 C501 666 542 634 557 586 L565 561 L576 561 C572 593 567 636 563 668 L562 668 L562 670 L31 670 L31 665 L43 665 C81 665 106 637 106 595 L106 75 C106 33 81 5 43 5 L31 5 L31 0 L587 0 L587 2 L588 2 C594 31 601 70 606 99 L595 99 L589 84 C570 36 516 4 453 4 L287 4 C246 4 241 21 241 46 L241 344 L392 344 C440 344 477 312 486 264 L491 239 L502 239 L502 239 Z " />
<glyph glyph-name="Igrave" unicode="&#xcc;" horiz-adv-x="341" d="M-43 908 C-43 900 -19 878 17 849 L161 731 L176 746 L69 901 C43 940 22 966 15 966 C-16 966 -43 939 -43 908 L-43 908 Z M282 5 C248 5 227 20 227 55 L227 615 C227 650 248 665 282 665 L282 670 L37 670 L37 665 C71 665 92 650 92 615 L92 55 C92 20 71 5 37 5 L37 0 L282 0 L282 5 L282 5 Z " />
<glyph glyph-name="Iacute" unicode="&#xcd;" horiz-adv-x="341" d="M169 731 L313 849 C349 879 373 902 373 908 C373 939 346 966 315 966 C309 966 289 940 261 901 L154 746 L169 731 L169 731 Z M282 5 C248 5 227 20 227 55 L227 615 C227 650 248 665 282 665 L282 670 L37 670 L37 665 C71 665 92 650 92 615 L92 55 C92 20 71 5 37 5 L37 0 L282 0 L282 5 L282 5 Z " />
<glyph glyph-name="Icircumflex" unicode="&#xce;" horiz-adv-x="341" d="M201 916 C193 928 173 957 160 957 C148 957 128 928 120 916 L6 738 L21 725 L160 842 L299 725 L314 738 L201 916 L201 916 Z M282 5 C248 5 227 20 227 55 L227 615 C227 650 248 665 282 665 L282 670 L37 670 L37 665 C71 665 92 650 92 615 L92 55 C92 20 71 5 37 5 L37 0 L282 0 L282 5 L282 5 Z " />
<glyph glyph-name="Idieresis" unicode="&#xcf;" horiz-adv-x="341" d="M241 785 C286 785 316 815 316 859 C316 904 286 934 241 934 C197 934 167 904 167 859 C167 815 197 785 241 785 L241 785 Z M79 785 C123 785 153 815 153 859 C153 904 123 934 79 934 C34 934 4 904 4 859 C4 815 34 785 79 785 L79 785 Z M282 5 C248 5 227 20 227 55 L227 615 C227 650 248 665 282 665 L282 670 L37 670 L37 665 C71 665 92 650 92 615 L92 55 C92 20 71 5 37 5 L37 0 L282 0 L282 5 L282 5 Z " />
<glyph glyph-name="Ntilde" unicode="&#xd1;" horiz-adv-x="753" d="M221 790 C221 823 239 845 266 845 C319 845 391 780 444 780 C493 780 526 836 526 921 L522 921 C522 885 502 861 471 861 C417 861 346 926 292 926 C247 926 217 872 217 790 L221 790 L221 790 Z M49 0 L200 0 L200 5 C167 5 145 20 145 55 L145 55 L142 515 C296 343 450 171 604 -1 L631 -1 L640 620 C643 652 664 664 696 664 L696 669 L546 669 L546 664 C580 664 601 649 601 614 L601 614 L603 181 C459 343 316 506 173 669 L-45 669 L-45 664 C-9 664 24 648 54 614 L54 614 L108 554 L107 54 L107 54 C107 19 86 4 52 4 L49 0 L49 0 Z " />
<glyph glyph-name="Ograve" unicode="&#xd2;" horiz-adv-x="903" d="M187 335 C187 539 287 675 438 675 C596 675 701 539 701 335 C701 131 593 -5 430 -5 C284 -5 187 131 187 335 L187 335 Z M40 335 C40 128 196 -10 429 -10 C680 -10 848 128 848 335 C848 542 684 680 439 680 C200 680 40 542 40 335 L40 335 Z M236 908 C236 900 260 878 296 849 L440 731 L455 746 L348 901 C322 940 301 966 294 966 C263 966 236 939 236 908 L236 908 Z " />
<glyph glyph-name="Oacute" unicode="&#xd3;" horiz-adv-x="903" d="M448 731 L592 849 C628 879 652 902 652 908 C652 939 625 966 594 966 C588 966 568 940 540 901 L433 746 L448 731 L448 731 Z M187 335 C187 539 287 675 438 675 C596 675 701 539 701 335 C701 131 593 -5 430 -5 C284 -5 187 131 187 335 L187 335 Z M40 335 C40 128 196 -10 429 -10 C680 -10 848 128 848 335 C848 542 684 680 439 680 C200 680 40 542 40 335 L40 335 Z " />
<glyph glyph-name="Ocircumflex" unicode="&#xd4;" horiz-adv-x="903" d="M187 335 C187 539 287 675 438 675 C596 675 701 539 701 335 C701 131 593 -5 430 -5 C284 -5 187 131 187 335 L187 335 Z M40 335 C40 128 196 -10 429 -10 C680 -10 848 128 848 335 C848 542 684 680 439 680 C200 680 40 542 40 335 L40 335 Z M480 916 C472 928 452 957 439 957 C427 957 407 928 399 916 L285 738 L300 725 L439 842 L578 725 L593 738 L480 916 L480 916 Z " />
<glyph glyph-name="Otilde" unicode="&#xd5;" horiz-adv-x="903" d="M288 790 C288 823 306 845 333 845 C386 845 458 780 511 780 C560 780 593 836 593 921 L590 921 C590 885 569 861 538 861 C485 861 413 926 360 926 C315 926 285 872 285 790 L288 790 L288 790 Z M187 335 C187 539 287 675 438 675 C596 675 701 539 701 335 C701 131 593 -5 430 -5 C284 -5 187 131 187 335 L187 335 Z M40 335 C40 128 196 -10 429 -10 C680 -10 848 128 848 335 C848 542 684 680 439 680 C200 680 40 542 40 335 L40 335 Z " />
<glyph glyph-name="Odieresis" unicode="&#xd6;" horiz-adv-x="903" d="M520 785 C565 785 595 815 595 859 C595 904 565 934 520 934 C476 934 446 904 446 859 C446 815 476 785 520 785 L520 785 Z M358 785 C402 785 432 815 432 859 C432 904 402 934 358 934 C313 934 283 904 283 859 C283 815 313 785 358 785 L358 785 Z M187 335 C187 539 287 675 438 675 C596 675 701 539 701 335 C701 131 593 -5 430 -5 C284 -5 187 131 187 335 L187 335 Z M40 335 C40 128 196 -10 429 -10 C680 -10 848 128 848 335 C848 542 684 680 439 680 C200 680 40 542 40 335 L40 335 Z " />
<glyph glyph-name="Oslash" unicode="&#xd8;" horiz-adv-x="903" d="M43 -13 C43 -13 82 20 153 80 C221 22 316 -11 430 -11 C681 -11 849 127 849 334 C849 436 810 521 741 581 C777 612 814 644 852 677 L846 683 C808 650 771 618 735 587 C664 646 563 680 442 680 C203 680 43 542 43 335 C43 232 82 146 149 86 C79 26 41 -7 41 -7 L43 -13 L43 -13 Z M666 527 C483 371 332 242 224 150 C203 202 191 265 191 336 C191 540 291 676 442 676 C543 676 622 621 666 528 L666 527 L666 527 Z M670 520 C693 469 705 407 705 337 C705 133 597 -3 434 -3 C342 -3 269 52 228 144 C336 236 487 365 670 521 L670 520 L670 520 Z " />
<glyph glyph-name="Ugrave" unicode="&#xd9;" horiz-adv-x="765" d="M173 909 C173 901 197 879 233 850 L377 732 L392 747 L285 902 C259 941 238 967 231 967 C200 967 173 940 173 909 L173 909 Z M736 38 L727 36 C699 29 681 44 681 74 L681 670 L614 670 L614 671 L491 671 L491 666 C525 666 546 651 546 616 L546 199 C512 126 433 77 350 77 C264 77 206 133 206 218 L206 670 L139 670 L139 671 L16 671 L16 666 C50 666 71 651 71 616 L71 218 C71 81 161 -10 296 -10 C405 -10 505 49 546 138 L546 0 L614 0 L681 18 L681 18 C700 23 719 28 736 32 L736 38 L736 38 Z " />
<glyph glyph-name="Uacute" unicode="&#xda;" horiz-adv-x="765" d="M385 732 L529 850 C565 880 589 903 589 909 C589 940 562 967 531 967 C525 967 505 941 477 902 L370 747 L385 732 L385 732 Z M736 38 L727 36 C699 29 681 44 681 74 L681 670 L614 670 L614 671 L491 671 L491 666 C525 666 546 651 546 616 L546 199 C512 126 433 77 350 77 C264 77 206 133 206 218 L206 670 L139 670 L139 671 L16 671 L16 666 C50 666 71 651 71 616 L71 218 C71 81 161 -10 296 -10 C405 -10 505 49 546 138 L546 0 L614 0 L681 18 L681 18 C700 23 719 28 736 32 L736 38 L736 38 Z " />
<glyph glyph-name="Ucircumflex" unicode="&#xdb;" horiz-adv-x="765" d="M417 917 C409 929 389 958 376 958 C364 958 344 929 336 917 L222 739 L237 726 L376 843 L515 726 L530 739 L417 917 L417 917 Z M736 38 L727 36 C699 29 681 44 681 74 L681 670 L614 670 L614 671 L491 671 L491 666 C525 666 546 651 546 616 L546 199 C512 126 433 77 350 77 C264 77 206 133 206 218 L206 670 L139 670 L139 671 L16 671 L16 666 C50 666 71 651 71 616 L71 218 C71 81 161 -10 296 -10 C405 -10 505 49 546 138 L546 0 L614 0 L681 18 L681 18 C700 23 719 28 736 32 L736 38 L736 38 Z " />
<glyph glyph-name="Udieresis" unicode="&#xdc;" horiz-adv-x="765" d="M457 786 C502 786 532 816 532 860 C532 905 502 935 457 935 C413 935 383 905 383 860 C383 816 413 786 457 786 L457 786 Z M295 786 C339 786 369 816 369 860 C369 905 339 935 295 935 C250 935 220 905 220 860 C220 816 250 786 295 786 L295 786 Z M736 38 L727 36 C699 29 681 44 681 74 L681 670 L614 670 L614 671 L491 671 L491 666 C525 666 546 651 546 616 L546 199 C512 126 433 77 350 77 C264 77 206 133 206 218 L206 670 L139 670 L139 671 L16 671 L16 666 C50 666 71 651 71 616 L71 218 C71 81 161 -10 296 -10 C405 -10 505 49 546 138 L546 0 L614 0 L681 18 L681 18 C700 23 719 28 736 32 L736 38 L736 38 Z " />
<glyph glyph-name="Yacute" unicode="&#xdd;" horiz-adv-x="716" d="M377 731 L521 849 C557 879 581 902 581 908 C581 939 554 966 523 966 C517 966 497 940 469 901 L362 746 L377 731 L377 731 Z M225 0 L511 0 L511 5 L499 5 C461 5 436 33 436 75 L436 301 L623 613 C646 649 678 665 719 665 L719 670 L552 670 L552 665 L589 665 C620 665 630 645 615 615 L434 307 L220 617 C203 646 211 665 242 665 L259 665 L259 670 L-11 670 L-11 665 C16 665 42 646 67 610 L67 610 L300 280 L300 75 C300 33 275 5 237 5 L225 5 L225 0 L225 0 Z " />
<glyph glyph-name="agrave" unicode="&#xe0;" horiz-adv-x="523" d="M533 124 L526 128 C521 97 495 77 462 77 C431 77 411 87 411 101 L411 295 C411 388 351 430 262 430 C139 430 57 334 57 280 C57 232 86 200 129 200 C163 200 185 233 185 257 C185 276 165 297 165 319 C165 356 202 423 258 423 C281 423 296 396 296 336 L296 221 C86 183 37 164 37 79 C37 25 83 -11 153 -11 C190 -11 237 14 298 78 C308 27 353 -5 415 -5 C472 -5 519 47 533 124 L533 124 Z M59 658 C59 650 83 628 119 599 L263 481 L278 496 L171 651 C145 690 124 716 117 716 C86 716 59 689 59 658 L59 658 Z M296 217 L296 101 C296 95 296 89 297 83 C271 60 242 51 213 51 C176 51 152 67 152 92 C152 179 179 196 295 217 L296 217 L296 217 Z " />
<glyph glyph-name="aacute" unicode="&#xe1;" horiz-adv-x="523" d="M271 481 L415 599 C451 629 475 652 475 658 C475 689 448 716 417 716 C411 716 391 690 363 651 L256 496 L271 481 L271 481 Z M533 124 L526 128 C521 97 495 77 462 77 C431 77 411 87 411 101 L411 295 C411 388 351 430 262 430 C139 430 57 334 57 280 C57 232 86 200 129 200 C163 200 185 233 185 257 C185 276 165 297 165 319 C165 356 202 423 258 423 C281 423 296 396 296 336 L296 221 C86 183 37 164 37 79 C37 25 83 -11 153 -11 C190 -11 237 14 298 78 C308 27 353 -5 415 -5 C472 -5 519 47 533 124 L533 124 Z M296 217 L296 101 C296 95 296 89 297 83 C271 60 242 51 213 51 C176 51 152 67 152 92 C152 179 179 196 295 217 L296 217 L296 217 Z " />
<glyph glyph-name="acircumflex" unicode="&#xe2;" horiz-adv-x="523" d="M533 124 L526 128 C521 97 495 77 462 77 C431 77 411 87 411 101 L411 295 C411 388 351 430 262 430 C139 430 57 334 57 280 C57 232 86 200 129 200 C163 200 185 233 185 257 C185 276 165 297 165 319 C165 356 202 423 258 423 C281 423 296 396 296 336 L296 221 C86 183 37 164 37 79 C37 25 83 -11 153 -11 C190 -11 237 14 298 78 C308 27 353 -5 415 -5 C472 -5 519 47 533 124 L533 124 Z M303 666 C295 678 275 707 262 707 C250 707 230 678 222 666 L108 488 L123 475 L262 592 L401 475 L416 488 L303 666 L303 666 Z M296 217 L296 101 C296 95 296 89 297 83 C271 60 242 51 213 51 C176 51 152 67 152 92 C152 179 179 196 295 217 L296 217 L296 217 Z " />
<glyph glyph-name="atilde" unicode="&#xe3;" horiz-adv-x="523" d="M111 540 C111 573 129 595 156 595 C209 595 281 530 334 530 C383 530 416 586 416 671 L413 671 C413 635 392 611 361 611 C308 611 236 676 183 676 C138 676 108 622 108 540 L111 540 L111 540 Z M533 124 L526 128 C521 97 495 77 462 77 C431 77 411 87 411 101 L411 295 C411 388 351 430 262 430 C139 430 57 334 57 280 C57 232 86 200 129 200 C163 200 185 233 185 257 C185 276 165 297 165 319 C165 356 202 423 258 423 C281 423 296 396 296 336 L296 221 C86 183 37 164 37 79 C37 25 83 -11 153 -11 C190 -11 237 14 298 78 C308 27 353 -5 415 -5 C472 -5 519 47 533 124 L533 124 Z M296 217 L296 101 C296 95 296 89 297 83 C271 60 242 51 213 51 C176 51 152 67 152 92 C152 179 179 196 295 217 L296 217 L296 217 Z " />
<glyph glyph-name="adieresis" unicode="&#xe4;" horiz-adv-x="523" d="M343 535 C388 535 418 565 418 609 C418 654 388 684 343 684 C299 684 269 654 269 609 C269 565 299 535 343 535 L343 535 Z M181 535 C225 535 255 565 255 609 C255 654 225 684 181 684 C136 684 106 654 106 609 C106 565 136 535 181 535 L181 535 Z M533 124 L526 128 C521 97 495 77 462 77 C431 77 411 87 411 101 L411 295 C411 388 351 430 262 430 C139 430 57 334 57 280 C57 232 86 200 129 200 C163 200 185 233 185 257 C185 276 165 297 165 319 C165 356 202 423 258 423 C281 423 296 396 296 336 L296 221 C86 183 37 164 37 79 C37 25 83 -11 153 -11 C190 -11 237 14 298 78 C308 27 353 -5 415 -5 C472 -5 519 47 533 124 L533 124 Z M296 217 L296 101 C296 95 296 89 297 83 C271 60 242 51 213 51 C176 51 152 67 152 92 C152 179 179 196 295 217 L296 217 L296 217 Z " />
<glyph glyph-name="aring" unicode="&#xe5;" horiz-adv-x="523" d="M197 575 C197 616 223 643 262 643 C301 643 327 616 327 575 C327 538 297 507 262 507 C227 507 197 538 197 575 L197 575 Z M164 575 C164 524 209 480 262 480 C315 480 360 524 360 575 C360 632 321 670 262 670 C203 670 164 632 164 575 L164 575 Z M533 124 L526 128 C521 97 495 77 462 77 C431 77 411 87 411 101 L411 295 C411 388 351 430 262 430 C139 430 57 334 57 280 C57 232 86 200 129 200 C163 200 185 233 185 257 C185 276 165 297 165 319 C165 356 202 423 258 423 C281 423 296 396 296 336 L296 221 C86 183 37 164 37 79 C37 25 83 -11 153 -11 C190 -11 237 14 298 78 C308 27 353 -5 415 -5 C472 -5 519 47 533 124 L533 124 Z M296 217 L296 101 C296 95 296 89 297 83 C271 60 242 51 213 51 C176 51 152 67 152 92 C152 179 179 196 295 217 L296 217 L296 217 Z " />
<glyph glyph-name="egrave" unicode="&#xe8;" horiz-adv-x="563" d="M111 658 C111 650 135 628 171 599 L315 481 L330 496 L223 651 C197 690 176 716 169 716 C138 716 111 689 111 658 L111 658 Z M169 286 L533 286 C499 390 417 430 314 430 C153 430 45 363 45 190 C45 70 143 -10 289 -10 C386 -10 475 42 511 119 L509 120 C480 56 395 14 298 14 C219 14 166 103 166 237 C166 255 167 271 169 286 L169 286 Z M405 291 L170 290 C184 387 238 426 314 426 C343 426 373 388 405 290 L405 291 L405 291 Z " />
<glyph glyph-name="eacute" unicode="&#xe9;" horiz-adv-x="563" d="M323 481 L467 599 C503 629 527 652 527 658 C527 689 500 716 469 716 C463 716 443 690 415 651 L308 496 L323 481 L323 481 Z M169 286 L533 286 C499 390 417 430 314 430 C153 430 45 363 45 190 C45 70 143 -10 289 -10 C386 -10 475 42 511 119 L509 120 C480 56 395 14 298 14 C219 14 166 103 166 237 C166 255 167 271 169 286 L169 286 Z M405 291 L170 290 C184 387 238 426 314 426 C343 426 373 388 405 290 L405 291 L405 291 Z " />
<glyph glyph-name="ecircumflex" unicode="&#xea;" horiz-adv-x="563" d="M355 666 C347 678 327 707 314 707 C302 707 282 678 274 666 L160 488 L175 475 L314 592 L453 475 L468 488 L355 666 L355 666 Z M169 286 L533 286 C499 390 417 430 314 430 C153 430 45 363 45 190 C45 70 143 -10 289 -10 C386 -10 475 42 511 119 L509 120 C480 56 395 14 298 14 C219 14 166 103 166 237 C166 255 167 271 169 286 L169 286 Z M405 291 L170 290 C184 387 238 426 314 426 C343 426 373 388 405 290 L405 291 L405 291 Z " />
<glyph glyph-name="edieresis" unicode="&#xeb;" horiz-adv-x="563" d="M395 535 C440 535 470 565 470 609 C470 654 440 684 395 684 C351 684 321 654 321 609 C321 565 351 535 395 535 L395 535 Z M233 535 C277 535 307 565 307 609 C307 654 277 684 233 684 C188 684 158 654 158 609 C158 565 188 535 233 535 L233 535 Z M169 286 L533 286 C499 390 417 430 314 430 C153 430 45 363 45 190 C45 70 143 -10 289 -10 C386 -10 475 42 511 119 L509 120 C480 56 395 14 298 14 C219 14 166 103 166 237 C166 255 167 271 169 286 L169 286 Z M405 291 L170 290 C184 387 238 426 314 426 C343 426 373 388 405 290 L405 291 L405 291 Z " />
<glyph glyph-name="igrave" unicode="&#xec;" horiz-adv-x="281" d="M-58 657 C-58 648 -34 626 1 598 L146 480 L160 495 L54 650 C28 689 7 715 -1 715 C-32 715 -58 688 -58 657 L-58 657 Z M52 390 L72 395 C81 397 87 393 87 384 L87 20 C87 11 81 5 72 5 L52 5 L52 0 L237 0 L237 5 L217 5 C208 5 202 11 202 20 L202 420 L145 420 C128 416 108 411 88 406 L87 406 C87 404 54 396 52 395 L52 390 L52 390 Z " />
<glyph glyph-name="iacute" unicode="&#xed;" horiz-adv-x="281" d="M-58 657 C-58 648 -34 626 1 598 L146 480 L160 495 L54 650 C28 689 7 715 -1 715 C-32 715 -58 688 -58 657 L-58 657 Z M52 390 L72 395 C81 397 87 393 87 384 L87 20 C87 11 81 5 72 5 L52 5 L52 0 L237 0 L237 5 L217 5 C208 5 202 11 202 20 L202 420 L145 420 C128 416 108 411 88 406 L87 406 C87 404 54 396 52 395 L52 390 L52 390 Z " />
<glyph glyph-name="icircumflex" unicode="&#xee;" horiz-adv-x="281" d="M185 665 C177 677 157 706 145 706 C132 706 112 677 104 665 L-10 487 L6 474 L145 590 L283 474 L299 487 L185 665 L185 665 Z M52 390 L72 395 C81 397 87 393 87 384 L87 20 C87 11 81 5 72 5 L52 5 L52 0 L237 0 L237 5 L217 5 C208 5 202 11 202 20 L202 420 L145 420 C128 416 108 411 88 406 L87 406 C87 404 54 396 52 395 L52 390 L52 390 Z " />
<glyph glyph-name="idieresis" unicode="&#xef;" horiz-adv-x="281" d="M226 534 C270 534 300 564 300 608 C300 653 270 683 226 683 C182 683 152 653 152 608 C152 564 182 534 226 534 L226 534 Z M63 534 C107 534 137 564 137 608 C137 653 107 683 63 683 C19 683 -11 653 -11 608 C-11 564 19 534 63 534 L63 534 Z M52 390 L72 395 C81 397 87 393 87 384 L87 20 C87 11 81 5 72 5 L52 5 L52 0 L237 0 L237 5 L217 5 C208 5 202 11 202 20 L202 420 L145 420 C128 416 108 411 88 406 L87 406 C87 404 54 396 52 395 L52 390 L52 390 Z " />
<glyph glyph-name="ntilde" unicode="&#xf1;" horiz-adv-x="550" d="M115 540 C115 573 133 595 160 595 C213 595 285 530 338 530 C387 530 420 586 420 671 L417 671 C417 635 396 611 365 611 C312 611 240 676 187 676 C142 676 112 622 112 540 L115 540 L115 540 Z M11 389 C33 389 46 374 46 343 L46 20 C46 11 40 5 31 5 L11 5 L11 0 L196 0 L196 5 L176 5 C167 5 161 11 161 20 L161 294 C193 343 252 376 308 376 C350 376 371 321 371 238 L371 20 C371 11 365 5 356 5 L336 5 L336 0 L521 0 L521 5 L501 5 C492 5 486 11 486 20 L486 238 C486 353 436 430 340 430 C280 430 208 382 161 311 L161 420 L104 420 C87 416 67 411 47 406 L46 406 C46 404 13 396 11 395 L11 389 L11 389 Z " />
<glyph glyph-name="ograve" unicode="&#xf2;" horiz-adv-x="633" d="M172 210 C172 339 230 425 317 425 C403 425 461 339 461 210 C461 81 403 -5 317 -5 C230 -5 172 81 172 210 L172 210 Z M45 210 C45 78 154 -10 317 -10 C480 -10 588 78 588 210 C588 342 480 430 317 430 C154 430 45 342 45 210 L45 210 Z M114 658 C114 650 138 628 174 599 L318 481 L333 496 L226 651 C200 690 179 716 172 716 C141 716 114 689 114 658 L114 658 Z " />
<glyph glyph-name="oacute" unicode="&#xf3;" horiz-adv-x="633" d="M326 481 L470 599 C506 629 530 652 530 658 C530 689 503 716 472 716 C466 716 446 690 418 651 L311 496 L326 481 L326 481 Z M172 210 C172 339 230 425 317 425 C403 425 461 339 461 210 C461 81 403 -5 317 -5 C230 -5 172 81 172 210 L172 210 Z M45 210 C45 78 154 -10 317 -10 C480 -10 588 78 588 210 C588 342 480 430 317 430 C154 430 45 342 45 210 L45 210 Z " />
<glyph glyph-name="ocircumflex" unicode="&#xf4;" horiz-adv-x="633" d="M172 210 C172 339 230 425 317 425 C403 425 461 339 461 210 C461 81 403 -5 317 -5 C230 -5 172 81 172 210 L172 210 Z M45 210 C45 78 154 -10 317 -10 C480 -10 588 78 588 210 C588 342 480 430 317 430 C154 430 45 342 45 210 L45 210 Z M358 666 C350 678 330 707 317 707 C305 707 285 678 277 666 L163 488 L178 475 L317 592 L456 475 L471 488 L358 666 L358 666 Z " />
<glyph glyph-name="otilde" unicode="&#xf5;" horiz-adv-x="633" d="M166 540 C166 573 184 595 211 595 C264 595 336 530 389 530 C438 530 471 586 471 671 L468 671 C468 635 447 611 416 611 C363 611 291 676 238 676 C193 676 163 622 163 540 L166 540 L166 540 Z M172 210 C172 339 230 425 317 425 C403 425 461 339 461 210 C461 81 403 -5 317 -5 C230 -5 172 81 172 210 L172 210 Z M45 210 C45 78 154 -10 317 -10 C480 -10 588 78 588 210 C588 342 480 430 317 430 C154 430 45 342 45 210 L45 210 Z " />
<glyph glyph-name="odieresis" unicode="&#xf6;" horiz-adv-x="633" d="M398 535 C443 535 473 565 473 609 C473 654 443 684 398 684 C354 684 324 654 324 609 C324 565 354 535 398 535 L398 535 Z M236 535 C280 535 310 565 310 609 C310 654 280 684 236 684 C191 684 161 654 161 609 C161 565 191 535 236 535 L236 535 Z M172 210 C172 339 230 425 317 425 C403 425 461 339 461 210 C461 81 403 -5 317 -5 C230 -5 172 81 172 210 L172 210 Z M45 210 C45 78 154 -10 317 -10 C480 -10 588 78 588 210 C588 342 480 430 317 430 C154 430 45 342 45 210 L45 210 Z " />
<glyph glyph-name="oslash" unicode="&#xf8;" horiz-adv-x="633" d="M47 -12 C47 -12 74 10 122 49 C170 12 237 -9 317 -9 C480 -9 588 79 588 211 C588 276 562 330 516 368 C540 387 565 407 590 428 L586 432 C560 411 535 391 511 371 C464 408 397 429 317 429 C154 429 45 341 45 209 C45 144 71 90 117 52 C69 13 43 -8 43 -8 L47 -12 L47 -12 Z M445 318 C341 234 253 163 186 109 C177 138 172 172 172 210 C172 339 230 425 317 425 C376 425 422 385 445 318 L445 318 Z M447 312 C456 283 461 249 461 211 C461 82 403 -4 317 -4 C257 -4 211 36 188 103 C255 157 343 228 447 312 L447 312 Z " />
<glyph glyph-name="ugrave" unicode="&#xf9;" horiz-adv-x="546" d="M337 414 L357 414 C366 414 372 408 372 399 L372 122 C355 90 308 69 247 69 C193 69 157 104 157 156 L157 419 L7 419 L7 414 L27 414 C36 414 42 408 42 399 L42 156 C42 56 103 -11 194 -11 C279 -11 348 37 372 110 L372 -1 L429 -1 L429 -2 C460 6 501 17 532 25 L532 30 C506 22 487 32 487 68 L487 419 L372 419 L372 418 L337 418 L337 414 L337 414 Z M62 656 C62 647 86 625 121 597 L266 479 L280 494 L174 649 C148 688 127 714 119 714 C88 714 62 687 62 656 L62 656 Z " />
<glyph glyph-name="uacute" unicode="&#xfa;" horiz-adv-x="546" d="M273 480 L418 598 C453 627 477 650 477 657 C477 688 451 715 420 715 C413 715 392 689 365 650 L259 495 L273 480 L273 480 Z M337 414 L357 414 C366 414 372 408 372 399 L372 122 C355 90 308 69 247 69 C193 69 157 104 157 156 L157 419 L7 419 L7 414 L27 414 C36 414 42 408 42 399 L42 156 C42 56 103 -11 194 -11 C279 -11 348 37 372 110 L372 -1 L429 -1 L429 -2 C460 6 501 17 532 25 L532 30 C506 22 487 32 487 68 L487 419 L372 419 L372 418 L337 418 L337 414 L337 414 Z " />
<glyph glyph-name="ucircumflex" unicode="&#xfb;" horiz-adv-x="546" d="M337 414 L357 414 C366 414 372 408 372 399 L372 122 C355 90 308 69 247 69 C193 69 157 104 157 156 L157 419 L7 419 L7 414 L27 414 C36 414 42 408 42 399 L42 156 C42 56 103 -11 194 -11 C279 -11 348 37 372 110 L372 -1 L429 -1 L429 -2 C460 6 501 17 532 25 L532 30 C506 22 487 32 487 68 L487 419 L372 419 L372 418 L337 418 L337 414 L337 414 Z M305 664 C297 676 277 705 265 705 C252 705 232 676 224 664 L110 486 L126 473 L265 589 L403 473 L419 486 L305 664 L305 664 Z " />
<glyph glyph-name="udieresis" unicode="&#xfc;" horiz-adv-x="546" d="M346 534 C390 534 420 564 420 608 C420 653 390 683 346 683 C302 683 272 653 272 608 C272 564 302 534 346 534 L346 534 Z M183 534 C227 534 257 564 257 608 C257 653 227 683 183 683 C139 683 109 653 109 608 C109 564 139 534 183 534 L183 534 Z M337 414 L357 414 C366 414 372 408 372 399 L372 122 C355 90 308 69 247 69 C193 69 157 104 157 156 L157 419 L7 419 L7 414 L27 414 C36 414 42 408 42 399 L42 156 C42 56 103 -11 194 -11 C279 -11 348 37 372 110 L372 -1 L429 -1 L429 -2 C460 6 501 17 532 25 L532 30 C506 22 487 32 487 68 L487 419 L372 419 L372 418 L337 418 L337 414 L337 414 Z " />
<glyph glyph-name="ydieresis" unicode="&#xff;" horiz-adv-x="553" d="M395 535 C439 535 469 565 469 609 C469 654 439 684 395 684 C351 684 321 654 321 609 C321 565 351 535 395 535 L395 535 Z M232 535 C276 535 306 565 306 609 C306 654 276 684 232 684 C188 684 158 654 158 609 C158 565 188 535 232 535 L232 535 Z M200 420 L9 420 L9 415 C31 415 51 400 74 369 L320 -4 L316 -10 L261 -151 C251 -177 236 -194 234 -194 C212 -194 207 -156 184 -156 C155 -156 135 -176 135 -205 C135 -238 157 -260 189 -260 C219 -260 267 -222 289 -166 L351 -10 C398 116 446 241 494 366 C508 398 525 414 547 414 L547 419 L427 419 L427 414 C449 414 454 396 442 359 L442 359 L363 120 C310 200 256 280 204 360 C182 393 178 415 194 415 L199 415 L200 420 L200 420 Z " />
<glyph glyph-name="Amacron" unicode="&#x100;" horiz-adv-x="732" d="M200 810 L517 810 L517 890 L200 890 L200 810 L200 810 Z M202 6 L186 6 C137 6 115 42 129 97 L182 262 L429 262 L490 97 C507 42 486 6 437 6 L421 6 L421 0 L730 0 L730 6 L721 6 C691 6 657 39 634 90 C558 290 481 489 406 689 L392 689 C396 664 356 642 292 633 L296 623 L124 96 C102 41 56 5 5 5 L-11 5 L-11 -1 L203 -1 L202 6 L202 6 Z M185 267 L298 617 L428 267 L185 267 L185 267 Z " />
<glyph glyph-name="amacron" unicode="&#x101;" horiz-adv-x="523" d="M104 560 L420 560 L420 640 L104 640 L104 560 L104 560 Z M533 124 L526 128 C521 97 495 77 462 77 C431 77 411 87 411 101 L411 295 C411 388 351 430 262 430 C139 430 57 334 57 280 C57 232 86 200 129 200 C163 200 185 233 185 257 C185 276 165 297 165 319 C165 356 202 423 258 423 C281 423 296 396 296 336 L296 221 C86 183 37 164 37 79 C37 25 83 -11 153 -11 C190 -11 237 14 298 78 C308 27 353 -5 415 -5 C472 -5 519 47 533 124 L533 124 Z M296 217 L296 101 C296 95 296 89 297 83 C271 60 242 51 213 51 C176 51 152 67 152 92 C152 179 179 196 295 217 L296 217 L296 217 Z " />
<glyph glyph-name="Abreve" unicode="&#x102;" horiz-adv-x="732" d="M209 914 C219 830 279 774 359 774 C439 774 498 829 508 912 L484 915 C480 879 430 855 359 855 C288 855 237 880 233 918 L209 914 L209 914 Z M202 6 L186 6 C137 6 115 42 129 97 L182 262 L429 262 L490 97 C507 42 486 6 437 6 L421 6 L421 0 L730 0 L730 6 L721 6 C691 6 657 39 634 90 C558 290 481 489 406 689 L392 689 C396 664 356 642 292 633 L296 623 L124 96 C102 41 56 5 5 5 L-11 5 L-11 -1 L203 -1 L202 6 L202 6 Z M185 267 L298 617 L428 267 L185 267 L185 267 Z " />
<glyph glyph-name="abreve" unicode="&#x103;" horiz-adv-x="523" d="M113 664 C123 580 183 524 262 524 C342 524 401 579 411 662 L387 665 C383 629 333 605 262 605 C191 605 141 630 137 668 L113 664 L113 664 Z M533 124 L526 128 C521 97 495 77 462 77 C431 77 411 87 411 101 L411 295 C411 388 351 430 262 430 C139 430 57 334 57 280 C57 232 86 200 129 200 C163 200 185 233 185 257 C185 276 165 297 165 319 C165 356 202 423 258 423 C281 423 296 396 296 336 L296 221 C86 183 37 164 37 79 C37 25 83 -11 153 -11 C190 -11 237 14 298 78 C308 27 353 -5 415 -5 C472 -5 519 47 533 124 L533 124 Z M296 217 L296 101 C296 95 296 89 297 83 C271 60 242 51 213 51 C176 51 152 67 152 92 C152 179 179 196 295 217 L296 217 L296 217 Z " />
<glyph glyph-name="Cacute" unicode="&#x106;" horiz-adv-x="783" d="M458 731 L602 849 C638 879 662 902 662 908 C662 939 635 966 604 966 C598 966 578 940 550 901 L443 746 L458 731 L458 731 Z M740 15 L740 185 L725 185 C689 96 591 45 592 44 C541 13 491 -5 441 -5 C290 -5 189 131 189 335 C189 539 294 675 451 675 C537 675 594 649 644 605 C680 572 708 531 725 488 L740 488 L740 651 L732 651 C731 646 731 639 730 634 C727 609 704 607 673 628 L673 628 C625 661 559 681 448 681 C203 681 39 543 39 336 C39 129 199 -9 439 -9 C530 -9 600 12 659 46 L659 46 C698 69 726 64 729 35 C730 29 730 22 731 16 L740 15 L740 15 Z M725 121 L725 121 L725 121 L725 121 Z " />
<glyph glyph-name="Ccircumflex" unicode="&#x108;" horiz-adv-x="783" d="M740 15 L740 185 L725 185 C689 96 591 45 592 44 C541 13 491 -5 441 -5 C290 -5 189 131 189 335 C189 539 294 675 451 675 C537 675 594 649 644 605 C680 572 708 531 725 488 L740 488 L740 651 L732 651 C731 646 731 639 730 634 C727 609 704 607 673 628 L673 628 C625 661 559 681 448 681 C203 681 39 543 39 336 C39 129 199 -9 439 -9 C530 -9 600 12 659 46 L659 46 C698 69 726 64 729 35 C730 29 730 22 731 16 L740 15 L740 15 Z M489 917 C481 929 461 958 448 958 C436 958 416 929 408 917 L294 739 L309 726 L448 843 L587 726 L602 739 L489 917 L489 917 Z M725 121 L725 121 L725 121 L725 121 Z " />
<glyph glyph-name="Cdot" unicode="&#x10a;" horiz-adv-x="783" d="M449 785 C493 785 523 815 523 859 C523 904 493 934 449 934 C405 934 375 904 375 859 C375 815 405 785 449 785 L449 785 Z M740 15 L740 185 L725 185 C689 96 591 45 592 44 C541 13 491 -5 441 -5 C290 -5 189 131 189 335 C189 539 294 675 451 675 C537 675 594 649 644 605 C680 572 708 531 725 488 L740 488 L740 651 L732 651 C731 646 731 639 730 634 C727 609 704 607 673 628 L673 628 C625 661 559 681 448 681 C203 681 39 543 39 336 C39 129 199 -9 439 -9 C530 -9 600 12 659 46 L659 46 C698 69 726 64 729 35 C730 29 730 22 731 16 L740 15 L740 15 Z M725 121 L725 121 L725 121 L725 121 Z " />
<glyph glyph-name="cdot" unicode="&#x10b;" horiz-adv-x="551" d="M343 535 C387 535 417 565 417 609 C417 654 387 684 343 684 C299 684 269 654 269 609 C269 565 299 535 343 535 L343 535 Z M521 114 L519 115 C485 53 412 12 338 12 C235 12 167 103 167 240 C167 352 237 426 342 426 C358 426 384 386 406 325 C418 291 442 268 464 268 C511 268 533 291 521 325 C498 388 427 430 343 430 C164 430 45 337 45 197 C45 73 157 -10 325 -10 C401 -10 480 40 521 114 L521 114 Z " />
<glyph glyph-name="Ccaron" unicode="&#x10c;" horiz-adv-x="783" d="M588 965 L449 848 L310 965 L295 952 L409 774 C417 762 437 733 449 733 C462 733 482 762 490 774 L603 952 L588 965 L588 965 Z M740 15 L740 185 L725 185 C689 96 591 45 592 44 C541 13 491 -5 441 -5 C290 -5 189 131 189 335 C189 539 294 675 451 675 C537 675 594 649 644 605 C680 572 708 531 725 488 L740 488 L740 651 L732 651 C731 646 731 639 730 634 C727 609 704 607 673 628 L673 628 C625 661 559 681 448 681 C203 681 39 543 39 336 C39 129 199 -9 439 -9 C530 -9 600 12 659 46 L659 46 C698 69 726 64 729 35 C730 29 730 22 731 16 L740 15 L740 15 Z M725 121 L725 121 L725 121 L725 121 Z " />
<glyph glyph-name="ccaron" unicode="&#x10d;" horiz-adv-x="551" d="M482 715 L343 598 L204 715 L189 702 L303 524 C311 512 331 483 343 483 C356 483 376 512 384 524 L497 702 L482 715 L482 715 Z M521 114 L519 115 C485 53 412 12 338 12 C235 12 167 103 167 240 C167 352 237 426 342 426 C358 426 384 386 406 325 C418 291 442 268 464 268 C511 268 533 291 521 325 C498 388 427 430 343 430 C164 430 45 337 45 197 C45 73 157 -10 325 -10 C401 -10 480 40 521 114 L521 114 Z " />
<glyph glyph-name="Dcaron" unicode="&#x10e;" horiz-adv-x="872" d="M526 965 L387 848 L248 965 L233 952 L347 774 C355 762 375 733 387 733 C400 733 420 762 428 774 L541 952 L526 965 L526 965 Z M319 4 C249 4 241 21 241 46 L241 666 L351 666 C560 666 668 534 668 335 C668 117 528 4 319 4 L319 4 Z M51 665 C85 665 106 650 106 615 L106 55 C106 20 85 5 51 5 L51 0 L325 0 C620 0 817 114 817 335 C817 536 664 670 368 670 L51 670 L51 665 L51 665 Z " />
<glyph glyph-name="dcaron" unicode="&#x10f;" horiz-adv-x="588" d="M608 677 C585 677 575 614 572 568 L564 456 L584 452 L631 556 C648 593 660 635 660 660 C660 672 639 677 608 677 L608 677 Z M369 639 C391 639 404 624 404 593 L404 354 C377 398 327 430 273 430 C123 430 46 341 46 208 C46 80 128 -5 251 -5 C309 -5 369 24 405 69 L405 0 L462 0 L462 -1 C496 8 541 20 575 29 L575 34 L566 32 C538 25 520 40 520 70 L520 670 L463 670 L463 671 C449 667 432 662 415 657 L405 654 C405 652 372 644 370 643 L369 639 L369 639 Z M405 313 L405 75 C384 54 344 41 300 41 C219 41 165 120 165 238 C165 332 207 395 288 395 C344 395 392 357 406 313 L405 313 L405 313 Z " />
<glyph glyph-name="Emacron" unicode="&#x112;" horiz-adv-x="644" d="M176 810 L492 810 L492 890 L176 890 L176 810 L176 810 Z M502 239 L502 454 L491 454 L486 429 C477 381 440 349 392 349 L241 349 L241 666 L453 666 C501 666 542 634 557 586 L565 561 L576 561 C572 593 567 636 563 668 L562 668 L562 670 L31 670 L31 665 L43 665 C81 665 106 637 106 595 L106 75 C106 33 81 5 43 5 L31 5 L31 0 L587 0 L587 2 L588 2 C594 31 601 70 606 99 L595 99 L589 84 C570 36 516 4 453 4 L287 4 C246 4 241 21 241 46 L241 344 L392 344 C440 344 477 312 486 264 L491 239 L502 239 L502 239 Z " />
<glyph glyph-name="emacron" unicode="&#x113;" horiz-adv-x="563" d="M156 560 L472 560 L472 640 L156 640 L156 560 L156 560 Z M169 286 L533 286 C499 390 417 430 314 430 C153 430 45 363 45 190 C45 70 143 -10 289 -10 C386 -10 475 42 511 119 L509 120 C480 56 395 14 298 14 C219 14 166 103 166 237 C166 255 167 271 169 286 L169 286 Z M405 291 L170 290 C184 387 238 426 314 426 C343 426 373 388 405 290 L405 291 L405 291 Z " />
<glyph glyph-name="Ebreve" unicode="&#x114;" horiz-adv-x="644" d="M185 914 C195 830 255 774 334 774 C414 774 473 829 483 912 L459 915 C455 879 405 855 334 855 C263 855 213 880 209 918 L185 914 L185 914 Z M502 239 L502 454 L491 454 L486 429 C477 381 440 349 392 349 L241 349 L241 666 L453 666 C501 666 542 634 557 586 L565 561 L576 561 C572 593 567 636 563 668 L562 668 L562 670 L31 670 L31 665 L43 665 C81 665 106 637 106 595 L106 75 C106 33 81 5 43 5 L31 5 L31 0 L587 0 L587 2 L588 2 C594 31 601 70 606 99 L595 99 L589 84 C570 36 516 4 453 4 L287 4 C246 4 241 21 241 46 L241 344 L392 344 C440 344 477 312 486 264 L491 239 L502 239 L502 239 Z " />
<glyph glyph-name="ebreve" unicode="&#x115;" horiz-adv-x="563" d="M165 664 C175 580 235 524 314 524 C394 524 453 579 463 662 L439 665 C435 629 385 605 314 605 C243 605 193 630 189 668 L165 664 L165 664 Z M169 286 L533 286 C499 390 417 430 314 430 C153 430 45 363 45 190 C45 70 143 -10 289 -10 C386 -10 475 42 511 119 L509 120 C480 56 395 14 298 14 C219 14 166 103 166 237 C166 255 167 271 169 286 L169 286 Z M405 291 L170 290 C184 387 238 426 314 426 C343 426 373 388 405 290 L405 291 L405 291 Z " />
<glyph glyph-name="Edot" unicode="&#x116;" horiz-adv-x="644" d="M334 785 C378 785 408 815 408 859 C408 904 378 934 334 934 C290 934 260 904 260 859 C260 815 290 785 334 785 L334 785 Z M502 239 L502 454 L491 454 L486 429 C477 381 440 349 392 349 L241 349 L241 666 L453 666 C501 666 542 634 557 586 L565 561 L576 561 C572 593 567 636 563 668 L562 668 L562 670 L31 670 L31 665 L43 665 C81 665 106 637 106 595 L106 75 C106 33 81 5 43 5 L31 5 L31 0 L587 0 L587 2 L588 2 C594 31 601 70 606 99 L595 99 L589 84 C570 36 516 4 453 4 L287 4 C246 4 241 21 241 46 L241 344 L392 344 C440 344 477 312 486 264 L491 239 L502 239 L502 239 Z " />
<glyph glyph-name="edot" unicode="&#x117;" horiz-adv-x="563" d="M314 535 C358 535 388 565 388 609 C388 654 358 684 314 684 C270 684 240 654 240 609 C240 565 270 535 314 535 L314 535 Z M169 286 L533 286 C499 390 417 430 314 430 C153 430 45 363 45 190 C45 70 143 -10 289 -10 C386 -10 475 42 511 119 L509 120 C480 56 395 14 298 14 C219 14 166 103 166 237 C166 255 167 271 169 286 L169 286 Z M405 291 L170 290 C184 387 238 426 314 426 C343 426 373 388 405 290 L405 291 L405 291 Z " />
<glyph glyph-name="Ecaron" unicode="&#x11a;" horiz-adv-x="644" d="M473 965 L334 848 L195 965 L180 952 L294 774 C302 762 322 733 334 733 C347 733 367 762 375 774 L488 952 L473 965 L473 965 Z M502 239 L502 454 L491 454 L486 429 C477 381 440 349 392 349 L241 349 L241 666 L453 666 C501 666 542 634 557 586 L565 561 L576 561 C572 593 567 636 563 668 L562 668 L562 670 L31 670 L31 665 L43 665 C81 665 106 637 106 595 L106 75 C106 33 81 5 43 5 L31 5 L31 0 L587 0 L587 2 L588 2 C594 31 601 70 606 99 L595 99 L589 84 C570 36 516 4 453 4 L287 4 C246 4 241 21 241 46 L241 344 L392 344 C440 344 477 312 486 264 L491 239 L502 239 L502 239 Z " />
<glyph glyph-name="ecaron" unicode="&#x11b;" horiz-adv-x="563" d="M453 715 L314 598 L175 715 L160 702 L274 524 C282 512 302 483 314 483 C327 483 347 512 355 524 L468 702 L453 715 L453 715 Z M169 286 L533 286 C499 390 417 430 314 430 C153 430 45 363 45 190 C45 70 143 -10 289 -10 C386 -10 475 42 511 119 L509 120 C480 56 395 14 298 14 C219 14 166 103 166 237 C166 255 167 271 169 286 L169 286 Z M405 291 L170 290 C184 387 238 426 314 426 C343 426 373 388 405 290 L405 291 L405 291 Z " />
<glyph glyph-name="Gcircumflex" unicode="&#x11c;" horiz-adv-x="837" d="M741 488 L741 651 L733 651 C732 646 732 639 731 634 C728 609 705 607 674 628 L674 628 C626 661 560 681 449 681 C204 681 40 543 40 336 C40 129 203 -9 448 -9 C554 -9 637 6 709 30 L725 33 C725 33 725 34 725 36 C748 44 770 53 792 63 L791 66 C772 57 750 49 724 42 C724 67 724 139 724 199 C724 250 746 284 779 284 L789 284 L789 290 L523 290 L523 284 L533 284 C566 284 588 250 588 199 C589 199 589 134 589 126 C582 60 536 17 469 17 C300 17 187 144 187 335 C187 539 292 675 449 675 C535 675 592 649 642 605 C678 572 706 531 723 488 L741 488 L741 488 Z M487 916 C479 928 459 957 446 957 C434 957 414 928 406 916 L292 738 L307 725 L446 842 L585 725 L600 738 L487 916 L487 916 Z " />
<glyph glyph-name="Gbreve" unicode="&#x11e;" horiz-adv-x="837" d="M300 914 C310 830 370 774 449 774 C529 774 588 829 598 912 L574 915 C570 879 520 855 449 855 C378 855 328 880 324 918 L300 914 L300 914 Z M741 488 L741 651 L733 651 C732 646 732 639 731 634 C728 609 705 607 674 628 L674 628 C626 661 560 681 449 681 C204 681 40 543 40 336 C40 129 203 -9 448 -9 C554 -9 637 6 709 30 L725 33 C725 33 725 34 725 36 C748 44 770 53 792 63 L791 66 C772 57 750 49 724 42 C724 67 724 139 724 199 C724 250 746 284 779 284 L789 284 L789 290 L523 290 L523 284 L533 284 C566 284 588 250 588 199 C589 199 589 134 589 126 C582 60 536 17 469 17 C300 17 187 144 187 335 C187 539 292 675 449 675 C535 675 592 649 642 605 C678 572 706 531 723 488 L741 488 L741 488 Z " />
<glyph glyph-name="gbreve" unicode="&#x11f;" horiz-adv-x="531" d="M108 664 C118 580 178 524 257 524 C337 524 396 579 406 662 L382 665 C378 629 328 605 257 605 C186 605 136 630 132 668 L108 664 L108 664 Z M554 405 C554 446 524 474 479 474 C444 474 405 445 382 401 C350 420 307 430 257 430 C143 430 67 376 67 294 C67 223 124 173 214 161 C114 155 50 127 50 86 C50 37 83 1 135 -11 C76 -31 39 -63 39 -97 C39 -177 131 -230 268 -230 C405 -230 496 -162 496 -59 C496 36 443 99 305 99 L181 99 C143 99 118 107 118 120 C118 143 174 158 257 158 C370 158 446 212 446 294 C446 338 425 374 388 398 C434 422 467 356 506 356 C535 356 555 376 555 406 L554 405 L554 405 Z M258 163 C213 163 183 216 183 295 C183 374 213 427 258 427 C302 427 332 374 332 295 C332 216 302 163 258 163 L258 163 Z M154 -13 C161 -14 168 -14 175 -14 L293 -14 C371 -14 401 -42 401 -85 C401 -169 348 -225 268 -225 C188 -225 134 -163 134 -69 C134 -45 141 -25 153 -12 L154 -13 L154 -13 Z " />
<glyph glyph-name="Gdot" unicode="&#x120;" horiz-adv-x="837" d="M449 785 C493 785 523 815 523 859 C523 904 493 934 449 934 C405 934 375 904 375 859 C375 815 405 785 449 785 L449 785 Z M741 488 L741 651 L733 651 C732 646 732 639 731 634 C728 609 705 607 674 628 L674 628 C626 661 560 681 449 681 C204 681 40 543 40 336 C40 129 203 -9 448 -9 C554 -9 637 6 709 30 L725 33 C725 33 725 34 725 36 C748 44 770 53 792 63 L791 66 C772 57 750 49 724 42 C724 67 724 139 724 199 C724 250 746 284 779 284 L789 284 L789 290 L523 290 L523 284 L533 284 C566 284 588 250 588 199 C589 199 589 134 589 126 C582 60 536 17 469 17 C300 17 187 144 187 335 C187 539 292 675 449 675 C535 675 592 649 642 605 C678 572 706 531 723 488 L741 488 L741 488 Z " />
<glyph glyph-name="gdot" unicode="&#x121;" horiz-adv-x="531" d="M257 535 C301 535 331 565 331 609 C331 654 301 684 257 684 C213 684 183 654 183 609 C183 565 213 535 257 535 L257 535 Z M554 405 C554 446 524 474 479 474 C444 474 405 445 382 401 C350 420 307 430 257 430 C143 430 67 376 67 294 C67 223 124 173 214 161 C114 155 50 127 50 86 C50 37 83 1 135 -11 C76 -31 39 -63 39 -97 C39 -177 131 -230 268 -230 C405 -230 496 -162 496 -59 C496 36 443 99 305 99 L181 99 C143 99 118 107 118 120 C118 143 174 158 257 158 C370 158 446 212 446 294 C446 338 425 374 388 398 C434 422 467 356 506 356 C535 356 555 376 555 406 L554 405 L554 405 Z M258 163 C213 163 183 216 183 295 C183 374 213 427 258 427 C302 427 332 374 332 295 C332 216 302 163 258 163 L258 163 Z M154 -13 C161 -14 168 -14 175 -14 L293 -14 C371 -14 401 -42 401 -85 C401 -169 348 -225 268 -225 C188 -225 134 -163 134 -69 C134 -45 141 -25 153 -12 L154 -13 L154 -13 Z " />
<glyph glyph-name="Hcircumflex" unicode="&#x124;" horiz-adv-x="848" d="M479 916 C471 928 451 957 438 957 C426 957 406 928 398 916 L284 738 L299 725 L438 842 L577 725 L592 738 L479 916 L479 916 Z M789 5 C755 5 734 20 734 55 L734 615 C734 650 755 665 789 665 L789 670 L544 670 L544 665 C578 665 599 650 599 615 L599 347 L277 347 L277 615 C277 650 298 665 332 665 L332 670 L87 670 L87 665 C121 665 142 650 142 615 L142 55 C142 20 121 5 87 5 L87 0 L332 0 L332 5 C298 5 277 20 277 55 L277 342 L599 342 L599 55 C599 20 578 5 544 5 L544 0 L789 0 L789 5 L789 5 Z " />
<glyph glyph-name="Itilde" unicode="&#x128;" horiz-adv-x="341" d="M9 790 C9 823 27 845 54 845 C107 845 179 780 232 780 C281 780 314 836 314 921 L311 921 C311 885 290 861 259 861 C206 861 134 926 81 926 C36 926 6 872 6 790 L9 790 L9 790 Z M282 5 C248 5 227 20 227 55 L227 615 C227 650 248 665 282 665 L282 670 L37 670 L37 665 C71 665 92 650 92 615 L92 55 C92 20 71 5 37 5 L37 0 L282 0 L282 5 L282 5 Z " />
<glyph glyph-name="itilde" unicode="&#x129;" horiz-adv-x="281" d="M-6 539 C-6 572 12 594 39 594 C92 594 164 529 217 529 C266 529 299 585 299 670 L295 670 C295 634 275 610 244 610 C190 610 119 675 65 675 C20 675 -10 621 -10 539 L-6 539 L-6 539 Z M52 390 L72 395 C81 397 87 393 87 384 L87 20 C87 11 81 5 72 5 L52 5 L52 0 L237 0 L237 5 L217 5 C208 5 202 11 202 20 L202 420 L145 420 C128 416 108 411 88 406 L87 406 C87 404 54 396 52 395 L52 390 L52 390 Z " />
<glyph glyph-name="Imacron" unicode="&#x12a;" horiz-adv-x="341" d="M2 810 L318 810 L318 890 L2 890 L2 810 L2 810 Z M282 5 C248 5 227 20 227 55 L227 615 C227 650 248 665 282 665 L282 670 L37 670 L37 665 C71 665 92 650 92 615 L92 55 C92 20 71 5 37 5 L37 0 L282 0 L282 5 L282 5 Z " />
<glyph glyph-name="imacron" unicode="&#x12b;" horiz-adv-x="281" d="M-14 559 L303 559 L303 639 L-14 639 L-14 559 L-14 559 Z M52 390 L72 395 C81 397 87 393 87 384 L87 20 C87 11 81 5 72 5 L52 5 L52 0 L237 0 L237 5 L217 5 C208 5 202 11 202 20 L202 420 L145 420 C128 416 108 411 88 406 L87 406 C87 404 54 396 52 395 L52 390 L52 390 Z " />
<glyph glyph-name="Ibreve" unicode="&#x12c;" horiz-adv-x="341" d="M11 914 C21 830 81 774 160 774 C240 774 299 829 309 912 L285 915 C281 879 231 855 160 855 C89 855 39 880 35 918 L11 914 L11 914 Z M282 5 C248 5 227 20 227 55 L227 615 C227 650 248 665 282 665 L282 670 L37 670 L37 665 C71 665 92 650 92 615 L92 55 C92 20 71 5 37 5 L37 0 L282 0 L282 5 L282 5 Z " />
<glyph glyph-name="ibreve" unicode="&#x12d;" horiz-adv-x="281" d="M-5 663 C5 579 65 523 145 523 C225 523 284 578 294 661 L270 664 C266 628 216 604 145 604 C74 604 23 629 19 667 L-5 663 L-5 663 Z M52 390 L72 395 C81 397 87 393 87 384 L87 20 C87 11 81 5 72 5 L52 5 L52 0 L237 0 L237 5 L217 5 C208 5 202 11 202 20 L202 420 L145 420 C128 416 108 411 88 406 L87 406 C87 404 54 396 52 395 L52 390 L52 390 Z " />
<glyph glyph-name="Idot" unicode="&#x130;" horiz-adv-x="341" d="M160 785 C204 785 234 815 234 859 C234 904 204 934 160 934 C116 934 86 904 86 859 C86 815 116 785 160 785 L160 785 Z M282 5 C248 5 227 20 227 55 L227 615 C227 650 248 665 282 665 L282 670 L37 670 L37 665 C71 665 92 650 92 615 L92 55 C92 20 71 5 37 5 L37 0 L282 0 L282 5 L282 5 Z " />
<glyph glyph-name="dotlessi" unicode="&#x131;" horiz-adv-x="281" d="M52 390 L72 395 C81 397 87 393 87 384 L87 20 C87 11 81 5 72 5 L52 5 L52 0 L237 0 L237 5 L217 5 C208 5 202 11 202 20 L202 420 L145 420 C128 416 108 411 88 406 L87 406 C87 404 54 396 52 395 L52 390 L52 390 Z " />
<glyph glyph-name="Jcircumflex" unicode="&#x134;" horiz-adv-x="341" d="M201 916 C193 928 173 957 160 957 C148 957 128 928 120 916 L6 738 L21 725 L160 842 L299 725 L314 738 L201 916 L201 916 Z M282 670 L37 670 L37 665 C71 665 92 650 92 615 L92 -106 C92 -196 21 -213 -30 -213 C-97 -213 -64 -105 -131 -105 C-168 -105 -192 -129 -192 -166 C-192 -198 -129 -220 -35 -220 C75 -220 228 -161 228 150 C228 270 227 514 227 620 C229 653 249 666 282 666 L282 670 L282 670 Z " />
<glyph glyph-name="Lacute" unicode="&#x139;" horiz-adv-x="620" d="M168 731 L312 849 C348 879 372 902 372 908 C372 939 345 966 314 966 C308 966 288 940 260 901 L153 746 L168 731 L168 731 Z M282 670 L37 670 L37 665 C71 665 92 650 92 615 L92 55 C92 20 71 5 37 5 L37 0 L576 0 L576 17 C581 48 588 88 594 118 L583 118 L577 103 C558 55 504 23 441 23 L273 23 C232 23 227 32 227 46 L227 615 C227 650 248 665 282 665 L282 670 L282 670 Z " />
<glyph glyph-name="Lcaron" unicode="&#x13d;" horiz-adv-x="620" d="M384 727 C360 727 350 664 348 618 L341 506 L361 502 L408 606 C425 642 436 684 436 710 C436 722 415 727 384 727 L384 727 Z M282 670 L37 670 L37 665 C71 665 92 650 92 615 L92 55 C92 20 71 5 37 5 L37 0 L576 0 L576 17 C581 48 588 88 594 118 L583 118 L577 103 C558 55 504 23 441 23 L273 23 C232 23 227 32 227 46 L227 615 C227 650 248 665 282 665 L282 670 L282 670 Z " />
<glyph glyph-name="lcaron" unicode="&#x13e;" horiz-adv-x="225" d="M250 677 C227 677 217 614 214 568 L206 456 L226 452 L273 556 C290 593 302 635 302 660 C302 672 281 677 250 677 L250 677 Z M11 639 C33 639 46 624 46 593 L46 20 C46 11 40 5 31 5 L11 5 L11 0 L196 0 L196 5 L176 5 C167 5 161 11 161 20 L161 670 L104 670 C87 666 67 661 47 656 L46 656 C46 654 13 646 11 645 L11 639 L11 639 Z " />
<glyph glyph-name="Nacute" unicode="&#x143;" horiz-adv-x="753" d="M280 731 L425 849 C460 878 484 901 484 908 C484 939 458 966 427 966 C420 966 399 940 372 901 L266 746 L280 731 L280 731 Z M49 0 L200 0 L200 5 C167 5 145 20 145 55 L145 55 L142 515 C296 343 450 171 604 -1 L631 -1 L640 620 C643 652 664 664 696 664 L696 669 L546 669 L546 664 C580 664 601 649 601 614 L601 614 L603 181 C459 343 316 506 173 669 L-45 669 L-45 664 C-9 664 24 648 54 614 L54 614 L108 554 L107 54 L107 54 C107 19 86 4 52 4 L49 0 L49 0 Z " />
<glyph glyph-name="Ncaron" unicode="&#x147;" horiz-adv-x="753" d="M510 965 L372 849 L233 965 L217 952 L331 774 C339 762 359 733 372 733 C384 733 404 762 412 774 L526 952 L510 965 L510 965 Z M49 0 L200 0 L200 5 C167 5 145 20 145 55 L145 55 L142 515 C296 343 450 171 604 -1 L631 -1 L640 620 C643 652 664 664 696 664 L696 669 L546 669 L546 664 C580 664 601 649 601 614 L601 614 L603 181 C459 343 316 506 173 669 L-45 669 L-45 664 C-9 664 24 648 54 614 L54 614 L108 554 L107 54 L107 54 C107 19 86 4 52 4 L49 0 L49 0 Z " />
<glyph glyph-name="ncaron" unicode="&#x148;" horiz-adv-x="550" d="M405 715 L266 598 L127 715 L112 702 L226 524 C234 512 254 483 266 483 C279 483 299 512 307 524 L420 702 L405 715 L405 715 Z M11 389 C33 389 46 374 46 343 L46 20 C46 11 40 5 31 5 L11 5 L11 0 L196 0 L196 5 L176 5 C167 5 161 11 161 20 L161 294 C193 343 252 376 308 376 C350 376 371 321 371 238 L371 20 C371 11 365 5 356 5 L336 5 L336 0 L521 0 L521 5 L501 5 C492 5 486 11 486 20 L486 238 C486 353 436 430 340 430 C280 430 208 382 161 311 L161 420 L104 420 C87 416 67 411 47 406 L46 406 C46 404 13 396 11 395 L11 389 L11 389 Z " />
<glyph glyph-name="Omacron" unicode="&#x14c;" horiz-adv-x="903" d="M281 810 L597 810 L597 890 L281 890 L281 810 L281 810 Z M187 335 C187 539 287 675 438 675 C596 675 701 539 701 335 C701 131 593 -5 430 -5 C284 -5 187 131 187 335 L187 335 Z M40 335 C40 128 196 -10 429 -10 C680 -10 848 128 848 335 C848 542 684 680 439 680 C200 680 40 542 40 335 L40 335 Z " />
<glyph glyph-name="omacron" unicode="&#x14d;" horiz-adv-x="633" d="M159 560 L475 560 L475 640 L159 640 L159 560 L159 560 Z M172 210 C172 339 230 425 317 425 C403 425 461 339 461 210 C461 81 403 -5 317 -5 C230 -5 172 81 172 210 L172 210 Z M45 210 C45 78 154 -10 317 -10 C480 -10 588 78 588 210 C588 342 480 430 317 430 C154 430 45 342 45 210 L45 210 Z " />
<glyph glyph-name="Obreve" unicode="&#x14e;" horiz-adv-x="903" d="M290 914 C300 830 360 774 439 774 C519 774 578 829 588 912 L564 915 C560 879 510 855 439 855 C368 855 318 880 314 918 L290 914 L290 914 Z M187 335 C187 539 287 675 438 675 C596 675 701 539 701 335 C701 131 593 -5 430 -5 C284 -5 187 131 187 335 L187 335 Z M40 335 C40 128 196 -10 429 -10 C680 -10 848 128 848 335 C848 542 684 680 439 680 C200 680 40 542 40 335 L40 335 Z " />
<glyph glyph-name="obreve" unicode="&#x14f;" horiz-adv-x="633" d="M168 664 C178 580 238 524 317 524 C397 524 456 579 466 662 L442 665 C438 629 388 605 317 605 C246 605 196 630 192 668 L168 664 L168 664 Z M172 210 C172 339 230 425 317 425 C403 425 461 339 461 210 C461 81 403 -5 317 -5 C230 -5 172 81 172 210 L172 210 Z M45 210 C45 78 154 -10 317 -10 C480 -10 588 78 588 210 C588 342 480 430 317 430 C154 430 45 342 45 210 L45 210 Z " />
<glyph glyph-name="Racute" unicode="&#x154;" horiz-adv-x="794" d="M302 731 L447 849 C482 878 506 901 506 908 C506 939 480 966 449 966 C442 966 421 940 394 901 L288 746 L302 731 L302 731 Z M51 665 C85 665 106 650 106 615 L106 55 C106 20 85 5 51 5 L51 0 L296 0 L296 5 C262 5 241 20 241 55 L241 306 L323 306 C347 268 416 176 508 58 C552 2 563 0 783 0 L783 7 C710 7 705 9 667 58 C571 180 497 274 462 318 C565 340 628 392 628 478 C628 593 507 669 326 669 L49 669 L51 665 L51 665 Z M239 338 L239 642 L286 642 C402 642 479 587 479 504 C479 389 418 338 326 338 L239 338 L239 338 Z " />
<glyph glyph-name="Rcaron" unicode="&#x158;" horiz-adv-x="794" d="M432 965 L294 849 L155 965 L139 952 L253 774 C261 762 281 733 294 733 C306 733 326 762 334 774 L448 952 L432 965 L432 965 Z M51 665 C85 665 106 650 106 615 L106 55 C106 20 85 5 51 5 L51 0 L296 0 L296 5 C262 5 241 20 241 55 L241 306 L323 306 C347 268 416 176 508 58 C552 2 563 0 783 0 L783 7 C710 7 705 9 667 58 C571 180 497 274 462 318 C565 340 628 392 628 478 C628 593 507 669 326 669 L49 669 L51 665 L51 665 Z M239 338 L239 642 L286 642 C402 642 479 587 479 504 C479 389 418 338 326 338 L239 338 L239 338 Z " />
<glyph glyph-name="rcaron" unicode="&#x159;" horiz-adv-x="452" d="M373 715 L234 598 L95 715 L80 702 L194 524 C202 512 222 483 234 483 C247 483 267 512 275 524 L388 702 L373 715 L373 715 Z M12 389 C34 389 47 374 47 343 L47 20 C47 11 41 5 32 5 L12 5 L12 0 L197 0 L197 5 L177 5 C168 5 162 11 162 20 L162 316 C182 353 220 376 261 376 C288 376 306 362 306 341 C306 300 333 273 374 273 C415 273 442 300 442 341 C442 394 391 430 315 430 C251 430 192 389 162 325 L162 419 L105 419 C88 415 68 410 48 405 L47 405 C47 403 14 395 12 394 L12 389 L12 389 Z " />
<glyph glyph-name="Sacute" unicode="&#x15a;" horiz-adv-x="566" d="M288 731 L432 849 C468 879 492 902 492 908 C492 939 465 966 434 966 C428 966 408 940 380 901 L273 746 L288 731 L288 731 Z M489 508 L489 657 L481 657 C480 653 480 647 479 643 C476 625 460 621 438 632 C424 642 408 650 390 657 C385 660 380 663 375 666 L373 663 C341 673 305 679 267 679 C140 679 56 603 56 488 C56 395 121 310 247 264 C359 223 416 180 416 147 C416 56 364 -5 287 -5 C241 -5 195 15 156 50 C127 77 93 129 67 183 L60 197 L45 197 L45 11 L53 11 C54 18 54 26 55 33 C58 64 83 67 118 42 L118 42 C164 9 224 -11 287 -11 C429 -11 524 68 524 187 C524 274 457 357 328 404 C218 444 161 495 161 540 C161 620 203 674 267 674 C305 674 342 662 374 642 C405 620 441 573 466 521 L473 507 L489 508 L489 508 Z M469 566 L469 566 L469 566 L469 566 Z " />
<glyph glyph-name="Scircumflex" unicode="&#x15c;" horiz-adv-x="566" d="M489 508 L489 657 L481 657 C480 653 480 647 479 643 C476 625 460 621 438 632 C424 642 408 650 390 657 C385 660 380 663 375 666 L373 663 C341 673 305 679 267 679 C140 679 56 603 56 488 C56 395 121 310 247 264 C359 223 416 180 416 147 C416 56 364 -5 287 -5 C241 -5 195 15 156 50 C127 77 93 129 67 183 L60 197 L45 197 L45 11 L53 11 C54 18 54 26 55 33 C58 64 83 67 118 42 L118 42 C164 9 224 -11 287 -11 C429 -11 524 68 524 187 C524 274 457 357 328 404 C218 444 161 495 161 540 C161 620 203 674 267 674 C305 674 342 662 374 642 C405 620 441 573 466 521 L473 507 L489 508 L489 508 Z M319 915 C311 927 291 956 278 956 C266 956 246 927 238 915 L124 737 L139 724 L278 841 L417 724 L432 737 L319 915 L319 915 Z M469 566 L469 566 L469 566 L469 566 Z " />
<glyph glyph-name="Scaron" unicode="&#x160;" horiz-adv-x="566" d="M418 965 L279 848 L140 965 L125 952 L239 774 C247 762 267 733 279 733 C292 733 312 762 320 774 L433 952 L418 965 L418 965 Z M489 508 L489 657 L481 657 C480 653 480 647 479 643 C476 625 460 621 438 632 C424 642 408 650 390 657 C385 660 380 663 375 666 L373 663 C341 673 305 679 267 679 C140 679 56 603 56 488 C56 395 121 310 247 264 C359 223 416 180 416 147 C416 56 364 -5 287 -5 C241 -5 195 15 156 50 C127 77 93 129 67 183 L60 197 L45 197 L45 11 L53 11 C54 18 54 26 55 33 C58 64 83 67 118 42 L118 42 C164 9 224 -11 287 -11 C429 -11 524 68 524 187 C524 274 457 357 328 404 C218 444 161 495 161 540 C161 620 203 674 267 674 C305 674 342 662 374 642 C405 620 441 573 466 521 L473 507 L489 508 L489 508 Z M469 566 L469 566 L469 566 L469 566 Z " />
<glyph glyph-name="scaron" unicode="&#x161;" horiz-adv-x="445" d="M356 715 L217 598 L78 715 L63 702 L177 524 C185 512 205 483 217 483 C230 483 250 512 258 524 L371 702 L356 715 L356 715 Z M60 134 L60 12 L66 12 C66 15 67 20 67 23 C69 39 113 17 139 6 C148 -1 157 -7 166 -11 L169 -4 C185 -8 201 -10 218 -10 C325 -10 396 42 396 119 C396 176 344 227 244 254 C174 273 138 309 138 349 C138 409 196 440 258 420 C288 410 329 368 360 313 C362 310 365 305 367 302 L373 302 L373 413 L367 413 C367 410 366 407 366 404 C365 397 334 405 302 417 C290 425 277 432 264 436 L261 427 C150 444 57 392 57 309 C57 245 104 189 194 165 C269 145 308 115 308 85 C308 30 272 -7 219 -7 C216 -7 172 0 174 4 C148 16 109 63 75 122 C73 125 71 130 69 133 L60 134 L60 134 Z " />
<glyph glyph-name="Tcaron" unicode="&#x164;" horiz-adv-x="786" d="M530 965 L391 848 L252 965 L237 952 L351 774 C359 762 379 733 391 733 C404 733 424 762 432 774 L545 952 L530 965 L530 965 Z M715 685 C700 674 656 670 604 670 L181 670 C129 670 86 674 71 685 L62 685 C58 675 53 663 49 653 L56 653 L56 641 C43 609 27 571 15 541 L26 541 L35 556 C64 604 117 636 168 636 L326 636 L326 55 C326 20 305 5 271 5 L271 0 L517 0 L517 5 C483 5 462 20 462 55 L462 636 L617 636 C669 636 722 604 751 556 L760 541 L771 541 C759 570 744 606 731 637 L731 654 L737 654 C735 659 733 664 731 669 L731 671 L730 671 C728 676 726 681 724 686 L715 685 L715 685 Z " />
<glyph glyph-name="tcaron" unicode="&#x165;" horiz-adv-x="418" d="M369 420 L211 420 L211 521 L203 521 L31 369 L31 359 L96 359 L96 157 C96 37 158 -10 252 -10 C327 -10 389 34 408 101 L394 105 C384 68 341 44 287 44 C240 44 208 68 208 131 L211 359 L369 359 L369 420 L369 420 Z M467 677 C444 677 434 614 431 568 L423 456 L443 452 L490 556 C507 593 519 635 519 660 C519 672 498 677 467 677 L467 677 Z " />
<glyph glyph-name="Utilde" unicode="&#x168;" horiz-adv-x="765" d="M225 791 C225 824 243 846 270 846 C323 846 395 781 448 781 C497 781 530 837 530 922 L527 922 C527 886 506 862 475 862 C422 862 350 927 297 927 C252 927 222 873 222 791 L225 791 L225 791 Z M736 38 L727 36 C699 29 681 44 681 74 L681 670 L614 670 L614 671 L491 671 L491 666 C525 666 546 651 546 616 L546 199 C512 126 433 77 350 77 C264 77 206 133 206 218 L206 670 L139 670 L139 671 L16 671 L16 666 C50 666 71 651 71 616 L71 218 C71 81 161 -10 296 -10 C405 -10 505 49 546 138 L546 0 L614 0 L681 18 L681 18 C700 23 719 28 736 32 L736 38 L736 38 Z " />
<glyph glyph-name="utilde" unicode="&#x169;" horiz-adv-x="546" d="M114 539 C114 572 132 594 159 594 C212 594 284 529 337 529 C386 529 419 585 419 670 L415 670 C415 634 395 610 364 610 C310 610 239 675 185 675 C140 675 110 621 110 539 L114 539 L114 539 Z M337 414 L357 414 C366 414 372 408 372 399 L372 122 C355 90 308 69 247 69 C193 69 157 104 157 156 L157 419 L7 419 L7 414 L27 414 C36 414 42 408 42 399 L42 156 C42 56 103 -11 194 -11 C279 -11 348 37 372 110 L372 -1 L429 -1 L429 -2 C460 6 501 17 532 25 L532 30 C506 22 487 32 487 68 L487 419 L372 419 L372 418 L337 418 L337 414 L337 414 Z " />
<glyph glyph-name="Umacron" unicode="&#x16a;" horiz-adv-x="765" d="M218 811 L534 811 L534 891 L218 891 L218 811 L218 811 Z M736 38 L727 36 C699 29 681 44 681 74 L681 670 L614 670 L614 671 L491 671 L491 666 C525 666 546 651 546 616 L546 199 C512 126 433 77 350 77 C264 77 206 133 206 218 L206 670 L139 670 L139 671 L16 671 L16 666 C50 666 71 651 71 616 L71 218 C71 81 161 -10 296 -10 C405 -10 505 49 546 138 L546 0 L614 0 L681 18 L681 18 C700 23 719 28 736 32 L736 38 L736 38 Z " />
<glyph glyph-name="umacron" unicode="&#x16b;" horiz-adv-x="546" d="M106 559 L423 559 L423 639 L106 639 L106 559 L106 559 Z M337 414 L357 414 C366 414 372 408 372 399 L372 122 C355 90 308 69 247 69 C193 69 157 104 157 156 L157 419 L7 419 L7 414 L27 414 C36 414 42 408 42 399 L42 156 C42 56 103 -11 194 -11 C279 -11 348 37 372 110 L372 -1 L429 -1 L429 -2 C460 6 501 17 532 25 L532 30 C506 22 487 32 487 68 L487 419 L372 419 L372 418 L337 418 L337 414 L337 414 Z " />
<glyph glyph-name="Ubreve" unicode="&#x16c;" horiz-adv-x="765" d="M227 915 C237 831 297 775 376 775 C456 775 515 830 525 913 L501 916 C497 880 447 856 376 856 C305 856 255 881 251 919 L227 915 L227 915 Z M736 38 L727 36 C699 29 681 44 681 74 L681 670 L614 670 L614 671 L491 671 L491 666 C525 666 546 651 546 616 L546 199 C512 126 433 77 350 77 C264 77 206 133 206 218 L206 670 L139 670 L139 671 L16 671 L16 666 C50 666 71 651 71 616 L71 218 C71 81 161 -10 296 -10 C405 -10 505 49 546 138 L546 0 L614 0 L681 18 L681 18 C700 23 719 28 736 32 L736 38 L736 38 Z " />
<glyph glyph-name="ubreve" unicode="&#x16d;" horiz-adv-x="546" d="M115 663 C125 579 185 523 265 523 C345 523 404 578 414 661 L390 664 C386 628 336 604 265 604 C194 604 143 629 139 667 L115 663 L115 663 Z M337 414 L357 414 C366 414 372 408 372 399 L372 122 C355 90 308 69 247 69 C193 69 157 104 157 156 L157 419 L7 419 L7 414 L27 414 C36 414 42 408 42 399 L42 156 C42 56 103 -11 194 -11 C279 -11 348 37 372 110 L372 -1 L429 -1 L429 -2 C460 6 501 17 532 25 L532 30 C506 22 487 32 487 68 L487 419 L372 419 L372 418 L337 418 L337 414 L337 414 Z " />
<glyph glyph-name="Uring" unicode="&#x16e;" horiz-adv-x="765" d="M311 826 C311 867 337 894 376 894 C415 894 441 867 441 826 C441 789 411 758 376 758 C341 758 311 789 311 826 L311 826 Z M278 826 C278 775 323 731 376 731 C429 731 474 775 474 826 C474 883 435 921 376 921 C317 921 278 883 278 826 L278 826 Z M736 38 L727 36 C699 29 681 44 681 74 L681 670 L614 670 L614 671 L491 671 L491 666 C525 666 546 651 546 616 L546 199 C512 126 433 77 350 77 C264 77 206 133 206 218 L206 670 L139 670 L139 671 L16 671 L16 666 C50 666 71 651 71 616 L71 218 C71 81 161 -10 296 -10 C405 -10 505 49 546 138 L546 0 L614 0 L681 18 L681 18 C700 23 719 28 736 32 L736 38 L736 38 Z " />
<glyph glyph-name="uring" unicode="&#x16f;" horiz-adv-x="546" d="M200 574 C200 615 226 642 265 642 C303 642 329 615 329 574 C329 537 300 506 265 506 C230 506 200 537 200 574 L200 574 Z M166 574 C166 523 212 479 265 479 C318 479 363 523 363 574 C363 631 324 669 265 669 C206 669 166 631 166 574 L166 574 Z M337 414 L357 414 C366 414 372 408 372 399 L372 122 C355 90 308 69 247 69 C193 69 157 104 157 156 L157 419 L7 419 L7 414 L27 414 C36 414 42 408 42 399 L42 156 C42 56 103 -11 194 -11 C279 -11 348 37 372 110 L372 -1 L429 -1 L429 -2 C460 6 501 17 532 25 L532 30 C506 22 487 32 487 68 L487 419 L372 419 L372 418 L337 418 L337 414 L337 414 Z " />
<glyph glyph-name="Wcircumflex" unicode="&#x174;" horiz-adv-x="1109" d="M261 670 L-10 670 L-10 664 C21 664 47 637 73 584 L73 584 C170 386 267 188 365 -10 L399 -10 L568 399 C636 263 704 127 772 -9 L806 -9 L807 -4 L1007 589 C1023 635 1055 665 1087 665 L1097 665 L1097 671 L866 671 L866 665 L899 665 C947 665 969 633 954 585 L955 585 L832 185 L832 188 C763 320 693 453 625 585 C600 633 615 665 663 665 L680 665 L680 671 L385 671 L385 665 C418 665 448 637 474 585 L543 448 L432 164 C362 304 292 445 223 585 C199 633 209 665 248 665 L260 665 L261 670 L261 670 Z M573 917 C565 929 545 958 533 958 C520 958 500 929 492 917 L378 739 L394 726 L533 842 L671 726 L687 739 L573 917 L573 917 Z " />
<glyph glyph-name="Ycircumflex" unicode="&#x176;" horiz-adv-x="716" d="M225 0 L511 0 L511 5 L499 5 C461 5 436 33 436 75 L436 301 L623 613 C646 649 678 665 719 665 L719 670 L552 670 L552 665 L589 665 C620 665 630 645 615 615 L434 307 L220 617 C203 646 211 665 242 665 L259 665 L259 670 L-11 670 L-11 665 C16 665 42 646 67 610 L67 610 L300 280 L300 75 C300 33 275 5 237 5 L225 5 L225 0 L225 0 Z M409 916 C401 928 381 957 368 957 C356 957 336 928 328 916 L214 738 L229 725 L368 842 L507 725 L522 738 L409 916 L409 916 Z " />
<glyph glyph-name="Ydieresis" unicode="&#x178;" horiz-adv-x="716" d="M449 785 C494 785 524 815 524 859 C524 904 494 934 449 934 C405 934 375 904 375 859 C375 815 405 785 449 785 L449 785 Z M287 785 C331 785 361 815 361 859 C361 904 331 934 287 934 C242 934 212 904 212 859 C212 815 242 785 287 785 L287 785 Z M225 0 L511 0 L511 5 L499 5 C461 5 436 33 436 75 L436 301 L623 613 C646 649 678 665 719 665 L719 670 L552 670 L552 665 L589 665 C620 665 630 645 615 615 L434 307 L220 617 C203 646 211 665 242 665 L259 665 L259 670 L-11 670 L-11 665 C16 665 42 646 67 610 L67 610 L300 280 L300 75 C300 33 275 5 237 5 L225 5 L225 0 L225 0 Z " />
<glyph glyph-name="Zacute" unicode="&#x179;" horiz-adv-x="648" d="M355 731 L500 849 C535 878 559 901 559 908 C559 939 533 966 502 966 C495 966 474 940 447 901 L341 746 L355 731 L355 731 Z M70 538 L74 552 C87 598 132 630 189 635 L472 641 L24 28 L24 1 L616 1 L620 21 C621 21 631 66 647 136 L636 136 L630 122 C610 75 557 42 496 39 L184 32 L619 644 L619 671 L68 671 L65 633 C65 633 59 567 57 539 L70 538 L70 538 Z " />
<glyph glyph-name="Zdot" unicode="&#x17b;" horiz-adv-x="648" d="M347 785 C391 785 421 815 421 859 C421 904 391 934 347 934 C302 934 272 904 272 859 C272 815 302 785 347 785 L347 785 Z M70 538 L74 552 C87 598 132 630 189 635 L472 641 L24 28 L24 1 L616 1 L620 21 C621 21 631 66 647 136 L636 136 L630 122 C610 75 557 42 496 39 L184 32 L619 644 L619 671 L68 671 L65 633 C65 633 59 567 57 539 L70 538 L70 538 Z " />
<glyph glyph-name="zdot" unicode="&#x17c;" horiz-adv-x="486" d="M262 535 C306 535 336 565 336 609 C336 654 306 684 262 684 C217 684 187 654 187 609 C187 565 217 535 262 535 L262 535 Z M67 422 C65 415 63 406 61 399 L62 399 C60 393 51 360 38 312 L51 312 L58 322 C76 353 115 376 159 383 L305 388 L40 27 L40 0 L441 0 L441 20 L447 20 C447 20 451 55 457 108 L444 108 L439 98 C424 64 382 40 333 37 L183 32 L445 393 L445 420 L108 420 C90 420 77 420 76 421 L76 422 L67 422 L67 422 Z " />
<glyph glyph-name="Zcaron" unicode="&#x17d;" horiz-adv-x="648" d="M485 965 L347 849 L208 965 L192 952 L306 774 C314 762 334 733 347 733 C359 733 379 762 387 774 L501 952 L485 965 L485 965 Z M70 538 L74 552 C87 598 132 630 189 635 L472 641 L24 28 L24 1 L616 1 L620 21 C621 21 631 66 647 136 L636 136 L630 122 C610 75 557 42 496 39 L184 32 L619 644 L619 671 L68 671 L65 633 C65 633 59 567 57 539 L70 538 L70 538 Z " />
<glyph glyph-name="zcaron" unicode="&#x17e;" horiz-adv-x="486" d="M400 715 L262 599 L123 715 L107 702 L221 524 C229 512 249 483 262 483 C274 483 294 512 302 524 L416 702 L400 715 L400 715 Z M67 422 C65 415 63 406 61 399 L62 399 C60 393 51 360 38 312 L51 312 L58 322 C76 353 115 376 159 383 L305 388 L40 27 L40 0 L441 0 L441 20 L447 20 C447 20 451 55 457 108 L444 108 L439 98 C424 64 382 40 333 37 L183 32 L445 393 L445 420 L108 420 C90 420 77 420 76 421 L76 422 L67 422 L67 422 Z " />
<glyph glyph-name="oogonek" unicode="&#x1eb;" horiz-adv-x="804" d="M1039 -51 L1037 -50 C1008 -75 890 -91 744 -91 C596 -91 438 -58 331 -7 C348 -9 366 -10 384 -10 C606 -10 754 95 754 252 C754 409 610 513 394 513 C184 513 44 409 44 252 C44 162 88 89 164 43 C373 -84 600 -169 731 -169 C832 -169 955 -122 1039 -52 L1039 -51 L1039 -51 Z M176 251 C176 405 263 508 393 508 C530 508 621 405 621 251 C621 95 525 -9 380 -9 C258 -9 176 95 176 251 L176 251 Z " />
<glyph glyph-name="Adotabove" unicode="&#x226;" horiz-adv-x="732" d="M359 785 C403 785 433 815 433 859 C433 904 403 934 359 934 C314 934 284 904 284 859 C284 815 314 785 359 785 L359 785 Z M202 6 L186 6 C137 6 115 42 129 97 L182 262 L429 262 L490 97 C507 42 486 6 437 6 L421 6 L421 0 L730 0 L730 6 L721 6 C691 6 657 39 634 90 C558 290 481 489 406 689 L392 689 C396 664 356 642 292 633 L296 623 L124 96 C102 41 56 5 5 5 L-11 5 L-11 -1 L203 -1 L202 6 L202 6 Z M185 267 L298 617 L428 267 L185 267 L185 267 Z " />
<glyph glyph-name="G_sc" unicode="&#x262;" horiz-adv-x="744" d="M634 351 L649 351 L649 512 L641 512 C640 507 640 500 639 495 C636 471 614 465 583 481 L583 481 C569 488 553 494 535 499 C534 500 533 501 532 502 L532 501 C499 509 457 514 401 514 C188 514 46 410 46 253 C46 96 189 -9 404 -9 C443 -9 480 -6 515 0 C518 -1 518 -2 518 0 L518 0 L541 6 C551 8 561 10 571 13 L636 29 L636 34 C659 43 682 53 705 64 L704 67 C683 57 661 48 636 41 L636 128 C636 179 658 213 691 213 L701 213 L701 219 L449 219 L449 213 L459 213 C492 213 514 179 514 128 L515 128 C516 61 480 16 425 16 C278 16 180 111 180 253 C180 407 269 510 403 510 C455 510 494 501 526 485 L526 485 C576 461 615 408 637 352 L634 351 L634 351 Z " />
<glyph glyph-name="I_sc" unicode="&#x26a;" horiz-adv-x="334" d="M275 5 C241 5 220 20 220 55 L220 448 C220 483 241 498 275 498 L275 503 L44 503 L44 498 C78 498 99 483 99 448 L99 55 C99 20 78 5 44 5 L44 0 L275 0 L275 5 L275 5 Z " />
<glyph glyph-name="N_sc" unicode="&#x274;" horiz-adv-x="668" d="M50 0 L197 0 L197 5 C166 5 146 16 142 46 L139 379 C267 252 395 125 523 -2 L547 -2 L555 447 C557 482 577 496 611 496 L611 501 L465 501 L465 496 C499 496 520 481 520 446 L520 446 L522 109 C403 239 285 370 167 501 L-34 501 L-34 496 C2 496 37 480 71 446 L71 446 L108 409 L107 53 L107 53 C107 18 85 3 52 3 L50 0 L50 0 Z " />
<glyph glyph-name="R_sc" unicode="&#x280;" horiz-adv-x="648" d="M54 498 C88 498 109 483 109 448 L109 55 C109 20 88 5 54 5 L54 0 L286 0 L286 5 C252 5 231 20 231 55 L231 225 L264 225 C285 196 339 129 411 44 C447 2 456 0 638 0 L638 6 C587 6 584 8 553 44 C479 132 421 200 391 235 C483 252 539 292 539 358 C539 445 430 503 267 503 L54 503 L54 498 L54 498 Z M231 255 L231 479 C335 479 404 440 404 382 C404 294 349 255 267 255 L231 255 L231 255 Z " />
<glyph glyph-name="Y_sc" unicode="&#x28f;" horiz-adv-x="625" d="M247 503 L-7 503 L-7 498 C19 498 44 481 72 448 L261 206 L261 75 C261 33 236 5 198 5 L186 5 L186 0 L458 0 L458 5 L446 5 C408 5 383 33 383 75 L383 225 L532 451 C557 483 589 498 627 498 L627 503 L461 503 L461 498 L498 498 C529 498 538 479 523 450 L382 230 L217 445 C193 477 198 498 230 498 L246 498 L247 503 L247 503 Z " />
<glyph glyph-name="B_sc" unicode="&#x299;" horiz-adv-x="607" d="M364 259 C406 259 434 208 434 131 C434 27 398 2 345 2 L295 2 C257 2 231 21 231 49 L231 258 L331 258 C337 258 364 258 364 259 L364 259 Z M54 497 C88 497 109 482 109 447 L109 56 C109 21 88 6 54 6 L54 0 L351 0 C481 0 567 25 567 131 C567 207 496 258 387 261 C477 274 534 319 534 383 C534 454 488 502 294 502 L54 502 L54 497 L54 497 Z M329 261 L231 261 L231 499 L286 499 C389 499 413 447 413 370 C413 305 379 261 329 261 L329 261 Z " />
<glyph glyph-name="H_sc" unicode="&#x29c;" horiz-adv-x="760" d="M701 5 C667 5 646 20 646 55 L646 448 C646 483 667 498 701 498 L701 503 L469 503 L469 498 C503 498 524 483 524 448 L524 262 L267 262 L267 448 C267 483 288 498 322 498 L322 503 L90 503 L90 498 C124 498 145 483 145 448 L145 55 C145 20 124 5 90 5 L90 0 L322 0 L322 5 C288 5 267 20 267 55 L267 257 L524 257 L524 55 C524 20 503 5 469 5 L469 0 L701 0 L701 5 L701 5 Z " />
<glyph glyph-name="L_sc" unicode="&#x29f;" horiz-adv-x="534" d="M275 503 L44 503 L44 498 C78 498 99 483 99 448 L99 55 C99 20 78 5 44 5 L44 0 L490 0 L490 16 C495 47 501 86 507 116 L496 116 L490 101 C471 53 417 21 354 21 L266 21 C225 21 220 31 220 46 L220 448 C220 483 241 498 275 498 L275 503 L275 503 Z " />
<glyph glyph-name="circumflex" unicode="&#x2c6;" horiz-adv-x="353" d="M218 666 C210 678 190 707 177 707 C165 707 145 678 137 666 L23 488 L38 475 L177 592 L316 475 L331 488 L218 666 L218 666 Z " />
<glyph glyph-name="caron" unicode="&#x2c7;" horiz-adv-x="353" d="M316 715 L177 598 L38 715 L23 702 L137 524 C145 512 165 483 177 483 C190 483 210 512 218 524 L331 702 L316 715 L316 715 Z " />
<glyph glyph-name="firsttonechinese" unicode="&#x2c9;" horiz-adv-x="353" d="M19 560 L335 560 L335 640 L19 640 L19 560 L19 560 Z " />
<glyph glyph-name="breve" unicode="&#x2d8;" horiz-adv-x="353" d="M28 664 C38 580 98 524 177 524 C257 524 316 579 326 662 L302 665 C298 629 248 605 177 605 C106 605 56 630 52 668 L28 664 L28 664 Z " />
<glyph glyph-name="dotaccent" unicode="&#x2d9;" horiz-adv-x="353" d="M177 535 C221 535 251 565 251 609 C251 654 221 684 177 684 C133 684 103 654 103 609 C103 565 133 535 177 535 L177 535 Z " />
<glyph glyph-name="ring" unicode="&#x2da;" horiz-adv-x="353" d="M112 575 C112 616 138 643 177 643 C216 643 242 616 242 575 C242 538 212 507 177 507 C142 507 112 538 112 575 L112 575 Z M78 575 C78 524 124 480 177 480 C230 480 275 524 275 575 C275 632 236 670 177 670 C118 670 78 632 78 575 L78 575 Z " />
<glyph glyph-name="A_sc" unicode="&#x1d00;" horiz-adv-x="647" d="M350 0 L645 0 L645 6 L635 6 C602 6 564 46 538 106 L538 106 C479 245 420 384 360 523 L348 523 C351 505 315 487 257 479 C258 476 260 472 261 469 C217 348 174 227 130 106 C108 46 58 6 5 6 L-10 6 L-10 0 L202 0 L202 6 L186 6 C134 6 114 46 135 106 L167 196 L374 196 L413 102 C436 44 418 6 367 6 L351 6 L350 0 L350 0 Z M169 201 L263 464 L372 201 L169 201 L169 201 Z " />
<glyph glyph-name="C_sc" unicode="&#x1d04;" horiz-adv-x="692" d="M648 -12 L648 155 L633 155 C631 150 628 144 626 139 C608 95 559 48 503 21 L503 21 C467 4 430 -6 391 -6 C262 -6 176 97 176 252 C176 406 265 509 399 509 C451 509 490 500 522 484 L522 484 C572 460 611 407 633 351 L648 351 L648 512 L640 512 C639 507 639 500 638 495 C635 471 613 465 582 481 L582 481 C568 488 552 494 534 499 C533 500 532 501 531 502 L531 501 C498 509 456 514 400 514 C187 514 45 410 45 253 C45 96 184 -9 392 -9 C472 -9 531 5 578 29 C612 43 636 35 639 8 C640 2 640 -5 641 -11 L648 -12 L648 -12 Z " />
<glyph glyph-name="D_sc" unicode="&#x1d05;" horiz-adv-x="779" d="M285 4 C236 4 231 21 231 46 L231 500 C231 500 305 500 305 499 C493 499 590 400 590 252 C590 88 468 4 285 4 L285 4 Z M54 498 C88 498 109 483 109 448 L109 55 C109 20 88 5 54 5 L54 0 L290 0 C550 0 724 86 724 252 C724 403 587 503 320 503 L54 503 L54 498 L54 498 Z " />
<glyph glyph-name="E_sc" unicode="&#x1d07;" horiz-adv-x="571" d="M429 153 L429 368 L418 368 L413 343 C404 295 367 263 319 263 L231 263 L231 499 L379 499 C427 499 468 467 483 419 L491 394 L502 394 C498 426 493 469 489 501 L489 503 L34 503 L34 498 L46 498 C84 498 109 470 109 428 L109 75 C109 33 84 5 46 5 L34 5 L34 0 L514 0 L514 2 L515 2 C520 31 527 70 532 99 L521 99 L515 84 C496 36 442 4 379 4 L277 4 C236 4 231 21 231 46 L231 258 L319 258 C367 258 404 226 413 178 L418 153 L429 153 L429 153 Z " />
<glyph glyph-name="J_sc" unicode="&#x1d0a;" horiz-adv-x="334" d="M275 503 L44 503 L44 498 C77 498 97 485 99 452 C99 335 98 47 98 -94 C98 -196 35 -215 -10 -215 C-70 -215 -41 -118 -101 -118 C-134 -118 -156 -140 -156 -172 C-156 -201 -99 -221 -14 -221 C85 -221 221 -164 221 136 C221 216 220 372 220 452 C222 484 242 497 275 497 L275 503 L275 503 Z " />
<glyph glyph-name="K_sc" unicode="&#x1d0b;" horiz-adv-x="674" d="M286 503 L54 503 L54 498 C88 498 109 483 109 448 L109 55 C109 20 88 5 54 5 L54 0 L286 0 L286 5 C252 5 231 20 231 55 L231 252 L471 0 L670 0 L670 5 C635 5 603 21 573 53 L332 324 C369 360 406 397 444 433 C484 472 535 498 573 498 L585 498 L585 503 L345 503 L345 498 L365 498 C425 498 427 458 370 398 L370 398 L232 252 L232 448 C232 483 253 498 287 498 L286 503 L286 503 Z " />
<glyph glyph-name="M_sc" unicode="&#x1d0d;" horiz-adv-x="792" d="M47 498 C77 498 100 487 119 461 L100 45 C95 16 75 4 44 4 L44 -1 L196 -1 L196 4 C163 4 143 17 142 50 L149 409 C224 273 299 137 374 0 L404 0 L591 415 L604 55 C605 20 584 5 551 5 L551 0 L782 0 L782 5 C751 5 730 18 726 48 C720 181 713 315 707 448 C706 484 726 498 759 498 L759 503 L589 503 L445 165 L246 503 L48 503 L47 498 L47 498 Z " />
<glyph glyph-name="O_sc" unicode="&#x1d0f;" horiz-adv-x="809" d="M176 252 C176 406 263 509 393 509 C530 509 621 406 621 252 C621 98 527 -5 385 -5 C260 -5 176 98 176 252 L176 252 Z M44 252 C44 95 180 -10 384 -10 C606 -10 754 95 754 252 C754 409 610 513 394 513 C184 513 44 409 44 252 L44 252 Z " />
<glyph glyph-name="P_sc" unicode="&#x1d18;" horiz-adv-x="542" d="M316 5 C282 5 261 20 261 55 L261 219 L298 219 C432 219 522 262 522 359 C522 445 447 503 335 503 L85 503 L85 498 C119 498 140 483 140 448 L140 55 C140 20 119 5 85 5 L85 0 L316 0 L316 5 L316 5 Z M261 245 L261 483 C261 483 291 482 304 482 C366 482 408 441 408 380 C408 287 364 245 298 245 L261 245 L261 245 Z " />
<glyph glyph-name="T_sc" unicode="&#x1d1b;" horiz-adv-x="722" d="M652 518 C637 507 593 503 541 503 L181 503 C129 503 86 507 71 518 L62 518 C58 509 53 497 49 488 L56 488 L56 480 C43 448 27 408 15 377 L26 377 L35 392 C65 440 118 472 169 472 L301 472 L301 54 C301 19 280 4 246 4 L246 -1 L478 -1 L478 4 C444 4 423 19 423 54 L423 472 L555 472 C606 472 659 440 688 392 L697 377 L708 377 C697 406 682 443 670 474 L670 487 L676 487 C674 491 672 496 670 501 L670 502 L670 502 C668 507 666 512 664 517 L652 518 L652 518 Z " />
<glyph glyph-name="U_sc" unicode="&#x1d1c;" horiz-adv-x="666" d="M19 497 C53 497 74 482 74 447 L74 200 C74 74 142 -10 245 -10 C337 -10 423 43 460 122 L460 0 L521 0 L521 -1 C556 8 602 20 637 29 L637 34 L628 32 C600 25 582 40 582 70 L582 503 L460 503 L460 502 L405 502 L405 497 C439 497 460 482 460 447 L460 177 C430 112 363 68 294 68 C235 68 196 121 196 200 L196 503 L74 503 L74 502 L19 502 L19 497 L19 497 Z " />
<glyph glyph-name="V_sc" unicode="&#x1d20;" horiz-adv-x="705" d="M687 503 L463 503 L463 497 L481 497 C540 497 560 457 531 397 L532 397 L334 -10 L359 -10 C431 126 503 262 575 397 C607 457 648 497 678 497 L687 497 L687 503 L687 503 Z M280 503 L-6 503 L-6 497 C24 497 53 467 89 410 C171 270 253 130 335 -10 L428 182 L253 405 C212 461 217 498 266 498 L281 498 L280 503 L280 503 Z " />
<glyph glyph-name="W_sc" unicode="&#x1d21;" horiz-adv-x="967" d="M608 503 L328 503 L328 497 C359 497 386 475 414 431 L468 335 L388 146 C333 236 277 327 222 417 C192 465 198 497 237 497 L249 497 L249 503 L-6 503 L-6 497 C25 497 54 469 83 417 L83 417 C163 275 243 133 323 -9 L354 -9 L490 297 C548 195 606 93 664 -9 L695 -9 C750 133 805 276 860 418 C879 466 913 498 946 498 L955 498 L955 504 L731 504 L731 498 L764 498 C812 498 832 466 815 418 L815 418 L727 169 L560 424 C534 469 546 498 592 498 L608 498 L608 503 L608 503 Z " />
<glyph glyph-name="Z_sc" unicode="&#x1d22;" horiz-adv-x="585" d="M69 375 L73 389 C86 435 132 467 190 472 L422 477 L25 25 L25 1 L554 1 L558 19 C558 19 568 64 584 132 L573 132 L567 118 C546 70 490 37 426 35 L426 35 L175 29 L558 480 L558 504 L70 504 L69 487 C68 487 64 444 58 376 L69 375 L69 375 Z " />
<glyph glyph-name="Wgrave" unicode="&#x1e80;" horiz-adv-x="1109" d="M261 670 L-10 670 L-10 664 C21 664 47 637 73 584 L73 584 C170 386 267 188 365 -10 L399 -10 L568 399 C636 263 704 127 772 -9 L806 -9 L807 -4 L1007 589 C1023 635 1055 665 1087 665 L1097 665 L1097 671 L866 671 L866 665 L899 665 C947 665 969 633 954 585 L955 585 L832 185 L832 188 C763 320 693 453 625 585 C600 633 615 665 663 665 L680 665 L680 671 L385 671 L385 665 C418 665 448 637 474 585 L543 448 L432 164 C362 304 292 445 223 585 C199 633 209 665 248 665 L260 665 L261 670 L261 670 Z M330 909 C330 900 354 878 389 850 L534 732 L548 747 L442 902 C416 941 395 967 387 967 C356 967 330 940 330 909 L330 909 Z " />
<glyph glyph-name="Wacute" unicode="&#x1e82;" horiz-adv-x="1109" d="M542 731 L687 849 C722 878 746 901 746 908 C746 939 720 966 689 966 C682 966 661 940 634 901 L528 746 L542 731 L542 731 Z M261 670 L-10 670 L-10 664 C21 664 47 637 73 584 L73 584 C170 386 267 188 365 -10 L399 -10 L568 399 C636 263 704 127 772 -9 L806 -9 L807 -4 L1007 589 C1023 635 1055 665 1087 665 L1097 665 L1097 671 L866 671 L866 665 L899 665 C947 665 969 633 954 585 L955 585 L832 185 L832 188 C763 320 693 453 625 585 C600 633 615 665 663 665 L680 665 L680 671 L385 671 L385 665 C418 665 448 637 474 585 L543 448 L432 164 C362 304 292 445 223 585 C199 633 209 665 248 665 L260 665 L261 670 L261 670 Z " />
<glyph glyph-name="Wdieresis" unicode="&#x1e84;" horiz-adv-x="1109" d="M615 785 C659 785 689 815 689 859 C689 904 659 934 615 934 C571 934 541 904 541 859 C541 815 571 785 615 785 L615 785 Z M452 785 C496 785 526 815 526 859 C526 904 496 934 452 934 C408 934 378 904 378 859 C378 815 408 785 452 785 L452 785 Z M261 670 L-10 670 L-10 664 C21 664 47 637 73 584 L73 584 C170 386 267 188 365 -10 L399 -10 L568 399 C636 263 704 127 772 -9 L806 -9 L807 -4 L1007 589 C1023 635 1055 665 1087 665 L1097 665 L1097 671 L866 671 L866 665 L899 665 C947 665 969 633 954 585 L955 585 L832 185 L832 188 C763 320 693 453 625 585 C600 633 615 665 663 665 L680 665 L680 671 L385 671 L385 665 C418 665 448 637 474 585 L543 448 L432 164 C362 304 292 445 223 585 C199 633 209 665 248 665 L260 665 L261 670 L261 670 Z " />
<glyph glyph-name="Etilde" unicode="&#x1ebc;" horiz-adv-x="644" d="M183 790 C183 823 201 845 228 845 C281 845 353 780 406 780 C455 780 488 836 488 921 L485 921 C485 885 464 861 433 861 C380 861 308 926 255 926 C210 926 180 872 180 790 L183 790 L183 790 Z M502 239 L502 454 L491 454 L486 429 C477 381 440 349 392 349 L241 349 L241 666 L453 666 C501 666 542 634 557 586 L565 561 L576 561 C572 593 567 636 563 668 L562 668 L562 670 L31 670 L31 665 L43 665 C81 665 106 637 106 595 L106 75 C106 33 81 5 43 5 L31 5 L31 0 L587 0 L587 2 L588 2 C594 31 601 70 606 99 L595 99 L589 84 C570 36 516 4 453 4 L287 4 C246 4 241 21 241 46 L241 344 L392 344 C440 344 477 312 486 264 L491 239 L502 239 L502 239 Z " />
<glyph glyph-name="Ygrave" unicode="&#x1ef2;" horiz-adv-x="716" d="M225 0 L511 0 L511 5 L499 5 C461 5 436 33 436 75 L436 301 L623 613 C646 649 678 665 719 665 L719 670 L552 670 L552 665 L589 665 C620 665 630 645 615 615 L434 307 L220 617 C203 646 211 665 242 665 L259 665 L259 670 L-11 670 L-11 665 C16 665 42 646 67 610 L67 610 L300 280 L300 75 C300 33 275 5 237 5 L225 5 L225 0 L225 0 Z M165 908 C165 900 189 878 225 849 L369 731 L384 746 L277 901 C251 940 230 966 223 966 C192 966 165 939 165 908 L165 908 Z " />
<glyph glyph-name="quoteleft" unicode="&#x2018;" horiz-adv-x="670" d="M90 560 C76 560 65 554 57 543 C57 615 85 666 130 670 L120 681 C62 676 23 613 23 524 C23 481 50 453 90 453 C122 453 144 475 144 507 C144 539 122 561 90 561 L90 560 L90 560 Z " />
<glyph glyph-name="quoteright" unicode="&#x2019;" horiz-adv-x="184" d="M111 589 C110 522 77 472 28 463 L39 452 C103 463 145 528 145 614 C145 654 118 680 78 680 C46 680 24 658 24 626 C24 594 46 572 78 572 C92 572 103 578 111 589 L111 589 Z " />
<glyph glyph-name="quotedblleft" unicode="&#x201c;" horiz-adv-x="670" d="M273 560 C259 560 248 554 240 543 C240 615 268 666 313 670 L303 681 C245 676 206 613 206 524 C206 481 233 453 273 453 C306 453 328 475 328 507 C328 539 306 561 273 561 L273 560 L273 560 Z M78 561 C64 561 53 555 45 544 C45 616 73 667 118 671 L108 682 C50 677 11 614 11 525 C11 482 38 454 78 454 C110 454 132 476 132 508 C132 540 110 562 78 562 L78 561 L78 561 Z " />
<glyph glyph-name="quotedblright" unicode="&#x201d;" horiz-adv-x="670" d="M307 590 C306 523 272 472 223 463 L234 452 C298 463 341 528 341 614 C341 654 314 680 273 680 C241 680 219 658 219 626 C219 594 241 572 273 572 C287 572 299 579 307 590 L307 590 Z M111 589 C110 522 77 472 28 463 L39 452 C103 463 145 528 145 614 C145 654 118 680 78 680 C46 680 24 658 24 626 C24 594 46 572 78 572 C92 572 103 578 111 589 L111 589 Z " />
<glyph glyph-name="perthousand" unicode="&#x2030;" horiz-adv-x="1192" d="M977 192 C977 286 994 349 1020 349 C1051 349 1071 268 1071 147 C1071 56 1053 -4 1025 -4 C996 -4 977 74 977 192 L977 192 Z M864 171 C864 62 928 -10 1023 -10 C1117 -10 1180 68 1180 186 C1180 287 1117 354 1023 354 C928 354 864 281 864 171 L864 171 Z M143 514 C143 611 161 675 187 675 C218 675 238 593 238 469 C238 381 220 322 192 322 C163 322 143 399 143 514 L143 514 Z M31 493 C31 387 95 316 190 316 C284 316 347 393 347 508 C347 611 284 680 190 680 C95 680 31 605 31 493 L31 493 Z M601 192 C601 286 622 349 654 349 C693 349 719 268 719 146 C719 56 695 -4 658 -4 C624 -4 601 74 601 192 L601 192 Z M488 170 C488 62 555 -10 656 -10 C759 -10 827 68 827 186 C827 287 759 354 656 354 C555 354 488 280 488 170 L488 170 Z M193 -3 L664 667 L656 673 L186 3 L193 -3 L193 -3 Z " />
<glyph glyph-name="fraction" unicode="&#x2044;" horiz-adv-x="509" d="M34 -3 L504 667 L497 673 L26 3 L34 -3 L34 -3 Z " />
<glyph glyph-name="Euro" unicode="&#x20ac;" horiz-adv-x="833" d="M790 15 L790 104 C787 102 784 100 781 98 C784 100 787 102 790 104 L775 120 L775 120 L789 104 L789 185 L774 185 C772 181 770 174 768 170 C739 102 643 45 643 45 C592 14 541 -4 490 -4 C367 -4 277 86 248 229 L545 229 L556 311 L239 311 C238 327 238 344 239 360 L556 360 L568 442 L249 442 C279 585 372 675 500 675 C571 675 623 657 667 626 C709 596 750 547 769 504 C771 500 773 493 775 489 L790 489 L790 652 L783 652 C782 647 782 639 781 634 C778 609 756 607 725 628 L725 628 C676 661 610 681 498 681 C298 681 152 589 105 443 L66 443 L54 361 L90 361 C89 345 89 328 90 312 L54 312 L42 230 L105 230 C151 84 294 -8 490 -8 C585 -8 657 15 718 52 C753 70 778 64 781 36 C782 30 782 23 783 17 L790 15 L790 15 Z " />
<glyph glyph-name="F_sc" unicode="&#xa730;" horiz-adv-x="546" d="M419 153 L419 368 L408 368 L403 343 C394 295 357 263 309 263 L231 263 L231 500 L379 500 C427 500 468 468 483 420 L491 395 L502 395 C498 427 493 470 489 502 L489 503 L34 503 L34 498 L46 498 C84 498 109 470 109 428 L109 75 C109 33 84 5 46 5 L34 5 L34 0 L306 0 L306 5 L294 5 C256 5 231 33 231 75 L231 258 L309 258 C357 258 394 226 403 178 L408 153 L419 153 L419 153 Z " />
<glyph glyph-name="S_sc" unicode="&#xa731;" horiz-adv-x="501" d="M48 163 L48 -20 L56 -20 C57 -13 57 -4 58 3 C61 34 87 41 124 21 C124 21 146 11 149 10 C155 6 161 2 167 -1 L169 3 C196 -5 225 -9 255 -9 C379 -9 461 52 461 144 C461 210 404 275 292 316 C202 349 155 384 155 411 C155 470 189 510 240 510 C245 510 291 505 290 502 C339 486 383 430 408 368 L423 368 L423 516 L415 516 C414 512 414 505 413 501 C410 481 389 477 361 490 C356 492 351 494 345 496 C330 506 313 514 296 519 L293 508 C164 528 61 469 61 363 C61 292 115 225 220 187 C316 152 365 123 365 107 C365 40 321 -5 256 -5 C224 -5 192 5 163 23 C123 50 87 105 64 162 L48 163 L48 163 Z " />
<glyph glyph-name="X_sc" unicode="&#xf078;" horiz-adv-x="684" d="M682 503 L474 503 L474 498 L509 498 C565 498 512 443 512 443 L373 296 L243 448 C219 478 223 498 254 498 L270 498 L270 503 L16 503 L16 498 C43 498 71 479 102 443 L285 228 L113 52 C78 20 42 5 2 5 L2 0 L206 0 L206 5 L171 5 C140 5 136 25 162 55 L301 210 L431 57 C457 25 453 4 421 4 L405 4 L405 -1 L660 -1 L660 4 C633 4 605 23 574 59 L574 59 L378 288 L561 448 C602 481 640 496 681 496 L682 503 L682 503 Z " />
</font>
</svg>
