<?xml version="1.0" encoding="UTF-8"?>
<svg xmlns="http://www.w3.org/2000/svg" xmlns:xlink="http://www.w3.org/1999/xlink" version="1.2" >
<font id="Thomas Craft Regular">
<font-face  font-family="Thomas Craft" units-per-em="1024" ascent="871" descent="-300" font-style="normal" font-weight="400" font-stretch="normal" cap-height="964" x-height="436" underline-position="-125" underline-thickness="50" />
<missing-glyph  horiz-adv-x="100" d="" />
<glyph glyph-name="NULL" d="" />
<glyph glyph-name="CR" unicode="&#xd;" horiz-adv-x="256" d="" />
<glyph glyph-name="space" unicode="&#x20;" horiz-adv-x="263" d="" />
<glyph glyph-name="exclam" unicode="&#x21;" horiz-adv-x="250" d="M125 -5 C163 -5 189 21 189 59 C189 97 163 122 125 122 C87 122 61 97 61 59 C61 21 87 -5 125 -5 L125 -5 Z M125 675 C82 675 62 632 70 567 L117 176 L134 176 L180 567 C188 632 168 675 125 675 L125 675 Z " />
<glyph glyph-name="quotedbl" unicode="&#x22;" horiz-adv-x="336" d="M211 670 C191 670 179 652 185 625 L217 480 L227 480 L259 625 C265 652 253 670 233 670 L211 670 L211 670 Z M91 670 C71 670 59 652 65 625 L97 480 L107 480 L139 625 C145 652 133 670 113 670 L91 670 L91 670 Z " />
<glyph glyph-name="numbersign" unicode="&#x23;" horiz-adv-x="535" d="M389 585 L363 415 L205 415 L231 585 L226 585 L200 415 L57 415 L47 345 L190 345 L173 235 L27 235 L17 165 L163 165 L138 0 L143 0 L168 165 L326 165 L301 0 L306 0 L331 165 L469 165 L479 235 L341 235 L358 345 L505 345 L515 415 L368 415 L394 585 L389 585 L389 585 Z M195 345 L353 345 L336 235 L178 235 L195 345 L195 345 Z " />
<glyph glyph-name="dollar" unicode="&#x24;" horiz-adv-x="562" d="M49 195 L49 13 L57 13 C58 20 58 28 59 35 C62 65 87 69 121 44 L121 44 C150 23 185 7 223 -2 L223 -76 L254 -76 L254 -8 C270 -10 286 -11 303 -11 L303 -76 L334 -76 L334 -9 C449 4 522 75 522 177 C522 261 458 340 334 387 L334 663 C394 642 437 593 461 528 C463 523 466 515 468 510 L483 510 L483 655 L475 655 C474 651 474 645 473 641 C470 623 452 620 427 635 C414 643 400 650 385 656 C377 661 369 666 361 670 L359 666 C351 668 343 670 334 672 L334 744 L303 744 L303 677 C287 679 271 680 254 680 L254 745 L223 745 L223 677 C125 663 63 595 63 498 C63 421 118 347 223 297 L223 8 C219 10 171 32 173 35 C133 62 93 119 71 177 C69 182 66 190 64 195 L49 195 L49 195 Z M254 284 C270 278 288 272 303 266 L303 -4 C286 -5 270 -3 254 0 L254 284 L254 284 Z M334 251 C403 217 438 181 438 149 C438 72 398 17 334 1 L334 251 L334 251 Z M254 424 L254 678 C271 679 287 677 303 674 L303 402 C285 409 269 417 254 425 L254 424 L254 424 Z M223 443 C172 475 146 509 146 541 C146 607 176 655 223 672 L223 443 L223 443 Z " />
<glyph glyph-name="percent" unicode="&#x25;" horiz-adv-x="830" d="M119 511 C119 610 145 676 184 676 C227 676 255 596 255 475 C255 382 228 320 187 320 C146 320 119 396 119 511 L119 511 Z M30 494 C30 387 92 316 186 316 C278 316 340 392 340 506 C340 610 278 680 186 680 C92 680 30 606 30 494 L30 494 Z M579 189 C579 286 608 350 651 350 C700 350 733 271 733 153 C733 58 701 -6 654 -6 C609 -6 579 72 579 189 L579 189 Z M491 172 C491 63 556 -10 653 -10 C752 -10 818 68 818 184 C818 286 752 354 653 354 C556 354 491 281 491 172 L491 172 Z M188 -2 L659 668 L653 672 L183 2 L188 -2 L188 -2 Z " />
<glyph glyph-name="ampersand" unicode="&#x26;" horiz-adv-x="880" d="M330 465 C428 498 493 555 493 611 C493 652 422 680 316 680 C213 680 145 647 145 598 C145 557 180 507 236 439 C118 399 39 304 39 199 C39 74 122 -9 246 -9 C343 -9 439 32 523 104 C527 99 531 94 535 89 C584 30 651 -9 702 -9 C772 -9 827 53 838 147 L822 152 C816 100 782 65 739 65 C700 65 649 94 613 137 C604 148 595 158 587 168 C647 237 697 323 733 421 L712 421 C678 329 627 251 566 192 C403 385 366 424 331 466 L330 465 L330 465 Z M321 478 C262 550 224 602 224 647 C224 655 261 660 316 660 C378 660 420 643 420 617 C420 555 381 501 321 478 L321 478 Z M494 136 C433 97 366 75 298 75 C200 75 134 135 134 226 C134 320 177 399 243 429 C291 371 317 346 494 135 L494 136 L494 136 Z " />
<glyph glyph-name="quotesingle" unicode="&#x27;" horiz-adv-x="209" d="M91 670 C71 670 59 652 65 625 L97 480 L107 480 L139 625 C145 652 133 670 113 670 L91 670 L91 670 Z " />
<glyph glyph-name="parenleft" unicode="&#x28;" horiz-adv-x="237" d="M216 680 C122 568 60 437 60 233 C60 29 122 -102 216 -214 L227 -205 C169 -136 130 -18 130 233 C130 484 169 601 227 670 L216 680 L216 680 Z " />
<glyph glyph-name="parenright" unicode="&#x29;" horiz-adv-x="181" d="M5 670 C67 630 108 455 108 233 C108 11 67 -164 5 -204 L10 -214 C107 -151 171 28 171 233 C171 438 107 617 10 680 L5 670 L5 670 Z " />
<glyph glyph-name="asterisk" unicode="&#x2a;" horiz-adv-x="300" d="M267 583 L267 583 L267 583 Z M239 465 C255 450 273 453 284 471 C295 490 288 507 267 513 C267 513 248 480 240 465 L239 465 L239 465 Z M267 583 C287 589 294 606 284 624 C273 642 256 645 240 631 L240 632 L152 550 L151 550 L179 669 C184 690 173 704 151 704 C130 704 119 690 124 669 L151 550 L61 634 L61 633 C45 648 27 645 16 626 C5 607 12 590 33 584 L34 586 L151 549 L152 549 L152 549 L152 549 L34 513 L62 465 L151 547 L125 430 C120 409 131 395 152 395 C174 395 185 409 180 430 L152 548 L153 548 L241 466 L269 514 L156 549 L267 584 L267 584 L267 583 L267 583 Z M60 466 C51 480 32 513 32 513 C11 507 4 490 15 471 C25 452 43 449 59 464 L60 466 L60 466 Z " />
<glyph glyph-name="plus" unicode="&#x2b;" horiz-adv-x="631" d="M281 431 L281 247 L100 247 L100 183 L281 183 L281 0 L350 0 L350 183 L531 183 L531 247 L350 247 L350 431 L281 431 L281 431 Z " />
<glyph glyph-name="comma" unicode="&#x2c;" horiz-adv-x="259" d="M173 35 C195 -46 142 -107 65 -107 L65 -110 C139 -110 189 -61 189 12 C189 56 176 90 155 106 C147 113 137 117 125 117 C89 117 65 93 65 57 C65 21 89 -3 125 -3 C149 -3 167 12 173 36 L173 35 L173 35 Z " />
<glyph glyph-name="hyphen" unicode="&#x2d;" horiz-adv-x="441" d="M80 202 L361 202 L361 276 L80 276 L80 202 L80 202 Z " />
<glyph glyph-name="period" unicode="&#x2e;" horiz-adv-x="195" d="M125 -5 C163 -5 189 21 189 59 C189 97 163 122 125 122 C87 122 61 97 61 59 C61 21 87 -5 125 -5 L125 -5 Z " />
<glyph glyph-name="slash" unicode="&#x2f;" horiz-adv-x="390" d="M308 690 L26 -80 L78 -80 L360 690 L308 690 L308 690 Z " />
<glyph glyph-name="zero" unicode="0" horiz-adv-x="531" d="M87 210 C87 309 158 393 265 393 C361 393 443 320 443 210 C443 111 372 27 265 27 C169 27 87 100 87 210 L87 210 Z M44 210 C44 78 146 -10 265 -10 C398 -10 486 91 486 210 C486 342 384 430 265 430 C132 430 44 329 44 210 L44 210 Z " />
<glyph glyph-name="one" unicode="1" horiz-adv-x="276" d="M238 5 C204 5 183 20 183 55 L183 365 C183 400 204 415 238 415 L238 420 L38 420 L38 415 C72 415 93 400 93 365 L93 55 C93 20 72 5 38 5 L38 0 L238 0 L238 5 L238 5 Z " />
<glyph glyph-name="two" unicode="2" horiz-adv-x="555" d="M514 115 L509 109 C496 92 462 80 423 80 L181 80 C339 167 455 246 455 291 C455 374 384 429 278 429 C158 429 64 356 43 246 L62 242 C76 313 144 361 232 361 C312 361 365 325 365 270 C365 205 205 105 17 9 L28 1 C24 0 20 -1 16 -1 L441 -1 L491 79 C491 79 512 109 513 111 L514 115 L514 115 Z " />
<glyph glyph-name="three" unicode="3" horiz-adv-x="449" d="M17 -214 L20 -232 C253 -207 409 -117 409 -7 C409 86 321 152 185 163 C312 223 393 280 393 326 C393 389 326 431 225 431 C125 431 43 367 21 272 L41 267 C55 328 114 368 188 368 C253 368 297 338 297 294 C297 253 239 209 148 166 C142 166 140 165 135 160 C124 155 113 150 101 145 L101 127 C103 128 105 129 107 130 C104 128 102 127 100 127 C228 109 314 46 314 -30 C314 -120 195 -193 17 -212 L17 -214 L17 -214 Z " />
<glyph glyph-name="four" unicode="4" horiz-adv-x="641" d="M622 34 C625 56 629 85 632 107 C620 107 623 112 620 103 C615 83 594 69 567 69 L426 69 L426 447 L414 447 L15 16 L15 0 L336 0 L336 -220 L426 -220 L426 0 L556 0 C585 0 602 -8 602 -25 C602 -25 609 -26 612 -26 C613 -22 621 34 623 34 L622 34 L622 34 Z M108 69 L337 311 L337 69 L108 69 L108 69 Z " />
<glyph glyph-name="five" unicode="5" horiz-adv-x="448" d="M354 342 L368 420 C370 429 372 438 374 446 L364 446 L362 442 C357 429 336 421 309 421 L87 421 L29 168 L45 154 L86 154 C238 154 340 101 340 21 C340 -100 228 -195 59 -216 L62 -233 C276 -207 419 -93 419 52 C419 170 289 249 95 249 L81 249 L104 340 L354 342 L354 342 Z " />
<glyph glyph-name="six" unicode="6" horiz-adv-x="580" d="M562 670 C254 656 49 492 49 262 C49 99 148 -10 296 -10 C435 -10 527 79 527 213 C527 317 436 387 300 387 C233 387 180 364 150 325 C193 519 349 648 566 658 L562 670 L562 670 Z M139 215 C139 316 203 384 299 384 C382 384 438 318 438 219 C438 85 381 -5 296 -5 C202 -5 139 83 139 215 L139 215 Z " />
<glyph glyph-name="seven" unicode="7" horiz-adv-x="450" d="M32 323 C34 322 39 320 41 319 C52 337 74 349 105 349 L407 349 L424 375 L108 -220 L177 -220 L445 407 L445 420 L141 420 C111 420 99 425 99 437 C98 437 90 438 89 439 C88 438 81 420 79 420 L61 385 L60 385 C50 364 39 341 31 323 L32 323 L32 323 Z " />
<glyph glyph-name="eight" unicode="8" horiz-adv-x="553" d="M209 330 C223 324 237 318 252 313 C366 274 442 239 442 193 C442 73 375 -7 275 -7 C180 -7 117 58 117 155 C117 228 152 293 209 330 L209 330 Z M201 334 C101 288 38 220 38 155 C38 56 133 -10 275 -10 C418 -10 513 56 513 156 C513 274 444 333 336 378 C429 421 487 481 487 536 C487 623 401 681 273 681 C148 681 64 616 64 519 C64 442 117 377 201 335 L201 334 L201 334 Z M327 382 C313 388 298 394 282 399 C194 429 136 484 136 552 C136 628 192 679 276 679 C356 679 410 619 410 528 C410 470 378 416 327 383 L327 382 L327 382 Z " />
<glyph glyph-name="nine" unicode="9" horiz-adv-x="580" d="M18 -250 C326 -236 531 -72 531 158 C531 321 432 430 284 430 C145 430 53 341 53 207 C53 103 144 33 280 33 C347 33 400 56 430 95 C387 -99 231 -228 14 -238 L18 -250 L18 -250 Z M441 205 C441 104 377 36 281 36 C198 36 142 102 142 201 C142 335 199 425 284 425 C378 425 441 337 441 205 L441 205 Z " />
<glyph glyph-name="colon" unicode="&#x3a;" horiz-adv-x="135" d="M125 305 C163 305 189 331 189 369 C189 407 163 432 125 432 C87 432 61 407 61 369 C61 331 87 305 125 305 L125 305 Z M125 -5 C163 -5 189 21 189 59 C189 97 163 122 125 122 C87 122 61 97 61 59 C61 21 87 -5 125 -5 L125 -5 Z " />
<glyph glyph-name="semicolon" unicode="&#x3b;" horiz-adv-x="259" d="M125 305 C163 305 189 331 189 369 C189 407 163 432 125 432 C87 432 61 407 61 369 C61 331 87 305 125 305 L125 305 Z M173 35 C195 -46 142 -107 65 -107 L65 -110 C139 -110 189 -61 189 12 C189 56 176 90 155 106 C147 113 137 117 125 117 C89 117 65 93 65 57 C65 21 89 -3 125 -3 C149 -3 167 12 173 36 L173 35 L173 35 Z " />
<glyph glyph-name="equal" unicode="&#x3d;" horiz-adv-x="545" d="M84 180 L84 140 L475 140 L475 180 L84 180 L84 180 Z M84 280 L84 240 L475 240 L475 280 L84 280 L84 280 Z " />
<glyph glyph-name="question" unicode="&#x3f;" horiz-adv-x="299" d="M125 -5 C163 -5 189 21 189 59 C189 97 163 122 125 122 C87 122 61 97 61 59 C61 21 87 -5 125 -5 L125 -5 Z M125 192 L125 322 C221 322 254 350 286 393 C303 416 315 458 315 497 C315 606 247 679 145 679 C94 679 60 652 60 612 C60 586 80 568 109 568 C130 568 157 584 178 584 C245 584 289 545 289 486 C289 476 279 456 265 437 C249 416 224 402 97 402 C104 404 109 192 109 192 L125 192 L125 192 Z " />
<glyph glyph-name="at" unicode="&#x40;" horiz-adv-x="1180" d="M1058 0 C991 -143 809 -238 602 -238 C316 -238 126 -55 126 219 C126 492 312 674 590 674 C869 674 1055 520 1055 288 C1055 120 982 8 872 8 C773 8 730 85 765 200 L826 403 L741 403 L722 341 C705 385 659 413 596 413 C414 413 292 312 292 161 C292 70 365 9 474 9 C555 9 627 49 670 114 C678 30 745 -22 856 -22 C1018 -22 1126 102 1126 289 C1126 536 912 700 591 700 C271 700 57 508 57 220 C57 -63 283 -252 623 -252 C832 -252 1018 -151 1089 1 L1058 0 L1058 0 Z M710 299 L681 201 C655 115 592 58 522 58 C444 58 392 106 392 178 C392 304 473 388 594 388 C664 388 710 352 710 299 L710 299 Z " />
<glyph glyph-name="A" unicode="A" horiz-adv-x="708" d="M428 0 L706 0 L706 6 L697 6 C664 6 627 46 605 106 L605 106 C533 301 462 496 389 690 L379 690 C383 668 352 649 301 642 L305 631 L125 99 C104 43 56 6 5 6 L-10 6 L-10 0 L202 0 L202 6 L186 6 C134 6 113 46 133 106 L133 106 L186 263 L440 263 L500 96 C516 42 495 7 446 7 L430 7 L428 0 L428 0 Z M188 268 L309 628 L439 268 L188 268 L188 268 Z " />
<glyph glyph-name="B" unicode="B" horiz-adv-x="677" d="M334 2 L284 2 C245 2 219 21 219 49 L219 344 L354 344 C454 344 521 276 521 174 C521 35 446 2 334 2 L334 2 Z M58 664 C92 664 113 649 113 614 L113 56 C113 21 92 6 58 6 L58 0 L339 0 C518 0 637 33 637 174 C637 275 535 343 379 347 C518 361 608 423 608 511 C608 607 551 671 309 671 L58 671 L58 664 L58 664 Z M317 348 L219 348 L219 668 L302 668 C465 668 503 601 503 500 C503 409 429 348 317 348 L317 348 Z " />
<glyph glyph-name="C" unicode="C" horiz-adv-x="758" d="M713 16 L713 180 L698 180 C696 175 693 168 691 163 C659 83 529 -6 418 -6 C266 -6 164 130 164 335 C164 540 270 676 428 676 C496 676 546 661 588 635 L588 635 C632 608 674 558 692 510 C694 505 697 497 699 492 L714 492 L714 650 L706 650 C705 645 705 638 704 633 C701 609 678 607 647 628 L647 628 C599 661 534 680 427 680 C200 680 48 542 48 335 C48 128 196 -10 417 -10 C505 -10 573 11 632 45 C671 68 700 64 703 35 C704 29 704 22 705 16 L713 16 L713 16 Z M702 118 L702 118 L702 118 L702 118 Z " />
<glyph glyph-name="D" unicode="D" horiz-adv-x="842" d="M299 3 C227 3 219 20 219 46 L219 667 L333 667 C555 667 670 534 670 335 C670 116 522 3 299 3 L299 3 Z M58 665 C92 665 113 650 113 615 L113 55 C113 20 92 5 58 5 L58 0 L303 0 C593 0 787 114 787 335 C787 536 637 670 346 670 L58 670 L58 665 L58 665 Z " />
<glyph glyph-name="E" unicode="E" horiz-adv-x="622" d="M480 239 L480 453 L469 453 L464 428 C455 380 418 348 370 348 L219 348 L219 667 L430 667 C478 667 519 635 534 587 L542 562 L553 562 C549 594 544 637 540 669 L540 670 L38 670 L38 665 L50 665 C88 665 113 637 113 595 L113 75 C113 33 88 5 50 5 L38 5 L38 0 L565 0 L565 1 L566 1 C571 30 578 69 583 98 L572 98 L566 83 C547 35 493 3 430 3 L265 3 C224 3 219 20 219 46 L219 344 L370 344 C418 344 455 312 464 264 L469 239 L480 239 L480 239 Z " />
<glyph glyph-name="F" unicode="F" horiz-adv-x="597" d="M470 239 L470 453 L459 453 L454 428 C445 380 408 348 360 348 L219 348 L219 667 L430 667 C478 667 519 635 534 587 L542 562 L553 562 C549 594 544 637 540 669 L540 670 L38 670 L38 665 L50 665 C88 665 113 637 113 595 L113 75 C113 33 88 5 50 5 L38 5 L38 0 L294 0 L294 5 L282 5 C244 5 219 33 219 75 L219 344 L360 344 C408 344 445 312 454 264 L459 239 L470 239 L470 239 Z " />
<glyph glyph-name="G" unicode="G" horiz-adv-x="809" d="M714 492 L714 650 L706 650 C705 645 705 638 704 633 C701 609 678 607 647 628 L647 628 C599 661 534 680 427 680 C200 680 48 542 48 335 C48 128 198 -10 423 -10 C571 -10 672 17 768 62 L767 65 C746 55 723 46 697 39 C697 62 697 137 697 199 C697 250 719 284 752 284 L762 284 L762 290 L526 290 L526 284 L536 284 C569 284 591 250 591 199 C592 199 592 123 592 115 C589 52 529 11 441 11 C275 11 164 141 164 335 C164 540 270 676 428 676 C496 676 546 661 588 635 L588 635 C632 608 674 558 692 510 C694 505 697 497 699 492 L714 492 L714 492 Z " />
<glyph glyph-name="H" unicode="H" horiz-adv-x="818" d="M759 5 C725 5 704 20 704 55 L704 615 C704 650 725 665 759 665 L759 670 L544 670 L544 665 C578 665 599 650 599 615 L599 346 L255 346 L255 615 C255 650 276 665 310 665 L310 670 L94 670 L94 665 C128 665 149 650 149 615 L149 55 C149 20 128 5 94 5 L94 0 L310 0 L310 5 C276 5 255 20 255 55 L255 342 L599 342 L599 55 C599 20 578 5 544 5 L544 0 L759 0 L759 5 L759 5 Z " />
<glyph glyph-name="I" unicode="I" horiz-adv-x="327" d="M268 5 C234 5 213 20 213 55 L213 615 C213 650 234 665 268 665 L268 670 L52 670 L52 665 C86 665 107 650 107 615 L107 55 C107 20 86 5 52 5 L52 0 L268 0 L268 5 L268 5 Z " />
<glyph glyph-name="J" unicode="J" horiz-adv-x="327" d="M268 670 L52 670 L52 665 C85 665 105 652 107 619 C107 482 106 104 106 -77 C106 -191 35 -213 -17 -213 C-69 -213 -44 -128 -96 -128 C-125 -128 -144 -147 -144 -176 C-144 -202 -94 -219 -20 -219 C78 -219 213 -164 213 123 L213 616 C213 651 234 666 268 666 L268 670 L268 670 Z " />
<glyph glyph-name="K" unicode="K" horiz-adv-x="737" d="M274 670 L58 670 L58 665 C92 665 113 650 113 615 L113 55 C113 20 92 5 58 5 L58 0 L274 0 L274 5 C240 5 219 20 219 55 L219 335 L543 0 L733 0 L733 5 C697 5 662 22 631 55 L308 397 L516 606 C554 642 602 665 638 665 L650 665 L650 670 L412 670 L412 665 L432 665 C492 665 494 625 437 565 L437 565 L219 335 L219 615 C219 650 240 665 274 665 L274 670 L274 670 Z " />
<glyph glyph-name="L" unicode="L" horiz-adv-x="606" d="M268 670 L52 670 L52 665 C86 665 107 650 107 615 L107 55 C107 20 86 5 52 5 L52 0 L562 0 L562 15 C567 45 573 84 578 113 L567 113 L561 98 C542 50 488 18 425 18 L259 18 C218 18 213 29 213 46 L213 615 C213 650 234 665 268 665 L268 670 L268 670 Z " />
<glyph glyph-name="M" unicode="M" horiz-adv-x="857" d="M631 0 L846 0 L846 5 C813 5 792 19 790 52 C783 239 776 426 769 613 C768 648 789 663 822 663 L822 668 L667 668 L463 134 L226 668 L47 668 L47 663 C79 663 103 650 120 621 L100 48 C97 16 77 2 45 2 L45 -3 L191 -3 L191 2 C157 2 136 17 137 52 L146 565 C234 375 322 185 411 -4 L437 -4 L669 579 L683 42 C680 12 660 1 629 1 L631 0 L631 0 Z " />
<glyph glyph-name="N" unicode="N" horiz-adv-x="740" d="M-22 665 C12 665 42 650 71 619 L108 575 L107 54 C107 19 86 4 52 4 L52 -1 L193 -1 L193 4 C160 4 138 19 138 54 L138 54 L135 543 C289 362 443 181 597 -1 L618 -1 L625 622 C629 653 649 665 681 665 L681 670 L539 670 L539 665 C573 665 594 650 594 615 L594 615 L596 147 C451 321 305 495 160 669 L-22 669 L-22 665 L-22 665 Z " />
<glyph glyph-name="O" unicode="O" horiz-adv-x="871" d="M163 335 C163 540 268 676 426 676 C591 676 701 540 701 335 C701 130 588 -6 418 -6 C265 -6 163 130 163 335 L163 335 Z M48 335 C48 128 196 -10 417 -10 C656 -10 816 128 816 335 C816 542 660 680 427 680 C200 680 48 542 48 335 L48 335 Z " />
<glyph glyph-name="P" unicode="P" horiz-adv-x="622" d="M300 5 C266 5 245 20 245 55 L245 304 L298 304 C480 304 602 359 602 481 C602 594 502 670 351 670 L85 670 L85 665 C119 665 140 650 140 615 L140 55 C140 20 119 5 85 5 L85 0 L300 0 L300 5 L300 5 Z M245 326 L245 652 L324 652 C431 652 503 590 503 498 C503 379 421 326 298 326 L245 326 L245 326 Z " />
<glyph glyph-name="Q" unicode="Q" horiz-adv-x="866" d="M1180 -52 L1179 -50 C1149 -75 1016 -92 847 -92 C648 -92 457 -58 355 -6 C375 -9 396 -10 418 -10 C657 -10 817 128 817 335 C817 542 661 680 428 680 C201 680 49 542 49 335 C49 193 118 84 233 29 L233 29 C413 -83 655 -158 837 -158 C968 -158 1106 -116 1182 -52 L1180 -52 L1180 -52 Z M165 335 C165 540 270 676 428 676 C593 676 703 540 703 335 C703 129 588 -8 415 -8 C265 -8 165 129 165 335 L165 335 Z " />
<glyph glyph-name="R" unicode="R" horiz-adv-x="760" d="M58 665 C92 665 113 650 113 615 L113 55 C113 20 92 5 58 5 L58 0 L274 0 L274 5 C240 5 219 20 219 55 L219 313 L326 313 C347 278 414 182 505 57 C546 1 555 -1 751 -1 L751 4 C670 4 665 6 628 57 C536 183 466 279 435 321 C537 340 600 391 600 479 C600 593 492 669 330 669 L58 669 L58 665 L58 665 Z M219 338 L219 648 L299 648 C409 648 483 589 483 500 C483 388 422 338 330 338 L219 338 L219 338 Z " />
<glyph glyph-name="S" unicode="S" horiz-adv-x="562" d="M483 511 L483 656 L475 656 C474 652 474 646 473 642 C470 624 452 621 427 636 C414 644 400 651 385 657 C377 662 369 667 361 671 L359 667 C329 676 296 681 261 681 C142 681 63 609 63 500 C63 413 132 330 265 281 C379 239 438 190 438 149 C438 57 381 -4 296 -4 C253 -4 210 10 173 35 L173 35 C133 62 93 119 71 177 C69 182 66 190 64 195 L49 195 L49 13 L57 13 C58 20 58 28 59 35 C62 65 87 69 121 44 L121 44 C168 10 230 -10 295 -10 C431 -10 521 65 521 178 C521 263 455 343 327 390 C207 434 145 489 145 539 C145 621 191 676 260 676 C297 676 333 666 365 649 C404 626 441 580 460 528 C462 523 465 515 467 510 L483 511 L483 511 Z " />
<glyph glyph-name="T" unicode="T" horiz-adv-x="786" d="M716 685 C701 674 657 670 605 670 L181 670 C129 670 86 674 71 685 L62 685 C59 677 55 666 52 657 L57 657 L57 647 C44 616 28 577 16 548 L27 548 L36 563 C66 611 119 643 170 643 L341 643 L341 54 C341 19 320 4 286 4 L286 -1 L502 -1 L502 4 C468 4 447 19 447 54 L447 643 L617 643 C669 643 722 611 751 563 L760 548 L771 548 C760 576 745 613 733 643 L733 655 L738 655 C735 663 730 674 727 683 L716 685 L716 685 Z " />
<glyph glyph-name="U" unicode="U" horiz-adv-x="721" d="M692 34 L683 32 C655 25 637 40 637 70 L637 670 L584 670 L584 671 L476 671 L476 666 C510 666 531 651 531 616 L531 189 C494 110 409 58 318 58 C238 58 184 122 184 218 L184 670 L131 670 L131 671 L23 671 L23 666 C57 666 78 651 78 616 L78 218 C78 81 157 -10 276 -10 C386 -10 488 51 531 142 L531 0 L584 0 C616 8 660 20 692 29 L692 34 L692 34 Z " />
<glyph glyph-name="V" unicode="V" horiz-adv-x="748" d="M749 670 L529 670 L529 664 L547 664 C604 664 628 628 608 573 L424 141 L209 577 C187 630 203 665 252 665 L268 665 L268 671 L-1 671 L-1 665 L6 665 C29 665 62 627 90 569 C181 377 272 185 362 -8 L384 -8 L655 584 C681 634 715 666 743 666 L752 666 L749 670 L749 670 Z " />
<glyph glyph-name="W" unicode="W" horiz-adv-x="1100" d="M261 670 L22 670 L22 664 C50 664 72 644 94 601 C185 397 276 194 367 -10 L393 -10 L581 408 C643 269 705 130 767 -10 L794 -10 C861 188 928 386 996 584 C1012 632 1045 664 1078 664 L1087 664 L1087 670 L869 670 L869 664 L902 664 C950 664 971 632 956 584 L957 584 L817 146 C751 292 685 438 620 584 C598 632 616 664 664 664 L681 664 L681 670 L418 670 L418 664 L426 664 C451 664 482 632 503 584 L503 584 C523 538 544 492 564 447 L426 127 L219 584 C197 632 209 664 248 664 L260 664 L261 670 L261 670 Z " />
<glyph glyph-name="X" unicode="X" horiz-adv-x="759" d="M262 670 L26 670 L26 665 C52 665 76 649 103 616 L330 312 L119 60 C88 23 51 5 10 5 L10 0 L207 0 L207 5 L171 5 C140 5 134 24 155 54 L345 295 C403 217 462 138 520 60 C545 27 539 5 506 5 L490 5 L490 0 L727 0 L727 5 C701 5 676 22 649 56 L411 375 L641 619 C675 651 710 665 750 665 L750 670 L547 670 L547 665 L583 665 C616 665 620 643 593 610 L593 610 L407 380 C350 457 292 534 235 611 C210 644 216 666 249 666 L265 666 L262 670 L262 670 Z " />
<glyph glyph-name="Y" unicode="Y" horiz-adv-x="713" d="M257 670 L21 670 L21 665 C46 665 68 650 92 619 L324 285 L324 75 C324 33 299 5 261 5 L249 5 L249 0 L505 0 L505 5 L493 5 C455 5 430 33 430 75 L430 302 L617 610 L618 610 C641 648 674 665 716 665 L716 670 L551 670 L551 665 L588 665 C621 665 630 643 610 610 L428 306 C360 407 290 509 222 610 C200 643 206 665 239 665 L256 665 L257 670 L257 670 Z " />
<glyph glyph-name="Z" unicode="Z" horiz-adv-x="648" d="M70 546 L74 560 C89 608 140 641 203 642 L505 647 L25 21 L25 0 L617 0 L620 16 L621 16 L646 126 L635 126 L629 112 C609 67 560 36 503 30 L151 23 L620 649 L620 670 L69 670 L66 640 L67 640 C65 622 62 589 58 547 L70 546 L70 546 Z " />
<glyph glyph-name="bracketleft" unicode="&#x5b;" horiz-adv-x="296" d="M136 644 L346 644 L346 670 L104 670 L104 -195 L346 -195 L346 -169 L136 -169 L136 644 L136 644 Z " />
<glyph glyph-name="backslash" unicode="&#x5c;" horiz-adv-x="348" d="M26 690 L286 -80 L338 -80 L78 690 L26 690 L26 690 Z " />
<glyph glyph-name="bracketright" unicode="&#x5d;" horiz-adv-x="299" d="M157 644 L157 -169 L-53 -169 L-53 -195 L189 -195 L189 670 L-53 670 L-53 644 L157 644 L157 644 Z " />
<glyph glyph-name="asciicircum" unicode="&#x5e;" horiz-adv-x="353" d="M209 674 C203 684 187 706 177 706 C167 706 151 684 145 674 L25 486 L37 476 L177 611 L317 476 L329 486 L209 674 L209 674 Z " />
<glyph glyph-name="underscore" unicode="&#x5f;" horiz-adv-x="480" d="M5 -50 L5 -100 L475 -100 L475 -50 L5 -50 L5 -50 Z " />
<glyph glyph-name="grave" unicode="&#x60;" horiz-adv-x="353" d="M-26 665 C-26 657 -1 633 37 602 L179 482 L190 493 L78 643 C49 683 27 709 19 709 C-5 709 -26 689 -26 665 L-26 665 Z " />
<glyph glyph-name="a" unicode="a" horiz-adv-x="523" d="M533 106 L526 110 C521 79 496 59 464 59 C432 59 411 71 411 88 C411 88 411 299 410 297 C410 389 352 430 265 430 C144 430 63 334 63 280 C63 242 84 216 116 216 C144 216 163 243 163 262 C163 280 143 303 143 321 C143 358 190 425 260 425 C297 425 321 395 321 329 L321 222 C96 182 43 162 43 74 C43 24 90 -10 160 -10 C201 -10 254 15 321 81 C324 29 365 -5 426 -5 C478 -5 520 39 532 106 L533 106 L533 106 Z M320 219 L320 88 C320 87 320 86 320 85 C283 52 244 38 207 38 C163 38 133 56 133 84 C133 173 169 191 320 218 L320 219 L320 219 Z " />
<glyph glyph-name="b" unicode="b" horiz-adv-x="564" d="M10 643 C32 643 45 628 45 597 L45 0 L50 0 L81 63 C123 18 192 -10 271 -10 C420 -10 519 79 519 213 C519 340 424 425 282 425 C234 425 177 394 135 346 L135 670 L90 670 C66 664 34 655 10 649 L10 643 L10 643 Z M135 111 L135 333 C170 372 217 397 255 397 C353 397 418 319 418 202 C418 82 360 2 274 2 C214 2 160 45 134 111 L135 111 L135 111 Z " />
<glyph glyph-name="c" unicode="c" horiz-adv-x="523" d="M493 114 L491 115 C455 51 382 8 308 8 C207 8 139 99 139 236 C139 351 209 427 314 427 C345 427 381 386 403 325 C413 298 431 280 448 280 C485 280 503 298 493 325 C470 388 399 430 315 430 C153 430 45 337 45 198 C45 73 146 -10 297 -10 C373 -10 452 40 493 114 L493 114 Z " />
<glyph glyph-name="d" unicode="d" horiz-adv-x="582" d="M388 644 C410 644 423 629 423 598 L423 346 C397 393 343 430 285 430 C127 430 45 342 45 210 C45 81 131 -5 261 -5 C323 -5 387 26 423 72 L423 0 L468 0 C481 4 496 8 512 12 L513 12 L513 12 C532 17 551 22 567 26 L567 31 L558 29 C530 22 512 37 512 67 L512 669 L467 669 L467 670 C443 664 411 655 387 649 L388 644 L388 644 Z M422 314 L422 77 C398 49 350 31 298 31 C201 31 136 112 136 233 C136 335 190 403 295 403 C355 403 407 362 422 314 L422 314 Z " />
<glyph glyph-name="e" unicode="e" horiz-adv-x="556" d="M144 286 L526 286 C492 390 412 430 310 430 C151 430 45 363 45 192 C45 71 141 -10 286 -10 C383 -10 471 42 507 119 L505 120 C474 53 389 9 292 9 C201 9 140 97 140 229 C140 250 141 269 144 286 L144 286 Z M426 290 L145 289 C162 388 224 427 309 427 C351 427 392 389 425 290 L426 290 L426 290 Z " />
<glyph glyph-name="f" unicode="f" horiz-adv-x="349" d="M213 5 L193 5 C184 5 178 11 178 20 L178 372 L339 372 L339 420 L178 420 C178 556 216 647 289 647 C335 647 379 555 417 555 C444 555 462 573 462 600 C462 645 405 675 320 675 C167 675 88 573 88 420 L-4 383 L-4 372 L88 372 L88 20 C88 11 82 5 73 5 L53 5 L53 0 L213 0 L213 5 L213 5 Z " />
<glyph glyph-name="g" unicode="g" horiz-adv-x="531" d="M553 420 C553 452 530 474 495 474 C458 474 417 442 394 394 C362 417 316 430 261 430 C149 430 74 376 74 294 C74 221 133 170 224 159 C120 154 54 126 54 86 C54 41 89 8 145 -1 C83 -21 44 -57 44 -96 C44 -177 134 -231 270 -231 C406 -231 496 -165 496 -67 C496 25 443 86 306 86 L184 86 C138 86 107 97 107 113 C107 139 169 157 261 157 C373 157 447 211 447 293 C447 334 429 368 397 392 C406 407 424 417 443 417 C465 417 494 381 516 381 C539 381 554 397 554 420 L553 420 L553 420 Z M262 161 C204 161 165 214 165 294 C165 374 204 427 262 427 C320 427 358 374 358 294 C358 214 320 161 262 161 L262 161 Z M157 -2 C164 -3 172 -3 180 -3 L297 -3 C387 -3 422 -37 422 -88 C422 -171 362 -227 272 -227 C181 -227 120 -166 120 -74 C120 -43 134 -16 157 -2 L157 -2 Z " />
<glyph glyph-name="h" unicode="h" horiz-adv-x="547" d="M17 642 C39 642 52 627 52 596 L52 20 C52 11 46 5 37 5 L17 5 L17 0 L177 0 L177 5 L157 5 C148 5 142 11 142 20 L142 302 C168 341 229 367 295 367 C360 367 393 318 393 245 L393 20 C393 11 387 5 378 5 L358 5 L358 0 L518 0 L518 5 L498 5 C489 5 483 11 483 20 L483 245 C483 356 437 430 347 430 C273 430 191 380 142 306 L142 670 L97 670 C84 666 69 662 54 658 L51 658 L51 657 C39 654 27 651 16 648 L17 642 L17 642 Z " />
<glyph glyph-name="i" unicode="i" horiz-adv-x="216" d="M107 535 C142 535 165 558 165 593 C165 628 142 651 107 651 C72 651 49 628 49 593 C49 558 72 535 107 535 L107 535 Z M27 392 C49 392 62 377 62 346 L62 20 C62 11 56 5 47 5 L27 5 L27 0 L187 0 L187 5 L167 5 C158 5 152 11 152 20 L152 420 L107 420 C94 416 79 412 64 408 L61 408 L61 407 C49 404 37 401 26 398 L27 392 L27 392 Z " />
<glyph glyph-name="j" unicode="j" horiz-adv-x="245" d="M110 536 C145 536 168 559 168 594 C168 629 145 652 110 652 C75 652 52 629 52 594 C52 559 75 536 110 536 L110 536 Z M30 393 C52 393 65 378 65 347 L65 53 C65 -37 47 -107 20 -123 C-13 -123 -57 -100 -90 -100 C-117 -100 -135 -116 -135 -140 C-135 -169 -111 -187 -75 -185 C-68 -185 -26 -163 30 -130 C105 -87 155 -13 155 53 L155 420 L110 420 C86 414 54 405 30 399 L30 393 L30 393 Z " />
<glyph glyph-name="k" unicode="k" horiz-adv-x="528" d="M516 420 L309 420 L309 415 L346 415 C405 415 380 377 285 319 L143 235 L143 670 L98 670 C85 666 70 662 55 658 L52 658 L52 657 C40 654 28 651 17 648 L17 642 C39 642 52 627 52 596 L52 20 C52 11 46 5 37 5 L17 5 L17 0 L177 0 L177 5 L157 5 C148 5 142 11 142 20 L142 235 L343 45 C370 19 377 5 355 5 L355 0 L523 0 L523 5 C509 5 485 23 452 55 L452 55 L226 276 L351 350 C423 392 477 415 515 415 L516 420 L516 420 Z " />
<glyph glyph-name="l" unicode="l" horiz-adv-x="206" d="M17 642 C39 642 52 627 52 596 L52 20 C52 11 46 5 37 5 L17 5 L17 0 L177 0 L177 5 L157 5 C148 5 142 11 142 20 L142 670 L97 670 C84 666 69 662 54 658 L51 658 L51 657 C39 654 27 651 16 648 L17 642 L17 642 Z " />
<glyph glyph-name="m" unicode="m" horiz-adv-x="844" d="M655 0 L815 0 L815 5 L795 5 C786 5 780 11 780 20 L780 245 C780 356 740 430 636 430 C575 430 503 382 456 311 L456 307 C478 341 535 363 599 363 C665 363 690 316 690 245 L690 20 C690 11 684 5 675 5 L655 5 L655 0 L655 0 Z M17 392 C39 392 52 377 52 346 L52 20 C52 11 46 5 37 5 L17 5 L17 0 L177 0 L177 5 L157 5 C148 5 142 11 142 20 L142 307 C164 341 219 363 280 363 C346 363 371 316 371 245 L371 20 C371 11 365 5 356 5 L336 5 L336 0 L496 0 L496 5 L476 5 C467 5 461 11 461 20 L461 245 C461 356 421 430 317 430 C259 430 189 382 142 311 L142 420 L97 420 C84 416 69 412 54 408 L51 408 L51 407 C39 404 27 401 16 398 L17 392 L17 392 Z " />
<glyph glyph-name="n" unicode="n" horiz-adv-x="525" d="M17 392 C39 392 52 377 52 346 L52 20 C52 11 46 5 37 5 L17 5 L17 0 L177 0 L177 5 L157 5 C148 5 142 11 142 20 L142 292 C180 350 240 388 293 388 C344 388 371 331 371 245 L371 20 C371 11 365 5 356 5 L336 5 L336 0 L496 0 L496 5 L476 5 C467 5 461 11 461 20 L461 245 C461 356 412 430 317 430 C261 430 191 380 142 305 L142 420 L97 420 C84 416 69 412 54 408 L51 408 L51 407 C39 404 27 401 16 398 L17 392 L17 392 Z " />
<glyph glyph-name="o" unicode="o" horiz-adv-x="626" d="M144 210 C144 340 212 426 313 426 C414 426 482 340 482 210 C482 80 414 -6 313 -6 C212 -6 144 80 144 210 L144 210 Z M45 210 C45 78 152 -10 313 -10 C474 -10 581 78 581 210 C581 342 474 430 313 430 C152 430 45 342 45 210 L45 210 Z " />
<glyph glyph-name="p" unicode="p" horiz-adv-x="561" d="M2 392 C24 392 37 377 37 346 L37 -200 C37 -209 31 -215 22 -215 L2 -215 L2 -220 L162 -220 L162 -215 L142 -215 C133 -215 127 -209 127 -200 L127 30 C162 8 207 -5 257 -5 C412 -5 516 97 516 217 C516 345 423 430 283 430 C225 430 165 406 127 369 L127 420 L82 420 C69 416 54 412 39 408 L36 408 L36 407 C24 404 12 401 1 398 L2 392 L2 392 Z M126 117 L126 338 C158 371 202 392 240 392 C346 392 416 311 416 189 C416 97 354 18 261 18 C198 18 144 58 126 117 L126 117 Z " />
<glyph glyph-name="q" unicode="q" horiz-adv-x="530" d="M526 -215 L506 -215 C497 -215 491 -209 491 -200 L491 420 L486 420 L456 360 L455 359 C416 403 354 430 284 430 C116 430 30 342 30 210 C30 81 119 -5 252 -5 C314 -5 371 20 402 59 L402 -199 C402 -208 396 -214 387 -214 L367 -214 L367 -219 L527 -219 L526 -215 L526 -215 Z M402 310 L402 86 C377 54 334 33 290 33 C191 33 125 114 125 236 C125 340 178 410 280 410 C331 410 379 370 402 310 L402 310 Z " />
<glyph glyph-name="r" unicode="r" horiz-adv-x="411" d="M18 392 C40 392 53 377 53 346 L53 20 C53 11 47 5 38 5 L18 5 L18 0 L178 0 L178 5 L158 5 C149 5 143 11 143 20 L143 314 C164 359 207 388 254 388 C279 388 295 374 295 353 C295 321 316 300 348 300 C380 300 401 321 401 353 C401 399 359 430 296 430 C232 430 172 387 143 321 L143 420 L98 420 C85 416 70 412 55 408 L52 408 L52 407 C40 404 28 401 17 398 L18 392 L18 392 Z " />
<glyph glyph-name="s" unicode="s" horiz-adv-x="440" d="M67 132 L60 132 L60 13 L66 13 C66 17 67 21 67 25 C69 42 119 16 139 7 C146 3 153 -1 160 -4 L162 0 C182 -6 203 -9 225 -9 C325 -9 392 40 392 113 C392 169 342 219 245 245 C165 266 124 306 124 348 C124 396 160 428 213 428 C233 428 252 424 270 417 C305 400 345 354 361 305 L367 305 L367 413 L361 413 C361 410 360 407 360 404 C359 398 338 402 306 413 C291 420 278 429 263 434 L260 427 C245 430 229 432 212 432 C120 432 59 386 59 318 C59 257 108 204 204 178 C282 157 322 123 322 89 C322 33 283 -5 224 -5 C204 -5 184 0 165 9 L165 9 C129 26 86 78 67 134 L67 132 L67 132 Z " />
<glyph glyph-name="t" unicode="t" horiz-adv-x="390" d="M345 420 L186 420 L186 521 L180 521 L31 388 L31 378 L96 378 L96 138 C96 31 153 -10 238 -10 C299 -10 356 27 380 83 L370 87 C356 55 314 33 266 33 C217 33 184 57 184 118 L186 372 L345 372 L345 420 L345 420 Z " />
<glyph glyph-name="u" unicode="u" horiz-adv-x="520" d="M506 24 L506 29 C480 21 461 31 461 67 L461 420 L336 420 L336 415 L356 415 C365 415 371 409 371 400 L371 119 C352 78 300 52 234 52 C176 52 137 94 137 157 L137 420 L12 420 L12 415 L32 415 C41 415 47 409 47 400 L47 157 C47 57 105 -10 192 -10 C277 -10 346 38 370 111 L370 0 L415 0 C442 7 478 17 505 24 L506 24 L506 24 Z " />
<glyph glyph-name="v" unicode="v" horiz-adv-x="507" d="M491 420 L383 420 L383 415 C403 415 408 401 397 369 L285 102 L167 360 C167 360 143 415 170 415 L175 415 L175 420 L10 420 L10 415 C33 415 53 396 69 360 L69 360 L239 -10 L265 -10 C321 113 377 237 434 360 C450 396 470 415 493 415 L491 420 L491 420 Z " />
<glyph glyph-name="w" unicode="w" horiz-adv-x="820" d="M194 420 L27 420 L27 415 C49 415 67 399 83 367 L258 -10 L285 -10 L411 257 L531 -10 L557 -10 L738 369 C755 400 772 415 794 415 L794 420 L685 420 L685 415 C705 415 710 402 699 372 L581 104 C543 190 504 276 466 361 C449 398 452 416 474 416 L474 421 L306 421 L306 416 C329 416 347 399 363 365 L395 295 L308 102 L184 366 C169 401 171 417 192 417 L194 420 L194 420 Z " />
<glyph glyph-name="x" unicode="x" horiz-adv-x="544" d="M504 420 L398 420 L398 415 L403 415 C418 415 411 394 385 363 L292 253 L204 367 C181 399 177 414 198 414 L198 419 L22 419 L22 414 C46 414 72 395 99 359 L99 359 L225 196 L90 50 C59 20 35 5 13 5 L13 0 L119 0 L119 5 L114 5 C100 5 107 25 132 55 L239 180 L338 52 C361 20 365 5 344 5 L344 0 L520 0 L520 5 C496 5 470 24 443 60 L443 60 L307 236 C345 277 383 318 421 359 C453 395 481 414 505 414 L504 420 L504 420 Z " />
<glyph glyph-name="y" unicode="y" horiz-adv-x="545" d="M530 420 L421 420 L421 415 C443 415 448 397 436 360 L436 360 L350 99 L186 370 C169 402 171 416 191 416 L191 421 L26 421 L26 416 C50 416 72 398 94 361 L94 361 L314 -3 L311 -9 L256 -154 C247 -177 233 -193 229 -193 C207 -193 202 -163 179 -163 C151 -163 133 -181 133 -209 C133 -239 153 -259 184 -259 C211 -259 257 -222 278 -166 C300 -108 322 -51 344 7 C388 125 431 243 475 361 C488 397 506 416 530 416 L530 420 L530 420 Z " />
<glyph glyph-name="z" unicode="z" horiz-adv-x="486" d="M66 422 C65 419 62 404 60 404 C60 404 51 371 38 321 L51 321 L58 331 C76 362 115 385 159 391 L335 396 L40 21 L40 0 L441 0 L441 16 L445 16 C445 16 448 49 453 99 L440 99 L435 89 C420 54 377 30 327 28 L154 23 L446 398 L446 419 L108 419 C90 419 77 419 76 420 L76 421 L66 422 L66 422 Z " />
<glyph glyph-name="braceleft" unicode="&#x7b;" horiz-adv-x="257" d="M252 670 L212 670 C129 670 73 621 73 547 L73 342 C73 296 51 271 15 271 L15 269 C51 269 73 246 73 205 L73 -7 C73 -81 129 -130 212 -130 L252 -130 L252 -128 L215 -128 C172 -128 143 -80 143 -7 L143 155 C143 224 95 270 23 270 C95 270 143 319 143 392 L143 547 C143 620 172 668 215 668 L252 668 L252 670 L252 670 Z " />
<glyph glyph-name="bar" unicode="&#x7c;" horiz-adv-x="190" d="M60 720 L60 -250 L130 -250 L130 720 L60 720 L60 720 Z " />
<glyph glyph-name="braceright" unicode="&#x7d;" horiz-adv-x="257" d="M5 670 L5 668 L42 668 C85 668 114 620 114 547 L114 392 C114 319 162 270 234 270 C162 270 114 224 114 155 L114 -7 C114 -80 85 -128 42 -128 L5 -128 L5 -130 L45 -130 C128 -130 184 -81 184 -7 L184 205 C184 246 206 269 242 269 L242 271 C206 271 184 296 184 342 L184 547 C184 621 128 670 45 670 L5 670 L5 670 Z " />
<glyph glyph-name="asciitilde" unicode="&#x7e;" horiz-adv-x="353" d="M26 270 C26 305 45 329 73 329 C128 329 200 264 255 264 C300 264 330 314 330 388 L328 388 C328 352 307 328 275 328 C220 328 148 393 93 393 C51 393 23 344 23 270 L26 270 L26 270 Z " />
<glyph glyph-name="exclamdown" unicode="&#xa1;" horiz-adv-x="250" d="M125 425 C87 425 61 399 61 361 C61 323 87 298 125 298 C163 298 189 323 189 361 C189 399 163 425 125 425 L125 425 Z M125 -255 C168 -255 188 -212 180 -147 C180 -147 133 127 133 244 L116 244 C116 127 70 -147 70 -147 C62 -212 82 -255 125 -255 L125 -255 Z " />
<glyph glyph-name="cent" unicode="&#xa2;" horiz-adv-x="523" d="M284 495 L284 429 C139 418 45 328 45 198 C45 77 140 -5 284 -10 L284 -75 L316 -75 L316 -9 C386 -2 456 46 494 114 L492 115 C457 53 388 11 317 8 L317 427 C348 425 383 384 405 324 C415 297 433 279 450 279 C487 279 505 297 495 324 C472 387 401 429 317 429 L317 494 L284 495 L284 495 Z M285 9 C197 22 140 109 140 235 C140 339 197 411 285 424 L285 9 L285 9 Z " />
<glyph glyph-name="acute" unicode="&#xb4;" horiz-adv-x="353" d="M185 482 L327 602 C365 635 390 659 390 665 C390 689 369 709 345 709 C339 709 316 683 286 643 L174 493 L185 482 L185 482 Z " />
<glyph glyph-name="questiondown" unicode="&#xbf;" horiz-adv-x="299" d="M174 425 C136 425 110 399 110 361 C110 323 136 298 174 298 C212 298 238 323 238 361 C238 399 212 425 174 425 L174 425 Z M174 228 L174 98 C78 98 45 70 13 27 C-4 4 -16 -38 -16 -77 C-16 -186 52 -259 154 -259 C205 -259 239 -232 239 -192 C239 -166 219 -148 190 -148 C169 -148 142 -164 121 -164 C54 -164 10 -125 10 -66 C10 -56 20 -36 34 -17 C50 4 75 18 202 18 C195 16 190 228 190 228 L174 228 L174 228 Z " />
<glyph glyph-name="Agrave" unicode="&#xc0;" horiz-adv-x="708" d="M428 0 L706 0 L706 6 L697 6 C664 6 627 46 605 106 L605 106 C533 301 462 496 389 690 L379 690 C383 668 352 649 301 642 L305 631 L125 99 C104 43 56 6 5 6 L-10 6 L-10 0 L202 0 L202 6 L186 6 C134 6 113 46 133 106 L133 106 L186 263 L440 263 L500 96 C516 42 495 7 446 7 L430 7 L428 0 L428 0 Z M153 916 C153 908 178 884 216 853 L358 733 L369 744 L257 894 C228 934 206 960 198 960 C174 960 153 940 153 916 L153 916 Z M188 268 L309 628 L439 268 L188 268 L188 268 Z " />
<glyph glyph-name="Aacute" unicode="&#xc1;" horiz-adv-x="708" d="M362 732 L504 852 C542 885 567 909 567 915 C567 939 546 959 522 959 C516 959 493 933 463 893 L351 743 L362 732 L362 732 Z M428 0 L706 0 L706 6 L697 6 C664 6 627 46 605 106 L605 106 C533 301 462 496 389 690 L379 690 C383 668 352 649 301 642 L305 631 L125 99 C104 43 56 6 5 6 L-10 6 L-10 0 L202 0 L202 6 L186 6 C134 6 113 46 133 106 L133 106 L186 263 L440 263 L500 96 C516 42 495 7 446 7 L430 7 L428 0 L428 0 Z M188 268 L309 628 L439 268 L188 268 L188 268 Z " />
<glyph glyph-name="Acircumflex" unicode="&#xc2;" horiz-adv-x="708" d="M428 0 L706 0 L706 6 L697 6 C664 6 627 46 605 106 L605 106 C533 301 462 496 389 690 L379 690 C383 668 352 649 301 642 L305 631 L125 99 C104 43 56 6 5 6 L-10 6 L-10 0 L202 0 L202 6 L186 6 C134 6 113 46 133 106 L133 106 L186 263 L440 263 L500 96 C516 42 495 7 446 7 L430 7 L428 0 L428 0 Z M388 925 C382 935 366 957 356 957 C346 957 330 935 324 925 L204 737 L216 727 L356 862 L496 727 L508 737 L388 925 L388 925 Z M188 268 L309 628 L439 268 L188 268 L188 268 Z " />
<glyph glyph-name="Atilde" unicode="&#xc3;" horiz-adv-x="708" d="M203 790 C203 825 222 849 250 849 C305 849 378 784 433 784 C478 784 508 834 508 908 L505 908 C505 872 484 848 453 848 C398 848 325 913 270 913 C228 913 200 864 200 790 L203 790 L203 790 Z M428 0 L706 0 L706 6 L697 6 C664 6 627 46 605 106 L605 106 C533 301 462 496 389 690 L379 690 C383 668 352 649 301 642 L305 631 L125 99 C104 43 56 6 5 6 L-10 6 L-10 0 L202 0 L202 6 L186 6 C134 6 113 46 133 106 L133 106 L186 263 L440 263 L500 96 C516 42 495 7 446 7 L430 7 L428 0 L428 0 Z M188 268 L309 628 L439 268 L188 268 L188 268 Z " />
<glyph glyph-name="Adieresis" unicode="&#xc4;" horiz-adv-x="708" d="M431 785 C466 785 489 808 489 843 C489 878 466 901 431 901 C396 901 373 878 373 843 C373 808 396 785 431 785 L431 785 Z M277 785 C312 785 335 808 335 843 C335 878 312 901 277 901 C242 901 219 878 219 843 C219 808 242 785 277 785 L277 785 Z M428 0 L706 0 L706 6 L697 6 C664 6 627 46 605 106 L605 106 C533 301 462 496 389 690 L379 690 C383 668 352 649 301 642 L305 631 L125 99 C104 43 56 6 5 6 L-10 6 L-10 0 L202 0 L202 6 L186 6 C134 6 113 46 133 106 L133 106 L186 263 L440 263 L500 96 C516 42 495 7 446 7 L430 7 L428 0 L428 0 Z M188 268 L309 628 L439 268 L188 268 L188 268 Z " />
<glyph glyph-name="Aring" unicode="&#xc5;" horiz-adv-x="708" d="M283 825 C283 869 311 899 354 899 C397 899 425 869 425 825 C425 785 392 751 354 751 C316 751 283 785 283 825 L283 825 Z M256 825 C256 774 301 730 354 730 C407 730 452 774 452 825 C452 882 413 920 354 920 C295 920 256 882 256 825 L256 825 Z M428 0 L706 0 L706 6 L697 6 C664 6 627 46 605 106 L605 106 C533 301 462 496 389 690 L379 690 C383 668 352 649 301 642 L305 631 L125 99 C104 43 56 6 5 6 L-10 6 L-10 0 L202 0 L202 6 L186 6 C134 6 113 46 133 106 L133 106 L186 263 L440 263 L500 96 C516 42 495 7 446 7 L430 7 L428 0 L428 0 Z M188 268 L309 628 L439 268 L188 268 L188 268 Z " />
<glyph glyph-name="Egrave" unicode="&#xc8;" horiz-adv-x="622" d="M122 915 C122 907 147 883 185 852 L328 732 L339 743 L226 893 C197 933 174 959 167 959 C143 959 122 939 122 915 L122 915 Z M480 239 L480 453 L469 453 L464 428 C455 380 418 348 370 348 L219 348 L219 667 L430 667 C478 667 519 635 534 587 L542 562 L553 562 C549 594 544 637 540 669 L540 670 L38 670 L38 665 L50 665 C88 665 113 637 113 595 L113 75 C113 33 88 5 50 5 L38 5 L38 0 L565 0 L565 1 L566 1 C571 30 578 69 583 98 L572 98 L566 83 C547 35 493 3 430 3 L265 3 C224 3 219 20 219 46 L219 344 L370 344 C418 344 455 312 464 264 L469 239 L480 239 L480 239 Z " />
<glyph glyph-name="Eacute" unicode="&#xc9;" horiz-adv-x="622" d="M333 732 L476 852 C514 884 539 908 539 915 C539 939 518 959 494 959 C488 959 465 933 435 893 L322 743 L333 732 L333 732 Z M480 239 L480 453 L469 453 L464 428 C455 380 418 348 370 348 L219 348 L219 667 L430 667 C478 667 519 635 534 587 L542 562 L553 562 C549 594 544 637 540 669 L540 670 L38 670 L38 665 L50 665 C88 665 113 637 113 595 L113 75 C113 33 88 5 50 5 L38 5 L38 0 L565 0 L565 1 L566 1 C571 30 578 69 583 98 L572 98 L566 83 C547 35 493 3 430 3 L265 3 C224 3 219 20 219 46 L219 344 L370 344 C418 344 455 312 464 264 L469 239 L480 239 L480 239 Z " />
<glyph glyph-name="Ecircumflex" unicode="&#xca;" horiz-adv-x="622" d="M357 924 C351 934 335 956 326 956 C316 956 300 934 294 924 L173 736 L185 726 L326 862 L467 726 L479 736 L357 924 L357 924 Z M481 239 L481 453 L470 453 L465 428 C456 380 419 348 371 348 L220 348 L220 667 L431 667 C479 667 520 635 535 587 L543 562 L554 562 C550 594 545 637 541 669 L541 670 L39 670 L39 665 L51 665 C89 665 114 637 114 595 L114 75 C114 33 89 5 51 5 L39 5 L39 0 L566 0 L566 1 L567 1 C572 30 579 69 584 98 L573 98 L567 83 C548 35 494 3 431 3 L266 3 C225 3 220 20 220 46 L220 344 L371 344 C419 344 456 312 465 264 L470 239 L481 239 L481 239 Z " />
<glyph glyph-name="Edieresis" unicode="&#xcb;" horiz-adv-x="622" d="M402 785 C437 785 460 808 460 843 C460 878 437 901 402 901 C367 901 344 878 344 843 C344 808 367 785 402 785 L402 785 Z M249 785 C284 785 307 808 307 843 C307 878 284 901 249 901 C214 901 191 878 191 843 C191 808 214 785 249 785 L249 785 Z M480 239 L480 453 L469 453 L464 428 C455 380 418 348 370 348 L219 348 L219 667 L430 667 C478 667 519 635 534 587 L542 562 L553 562 C549 594 544 637 540 669 L540 670 L38 670 L38 665 L50 665 C88 665 113 637 113 595 L113 75 C113 33 88 5 50 5 L38 5 L38 0 L565 0 L565 1 L566 1 C571 30 578 69 583 98 L572 98 L566 83 C547 35 493 3 430 3 L265 3 C224 3 219 20 219 46 L219 344 L370 344 C418 344 455 312 464 264 L469 239 L480 239 L480 239 Z " />
<glyph glyph-name="Igrave" unicode="&#xcc;" horiz-adv-x="327" d="M-43 915 C-43 907 -18 883 20 852 L162 732 L173 743 L61 893 C32 933 10 959 2 959 C-22 959 -43 939 -43 915 L-43 915 Z M268 5 C234 5 213 20 213 55 L213 615 C213 650 234 665 268 665 L268 670 L52 670 L52 665 C86 665 107 650 107 615 L107 55 C107 20 86 5 52 5 L52 0 L268 0 L268 5 L268 5 Z " />
<glyph glyph-name="Iacute" unicode="&#xcd;" horiz-adv-x="327" d="M168 732 L310 852 C348 885 373 909 373 915 C373 939 352 959 328 959 C322 959 299 933 269 893 L157 743 L168 732 L168 732 Z M268 5 C234 5 213 20 213 55 L213 615 C213 650 234 665 268 665 L268 670 L52 670 L52 665 C86 665 107 650 107 615 L107 55 C107 20 86 5 52 5 L52 0 L268 0 L268 5 L268 5 Z " />
<glyph glyph-name="Icircumflex" unicode="&#xce;" horiz-adv-x="327" d="M192 924 C186 934 170 956 160 956 C150 956 134 934 128 924 L8 736 L20 726 L160 861 L300 726 L312 736 L192 924 L192 924 Z M268 5 C234 5 213 20 213 55 L213 615 C213 650 234 665 268 665 L268 670 L52 670 L52 665 C86 665 107 650 107 615 L107 55 C107 20 86 5 52 5 L52 0 L268 0 L268 5 L268 5 Z " />
<glyph glyph-name="Idieresis" unicode="&#xcf;" horiz-adv-x="327" d="M237 785 C272 785 295 808 295 843 C295 878 272 901 237 901 C202 901 179 878 179 843 C179 808 202 785 237 785 L237 785 Z M83 785 C118 785 141 808 141 843 C141 878 118 901 83 901 C48 901 25 878 25 843 C25 808 48 785 83 785 L83 785 Z M268 5 C234 5 213 20 213 55 L213 615 C213 650 234 665 268 665 L268 670 L52 670 L52 665 C86 665 107 650 107 615 L107 55 C107 20 86 5 52 5 L52 0 L268 0 L268 5 L268 5 Z " />
<glyph glyph-name="Ntilde" unicode="&#xd1;" horiz-adv-x="740" d="M215 790 C215 825 234 849 262 849 C317 849 390 784 445 784 C490 784 520 834 520 908 L518 908 C518 872 497 848 465 848 C410 848 338 913 283 913 C241 913 213 864 213 790 L215 790 L215 790 Z M-22 665 C12 665 42 650 71 619 L108 575 L107 54 C107 19 86 4 52 4 L52 -1 L193 -1 L193 4 C160 4 138 19 138 54 L138 54 L135 543 C289 362 443 181 597 -1 L618 -1 L625 622 C629 653 649 665 681 665 L681 670 L539 670 L539 665 C573 665 594 650 594 615 L594 615 L596 147 C451 321 305 495 160 669 L-22 669 L-22 665 L-22 665 Z " />
<glyph glyph-name="Ograve" unicode="&#xd2;" horiz-adv-x="871" d="M163 335 C163 540 268 676 426 676 C591 676 701 540 701 335 C701 130 588 -6 418 -6 C265 -6 163 130 163 335 L163 335 Z M48 335 C48 128 196 -10 417 -10 C656 -10 816 128 816 335 C816 542 660 680 427 680 C200 680 48 542 48 335 L48 335 Z M224 915 C224 907 249 883 287 852 L429 732 L440 743 L328 893 C299 933 277 959 269 959 C245 959 224 939 224 915 L224 915 Z " />
<glyph glyph-name="Oacute" unicode="&#xd3;" horiz-adv-x="871" d="M435 732 L577 852 C615 885 640 909 640 915 C640 939 619 959 595 959 C589 959 566 933 536 893 L424 743 L435 732 L435 732 Z M163 335 C163 540 268 676 426 676 C591 676 701 540 701 335 C701 130 588 -6 418 -6 C265 -6 163 130 163 335 L163 335 Z M48 335 C48 128 196 -10 417 -10 C656 -10 816 128 816 335 C816 542 660 680 427 680 C200 680 48 542 48 335 L48 335 Z " />
<glyph glyph-name="Ocircumflex" unicode="&#xd4;" horiz-adv-x="871" d="M163 335 C163 540 268 676 426 676 C591 676 701 540 701 335 C701 130 588 -6 418 -6 C265 -6 163 130 163 335 L163 335 Z M48 335 C48 128 196 -10 417 -10 C656 -10 816 128 816 335 C816 542 660 680 427 680 C200 680 48 542 48 335 L48 335 Z M459 924 C453 934 437 956 427 956 C417 956 401 934 395 924 L275 736 L287 726 L427 861 L567 726 L579 736 L459 924 L459 924 Z " />
<glyph glyph-name="Otilde" unicode="&#xd5;" horiz-adv-x="871" d="M276 790 C276 825 295 849 323 849 C378 849 451 784 506 784 C551 784 581 834 581 908 L578 908 C578 872 557 848 526 848 C471 848 398 913 343 913 C301 913 273 864 273 790 L276 790 L276 790 Z M163 335 C163 540 268 676 426 676 C591 676 701 540 701 335 C701 130 588 -6 418 -6 C265 -6 163 130 163 335 L163 335 Z M48 335 C48 128 196 -10 417 -10 C656 -10 816 128 816 335 C816 542 660 680 427 680 C200 680 48 542 48 335 L48 335 Z " />
<glyph glyph-name="Odieresis" unicode="&#xd6;" horiz-adv-x="871" d="M504 785 C539 785 562 808 562 843 C562 878 539 901 504 901 C469 901 446 878 446 843 C446 808 469 785 504 785 L504 785 Z M350 785 C385 785 408 808 408 843 C408 878 385 901 350 901 C315 901 292 878 292 843 C292 808 315 785 350 785 L350 785 Z M163 335 C163 540 268 676 426 676 C591 676 701 540 701 335 C701 130 588 -6 418 -6 C265 -6 163 130 163 335 L163 335 Z M48 335 C48 128 196 -10 417 -10 C656 -10 816 128 816 335 C816 542 660 680 427 680 C200 680 48 542 48 335 L48 335 Z " />
<glyph glyph-name="Oslash" unicode="&#xd8;" horiz-adv-x="871" d="M50 -13 C50 -13 87 20 154 81 C218 23 309 -10 417 -10 C656 -10 816 128 816 335 C816 437 778 522 712 582 C746 613 781 645 817 678 L813 684 C776 651 740 619 705 588 C637 647 540 681 425 681 C198 681 46 543 46 336 C46 233 83 147 147 87 C80 27 44 -6 44 -6 L50 -13 L50 -13 Z M652 540 C463 370 308 231 202 136 C175 190 160 258 160 336 C160 541 265 677 423 677 C524 677 604 626 651 540 L652 540 L652 540 Z M654 534 C682 480 697 413 697 336 C697 131 584 -5 414 -5 C321 -5 247 45 203 130 C309 225 464 364 654 534 L654 534 Z " />
<glyph glyph-name="Ugrave" unicode="&#xd9;" horiz-adv-x="721" d="M154 916 C154 908 179 884 217 853 L360 733 L371 744 L258 894 C229 934 206 960 199 960 C175 960 154 940 154 916 L154 916 Z M692 34 L683 32 C655 25 637 40 637 70 L637 670 L584 670 L584 671 L476 671 L476 666 C510 666 531 651 531 616 L531 189 C494 110 409 58 318 58 C238 58 184 122 184 218 L184 670 L131 670 L131 671 L23 671 L23 666 C57 666 78 651 78 616 L78 218 C78 81 157 -10 276 -10 C386 -10 488 51 531 142 L531 0 L584 0 C616 8 660 20 692 29 L692 34 L692 34 Z " />
<glyph glyph-name="Uacute" unicode="&#xda;" horiz-adv-x="721" d="M365 733 L508 853 C546 885 571 909 571 916 C571 940 550 960 526 960 C520 960 497 934 467 894 L354 744 L365 733 L365 733 Z M692 34 L683 32 C655 25 637 40 637 70 L637 670 L584 670 L584 671 L476 671 L476 666 C510 666 531 651 531 616 L531 189 C494 110 409 58 318 58 C238 58 184 122 184 218 L184 670 L131 670 L131 671 L23 671 L23 666 C57 666 78 651 78 616 L78 218 C78 81 157 -10 276 -10 C386 -10 488 51 531 142 L531 0 L584 0 C616 8 660 20 692 29 L692 34 L692 34 Z " />
<glyph glyph-name="Ucircumflex" unicode="&#xdb;" horiz-adv-x="721" d="M389 925 C383 935 367 957 358 957 C348 957 332 935 326 925 L205 737 L217 727 L358 863 L499 727 L511 737 L389 925 L389 925 Z M693 34 L684 32 C656 25 638 40 638 70 L638 670 L585 670 L585 671 L477 671 L477 666 C511 666 532 651 532 616 L532 189 C495 110 410 58 319 58 C239 58 185 122 185 218 L185 670 L132 670 L132 671 L24 671 L24 666 C58 666 79 651 79 616 L79 218 C79 81 158 -10 277 -10 C387 -10 489 51 532 142 L532 0 L585 0 C617 8 661 20 693 29 L693 34 L693 34 Z " />
<glyph glyph-name="Udieresis" unicode="&#xdc;" horiz-adv-x="721" d="M434 786 C469 786 492 809 492 844 C492 879 469 902 434 902 C399 902 376 879 376 844 C376 809 399 786 434 786 L434 786 Z M281 786 C316 786 339 809 339 844 C339 879 316 902 281 902 C246 902 223 879 223 844 C223 809 246 786 281 786 L281 786 Z M692 34 L683 32 C655 25 637 40 637 70 L637 670 L584 670 L584 671 L476 671 L476 666 C510 666 531 651 531 616 L531 189 C494 110 409 58 318 58 C238 58 184 122 184 218 L184 670 L131 670 L131 671 L23 671 L23 666 C57 666 78 651 78 616 L78 218 C78 81 157 -10 276 -10 C386 -10 488 51 531 142 L531 0 L584 0 C616 8 660 20 692 29 L692 34 L692 34 Z " />
<glyph glyph-name="Yacute" unicode="&#xdd;" horiz-adv-x="689" d="M361 732 L503 852 C541 885 566 909 566 915 C566 939 545 959 521 959 C515 959 492 933 462 893 L350 743 L361 732 L361 732 Z M233 670 L-3 670 L-3 665 C22 665 44 650 68 619 L300 285 L300 75 C300 33 275 5 237 5 L225 5 L225 0 L481 0 L481 5 L469 5 C431 5 406 33 406 75 L406 302 L593 610 L594 610 C617 648 650 665 692 665 L692 670 L527 670 L527 665 L564 665 C597 665 606 643 586 610 L404 306 C336 407 266 509 198 610 C176 643 182 665 215 665 L232 665 L233 670 L233 670 Z " />
<glyph glyph-name="agrave" unicode="&#xe0;" horiz-adv-x="523" d="M533 106 L526 110 C521 79 496 59 464 59 C432 59 411 71 411 88 C411 88 411 299 410 297 C410 389 352 430 265 430 C144 430 63 334 63 280 C63 242 84 216 116 216 C144 216 163 243 163 262 C163 280 143 303 143 321 C143 358 190 425 260 425 C297 425 321 395 321 329 L321 222 C96 182 43 162 43 74 C43 24 90 -10 160 -10 C201 -10 254 15 321 81 C324 29 365 -5 426 -5 C478 -5 520 39 532 106 L533 106 L533 106 Z M61 665 C61 657 86 633 124 602 L266 482 L277 493 L165 643 C136 683 114 709 106 709 C82 709 61 689 61 665 L61 665 Z M320 219 L320 88 C320 87 320 86 320 85 C283 52 244 38 207 38 C163 38 133 56 133 84 C133 173 169 191 320 218 L320 219 L320 219 Z " />
<glyph glyph-name="aacute" unicode="&#xe1;" horiz-adv-x="523" d="M273 482 L415 602 C453 635 478 659 478 665 C478 689 457 709 433 709 C427 709 404 683 374 643 L262 493 L273 482 L273 482 Z M533 106 L526 110 C521 79 496 59 464 59 C432 59 411 71 411 88 C411 88 411 299 410 297 C410 389 352 430 265 430 C144 430 63 334 63 280 C63 242 84 216 116 216 C144 216 163 243 163 262 C163 280 143 303 143 321 C143 358 190 425 260 425 C297 425 321 395 321 329 L321 222 C96 182 43 162 43 74 C43 24 90 -10 160 -10 C201 -10 254 15 321 81 C324 29 365 -5 426 -5 C478 -5 520 39 532 106 L533 106 L533 106 Z M320 219 L320 88 C320 87 320 86 320 85 C283 52 244 38 207 38 C163 38 133 56 133 84 C133 173 169 191 320 218 L320 219 L320 219 Z " />
<glyph glyph-name="acircumflex" unicode="&#xe2;" horiz-adv-x="523" d="M533 106 L526 110 C521 79 496 59 464 59 C432 59 411 71 411 88 C411 88 411 299 410 297 C410 389 352 430 265 430 C144 430 63 334 63 280 C63 242 84 216 116 216 C144 216 163 243 163 262 C163 280 143 303 143 321 C143 358 190 425 260 425 C297 425 321 395 321 329 L321 222 C96 182 43 162 43 74 C43 24 90 -10 160 -10 C201 -10 254 15 321 81 C324 29 365 -5 426 -5 C478 -5 520 39 532 106 L533 106 L533 106 Z M296 674 C290 684 274 706 264 706 C254 706 238 684 232 674 L112 486 L124 476 L264 611 L404 476 L416 486 L296 674 L296 674 Z M320 219 L320 88 C320 87 320 86 320 85 C283 52 244 38 207 38 C163 38 133 56 133 84 C133 173 169 191 320 218 L320 219 L320 219 Z " />
<glyph glyph-name="atilde" unicode="&#xe3;" horiz-adv-x="523" d="M114 540 C114 575 133 599 161 599 C216 599 289 534 344 534 C389 534 419 584 419 658 L416 658 C416 622 395 598 364 598 C309 598 236 663 181 663 C139 663 111 614 111 540 L114 540 L114 540 Z M533 106 L526 110 C521 79 496 59 464 59 C432 59 411 71 411 88 C411 88 411 299 410 297 C410 389 352 430 265 430 C144 430 63 334 63 280 C63 242 84 216 116 216 C144 216 163 243 163 262 C163 280 143 303 143 321 C143 358 190 425 260 425 C297 425 321 395 321 329 L321 222 C96 182 43 162 43 74 C43 24 90 -10 160 -10 C201 -10 254 15 321 81 C324 29 365 -5 426 -5 C478 -5 520 39 532 106 L533 106 L533 106 Z M320 219 L320 88 C320 87 320 86 320 85 C283 52 244 38 207 38 C163 38 133 56 133 84 C133 173 169 191 320 218 L320 219 L320 219 Z " />
<glyph glyph-name="adieresis" unicode="&#xe4;" horiz-adv-x="523" d="M342 535 C377 535 400 558 400 593 C400 628 377 651 342 651 C307 651 284 628 284 593 C284 558 307 535 342 535 L342 535 Z M188 535 C223 535 246 558 246 593 C246 628 223 651 188 651 C153 651 130 628 130 593 C130 558 153 535 188 535 L188 535 Z M533 106 L526 110 C521 79 496 59 464 59 C432 59 411 71 411 88 C411 88 411 299 410 297 C410 389 352 430 265 430 C144 430 63 334 63 280 C63 242 84 216 116 216 C144 216 163 243 163 262 C163 280 143 303 143 321 C143 358 190 425 260 425 C297 425 321 395 321 329 L321 222 C96 182 43 162 43 74 C43 24 90 -10 160 -10 C201 -10 254 15 321 81 C324 29 365 -5 426 -5 C478 -5 520 39 532 106 L533 106 L533 106 Z M320 219 L320 88 C320 87 320 86 320 85 C283 52 244 38 207 38 C163 38 133 56 133 84 C133 173 169 191 320 218 L320 219 L320 219 Z " />
<glyph glyph-name="aring" unicode="&#xe5;" horiz-adv-x="523" d="M194 575 C194 619 222 649 265 649 C308 649 336 619 336 575 C336 535 303 501 265 501 C227 501 194 535 194 575 L194 575 Z M167 575 C167 524 212 480 265 480 C318 480 363 524 363 575 C363 632 324 670 265 670 C206 670 167 632 167 575 L167 575 Z M533 106 L526 110 C521 79 496 59 464 59 C432 59 411 71 411 88 C411 88 411 299 410 297 C410 389 352 430 265 430 C144 430 63 334 63 280 C63 242 84 216 116 216 C144 216 163 243 163 262 C163 280 143 303 143 321 C143 358 190 425 260 425 C297 425 321 395 321 329 L321 222 C96 182 43 162 43 74 C43 24 90 -10 160 -10 C201 -10 254 15 321 81 C324 29 365 -5 426 -5 C478 -5 520 39 532 106 L533 106 L533 106 Z M320 219 L320 88 C320 87 320 86 320 85 C283 52 244 38 207 38 C163 38 133 56 133 84 C133 173 169 191 320 218 L320 219 L320 219 Z " />
<glyph glyph-name="egrave" unicode="&#xe8;" horiz-adv-x="556" d="M107 665 C107 657 132 633 170 602 L312 482 L323 493 L211 643 C182 683 160 709 152 709 C128 709 107 689 107 665 L107 665 Z M144 286 L526 286 C492 390 412 430 310 430 C151 430 45 363 45 192 C45 71 141 -10 286 -10 C383 -10 471 42 507 119 L505 120 C474 53 389 9 292 9 C201 9 140 97 140 229 C140 250 141 269 144 286 L144 286 Z M426 290 L145 289 C162 388 224 427 309 427 C351 427 392 389 425 290 L426 290 L426 290 Z " />
<glyph glyph-name="eacute" unicode="&#xe9;" horiz-adv-x="556" d="M318 482 L460 602 C498 635 523 659 523 665 C523 689 502 709 478 709 C472 709 449 683 419 643 L307 493 L318 482 L318 482 Z M144 286 L526 286 C492 390 412 430 310 430 C151 430 45 363 45 192 C45 71 141 -10 286 -10 C383 -10 471 42 507 119 L505 120 C474 53 389 9 292 9 C201 9 140 97 140 229 C140 250 141 269 144 286 L144 286 Z M426 290 L145 289 C162 388 224 427 309 427 C351 427 392 389 425 290 L426 290 L426 290 Z " />
<glyph glyph-name="ecircumflex" unicode="&#xea;" horiz-adv-x="556" d="M342 674 C336 684 320 706 310 706 C300 706 284 684 278 674 L158 486 L170 476 L310 611 L450 476 L462 486 L342 674 L342 674 Z M144 286 L526 286 C492 390 412 430 310 430 C151 430 45 363 45 192 C45 71 141 -10 286 -10 C383 -10 471 42 507 119 L505 120 C474 53 389 9 292 9 C201 9 140 97 140 229 C140 250 141 269 144 286 L144 286 Z M426 290 L145 289 C162 388 224 427 309 427 C351 427 392 389 425 290 L426 290 L426 290 Z " />
<glyph glyph-name="edieresis" unicode="&#xeb;" horiz-adv-x="556" d="M387 535 C422 535 445 558 445 593 C445 628 422 651 387 651 C352 651 329 628 329 593 C329 558 352 535 387 535 L387 535 Z M233 535 C268 535 291 558 291 593 C291 628 268 651 233 651 C198 651 175 628 175 593 C175 558 198 535 233 535 L233 535 Z M144 286 L526 286 C492 390 412 430 310 430 C151 430 45 363 45 192 C45 71 141 -10 286 -10 C383 -10 471 42 507 119 L505 120 C474 53 389 9 292 9 C201 9 140 97 140 229 C140 250 141 269 144 286 L144 286 Z M426 290 L145 289 C162 388 224 427 309 427 C351 427 392 389 425 290 L426 290 L426 290 Z " />
<glyph glyph-name="igrave" unicode="&#xec;" horiz-adv-x="262" d="M-65 664 C-65 656 -40 632 -2 601 L140 481 L151 492 L39 642 C10 682 -12 708 -20 708 C-44 708 -65 688 -65 664 L-65 664 Z M58 393 L78 398 C87 400 93 396 93 387 L93 20 C93 11 87 5 78 5 L58 5 L58 0 L218 0 L218 5 L198 5 C189 5 183 11 183 20 L183 420 L138 420 C125 416 110 412 95 408 L92 408 L92 407 C80 404 68 401 57 398 L58 393 L58 393 Z " />
<glyph glyph-name="iacute" unicode="&#xed;" horiz-adv-x="262" d="M-65 664 C-65 656 -40 632 -2 601 L140 481 L151 492 L39 642 C10 682 -12 708 -20 708 C-44 708 -65 688 -65 664 L-65 664 Z M58 393 L78 398 C87 400 93 396 93 387 L93 20 C93 11 87 5 78 5 L58 5 L58 0 L218 0 L218 5 L198 5 C189 5 183 11 183 20 L183 420 L138 420 C125 416 110 412 95 408 L92 408 L92 407 C80 404 68 401 57 398 L58 393 L58 393 Z " />
<glyph glyph-name="icircumflex" unicode="&#xee;" horiz-adv-x="262" d="M170 673 C164 683 148 705 138 705 C128 705 112 683 106 673 L-14 485 L-2 475 L138 610 L278 475 L290 485 L170 673 L170 673 Z M58 393 L78 398 C87 400 93 396 93 387 L93 20 C93 11 87 5 78 5 L58 5 L58 0 L218 0 L218 5 L198 5 C189 5 183 11 183 20 L183 420 L138 420 C125 416 110 412 95 408 L92 408 L92 407 C80 404 68 401 57 398 L58 393 L58 393 Z " />
<glyph glyph-name="idieresis" unicode="&#xef;" horiz-adv-x="262" d="M215 534 C250 534 273 557 273 592 C273 627 250 650 215 650 C180 650 157 627 157 592 C157 557 180 534 215 534 L215 534 Z M61 534 C96 534 119 557 119 592 C119 627 96 650 61 650 C26 650 3 627 3 592 C3 557 26 534 61 534 L61 534 Z M58 393 L78 398 C87 400 93 396 93 387 L93 20 C93 11 87 5 78 5 L58 5 L58 0 L218 0 L218 5 L198 5 C189 5 183 11 183 20 L183 420 L138 420 C125 416 110 412 95 408 L92 408 L92 407 C80 404 68 401 57 398 L58 393 L58 393 Z " />
<glyph glyph-name="ntilde" unicode="&#xf1;" horiz-adv-x="525" d="M105 540 C105 575 124 599 152 599 C207 599 280 534 335 534 C380 534 410 584 410 658 L408 658 C408 622 387 598 355 598 C300 598 228 663 173 663 C131 663 103 614 103 540 L105 540 L105 540 Z M17 392 C39 392 52 377 52 346 L52 20 C52 11 46 5 37 5 L17 5 L17 0 L177 0 L177 5 L157 5 C148 5 142 11 142 20 L142 292 C180 350 240 388 293 388 C344 388 371 331 371 245 L371 20 C371 11 365 5 356 5 L336 5 L336 0 L496 0 L496 5 L476 5 C467 5 461 11 461 20 L461 245 C461 356 412 430 317 430 C261 430 191 380 142 305 L142 420 L97 420 C84 416 69 412 54 408 L51 408 L51 407 C39 404 27 401 16 398 L17 392 L17 392 Z " />
<glyph glyph-name="ograve" unicode="&#xf2;" horiz-adv-x="626" d="M144 210 C144 340 212 426 313 426 C414 426 482 340 482 210 C482 80 414 -6 313 -6 C212 -6 144 80 144 210 L144 210 Z M45 210 C45 78 152 -10 313 -10 C474 -10 581 78 581 210 C581 342 474 430 313 430 C152 430 45 342 45 210 L45 210 Z M110 665 C110 657 135 633 173 602 L315 482 L326 493 L214 643 C185 683 163 709 155 709 C131 709 110 689 110 665 L110 665 Z " />
<glyph glyph-name="oacute" unicode="&#xf3;" horiz-adv-x="626" d="M321 482 L463 602 C501 635 526 659 526 665 C526 689 505 709 481 709 C475 709 452 683 422 643 L310 493 L321 482 L321 482 Z M144 210 C144 340 212 426 313 426 C414 426 482 340 482 210 C482 80 414 -6 313 -6 C212 -6 144 80 144 210 L144 210 Z M45 210 C45 78 152 -10 313 -10 C474 -10 581 78 581 210 C581 342 474 430 313 430 C152 430 45 342 45 210 L45 210 Z " />
<glyph glyph-name="ocircumflex" unicode="&#xf4;" horiz-adv-x="626" d="M144 210 C144 340 212 426 313 426 C414 426 482 340 482 210 C482 80 414 -6 313 -6 C212 -6 144 80 144 210 L144 210 Z M45 210 C45 78 152 -10 313 -10 C474 -10 581 78 581 210 C581 342 474 430 313 430 C152 430 45 342 45 210 L45 210 Z M345 674 C339 684 323 706 313 706 C303 706 287 684 281 674 L161 486 L173 476 L313 611 L453 476 L465 486 L345 674 L345 674 Z " />
<glyph glyph-name="otilde" unicode="&#xf5;" horiz-adv-x="626" d="M162 540 C162 575 181 599 209 599 C264 599 337 534 392 534 C437 534 467 584 467 658 L464 658 C464 622 443 598 412 598 C357 598 284 663 229 663 C187 663 159 614 159 540 L162 540 L162 540 Z M144 210 C144 340 212 426 313 426 C414 426 482 340 482 210 C482 80 414 -6 313 -6 C212 -6 144 80 144 210 L144 210 Z M45 210 C45 78 152 -10 313 -10 C474 -10 581 78 581 210 C581 342 474 430 313 430 C152 430 45 342 45 210 L45 210 Z " />
<glyph glyph-name="odieresis" unicode="&#xf6;" horiz-adv-x="626" d="M390 535 C425 535 448 558 448 593 C448 628 425 651 390 651 C355 651 332 628 332 593 C332 558 355 535 390 535 L390 535 Z M236 535 C271 535 294 558 294 593 C294 628 271 651 236 651 C201 651 178 628 178 593 C178 558 201 535 236 535 L236 535 Z M144 210 C144 340 212 426 313 426 C414 426 482 340 482 210 C482 80 414 -6 313 -6 C212 -6 144 80 144 210 L144 210 Z M45 210 C45 78 152 -10 313 -10 C474 -10 581 78 581 210 C581 342 474 430 313 430 C152 430 45 342 45 210 L45 210 Z " />
<glyph glyph-name="oslash" unicode="&#xf8;" horiz-adv-x="626" d="M47 -12 C47 -12 73 9 121 48 C168 11 234 -10 313 -10 C474 -10 581 78 581 210 C581 275 555 329 509 367 C533 387 558 407 583 428 L579 432 C554 411 529 391 505 371 C458 408 392 429 313 429 C152 429 45 341 45 209 C45 144 71 90 117 52 C70 13 44 -8 44 -8 L47 -12 L47 -12 Z M458 332 C338 234 239 153 168 94 C153 127 145 166 145 211 C145 341 213 427 314 427 C378 427 429 392 457 333 L458 332 L458 332 Z M459 328 C474 295 482 256 482 211 C482 81 414 -5 313 -5 C249 -5 198 30 170 89 C241 147 340 229 460 327 L459 328 L459 328 Z " />
<glyph glyph-name="ugrave" unicode="&#xf9;" horiz-adv-x="520" d="M51 665 C51 657 76 633 114 602 L257 482 L268 493 L155 643 C126 683 103 709 96 709 C72 709 51 689 51 665 L51 665 Z M506 24 L506 29 C480 21 461 31 461 67 L461 420 L336 420 L336 415 L356 415 C365 415 371 409 371 400 L371 119 C352 78 300 52 234 52 C176 52 137 94 137 157 L137 420 L12 420 L12 415 L32 415 C41 415 47 409 47 400 L47 157 C47 57 105 -10 192 -10 C277 -10 346 38 370 111 L370 0 L415 0 C442 7 478 17 505 24 L506 24 L506 24 Z " />
<glyph glyph-name="uacute" unicode="&#xfa;" horiz-adv-x="520" d="M262 482 L405 602 C443 634 468 658 468 665 C468 689 447 709 423 709 C417 709 394 683 364 643 L251 493 L262 482 L262 482 Z M506 24 L506 29 C480 21 461 31 461 67 L461 420 L336 420 L336 415 L356 415 C365 415 371 409 371 400 L371 119 C352 78 300 52 234 52 C176 52 137 94 137 157 L137 420 L12 420 L12 415 L32 415 C41 415 47 409 47 400 L47 157 C47 57 105 -10 192 -10 C277 -10 346 38 370 111 L370 0 L415 0 C442 7 478 17 505 24 L506 24 L506 24 Z " />
<glyph glyph-name="ucircumflex" unicode="&#xfb;" horiz-adv-x="520" d="M286 674 C280 684 264 706 255 706 C245 706 229 684 223 674 L102 486 L114 476 L255 612 L396 476 L408 486 L286 674 L286 674 Z M507 24 L507 29 C481 21 462 31 462 67 L462 420 L337 420 L337 415 L357 415 C366 415 372 409 372 400 L372 119 C353 78 301 52 235 52 C177 52 138 94 138 157 L138 420 L13 420 L13 415 L33 415 C42 415 48 409 48 400 L48 157 C48 57 106 -10 193 -10 C278 -10 347 38 371 111 L371 0 L416 0 C443 7 479 17 506 24 L507 24 L507 24 Z " />
<glyph glyph-name="udieresis" unicode="&#xfc;" horiz-adv-x="520" d="M331 535 C366 535 389 558 389 593 C389 628 366 651 331 651 C296 651 273 628 273 593 C273 558 296 535 331 535 L331 535 Z M178 535 C213 535 236 558 236 593 C236 628 213 651 178 651 C143 651 120 628 120 593 C120 558 143 535 178 535 L178 535 Z M506 24 L506 29 C480 21 461 31 461 67 L461 420 L336 420 L336 415 L356 415 C365 415 371 409 371 400 L371 119 C352 78 300 52 234 52 C176 52 137 94 137 157 L137 420 L12 420 L12 415 L32 415 C41 415 47 409 47 400 L47 157 C47 57 105 -10 192 -10 C277 -10 346 38 370 111 L370 0 L415 0 C442 7 478 17 505 24 L506 24 L506 24 Z " />
<glyph glyph-name="ydieresis" unicode="&#xff;" horiz-adv-x="518" d="M365 535 C400 535 423 558 423 593 C423 628 400 651 365 651 C330 651 307 628 307 593 C307 558 330 535 365 535 L365 535 Z M211 535 C246 535 269 558 269 593 C269 628 246 651 211 651 C176 651 153 628 153 593 C153 558 176 535 211 535 L211 535 Z M512 420 L403 420 L403 415 C425 415 430 397 418 360 L418 360 L332 99 L168 370 C151 402 153 416 173 416 L173 421 L8 421 L8 416 C32 416 54 398 76 361 L76 361 L296 -3 L293 -9 L238 -154 C229 -177 215 -193 211 -193 C189 -193 184 -163 161 -163 C133 -163 115 -181 115 -209 C115 -239 135 -259 166 -259 C193 -259 239 -222 260 -166 C282 -108 304 -51 326 7 C370 125 413 243 457 361 C470 397 488 416 512 416 L512 420 L512 420 Z " />
<glyph glyph-name="Amacron" unicode="&#x100;" horiz-adv-x="708" d="M196 814 L512 814 L512 877 L196 877 L196 814 L196 814 Z M428 0 L706 0 L706 6 L697 6 C664 6 627 46 605 106 L605 106 C533 301 462 496 389 690 L379 690 C383 668 352 649 301 642 L305 631 L125 99 C104 43 56 6 5 6 L-10 6 L-10 0 L202 0 L202 6 L186 6 C134 6 113 46 133 106 L133 106 L186 263 L440 263 L500 96 C516 42 495 7 446 7 L430 7 L428 0 L428 0 Z M188 268 L309 628 L439 268 L188 268 L188 268 Z " />
<glyph glyph-name="amacron" unicode="&#x101;" horiz-adv-x="523" d="M107 564 L423 564 L423 627 L107 627 L107 564 L107 564 Z M533 106 L526 110 C521 79 496 59 464 59 C432 59 411 71 411 88 C411 88 411 299 410 297 C410 389 352 430 265 430 C144 430 63 334 63 280 C63 242 84 216 116 216 C144 216 163 243 163 262 C163 280 143 303 143 321 C143 358 190 425 260 425 C297 425 321 395 321 329 L321 222 C96 182 43 162 43 74 C43 24 90 -10 160 -10 C201 -10 254 15 321 81 C324 29 365 -5 426 -5 C478 -5 520 39 532 106 L533 106 L533 106 Z M320 219 L320 88 C320 87 320 86 320 85 C283 52 244 38 207 38 C163 38 133 56 133 84 C133 173 169 191 320 218 L320 219 L320 219 Z " />
<glyph glyph-name="Abreve" unicode="&#x102;" horiz-adv-x="708" d="M212 914 C219 838 276 787 354 787 C432 787 489 837 496 912 L477 915 C473 877 424 851 354 851 C284 851 235 877 231 917 L212 914 L212 914 Z M428 0 L706 0 L706 6 L697 6 C664 6 627 46 605 106 L605 106 C533 301 462 496 389 690 L379 690 C383 668 352 649 301 642 L305 631 L125 99 C104 43 56 6 5 6 L-10 6 L-10 0 L202 0 L202 6 L186 6 C134 6 113 46 133 106 L133 106 L186 263 L440 263 L500 96 C516 42 495 7 446 7 L430 7 L428 0 L428 0 Z M188 268 L309 628 L439 268 L188 268 L188 268 Z " />
<glyph glyph-name="abreve" unicode="&#x103;" horiz-adv-x="523" d="M123 664 C130 588 187 537 265 537 C343 537 400 587 407 662 L388 665 C384 627 335 601 265 601 C195 601 146 627 142 667 L123 664 L123 664 Z M533 106 L526 110 C521 79 496 59 464 59 C432 59 411 71 411 88 C411 88 411 299 410 297 C410 389 352 430 265 430 C144 430 63 334 63 280 C63 242 84 216 116 216 C144 216 163 243 163 262 C163 280 143 303 143 321 C143 358 190 425 260 425 C297 425 321 395 321 329 L321 222 C96 182 43 162 43 74 C43 24 90 -10 160 -10 C201 -10 254 15 321 81 C324 29 365 -5 426 -5 C478 -5 520 39 532 106 L533 106 L533 106 Z M320 219 L320 88 C320 87 320 86 320 85 C283 52 244 38 207 38 C163 38 133 56 133 84 C133 173 169 191 320 218 L320 219 L320 219 Z " />
<glyph glyph-name="Cacute" unicode="&#x106;" horiz-adv-x="758" d="M435 732 L577 852 C615 885 640 909 640 915 C640 939 619 959 595 959 C589 959 566 933 536 893 L424 743 L435 732 L435 732 Z M713 16 L713 180 L698 180 C696 175 693 168 691 163 C659 83 529 -6 418 -6 C266 -6 164 130 164 335 C164 540 270 676 428 676 C496 676 546 661 588 635 L588 635 C632 608 674 558 692 510 C694 505 697 497 699 492 L714 492 L714 650 L706 650 C705 645 705 638 704 633 C701 609 678 607 647 628 L647 628 C599 661 534 680 427 680 C200 680 48 542 48 335 C48 128 196 -10 417 -10 C505 -10 573 11 632 45 C671 68 700 64 703 35 C704 29 704 22 705 16 L713 16 L713 16 Z M702 118 L702 118 L702 118 L702 118 Z " />
<glyph glyph-name="Ccircumflex" unicode="&#x108;" horiz-adv-x="758" d="M713 16 L713 180 L698 180 C696 175 693 168 691 163 C659 83 529 -6 418 -6 C266 -6 164 130 164 335 C164 540 270 676 428 676 C496 676 546 661 588 635 L588 635 C632 608 674 558 692 510 C694 505 697 497 699 492 L714 492 L714 650 L706 650 C705 645 705 638 704 633 C701 609 678 607 647 628 L647 628 C599 661 534 680 427 680 C200 680 48 542 48 335 C48 128 196 -10 417 -10 C505 -10 573 11 632 45 C671 68 700 64 703 35 C704 29 704 22 705 16 L713 16 L713 16 Z M459 924 C453 934 437 956 427 956 C417 956 401 934 395 924 L275 736 L287 726 L427 861 L567 726 L579 736 L459 924 L459 924 Z M702 118 L702 118 L702 118 L702 118 Z " />
<glyph glyph-name="Cdot" unicode="&#x10a;" horiz-adv-x="758" d="M427 785 C462 785 485 808 485 843 C485 878 462 901 427 901 C392 901 369 878 369 843 C369 808 392 785 427 785 L427 785 Z M713 16 L713 180 L698 180 C696 175 693 168 691 163 C659 83 529 -6 418 -6 C266 -6 164 130 164 335 C164 540 270 676 428 676 C496 676 546 661 588 635 L588 635 C632 608 674 558 692 510 C694 505 697 497 699 492 L714 492 L714 650 L706 650 C705 645 705 638 704 633 C701 609 678 607 647 628 L647 628 C599 661 534 680 427 680 C200 680 48 542 48 335 C48 128 196 -10 417 -10 C505 -10 573 11 632 45 C671 68 700 64 703 35 C704 29 704 22 705 16 L713 16 L713 16 Z M702 118 L702 118 L702 118 L702 118 Z " />
<glyph glyph-name="cdot" unicode="&#x10b;" horiz-adv-x="523" d="M315 535 C350 535 373 558 373 593 C373 628 350 651 315 651 C280 651 257 628 257 593 C257 558 280 535 315 535 L315 535 Z M493 114 L491 115 C455 51 382 8 308 8 C207 8 139 99 139 236 C139 351 209 427 314 427 C345 427 381 386 403 325 C413 298 431 280 448 280 C485 280 503 298 493 325 C470 388 399 430 315 430 C153 430 45 337 45 198 C45 73 146 -10 297 -10 C373 -10 452 40 493 114 L493 114 Z " />
<glyph glyph-name="Ccaron" unicode="&#x10c;" horiz-adv-x="758" d="M567 964 L427 829 L287 964 L275 954 L395 766 C401 756 417 734 427 734 C437 734 453 756 459 766 L579 954 L567 964 L567 964 Z M713 16 L713 180 L698 180 C696 175 693 168 691 163 C659 83 529 -6 418 -6 C266 -6 164 130 164 335 C164 540 270 676 428 676 C496 676 546 661 588 635 L588 635 C632 608 674 558 692 510 C694 505 697 497 699 492 L714 492 L714 650 L706 650 C705 645 705 638 704 633 C701 609 678 607 647 628 L647 628 C599 661 534 680 427 680 C200 680 48 542 48 335 C48 128 196 -10 417 -10 C505 -10 573 11 632 45 C671 68 700 64 703 35 C704 29 704 22 705 16 L713 16 L713 16 Z M702 118 L702 118 L702 118 L702 118 Z " />
<glyph glyph-name="ccaron" unicode="&#x10d;" horiz-adv-x="523" d="M455 714 L315 579 L175 714 L163 704 L283 516 C289 506 305 484 315 484 C325 484 341 506 347 516 L467 704 L455 714 L455 714 Z M493 114 L491 115 C455 51 382 8 308 8 C207 8 139 99 139 236 C139 351 209 427 314 427 C345 427 381 386 403 325 C413 298 431 280 448 280 C485 280 503 298 493 325 C470 388 399 430 315 430 C153 430 45 337 45 198 C45 73 146 -10 297 -10 C373 -10 452 40 493 114 L493 114 Z " />
<glyph glyph-name="Dcaron" unicode="&#x10e;" horiz-adv-x="842" d="M532 964 L392 828 L252 964 L240 954 L361 766 C367 756 383 734 393 734 C402 734 418 756 424 766 L545 954 L532 964 L532 964 Z M300 3 C228 3 220 20 220 46 L220 667 L334 667 C556 667 671 534 671 335 C671 116 523 3 300 3 L300 3 Z M59 665 C93 665 114 650 114 615 L114 55 C114 20 93 5 59 5 L59 0 L304 0 C594 0 788 114 788 335 C788 536 638 670 347 670 L59 670 L59 665 L59 665 Z " />
<glyph glyph-name="dcaron" unicode="&#x10f;" horiz-adv-x="582" d="M602 680 C583 680 573 617 569 572 L559 461 L575 458 L616 563 C632 602 642 643 642 667 C642 676 626 680 602 680 L602 680 Z M388 644 C410 644 423 629 423 598 L423 346 C397 393 343 430 285 430 C127 430 45 342 45 210 C45 81 131 -5 261 -5 C323 -5 387 26 423 72 L423 0 L468 0 C481 4 496 8 512 12 L513 12 L513 12 C532 17 551 22 567 26 L567 31 L558 29 C530 22 512 37 512 67 L512 669 L467 669 L467 670 C443 664 411 655 387 649 L388 644 L388 644 Z M422 314 L422 77 C398 49 350 31 298 31 C201 31 136 112 136 233 C136 335 190 403 295 403 C355 403 407 362 422 314 L422 314 Z " />
<glyph glyph-name="Emacron" unicode="&#x112;" horiz-adv-x="622" d="M167 814 L484 814 L484 877 L167 877 L167 814 L167 814 Z M480 239 L480 453 L469 453 L464 428 C455 380 418 348 370 348 L219 348 L219 667 L430 667 C478 667 519 635 534 587 L542 562 L553 562 C549 594 544 637 540 669 L540 670 L38 670 L38 665 L50 665 C88 665 113 637 113 595 L113 75 C113 33 88 5 50 5 L38 5 L38 0 L565 0 L565 1 L566 1 C571 30 578 69 583 98 L572 98 L566 83 C547 35 493 3 430 3 L265 3 C224 3 219 20 219 46 L219 344 L370 344 C418 344 455 312 464 264 L469 239 L480 239 L480 239 Z " />
<glyph glyph-name="emacron" unicode="&#x113;" horiz-adv-x="556" d="M152 564 L468 564 L468 627 L152 627 L152 564 L152 564 Z M144 286 L526 286 C492 390 412 430 310 430 C151 430 45 363 45 192 C45 71 141 -10 286 -10 C383 -10 471 42 507 119 L505 120 C474 53 389 9 292 9 C201 9 140 97 140 229 C140 250 141 269 144 286 L144 286 Z M426 290 L145 289 C162 388 224 427 309 427 C351 427 392 389 425 290 L426 290 L426 290 Z " />
<glyph glyph-name="Ebreve" unicode="&#x114;" horiz-adv-x="622" d="M184 914 C191 838 248 787 326 787 C404 787 461 837 468 912 L449 915 C445 877 396 851 326 851 C255 851 206 877 202 917 L184 914 L184 914 Z M480 239 L480 453 L469 453 L464 428 C455 380 418 348 370 348 L219 348 L219 667 L430 667 C478 667 519 635 534 587 L542 562 L553 562 C549 594 544 637 540 669 L540 670 L38 670 L38 665 L50 665 C88 665 113 637 113 595 L113 75 C113 33 88 5 50 5 L38 5 L38 0 L565 0 L565 1 L566 1 C571 30 578 69 583 98 L572 98 L566 83 C547 35 493 3 430 3 L265 3 C224 3 219 20 219 46 L219 344 L370 344 C418 344 455 312 464 264 L469 239 L480 239 L480 239 Z " />
<glyph glyph-name="ebreve" unicode="&#x115;" horiz-adv-x="556" d="M168 664 C175 588 232 537 310 537 C388 537 445 587 452 662 L433 665 C429 627 380 601 310 601 C240 601 191 627 187 667 L168 664 L168 664 Z M144 286 L526 286 C492 390 412 430 310 430 C151 430 45 363 45 192 C45 71 141 -10 286 -10 C383 -10 471 42 507 119 L505 120 C474 53 389 9 292 9 C201 9 140 97 140 229 C140 250 141 269 144 286 L144 286 Z M426 290 L145 289 C162 388 224 427 309 427 C351 427 392 389 425 290 L426 290 L426 290 Z " />
<glyph glyph-name="Edot" unicode="&#x116;" horiz-adv-x="622" d="M326 785 C361 785 384 808 384 843 C384 878 361 901 326 901 C291 901 267 878 267 843 C267 808 291 785 326 785 L326 785 Z M480 239 L480 453 L469 453 L464 428 C455 380 418 348 370 348 L219 348 L219 667 L430 667 C478 667 519 635 534 587 L542 562 L553 562 C549 594 544 637 540 669 L540 670 L38 670 L38 665 L50 665 C88 665 113 637 113 595 L113 75 C113 33 88 5 50 5 L38 5 L38 0 L565 0 L565 1 L566 1 C571 30 578 69 583 98 L572 98 L566 83 C547 35 493 3 430 3 L265 3 C224 3 219 20 219 46 L219 344 L370 344 C418 344 455 312 464 264 L469 239 L480 239 L480 239 Z " />
<glyph glyph-name="edot" unicode="&#x117;" horiz-adv-x="556" d="M310 535 C345 535 368 558 368 593 C368 628 345 651 310 651 C275 651 252 628 252 593 C252 558 275 535 310 535 L310 535 Z M144 286 L526 286 C492 390 412 430 310 430 C151 430 45 363 45 192 C45 71 141 -10 286 -10 C383 -10 471 42 507 119 L505 120 C474 53 389 9 292 9 C201 9 140 97 140 229 C140 250 141 269 144 286 L144 286 Z M426 290 L145 289 C162 388 224 427 309 427 C351 427 392 389 425 290 L426 290 L426 290 Z " />
<glyph glyph-name="Ecaron" unicode="&#x11a;" horiz-adv-x="622" d="M466 964 L326 828 L186 964 L174 954 L295 766 C301 756 317 734 327 734 C336 734 352 756 358 766 L479 954 L466 964 L466 964 Z M481 239 L481 453 L470 453 L465 428 C456 380 419 348 371 348 L220 348 L220 667 L431 667 C479 667 520 635 535 587 L543 562 L554 562 C550 594 545 637 541 669 L541 670 L39 670 L39 665 L51 665 C89 665 114 637 114 595 L114 75 C114 33 89 5 51 5 L39 5 L39 0 L566 0 L566 1 L567 1 C572 30 579 69 584 98 L573 98 L567 83 C548 35 494 3 431 3 L266 3 C225 3 220 20 220 46 L220 344 L371 344 C419 344 456 312 465 264 L470 239 L481 239 L481 239 Z " />
<glyph glyph-name="ecaron" unicode="&#x11b;" horiz-adv-x="556" d="M450 714 L310 579 L170 714 L158 704 L278 516 C284 506 300 484 310 484 C320 484 336 506 342 516 L462 704 L450 714 L450 714 Z M144 286 L526 286 C492 390 412 430 310 430 C151 430 45 363 45 192 C45 71 141 -10 286 -10 C383 -10 471 42 507 119 L505 120 C474 53 389 9 292 9 C201 9 140 97 140 229 C140 250 141 269 144 286 L144 286 Z M426 290 L145 289 C162 388 224 427 309 427 C351 427 392 389 425 290 L426 290 L426 290 Z " />
<glyph glyph-name="Gcircumflex" unicode="&#x11c;" horiz-adv-x="809" d="M714 492 L714 650 L706 650 C705 645 705 638 704 633 C701 609 678 607 647 628 L647 628 C599 661 534 680 427 680 C200 680 48 542 48 335 C48 128 198 -10 423 -10 C571 -10 672 17 768 62 L767 65 C746 55 723 46 697 39 C697 62 697 137 697 199 C697 250 719 284 752 284 L762 284 L762 290 L526 290 L526 284 L536 284 C569 284 591 250 591 199 C592 199 592 123 592 115 C589 52 529 11 441 11 C275 11 164 141 164 335 C164 540 270 676 428 676 C496 676 546 661 588 635 L588 635 C632 608 674 558 692 510 C694 505 697 497 699 492 L714 492 L714 492 Z M459 924 C453 934 437 956 427 956 C417 956 401 934 395 924 L275 736 L287 726 L427 861 L567 726 L579 736 L459 924 L459 924 Z " />
<glyph glyph-name="Gbreve" unicode="&#x11e;" horiz-adv-x="809" d="M285 914 C292 838 349 787 427 787 C505 787 562 837 569 912 L550 915 C546 877 497 851 427 851 C357 851 308 877 304 917 L285 914 L285 914 Z M714 492 L714 650 L706 650 C705 645 705 638 704 633 C701 609 678 607 647 628 L647 628 C599 661 534 680 427 680 C200 680 48 542 48 335 C48 128 198 -10 423 -10 C571 -10 672 17 768 62 L767 65 C746 55 723 46 697 39 C697 62 697 137 697 199 C697 250 719 284 752 284 L762 284 L762 290 L526 290 L526 284 L536 284 C569 284 591 250 591 199 C592 199 592 123 592 115 C589 52 529 11 441 11 C275 11 164 141 164 335 C164 540 270 676 428 676 C496 676 546 661 588 635 L588 635 C632 608 674 558 692 510 C694 505 697 497 699 492 L714 492 L714 492 Z " />
<glyph glyph-name="gbreve" unicode="&#x11f;" horiz-adv-x="531" d="M119 664 C126 588 183 537 261 537 C339 537 396 587 403 662 L384 665 C380 627 331 601 261 601 C191 601 142 627 138 667 L119 664 L119 664 Z M553 420 C553 452 530 474 495 474 C458 474 417 442 394 394 C362 417 316 430 261 430 C149 430 74 376 74 294 C74 221 133 170 224 159 C120 154 54 126 54 86 C54 41 89 8 145 -1 C83 -21 44 -57 44 -96 C44 -177 134 -231 270 -231 C406 -231 496 -165 496 -67 C496 25 443 86 306 86 L184 86 C138 86 107 97 107 113 C107 139 169 157 261 157 C373 157 447 211 447 293 C447 334 429 368 397 392 C406 407 424 417 443 417 C465 417 494 381 516 381 C539 381 554 397 554 420 L553 420 L553 420 Z M262 161 C204 161 165 214 165 294 C165 374 204 427 262 427 C320 427 358 374 358 294 C358 214 320 161 262 161 L262 161 Z M157 -2 C164 -3 172 -3 180 -3 L297 -3 C387 -3 422 -37 422 -88 C422 -171 362 -227 272 -227 C181 -227 120 -166 120 -74 C120 -43 134 -16 157 -2 L157 -2 Z " />
<glyph glyph-name="Gdot" unicode="&#x120;" horiz-adv-x="809" d="M427 785 C462 785 485 808 485 843 C485 878 462 901 427 901 C392 901 369 878 369 843 C369 808 392 785 427 785 L427 785 Z M714 492 L714 650 L706 650 C705 645 705 638 704 633 C701 609 678 607 647 628 L647 628 C599 661 534 680 427 680 C200 680 48 542 48 335 C48 128 198 -10 423 -10 C571 -10 672 17 768 62 L767 65 C746 55 723 46 697 39 C697 62 697 137 697 199 C697 250 719 284 752 284 L762 284 L762 290 L526 290 L526 284 L536 284 C569 284 591 250 591 199 C592 199 592 123 592 115 C589 52 529 11 441 11 C275 11 164 141 164 335 C164 540 270 676 428 676 C496 676 546 661 588 635 L588 635 C632 608 674 558 692 510 C694 505 697 497 699 492 L714 492 L714 492 Z " />
<glyph glyph-name="gdot" unicode="&#x121;" horiz-adv-x="531" d="M261 535 C296 535 319 558 319 593 C319 628 296 651 261 651 C226 651 203 628 203 593 C203 558 226 535 261 535 L261 535 Z M553 420 C553 452 530 474 495 474 C458 474 417 442 394 394 C362 417 316 430 261 430 C149 430 74 376 74 294 C74 221 133 170 224 159 C120 154 54 126 54 86 C54 41 89 8 145 -1 C83 -21 44 -57 44 -96 C44 -177 134 -231 270 -231 C406 -231 496 -165 496 -67 C496 25 443 86 306 86 L184 86 C138 86 107 97 107 113 C107 139 169 157 261 157 C373 157 447 211 447 293 C447 334 429 368 397 392 C406 407 424 417 443 417 C465 417 494 381 516 381 C539 381 554 397 554 420 L553 420 L553 420 Z M262 161 C204 161 165 214 165 294 C165 374 204 427 262 427 C320 427 358 374 358 294 C358 214 320 161 262 161 L262 161 Z M157 -2 C164 -3 172 -3 180 -3 L297 -3 C387 -3 422 -37 422 -88 C422 -171 362 -227 272 -227 C181 -227 120 -166 120 -74 C120 -43 134 -16 157 -2 L157 -2 Z " />
<glyph glyph-name="Hcircumflex" unicode="&#x124;" horiz-adv-x="818" d="M459 924 C453 934 437 956 427 956 C417 956 401 934 395 924 L275 736 L287 726 L427 861 L567 726 L579 736 L459 924 L459 924 Z M759 5 C725 5 704 20 704 55 L704 615 C704 650 725 665 759 665 L759 670 L544 670 L544 665 C578 665 599 650 599 615 L599 346 L255 346 L255 615 C255 650 276 665 310 665 L310 670 L94 670 L94 665 C128 665 149 650 149 615 L149 55 C149 20 128 5 94 5 L94 0 L310 0 L310 5 C276 5 255 20 255 55 L255 342 L599 342 L599 55 C599 20 578 5 544 5 L544 0 L759 0 L759 5 L759 5 Z " />
<glyph glyph-name="Itilde" unicode="&#x128;" horiz-adv-x="327" d="M9 790 C9 825 28 849 56 849 C111 849 184 784 239 784 C284 784 314 834 314 908 L311 908 C311 872 290 848 259 848 C204 848 131 913 76 913 C34 913 6 864 6 790 L9 790 L9 790 Z M268 5 C234 5 213 20 213 55 L213 615 C213 650 234 665 268 665 L268 670 L52 670 L52 665 C86 665 107 650 107 615 L107 55 C107 20 86 5 52 5 L52 0 L268 0 L268 5 L268 5 Z " />
<glyph glyph-name="itilde" unicode="&#x129;" horiz-adv-x="262" d="M-13 539 C-13 574 6 598 34 598 C89 598 162 533 217 533 C262 533 292 583 292 657 L289 657 C289 621 268 597 237 597 C182 597 109 662 54 662 C12 662 -16 613 -16 539 L-13 539 L-13 539 Z M58 393 L78 398 C87 400 93 396 93 387 L93 20 C93 11 87 5 78 5 L58 5 L58 0 L218 0 L218 5 L198 5 C189 5 183 11 183 20 L183 420 L138 420 C125 416 110 412 95 408 L92 408 L92 407 C80 404 68 401 57 398 L58 393 L58 393 Z " />
<glyph glyph-name="Imacron" unicode="&#x12a;" horiz-adv-x="327" d="M2 814 L318 814 L318 877 L2 877 L2 814 L2 814 Z M268 5 C234 5 213 20 213 55 L213 615 C213 650 234 665 268 665 L268 670 L52 670 L52 665 C86 665 107 650 107 615 L107 55 C107 20 86 5 52 5 L52 0 L268 0 L268 5 L268 5 Z " />
<glyph glyph-name="imacron" unicode="&#x12b;" horiz-adv-x="262" d="M-20 563 L296 563 L296 626 L-20 626 L-20 563 L-20 563 Z M58 393 L78 398 C87 400 93 396 93 387 L93 20 C93 11 87 5 78 5 L58 5 L58 0 L218 0 L218 5 L198 5 C189 5 183 11 183 20 L183 420 L138 420 C125 416 110 412 95 408 L92 408 L92 407 C80 404 68 401 57 398 L58 393 L58 393 Z " />
<glyph glyph-name="Ibreve" unicode="&#x12c;" horiz-adv-x="327" d="M18 914 C25 838 82 787 160 787 C238 787 295 837 302 912 L283 915 C279 877 230 851 160 851 C90 851 41 877 37 917 L18 914 L18 914 Z M268 5 C234 5 213 20 213 55 L213 615 C213 650 234 665 268 665 L268 670 L52 670 L52 665 C86 665 107 650 107 615 L107 55 C107 20 86 5 52 5 L52 0 L268 0 L268 5 L268 5 Z " />
<glyph glyph-name="ibreve" unicode="&#x12d;" horiz-adv-x="262" d="M-4 663 C3 587 60 536 138 536 C216 536 273 586 280 661 L261 664 C257 626 208 600 138 600 C68 600 19 626 15 666 L-4 663 L-4 663 Z M58 393 L78 398 C87 400 93 396 93 387 L93 20 C93 11 87 5 78 5 L58 5 L58 0 L218 0 L218 5 L198 5 C189 5 183 11 183 20 L183 420 L138 420 C125 416 110 412 95 408 L92 408 L92 407 C80 404 68 401 57 398 L58 393 L58 393 Z " />
<glyph glyph-name="Idot" unicode="&#x130;" horiz-adv-x="327" d="M160 785 C195 785 218 808 218 843 C218 878 195 901 160 901 C125 901 102 878 102 843 C102 808 125 785 160 785 L160 785 Z M268 5 C234 5 213 20 213 55 L213 615 C213 650 234 665 268 665 L268 670 L52 670 L52 665 C86 665 107 650 107 615 L107 55 C107 20 86 5 52 5 L52 0 L268 0 L268 5 L268 5 Z " />
<glyph glyph-name="dotlessi" unicode="&#x131;" horiz-adv-x="262" d="M58 393 L78 398 C87 400 93 396 93 387 L93 20 C93 11 87 5 78 5 L58 5 L58 0 L218 0 L218 5 L198 5 C189 5 183 11 183 20 L183 420 L138 420 C125 416 110 412 95 408 L92 408 L92 407 C80 404 68 401 57 398 L58 393 L58 393 Z " />
<glyph glyph-name="Jcircumflex" unicode="&#x134;" horiz-adv-x="327" d="M192 924 C186 934 170 956 160 956 C150 956 134 934 128 924 L8 736 L20 726 L160 861 L300 726 L312 736 L192 924 L192 924 Z M268 670 L52 670 L52 665 C85 665 105 652 107 619 C107 482 106 104 106 -77 C106 -191 35 -213 -17 -213 C-69 -213 -44 -128 -96 -128 C-125 -128 -144 -147 -144 -176 C-144 -202 -94 -219 -20 -219 C78 -219 213 -164 213 123 L213 616 C213 651 234 666 268 666 L268 670 L268 670 Z " />
<glyph glyph-name="Lacute" unicode="&#x139;" horiz-adv-x="606" d="M165 732 L307 852 C345 885 370 909 370 915 C370 939 349 959 325 959 C319 959 296 933 266 893 L154 743 L165 732 L165 732 Z M268 670 L52 670 L52 665 C86 665 107 650 107 615 L107 55 C107 20 86 5 52 5 L52 0 L562 0 L562 15 C567 45 573 84 578 113 L567 113 L561 98 C542 50 488 18 425 18 L259 18 C218 18 213 29 213 46 L213 615 C213 650 234 665 268 665 L268 670 L268 670 Z " />
<glyph glyph-name="Lcaron" unicode="&#x13d;" horiz-adv-x="606" d="M368 728 C350 728 340 665 336 620 L326 509 L341 506 L382 611 C398 651 409 693 409 715 C409 724 393 728 368 728 L368 728 Z M268 670 L52 670 L52 665 C86 665 107 650 107 615 L107 55 C107 20 86 5 52 5 L52 0 L562 0 L562 15 C567 45 573 84 578 113 L567 113 L561 98 C542 50 488 18 425 18 L259 18 C218 18 213 29 213 46 L213 615 C213 650 234 665 268 665 L268 670 L268 670 Z " />
<glyph glyph-name="lcaron" unicode="&#x13e;" horiz-adv-x="206" d="M231 678 C212 678 202 615 198 570 L188 459 L204 456 L245 561 C261 600 271 641 271 665 C271 674 255 678 231 678 L231 678 Z M17 642 C39 642 52 627 52 596 L52 20 C52 11 46 5 37 5 L17 5 L17 0 L177 0 L177 5 L157 5 C148 5 142 11 142 20 L142 670 L97 670 C84 666 69 662 54 658 L51 658 L51 657 C39 654 27 651 16 648 L17 642 L17 642 Z " />
<glyph glyph-name="Nacute" unicode="&#x143;" horiz-adv-x="740" d="M274 732 L417 852 C455 884 480 908 480 915 C480 939 459 959 435 959 C429 959 406 933 376 893 L263 743 L274 732 L274 732 Z M-22 665 C12 665 42 650 71 619 L108 575 L107 54 C107 19 86 4 52 4 L52 -1 L193 -1 L193 4 C160 4 138 19 138 54 L138 54 L135 543 C289 362 443 181 597 -1 L618 -1 L625 622 C629 653 649 665 681 665 L681 670 L539 670 L539 665 C573 665 594 650 594 615 L594 615 L596 147 C451 321 305 495 160 669 L-22 669 L-22 665 L-22 665 Z " />
<glyph glyph-name="Ncaron" unicode="&#x147;" horiz-adv-x="740" d="M507 964 L367 828 L227 964 L215 954 L336 766 C342 756 358 734 368 734 C377 734 393 756 399 766 L520 954 L507 964 L507 964 Z M-21 665 C13 665 43 650 72 619 L109 575 L108 54 C108 19 87 4 53 4 L53 -1 L194 -1 L194 4 C161 4 139 19 139 54 L139 54 L136 543 C290 362 444 181 598 -1 L619 -1 L626 622 C630 653 650 665 682 665 L682 670 L540 670 L540 665 C574 665 595 650 595 615 L595 615 L597 147 C452 321 306 495 161 669 L-21 669 L-21 665 L-21 665 Z " />
<glyph glyph-name="ncaron" unicode="&#x148;" horiz-adv-x="525" d="M397 714 L257 578 L117 714 L105 704 L226 516 C232 506 248 484 258 484 C267 484 283 506 289 516 L410 704 L397 714 L397 714 Z M18 392 C40 392 53 377 53 346 L53 20 C53 11 47 5 38 5 L18 5 L18 0 L178 0 L178 5 L158 5 C149 5 143 11 143 20 L143 292 C181 350 241 388 294 388 C345 388 372 331 372 245 L372 20 C372 11 366 5 357 5 L337 5 L337 0 L497 0 L497 5 L477 5 C468 5 462 11 462 20 L462 245 C462 356 413 430 318 430 C262 430 192 380 143 305 L143 420 L98 420 C85 416 70 412 55 408 L52 408 L52 407 C40 404 28 401 17 398 L18 392 L18 392 Z " />
<glyph glyph-name="Omacron" unicode="&#x14c;" horiz-adv-x="871" d="M269 814 L585 814 L585 877 L269 877 L269 814 L269 814 Z M163 335 C163 540 268 676 426 676 C591 676 701 540 701 335 C701 130 588 -6 418 -6 C265 -6 163 130 163 335 L163 335 Z M48 335 C48 128 196 -10 417 -10 C656 -10 816 128 816 335 C816 542 660 680 427 680 C200 680 48 542 48 335 L48 335 Z " />
<glyph glyph-name="omacron" unicode="&#x14d;" horiz-adv-x="626" d="M155 564 L471 564 L471 627 L155 627 L155 564 L155 564 Z M144 210 C144 340 212 426 313 426 C414 426 482 340 482 210 C482 80 414 -6 313 -6 C212 -6 144 80 144 210 L144 210 Z M45 210 C45 78 152 -10 313 -10 C474 -10 581 78 581 210 C581 342 474 430 313 430 C152 430 45 342 45 210 L45 210 Z " />
<glyph glyph-name="Obreve" unicode="&#x14e;" horiz-adv-x="871" d="M285 914 C292 838 349 787 427 787 C505 787 562 837 569 912 L550 915 C546 877 497 851 427 851 C357 851 308 877 304 917 L285 914 L285 914 Z M163 335 C163 540 268 676 426 676 C591 676 701 540 701 335 C701 130 588 -6 418 -6 C265 -6 163 130 163 335 L163 335 Z M48 335 C48 128 196 -10 417 -10 C656 -10 816 128 816 335 C816 542 660 680 427 680 C200 680 48 542 48 335 L48 335 Z " />
<glyph glyph-name="obreve" unicode="&#x14f;" horiz-adv-x="626" d="M171 664 C178 588 235 537 313 537 C391 537 448 587 455 662 L436 665 C432 627 383 601 313 601 C243 601 194 627 190 667 L171 664 L171 664 Z M144 210 C144 340 212 426 313 426 C414 426 482 340 482 210 C482 80 414 -6 313 -6 C212 -6 144 80 144 210 L144 210 Z M45 210 C45 78 152 -10 313 -10 C474 -10 581 78 581 210 C581 342 474 430 313 430 C152 430 45 342 45 210 L45 210 Z " />
<glyph glyph-name="Racute" unicode="&#x154;" horiz-adv-x="760" d="M306 732 L448 852 C486 885 511 909 511 915 C511 939 490 959 466 959 C460 959 437 933 407 893 L295 743 L306 732 L306 732 Z M58 665 C92 665 113 650 113 615 L113 55 C113 20 92 5 58 5 L58 0 L274 0 L274 5 C240 5 219 20 219 55 L219 313 L326 313 C347 278 414 182 505 57 C546 1 555 -1 751 -1 L751 4 C670 4 665 6 628 57 C536 183 466 279 435 321 C537 340 600 391 600 479 C600 593 492 669 330 669 L58 669 L58 665 L58 665 Z M219 338 L219 648 L299 648 C409 648 483 589 483 500 C483 388 422 338 330 338 L219 338 L219 338 Z " />
<glyph glyph-name="Rcaron" unicode="&#x158;" horiz-adv-x="760" d="M438 964 L298 829 L158 964 L146 954 L266 766 C272 756 288 734 298 734 C308 734 324 756 330 766 L450 954 L438 964 L438 964 Z M58 665 C92 665 113 650 113 615 L113 55 C113 20 92 5 58 5 L58 0 L274 0 L274 5 C240 5 219 20 219 55 L219 313 L326 313 C347 278 414 182 505 57 C546 1 555 -1 751 -1 L751 4 C670 4 665 6 628 57 C536 183 466 279 435 321 C537 340 600 391 600 479 C600 593 492 669 330 669 L58 669 L58 665 L58 665 Z M219 338 L219 648 L299 648 C409 648 483 589 483 500 C483 388 422 338 330 338 L219 338 L219 338 Z " />
<glyph glyph-name="rcaron" unicode="&#x159;" horiz-adv-x="411" d="M359 714 L219 579 L79 714 L67 704 L187 516 C193 506 209 484 219 484 C229 484 245 506 251 516 L371 704 L359 714 L359 714 Z M18 392 C40 392 53 377 53 346 L53 20 C53 11 47 5 38 5 L18 5 L18 0 L178 0 L178 5 L158 5 C149 5 143 11 143 20 L143 314 C164 359 207 388 254 388 C279 388 295 374 295 353 C295 321 316 300 348 300 C380 300 401 321 401 353 C401 399 359 430 296 430 C232 430 172 387 143 321 L143 420 L98 420 C85 416 70 412 55 408 L52 408 L52 407 C40 404 28 401 17 398 L18 392 L18 392 Z " />
<glyph glyph-name="Sacute" unicode="&#x15a;" horiz-adv-x="562" d="M286 732 L429 852 C467 884 492 908 492 915 C492 939 471 959 447 959 C441 959 418 933 388 893 L275 743 L286 732 L286 732 Z M483 511 L483 656 L475 656 C474 652 474 646 473 642 C470 624 452 621 427 636 C414 644 400 651 385 657 C377 662 369 667 361 671 L359 667 C329 676 296 681 261 681 C142 681 63 609 63 500 C63 413 132 330 265 281 C379 239 438 190 438 149 C438 57 381 -4 296 -4 C253 -4 210 10 173 35 L173 35 C133 62 93 119 71 177 C69 182 66 190 64 195 L49 195 L49 13 L57 13 C58 20 58 28 59 35 C62 65 87 69 121 44 L121 44 C168 10 230 -10 295 -10 C431 -10 521 65 521 178 C521 263 455 343 327 390 C207 434 145 489 145 539 C145 621 191 676 260 676 C297 676 333 666 365 649 C404 626 441 580 460 528 C462 523 465 515 467 510 L483 511 L483 511 Z " />
<glyph glyph-name="Scircumflex" unicode="&#x15c;" horiz-adv-x="562" d="M483 511 L483 656 L475 656 C474 652 474 646 473 642 C470 624 452 621 427 636 C414 644 400 651 385 657 C377 662 369 667 361 671 L359 667 C329 676 296 681 261 681 C142 681 63 609 63 500 C63 413 132 330 265 281 C379 239 438 190 438 149 C438 57 381 -4 296 -4 C253 -4 210 10 173 35 L173 35 C133 62 93 119 71 177 C69 182 66 190 64 195 L49 195 L49 13 L57 13 C58 20 58 28 59 35 C62 65 87 69 121 44 L121 44 C168 10 230 -10 295 -10 C431 -10 521 65 521 178 C521 263 455 343 327 390 C207 434 145 489 145 539 C145 621 191 676 260 676 C297 676 333 666 365 649 C404 626 441 580 460 528 C462 523 465 515 467 510 L483 511 L483 511 Z M309 923 C303 933 287 955 278 955 C268 955 252 933 246 923 L125 735 L137 725 L278 861 L419 725 L431 735 L309 923 L309 923 Z " />
<glyph glyph-name="Scaron" unicode="&#x160;" horiz-adv-x="562" d="M419 964 L279 828 L139 964 L127 954 L248 766 C254 756 270 734 280 734 C289 734 305 756 311 766 L432 954 L419 964 L419 964 Z M484 511 L484 656 L476 656 C475 652 475 646 474 642 C471 624 453 621 428 636 C415 644 401 651 386 657 C378 662 370 667 362 671 L360 667 C330 676 297 681 262 681 C143 681 64 609 64 500 C64 413 133 330 266 281 C380 239 439 190 439 149 C439 57 382 -4 297 -4 C254 -4 211 10 174 35 L174 35 C134 62 94 119 72 177 C70 182 67 190 65 195 L50 195 L50 13 L58 13 C59 20 59 28 60 35 C63 65 88 69 122 44 L122 44 C169 10 231 -10 296 -10 C432 -10 522 65 522 178 C522 263 456 343 328 390 C208 434 146 489 146 539 C146 621 192 676 261 676 C298 676 334 666 366 649 C405 626 442 580 461 528 C463 523 466 515 468 510 L484 511 L484 511 Z " />
<glyph glyph-name="scaron" unicode="&#x161;" horiz-adv-x="440" d="M363 714 L223 579 L83 714 L71 704 L191 516 C197 506 213 484 223 484 C233 484 249 506 255 516 L375 704 L363 714 L363 714 Z M67 132 L60 132 L60 13 L66 13 C66 17 67 21 67 25 C69 42 119 16 139 7 C146 3 153 -1 160 -4 L162 0 C182 -6 203 -9 225 -9 C325 -9 392 40 392 113 C392 169 342 219 245 245 C165 266 124 306 124 348 C124 396 160 428 213 428 C233 428 252 424 270 417 C305 400 345 354 361 305 L367 305 L367 413 L361 413 C361 410 360 407 360 404 C359 398 338 402 306 413 C291 420 278 429 263 434 L260 427 C245 430 229 432 212 432 C120 432 59 386 59 318 C59 257 108 204 204 178 C282 157 322 123 322 89 C322 33 283 -5 224 -5 C204 -5 184 0 165 9 L165 9 C129 26 86 78 67 134 L67 132 L67 132 Z " />
<glyph glyph-name="Tcaron" unicode="&#x164;" horiz-adv-x="786" d="M532 964 L392 829 L252 964 L240 954 L360 766 C366 756 382 734 392 734 C402 734 418 756 424 766 L544 954 L532 964 L532 964 Z M716 685 C701 674 657 670 605 670 L181 670 C129 670 86 674 71 685 L62 685 C59 677 55 666 52 657 L57 657 L57 647 C44 616 28 577 16 548 L27 548 L36 563 C66 611 119 643 170 643 L341 643 L341 54 C341 19 320 4 286 4 L286 -1 L502 -1 L502 4 C468 4 447 19 447 54 L447 643 L617 643 C669 643 722 611 751 563 L760 548 L771 548 C760 576 745 613 733 643 L733 655 L738 655 C735 663 730 674 727 683 L716 685 L716 685 Z " />
<glyph glyph-name="tcaron" unicode="&#x165;" horiz-adv-x="390" d="M345 420 L186 420 L186 521 L180 521 L31 388 L31 378 L96 378 L96 138 C96 31 153 -10 238 -10 C299 -10 356 27 380 83 L370 87 C356 55 314 33 266 33 C217 33 184 57 184 118 L186 372 L345 372 L345 420 L345 420 Z M439 678 C420 678 410 615 406 570 L396 459 L412 456 L453 561 C469 600 479 641 479 665 C479 674 463 678 439 678 L439 678 Z " />
<glyph glyph-name="Utilde" unicode="&#x168;" horiz-adv-x="721" d="M206 791 C206 826 225 850 253 850 C308 850 381 785 436 785 C481 785 511 835 511 909 L509 909 C509 873 488 849 456 849 C401 849 329 914 274 914 C232 914 204 865 204 791 L206 791 L206 791 Z M692 34 L683 32 C655 25 637 40 637 70 L637 670 L584 670 L584 671 L476 671 L476 666 C510 666 531 651 531 616 L531 189 C494 110 409 58 318 58 C238 58 184 122 184 218 L184 670 L131 670 L131 671 L23 671 L23 666 C57 666 78 651 78 616 L78 218 C78 81 157 -10 276 -10 C386 -10 488 51 531 142 L531 0 L584 0 C616 8 660 20 692 29 L692 34 L692 34 Z " />
<glyph glyph-name="utilde" unicode="&#x169;" horiz-adv-x="520" d="M103 540 C103 575 122 599 150 599 C205 599 278 534 333 534 C378 534 408 584 408 658 L406 658 C406 622 385 598 353 598 C298 598 226 663 171 663 C129 663 101 614 101 540 L103 540 L103 540 Z M506 24 L506 29 C480 21 461 31 461 67 L461 420 L336 420 L336 415 L356 415 C365 415 371 409 371 400 L371 119 C352 78 300 52 234 52 C176 52 137 94 137 157 L137 420 L12 420 L12 415 L32 415 C41 415 47 409 47 400 L47 157 C47 57 105 -10 192 -10 C277 -10 346 38 370 111 L370 0 L415 0 C442 7 478 17 505 24 L506 24 L506 24 Z " />
<glyph glyph-name="Umacron" unicode="&#x16a;" horiz-adv-x="721" d="M199 815 L516 815 L516 878 L199 878 L199 815 L199 815 Z M692 34 L683 32 C655 25 637 40 637 70 L637 670 L584 670 L584 671 L476 671 L476 666 C510 666 531 651 531 616 L531 189 C494 110 409 58 318 58 C238 58 184 122 184 218 L184 670 L131 670 L131 671 L23 671 L23 666 C57 666 78 651 78 616 L78 218 C78 81 157 -10 276 -10 C386 -10 488 51 531 142 L531 0 L584 0 C616 8 660 20 692 29 L692 34 L692 34 Z " />
<glyph glyph-name="umacron" unicode="&#x16b;" horiz-adv-x="520" d="M96 564 L413 564 L413 627 L96 627 L96 564 L96 564 Z M506 24 L506 29 C480 21 461 31 461 67 L461 420 L336 420 L336 415 L356 415 C365 415 371 409 371 400 L371 119 C352 78 300 52 234 52 C176 52 137 94 137 157 L137 420 L12 420 L12 415 L32 415 C41 415 47 409 47 400 L47 157 C47 57 105 -10 192 -10 C277 -10 346 38 370 111 L370 0 L415 0 C442 7 478 17 505 24 L506 24 L506 24 Z " />
<glyph glyph-name="Ubreve" unicode="&#x16c;" horiz-adv-x="721" d="M216 915 C223 839 280 788 358 788 C436 788 493 838 500 913 L481 916 C477 878 428 852 358 852 C287 852 238 878 234 918 L216 915 L216 915 Z M692 34 L683 32 C655 25 637 40 637 70 L637 670 L584 670 L584 671 L476 671 L476 666 C510 666 531 651 531 616 L531 189 C494 110 409 58 318 58 C238 58 184 122 184 218 L184 670 L131 670 L131 671 L23 671 L23 666 C57 666 78 651 78 616 L78 218 C78 81 157 -10 276 -10 C386 -10 488 51 531 142 L531 0 L584 0 C616 8 660 20 692 29 L692 34 L692 34 Z " />
<glyph glyph-name="ubreve" unicode="&#x16d;" horiz-adv-x="520" d="M113 664 C120 588 177 537 255 537 C333 537 390 587 397 662 L378 665 C374 627 325 601 255 601 C184 601 135 627 131 667 L113 664 L113 664 Z M506 24 L506 29 C480 21 461 31 461 67 L461 420 L336 420 L336 415 L356 415 C365 415 371 409 371 400 L371 119 C352 78 300 52 234 52 C176 52 137 94 137 157 L137 420 L12 420 L12 415 L32 415 C41 415 47 409 47 400 L47 157 C47 57 105 -10 192 -10 C277 -10 346 38 370 111 L370 0 L415 0 C442 7 478 17 505 24 L506 24 L506 24 Z " />
<glyph glyph-name="Uring" unicode="&#x16e;" horiz-adv-x="721" d="M286 826 C286 870 315 900 358 900 C401 900 429 870 429 826 C429 786 396 752 358 752 C319 752 286 786 286 826 L286 826 Z M260 826 C260 775 305 731 358 731 C410 731 455 775 455 826 C455 883 416 921 358 921 C299 921 260 883 260 826 L260 826 Z M692 34 L683 32 C655 25 637 40 637 70 L637 670 L584 670 L584 671 L476 671 L476 666 C510 666 531 651 531 616 L531 189 C494 110 409 58 318 58 C238 58 184 122 184 218 L184 670 L131 670 L131 671 L23 671 L23 666 C57 666 78 651 78 616 L78 218 C78 81 157 -10 276 -10 C386 -10 488 51 531 142 L531 0 L584 0 C616 8 660 20 692 29 L692 34 L692 34 Z " />
<glyph glyph-name="uring" unicode="&#x16f;" horiz-adv-x="520" d="M183 575 C183 619 212 649 255 649 C298 649 326 619 326 575 C326 535 293 501 255 501 C216 501 183 535 183 575 L183 575 Z M157 575 C157 524 202 480 255 480 C307 480 352 524 352 575 C352 632 313 670 255 670 C196 670 157 632 157 575 L157 575 Z M506 24 L506 29 C480 21 461 31 461 67 L461 420 L336 420 L336 415 L356 415 C365 415 371 409 371 400 L371 119 C352 78 300 52 234 52 C176 52 137 94 137 157 L137 420 L12 420 L12 415 L32 415 C41 415 47 409 47 400 L47 157 C47 57 105 -10 192 -10 C277 -10 346 38 370 111 L370 0 L415 0 C442 7 478 17 505 24 L506 24 L506 24 Z " />
<glyph glyph-name="Wcircumflex" unicode="&#x174;" horiz-adv-x="1076" d="M237 670 L-2 670 L-2 664 C26 664 48 644 70 601 C161 397 252 194 343 -10 L369 -10 L557 408 C619 269 681 130 743 -10 L770 -10 C837 188 904 386 972 584 C988 632 1021 664 1054 664 L1063 664 L1063 670 L845 670 L845 664 L878 664 C926 664 947 632 932 584 L933 584 L793 146 C727 292 661 438 596 584 C574 632 592 664 640 664 L657 664 L657 670 L394 670 L394 664 L402 664 C427 664 458 632 479 584 L479 584 C499 538 520 492 540 447 L402 127 L195 584 C173 632 185 664 224 664 L236 664 L237 670 L237 670 Z M552 924 C546 934 530 956 520 956 C510 956 494 934 488 924 L368 736 L380 726 L520 861 L660 726 L672 736 L552 924 L552 924 Z " />
<glyph glyph-name="Ycircumflex" unicode="&#x176;" horiz-adv-x="689" d="M233 670 L-3 670 L-3 665 C22 665 44 650 68 619 L300 285 L300 75 C300 33 275 5 237 5 L225 5 L225 0 L481 0 L481 5 L469 5 C431 5 406 33 406 75 L406 302 L593 610 L594 610 C617 648 650 665 692 665 L692 670 L527 670 L527 665 L564 665 C597 665 606 643 586 610 L404 306 C336 407 266 509 198 610 C176 643 182 665 215 665 L232 665 L233 670 L233 670 Z M384 924 C378 934 362 956 352 956 C342 956 326 934 320 924 L200 736 L212 726 L352 861 L492 726 L504 736 L384 924 L384 924 Z " />
<glyph glyph-name="Ydieresis" unicode="&#x178;" horiz-adv-x="689" d="M430 785 C465 785 488 808 488 843 C488 878 465 901 430 901 C395 901 372 878 372 843 C372 808 395 785 430 785 L430 785 Z M276 785 C311 785 334 808 334 843 C334 878 311 901 276 901 C241 901 218 878 218 843 C218 808 241 785 276 785 L276 785 Z M233 670 L-3 670 L-3 665 C22 665 44 650 68 619 L300 285 L300 75 C300 33 275 5 237 5 L225 5 L225 0 L481 0 L481 5 L469 5 C431 5 406 33 406 75 L406 302 L593 610 L594 610 C617 648 650 665 692 665 L692 670 L527 670 L527 665 L564 665 C597 665 606 643 586 610 L404 306 C336 407 266 509 198 610 C176 643 182 665 215 665 L232 665 L233 670 L233 670 Z " />
<glyph glyph-name="Zacute" unicode="&#x179;" horiz-adv-x="648" d="M352 732 L495 852 C533 884 558 908 558 915 C558 939 537 959 513 959 C507 959 484 933 454 893 L341 743 L352 732 L352 732 Z M70 546 L74 560 C89 608 140 641 203 642 L505 647 L25 21 L25 0 L617 0 L620 16 L621 16 L646 126 L635 126 L629 112 C609 67 560 36 503 30 L151 23 L620 649 L620 670 L69 670 L66 640 L67 640 C65 622 62 589 58 547 L70 546 L70 546 Z " />
<glyph glyph-name="Zdot" unicode="&#x17b;" horiz-adv-x="648" d="M345 785 C380 785 403 808 403 843 C403 878 380 901 345 901 C310 901 286 878 286 843 C286 808 310 785 345 785 L345 785 Z M70 546 L74 560 C89 608 140 641 203 642 L505 647 L25 21 L25 0 L617 0 L620 16 L621 16 L646 126 L635 126 L629 112 C609 67 560 36 503 30 L151 23 L620 649 L620 670 L69 670 L66 640 L67 640 C65 622 62 589 58 547 L70 546 L70 546 Z " />
<glyph glyph-name="zdot" unicode="&#x17c;" horiz-adv-x="486" d="M257 535 C292 535 315 558 315 593 C315 628 292 651 257 651 C222 651 199 628 199 593 C199 558 222 535 257 535 L257 535 Z M66 422 C65 419 62 404 60 404 C60 404 51 371 38 321 L51 321 L58 331 C76 362 115 385 159 391 L335 396 L40 21 L40 0 L441 0 L441 16 L445 16 C445 16 448 49 453 99 L440 99 L435 89 C420 54 377 30 327 28 L154 23 L446 398 L446 419 L108 419 C90 419 77 419 76 420 L76 421 L66 422 L66 422 Z " />
<glyph glyph-name="Zcaron" unicode="&#x17d;" horiz-adv-x="648" d="M485 964 L345 828 L205 964 L193 954 L314 766 C320 756 336 734 346 734 C355 734 371 756 377 766 L498 954 L485 964 L485 964 Z M71 546 L75 560 C90 608 141 641 204 642 L506 647 L26 21 L26 0 L618 0 L621 16 L622 16 L647 126 L636 126 L630 112 C610 67 561 36 504 30 L152 23 L621 649 L621 670 L70 670 L67 640 L68 640 C66 622 63 589 59 547 L71 546 L71 546 Z " />
<glyph glyph-name="zcaron" unicode="&#x17e;" horiz-adv-x="486" d="M397 714 L257 579 L117 714 L105 704 L225 516 C231 506 247 484 257 484 C267 484 283 506 289 516 L409 704 L397 714 L397 714 Z M66 422 C65 419 62 404 60 404 C60 404 51 371 38 321 L51 321 L58 331 C76 362 115 385 159 391 L335 396 L40 21 L40 0 L441 0 L441 16 L445 16 C445 16 448 49 453 99 L440 99 L435 89 C420 54 377 30 327 28 L154 23 L446 398 L446 419 L108 419 C90 419 77 419 76 420 L76 421 L66 422 L66 422 Z " />
<glyph glyph-name="oogonek" unicode="&#x1eb;" horiz-adv-x="776" d="M1011 -52 L1010 -51 C981 -76 868 -92 729 -92 C578 -92 417 -59 316 -7 C335 -9 354 -10 374 -10 C585 -10 726 95 726 252 C726 409 589 513 384 513 C184 513 51 409 51 252 C51 149 107 68 200 25 C378 -82 585 -153 719 -153 C823 -153 940 -113 1012 -53 L1011 -52 L1011 -52 Z M294 5 C209 38 156 128 156 250 C156 405 247 508 384 508 C527 508 623 405 623 250 C623 94 522 -10 371 -10 C343 -10 317 -5 294 4 L294 4 L294 5 L294 5 Z " />
<glyph glyph-name="Adotabove" unicode="&#x226;" horiz-adv-x="708" d="M354 785 C389 785 412 808 412 843 C412 878 389 901 354 901 C319 901 296 878 296 843 C296 808 319 785 354 785 L354 785 Z M428 0 L706 0 L706 6 L697 6 C664 6 627 46 605 106 L605 106 C533 301 462 496 389 690 L379 690 C383 668 352 649 301 642 L305 631 L125 99 C104 43 56 6 5 6 L-10 6 L-10 0 L202 0 L202 6 L186 6 C134 6 113 46 133 106 L133 106 L186 263 L440 263 L500 96 C516 42 495 7 446 7 L430 7 L428 0 L428 0 Z M188 268 L309 628 L439 268 L188 268 L188 268 Z " />
<glyph glyph-name="G_sc" unicode="&#x262;" horiz-adv-x="721" d="M626 355 L626 510 L618 510 C617 505 617 498 616 493 C613 471 593 464 565 477 C548 487 524 495 503 504 L502 502 C470 510 430 514 379 514 C182 514 50 410 50 253 C50 96 182 -9 380 -9 C446 -9 505 1 561 17 L608 29 C608 29 608 30 608 33 C632 42 656 52 680 63 L679 66 C657 56 634 47 609 39 C610 75 610 129 610 129 C610 180 632 214 665 214 L675 214 L675 220 L449 220 L449 214 L459 214 C492 214 514 180 514 129 L515 129 C515 117 515 105 515 93 C508 43 462 11 397 11 C252 11 156 108 156 254 C156 409 246 512 381 512 C430 512 468 505 499 492 L499 492 C544 473 587 426 605 376 C607 371 610 363 612 358 L626 355 L626 355 Z " />
<glyph glyph-name="I_sc" unicode="&#x26a;" horiz-adv-x="321" d="M262 5 C228 5 207 20 207 55 L207 448 C207 483 228 498 262 498 L262 503 L57 503 L57 498 C91 498 112 483 112 448 L112 55 C112 20 91 5 57 5 L57 0 L262 0 L262 5 L262 5 Z " />
<glyph glyph-name="N_sc" unicode="&#x274;" horiz-adv-x="656" d="M52 0 L191 0 L191 5 C158 5 136 20 136 55 L136 55 L133 402 C261 268 389 134 517 0 L536 0 L542 455 C545 486 565 498 597 498 L597 503 L459 503 L459 498 C493 498 514 483 514 448 L514 448 L515 90 C395 228 274 365 153 503 L-15 503 L-15 498 C21 498 55 481 87 448 L87 448 L107 427 L106 55 L106 55 C106 20 84 5 51 5 L52 0 L52 0 Z " />
<glyph glyph-name="R_sc" unicode="&#x280;" horiz-adv-x="620" d="M61 498 C95 498 116 483 116 448 L116 55 C116 20 95 5 61 5 L61 0 L266 0 L266 5 C232 5 211 20 211 55 L211 231 L266 231 C284 204 336 135 407 45 C440 3 448 1 610 1 L610 6 C551 6 547 8 518 45 C446 136 391 206 365 239 C455 254 511 293 511 360 C511 446 414 503 269 503 L61 503 L61 498 L61 498 Z M211 255 L211 484 L241 484 C340 484 406 442 406 378 C406 293 351 255 269 255 L211 255 L211 255 Z " />
<glyph glyph-name="Y_sc" unicode="&#x28f;" horiz-adv-x="600" d="M224 503 L1 503 L1 498 C26 498 51 482 77 450 L260 211 L260 75 C260 33 235 5 197 5 L185 5 L185 0 L431 0 L431 5 L419 5 C381 5 356 33 356 75 L356 226 L501 443 C526 480 561 498 602 498 L602 503 L439 503 L439 498 L476 498 C506 498 515 480 500 452 L354 230 L190 448 C169 478 176 498 207 498 L223 498 L224 503 L224 503 Z " />
<glyph glyph-name="B_sc" unicode="&#x299;" horiz-adv-x="573" d="M347 259 C396 259 428 208 428 131 C428 26 388 1 327 1 L277 1 C237 1 211 20 211 49 L211 258 L311 258 C319 258 347 258 347 259 L347 259 Z M61 497 C95 497 116 482 116 447 L116 56 C116 21 95 6 61 6 L61 0 L331 0 C452 0 533 25 533 131 C533 208 463 260 359 261 C450 273 507 319 507 383 C507 455 463 503 274 503 L61 503 L61 497 L61 497 Z M310 261 L211 261 L211 500 L268 500 C385 500 413 449 413 373 C413 306 372 261 310 261 L310 261 Z " />
<glyph glyph-name="H_sc" unicode="&#x29c;" horiz-adv-x="733" d="M674 5 C640 5 619 20 619 55 L619 448 C619 483 640 498 674 498 L674 503 L469 503 L469 498 C503 498 524 483 524 448 L524 261 L247 261 L247 448 C247 483 268 498 302 498 L302 503 L97 503 L97 498 C131 498 152 483 152 448 L152 55 C152 20 131 5 97 5 L97 0 L302 0 L302 5 C268 5 247 20 247 55 L247 257 L524 257 L524 55 C524 20 503 5 469 5 L469 0 L674 0 L674 5 L674 5 Z " />
<glyph glyph-name="L_sc" unicode="&#x29f;" horiz-adv-x="521" d="M262 503 L57 503 L57 498 C91 498 112 483 112 448 L112 55 C112 20 91 5 57 5 L57 0 L477 0 L477 8 C483 39 490 80 495 111 L484 111 L478 96 C459 48 405 16 342 16 L253 16 C212 16 207 28 207 46 L207 448 C207 483 228 498 262 498 L262 503 L262 503 Z " />
<glyph glyph-name="circumflex" unicode="&#x2c6;" horiz-adv-x="353" d="M209 674 C203 684 187 706 177 706 C167 706 151 684 145 674 L25 486 L37 476 L177 611 L317 476 L329 486 L209 674 L209 674 Z " />
<glyph glyph-name="caron" unicode="&#x2c7;" horiz-adv-x="353" d="M317 714 L177 579 L37 714 L25 704 L145 516 C151 506 167 484 177 484 C187 484 203 506 209 516 L329 704 L317 714 L317 714 Z " />
<glyph glyph-name="firsttonechinese" unicode="&#x2c9;" horiz-adv-x="353" d="M19 564 L335 564 L335 627 L19 627 L19 564 L19 564 Z " />
<glyph glyph-name="breve" unicode="&#x2d8;" horiz-adv-x="353" d="M35 664 C42 588 99 537 177 537 C255 537 312 587 319 662 L300 665 C296 627 247 601 177 601 C107 601 58 627 54 667 L35 664 L35 664 Z " />
<glyph glyph-name="dotaccent" unicode="&#x2d9;" horiz-adv-x="353" d="M177 535 C212 535 235 558 235 593 C235 628 212 651 177 651 C142 651 119 628 119 593 C119 558 142 535 177 535 L177 535 Z " />
<glyph glyph-name="ring" unicode="&#x2da;" horiz-adv-x="353" d="M106 575 C106 619 134 649 177 649 C220 649 248 619 248 575 C248 535 215 501 177 501 C139 501 106 535 106 575 L106 575 Z M79 575 C79 524 124 480 177 480 C230 480 275 524 275 575 C275 632 236 670 177 670 C118 670 79 632 79 575 L79 575 Z " />
<glyph glyph-name="A_sc" unicode="&#x1d00;" horiz-adv-x="626" d="M357 0 L624 0 L624 6 L614 6 C581 6 543 46 518 106 C460 245 402 384 345 523 L335 523 C338 506 310 490 266 484 L270 474 L131 106 C108 46 58 6 4 6 L-11 6 L-11 0 L201 0 L201 6 L185 6 C133 6 114 46 136 106 L136 106 L170 197 L383 197 L420 106 C444 46 426 6 374 6 L358 6 L357 0 L357 0 Z M172 201 L273 470 L382 201 L172 201 L172 201 Z " />
<glyph glyph-name="C_sc" unicode="&#x1d04;" horiz-adv-x="671" d="M616 90 L616 90 L616 90 L616 90 Z M626 -11 L626 151 L611 151 C609 146 606 139 604 134 C575 59 478 -7 373 -7 C243 -7 156 97 156 252 C156 407 246 510 381 510 C430 510 468 503 499 490 L499 490 C544 471 587 424 605 374 C607 369 610 361 612 356 L627 356 L627 511 L619 511 C618 506 618 499 617 494 C614 472 594 465 566 478 C549 488 525 496 504 505 L503 503 C471 511 431 515 380 515 C183 515 51 411 51 254 C51 97 179 -8 372 -8 C416 -8 454 -3 487 5 L487 4 C507 13 529 19 548 28 C585 45 611 38 614 10 C615 4 615 -3 616 -9 L626 -11 L626 -11 Z " />
<glyph glyph-name="D_sc" unicode="&#x1d05;" horiz-adv-x="752" d="M266 3 C217 3 211 20 211 46 L211 500 L288 500 C489 500 592 401 592 252 C592 88 462 3 266 3 L266 3 Z M61 498 C95 498 116 483 116 448 L116 55 C116 20 95 5 61 5 L61 0 L270 0 C526 0 697 86 697 252 C697 403 562 503 300 503 L61 503 L61 498 L61 498 Z " />
<glyph glyph-name="E_sc" unicode="&#x1d07;" horiz-adv-x="551" d="M409 153 L409 367 L398 367 L393 342 C384 294 347 262 299 262 L211 262 L211 500 L359 500 C407 500 448 468 463 420 L471 395 L482 395 C478 427 473 470 469 502 L469 503 L41 503 L41 498 L53 498 C91 498 116 470 116 428 L116 75 C116 33 91 5 53 5 L41 5 L41 0 L494 0 L494 1 L495 1 C500 30 507 69 512 98 L501 98 L495 83 C476 35 422 3 359 3 L257 3 C216 3 211 20 211 46 L211 258 L299 258 C347 258 384 226 393 178 L398 153 L409 153 L409 153 Z " />
<glyph glyph-name="J_sc" unicode="&#x1d0a;" horiz-adv-x="321" d="M262 503 L57 503 L57 498 C91 498 112 483 112 448 L112 -68 C112 -191 48 -215 2 -215 C-45 -215 -22 -139 -69 -139 C-95 -139 -112 -156 -112 -182 C-112 -205 -68 -220 -1 -220 C86 -220 207 -167 207 112 L207 448 C207 483 228 498 262 498 L262 503 L262 503 Z " />
<glyph glyph-name="K_sc" unicode="&#x1d0b;" horiz-adv-x="638" d="M266 503 L61 503 L61 498 C95 498 116 483 116 448 L116 55 C116 20 95 5 61 5 L61 0 L266 0 L266 5 C232 5 211 20 211 55 L211 252 L467 0 L634 0 L634 5 C600 5 569 19 538 48 L290 308 L422 436 C462 473 512 498 549 498 L560 498 L560 503 L330 503 L330 498 L350 498 C410 498 411 458 353 398 L353 398 L212 252 L212 448 C212 483 233 498 267 498 L266 503 L266 503 Z " />
<glyph glyph-name="M_sc" unicode="&#x1d0d;" horiz-adv-x="769" d="M49 498 C79 498 102 487 121 461 L102 45 C97 16 77 4 46 4 L46 -1 L189 -1 L189 4 C157 4 137 16 135 47 L144 421 C220 281 296 141 371 0 L395 0 L396 5 L590 436 L604 52 C604 18 584 5 551 5 L551 0 L755 0 L755 5 C724 5 704 17 699 46 C693 180 686 315 681 448 C680 484 700 498 733 498 L733 503 L587 503 L426 129 L213 503 L47 503 L49 498 L49 498 Z " />
<glyph glyph-name="O_sc" unicode="&#x1d0f;" horiz-adv-x="781" d="M155 252 C155 407 246 510 383 510 C526 510 622 407 622 252 C622 97 523 -6 374 -6 C243 -6 155 97 155 252 L155 252 Z M51 252 C51 95 180 -10 374 -10 C585 -10 726 95 726 252 C726 409 589 513 384 513 C184 513 51 409 51 252 L51 252 Z " />
<glyph glyph-name="P_sc" unicode="&#x1d18;" horiz-adv-x="510" d="M290 5 C256 5 235 20 235 55 L235 225 L272 225 C403 225 490 267 490 360 C490 446 418 503 309 503 L85 503 L85 498 C119 498 140 483 140 448 L140 55 C140 20 119 5 85 5 L85 0 L290 0 L290 5 L290 5 Z M235 245 L235 487 L285 487 C355 487 401 443 401 376 C401 286 349 245 272 245 L235 245 L235 245 Z " />
<glyph glyph-name="T_sc" unicode="&#x1d1b;" horiz-adv-x="722" d="M656 518 C641 507 597 503 545 503 L182 503 C130 503 86 507 71 518 L62 518 C62 517 58 503 56 503 L56 502 C55 498 54 494 53 491 L57 491 L57 480 C57 480 21 391 19 385 L30 385 L39 400 C69 448 122 480 173 480 L316 480 L316 55 C316 20 295 5 261 5 L261 0 L466 0 L466 5 C432 5 411 20 411 55 L411 480 L559 480 C610 480 663 448 692 400 L701 385 L712 385 C699 416 683 458 670 490 L670 491 L677 491 C674 499 670 510 667 518 L656 518 L656 518 Z " />
<glyph glyph-name="U_sc" unicode="&#x1d1c;" horiz-adv-x="626" d="M597 32 L588 30 C560 23 542 38 542 68 L542 503 L392 503 L392 498 C426 498 447 483 447 448 L447 168 C414 98 341 51 264 51 C211 51 176 111 176 200 L176 503 L26 503 L26 498 C60 498 81 483 81 448 L81 200 C81 74 139 -10 226 -10 C321 -10 409 44 447 125 L447 0 L495 0 L511 4 C539 11 572 20 598 27 L597 32 L597 32 Z " />
<glyph glyph-name="V_sc" unicode="&#x1d20;" horiz-adv-x="674" d="M257 503 L1 503 L1 497 C30 497 59 468 91 413 C166 272 241 131 317 -9 L337 -9 C407 127 476 263 546 398 C577 458 617 498 647 498 L656 498 L656 504 L442 504 L442 498 L460 498 C519 498 540 458 511 398 L511 398 L389 143 C333 228 277 313 221 398 C181 458 189 498 241 498 L256 498 L257 503 L257 503 Z " />
<glyph glyph-name="W_sc" unicode="&#x1d21;" horiz-adv-x="938" d="M228 503 L2 503 L2 497 C30 497 55 474 80 429 C154 283 228 137 302 -9 L326 -9 L480 305 C533 200 586 95 639 -10 L663 -10 L834 428 C856 475 885 496 925 496 L925 502 L710 502 L710 496 L743 496 C789 496 809 466 795 421 L689 131 C637 226 583 322 532 416 C505 464 519 496 567 496 L584 496 L584 502 L333 502 L333 496 C364 496 390 474 415 430 L463 335 L359 113 L192 416 L193 416 C167 464 175 496 213 496 L225 496 L228 503 L228 503 Z " />
<glyph glyph-name="Z_sc" unicode="&#x1d22;" horiz-adv-x="585" d="M70 383 L74 397 C88 443 136 475 196 478 L450 482 L25 19 L25 0 L554 0 L561 29 L559 29 C563 47 571 80 581 122 L570 122 L564 108 C545 63 496 31 439 26 L142 20 L558 483 L558 502 L70 502 L69 489 C69 489 65 446 59 382 L70 383 L70 383 Z " />
<glyph glyph-name="Wgrave" unicode="&#x1e80;" horiz-adv-x="1076" d="M237 670 L-2 670 L-2 664 C26 664 48 644 70 601 C161 397 252 194 343 -10 L369 -10 L557 408 C619 269 681 130 743 -10 L770 -10 C837 188 904 386 972 584 C988 632 1021 664 1054 664 L1063 664 L1063 670 L845 670 L845 664 L878 664 C926 664 947 632 932 584 L933 584 L793 146 C727 292 661 438 596 584 C574 632 592 664 640 664 L657 664 L657 670 L394 670 L394 664 L402 664 C427 664 458 632 479 584 L479 584 C499 538 520 492 540 447 L402 127 L195 584 C173 632 185 664 224 664 L236 664 L237 670 L237 670 Z M317 915 C317 907 342 883 380 852 L522 732 L533 743 L421 893 C392 933 370 959 362 959 C338 959 317 939 317 915 L317 915 Z " />
<glyph glyph-name="Wacute" unicode="&#x1e82;" horiz-adv-x="1076" d="M529 732 L671 852 C709 885 734 909 734 915 C734 939 713 959 689 959 C683 959 660 933 630 893 L518 743 L529 732 L529 732 Z M237 670 L-2 670 L-2 664 C26 664 48 644 70 601 C161 397 252 194 343 -10 L369 -10 L557 408 C619 269 681 130 743 -10 L770 -10 C837 188 904 386 972 584 C988 632 1021 664 1054 664 L1063 664 L1063 670 L845 670 L845 664 L878 664 C926 664 947 632 932 584 L933 584 L793 146 C727 292 661 438 596 584 C574 632 592 664 640 664 L657 664 L657 670 L394 670 L394 664 L402 664 C427 664 458 632 479 584 L479 584 C499 538 520 492 540 447 L402 127 L195 584 C173 632 185 664 224 664 L236 664 L237 670 L237 670 Z " />
<glyph glyph-name="Wdieresis" unicode="&#x1e84;" horiz-adv-x="1076" d="M598 785 C633 785 656 808 656 843 C656 878 633 901 598 901 C563 901 540 878 540 843 C540 808 563 785 598 785 L598 785 Z M444 785 C479 785 502 808 502 843 C502 878 479 901 444 901 C409 901 386 878 386 843 C386 808 409 785 444 785 L444 785 Z M237 670 L-2 670 L-2 664 C26 664 48 644 70 601 C161 397 252 194 343 -10 L369 -10 L557 408 C619 269 681 130 743 -10 L770 -10 C837 188 904 386 972 584 C988 632 1021 664 1054 664 L1063 664 L1063 670 L845 670 L845 664 L878 664 C926 664 947 632 932 584 L933 584 L793 146 C727 292 661 438 596 584 C574 632 592 664 640 664 L657 664 L657 670 L394 670 L394 664 L402 664 C427 664 458 632 479 584 L479 584 C499 538 520 492 540 447 L402 127 L195 584 C173 632 185 664 224 664 L236 664 L237 670 L237 670 Z " />
<glyph glyph-name="Etilde" unicode="&#x1ebc;" horiz-adv-x="622" d="M174 790 C174 825 193 849 221 849 C276 849 349 784 404 784 C449 784 479 834 479 908 L477 908 C477 872 456 848 424 848 C369 848 297 913 242 913 C200 913 172 864 172 790 L174 790 L174 790 Z M480 239 L480 453 L469 453 L464 428 C455 380 418 348 370 348 L219 348 L219 667 L430 667 C478 667 519 635 534 587 L542 562 L553 562 C549 594 544 637 540 669 L540 670 L38 670 L38 665 L50 665 C88 665 113 637 113 595 L113 75 C113 33 88 5 50 5 L38 5 L38 0 L565 0 L565 1 L566 1 C571 30 578 69 583 98 L572 98 L566 83 C547 35 493 3 430 3 L265 3 C224 3 219 20 219 46 L219 344 L370 344 C418 344 455 312 464 264 L469 239 L480 239 L480 239 Z " />
<glyph glyph-name="Ygrave" unicode="&#x1ef2;" horiz-adv-x="689" d="M233 670 L-3 670 L-3 665 C22 665 44 650 68 619 L300 285 L300 75 C300 33 275 5 237 5 L225 5 L225 0 L481 0 L481 5 L469 5 C431 5 406 33 406 75 L406 302 L593 610 L594 610 C617 648 650 665 692 665 L692 670 L527 670 L527 665 L564 665 C597 665 606 643 586 610 L404 306 C336 407 266 509 198 610 C176 643 182 665 215 665 L232 665 L233 670 L233 670 Z M149 915 C149 907 174 883 212 852 L354 732 L365 743 L253 893 C224 933 202 959 194 959 C170 959 149 939 149 915 L149 915 Z " />
<glyph glyph-name="quoteleft" unicode="&#x2018;" horiz-adv-x="620" d="M90 560 C79 560 70 555 64 546 C62 608 90 658 130 669 L120 680 C70 667 37 607 37 532 C37 498 58 475 90 475 C115 475 132 492 132 518 C132 543 115 560 90 560 L90 560 Z " />
<glyph glyph-name="quoteright" unicode="&#x2019;" horiz-adv-x="134" d="M104 609 C103 546 77 497 40 487 L51 476 C99 489 131 550 131 629 C131 660 110 681 78 681 C53 681 36 664 36 639 C36 613 53 596 78 596 C89 596 98 601 104 610 L104 609 L104 609 Z " />
<glyph glyph-name="quotedblleft" unicode="&#x201c;" horiz-adv-x="620" d="M226 560 C215 560 206 555 200 547 C199 610 226 659 265 669 L255 680 C206 667 173 608 173 532 C173 498 194 475 225 475 C251 475 268 492 268 518 C268 543 251 560 225 560 L226 560 L226 560 Z M77 560 C66 560 57 555 51 546 C49 608 77 658 117 669 L107 680 C57 667 24 607 24 532 C24 498 45 475 77 475 C102 475 119 492 119 518 C119 543 102 560 77 560 L77 560 Z " />
<glyph glyph-name="quotedblright" unicode="&#x201d;" horiz-adv-x="620" d="M252 609 C251 546 225 497 188 487 L199 476 C247 489 279 550 279 629 C279 660 258 681 226 681 C201 681 184 664 184 639 C184 613 201 596 226 596 C237 596 246 601 252 610 L252 609 L252 609 Z M104 610 C103 547 77 498 40 488 L51 477 C99 490 131 551 131 630 C131 661 110 682 78 682 C53 682 36 665 36 640 C36 614 53 597 78 597 C89 597 98 602 104 611 L104 610 L104 610 Z " />
<glyph glyph-name="perthousand" unicode="&#x2030;" horiz-adv-x="1177" d="M944 189 C944 286 970 350 1009 350 C1052 350 1080 271 1080 153 C1080 58 1053 -6 1012 -6 C971 -6 944 72 944 189 L944 189 Z M855 172 C855 63 917 -10 1011 -10 C1103 -10 1165 68 1165 184 C1165 286 1103 354 1011 354 C917 354 855 281 855 172 L855 172 Z M119 511 C119 610 145 676 184 676 C227 676 255 596 255 475 C255 382 228 320 187 320 C146 320 119 396 119 511 L119 511 Z M30 494 C30 387 92 316 186 316 C278 316 340 392 340 506 C340 610 278 680 186 680 C92 680 30 606 30 494 L30 494 Z M579 189 C579 286 608 350 651 350 C700 350 733 271 733 153 C733 58 701 -6 654 -6 C609 -6 579 72 579 189 L579 189 Z M491 172 C491 63 556 -10 653 -10 C752 -10 818 68 818 184 C818 286 752 354 653 354 C556 354 491 281 491 172 L491 172 Z M188 -2 L659 668 L653 672 L183 2 L188 -2 L188 -2 Z " />
<glyph glyph-name="fraction" unicode="&#x2044;" horiz-adv-x="510" d="M33 -2 L503 668 L498 672 L27 2 L33 -2 L33 -2 Z " />
<glyph glyph-name="Euro" unicode="&#x20ac;" horiz-adv-x="808" d="M763 16 L763 105 C759 102 755 99 751 96 C755 99 759 102 763 105 L752 118 L752 118 L763 105 L763 180 L748 180 C746 175 744 168 742 163 C715 91 618 38 618 38 C569 10 520 -6 468 -6 C339 -6 246 92 221 246 L525 246 L534 310 L215 310 C214 326 214 343 215 359 L534 359 L543 423 L221 423 C247 577 344 675 478 675 C547 675 598 660 640 633 L640 633 C684 606 725 556 743 508 C745 503 747 496 749 491 L764 491 L764 649 L757 649 C756 644 756 637 755 632 C752 607 729 604 698 626 C650 659 585 679 477 679 C284 679 145 580 107 423 L63 423 L54 359 L98 359 C97 343 97 326 98 310 L54 310 L45 246 L107 246 C144 89 279 -10 467 -10 C559 -10 630 13 691 50 C727 69 752 64 755 36 C756 30 756 23 757 17 L763 16 L763 16 Z " />
<glyph glyph-name="F_sc" unicode="&#xa730;" horiz-adv-x="526" d="M399 153 L399 367 L388 367 L383 342 C374 294 337 262 289 262 L211 262 L211 501 L359 501 C407 501 448 469 463 421 L471 396 L482 396 C478 428 473 470 469 502 L469 503 L41 503 L41 498 L53 498 C91 498 116 470 116 428 L116 75 C116 33 91 5 53 5 L41 5 L41 0 L286 0 L286 5 L274 5 C236 5 211 33 211 75 L211 258 L289 258 C337 258 374 226 383 178 L388 153 L399 153 L399 153 Z " />
<glyph glyph-name="S_sc" unicode="&#xa731;" horiz-adv-x="498" d="M418 370 L418 514 L410 514 C409 510 409 503 408 499 C405 481 387 476 363 485 C355 489 346 493 337 496 C320 506 301 514 282 519 L280 510 C159 527 64 474 64 373 C64 308 121 244 233 202 C331 165 381 131 381 107 C381 40 333 -5 261 -5 C150 -5 94 70 64 160 L49 160 L49 -20 L57 -20 C58 -13 58 -4 59 3 C62 34 88 42 125 22 C133 18 141 14 149 11 C158 6 167 1 176 -3 L178 1 C204 -6 232 -10 262 -10 C380 -10 458 48 458 135 C458 197 401 260 291 301 C191 338 140 378 140 409 C140 470 177 510 233 510 C238 510 281 507 280 504 C329 492 375 446 396 388 C398 383 401 375 403 370 L418 370 L418 370 Z " />
<glyph glyph-name="X_sc" unicode="&#xf078;" horiz-adv-x="658" d="M204 5 L168 5 C137 5 133 24 156 53 L304 219 C348 166 393 113 436 60 C463 27 460 5 427 5 L411 5 L411 0 L635 0 L635 5 C609 5 582 22 554 55 L364 283 C421 336 478 389 535 442 C574 479 616 497 658 497 L658 502 L461 502 L461 497 L496 497 C527 497 531 479 508 450 L360 287 L230 442 C203 475 206 497 239 497 L255 497 L255 502 L33 502 L33 497 C58 497 83 481 110 450 L291 231 L121 51 C87 18 51 3 11 3 L11 -2 L204 -2 L204 5 L204 5 Z " />
</font>
</svg>
