<?xml version="1.0" encoding="UTF-8"?>
<svg xmlns="http://www.w3.org/2000/svg" xmlns:xlink="http://www.w3.org/1999/xlink" version="1.2" >
<font id="Thomas Craft Round">
<font-face  font-family="Thomas Craft" units-per-em="1024" ascent="871" descent="-300" font-style="normal" font-weight="400" font-stretch="normal" cap-height="964" x-height="436" underline-position="-125" underline-thickness="50" />
<missing-glyph  horiz-adv-x="100" d="" />
<glyph glyph-name="NULL" d="" />
<glyph glyph-name="CR" unicode="&#xd;" horiz-adv-x="256" d="" />
<glyph glyph-name="space" unicode="&#x20;" horiz-adv-x="263" d="" />
<glyph glyph-name="exclam" unicode="&#x21;" horiz-adv-x="250" d="M125 -5 C163 -5 189 21 189 59 C189 97 163 122 125 122 C87 122 61 97 61 59 C61 21 87 -5 125 -5 L125 -5 Z M125 675 C82 675 62 632 70 567 L115.986 184.439 C116.541 179.814 120.842 176 125.5 176 C130.16 176 134.449 179.814 134.993 184.442 L180 567 C188 632 168 675 125 675 L125 675 Z " />
<glyph glyph-name="quotedbl" unicode="&#x22;" horiz-adv-x="336" d="M211 670 C191 670 179 652 185 625 L215.922 484.883 C216.503 482.251 219.305 480 222 480 C224.695 480 227.497 482.251 228.078 484.883 L259 625 C265 652 253 670 233 670 L211 670 L211 670 Z M91 670 C71 670 59 652 65 625 L95.9225 484.883 C96.5033 482.251 99.305 480 102 480 C104.695 480 107.497 482.251 108.078 484.883 L139 625 C145 652 133 670 113 670 L91 670 L91 670 Z " />
<glyph glyph-name="numbersign" unicode="&#x23;" horiz-adv-x="535" d="M389 585 L370.976 467.151 C366.624 438.696 339.028 415 310.242 415 L276.551 415 C237.511 415 209.915 447.137 215.817 485.729 L231 585 L226 585 L207.976 467.151 C203.624 438.696 176.028 415 147.242 415 L92.3553 415 C73.0364 415 54.7321 399.125 52 380 C49.2679 360.875 63.0364 345 82.3553 345 L134.347 345 C164.705 345 186.137 320.002 181.5 290 L181.045 287.056 C176.657 258.66 149.059 235 120.326 235 L62.3553 235 C43.0364 235 24.7321 219.125 22 200 C19.2679 180.875 33.0364 165 52.3553 165 L91.5497 165 C130.543 165 158.138 132.909 152.296 94.356 L138 0 L143 0 L160.085 112.764 C164.405 141.271 191.999 165 220.832 165 L254.55 165 C293.543 165 321.138 132.909 315.296 94.356 L301 0 L306 0 L323.085 112.764 C327.405 141.271 354.999 165 383.832 165 L433.645 165 C452.964 165 471.268 180.875 474 200 C476.732 219.125 462.964 235 443.645 235 L396.653 235 C366.295 235 344.863 259.998 349.5 290 L349.955 292.944 C354.343 321.34 381.941 345 410.674 345 L469.645 345 C488.964 345 507.268 360.875 510 380 C512.732 399.125 498.964 415 479.645 415 L439.551 415 C400.511 415 372.915 447.137 378.817 485.729 L394 585 L389 585 L389 585 Z M247.674 345 L297.347 345 C327.705 345 349.137 320.002 344.5 290 L344.045 287.056 C339.657 258.66 312.059 235 283.326 235 L233.653 235 C203.295 235 181.863 259.998 186.5 290 L186.955 292.944 C191.343 321.34 218.941 345 247.674 345 L247.674 345 Z " />
<glyph glyph-name="dollar" unicode="&#x24;" horiz-adv-x="562" d="M49 187.5 L49 17 C49 14.7921 50.7921 13 53 13 L53.4645 13 C55.5149 13 57.3585 15.7505 57.5405 17.7929 C58.0494 23.5062 58.2222 29.5556 59 35 C62 65 87 69 121 44 C144.925 26.675 172.934 12.7531 203.342 3.35741 C212.519 0.521849 223 -11.9206 223 -21.5256 L223 -60.5 C223 -69.0555 229.944 -76 238.5 -76 C247.056 -76 254 -69.0555 254 -60.5 L254 -16.0623 C254 -11.7391 258.849 -8.59975 263.15 -9.03401 C273.077 -10.0363 283.077 -10.6553 293.388 -10.8912 C297.971 -10.996 303 -14.9155 303 -19.5 L303 -60.5 C303 -69.0555 309.944 -76 318.5 -76 C327.056 -76 334 -69.0555 334 -60.5 L334 -42.5 C334 -26.4195 351.534 -6.97505 367.209 -3.387 C462.87 18.51 522 85.2 522 177 C522 252.6 470.16 324.15 369.396 371.967 C351.893 380.273 334 410.044 334 429.418 L334 631.216 C334 649.775 347.76 658.58 363.927 649.467 C408.468 624.36 441.2 581.625 461 528 L465.282 516.99 C466.68 513.394 471.642 510 475.5 510 C479.64 510 483 513.36 483 517.5 L483 651 C483 653.208 481.208 655 479 655 L475 655 C474 651 474 645 473 641 C470 623 452 620 427 635 C415.3 642.2 402.79 648.59 389.47 654.17 C389.353 654.219 381.038 658.287 380.926 658.347 C375.407 661.292 369.593 663.569 364.074 666.069 C363.448 666.353 356.221 668.802 355.543 668.917 C350.242 669.811 344.609 670.189 338.903 671.083 C336.254 671.498 334 673.929 334 676.61 L334 728.5 C334 737.056 327.056 744 318.5 744 C309.944 744 303 737.056 303 728.5 L303 685.062 C303 680.739 298.151 677.6 293.85 678.034 C283.923 679.036 273.923 679.655 263.612 679.891 C259.029 679.996 254 683.916 254 688.5 L254 729.5 C254 738.056 247.056 745 238.5 745 C229.944 745 223 738.056 223 729.5 L223 711 C223 695.693 202.625 673.746 187.988 669.268 C110.469 645.547 63 582.875 63 498 C63 430.625 105.109 365.547 185.979 316.834 C200.039 308.364 223 274.621 223 258.207 L223 8 C219 10 171 32 173 35 C133 62 93 119 71 177 L66.7183 188.01 C65.3199 191.606 60.3583 195 56.5 195 C52.3602 195 49 191.64 49 187.5 L49 187.5 Z M262.503 280.87 C273.293 276.957 284.563 273.043 294.928 269.13 C298.913 267.626 303 262.182 303 257.922 L303 4.51469 C303 -0.490785 298.393 -4.27985 293.388 -4.25872 C283.077 -4.2152 273.077 -3.16802 263.15 -1.59162 C258.642 -0.875784 254 3.57501 254 8.13941 L254 275.456 C254 279.838 258.383 282.364 262.503 280.87 L262.503 280.87 Z M367.096 232.998 C414.178 204.522 438 175.4 438 149 C438 85.475 410.775 36.9238 365.309 12.892 C346.869 3.14487 334 13.1266 334 33.9848 L334 212.539 C334 232.579 349.948 243.37 367.096 232.998 L367.096 232.998 Z M254 432.5 L254 669.485 C254 674.491 258.607 678.28 263.612 678.259 C273.923 678.215 283.923 677.168 293.85 675.592 C298.358 674.876 303 670.425 303 665.861 L303 411.657 C303 406.616 298.442 403.77 293.785 405.698 C282.48 410.376 271.951 415.267 261.922 420.371 C258.114 422.309 254 428.227 254 432.5 L254 432.5 Z M198.527 459.962 C163.696 486.839 146 514.6 146 541 C146 595.45 166.419 637.649 199.957 660.297 C212.467 668.745 223 662.106 223 647.01 L223 473.104 C223 458.299 210.249 450.918 198.527 459.962 L198.527 459.962 Z " />
<glyph glyph-name="percent" unicode="&#x25;" horiz-adv-x="830" d="M119 511 C119 610 145 676 184 676 C227 676 255 596 255 475 C255 382 228 320 187 320 C146 320 119 396 119 511 L119 511 Z M30 494 C30 387 92 316 186 316 C278 316 340 392 340 506 C340 610 278 680 186 680 C92 680 30 606 30 494 L30 494 Z M579 189 C579 286 608 350 651 350 C700 350 733 271 733 153 C733 58 701 -6 654 -6 C609 -6 579 72 579 189 L579 189 Z M491 172 C491 63 556 -10 653 -10 C752 -10 818 68 818 184 C818 286 752 354 653 354 C556 354 491 281 491 172 L491 172 Z M189.841 0.619144 L656.926 665.05 C658.071 666.678 657.655 668.896 656 670 C654.345 671.104 652.072 670.677 650.929 669.048 L184.839 4.62098 C183.826 3.17715 184.123 1.10175 185.5 0 C186.877 -1.10182 188.827 -0.823766 189.841 0.619144 L189.841 0.619144 Z " />
<glyph glyph-name="ampersand" unicode="&#x26;" horiz-adv-x="880" d="M358.378 475.595 C440.35 509.39 493 560.6 493 611 C493 652 422 680 316 680 C213 680 145 647 145 598 C145 564.175 168.822 524.224 208.604 473.094 C220.995 457.17 211.755 430.43 193.656 421.51 C99.4844 375.094 39 290.875 39 199 C39 74 122 -9 246 -9 C340.575 -9 434.199 29.9756 516.678 98.6583 C520.693 102.002 525.736 100.58 529 96.5 L535 89 C584 30 651 -9 702 -9 C770.25 -9 824.241 49.9387 837.093 140.01 C837.755 144.648 834.472 148.103 830 149.5 C825.87 150.791 821.635 148.593 820.892 144.33 C812.577 96.5875 779.85 65 739 65 C700 65 649 94 613 137 C605.5 146.167 598 154.639 591.079 162.995 C588.843 165.695 589.208 170.538 591.481 173.207 C648.004 239.561 695.411 321.146 730.274 413.673 C732.203 418.793 727.972 421 722.5 421 C717.146 421 711.327 419.128 709.418 414.126 C681.542 341.089 642.897 277.091 597.069 224.694 C580.511 205.763 558.733 200.622 542.476 219.811 C421.87 362.167 377.648 410.699 346.834 446.303 C337.93 456.591 345.799 470.409 358.378 475.595 L358.378 475.595 Z M299.893 504.088 C253.094 562.891 224 607.625 224 647 C224 655 261 660 316 660 C378 660 420 643 420 617 C420 565.85 393.456 520.145 350.474 492.8 C331.929 481.001 313.58 486.889 299.893 504.088 L299.893 504.088 Z M461.451 117.114 C409.519 89.9737 354.1 75 298 75 C200 75 134 135 134 226 C134 303.55 163.267 370.891 210.57 408.93 C230.278 424.778 250.615 419.621 267.106 400.449 C302.444 359.364 342.753 315.276 468.561 165.779 C482.308 149.443 480.373 127.003 461.451 117.114 L461.451 117.114 Z " />
<glyph glyph-name="quotesingle" unicode="&#x27;" horiz-adv-x="209" d="M91 670 C71 670 59 652 65 625 L95.9225 484.883 C96.5033 482.251 99.305 480 102 480 C104.695 480 107.497 482.251 108.078 484.883 L139 625 C145 652 133 670 113 670 L91 670 L91 670 Z " />
<glyph glyph-name="parenleft" unicode="&#x28;" horiz-adv-x="237" d="M209.01 671.564 C118.939 561.404 60 431.9 60 233 C60 34.1 118.939 -95.4044 209.01 -205.564 C211.525 -208.639 218.425 -212.016 221.5 -209.5 C224.459 -207.079 225.07 -202.72 222.686 -199.732 C167.074 -130.017 130 -11.725 130 233 C130 477.725 167.074 595.066 222.686 664.734 C225.176 667.853 224.454 672.315 221.5 675 C218.429 677.792 211.637 674.776 209.01 671.564 L209.01 671.564 Z " />
<glyph glyph-name="parenright" unicode="&#x29;" horiz-adv-x="181" d="M9.61031 666.748 C69.0244 621.221 108 449.45 108 233 C108 16.55 69.0244 -155.221 9.61031 -200.748 C7.39418 -202.446 6.2514 -206.503 7.5 -209 C8.93075 -211.862 14.6177 -210.93 17.2126 -209.059 C110.16 -142.034 171 33.125 171 233 C171 432.875 110.16 608.034 17.2126 675.059 C14.6177 676.93 8.93075 677.862 7.5 675 C6.2514 672.503 7.39418 668.446 9.61031 666.748 L9.61031 666.748 Z " />
<glyph glyph-name="asterisk" unicode="&#x2a;" horiz-adv-x="300" d="M267 583 L267 583 L267 583 Z M246.214 459.509 C260.18 451.218 274.63 455.667 284 471 C292.963 486.481 289.975 500.635 277.201 508.592 C270.42 512.816 271.002 519.777 266.94 512.899 C265.912 511.158 251.87 487.36 243.105 471.596 C240.213 466.396 241.097 462.546 246.214 459.509 L246.214 459.509 Z M267 583 C287 589 294 606 284 624 C273 642 256 645.5 240 631.5 L195.75 590.75 C181.97 578.06 160.827 590.358 165.044 608.61 L179 669 C184 690 173 704 151 704 C130 704 119 690 124 669 L137.5 609.5 C141.706 590.963 120.207 578.569 106.273 591.497 L61 633.5 C45 648.5 27 645 16 626 C5 607 12.5 591 33.5 585 L92.9163 566.93 C111.067 561.411 111.081 536.541 92.9375 531 L60.5732 521.116 C46.2974 516.756 40.4789 501.893 48 489 C55.5473 476.062 71.4181 473.677 82.434 483.827 L106.927 506.394 C120.816 519.19 142.097 506.936 138 488.5 L125 430 C120 409 131 395 152 395 C174 395 185 409 180 430 L166.192 489.25 C161.959 507.414 183.069 519.676 196.75 507 L220.619 484.884 C231.599 474.71 247.457 477.07 255 490 C262.528 502.905 256.731 517.8 242.459 522.221 L211.517 531.804 C194.171 537.177 194.159 560.86 211.5 566.25 L267 583.5 L267 583 Z M56.079 472.257 C46.4131 487.967 32 513 32 513 C32 513 28.3459 512.67 21.7991 508.592 C9.02469 500.635 6.03704 486.481 15 471 C23.5185 454.815 38.2051 450.966 52.26 459.453 C57.0202 462.327 58.9929 467.521 56.079 472.257 L56.079 472.257 Z " />
<glyph glyph-name="plus" unicode="&#x2b;" horiz-adv-x="631" d="M281 396.5 L281 308.44 C281 274.527 253.473 247 219.56 247 L132 247 C114.337 247 100 232.663 100 215 C100 197.337 114.337 183 132 183 L219.56 183 C253.473 183 281 155.473 281 121.56 L281 34.5 C281 15.457 296.457 0 315.5 0 C334.543 0 350 15.457 350 34.5 L350 121.56 C350 155.473 377.527 183 411.44 183 L499 183 C516.663 183 531 197.337 531 215 C531 232.663 516.663 247 499 247 L411.44 247 C377.527 247 350 274.527 350 308.44 L350 396.5 C350 415.543 334.543 431 315.5 431 C296.457 431 281 415.543 281 396.5 L281 396.5 Z " />
<glyph glyph-name="comma" unicode="&#x2c;" horiz-adv-x="259" d="M175.744 22.9942 C187.08 -38.2617 154.901 -87.0848 102.947 -102.994 C102.947 -102.994 101.691 -101.697 101.691 -101.697 L102.761 -105.551 C102.761 -105.551 101.506 -104.254 101.506 -104.254 C154.969 -91.0941 189 -48.225 189 12 C189 56 176 90 155 106 C147 113 137 117 125 117 C89 117 65 93 65 57 C65 21 89 -3 125 -3 C145.129 -3 161.037 7.19979 169.185 24.6495 C170.552 27.5758 175.156 26.17 175.744 22.9942 L175.744 22.9942 Z " />
<glyph glyph-name="hyphen" unicode="&#x2d;" horiz-adv-x="441" d="M117 202 L324 202 C344.423 202 361 218.577 361 239 C361 259.423 344.423 276 324 276 L117 276 C96.5771 276 80 259.423 80 239 C80 218.577 96.5771 202 117 202 L117 202 Z " />
<glyph glyph-name="period" unicode="&#x2e;" horiz-adv-x="195" d="M125 -5 C163 -5 189 21 189 59 C189 97 163 122 125 122 C87 122 61 97 61 59 C61 21 87 -5 125 -5 L125 -5 Z " />
<glyph glyph-name="slash" unicode="&#x2f;" horiz-adv-x="390" d="M299.059 665.586 L34.9413 -55.5858 C30.307 -68.2398 38.5241 -80 52 -80 C65.4759 -80 82.307 -68.2398 86.9413 -55.5858 L351.059 665.586 C355.693 678.24 347.476 690 334 690 C320.524 690 303.693 678.24 299.059 665.586 L299.059 665.586 Z " />
<glyph glyph-name="zero" unicode="0" horiz-adv-x="531" d="M87 210 C87 309 158 393 265 393 C361 393 443 320 443 210 C443 111 372 27 265 27 C169 27 87 100 87 210 L87 210 Z M44 210 C44 78 146 -10 265 -10 C398 -10 486 91 486 210 C486 342 384 430 265 430 C132 430 44 329 44 210 L44 210 Z " />
<glyph glyph-name="one" unicode="1" horiz-adv-x="276" d="M238 5 C204 5 183 20 183 55 L183 365 C183 400 204 415 238 415 L238 420 L38 420 L38 415 C72 415 93 400 93 365 L93 55 C93 20 72 5 38 5 L38 0 L238 0 L238 5 L238 5 Z " />
<glyph glyph-name="two" unicode="2" horiz-adv-x="555" d="M514 115 L509 109 C496 92 462 80 423 80 L271.185 80 C247.369 80 239.195 112.678 259.695 124.801 C376.047 193.609 455 253.875 455 291 C455 374 384 429 278 429 C161 429 68.7163 359.604 44.7111 254.18 C43.4789 248.768 47.0689 245.143 52.5 244 C57.3313 242.983 63.1633 247.722 64.5007 252.474 C82.85 317.68 148.4 361 232 361 C312 361 365 325 365 270 C365 205 205 105 17 9 C14.0192 7.47787 19.7932 6.9686 22.5 5 L23.0807 4.57771 C25.017 3.16944 24.3617 0.393623 22 -2.22045e-016 C21.4555 -0.0907433 21.5308 -1 22.0828 -1 L406.947 -1 C422.886 -1 450.6 14.3605 459.048 27.8769 L491 79 C491 79 512.5 111 513.5 113 L514 115 Z " />
<glyph glyph-name="three" unicode="3" horiz-adv-x="449" d="M18.5 -223 C19.3403 -228.042 32.2564 -230.629 37.3294 -230.004 C260.702 -202.488 409 -114.25 409 -7 C409 69.725 349.105 128.073 251.776 152.322 C234.774 156.558 231.809 185.922 247.261 194.181 C337.869 242.613 393 288.05 393 326 C393 389 326 431 225 431 C127.5 431 47.1113 370.16 22.7618 279.066 C21.2425 273.383 25.2923 270.927 31 269.5 C36.0976 268.226 41.8638 270.976 43.4337 275.99 C60.9375 331.9 117.7 368 188 368 C253 368 297 338 297 294 C297 253 239 209 148 166 C147.543 165.784 146.157 165.965 145.653 165.93 C142.082 165.682 140.041 164.706 136.98 161.907 C136.576 161.538 132.265 158.794 131.765 158.573 L109.234 148.633 C105.076 146.798 101 140.545 101 136 L101 130.354 C101 128.698 102.519 127.759 104 128.5 C104.097 128.549 104.017 128.722 103.917 128.679 L103.5 128.5 C102.505 128.073 108.451 125.738 109.521 125.566 C232.246 105.842 314 44.1 314 -30 C314 -117.75 200.876 -190.29 30.2384 -211.472 C25.33 -212.082 17.6869 -218.121 18.5 -223 L18.5 -223 Z " />
<glyph glyph-name="four" unicode="4" horiz-adv-x="641" d="M622 34 L631.186 101.056 C631.544 103.672 628.061 107.059 625.484 107.641 C621.125 108.625 622.25 109.75 620 103 C615 83 594 69 567 69 L487.44 69 C453.527 69 426 96.527 426 130.44 L426 441 C426 444.312 423.312 447 420 447 C417.57 447 411.575 444.38 409.924 442.597 L20.4347 21.8706 C18.3968 19.6693 15 10.9998 15 8 C15 3.58424 18.5842 0 23 0 L274.56 0 C308.473 0 336 -27.527 336 -61.44 L336 -175 C336 -199.839 356.161 -220 381 -220 C405.839 -220 426 -199.839 426 -175 L426 -61.44 C426 -27.527 453.527 0 487.44 0 L556 0 C582 0 598.354 -6.43044 601.46 -20.012 C601.925 -22.0472 604.923 -25.2923 607 -25.5 L612 -26 C613 -22 620.5 34 622.5 34 L622 34 Z M186.699 152.167 L253.833 223.112 C285.385 256.455 337 235.906 337 190 L337 130.44 C337 96.527 309.473 69 275.56 69 L222.5 69 C176.594 69 155.147 118.823 186.699 152.167 L186.699 152.167 Z " />
<glyph glyph-name="five" unicode="5" horiz-adv-x="448" d="M361 381 L368 420 L372.743 440.553 C373.38 443.314 371.288 445.507 368.5 445 C367.141 444.753 360.845 439.896 359.992 438.81 C351.836 428.432 332.276 421 309 421 L135.949 421 C109.614 421 81.9469 398.958 76.0623 373.289 L31.3753 178.361 C30.2206 173.325 33.1111 164.403 37 161 C39.9078 158.456 51.7664 154 55.6301 154 L86 154 C238 154 340 101 340 21 C340 -96.975 233.53 -190.234 71.5673 -214.287 C66.9674 -214.97 59.6918 -219.92 60.5 -224.5 C61.3463 -229.296 73.0957 -231.581 77.9158 -230.886 C283.061 -201.281 419 -89.375 419 52 C419 170 289 249 95 249 L88 249 C84.254 249 81.7974 252.155 82.7153 255.787 L92.5 294.5 C98.6415 318.799 125.867 340.175 150.929 340.375 L314.378 341.683 C335.873 341.855 357.203 359.843 361 381 L361 381 Z " />
<glyph glyph-name="six" unicode="6" horiz-adv-x="580" d="M539.095 668.67 C243.878 647.759 49 486.25 49 262 C49 99 148 -10 296 -10 C435 -10 527 79 527 213 C527 317 436 387 300 387 C244.725 387 198.979 371.346 167.815 343.967 C163.635 340.295 155.746 348.261 157.291 353.606 C208.752 531.602 359.85 648.5 566 658 C569.356 658.155 565.062 660.813 564 664 C562.902 667.293 542.557 668.915 539.095 668.67 L539.095 668.67 Z M139 215 C139 316 203 384 299 384 C382 384 438 318 438 219 C438 85 381 -5 296 -5 C202 -5 139 83 139 215 L139 215 Z " />
<glyph glyph-name="seven" unicode="7" horiz-adv-x="450" d="M36.5 321 C38.672 320.035 42.7231 321.733 44.1673 323.62 C55.9524 339.024 76.7353 349 105 349 L391.468 349 C398.643 349 411.573 355.994 415.5 362 C415.926 362.651 417.08 361.969 416.715 361.282 L124.182 -189.531 C116.294 -204.384 125.682 -220 142.5 -220 C160.01 -220 183.677 -204.378 190.56 -188.276 L442.445 401.023 C443 402.32 445 412.09 445 413.5 C445 417.088 442.088 420 438.5 420 L141 420 C115.615 420 103.118 423.58 99.8739 431.951 C99.2998 433.433 95.558 437.688 94 438 L89 439 C88 438 81 420 79 420 L60.5 385 C51.1667 365.4 40.9622 344.058 33.1388 326.665 C32.0188 324.175 34.0051 322.109 36.5 321 L36.5 321 Z " />
<glyph glyph-name="eight" unicode="8" horiz-adv-x="553" d="M215.303 327.303 C227.222 322.222 239.25 317.25 252 313 C366 274 442 239 442 193 C442 73 375 -7 275 -7 C180 -7 117 58 117 155 C117 226.175 150.272 289.745 204.766 327.173 C207.777 329.24 211.944 328.735 215.303 327.303 L215.303 327.303 Z M158.585 311.899 C83.5175 267.668 38 210.25 38 155 C38 56 133 -10 275 -10 C418 -10 513 56 513 156 C513 256.3 463.147 313.973 381.866 356.653 C365.17 365.421 365.337 392.279 381.486 402.019 C447.524 441.847 487 490.625 487 536 C487 623 401 681 273 681 C148 681 64 616 64 519 C64 455.475 100.073 399.777 159.866 358.645 C174.438 348.621 173.824 320.878 158.585 311.899 L158.585 311.899 Z M320.939 384.569 C308.694 389.694 295.714 394.714 282 399 C194 429 136 484 136 552 C136 628 192 679 276 679 C356 679 410 619 410 528 C410 472.9 381.12 420.959 334.506 387.609 C331.462 385.431 324.391 383.123 320.939 384.569 L320.939 384.569 Z " />
<glyph glyph-name="nine" unicode="9" horiz-adv-x="580" d="M40.9053 -248.67 C336.122 -227.759 531 -66.25 531 158 C531 321 432 430 284 430 C145 430 53 341 53 207 C53 103 144 33 280 33 C335.275 33 381.021 48.6544 412.185 76.0325 C416.365 79.7046 424.254 71.739 422.709 66.3942 C371.248 -111.602 220.15 -228.5 14 -238 C10.6444 -238.155 14.9378 -240.813 16 -244 C17.0977 -247.293 37.4427 -248.915 40.9053 -248.67 L40.9053 -248.67 Z M441 205 C441 104 377 36 281 36 C198 36 142 102 142 201 C142 335 199 425 284 425 C378 425 441 337 441 205 L441 205 Z " />
<glyph glyph-name="colon" unicode="&#x3a;" horiz-adv-x="135" d="M125 305 C163 305 189 331 189 369 C189 407 163 432 125 432 C87 432 61 407 61 369 C61 331 87 305 125 305 L125 305 Z M125 -5 C163 -5 189 21 189 59 C189 97 163 122 125 122 C87 122 61 97 61 59 C61 21 87 -5 125 -5 L125 -5 Z " />
<glyph glyph-name="semicolon" unicode="&#x3b;" horiz-adv-x="259" d="M125 305 C163 305 189 331 189 369 C189 407 163 432 125 432 C87 432 61 407 61 369 C61 331 87 305 125 305 L125 305 Z M175.744 22.9942 C187.08 -38.2617 154.901 -87.0848 102.947 -102.994 C102.947 -102.994 101.691 -101.697 101.691 -101.697 L102.761 -105.551 C102.761 -105.551 101.506 -104.254 101.506 -104.254 C154.969 -91.0941 189 -48.225 189 12 C189 56 176 90 155 106 C147 113 137 117 125 117 C89 117 65 93 65 57 C65 21 89 -3 125 -3 C145.129 -3 161.037 7.19979 169.185 24.6495 C170.552 27.5758 175.156 26.17 175.744 22.9942 L175.744 22.9942 Z " />
<glyph glyph-name="equal" unicode="&#x3d;" horiz-adv-x="545" d="M84 160 C84 148.961 92.9606 140 104 140 L455 140 C466.039 140 475 148.961 475 160 C475 171.039 466.039 180 455 180 L104 180 C92.9606 180 84 171.039 84 160 L84 160 Z M84 260 C84 248.961 92.9606 240 104 240 L455 240 C466.039 240 475 248.961 475 260 C475 271.039 466.039 280 455 280 L104 280 C92.9606 280 84 271.039 84 260 L84 260 Z " />
<glyph glyph-name="question" unicode="&#x3f;" horiz-adv-x="299" d="M125 -5 C163 -5 189 21 189 59 C189 97 163 122 125 122 C87 122 61 97 61 59 C61 21 87 -5 125 -5 L125 -5 Z M125 200 L125 274 C125 297.235 146.885 321.645 169.944 324.503 C232.519 332.259 259.6 357.525 286 393 C303 416 315 458 315 497 C315 606 247 679 145 679 C94 679 60 652 60 612 C60 586 80 568 109 568 C130 568 157 584 178 584 C245 584 289 545 289 486 C289 476 279 456 265 437 C249 416 224 402 97 402 C96.5404 402 97.2303 402.111 97.5212 401.755 C104.247 393.532 109 192 109 192 C109 192 112.479 192 117 192 C121.416 192 125 195.584 125 200 L125 200 Z " />
<glyph glyph-name="at" unicode="&#x40;" horiz-adv-x="1180" d="M1052.76 -10.6343 C981.884 -147.691 803.825 -238 602 -238 C316 -238 126 -55 126 219 C126 492 312 674 590 674 C869 674 1055 520 1055 288 C1055 120 982 8 872 8 C773 8 730 85 765 200 L813.769 362.298 C820.235 383.814 805.966 403 783.5 403 L773.423 403 C756.312 403 736.514 388.36 731.5 372 L728.91 363.55 C726.782 356.605 714.657 356.627 710.475 362.566 C688.379 393.942 647.975 413 596 413 C414 413 292 312 292 161 C292 70 365 9 474 9 C540.825 9 601.524 36.225 644.868 82.2523 C652.509 90.3661 673.916 88.9699 677.532 78.4275 C699.09 15.57 761.65 -22 856 -22 C1018 -22 1126 102 1126 289 C1126 536 912 700 591 700 C271 700 57 508 57 220 C57 -63 283 -252 623 -252 C826.775 -252 1008.69 -155.987 1083.46 -10.3036 C1087.03 -3.3575 1081.3 0.751728 1073.5 0.5 C1066.35 0.269514 1056.04 -4.28432 1052.76 -10.6343 L1052.76 -10.6343 Z M707.475 290.466 L681 201 C655 115 592 58 522 58 C444 58 392 106 392 178 C392 304 473 388 594 388 C660.5 388 705.34 355.51 709.658 306.82 C709.867 304.458 708.147 292.74 707.475 290.466 L707.475 290.466 Z " />
<glyph glyph-name="A" unicode="A" horiz-adv-x="708" d="M431.64 0 L703 0 C704.656 0 706 1.34409 706 3 C706 4.65591 704.656 6 703 6 L697 6 C664 6 627 46 605 106 C533 301 462 496 389 690 C388.09 692.418 386.583 690 384 690 C381.821 690 379.434 687.28 379.316 685.104 C378.296 666.292 351.34 650.294 308.498 643.139 C305.457 642.631 301.946 639.398 303 636.5 C303.69 634.603 303.771 627.369 303.124 625.456 L125 99 C104 43 56 6 5 6 L-7 6 C-8.65591 6 -10 4.65591 -10 3 C-10 1.34409 -8.65591 0 -7 0 L199 0 C200.656 0 202 1.34409 202 3 C202 4.65591 200.656 6 199 6 L186 6 C134 6 113 46 133 106 L171.893 221.211 C179.271 243.066 207.039 263 230.106 263 L396.789 263 C419.235 263 447.021 243.458 454.61 222.334 L500 96 C516 42 495 7 446 7 L433.64 7 C431.708 7 429.531 5.35756 429 3.5 C428.469 1.64244 429.708 0 431.64 0 L431.64 0 Z M215.23 349.015 L252.842 460.918 C272.11 518.245 348.327 519.095 368.868 462.212 L409.278 350.308 C424.708 307.577 396.922 268 351.49 268 L273.468 268 C228.751 268 200.983 306.627 215.23 349.015 L215.23 349.015 Z " />
<glyph glyph-name="B" unicode="B" horiz-adv-x="677" d="M334 2 L284 2 C245 2 219 21 219 49 L219 282.56 C219 316.473 246.527 344 280.44 344 L354 344 C454 344 521 276 521 174 C521 35 446 2 334 2 L334 2 Z M60.5255 663.972 C93.0369 663.237 113 648.125 113 614 L113 56 C113 21.875 93.0369 6.7625 60.5255 6.0282 C58.9074 5.99166 58 4.61852 58 3 C58 1.34409 59.3441 0 61 0 L339 0 C518 0 637 33 637 174 C637 259.85 563.305 321.858 445.393 340.985 C440.785 341.732 442.725 357.511 447.253 358.642 C546.744 383.496 608 438.4 608 511 C608 607 551 671 309 671 L61.5 671 C59.5681 671 58 669.432 58 667.5 C58 665.612 58.6377 664.014 60.5255 663.972 L60.5255 663.972 Z M317 348 L268 348 C240.953 348 219 369.953 219 397 L219 626.5 C219 649.407 237.593 668 260.5 668 L302 668 C465 668 503 601 503 500 C503 409 429 348 317 348 L317 348 Z " />
<glyph glyph-name="C" unicode="C" horiz-adv-x="758" d="M713 20 L713 172.5 C713 176.64 709.64 180 705.5 180 C701.672 180 696.602 176.605 695.144 173.065 L691 163 C659 83 529 -6 418 -6 C266 -6 164 130 164 335 C164 540 270 676 428 676 C496 676 546 661 588 635 C632 608 674 558 692 510 L696.282 498.99 C697.68 495.394 702.642 492 706.5 492 C710.64 492 714 495.36 714 499.5 L714 646 C714 648.208 712.208 650 710 650 L708.55 650 C707.067 650 705.829 649.215 705.627 647.746 C704.98 643.041 704.857 637.286 704 633 C701 609 678 607 647 628 C599 661 534 680 427 680 C200 680 48 542 48 335 C48 128 196 -10 417 -10 C505 -10 573 11 632 45 C671 68 700 64 703 35 C704 29 704 22 705 16 C705.272 14.3666 706.385 16 708.041 16 L709 16 C711.208 16 713 17.7921 713 20 L713 20 Z M702 118 L702 118 L702 118 L702 118 Z " />
<glyph glyph-name="D" unicode="D" horiz-adv-x="842" d="M299 3 C227 3 219 20 219 46 L219 610 C219 641.462 244.538 667 276 667 L333 667 C555 667 670 534 670 335 C670 116 522 3 299 3 L299 3 Z M58 665 C92 665 113 650 113 615 L113 55 C113 20 92 5 58 5 L58 0 L303 0 C593 0 787 114 787 335 C787 536 637 670 346 670 L58 670 L58 665 L58 665 Z " />
<glyph glyph-name="E" unicode="E" horiz-adv-x="622" d="M480 244.5 L480 447.5 C480 450.536 477.536 453 474.5 453 C471.523 453 468.505 450.526 467.921 447.607 L464 428 C455 380 418 348 370 348 L280.44 348 C246.527 348 219 375.527 219 409.44 L219 605.56 C219 639.473 246.527 667 280.44 667 L430 667 C478 667 519 635 534 587 L540.324 567.238 C541.205 564.484 544.609 562 547.5 562 C550.509 562 552.746 564.024 552.377 567.011 C549.015 594.185 545.049 628.308 541.584 656.674 C540.509 665.467 532.734 669.507 523.875 669.516 L38 670 L38 665 L50 665 C88 665 113 637 113 595 L113 75 C113 33 88 5 50 5 L38 5 L38 0 L550.786 0.72908 C558.732 0.740377 566.571 6.96531 567.967 14.7878 C572.604 40.7723 578.405 71.5343 582.611 95.7494 C583.123 98.6999 580.495 98 577.5 98 C574.681 98 571.004 95.5105 569.957 92.8934 L566 83 C547 35 493 3 430 3 L265 3 C224 3 219 20 219 46 L219 282.56 C219 316.473 246.527 344 280.44 344 L370 344 C418 344 455 312 464 264 L467.921 244.393 C468.505 241.474 471.523 239 474.5 239 C477.536 239 480 241.464 480 244.5 L480 244.5 Z " />
<glyph glyph-name="F" unicode="F" horiz-adv-x="597" d="M470 244.5 L470 447.5 C470 450.536 467.536 453 464.5 453 C461.523 453 458.505 450.526 457.921 447.607 L454 428 C445 380 408 348 360 348 L280.44 348 C246.527 348 219 375.527 219 409.44 L219 605.56 C219 639.473 246.527 667 280.44 667 L430 667 C478 667 519 635 534 587 L540.324 567.238 C541.205 564.484 544.609 562 547.5 562 C550.509 562 552.746 564.024 552.377 567.011 C549.015 594.185 545.049 628.308 541.584 656.674 C540.509 665.467 532.734 669.507 523.875 669.516 L38 670 L38 665 L50 665 C88 665 113 637 113 595 L113 75 C113 33 88 5 50 5 L38 5 L38 0 L294 0 L294 5 L282 5 C244 5 219 33 219 75 L219 282.56 C219 316.473 246.527 344 280.44 344 L360 344 C408 344 445 312 454 264 L457.921 244.393 C458.505 241.474 461.523 239 464.5 239 C467.536 239 470 241.464 470 244.5 L470 244.5 Z " />
<glyph glyph-name="G" unicode="G" horiz-adv-x="809" d="M714 499.5 L714 646 C714 648.208 712.208 650 710 650 L708.55 650 C707.067 650 705.829 649.215 705.627 647.746 C704.98 643.041 704.857 637.286 704 633 C701 609 678 607 647 628 C599 661 534 680 427 680 C200 680 48 542 48 335 C48 128 198 -10 423 -10 C567.3 -10 666.445 17.0928 760.291 60.1561 C760.326 60.1724 757.509 59.0033 757.473 58.988 C742.499 52.6165 726.342 47.279 709.004 42.3255 C702.024 40.3312 697 45.2034 697 52.4629 L697 199 C697 250 719 284 752 284 L759 284 C760.656 284 762 285.344 762 287 C762 288.656 760.656 290 759 290 L529 290 C527.344 290 526 288.656 526 287 C526 285.344 527.344 284 529 284 L536 284 C569 284 591 250 591 199 C592 199 592 123 592 115 C589 52 529 11 441 11 C275 11 164 141 164 335 C164 540 270 676 428 676 C496 676 546 661 588 635 C632 608 674 558 692 510 L696.282 498.99 C697.68 495.394 702.642 492 706.5 492 C710.64 492 714 495.36 714 499.5 L714 499.5 Z " />
<glyph glyph-name="H" unicode="H" horiz-adv-x="818" d="M759 5 C725 5 704 20 704 55 L704 615 C704 650 725 665 759 665 L759 670 L544 670 L544 665 C578 665 599 650 599 615 L599 407.44 C599 373.527 571.473 346 537.56 346 L316.44 346 C282.527 346 255 373.527 255 407.44 L255 615 C255 650 276 665 310 665 L310 670 L94 670 L94 665 C128 665 149 650 149 615 L149 55 C149 20 128 5 94 5 L94 0 L310 0 L310 5 C276 5 255 20 255 55 L255 280.56 C255 314.473 282.527 342 316.44 342 L537.56 342 C571.473 342 599 314.473 599 280.56 L599 55 C599 20 578 5 544 5 L544 0 L759 0 L759 5 L759 5 Z " />
<glyph glyph-name="I" unicode="I" horiz-adv-x="327" d="M268 5 C234 5 213 20 213 55 L213 615 C213 650 234 665 268 665 L268 670 L52 670 L52 665 C86 665 107 650 107 615 L107 55 C107 20 86 5 52 5 L52 0 L268 0 L268 5 L268 5 Z " />
<glyph glyph-name="J" unicode="J" horiz-adv-x="327" d="M251.395 666.227 L250.992 670.206 C250.992 670.206 251 670 251 670 L52 670 L52 665 C85 665 105 652 107 619 C107 482 106 104 106 -77 C106 -191 35 -213 -17 -213 C-69 -213 -44 -128 -96 -128 C-125 -128 -144 -147 -144 -176 C-144 -202 -94 -219 -20 -219 C78 -219 213 -164 213 123 L213 616 C213 644.875 227.293 661.499 251.387 666.433 C251.387 666.433 251.395 666.227 251.395 666.227 L250.992 670.206 C250.992 670.206 251 670 251 670 L251.395 666.227 Z " />
<glyph glyph-name="K" unicode="K" horiz-adv-x="737" d="M274 670 L58 670 L58 665 C92 665 113 650 113 615 L113 55 C113 20 92 5 58 5 L58 0 L274 0 L274 5 C240 5 219 20 219 55 L219 195 C219 248.723 278.981 272.983 316.329 234.367 L524.888 18.7265 C532.074 11.2965 558.716 0 569.052 0 L733 0 L733 5 C697 5 662 22 631 55 L348.9 353.694 C326.335 377.586 326.837 415.927 350.019 439.221 L516 606 C554 642 602 665 638 665 L650 665 L650 670 L412 670 L412 665 L432 665 C492 665 494 625 437 565 L315.309 436.61 C278.739 398.028 219 421.84 219 475 L219 615 C219 650 240 665 274 665 L274 670 L274 670 Z " />
<glyph glyph-name="L" unicode="L" horiz-adv-x="606" d="M268 670 L52 670 L52 665 C86 665 107 650 107 615 L107 55 C107 20 86 5 52 5 L52 0 L554.5 0 C558.64 0 562 3.36022 562 7.5 L562 9.91507 C562 10.3683 562.683 19.118 562.757 19.5651 C567.343 47.3324 572.657 81.6201 577.243 108.577 C577.743 111.521 575.486 113 572.5 113 C569.681 113 566.004 110.51 564.957 107.893 L561 98 C542 50 488 18 425 18 L259 18 C218 18 213 29 213 46 L213 615 C213 650 234 665 268 665 L268 670 L268 670 Z " />
<glyph glyph-name="M" unicode="M" horiz-adv-x="857" d="M645.355 2.74076 L645.626 -1.25002 C645.626 -1.25002 646.5 0 646.5 0 L846 0 L846 5 C813 5 792 19 790 52 L769 613 C768 648 789 663 822 663 L822 668 L709.299 668 C687.489 668 659.688 648.86 651.905 628.486 L516.143 273.11 C495.459 218.966 426.103 217.135 402.591 270.112 L242.207 631.484 C234.03 649.907 206.205 668 186.049 668 L47 668 L47 663 C73.4 663 94.355 654.152 110.427 634.771 C115.587 628.548 119.696 612.281 119.414 604.202 L100 48 C97 16 77 2 45 2 L45 -3 L191 -3 L191 2 C157 2 136 17 137 52 L144.164 460.321 C144.606 485.519 181.609 488.121 192.205 465.255 C262.63 313.28 333.166 161.416 404.327 10.1769 C407.092 4.29984 417.505 -4 424 -4 C430.667 -4 439.342 1.88411 441.807 8.07875 L569.691 329.443 C591.279 383.692 674.478 368.867 676 310.5 L682.899 45.8663 C682.916 45.2248 682.46 37.8027 682.353 37.1701 C678.646 15.4187 665.395 4.62346 644.481 1.49074 C644.481 1.49074 645.355 2.74076 645.355 2.74076 L645.626 -1.25002 C645.626 -1.25002 646.5 0 646.5 0 L645.355 2.74076 Z " />
<glyph glyph-name="N" unicode="N" horiz-adv-x="740" d="M-4.50142 663.617 C22.4694 659.26 47.075 644.575 71 619 L93.5408 592.195 C98.6891 586.072 107.972 560.533 107.957 552.534 L107 54 C107 19 86 4 52 4 L52 -1 L193 -1 L193 4 C160 4 138 19 138 54 L135.729 424.178 C135.47 466.373 188.509 480.109 215.85 447.97 C339.05 303.145 462.25 158.209 585.45 12.6481 C588.307 9.27201 603.077 -1 607.5 -1 C613.295 -1 618.053 3.70438 618.118 9.49934 L624.96 618.399 C624.964 618.773 625.289 624.039 625.349 624.408 C630.061 653.623 649.842 665 681 665 L681 670 L539 670 L539 665 C573 665 594 650 594 615 L595.516 260.248 C595.686 220.45 543.347 210.144 517.838 240.692 C402.347 379 286.452 517.308 171.156 655.615 C163.161 665.206 143.297 668.816 130.812 668.679 L-5.00103 667.187 C-5.10338 667.186 -4.60247 663.633 -4.50142 663.617 L-4.50142 663.617 Z " />
<glyph glyph-name="O" unicode="O" horiz-adv-x="871" d="M163 335 C163 540 268 676 426 676 C591 676 701 540 701 335 C701 130 588 -6 418 -6 C265 -6 163 130 163 335 L163 335 Z M48 335 C48 128 196 -10 417 -10 C656 -10 816 128 816 335 C816 542 660 680 427 680 C200 680 48 542 48 335 L48 335 Z " />
<glyph glyph-name="P" unicode="P" horiz-adv-x="622" d="M300 5 C266 5 245 20 245 55 L245 277.5 C245 292.127 256.873 304 271.5 304 L298 304 C480 304 602 359 602 481 C602 594 502 670 351 670 L85 670 L85 665 C119 665 140 650 140 615 L140 55 C140 20 119 5 85 5 L85 0 L300 0 L300 5 L300 5 Z M245 352.5 L245 612.5 C245 634.303 262.697 652 284.5 652 L324 652 C431 652 503 590 503 498 C503 379 421 326 298 326 L271.5 326 C256.873 326 245 337.873 245 352.5 L245 352.5 Z " />
<glyph glyph-name="Q" unicode="Q" horiz-adv-x="866" d="M1163.53 -59.9395 C1115.57 -79.75 994.875 -92 847 -92 C652.975 -92 466.555 -59.6788 362.816 -9.866 C361.222 -9.10087 362.2 -6.99482 363.955 -7.2049 C381.244 -9.27435 399.259 -10 418 -10 C657 -10 817 128 817 335 C817 542 661 680 428 680 C201 680 49 542 49 335 C49 193 118 84 233 29 C233.14 28.9332 246.482 20.7498 246.614 20.67 C425.063 -86.7031 659.55 -158 837 -158 C958.175 -158 1084.48 -122.064 1162.9 -66.0203 C1162.94 -65.9884 1163.58 -59.9185 1163.53 -59.9395 L1163.53 -59.9395 Z M165 335 C165 540 270 676 428 676 C593 676 703 540 703 335 C703 129 588 -8 415 -8 C265 -8 165 129 165 335 L165 335 Z " />
<glyph glyph-name="R" unicode="R" horiz-adv-x="760" d="M74.6127 663.595 C98.7069 659.137 113 643.875 113 615 L113 55 C113 20 92 5 58 5 L58 0 L274 0 L274 5 C240 5 219 20 219 55 L219 259.5 C219 289.03 242.97 313 272.5 313 L305.592 313 C314.687 313 331.051 304.717 335.988 297.078 C364.125 253.547 425.375 166.375 505 57 C546 1 555 -1 751 -1 L751 4 C670 4 665 6 628 57 C549.8 164.1 487.495 249.525 451.525 298.536 C444.157 308.575 445.195 322.818 457.282 325.817 C546.096 347.858 600 397.6 600 479 C600 593 492 669 330 669 L74.9995 667.125 C74.9312 667.124 74.5455 663.608 74.6127 663.595 L74.6127 663.595 Z M219 393.5 L219 608 C219 630.079 236.921 648 259 648 L299 648 C409 648 483 589 483 500 C483 388 422 338 330 338 L274.5 338 C243.866 338 219 362.866 219 393.5 L219 393.5 Z " />
<glyph glyph-name="S" unicode="S" horiz-adv-x="562" d="M483 519.016 L483 652 C483 654.208 481.208 656 479 656 L475 656 C474 652 474 646 473 642 C470 624 452 621 427 636 C415.3 643.2 402.79 649.59 389.47 655.17 C389.353 655.219 381.038 659.287 380.926 659.347 C375.407 662.292 369.593 664.569 364.074 667.069 C363.76 667.212 355.803 670.213 355.47 670.305 C326.597 678.293 294.25 681 261 681 C142 681 63 609 63 500 C63 413 132 330 265 281 C379 239 438 190 438 149 C438 57 381 -4 296 -4 C253 -4 210 10 173 35 C133 62 93 119 71 177 L66.7183 188.01 C65.3199 191.606 60.3583 195 56.5 195 C52.3602 195 49 191.64 49 187.5 L49 17 C49 14.7921 50.7921 13 53 13 L53.4645 13 C55.5149 13 57.3585 15.7505 57.5405 17.7929 C58.0494 23.5062 58.2222 29.5556 59 35 C62 65 87 69 121 44 C168 10 230 -10 295 -10 C431 -10 521 65 521 178 C521 263 455 343 327 390 C207 434 145 489 145 539 C145 621 191 676 260 676 C297 676 333 666 365 649 C404 626 441 580 460 528 L464.095 517.471 C465.623 513.542 470.793 510.237 475 510.5 C479.407 510.775 483 514.6 483 519.016 L483 519.016 Z " />
<glyph glyph-name="T" unicode="T" horiz-adv-x="786" d="M710.651 681.907 C692.12 673.24 651.8 670 605 670 L181 670 C132.9 670 92.5006 673.423 74.8395 682.642 C74.076 683.04 67.3613 685 66.5 685 C64.1608 685 61.2732 682.965 60.4865 680.762 L52 657 L57 657 L57 652 C57 650.938 55.4384 643.272 55.0284 642.292 C43.0741 613.713 28.9734 579.382 17.8291 552.423 C16.7578 549.831 18.6955 548 21.5 548 C24.1032 548 28.4904 550.484 29.8297 552.716 L36 563 C66 611 119 643 170 643 L279.56 643 C313.473 643 341 615.473 341 581.56 L341 54 C341 19 320 4 286 4 L286 -1 L502 -1 L502 4 C468 4 447 19 447 54 L447 581.56 C447 615.473 474.527 643 508.44 643 L617 643 C669 643 722 611 751 563 L757.17 552.716 C758.51 550.484 762.897 548 765.5 548 C768.328 548 770.359 549.635 769.321 552.265 C759.077 578.239 745.876 610.856 734.822 638.449 C734.363 639.594 733 647.767 733 649 L733 655 L738 655 C735.462 661.769 731.491 670.686 728.512 678.722 C727.758 680.755 724.466 683.461 722.333 683.849 L721.5 684 C720.198 684.237 711.85 682.468 710.651 681.907 L710.651 681.907 Z " />
<glyph glyph-name="U" unicode="U" horiz-adv-x="721" d="M692 34 L683 32 C655 25 637 40 637 70 L637 643.499 C637 658.126 625.127 670.112 610.5 670.25 L584 670.5 L476 671 L476 666 C510 666 531 651 531 616 L531 202.675 C531 198.516 527.091 181.005 525.095 177.356 C485.485 104.93 404.45 58 318 58 C238 58 184 122 184 218 L184 643.499 C184 658.126 172.127 670.112 157.5 670.25 L131 670.5 L23 671 L23 666 C57 666 78 651 78 616 L78 218 C78 81 157 -10 276 -10 C366.75 -10 452.055 31.5181 503.278 97.1474 C510.135 105.934 531 102.822 531 91.676 L531 26.5 C531 11.8728 542.873 0 557.5 0 L576.436 0 C577.482 0 590.379 1.60677 591.392 1.86455 C622.533 9.78313 662.4 20.675 692 29 L692 34 L692 34 Z " />
<glyph glyph-name="V" unicode="V" horiz-adv-x="748" d="M749 670 L532 670 C530.344 670 529 668.656 529 667 C529 665.344 530.344 664 532 664 L547 664 C604 664 628 628 608 573 L476.442 264.126 C454.491 212.587 389.587 210.786 364.812 261.028 L209 577 C187 630 203 665 252 665 L265 665 C266.656 665 268 666.344 268 668 C268 669.656 266.656 671 265 671 L2 671 C0.34409 671 -1 669.656 -1 668 C-1 666.344 0.34409 665 2 665 L6 665 C29 665 62 627 90 569 C178.725 381.8 267.45 194.6 355.248 6.47314 C357.574 1.48909 367.5 -8 373 -8 C378.521 -8 386.281 -3.01792 388.579 2.00185 L655 584 C681 634 715 666 743 666 L752 666 L749 670 L749 670 Z " />
<glyph glyph-name="W" unicode="W" horiz-adv-x="1100" d="M257.959 670 L25 670 C23.3441 670 22 668.656 22 667 C22 665.404 22.4938 664.02 24.0888 663.962 C51.1 662.986 72.55 642.925 94 601 C185 397 276 194 367 -10 C369.67 -15.9847 373.447 -10 380 -10 C386.544 -10 395.648 -4.11227 398.332 1.85604 L549.785 338.596 C562.641 367.18 600.785 363.644 613.55 335.02 C663.15 223.795 712.75 112.459 762.35 0.498141 C765.109 -5.73004 773.688 -10 780.5 -10 C787.558 -10 796.763 -1.83599 799.025 4.85 C864.351 197.9 929.7 390.95 996 584 C1012 632 1045 664 1078 664 L1084 664 C1085.66 664 1087 665.344 1087 667 C1087 668.656 1085.66 670 1084 670 L872 670 C870.344 670 869 668.656 869 667 C869 665.344 870.344 664 872 664 L902 664 C950 664 971.5 632 956.5 584 L841.312 222.334 C832.333 194.144 794.538 195.688 782.355 222.65 C727.931 343.1 673.625 463.55 620 584 C598 632 616 664 664 664 L678 664 C679.656 664 681 665.344 681 667 C681 668.656 679.656 670 678 670 L421 670 C419.344 670 418 668.656 418 667 C418 665.344 419.344 664 421 664 L426 664 C451 664 482 632 503 584 C519.5 546.05 536.681 508.1 553.419 470.712 C557.525 461.54 558.229 433.617 554.25 424.391 L481.038 254.624 C458.57 202.524 392.065 201.92 368.654 253.604 L219 584 C197 632 209 664 248 664 L256.959 664 C258.615 664 260.228 665.367 260.5 667 C260.772 668.633 259.615 670 257.959 670 L257.959 670 Z " />
<glyph glyph-name="X" unicode="X" horiz-adv-x="759" d="M262 670 L26 670 L26 665 C52 665 76 649 103 616 L300.922 350.941 C316.541 330.024 315.559 294.753 298.8 274.738 L119 60 C88 23 51 5 10 5 L10 0 L207 0 L207 5 L171 5 C140 5 134 24 155 54 L314.911 256.834 C330.937 277.162 360.857 273.678 376.316 252.915 C424.147 188.673 472.41 124 520 60 C545 27 539 5 506 5 L490 5 L490 0 L727 0 L727 5 C701 5 676 22 649 56 L441.848 333.654 C425.078 356.131 427.148 392.131 446.384 412.537 L641 619 C675 651 710 665 750 665 L750 670 L547 670 L547 665 L583 665 C616 665 620 643 593 610 L437.121 417.246 C421.057 397.382 391.472 400.967 376.223 421.462 C329.212 484.641 281.769 547.821 235 611 C210 644 216 666 249 666 L265 666 L262 670 L262 670 Z " />
<glyph glyph-name="Y" unicode="Y" horiz-adv-x="713" d="M254.45 670 L21 670 L21 665 C46 665 68 650 92 619 L313.021 300.806 C316.478 295.829 324 271.815 324 265.755 L324 75 C324 33 299 5 261 5 L249 5 L249 0 L505 0 L505 5 L493 5 C455 5 430 33 430 75 L430 284.77 C430 289.715 436.388 312.493 438.96 316.718 L617.5 610 C640.5 648 674 665 716 665 L716 670 L551 670 L551 665 L588 665 C621 665 630 643 610 610 L459.271 358.234 C443.672 332.177 408.242 335.323 391.214 360.47 C334.936 443.583 277.795 527.128 222 610 C200 643 206 665 239 665 L253.45 665 C254.83 665 256.229 666.147 256.5 667.5 C256.771 668.853 255.83 670 254.45 670 L254.45 670 Z " />
<glyph glyph-name="Z" unicode="Z" horiz-adv-x="648" d="M71.654 551.789 L74 560 C89 608 140 641 203 642 L377.842 644.895 C432.826 645.805 461.077 589.717 427.616 546.078 L31.3891 29.3324 C29.2432 26.5339 25 14.0266 25 10.5 C25 4.70431 29.7043 0 35.5 0 L608.811 0 C613.227 0 617.806 3.68624 618.75 8 L620.5 16 L644.758 120.642 C645.426 123.523 643.457 126 640.5 126 C637.71 126 633.933 123.509 632.833 120.945 L629 112 C609 67 560 36 503 30 L276.89 25.5035 C222.118 24.4143 193.65 79.9273 226.497 123.77 L613.704 640.597 C615.788 643.378 620 656.025 620 659.5 C620 665.296 615.296 670 609.5 670 L84.052 670 C75.7724 670 68.4376 663.251 67.75 655 L66.5 640 C64.6 622.9 62.2488 592.262 58.5889 553.232 C58.2791 549.928 60.6932 546.776 64 546.5 C67.249 546.229 70.7584 548.654 71.654 551.789 L71.654 551.789 Z " />
<glyph glyph-name="bracketleft" unicode="&#x5b;" horiz-adv-x="296" d="M197.44 644 L333 644 C340.176 644 346 649.824 346 657 C346 664.176 340.176 670 333 670 L165.44 670 C131.527 670 104 642.473 104 608.56 L104 -133.56 C104 -167.473 131.527 -195 165.44 -195 L333 -195 C340.176 -195 346 -189.176 346 -182 C346 -174.824 340.176 -169 333 -169 L197.44 -169 C163.527 -169 136 -141.473 136 -107.56 L136 582.56 C136 616.473 163.527 644 197.44 644 L197.44 644 Z " />
<glyph glyph-name="backslash" unicode="&#x5c;" horiz-adv-x="348" d="M34.3178 665.366 L277.682 -55.3664 C282.032 -68.2488 298.403 -80 312 -80 C325.597 -80 334.032 -68.2488 329.682 -55.3664 L86.3178 665.366 C81.9679 678.249 65.597 690 52 690 C38.403 690 29.9679 678.249 34.3178 665.366 L34.3178 665.366 Z " />
<glyph glyph-name="bracketright" unicode="&#x5d;" horiz-adv-x="299" d="M157 582.56 L157 -107.56 C157 -141.473 129.473 -169 95.56 -169 L-40 -169 C-47.1756 -169 -53 -174.824 -53 -182 C-53 -189.176 -47.1756 -195 -40 -195 L127.56 -195 C161.473 -195 189 -167.473 189 -133.56 L189 608.56 C189 642.473 161.473 670 127.56 670 L-40 670 C-47.1756 670 -53 664.176 -53 657 C-53 649.824 -47.1756 644 -40 644 L95.56 644 C129.473 644 157 616.473 157 582.56 L157 582.56 Z " />
<glyph glyph-name="asciicircum" unicode="&#x5e;" horiz-adv-x="353" d="M209 674 C203 684 187 706 177 706 C167 706 151 684 145 674 L29.2022 492.583 C26.9013 488.979 27.7147 483.738 31 481 C34.2922 478.256 39.5373 478.447 42.6222 481.421 L134.352 569.875 C157.877 592.56 196.123 592.56 219.648 569.875 L311.378 481.421 C314.463 478.447 319.708 478.256 323 481 C326.285 483.738 327.099 488.979 324.798 492.583 L209 674 L209 674 Z " />
<glyph glyph-name="underscore" unicode="&#x5f;" horiz-adv-x="480" d="M5 -75 C5 -88.7993 16.2007 -100 30 -100 L450 -100 C463.799 -100 475 -88.7993 475 -75 C475 -61.2007 463.799 -50 450 -50 L30 -50 C16.2007 -50 5 -61.2007 5 -75 L5 -75 Z " />
<glyph glyph-name="grave" unicode="&#x60;" horiz-adv-x="353" d="M-26 665 C-26 657 -1 633 37 602 L173.059 487.02 C176.327 484.259 181.475 484.475 184.5 487.5 C187.504 490.504 187.888 495.828 185.346 499.232 L78 643 C49 683 27 709 19 709 C-5 709 -26 689 -26 665 L-26 665 Z " />
<glyph glyph-name="a" unicode="a" horiz-adv-x="523" d="M529.5 108 C527.779 108.983 525.552 107.364 525.102 105.434 C518.482 77.05 494.4 59 464 59 C432 59 411 71 411 88 C411 88 411 299 410 297 C410 389 352 430 265 430 C144 430 63 334 63 280 C63 242 84 216 116 216 C144 216 163 243 163 262 C163 280 143 303 143 321 C143 358 190 425 260 425 C297 425 321 395 321 329 L321 273.481 C321 245.821 300.413 218.4 273.227 213.3 C88.3481 178.617 43 155.4 43 74 C43 24 90 -10 160 -10 C196.9 -10 243.52 10.25 301.318 62.414 C308.029 68.4708 322.996 63.9764 325.97 55.4395 C338.962 18.1412 375.675 -5 426 -5 C476.7 -5 518.369 36.8275 531.543 101.018 C531.98 103.146 531.385 106.923 529.5 108 L529.5 108 Z M320 152.75 L320 111.289 C320 98.5426 310.773 78.1982 300.413 70.7721 C269.411 48.5497 237.525 38 207 38 C163 38 133 56 133 84 C133 157.425 157.503 182.866 250.867 204.683 C287.456 213.232 320 190.324 320 152.75 L320 152.75 Z " />
<glyph glyph-name="b" unicode="b" horiz-adv-x="564" d="M12.036 642.956 C32.7998 642.047 45 627.031 45 597 L45 0 L50 0 L67.4115 35.3847 C73.6975 48.1594 90.5343 52.8121 101.665 43.9346 C143.925 10.23 203.85 -10 271 -10 C420 -10 519 79 519 213 C519 340 424 425 282 425 C242.4 425 196.674 403.901 158.3 369.563 C150.084 362.212 135 366.866 135 377.89 L135 647.5 C135 659.919 124.919 670 112.5 670 L97.5636 670 C96.4891 670 82.5223 668.103 81.4818 667.834 C58.7902 661.982 31.2571 654.314 10 649 C8.4415 648.61 10 647.606 10 646 C10 644.417 10.4541 643.025 12.036 642.956 L12.036 642.956 Z M135 122.666 L135 309.473 C135 320.613 143.234 342.087 151.489 349.568 C183.898 378.938 222.7 397 255 397 C353 397 418 319 418 202 C418 82 360 2 274 2 C217 2 165.866 40.8075 138.604 101.275 C137.372 104.007 135 119.669 135 122.666 L135 122.666 Z " />
<glyph glyph-name="c" unicode="c" horiz-adv-x="523" d="M469.812 82.9879 C430.1 36.9266 369.05 8 308 8 C207 8 139 99 139 236 C139 351 209 427 314 427 C345 427 381 386 403 325 C413 298 431 280 448 280 C485 280 503 298 493 325 C470 388 399 430 315 430 C153 430 45 337 45 198 C45 73 146 -10 297 -10 C361.6 -10 428.368 26.125 472.123 82.4077 C472.203 82.5107 469.898 83.0866 469.812 82.9879 L469.812 82.9879 Z " />
<glyph glyph-name="d" unicode="d" horiz-adv-x="582" d="M390.036 643.956 C410.8 643.047 423 628.031 423 598 L423 372.856 C423 366.072 411.213 364.37 406.906 369.612 C377.977 404.817 332.85 430 285 430 C127 430 45 342 45 210 C45 81 131 -5 261 -5 C312.15 -5 364.661 16.0994 401.688 49.3139 C408.589 55.5037 423 52.0636 423 42.7938 L423 22.5 C423 10.0807 433.081 0 445.5 0 L461.199 0 C462.19 0 473.075 1.52349 474.027 1.8 C485.731 5.2 499.15 8.6 512.75 12 L567 26 L567 31 L558 29 C530 22 512 37 512 67 L512 646.499 C512 658.918 501.919 669.112 489.5 669.25 L474.91 669.412 C473.772 669.425 459.585 667.632 458.482 667.352 C435.79 661.59 408.257 654.314 387 649 C385.636 648.659 387.224 647.878 387.5 646.5 C387.756 645.219 388.731 644.013 390.036 643.956 L390.036 643.956 Z M422 304.624 L422 95.4391 C422 85.2065 417.61 71.529 409.647 65.102 C383.51 44.005 342.2 31 298 31 C201 31 136 112 136 233 C136 335 190 403 295 403 C352 403 401.78 365.998 419.476 321.143 C420.345 318.942 422 306.99 422 304.624 L422 304.624 Z " />
<glyph glyph-name="e" unicode="e" horiz-adv-x="556" d="M152.631 286 L471.292 286 C504.45 286 521.103 306.41 504.052 334.849 C463.326 402.775 394.15 430 310 430 C151 430 45 363 45 192 C45 71 141 -10 286 -10 C368.45 -10 443.675 27.9312 486.496 86.5982 C486.544 86.6638 488.536 91.0677 488.486 91.0037 C448.952 40.4288 374.45 9 292 9 C201 9 140 97 140 229 C140 246.64 140.706 262.869 142.71 277.686 C143.369 282.56 147.714 286 152.631 286 L152.631 286 Z M373.823 289.814 L195.224 289.179 C163.071 289.064 145.798 305.803 157.941 335.575 C184.404 400.456 238.875 427 309 427 C343.65 427 377.96 401.136 407.437 336.494 C419.641 309.731 403.236 289.919 373.823 289.814 L373.823 289.814 Z " />
<glyph glyph-name="f" unicode="f" horiz-adv-x="349" d="M213 5 L193 5 C184 5 178 11 178 20 L178 310.56 C178 344.473 205.527 372 239.44 372 L315 372 C328.247 372 339 382.753 339 396 C339 409.247 328.247 420 315 420 L239.44 420 C202.377 420 177.112 441.104 180.555 478.007 C190.188 581.252 226.95 647 289 647 C335 647 379 555 417 555 C444 555 462 573 462 600 C462 645 405 675 320 675 C182.3 675 104.54 592.38 90.365 464.319 C88.3985 446.553 66.0685 411.18 49.485 404.51 L1.10279 385.052 C-1.51038 384.001 -4 380.317 -4 377.5 C-4 374.464 -1.53584 372 1.5 372 L42 372 C67.3906 372 88 351.391 88 326 L88 20 C88 11 82 5 73 5 L53 5 L53 0 L213 0 L213 5 L213 5 Z " />
<glyph glyph-name="g" unicode="g" horiz-adv-x="531" d="M553 420 C553 452 530 474 495 474 C462.625 474 427.188 449.5 403.426 411.219 C398.866 403.873 386.24 399.485 378.672 403.665 C347.997 420.607 307.75 430 261 430 C149 430 74 376 74 294 C74 233.775 114.157 188.524 179.31 168.354 C183.205 167.148 183.905 155.747 179.86 155.235 C101.685 145.33 54 120 54 86 C54 48.875 77.8219 19.9175 117.604 5.86569 C123.717 3.70652 124.624 -8.38701 118.706 -11.0361 C72.1775 -31.8675 44 -62.85 44 -96 C44 -177 134 -231 270 -231 C406 -231 496 -165 496 -67 C496 25 443 86 306 86 L184 86 C138 86 107 97 107 113 C107 139 169 157 261 157 C373 157 447 211 447 293 C447 330.925 431.599 362.861 403.962 386.433 C399.827 389.959 398.389 394.715 401.978 398.796 C411.786 409.944 427.04 417 443 417 C465 417 494 381 516 381 C539 381 553.5 397 553.5 420 L553 420 Z M262 161 C204 161 165 214 165 294 C165 374 204 427 262 427 C320 427 358 374 358 294 C358 214 320 161 262 161 L262 161 Z M161.312 -2.488 C167.2 -3 173.6 -3 180 -3 L297 -3 C387 -3 422 -37 422 -88 C422 -171 362 -227 272 -227 C181 -227 120 -166 120 -74 C120 -44.6316 132.565 -18.8532 153.444 -4.31725 C154.48 -3.59627 160.055 -2.37869 161.312 -2.488 L161.312 -2.488 Z " />
<glyph glyph-name="h" unicode="h" horiz-adv-x="547" d="M21.0186 641.824 C40.5742 640.063 52 625.063 52 596 L52 20 C52 11 46 5 37 5 L17 5 L17 0 L177 0 L177 5 L157 5 C148 5 142 11 142 20 L142 283.397 C142 292.9 146.736 309.15 153.332 315.99 C183.328 347.094 237.25 367 295 367 C360 367 393 318 393 245 L393 20 C393 11 387 5 378 5 L358 5 L358 0 L518 0 L518 5 L498 5 C489 5 483 11 483 20 L483 245 C483 356 437 430 347 430 C285.95 430 219.455 395.969 170.537 342.506 C161.886 333.051 142 337.561 142 350.376 L142 647.5 C142 659.919 131.919 670 119.5 670 L103.801 670 C102.799 670 91.8465 668.45 90.8851 668.17 C78.8756 664.661 64.5 660.9 51.75 657.5 L18.9394 648.781 C17.3242 648.352 16.2252 646.649 16.5 645 C16.7436 643.538 19.5427 641.957 21.0186 641.824 L21.0186 641.824 Z " />
<glyph glyph-name="i" unicode="i" horiz-adv-x="216" d="M107 535 C142 535 165 558 165 593 C165 628 142 651 107 651 C72 651 49 628 49 593 C49 558 72 535 107 535 L107 535 Z M31.0186 391.824 C50.5742 390.063 62 375.063 62 346 L62 20 C62 11 56 5 47 5 L27 5 L27 0 L187 0 L187 5 L167 5 C158 5 152 11 152 20 L152 397.5 C152 409.919 141.919 420 129.5 420 L113.801 420 C112.799 420 101.846 418.45 100.885 418.17 C88.8756 414.661 74.5 410.9 61.75 407.5 L28.9394 398.781 C27.3242 398.352 26.2252 396.649 26.5 395 C26.7436 393.538 29.5427 391.957 31.0186 391.824 L31.0186 391.824 Z " />
<glyph glyph-name="j" unicode="j" horiz-adv-x="245" d="M110 536 C145 536 168 559 168 594 C168 629 145 652 110 652 C75 652 52 629 52 594 C52 559 75 536 110 536 L110 536 Z M32.036 392.956 C52.7998 392.047 65 377.031 65 347 L65 53 C65 -23.5 51.995 -85.55 31.5121 -112.27 C21.3086 -125.58 20.6106 -124.296 4.06827 -121.534 C-26.2781 -116.467 -62.0769 -100 -90 -100 C-117 -100 -135 -116 -135 -140 C-135 -169 -111 -187 -75 -185 C-68 -185 -26 -163 30 -130 C105 -87 155 -13 155 53 L155 397.5 C155 409.919 144.919 420 132.5 420 L117.564 420 C116.489 420 102.522 418.103 101.482 417.834 C78.7902 411.982 51.2571 404.314 30 399 C28.4415 398.61 30 397.606 30 396 C30 394.417 30.4541 393.025 32.036 392.956 L32.036 392.956 Z " />
<glyph glyph-name="k" unicode="k" horiz-adv-x="528" d="M513.45 420 L309 420 L309 415 L346 415 C405 415 380 377 285 319 L214 277 C180.27 257.047 143 278.303 143 317.492 L143 647.5 C143 659.919 132.919 670 120.5 670 L104.801 670 C103.799 670 92.8465 668.45 91.8851 668.17 C79.8756 664.661 65.5 660.9 52.75 657.5 L19.8994 648.77 C18.3527 648.359 17 646.6 17 645 C17 643.417 17.4541 642.025 19.036 641.956 C39.7998 641.047 52 626.031 52 596 L52 20 C52 11 46 5 37 5 L17 5 L17 0 L177 0 L177 5 L157 5 C148 5 142 11 142 20 L142 127.5 C142 170.621 188.785 190.775 220.122 161.154 L343 45 C370 19 377 5 355 5 L355 0 L523 0 L523 5 C509 5 485 23 452 55 L277.929 225.22 C250.244 252.292 255.18 293.274 288.5 313 L351 350 C421.2 390.95 474.289 413.838 512.12 414.957 C513.45 414.996 515.239 416.196 515.5 417.5 C515.771 418.853 514.83 420 513.45 420 L513.45 420 Z " />
<glyph glyph-name="l" unicode="l" horiz-adv-x="206" d="M21.0186 641.824 C40.5742 640.063 52 625.063 52 596 L52 20 C52 11 46 5 37 5 L17 5 L17 0 L177 0 L177 5 L157 5 C148 5 142 11 142 20 L142 647.5 C142 659.919 131.919 670 119.5 670 L103.801 670 C102.799 670 91.8465 668.45 90.8851 668.17 C78.8756 664.661 64.5 660.9 51.75 657.5 L18.9394 648.781 C17.3242 648.352 16.2252 646.649 16.5 645 C16.7436 643.538 19.5427 641.957 21.0186 641.824 L21.0186 641.824 Z " />
<glyph glyph-name="m" unicode="m" horiz-adv-x="844" d="M655 0 L815 0 L815 5 L795 5 C786 5 780 11 780 20 L780 245 C780 356 740 430 636 430 C579.575 430 513.738 387.219 466.982 324.608 C466.912 324.516 468.083 323.256 468.168 323.335 C495.257 348.55 544.6 363 599 363 C665 363 690 316 690 245 L690 20 C690 11 684 5 675 5 L655 5 L655 0 L655 0 Z M21.0186 391.824 C40.5742 390.063 52 375.063 52 346 L52 20 C52 11 46 5 37 5 L17 5 L17 0 L177 0 L177 5 L157 5 C148 5 142 11 142 20 L142 288.856 C142 299.229 146.57 314.256 154.036 321.456 C180.635 347.105 228.15 363 280 363 C346 363 371 316 371 245 L371 20 C371 11 365 5 356 5 L336 5 L336 0 L496 0 L496 5 L476 5 C467 5 461 11 461 20 L461 245 C461 356 421 430 317 430 C269.15 430 213.132 397.33 168.601 346.028 C160.462 336.653 142 341.159 142 353.573 L142 397.5 C142 409.919 131.919 420 119.5 420 L103.801 420 C102.799 420 91.8465 418.45 90.8851 418.17 C78.8756 414.661 64.5 410.9 51.75 407.5 L18.9394 398.781 C17.3242 398.352 16.2252 396.649 16.5 395 C16.7436 393.538 19.5427 391.957 21.0186 391.824 L21.0186 391.824 Z " />
<glyph glyph-name="n" unicode="n" horiz-adv-x="525" d="M21.0186 391.824 C40.5742 390.063 52 375.063 52 346 L52 20 C52 11 46 5 37 5 L17 5 L17 0 L177 0 L177 5 L157 5 C148 5 142 11 142 20 L142 273.665 C142 280.869 149.592 303.108 154.031 308.782 C191.93 357.22 245.3 388 293 388 C344 388 371 331 371 245 L371 20 C371 11 365 5 356 5 L336 5 L336 0 L496 0 L496 5 L476 5 C467 5 461 11 461 20 L461 245 C461 356 412 430 317 430 C270.8 430 215.071 395.969 169.467 341.944 C161.09 332.021 142 336.808 142 349.794 L142 397.5 C142 409.919 131.919 420 119.5 420 L103.801 420 C102.799 420 91.8465 418.45 90.8851 418.17 C78.8756 414.661 64.5 410.9 51.75 407.5 L18.9394 398.781 C17.3242 398.352 16.2252 396.649 16.5 395 C16.7436 393.538 19.5427 391.957 21.0186 391.824 L21.0186 391.824 Z " />
<glyph glyph-name="o" unicode="o" horiz-adv-x="626" d="M144 210 C144 340 212 426 313 426 C414 426 482 340 482 210 C482 80 414 -6 313 -6 C212 -6 144 80 144 210 L144 210 Z M45 210 C45 78 152 -10 313 -10 C474 -10 581 78 581 210 C581 342 474 430 313 430 C152 430 45 342 45 210 L45 210 Z " />
<glyph glyph-name="p" unicode="p" horiz-adv-x="561" d="M6.01855 391.824 C25.5742 390.063 37 375.063 37 346 L37 -200 C37 -209 31 -215 22 -215 L2 -215 L2 -220 L162 -220 L162 -215 L142 -215 C133 -215 127 -209 127 -200 L127 9.32997 C127 18.401 138.116 23.279 146.267 19.2983 C177.903 3.84812 215.75 -5 257 -5 C412 -5 516 97 516 217 C516 345 423 430 283 430 C233.7 430 182.955 412.66 145.504 384.735 C137.895 379.062 127 385.009 127 394.5 L127 397.5 C127 409.919 116.919 420 104.5 420 L88.8007 420 C87.7992 420 76.8465 418.45 75.8851 418.17 C63.8756 414.661 49.5 410.9 36.75 407.5 L3.93937 398.781 C2.32418 398.352 1.22525 396.649 1.5 395 C1.74362 393.538 4.54267 391.957 6.01855 391.824 L6.01855 391.824 Z M126 126.164 L126 315.016 C126 326.764 134.634 346.835 143.806 354.174 C173.216 377.707 208.65 392 240 392 C346 392 416 311 416 189 C416 97 354 18 261 18 C201.15 18 149.422 54.1 128.967 108.295 C128.195 110.339 126 123.979 126 126.164 L126 126.164 Z " />
<glyph glyph-name="q" unicode="q" horiz-adv-x="530" d="M516 -215 L506 -215 C497 -215 491 -209 491 -200 L491 420 L486 420 L468.734 385.751 C462.743 373.867 443.321 372.601 432.952 380.944 C394.395 411.963 341.75 430 284 430 C116 430 30 342 30 210 C30 81 119 -5 252 -5 C304.7 -5 353.787 13.0625 386.366 42.4321 C392.317 47.7969 402 42.1023 402 34.0902 L402 -199 C402 -208 396 -214 387 -214 L367 -214 L367 -219 L516.501 -217.125 C516.57 -217.125 516.069 -215 516 -215 L516 -215 Z M402 298.627 L402 106.304 C402 95.5906 395.257 77.4513 387.312 70.2642 C361.919 47.2931 326.3 33 290 33 C191 33 125 114 125 236 C125 340 178 410 280 410 C328.45 410 374.193 373.9 398.365 318.847 C399.516 316.227 402 301.489 402 298.627 L402 298.627 Z " />
<glyph glyph-name="r" unicode="r" horiz-adv-x="411" d="M22.0186 391.824 C41.5742 390.063 53 375.063 53 346 L53 20 C53 11 47 5 38 5 L18 5 L18 0 L178 0 L178 5 L158 5 C149 5 143 11 143 20 L143 300.37 C143 305.27 147.405 322.815 149.942 327.007 C172.64 364.51 211.7 388 254 388 C279 388 295 374 295 353 C295 321 316 300 348 300 C380 300 401 321 401 353 C401 399 359 430 296 430 C243.2 430 193.123 400.733 160.928 353.43 C156.634 347.12 143 349.413 143 357.045 L143 397.5 C143 409.919 132.919 420 120.5 420 L104.801 420 C103.799 420 92.8465 418.45 91.8851 418.17 C79.8756 414.661 65.5 410.9 52.75 407.5 L19.9394 398.781 C18.3242 398.352 17.2252 396.649 17.5 395 C17.7436 393.538 20.5427 391.957 22.0186 391.824 L22.0186 391.824 Z " />
<glyph glyph-name="s" unicode="s" horiz-adv-x="440" d="M63.5 132 C61.5681 132 60 130.432 60 128.5 L60 16 C60 14.3441 61.3441 13 63 13 L66 13 C66 17 67 21 67 25 C69 42 119 16 139 7 L158.244 -0.872459 C158.451 -0.957142 162.935 -2.56352 163.15 -2.62391 C182.571 -8.07015 203.786 -9 225 -9 C325 -9 392 40 392 113 C392 169 342 219 245 245 C165 266 124 306 124 348 C124 396 160 428 213 428 C233 428 252 424 270 417 C304.125 400.425 343.003 356.282 359.755 308.669 C360.262 307.23 362.475 305 364 305 C365.656 305 367 306.344 367 308 L367 410 C367 411.656 365.656 413 364 413 C362.354 413 360.85 411.654 360.669 410.018 L360 404 C359.033 398.2 339.378 401.744 309.163 411.923 C308.908 412.009 304.113 413.896 303.87 414.013 C291.169 420.165 279.796 427.576 267.235 432.468 C265.178 433.269 262.37 432.529 261.5 430.5 C260.705 428.645 257.672 427.463 255.687 427.829 C241.943 430.363 227.381 432 212 432 C120 432 59 386 59 318 C59 257 108 204 204 178 C282 157 322 123 322 89 C322 33 283 -5 224 -5 C204 -5 184 0 165 9 C129.9 25.575 88.1456 74.4713 68.4695 128.81 C67.8642 130.481 65.2778 132 63.5 132 L63.5 132 Z " />
<glyph glyph-name="t" unicode="t" horiz-adv-x="390" d="M321 420 L236.5 420 C208.626 420 186 442.626 186 470.5 L186 518 C186 519.656 184.656 521 183 521 C181.897 521 178.585 519.737 177.762 519.002 L34.7301 391.33 C33.1941 389.959 31 385.059 31 383 C31 380.24 33.2402 378 36 378 L63.5 378 C81.439 378 96 363.439 96 345.5 L96 138 C96 31 153 -10 238 -10 C297.475 -10 353.147 25.1731 378.139 78.8359 C379.431 81.611 377.842 83.8631 375 85 C372.478 86.0088 368.985 84.6658 367.693 82.2765 C351.785 52.855 311.6 33 266 33 C217 33 184 57 184 118 L185.52 311.044 C185.785 344.689 213.312 372 246.958 372 L321 372 C334.247 372 345 382.753 345 396 C345 409.247 334.247 420 321 420 L321 420 Z " />
<glyph glyph-name="u" unicode="u" horiz-adv-x="520" d="M506 24 L506 29 C480 21 461 31 461 67 L461 358.56 C461 392.473 433.473 420 399.56 420 L336 420 L336 415 L356 415 C365 415 371 409 371 400 L371 132.544 C371 126.797 367.53 111.934 364.329 107.161 C341.46 73.06 293.4 52 234 52 C176 52 137 94 137 157 L137 358.56 C137 392.473 109.473 420 75.56 420 L12 420 L12 415 L32 415 C41 415 47 409 47 400 L47 157 C47 57 105 -10 192 -10 C262.125 -10 321.36 22.67 353.421 75.0951 C356.705 80.4651 370 78.8726 370 72.578 L370 22.5 C370 10.0807 380.081 0 392.5 0 L407.165 0 C408.278 0 422.511 1.95929 423.587 2.24205 C449.387 9.01972 481.269 17.7179 505.5 24 L506 24 Z " />
<glyph glyph-name="v" unicode="v" horiz-adv-x="507" d="M488.307 420 L383 420 L383 415 C403 415 408 401 397 369 L339.225 231.269 C317.217 178.802 250.359 177.74 226.695 229.481 L167 360 C167 360 143 415 170 415 L175 415 L175 420 L10 420 L10 415 C33 415 53 396 69 360 L233.572 1.8128 C236.295 -4.11206 245.48 -10 252 -10 C258.532 -10 266.494 -6.71849 269.2 -0.773156 C323.801 119.199 378.425 240.075 434 360 C449.2 394.2 468.01 413.058 489.573 414.858 C490.869 414.966 492.483 416.292 492 417.5 C491.488 418.781 489.687 420 488.307 420 L488.307 420 Z " />
<glyph glyph-name="w" unicode="w" horiz-adv-x="820" d="M184.033 416.517 L183.254 420.44 C183.254 420.44 183.5 420 183.5 420 L27 420 L27 415 C49 415 67 399 83 367 L252.316 2.24506 C255.162 -3.88555 264.741 -10 271.5 -10 C278.239 -10 287.885 -3.88555 290.761 2.20883 L354.075 136.373 C377.955 186.976 442.741 186.375 465.679 135.339 L525.671 1.85747 C528.354 -4.11228 537.455 -10 544 -10 C550.475 -10 559.812 -4.11209 562.602 1.73089 L738 369 C755 400 772 415 794 415 L794 420 L685 420 L685 415 C705 415 710 402 699 372 L599.944 147.025 C592.232 129.51 568.755 131.662 560.969 149.145 C529.381 220.069 497.35 290.875 466 361 C449 398 452 416 474 416 L474 421 L306 421 L306 416 C329 416 347 399 363 365 L383.404 320.366 C388.222 309.826 388.301 280.138 383.538 269.573 L351.5 198.5 C333.263 158.043 281.865 157.642 262.999 197.809 L184 366 C171.571 395 171.5 411.986 183.787 416.957 C183.787 416.957 184.033 416.517 184.033 416.517 L183.254 420.44 C183.254 420.44 183.5 420 183.5 420 L184.033 416.517 Z " />
<glyph glyph-name="x" unicode="x" horiz-adv-x="544" d="M500.959 420 L398 420 L398 415 L403 415 C418 415 411 394 385 363 L338.49 307.988 C313.401 278.313 271.745 279.239 248 310 L204 367 C181 399 177 414 198 414 L198 419 L22 419 L22 414 C46 414 72 395 99 359 L193.211 237.124 C210.515 214.739 208.921 178.61 189.712 157.836 L90 50 C59 20 35 5 13 5 L13 0 L119 0 L119 5 L114 5 C100 5 107 25 132 55 L189.91 122.651 C216.441 153.647 260.223 152.56 285.185 120.287 L338 52 C361 20 365 5 344 5 L344 0 L520 0 L520 5 C496 5 470 24 443 60 L338.814 194.829 C321.494 217.244 323.113 253.385 342.369 274.161 L421 359 C451.4 393.2 478.19 412.057 501.37 413.858 C502.912 413.978 504.754 415.474 504.5 417 C504.228 418.633 502.615 420 500.959 420 L500.959 420 Z " />
<glyph glyph-name="y" unicode="y" horiz-adv-x="545" d="M518.296 416.078 L517.65 420.025 C517.65 420.025 518 420 518 420 L421 420 L421 415 C443 415 448 397 436 360 L391.787 225.818 C374.269 172.655 309.849 165.347 280.869 213.235 L186 370 C169 402 171 416 191 416 L191 421 L26 421 L26 416 C50 416 72 398 94 361 L312.265 -0.129463 C313.075 -1.46894 313.2 -4.60011 312.5 -6 L312.39 -6.21963 C312.313 -6.37453 309.959 -11.7446 309.898 -11.9065 L256 -154 C247 -177 233 -193 229 -193 C207 -193 202 -163 179 -163 C151 -163 133 -181 133 -209 C133 -239 153 -259 184 -259 C211 -259 257 -222 278 -166 C300 -108 322 -51 344 7 C388 125 431 243 475 361 C485.725 390.7 499.853 410.191 517.946 416.103 C517.946 416.103 518.296 416.078 518.296 416.078 L517.65 420.025 C517.65 420.025 518 420 518 420 L518.296 416.078 Z " />
<glyph glyph-name="z" unicode="z" horiz-adv-x="486" d="M66 422 C65 419 62 404 60 404 C60 404 51.8775 374.218 39.9194 328.37 C39.0425 325.009 41.0256 321 44.5 321 L44.8967 321 C47.6566 321 52.9173 323.739 54.5 326 L58 331 C75.55 361.225 113.063 383.845 155.71 390.518 C155.979 390.56 162.021 391.086 162.293 391.094 L247 393.5 C284.308 394.56 303.645 356.142 280.569 326.808 L46.492 29.2525 C44.2764 26.4361 40 14.0834 40 10.5 C40 4.70431 44.7043 0 50.5 0 L432.938 0 C437.354 0 441.452 3.61834 442 8 L443 16 C443 16 447.512 45.7825 452.251 91.6295 C452.619 95.1912 450.081 99 446.5 99 L445.59 99 C442.83 99 438.734 96.4685 437.5 94 L435 89 C420 54 377 30 327 28 L240.5 25.5 C203.691 24.4362 184.542 62.2235 207.166 91.2781 L439.549 389.715 C441.737 392.525 446 404.939 446 408.5 C446 414.296 441.296 419 435.5 419 L108 419 C90 419 77 419.5 76 420.5 L66 422 L66 422 Z " />
<glyph glyph-name="braceleft" unicode="&#x7b;" horiz-adv-x="257" d="M233.493 670 L212 670 C129 670 73 621 73 547 L73 342 C73 304.05 58.0263 279.712 32.5709 272.357 C32.5709 272.357 32.5472 272.094 32.5472 272.094 L32.5946 268.095 C32.5946 268.095 32.5709 267.833 32.5709 267.833 C58.0262 261.079 73 238.825 73 205 L73 -7 C73 -81 129 -130 212 -130 L233.499 -129.463 C234.03 -129.449 234.031 -128.514 233.5 -128.5 L215 -128 C172 -128 143 -80 143 -7 L143 155 C143 211.925 110.33 253.196 58.4664 265.897 C58.4664 265.897 58.4506 272.132 58.4506 272.132 L58.4821 268.133 C58.4821 268.133 58.4664 274.368 58.4664 274.368 C110.33 287.885 143 331.775 143 392 L143 547 C143 620 172 668 215 668 L233.5 668.5 C233.776 668.507 233.769 670 233.493 670 L233.493 670 Z " />
<glyph glyph-name="bar" unicode="&#x7c;" horiz-adv-x="190" d="M60 685 L60 -215 C60 -234.319 75.681 -250 95 -250 C114.319 -250 130 -234.319 130 -215 L130 685 C130 704.319 114.319 720 95 720 C75.681 720 60 704.319 60 685 L60 685 Z " />
<glyph glyph-name="braceright" unicode="&#x7d;" horiz-adv-x="257" d="M23.5 668.5 L42 668 C85 668 114 620 114 547 L114 392 C114 331.775 146.67 287.885 198.534 274.368 C198.534 274.368 198.518 268.133 198.518 268.133 L198.549 272.132 C198.549 272.132 198.534 265.897 198.534 265.897 C146.67 253.196 114 211.925 114 155 L114 -7 C114 -80 85 -128 42 -128 L23.5 -128.5 C22.9691 -128.514 22.97 -129.449 23.501 -129.463 L45 -130 C128 -130 184 -81 184 -7 L184 205 C184 238.825 198.974 261.079 224.429 267.833 C224.429 267.833 224.405 268.095 224.405 268.095 L224.453 272.094 C224.453 272.094 224.429 272.357 224.429 272.357 C198.974 279.712 184 304.05 184 342 L184 547 C184 621 128 670 45 670 L23.5068 670 C23.2308 670 23.2241 668.507 23.5 668.5 L23.5 668.5 Z " />
<glyph glyph-name="asciitilde" unicode="&#x7e;" horiz-adv-x="353" d="M24.3348 287.021 L28.2997 286.492 C28.2997 286.492 27.692 287.295 27.692 287.295 C32.9256 312.665 49.9 329 73 329 C128 329 200 264 255 264 C296.625 264 324.56 306.781 328.516 371.766 C328.516 371.766 329.756 370.708 329.756 370.708 L325.803 371.325 C325.803 371.325 327.043 370.267 327.043 370.267 C320.994 344.335 301.4 328 275 328 C220 328 148 393 93 393 C54.15 393 28.5622 351.074 24.9425 286.218 C24.9425 286.218 24.3348 287.021 24.3348 287.021 L28.2997 286.492 C28.2997 286.492 27.692 287.295 27.692 287.295 L24.3348 287.021 Z " />
<glyph glyph-name="exclamdown" unicode="&#xa1;" horiz-adv-x="250" d="M125 425 C87 425 61 399 61 361 C61 323 87 298 125 298 C163 298 189 323 189 361 C189 399 163 425 125 425 L125 425 Z M125 -255 C168 -255 188 -212 180 -147 C180 -147 135.321 113.471 133.087 234.937 C133.002 239.542 129.105 244 124.5 244 C119.893 244 115.998 239.544 115.915 234.937 C113.729 113.471 70 -147 70 -147 C62 -212 82 -255 125 -255 L125 -255 Z " />
<glyph glyph-name="cent" unicode="&#xa2;" horiz-adv-x="523" d="M284 478.492 L284 462 C284 445.551 268.483 427.887 252.254 425.208 C125.429 404.275 45 318.25 45 198 C45 86.075 126.284 7.51937 252.446 -7.59166 C268.694 -9.53774 284 -26.136 284 -42.5 L284 -59 C284 -67.8315 291.168 -75 300 -75 C308.832 -75 316 -67.8315 316 -59 L316 -42 C316 -27.2025 333.062 -7.04148 347.331 -3.123 C395.649 10.1455 441.271 42.132 473.909 85.2905 C473.96 85.3583 471.647 83.9946 471.592 83.9299 C441.556 48.652 399.247 23.3662 354.001 13.0157 C331.586 7.88807 317 20.5378 317 43.5317 L317 411.468 C317 422.596 320.89 427.813 331.163 423.535 C358.208 412.272 386.3 375 405 324 C415 297 433 279 450 279 C487 279 505 297 495 324 C474.875 379.125 418 418.172 347.822 427.072 C332.265 429.045 317 445.818 317 461.5 L317 477.492 C317 486.6 309.603 494.224 300.5 494.5 C291.397 494.776 284 487.6 284 478.492 L284 478.492 Z M241.787 22.4362 C178.796 53.6444 140 131.05 140 235 C140 320.8 178.796 384.82 241.787 411.899 C268.943 423.573 285 409.081 285 379.522 L285 53.4775 C285 22.8806 269.204 8.85308 241.787 22.4362 L241.787 22.4362 Z " />
<glyph glyph-name="acute" unicode="&#xb4;" horiz-adv-x="353" d="M190.941 487.02 L327 602 C365 635 390 659 390 665 C390 689 369 709 345 709 C339 709 316 683 286 643 L178.654 499.232 C176.112 495.828 176.496 490.504 179.5 487.5 C182.525 484.475 187.673 484.259 190.941 487.02 L190.941 487.02 Z " />
<glyph glyph-name="questiondown" unicode="&#xbf;" horiz-adv-x="299" d="M174 425 C136 425 110 399 110 361 C110 323 136 298 174 298 C212 298 238 323 238 361 C238 399 212 425 174 425 L174 425 Z M174 220 L174 146 C174 122.765 152.115 98.3554 129.056 95.4972 C66.4806 87.7406 39.4 62.475 13 27 C-4 4 -16 -38 -16 -77 C-16 -186 52 -259 154 -259 C205 -259 239 -232 239 -192 C239 -166 219 -148 190 -148 C169 -148 142 -164 121 -164 C54 -164 10 -125 10 -66 C10 -56 20 -36 34 -17 C50 4 75 18 202 18 C202.46 18 201.77 17.8889 201.479 18.2446 C194.753 26.4675 190 228 190 228 C190 228 186.521 228 182 228 C177.584 228 174 224.416 174 220 L174 220 Z " />
<glyph glyph-name="Agrave" unicode="&#xc0;" horiz-adv-x="708" d="M431.64 0 L703 0 C704.656 0 706 1.34409 706 3 C706 4.65591 704.656 6 703 6 L697 6 C664 6 627 46 605 106 C533 301 462 496 389 690 C388.09 692.418 386.583 690 384 690 C381.821 690 379.434 687.28 379.316 685.104 C378.296 666.292 351.34 650.294 308.498 643.139 C305.457 642.631 301.946 639.398 303 636.5 C303.69 634.603 303.771 627.369 303.124 625.456 L125 99 C104 43 56 6 5 6 L-7 6 C-8.65591 6 -10 4.65591 -10 3 C-10 1.34409 -8.65591 0 -7 0 L199 0 C200.656 0 202 1.34409 202 3 C202 4.65591 200.656 6 199 6 L186 6 C134 6 113 46 133 106 L171.893 221.211 C179.271 243.066 207.039 263 230.106 263 L396.789 263 C419.235 263 447.021 243.458 454.61 222.334 L500 96 C516 42 495 7 446 7 L433.64 7 C431.708 7 429.531 5.35756 429 3.5 C428.469 1.64244 429.708 0 431.64 0 L431.64 0 Z M153 916 C153 908 178 884 216 853 L352.059 738.02 C355.327 735.259 360.475 735.475 363.5 738.5 C366.504 741.504 366.888 746.828 364.346 750.232 L257 894 C228 934 206 960 198 960 C174 960 153 940 153 916 L153 916 Z M215.23 349.015 L252.842 460.918 C272.11 518.245 348.327 519.095 368.868 462.212 L409.278 350.308 C424.708 307.577 396.922 268 351.49 268 L273.468 268 C228.751 268 200.983 306.627 215.23 349.015 L215.23 349.015 Z " />
<glyph glyph-name="Aacute" unicode="&#xc1;" horiz-adv-x="708" d="M367.941 737.02 L504 852 C542 885 567 909 567 915 C567 939 546 959 522 959 C516 959 493 933 463 893 L355.654 749.232 C353.112 745.828 353.496 740.504 356.5 737.5 C359.525 734.475 364.673 734.259 367.941 737.02 L367.941 737.02 Z M431.64 0 L703 0 C704.656 0 706 1.34409 706 3 C706 4.65591 704.656 6 703 6 L697 6 C664 6 627 46 605 106 C533 301 462 496 389 690 C388.09 692.418 386.583 690 384 690 C381.821 690 379.434 687.28 379.316 685.104 C378.296 666.292 351.34 650.294 308.498 643.139 C305.457 642.631 301.946 639.398 303 636.5 C303.69 634.603 303.771 627.369 303.124 625.456 L125 99 C104 43 56 6 5 6 L-7 6 C-8.65591 6 -10 4.65591 -10 3 C-10 1.34409 -8.65591 0 -7 0 L199 0 C200.656 0 202 1.34409 202 3 C202 4.65591 200.656 6 199 6 L186 6 C134 6 113 46 133 106 L171.893 221.211 C179.271 243.066 207.039 263 230.106 263 L396.789 263 C419.235 263 447.021 243.458 454.61 222.334 L500 96 C516 42 495 7 446 7 L433.64 7 C431.708 7 429.531 5.35756 429 3.5 C428.469 1.64244 429.708 0 431.64 0 L431.64 0 Z M215.23 349.015 L252.842 460.918 C272.11 518.245 348.327 519.095 368.868 462.212 L409.278 350.308 C424.708 307.577 396.922 268 351.49 268 L273.468 268 C228.751 268 200.983 306.627 215.23 349.015 L215.23 349.015 Z " />
<glyph glyph-name="Acircumflex" unicode="&#xc2;" horiz-adv-x="708" d="M431.64 0 L703 0 C704.656 0 706 1.34409 706 3 C706 4.65591 704.656 6 703 6 L697 6 C664 6 627 46 605 106 C533 301 462 496 389 690 C388.09 692.418 386.583 690 384 690 C381.821 690 379.434 687.28 379.316 685.104 C378.296 666.292 351.34 650.294 308.498 643.139 C305.457 642.631 301.946 639.398 303 636.5 C303.69 634.603 303.771 627.369 303.124 625.456 L125 99 C104 43 56 6 5 6 L-7 6 C-8.65591 6 -10 4.65591 -10 3 C-10 1.34409 -8.65591 0 -7 0 L199 0 C200.656 0 202 1.34409 202 3 C202 4.65591 200.656 6 199 6 L186 6 C134 6 113 46 133 106 L171.893 221.211 C179.271 243.066 207.039 263 230.106 263 L396.789 263 C419.235 263 447.021 243.458 454.61 222.334 L500 96 C516 42 495 7 446 7 L433.64 7 C431.708 7 429.531 5.35756 429 3.5 C428.469 1.64244 429.708 0 431.64 0 L431.64 0 Z M388 925 C382 935 366 957 356 957 C346 957 330 935 324 925 L208.202 743.583 C205.901 739.979 206.715 734.738 210 732 C213.292 729.256 218.537 729.447 221.622 732.421 L313.352 820.875 C336.877 843.56 375.123 843.56 398.648 820.875 L490.378 732.421 C493.463 729.447 498.708 729.256 502 732 C505.285 734.738 506.099 739.979 503.798 743.583 L388 925 L388 925 Z M215.23 349.015 L252.842 460.918 C272.11 518.245 348.327 519.095 368.868 462.212 L409.278 350.308 C424.708 307.577 396.922 268 351.49 268 L273.468 268 C228.751 268 200.983 306.627 215.23 349.015 L215.23 349.015 Z " />
<glyph glyph-name="Atilde" unicode="&#xc3;" horiz-adv-x="708" d="M201.335 807.021 L205.3 806.492 C205.3 806.492 204.692 807.295 204.692 807.295 C209.926 832.665 226.9 849 250 849 C305 849 378 784 433 784 C474.625 784 502.132 826.781 506.024 891.766 C506.024 891.766 507.242 890.705 507.242 890.705 L503.29 891.327 C503.29 891.327 504.508 890.267 504.508 890.267 C498.365 864.335 478.575 848 453 848 C398 848 325 913 270 913 C231.15 913 205.562 871.074 201.943 806.218 C201.943 806.218 201.335 807.021 201.335 807.021 L205.3 806.492 C205.3 806.492 204.692 807.295 204.692 807.295 L201.335 807.021 Z M431.64 0 L703 0 C704.656 0 706 1.34409 706 3 C706 4.65591 704.656 6 703 6 L697 6 C664 6 627 46 605 106 C533 301 462 496 389 690 C388.09 692.418 386.583 690 384 690 C381.821 690 379.434 687.28 379.316 685.104 C378.296 666.292 351.34 650.294 308.498 643.139 C305.457 642.631 301.946 639.398 303 636.5 C303.69 634.603 303.771 627.369 303.124 625.456 L125 99 C104 43 56 6 5 6 L-7 6 C-8.65591 6 -10 4.65591 -10 3 C-10 1.34409 -8.65591 0 -7 0 L199 0 C200.656 0 202 1.34409 202 3 C202 4.65591 200.656 6 199 6 L186 6 C134 6 113 46 133 106 L171.893 221.211 C179.271 243.066 207.039 263 230.106 263 L396.789 263 C419.235 263 447.021 243.458 454.61 222.334 L500 96 C516 42 495 7 446 7 L433.64 7 C431.708 7 429.531 5.35756 429 3.5 C428.469 1.64244 429.708 0 431.64 0 L431.64 0 Z M215.23 349.015 L252.842 460.918 C272.11 518.245 348.327 519.095 368.868 462.212 L409.278 350.308 C424.708 307.577 396.922 268 351.49 268 L273.468 268 C228.751 268 200.983 306.627 215.23 349.015 L215.23 349.015 Z " />
<glyph glyph-name="Adieresis" unicode="&#xc4;" horiz-adv-x="708" d="M431 785 C466 785 489 808 489 843 C489 878 466 901 431 901 C396 901 373 878 373 843 C373 808 396 785 431 785 L431 785 Z M277 785 C312 785 335 808 335 843 C335 878 312 901 277 901 C242 901 219 878 219 843 C219 808 242 785 277 785 L277 785 Z M431.64 0 L703 0 C704.656 0 706 1.34409 706 3 C706 4.65591 704.656 6 703 6 L697 6 C664 6 627 46 605 106 C533 301 462 496 389 690 C388.09 692.418 386.583 690 384 690 C381.821 690 379.434 687.28 379.316 685.104 C378.296 666.292 351.34 650.294 308.498 643.139 C305.457 642.631 301.946 639.398 303 636.5 C303.69 634.603 303.771 627.369 303.124 625.456 L125 99 C104 43 56 6 5 6 L-7 6 C-8.65591 6 -10 4.65591 -10 3 C-10 1.34409 -8.65591 0 -7 0 L199 0 C200.656 0 202 1.34409 202 3 C202 4.65591 200.656 6 199 6 L186 6 C134 6 113 46 133 106 L171.893 221.211 C179.271 243.066 207.039 263 230.106 263 L396.789 263 C419.235 263 447.021 243.458 454.61 222.334 L500 96 C516 42 495 7 446 7 L433.64 7 C431.708 7 429.531 5.35756 429 3.5 C428.469 1.64244 429.708 0 431.64 0 L431.64 0 Z M215.23 349.015 L252.842 460.918 C272.11 518.245 348.327 519.095 368.868 462.212 L409.278 350.308 C424.708 307.577 396.922 268 351.49 268 L273.468 268 C228.751 268 200.983 306.627 215.23 349.015 L215.23 349.015 Z " />
<glyph glyph-name="Aring" unicode="&#xc5;" horiz-adv-x="708" d="M283 825 C283 869 311 899 354 899 C397 899 425 869 425 825 C425 785 392 751 354 751 C316 751 283 785 283 825 L283 825 Z M256 825 C256 774 301 730 354 730 C407 730 452 774 452 825 C452 882 413 920 354 920 C295 920 256 882 256 825 L256 825 Z M431.64 0 L703 0 C704.656 0 706 1.34409 706 3 C706 4.65591 704.656 6 703 6 L697 6 C664 6 627 46 605 106 C533 301 462 496 389 690 C388.09 692.418 386.583 690 384 690 C381.821 690 379.434 687.28 379.316 685.104 C378.296 666.292 351.34 650.294 308.498 643.139 C305.457 642.631 301.946 639.398 303 636.5 C303.69 634.603 303.771 627.369 303.124 625.456 L125 99 C104 43 56 6 5 6 L-7 6 C-8.65591 6 -10 4.65591 -10 3 C-10 1.34409 -8.65591 0 -7 0 L199 0 C200.656 0 202 1.34409 202 3 C202 4.65591 200.656 6 199 6 L186 6 C134 6 113 46 133 106 L171.893 221.211 C179.271 243.066 207.039 263 230.106 263 L396.789 263 C419.235 263 447.021 243.458 454.61 222.334 L500 96 C516 42 495 7 446 7 L433.64 7 C431.708 7 429.531 5.35756 429 3.5 C428.469 1.64244 429.708 0 431.64 0 L431.64 0 Z M215.23 349.015 L252.842 460.918 C272.11 518.245 348.327 519.095 368.868 462.212 L409.278 350.308 C424.708 307.577 396.922 268 351.49 268 L273.468 268 C228.751 268 200.983 306.627 215.23 349.015 L215.23 349.015 Z " />
<glyph glyph-name="Egrave" unicode="&#xc8;" horiz-adv-x="622" d="M122 915 C122 907 147 883 185 852 L322.042 737 C325.318 734.251 330.476 734.476 333.5 737.5 C336.506 740.506 336.878 745.817 334.32 749.213 L226 893 C197 933 174 959 167 959 C143 959 122 939 122 915 L122 915 Z M480 244.5 L480 447.5 C480 450.536 477.536 453 474.5 453 C471.523 453 468.505 450.526 467.921 447.607 L464 428 C455 380 418 348 370 348 L280.44 348 C246.527 348 219 375.527 219 409.44 L219 605.56 C219 639.473 246.527 667 280.44 667 L430 667 C478 667 519 635 534 587 L540.324 567.238 C541.205 564.484 544.609 562 547.5 562 C550.509 562 552.746 564.024 552.377 567.011 C549.015 594.185 545.049 628.308 541.584 656.674 C540.509 665.467 532.734 669.507 523.875 669.516 L38 670 L38 665 L50 665 C88 665 113 637 113 595 L113 75 C113 33 88 5 50 5 L38 5 L38 0 L550.786 0.72908 C558.732 0.740377 566.571 6.96531 567.967 14.7878 C572.604 40.7723 578.405 71.5343 582.611 95.7494 C583.123 98.6999 580.495 98 577.5 98 C574.681 98 571.004 95.5105 569.957 92.8934 L566 83 C547 35 493 3 430 3 L265 3 C224 3 219 20 219 46 L219 282.56 C219 316.473 246.527 344 280.44 344 L370 344 C418 344 455 312 464 264 L467.921 244.393 C468.505 241.474 471.523 239 474.5 239 C477.536 239 480 241.464 480 244.5 L480 244.5 Z " />
<glyph glyph-name="Eacute" unicode="&#xc9;" horiz-adv-x="622" d="M338.958 737 L476 852 C514 884 539 908 539 915 C539 939 518 959 494 959 C488 959 465 933 435 893 L326.68 749.213 C324.122 745.817 324.494 740.506 327.5 737.5 C330.524 734.476 335.682 734.251 338.958 737 L338.958 737 Z M480 244.5 L480 447.5 C480 450.536 477.536 453 474.5 453 C471.523 453 468.505 450.526 467.921 447.607 L464 428 C455 380 418 348 370 348 L280.44 348 C246.527 348 219 375.527 219 409.44 L219 605.56 C219 639.473 246.527 667 280.44 667 L430 667 C478 667 519 635 534 587 L540.324 567.238 C541.205 564.484 544.609 562 547.5 562 C550.509 562 552.746 564.024 552.377 567.011 C549.015 594.185 545.049 628.308 541.584 656.674 C540.509 665.467 532.734 669.507 523.875 669.516 L38 670 L38 665 L50 665 C88 665 113 637 113 595 L113 75 C113 33 88 5 50 5 L38 5 L38 0 L550.786 0.72908 C558.732 0.740377 566.571 6.96531 567.967 14.7878 C572.604 40.7723 578.405 71.5343 582.611 95.7494 C583.123 98.6999 580.495 98 577.5 98 C574.681 98 571.004 95.5105 569.957 92.8934 L566 83 C547 35 493 3 430 3 L265 3 C224 3 219 20 219 46 L219 282.56 C219 316.473 246.527 344 280.44 344 L370 344 C418 344 455 312 464 264 L467.921 244.393 C468.505 241.474 471.523 239 474.5 239 C477.536 239 480 241.464 480 244.5 L480 244.5 Z " />
<glyph glyph-name="Ecircumflex" unicode="&#xca;" horiz-adv-x="622" d="M357 924 C351 934 335 956 326 956 C316 956 300 934 294 924 L177.227 742.568 C174.911 738.97 175.713 733.739 179 731 C182.292 728.256 187.537 728.447 190.621 731.422 L283.347 820.859 C306.875 843.553 345.125 843.553 368.653 820.859 L461.379 731.422 C464.463 728.447 469.708 728.256 473 731 C476.288 733.74 477.079 738.961 474.748 742.552 L357 924 L357 924 Z M481 244.5 L481 447.5 C481 450.536 478.536 453 475.5 453 C472.523 453 469.505 450.526 468.921 447.607 L465 428 C456 380 419 348 371 348 L281.44 348 C247.527 348 220 375.527 220 409.44 L220 605.56 C220 639.473 247.527 667 281.44 667 L431 667 C479 667 520 635 535 587 L541.324 567.238 C542.205 564.484 545.609 562 548.5 562 C551.509 562 553.746 564.024 553.377 567.011 C550.015 594.185 546.049 628.308 542.584 656.674 C541.509 665.467 533.734 669.507 524.875 669.516 L39 670 L39 665 L51 665 C89 665 114 637 114 595 L114 75 C114 33 89 5 51 5 L39 5 L39 0 L551.786 0.72908 C559.732 0.740377 567.571 6.96531 568.967 14.7878 C573.604 40.7723 579.405 71.5343 583.611 95.7494 C584.123 98.6999 581.495 98 578.5 98 C575.681 98 572.004 95.5105 570.957 92.8934 L567 83 C548 35 494 3 431 3 L266 3 C225 3 220 20 220 46 L220 282.56 C220 316.473 247.527 344 281.44 344 L371 344 C419 344 456 312 465 264 L468.921 244.393 C469.505 241.474 472.523 239 475.5 239 C478.536 239 481 241.464 481 244.5 L481 244.5 Z " />
<glyph glyph-name="Edieresis" unicode="&#xcb;" horiz-adv-x="622" d="M402 785 C437 785 460 808 460 843 C460 878 437 901 402 901 C367 901 344 878 344 843 C344 808 367 785 402 785 L402 785 Z M249 785 C284 785 307 808 307 843 C307 878 284 901 249 901 C214 901 191 878 191 843 C191 808 214 785 249 785 L249 785 Z M480 244.5 L480 447.5 C480 450.536 477.536 453 474.5 453 C471.523 453 468.505 450.526 467.921 447.607 L464 428 C455 380 418 348 370 348 L280.44 348 C246.527 348 219 375.527 219 409.44 L219 605.56 C219 639.473 246.527 667 280.44 667 L430 667 C478 667 519 635 534 587 L540.324 567.238 C541.205 564.484 544.609 562 547.5 562 C550.509 562 552.746 564.024 552.377 567.011 C549.015 594.185 545.049 628.308 541.584 656.674 C540.509 665.467 532.734 669.507 523.875 669.516 L38 670 L38 665 L50 665 C88 665 113 637 113 595 L113 75 C113 33 88 5 50 5 L38 5 L38 0 L550.786 0.72908 C558.732 0.740377 566.571 6.96531 567.967 14.7878 C572.604 40.7723 578.405 71.5343 582.611 95.7494 C583.123 98.6999 580.495 98 577.5 98 C574.681 98 571.004 95.5105 569.957 92.8934 L566 83 C547 35 493 3 430 3 L265 3 C224 3 219 20 219 46 L219 282.56 C219 316.473 246.527 344 280.44 344 L370 344 C418 344 455 312 464 264 L467.921 244.393 C468.505 241.474 471.523 239 474.5 239 C477.536 239 480 241.464 480 244.5 L480 244.5 Z " />
<glyph glyph-name="Igrave" unicode="&#xcc;" horiz-adv-x="327" d="M-43 915 C-43 907 -18 883 20 852 L156.059 737.02 C159.327 734.259 164.475 734.475 167.5 737.5 C170.504 740.504 170.888 745.828 168.346 749.232 L61 893 C32 933 10 959 2 959 C-22 959 -43 939 -43 915 L-43 915 Z M268 5 C234 5 213 20 213 55 L213 615 C213 650 234 665 268 665 L268 670 L52 670 L52 665 C86 665 107 650 107 615 L107 55 C107 20 86 5 52 5 L52 0 L268 0 L268 5 L268 5 Z " />
<glyph glyph-name="Iacute" unicode="&#xcd;" horiz-adv-x="327" d="M173.941 737.02 L310 852 C348 885 373 909 373 915 C373 939 352 959 328 959 C322 959 299 933 269 893 L161.654 749.232 C159.112 745.828 159.496 740.504 162.5 737.5 C165.525 734.475 170.673 734.259 173.941 737.02 L173.941 737.02 Z M268 5 C234 5 213 20 213 55 L213 615 C213 650 234 665 268 665 L268 670 L52 670 L52 665 C86 665 107 650 107 615 L107 55 C107 20 86 5 52 5 L52 0 L268 0 L268 5 L268 5 Z " />
<glyph glyph-name="Icircumflex" unicode="&#xce;" horiz-adv-x="327" d="M192 924 C186 934 170 956 160 956 C150 956 134 934 128 924 L12.2022 742.583 C9.90128 738.979 10.7147 733.738 14 731 C17.2922 728.256 22.5373 728.447 25.6222 731.421 L117.352 819.875 C140.877 842.56 179.123 842.56 202.648 819.875 L294.378 731.421 C297.463 728.447 302.708 728.256 306 731 C309.285 733.738 310.099 738.979 307.798 742.583 L192 924 L192 924 Z M268 5 C234 5 213 20 213 55 L213 615 C213 650 234 665 268 665 L268 670 L52 670 L52 665 C86 665 107 650 107 615 L107 55 C107 20 86 5 52 5 L52 0 L268 0 L268 5 L268 5 Z " />
<glyph glyph-name="Idieresis" unicode="&#xcf;" horiz-adv-x="327" d="M237 785 C272 785 295 808 295 843 C295 878 272 901 237 901 C202 901 179 878 179 843 C179 808 202 785 237 785 L237 785 Z M83 785 C118 785 141 808 141 843 C141 878 118 901 83 901 C48 901 25 878 25 843 C25 808 48 785 83 785 L83 785 Z M268 5 C234 5 213 20 213 55 L213 615 C213 650 234 665 268 665 L268 670 L52 670 L52 665 C86 665 107 650 107 615 L107 55 C107 20 86 5 52 5 L52 0 L268 0 L268 5 L268 5 Z " />
<glyph glyph-name="Ntilde" unicode="&#xd1;" horiz-adv-x="740" d="M213.589 807.023 L217.553 806.49 C217.553 806.49 216.692 807.295 216.692 807.295 C221.926 832.665 238.9 849 262 849 C317 849 390 784 445 784 C486.625 784 514.56 826.781 518.516 891.766 C518.516 891.766 519.756 890.708 519.756 890.708 L515.803 891.325 C515.803 891.325 517.043 890.267 517.043 890.267 C510.994 864.335 491.4 848 465 848 C410 848 338 913 283 913 C244.15 913 218.134 871.074 214.451 806.218 C214.451 806.218 213.589 807.023 213.589 807.023 L217.553 806.49 C217.553 806.49 216.692 807.295 216.692 807.295 L213.589 807.023 Z M-4.50142 663.617 C22.4694 659.26 47.075 644.575 71 619 L93.5408 592.195 C98.6891 586.072 107.972 560.533 107.957 552.534 L107 54 C107 19 86 4 52 4 L52 -1 L193 -1 L193 4 C160 4 138 19 138 54 L135.729 424.178 C135.47 466.373 188.509 480.109 215.85 447.97 C339.05 303.145 462.25 158.209 585.45 12.6481 C588.307 9.27201 603.077 -1 607.5 -1 C613.295 -1 618.053 3.70438 618.118 9.49934 L624.96 618.399 C624.964 618.773 625.289 624.039 625.349 624.408 C630.061 653.623 649.842 665 681 665 L681 670 L539 670 L539 665 C573 665 594 650 594 615 L595.516 260.248 C595.686 220.45 543.347 210.144 517.838 240.692 C402.347 379 286.452 517.308 171.156 655.615 C163.161 665.206 143.297 668.816 130.812 668.679 L-5.00103 667.187 C-5.10338 667.186 -4.60247 663.633 -4.50142 663.617 L-4.50142 663.617 Z " />
<glyph glyph-name="Ograve" unicode="&#xd2;" horiz-adv-x="871" d="M163 335 C163 540 268 676 426 676 C591 676 701 540 701 335 C701 130 588 -6 418 -6 C265 -6 163 130 163 335 L163 335 Z M48 335 C48 128 196 -10 417 -10 C656 -10 816 128 816 335 C816 542 660 680 427 680 C200 680 48 542 48 335 L48 335 Z M224 915 C224 907 249 883 287 852 L423.059 737.02 C426.327 734.259 431.475 734.475 434.5 737.5 C437.504 740.504 437.888 745.828 435.346 749.232 L328 893 C299 933 277 959 269 959 C245 959 224 939 224 915 L224 915 Z " />
<glyph glyph-name="Oacute" unicode="&#xd3;" horiz-adv-x="871" d="M440.941 737.02 L577 852 C615 885 640 909 640 915 C640 939 619 959 595 959 C589 959 566 933 536 893 L428.654 749.232 C426.112 745.828 426.496 740.504 429.5 737.5 C432.525 734.475 437.673 734.259 440.941 737.02 L440.941 737.02 Z M163 335 C163 540 268 676 426 676 C591 676 701 540 701 335 C701 130 588 -6 418 -6 C265 -6 163 130 163 335 L163 335 Z M48 335 C48 128 196 -10 417 -10 C656 -10 816 128 816 335 C816 542 660 680 427 680 C200 680 48 542 48 335 L48 335 Z " />
<glyph glyph-name="Ocircumflex" unicode="&#xd4;" horiz-adv-x="871" d="M163 335 C163 540 268 676 426 676 C591 676 701 540 701 335 C701 130 588 -6 418 -6 C265 -6 163 130 163 335 L163 335 Z M48 335 C48 128 196 -10 417 -10 C656 -10 816 128 816 335 C816 542 660 680 427 680 C200 680 48 542 48 335 L48 335 Z M459 924 C453 934 437 956 427 956 C417 956 401 934 395 924 L279.202 742.583 C276.901 738.979 277.715 733.738 281 731 C284.292 728.256 289.537 728.447 292.622 731.421 L384.352 819.875 C407.877 842.56 446.123 842.56 469.648 819.875 L561.378 731.421 C564.463 728.447 569.708 728.256 573 731 C576.285 733.738 577.099 738.979 574.798 742.583 L459 924 L459 924 Z " />
<glyph glyph-name="Otilde" unicode="&#xd5;" horiz-adv-x="871" d="M274.335 807.021 L278.3 806.492 C278.3 806.492 277.692 807.295 277.692 807.295 C282.926 832.665 299.9 849 323 849 C378 849 451 784 506 784 C547.625 784 575.132 826.781 579.024 891.766 C579.024 891.766 580.242 890.705 580.242 890.705 L576.29 891.327 C576.29 891.327 577.508 890.267 577.508 890.267 C571.365 864.335 551.575 848 526 848 C471 848 398 913 343 913 C304.15 913 278.562 871.074 274.943 806.218 C274.943 806.218 274.335 807.021 274.335 807.021 L278.3 806.492 C278.3 806.492 277.692 807.295 277.692 807.295 L274.335 807.021 Z M163 335 C163 540 268 676 426 676 C591 676 701 540 701 335 C701 130 588 -6 418 -6 C265 -6 163 130 163 335 L163 335 Z M48 335 C48 128 196 -10 417 -10 C656 -10 816 128 816 335 C816 542 660 680 427 680 C200 680 48 542 48 335 L48 335 Z " />
<glyph glyph-name="Odieresis" unicode="&#xd6;" horiz-adv-x="871" d="M504 785 C539 785 562 808 562 843 C562 878 539 901 504 901 C469 901 446 878 446 843 C446 808 469 785 504 785 L504 785 Z M350 785 C385 785 408 808 408 843 C408 878 385 901 350 901 C315 901 292 878 292 843 C292 808 315 785 350 785 L350 785 Z M163 335 C163 540 268 676 426 676 C591 676 701 540 701 335 C701 130 588 -6 418 -6 C265 -6 163 130 163 335 L163 335 Z M48 335 C48 128 196 -10 417 -10 C656 -10 816 128 816 335 C816 542 660 680 427 680 C200 680 48 542 48 335 L48 335 Z " />
<glyph glyph-name="Oslash" unicode="&#xd8;" horiz-adv-x="871" d="M50.0693 -12.9382 C51.5458 -11.6207 76.5903 10.7368 121.619 51.5743 C136.364 64.9469 173.49 63.9694 190.027 52.8897 C250.371 12.4606 327.9 -10 417 -10 C656 -10 816 128 816 335 C816 419.15 790.136 491.729 744.024 548.246 C730.634 564.657 729.283 597.802 744.915 612.093 L814.339 675.567 C815.791 676.894 816.091 679.363 815 681 C813.907 682.64 811.778 682.914 810.305 681.605 L738.644 617.906 C723.205 604.182 684.076 605.467 666.695 616.63 C602.499 657.859 519.875 681 425 681 C198 681 46 543 46 336 C46 251.025 71.1831 177.621 115.934 120.841 C128.774 104.549 130.122 71.8843 114.7 58.0128 C68.5025 16.4606 44 -6 44 -6 C44 -6 45.288 -7.50264 47 -9.5 C48.656 -11.432 48.1707 -14.6323 50.0693 -12.9382 L50.0693 -12.9382 Z M610.055 502.279 C453.812 361.793 322.946 244.41 226.671 158.112 C213.848 146.618 195.149 149.552 188.944 165.615 C170.209 214.106 160 271.65 160 336 C160 541 265 677 423 677 C506.325 677 575.697 642.288 623.817 581.849 C643.675 556.907 633.762 523.595 610.055 502.279 L610.055 502.279 Z M667.495 504.472 C686.791 456.244 697 399.525 697 336 C697 131 584 -5 414 -5 C337.275 -5 273.482 29.0312 228.797 88.671 C210.245 113.432 213.216 139.156 236.256 159.807 C334.567 247.927 467.269 366.897 625.764 508.734 C638.787 520.388 661.003 520.697 667.495 504.472 L667.495 504.472 Z " />
<glyph glyph-name="Ugrave" unicode="&#xd9;" horiz-adv-x="721" d="M154 916 C154 908 179 884 217 853 L354.042 738 C357.318 735.251 362.476 735.476 365.5 738.5 C368.506 741.506 368.878 746.817 366.32 750.213 L258 894 C229 934 206 960 199 960 C175 960 154 940 154 916 L154 916 Z M692 34 L683 32 C655 25 637 40 637 70 L637 643.499 C637 658.126 625.127 670.112 610.5 670.25 L584 670.5 L476 671 L476 666 C510 666 531 651 531 616 L531 202.675 C531 198.516 527.091 181.005 525.095 177.356 C485.485 104.93 404.45 58 318 58 C238 58 184 122 184 218 L184 643.499 C184 658.126 172.127 670.112 157.5 670.25 L131 670.5 L23 671 L23 666 C57 666 78 651 78 616 L78 218 C78 81 157 -10 276 -10 C366.75 -10 452.055 31.5181 503.278 97.1474 C510.135 105.934 531 102.822 531 91.676 L531 26.5 C531 11.8728 542.873 0 557.5 0 L576.436 0 C577.482 0 590.379 1.60677 591.392 1.86455 C622.533 9.78313 662.4 20.675 692 29 L692 34 L692 34 Z " />
<glyph glyph-name="Uacute" unicode="&#xda;" horiz-adv-x="721" d="M370.958 738 L508 853 C546 885 571 909 571 916 C571 940 550 960 526 960 C520 960 497 934 467 894 L358.68 750.213 C356.122 746.817 356.494 741.506 359.5 738.5 C362.524 735.476 367.682 735.251 370.958 738 L370.958 738 Z M692 34 L683 32 C655 25 637 40 637 70 L637 643.499 C637 658.126 625.127 670.112 610.5 670.25 L584 670.5 L476 671 L476 666 C510 666 531 651 531 616 L531 202.675 C531 198.516 527.091 181.005 525.095 177.356 C485.485 104.93 404.45 58 318 58 C238 58 184 122 184 218 L184 643.499 C184 658.126 172.127 670.112 157.5 670.25 L131 670.5 L23 671 L23 666 C57 666 78 651 78 616 L78 218 C78 81 157 -10 276 -10 C366.75 -10 452.055 31.5181 503.278 97.1474 C510.135 105.934 531 102.822 531 91.676 L531 26.5 C531 11.8728 542.873 0 557.5 0 L576.436 0 C577.482 0 590.379 1.60677 591.392 1.86455 C622.533 9.78313 662.4 20.675 692 29 L692 34 L692 34 Z " />
<glyph glyph-name="Ucircumflex" unicode="&#xdb;" horiz-adv-x="721" d="M389 925 C383 935 367 957 358 957 C348 957 332 935 326 925 L209.227 743.568 C206.911 739.97 207.713 734.739 211 732 C214.292 729.256 219.537 729.447 222.621 732.422 L315.347 821.859 C338.875 844.553 377.125 844.553 400.653 821.859 L493.379 732.422 C496.463 729.447 501.708 729.256 505 732 C508.288 734.74 509.079 739.961 506.748 743.552 L389 925 L389 925 Z M693 34 L684 32 C656 25 638 40 638 70 L638 643.499 C638 658.126 626.127 670.112 611.5 670.25 L585 670.5 L477 671 L477 666 C511 666 532 651 532 616 L532 202.675 C532 198.516 528.091 181.005 526.095 177.356 C486.485 104.93 405.45 58 319 58 C239 58 185 122 185 218 L185 643.499 C185 658.126 173.127 670.112 158.5 670.25 L132 670.5 L24 671 L24 666 C58 666 79 651 79 616 L79 218 C79 81 158 -10 277 -10 C367.75 -10 453.055 31.5181 504.278 97.1474 C511.135 105.934 532 102.822 532 91.676 L532 26.5 C532 11.8728 543.873 0 558.5 0 L577.436 0 C578.482 0 591.379 1.60677 592.392 1.86455 C623.533 9.78313 663.4 20.675 693 29 L693 34 L693 34 Z " />
<glyph glyph-name="Udieresis" unicode="&#xdc;" horiz-adv-x="721" d="M434 786 C469 786 492 809 492 844 C492 879 469 902 434 902 C399 902 376 879 376 844 C376 809 399 786 434 786 L434 786 Z M281 786 C316 786 339 809 339 844 C339 879 316 902 281 902 C246 902 223 879 223 844 C223 809 246 786 281 786 L281 786 Z M692 34 L683 32 C655 25 637 40 637 70 L637 643.499 C637 658.126 625.127 670.112 610.5 670.25 L584 670.5 L476 671 L476 666 C510 666 531 651 531 616 L531 202.675 C531 198.516 527.091 181.005 525.095 177.356 C485.485 104.93 404.45 58 318 58 C238 58 184 122 184 218 L184 643.499 C184 658.126 172.127 670.112 157.5 670.25 L131 670.5 L23 671 L23 666 C57 666 78 651 78 616 L78 218 C78 81 157 -10 276 -10 C366.75 -10 452.055 31.5181 503.278 97.1474 C510.135 105.934 531 102.822 531 91.676 L531 26.5 C531 11.8728 542.873 0 557.5 0 L576.436 0 C577.482 0 590.379 1.60677 591.392 1.86455 C622.533 9.78313 662.4 20.675 692 29 L692 34 L692 34 Z " />
<glyph glyph-name="Yacute" unicode="&#xdd;" horiz-adv-x="689" d="M366.941 737.02 L503 852 C541 885 566 909 566 915 C566 939 545 959 521 959 C515 959 492 933 462 893 L354.654 749.232 C352.112 745.828 352.496 740.504 355.5 737.5 C358.525 734.475 363.673 734.259 366.941 737.02 L366.941 737.02 Z M230.45 670 L-3 670 L-3 665 C22 665 44 650 68 619 L289.021 300.806 C292.478 295.829 300 271.815 300 265.755 L300 75 C300 33 275 5 237 5 L225 5 L225 0 L481 0 L481 5 L469 5 C431 5 406 33 406 75 L406 284.77 C406 289.715 412.388 312.493 414.96 316.718 L593.5 610 C616.5 648 650 665 692 665 L692 670 L527 670 L527 665 L564 665 C597 665 606 643 586 610 L435.271 358.234 C419.672 332.177 384.242 335.323 367.214 360.47 C310.936 443.583 253.795 527.128 198 610 C176 643 182 665 215 665 L229.45 665 C230.83 665 232.229 666.147 232.5 667.5 C232.771 668.853 231.83 670 230.45 670 L230.45 670 Z " />
<glyph glyph-name="agrave" unicode="&#xe0;" horiz-adv-x="523" d="M529.5 108 C527.779 108.983 525.552 107.364 525.102 105.434 C518.482 77.05 494.4 59 464 59 C432 59 411 71 411 88 C411 88 411 299 410 297 C410 389 352 430 265 430 C144 430 63 334 63 280 C63 242 84 216 116 216 C144 216 163 243 163 262 C163 280 143 303 143 321 C143 358 190 425 260 425 C297 425 321 395 321 329 L321 273.481 C321 245.821 300.413 218.4 273.227 213.3 C88.3481 178.617 43 155.4 43 74 C43 24 90 -10 160 -10 C196.9 -10 243.52 10.25 301.318 62.414 C308.029 68.4708 322.996 63.9764 325.97 55.4395 C338.962 18.1412 375.675 -5 426 -5 C476.7 -5 518.369 36.8275 531.543 101.018 C531.98 103.146 531.385 106.923 529.5 108 L529.5 108 Z M61 665 C61 657 86 633 124 602 L260.059 487.02 C263.327 484.259 268.475 484.475 271.5 487.5 C274.504 490.504 274.888 495.828 272.346 499.232 L165 643 C136 683 114 709 106 709 C82 709 61 689 61 665 L61 665 Z M320 152.75 L320 111.289 C320 98.5426 310.773 78.1982 300.413 70.7721 C269.411 48.5497 237.525 38 207 38 C163 38 133 56 133 84 C133 157.425 157.503 182.866 250.867 204.683 C287.456 213.232 320 190.324 320 152.75 L320 152.75 Z " />
<glyph glyph-name="aacute" unicode="&#xe1;" horiz-adv-x="523" d="M278.941 487.02 L415 602 C453 635 478 659 478 665 C478 689 457 709 433 709 C427 709 404 683 374 643 L266.654 499.232 C264.112 495.828 264.496 490.504 267.5 487.5 C270.525 484.475 275.673 484.259 278.941 487.02 L278.941 487.02 Z M529.5 108 C527.779 108.983 525.552 107.364 525.102 105.434 C518.482 77.05 494.4 59 464 59 C432 59 411 71 411 88 C411 88 411 299 410 297 C410 389 352 430 265 430 C144 430 63 334 63 280 C63 242 84 216 116 216 C144 216 163 243 163 262 C163 280 143 303 143 321 C143 358 190 425 260 425 C297 425 321 395 321 329 L321 273.481 C321 245.821 300.413 218.4 273.227 213.3 C88.3481 178.617 43 155.4 43 74 C43 24 90 -10 160 -10 C196.9 -10 243.52 10.25 301.318 62.414 C308.029 68.4708 322.996 63.9764 325.97 55.4395 C338.962 18.1412 375.675 -5 426 -5 C476.7 -5 518.369 36.8275 531.543 101.018 C531.98 103.146 531.385 106.923 529.5 108 L529.5 108 Z M320 152.75 L320 111.289 C320 98.5426 310.773 78.1982 300.413 70.7721 C269.411 48.5497 237.525 38 207 38 C163 38 133 56 133 84 C133 157.425 157.503 182.866 250.867 204.683 C287.456 213.232 320 190.324 320 152.75 L320 152.75 Z " />
<glyph glyph-name="acircumflex" unicode="&#xe2;" horiz-adv-x="523" d="M529.5 108 C527.779 108.983 525.552 107.364 525.102 105.434 C518.482 77.05 494.4 59 464 59 C432 59 411 71 411 88 C411 88 411 299 410 297 C410 389 352 430 265 430 C144 430 63 334 63 280 C63 242 84 216 116 216 C144 216 163 243 163 262 C163 280 143 303 143 321 C143 358 190 425 260 425 C297 425 321 395 321 329 L321 273.481 C321 245.821 300.413 218.4 273.227 213.3 C88.3481 178.617 43 155.4 43 74 C43 24 90 -10 160 -10 C196.9 -10 243.52 10.25 301.318 62.414 C308.029 68.4708 322.996 63.9764 325.97 55.4395 C338.962 18.1412 375.675 -5 426 -5 C476.7 -5 518.369 36.8275 531.543 101.018 C531.98 103.146 531.385 106.923 529.5 108 L529.5 108 Z M296 674 C290 684 274 706 264 706 C254 706 238 684 232 674 L116.202 492.583 C113.901 488.979 114.715 483.738 118 481 C121.292 478.256 126.537 478.447 129.622 481.421 L221.352 569.875 C244.877 592.56 283.123 592.56 306.648 569.875 L398.378 481.421 C401.463 478.447 406.708 478.256 410 481 C413.285 483.738 414.099 488.979 411.798 492.583 L296 674 L296 674 Z M320 152.75 L320 111.289 C320 98.5426 310.773 78.1982 300.413 70.7721 C269.411 48.5497 237.525 38 207 38 C163 38 133 56 133 84 C133 157.425 157.503 182.866 250.867 204.683 C287.456 213.232 320 190.324 320 152.75 L320 152.75 Z " />
<glyph glyph-name="atilde" unicode="&#xe3;" horiz-adv-x="523" d="M112.335 557.021 L116.3 556.492 C116.3 556.492 115.692 557.295 115.692 557.295 C120.926 582.665 137.9 599 161 599 C216 599 289 534 344 534 C385.625 534 413.132 576.781 417.024 641.766 C417.024 641.766 418.242 640.705 418.242 640.705 L414.29 641.327 C414.29 641.327 415.508 640.267 415.508 640.267 C409.365 614.335 389.575 598 364 598 C309 598 236 663 181 663 C142.15 663 116.562 621.074 112.943 556.218 C112.943 556.218 112.335 557.021 112.335 557.021 L116.3 556.492 C116.3 556.492 115.692 557.295 115.692 557.295 L112.335 557.021 Z M529.5 108 C527.779 108.983 525.552 107.364 525.102 105.434 C518.482 77.05 494.4 59 464 59 C432 59 411 71 411 88 C411 88 411 299 410 297 C410 389 352 430 265 430 C144 430 63 334 63 280 C63 242 84 216 116 216 C144 216 163 243 163 262 C163 280 143 303 143 321 C143 358 190 425 260 425 C297 425 321 395 321 329 L321 273.481 C321 245.821 300.413 218.4 273.227 213.3 C88.3481 178.617 43 155.4 43 74 C43 24 90 -10 160 -10 C196.9 -10 243.52 10.25 301.318 62.414 C308.029 68.4708 322.996 63.9764 325.97 55.4395 C338.962 18.1412 375.675 -5 426 -5 C476.7 -5 518.369 36.8275 531.543 101.018 C531.98 103.146 531.385 106.923 529.5 108 L529.5 108 Z M320 152.75 L320 111.289 C320 98.5426 310.773 78.1982 300.413 70.7721 C269.411 48.5497 237.525 38 207 38 C163 38 133 56 133 84 C133 157.425 157.503 182.866 250.867 204.683 C287.456 213.232 320 190.324 320 152.75 L320 152.75 Z " />
<glyph glyph-name="adieresis" unicode="&#xe4;" horiz-adv-x="523" d="M342 535 C377 535 400 558 400 593 C400 628 377 651 342 651 C307 651 284 628 284 593 C284 558 307 535 342 535 L342 535 Z M188 535 C223 535 246 558 246 593 C246 628 223 651 188 651 C153 651 130 628 130 593 C130 558 153 535 188 535 L188 535 Z M529.5 108 C527.779 108.983 525.552 107.364 525.102 105.434 C518.482 77.05 494.4 59 464 59 C432 59 411 71 411 88 C411 88 411 299 410 297 C410 389 352 430 265 430 C144 430 63 334 63 280 C63 242 84 216 116 216 C144 216 163 243 163 262 C163 280 143 303 143 321 C143 358 190 425 260 425 C297 425 321 395 321 329 L321 273.481 C321 245.821 300.413 218.4 273.227 213.3 C88.3481 178.617 43 155.4 43 74 C43 24 90 -10 160 -10 C196.9 -10 243.52 10.25 301.318 62.414 C308.029 68.4708 322.996 63.9764 325.97 55.4395 C338.962 18.1412 375.675 -5 426 -5 C476.7 -5 518.369 36.8275 531.543 101.018 C531.98 103.146 531.385 106.923 529.5 108 L529.5 108 Z M320 152.75 L320 111.289 C320 98.5426 310.773 78.1982 300.413 70.7721 C269.411 48.5497 237.525 38 207 38 C163 38 133 56 133 84 C133 157.425 157.503 182.866 250.867 204.683 C287.456 213.232 320 190.324 320 152.75 L320 152.75 Z " />
<glyph glyph-name="aring" unicode="&#xe5;" horiz-adv-x="523" d="M194 575 C194 619 222 649 265 649 C308 649 336 619 336 575 C336 535 303 501 265 501 C227 501 194 535 194 575 L194 575 Z M167 575 C167 524 212 480 265 480 C318 480 363 524 363 575 C363 632 324 670 265 670 C206 670 167 632 167 575 L167 575 Z M529.5 108 C527.779 108.983 525.552 107.364 525.102 105.434 C518.482 77.05 494.4 59 464 59 C432 59 411 71 411 88 C411 88 411 299 410 297 C410 389 352 430 265 430 C144 430 63 334 63 280 C63 242 84 216 116 216 C144 216 163 243 163 262 C163 280 143 303 143 321 C143 358 190 425 260 425 C297 425 321 395 321 329 L321 273.481 C321 245.821 300.413 218.4 273.227 213.3 C88.3481 178.617 43 155.4 43 74 C43 24 90 -10 160 -10 C196.9 -10 243.52 10.25 301.318 62.414 C308.029 68.4708 322.996 63.9764 325.97 55.4395 C338.962 18.1412 375.675 -5 426 -5 C476.7 -5 518.369 36.8275 531.543 101.018 C531.98 103.146 531.385 106.923 529.5 108 L529.5 108 Z M320 152.75 L320 111.289 C320 98.5426 310.773 78.1982 300.413 70.7721 C269.411 48.5497 237.525 38 207 38 C163 38 133 56 133 84 C133 157.425 157.503 182.866 250.867 204.683 C287.456 213.232 320 190.324 320 152.75 L320 152.75 Z " />
<glyph glyph-name="egrave" unicode="&#xe8;" horiz-adv-x="556" d="M107 665 C107 657 132 633 170 602 L306.059 487.02 C309.327 484.259 314.475 484.475 317.5 487.5 C320.504 490.504 320.888 495.828 318.346 499.232 L211 643 C182 683 160 709 152 709 C128 709 107 689 107 665 L107 665 Z M152.631 286 L471.292 286 C504.45 286 521.103 306.41 504.052 334.849 C463.326 402.775 394.15 430 310 430 C151 430 45 363 45 192 C45 71 141 -10 286 -10 C368.45 -10 443.675 27.9312 486.496 86.5982 C486.544 86.6638 488.536 91.0677 488.486 91.0037 C448.952 40.4288 374.45 9 292 9 C201 9 140 97 140 229 C140 246.64 140.706 262.869 142.71 277.686 C143.369 282.56 147.714 286 152.631 286 L152.631 286 Z M373.823 289.814 L195.224 289.179 C163.071 289.064 145.798 305.803 157.941 335.575 C184.404 400.456 238.875 427 309 427 C343.65 427 377.96 401.136 407.437 336.494 C419.641 309.731 403.236 289.919 373.823 289.814 L373.823 289.814 Z " />
<glyph glyph-name="eacute" unicode="&#xe9;" horiz-adv-x="556" d="M323.941 487.02 L460 602 C498 635 523 659 523 665 C523 689 502 709 478 709 C472 709 449 683 419 643 L311.654 499.232 C309.112 495.828 309.496 490.504 312.5 487.5 C315.525 484.475 320.673 484.259 323.941 487.02 L323.941 487.02 Z M152.631 286 L471.292 286 C504.45 286 521.103 306.41 504.052 334.849 C463.326 402.775 394.15 430 310 430 C151 430 45 363 45 192 C45 71 141 -10 286 -10 C368.45 -10 443.675 27.9312 486.496 86.5982 C486.544 86.6638 488.536 91.0677 488.486 91.0037 C448.952 40.4288 374.45 9 292 9 C201 9 140 97 140 229 C140 246.64 140.706 262.869 142.71 277.686 C143.369 282.56 147.714 286 152.631 286 L152.631 286 Z M373.823 289.814 L195.224 289.179 C163.071 289.064 145.798 305.803 157.941 335.575 C184.404 400.456 238.875 427 309 427 C343.65 427 377.96 401.136 407.437 336.494 C419.641 309.731 403.236 289.919 373.823 289.814 L373.823 289.814 Z " />
<glyph glyph-name="ecircumflex" unicode="&#xea;" horiz-adv-x="556" d="M342 674 C336 684 320 706 310 706 C300 706 284 684 278 674 L162.202 492.583 C159.901 488.979 160.715 483.738 164 481 C167.292 478.256 172.537 478.447 175.622 481.421 L267.352 569.875 C290.877 592.56 329.123 592.56 352.648 569.875 L444.378 481.421 C447.463 478.447 452.708 478.256 456 481 C459.285 483.738 460.099 488.979 457.798 492.583 L342 674 L342 674 Z M152.631 286 L471.292 286 C504.45 286 521.103 306.41 504.052 334.849 C463.326 402.775 394.15 430 310 430 C151 430 45 363 45 192 C45 71 141 -10 286 -10 C368.45 -10 443.675 27.9312 486.496 86.5982 C486.544 86.6638 488.536 91.0677 488.486 91.0037 C448.952 40.4288 374.45 9 292 9 C201 9 140 97 140 229 C140 246.64 140.706 262.869 142.71 277.686 C143.369 282.56 147.714 286 152.631 286 L152.631 286 Z M373.823 289.814 L195.224 289.179 C163.071 289.064 145.798 305.803 157.941 335.575 C184.404 400.456 238.875 427 309 427 C343.65 427 377.96 401.136 407.437 336.494 C419.641 309.731 403.236 289.919 373.823 289.814 L373.823 289.814 Z " />
<glyph glyph-name="edieresis" unicode="&#xeb;" horiz-adv-x="556" d="M387 535 C422 535 445 558 445 593 C445 628 422 651 387 651 C352 651 329 628 329 593 C329 558 352 535 387 535 L387 535 Z M233 535 C268 535 291 558 291 593 C291 628 268 651 233 651 C198 651 175 628 175 593 C175 558 198 535 233 535 L233 535 Z M152.631 286 L471.292 286 C504.45 286 521.103 306.41 504.052 334.849 C463.326 402.775 394.15 430 310 430 C151 430 45 363 45 192 C45 71 141 -10 286 -10 C368.45 -10 443.675 27.9312 486.496 86.5982 C486.544 86.6638 488.536 91.0677 488.486 91.0037 C448.952 40.4288 374.45 9 292 9 C201 9 140 97 140 229 C140 246.64 140.706 262.869 142.71 277.686 C143.369 282.56 147.714 286 152.631 286 L152.631 286 Z M373.823 289.814 L195.224 289.179 C163.071 289.064 145.798 305.803 157.941 335.575 C184.404 400.456 238.875 427 309 427 C343.65 427 377.96 401.136 407.437 336.494 C419.641 309.731 403.236 289.919 373.823 289.814 L373.823 289.814 Z " />
<glyph glyph-name="igrave" unicode="&#xec;" horiz-adv-x="262" d="M-65 664 C-65 656 -40 632 -2 601 L134.059 486.02 C137.327 483.259 142.475 483.475 145.5 486.5 C148.504 489.504 148.888 494.828 146.346 498.232 L39 642 C10 682 -12 708 -20 708 C-44 708 -65 688 -65 664 L-65 664 Z M60.4734 393.618 L78 398 C87 400 93 396 93 387 L93 20 C93 11 87 5 78 5 L58 5 L58 0 L218 0 L218 5 L198 5 C189 5 183 11 183 20 L183 397.5 C183 409.919 172.919 420 160.5 420 L144.801 420 C143.799 420 132.846 418.45 131.885 418.17 C119.876 414.661 105.5 410.9 92.75 407.5 L59.464 398.655 C58.1066 398.294 57.2246 396.877 57.5 395.5 C57.7757 394.122 59.1097 393.277 60.4734 393.618 L60.4734 393.618 Z " />
<glyph glyph-name="iacute" unicode="&#xed;" horiz-adv-x="262" d="M-65 664 C-65 656 -40 632 -2 601 L134.059 486.02 C137.327 483.259 142.475 483.475 145.5 486.5 C148.504 489.504 148.888 494.828 146.346 498.232 L39 642 C10 682 -12 708 -20 708 C-44 708 -65 688 -65 664 L-65 664 Z M60.4734 393.618 L78 398 C87 400 93 396 93 387 L93 20 C93 11 87 5 78 5 L58 5 L58 0 L218 0 L218 5 L198 5 C189 5 183 11 183 20 L183 397.5 C183 409.919 172.919 420 160.5 420 L144.801 420 C143.799 420 132.846 418.45 131.885 418.17 C119.876 414.661 105.5 410.9 92.75 407.5 L59.464 398.655 C58.1066 398.294 57.2246 396.877 57.5 395.5 C57.7757 394.122 59.1097 393.277 60.4734 393.618 L60.4734 393.618 Z " />
<glyph glyph-name="icircumflex" unicode="&#xee;" horiz-adv-x="262" d="M170 673 C164 683 148 705 138 705 C128 705 112 683 106 673 L-9.79781 491.583 C-12.0987 487.979 -11.2853 482.738 -8 480 C-4.70778 477.256 0.537261 477.447 3.62216 480.421 L95.3523 568.875 C118.877 591.56 157.123 591.56 180.648 568.875 L272.378 480.421 C275.463 477.447 280.708 477.256 284 480 C287.285 482.738 288.099 487.979 285.798 491.583 L170 673 L170 673 Z M60.4734 393.618 L78 398 C87 400 93 396 93 387 L93 20 C93 11 87 5 78 5 L58 5 L58 0 L218 0 L218 5 L198 5 C189 5 183 11 183 20 L183 397.5 C183 409.919 172.919 420 160.5 420 L144.801 420 C143.799 420 132.846 418.45 131.885 418.17 C119.876 414.661 105.5 410.9 92.75 407.5 L59.464 398.655 C58.1066 398.294 57.2246 396.877 57.5 395.5 C57.7757 394.122 59.1097 393.277 60.4734 393.618 L60.4734 393.618 Z " />
<glyph glyph-name="idieresis" unicode="&#xef;" horiz-adv-x="262" d="M215 534 C250 534 273 557 273 592 C273 627 250 650 215 650 C180 650 157 627 157 592 C157 557 180 534 215 534 L215 534 Z M61 534 C96 534 119 557 119 592 C119 627 96 650 61 650 C26 650 3 627 3 592 C3 557 26 534 61 534 L61 534 Z M60.4734 393.618 L78 398 C87 400 93 396 93 387 L93 20 C93 11 87 5 78 5 L58 5 L58 0 L218 0 L218 5 L198 5 C189 5 183 11 183 20 L183 397.5 C183 409.919 172.919 420 160.5 420 L144.801 420 C143.799 420 132.846 418.45 131.885 418.17 C119.876 414.661 105.5 410.9 92.75 407.5 L59.464 398.655 C58.1066 398.294 57.2246 396.877 57.5 395.5 C57.7757 394.122 59.1097 393.277 60.4734 393.618 L60.4734 393.618 Z " />
<glyph glyph-name="ntilde" unicode="&#xf1;" horiz-adv-x="525" d="M103.589 557.023 L107.553 556.49 C107.553 556.49 106.692 557.295 106.692 557.295 C111.926 582.665 128.9 599 152 599 C207 599 280 534 335 534 C376.625 534 404.56 576.781 408.516 641.766 C408.516 641.766 409.756 640.708 409.756 640.708 L405.803 641.325 C405.803 641.325 407.043 640.267 407.043 640.267 C400.994 614.335 381.4 598 355 598 C300 598 228 663 173 663 C134.15 663 108.134 621.074 104.451 556.218 C104.451 556.218 103.589 557.023 103.589 557.023 L107.553 556.49 C107.553 556.49 106.692 557.295 106.692 557.295 L103.589 557.023 Z M21.0186 391.824 C40.5742 390.063 52 375.063 52 346 L52 20 C52 11 46 5 37 5 L17 5 L17 0 L177 0 L177 5 L157 5 C148 5 142 11 142 20 L142 273.665 C142 280.869 149.592 303.108 154.031 308.782 C191.93 357.22 245.3 388 293 388 C344 388 371 331 371 245 L371 20 C371 11 365 5 356 5 L336 5 L336 0 L496 0 L496 5 L476 5 C467 5 461 11 461 20 L461 245 C461 356 412 430 317 430 C270.8 430 215.071 395.969 169.467 341.944 C161.09 332.021 142 336.808 142 349.794 L142 397.5 C142 409.919 131.919 420 119.5 420 L103.801 420 C102.799 420 91.8465 418.45 90.8851 418.17 C78.8756 414.661 64.5 410.9 51.75 407.5 L18.9394 398.781 C17.3242 398.352 16.2252 396.649 16.5 395 C16.7436 393.538 19.5427 391.957 21.0186 391.824 L21.0186 391.824 Z " />
<glyph glyph-name="ograve" unicode="&#xf2;" horiz-adv-x="626" d="M144 210 C144 340 212 426 313 426 C414 426 482 340 482 210 C482 80 414 -6 313 -6 C212 -6 144 80 144 210 L144 210 Z M45 210 C45 78 152 -10 313 -10 C474 -10 581 78 581 210 C581 342 474 430 313 430 C152 430 45 342 45 210 L45 210 Z M110 665 C110 657 135 633 173 602 L309.059 487.02 C312.327 484.259 317.475 484.475 320.5 487.5 C323.504 490.504 323.888 495.828 321.346 499.232 L214 643 C185 683 163 709 155 709 C131 709 110 689 110 665 L110 665 Z " />
<glyph glyph-name="oacute" unicode="&#xf3;" horiz-adv-x="626" d="M326.941 487.02 L463 602 C501 635 526 659 526 665 C526 689 505 709 481 709 C475 709 452 683 422 643 L314.654 499.232 C312.112 495.828 312.496 490.504 315.5 487.5 C318.525 484.475 323.673 484.259 326.941 487.02 L326.941 487.02 Z M144 210 C144 340 212 426 313 426 C414 426 482 340 482 210 C482 80 414 -6 313 -6 C212 -6 144 80 144 210 L144 210 Z M45 210 C45 78 152 -10 313 -10 C474 -10 581 78 581 210 C581 342 474 430 313 430 C152 430 45 342 45 210 L45 210 Z " />
<glyph glyph-name="ocircumflex" unicode="&#xf4;" horiz-adv-x="626" d="M144 210 C144 340 212 426 313 426 C414 426 482 340 482 210 C482 80 414 -6 313 -6 C212 -6 144 80 144 210 L144 210 Z M45 210 C45 78 152 -10 313 -10 C474 -10 581 78 581 210 C581 342 474 430 313 430 C152 430 45 342 45 210 L45 210 Z M345 674 C339 684 323 706 313 706 C303 706 287 684 281 674 L165.202 492.583 C162.901 488.979 163.715 483.738 167 481 C170.292 478.256 175.537 478.447 178.622 481.421 L270.352 569.875 C293.877 592.56 332.123 592.56 355.648 569.875 L447.378 481.421 C450.463 478.447 455.708 478.256 459 481 C462.285 483.738 463.099 488.979 460.798 492.583 L345 674 L345 674 Z " />
<glyph glyph-name="otilde" unicode="&#xf5;" horiz-adv-x="626" d="M160.335 557.021 L164.3 556.492 C164.3 556.492 163.692 557.295 163.692 557.295 C168.926 582.665 185.9 599 209 599 C264 599 337 534 392 534 C433.625 534 461.132 576.781 465.024 641.766 C465.024 641.766 466.242 640.705 466.242 640.705 L462.29 641.327 C462.29 641.327 463.508 640.267 463.508 640.267 C457.365 614.335 437.575 598 412 598 C357 598 284 663 229 663 C190.15 663 164.562 621.074 160.943 556.218 C160.943 556.218 160.335 557.021 160.335 557.021 L164.3 556.492 C164.3 556.492 163.692 557.295 163.692 557.295 L160.335 557.021 Z M144 210 C144 340 212 426 313 426 C414 426 482 340 482 210 C482 80 414 -6 313 -6 C212 -6 144 80 144 210 L144 210 Z M45 210 C45 78 152 -10 313 -10 C474 -10 581 78 581 210 C581 342 474 430 313 430 C152 430 45 342 45 210 L45 210 Z " />
<glyph glyph-name="odieresis" unicode="&#xf6;" horiz-adv-x="626" d="M390 535 C425 535 448 558 448 593 C448 628 425 651 390 651 C355 651 332 628 332 593 C332 558 355 535 390 535 L390 535 Z M236 535 C271 535 294 558 294 593 C294 628 271 651 236 651 C201 651 178 628 178 593 C178 558 201 535 236 535 L236 535 Z M144 210 C144 340 212 426 313 426 C414 426 482 340 482 210 C482 80 414 -6 313 -6 C212 -6 144 80 144 210 L144 210 Z M45 210 C45 78 152 -10 313 -10 C474 -10 581 78 581 210 C581 342 474 430 313 430 C152 430 45 342 45 210 L45 210 Z " />
<glyph glyph-name="oslash" unicode="&#xf8;" horiz-adv-x="626" d="M47 -12 L97.7686 29.1638 C108.155 37.5854 135.844 36.8189 147.388 30.0718 C191.498 4.29312 247.825 -10 313 -10 C474 -10 581 78 581 210 C581 268.5 559.94 318.09 522.194 355.125 C516.548 360.665 515.581 372.476 521.687 377.505 C541.142 393.53 561.126 409.666 581.125 426.427 C582.318 427.427 582.101 428.899 581 430 C579.902 431.098 578.316 431.425 577.125 430.427 C557.126 413.666 537.142 397.53 517.687 381.505 C511.702 376.577 500.476 374.633 494.107 379.053 C448.027 411.032 386.075 429 313 429 C152 429 45 341 45 209 C45 155.375 62.6962 109.237 94.7197 73.3932 C104.157 62.8297 105.205 42.2132 94.2812 33.1948 C61.6962 6.29312 44 -8 44 -8 L47 -12 L47 -12 Z M431.357 310.239 C332.068 229.13 248.331 160.575 184.445 107.644 C176.551 101.104 164.217 102.221 160.773 111.876 C150.445 140.834 145 173.875 145 211 C145 341 213 427 314 427 C366.8 427 411.092 402.838 440.7 361.252 C453.16 343.75 447.995 323.831 431.357 310.239 L431.357 310.239 Z M466.227 310.124 C476.555 281.166 482 248.125 482 211 C482 81 414 -5 313 -5 C260.2 -5 216.248 18.8219 186.76 60.289 C174.36 77.7254 181.379 98.2884 197.902 111.881 C262.072 164.668 344.448 233.365 441.662 312.917 C449.632 319.439 462.767 319.823 466.227 310.124 L466.227 310.124 Z " />
<glyph glyph-name="ugrave" unicode="&#xf9;" horiz-adv-x="520" d="M51 665 C51 657 76 633 114 602 L251.042 487 C254.318 484.251 259.476 484.476 262.5 487.5 C265.506 490.506 265.878 495.817 263.32 499.213 L155 643 C126 683 103 709 96 709 C72 709 51 689 51 665 L51 665 Z M506 24 L506 29 C480 21 461 31 461 67 L461 358.56 C461 392.473 433.473 420 399.56 420 L336 420 L336 415 L356 415 C365 415 371 409 371 400 L371 132.544 C371 126.797 367.53 111.934 364.329 107.161 C341.46 73.06 293.4 52 234 52 C176 52 137 94 137 157 L137 358.56 C137 392.473 109.473 420 75.56 420 L12 420 L12 415 L32 415 C41 415 47 409 47 400 L47 157 C47 57 105 -10 192 -10 C262.125 -10 321.36 22.67 353.421 75.0951 C356.705 80.4651 370 78.8726 370 72.578 L370 22.5 C370 10.0807 380.081 0 392.5 0 L407.165 0 C408.278 0 422.511 1.95929 423.587 2.24205 C449.387 9.01972 481.269 17.7179 505.5 24 L506 24 Z " />
<glyph glyph-name="uacute" unicode="&#xfa;" horiz-adv-x="520" d="M267.958 487 L405 602 C443 634 468 658 468 665 C468 689 447 709 423 709 C417 709 394 683 364 643 L255.68 499.213 C253.122 495.817 253.494 490.506 256.5 487.5 C259.524 484.476 264.682 484.251 267.958 487 L267.958 487 Z M506 24 L506 29 C480 21 461 31 461 67 L461 358.56 C461 392.473 433.473 420 399.56 420 L336 420 L336 415 L356 415 C365 415 371 409 371 400 L371 132.544 C371 126.797 367.53 111.934 364.329 107.161 C341.46 73.06 293.4 52 234 52 C176 52 137 94 137 157 L137 358.56 C137 392.473 109.473 420 75.56 420 L12 420 L12 415 L32 415 C41 415 47 409 47 400 L47 157 C47 57 105 -10 192 -10 C262.125 -10 321.36 22.67 353.421 75.0951 C356.705 80.4651 370 78.8726 370 72.578 L370 22.5 C370 10.0807 380.081 0 392.5 0 L407.165 0 C408.278 0 422.511 1.95929 423.587 2.24205 C449.387 9.01972 481.269 17.7179 505.5 24 L506 24 Z " />
<glyph glyph-name="ucircumflex" unicode="&#xfb;" horiz-adv-x="520" d="M286 674 C280 684 264 706 255 706 C245 706 229 684 223 674 L106.227 492.568 C103.911 488.97 104.713 483.739 108 481 C111.292 478.256 116.537 478.447 119.621 481.422 L212.347 570.859 C235.875 593.553 274.125 593.553 297.653 570.859 L390.379 481.422 C393.463 478.447 398.708 478.256 402 481 C405.288 483.74 406.079 488.961 403.748 492.552 L286 674 L286 674 Z M507 24 L507 29 C481 21 462 31 462 67 L462 358.56 C462 392.473 434.473 420 400.56 420 L337 420 L337 415 L357 415 C366 415 372 409 372 400 L372 132.544 C372 126.797 368.53 111.934 365.329 107.161 C342.46 73.06 294.4 52 235 52 C177 52 138 94 138 157 L138 358.56 C138 392.473 110.473 420 76.56 420 L13 420 L13 415 L33 415 C42 415 48 409 48 400 L48 157 C48 57 106 -10 193 -10 C263.125 -10 322.36 22.67 354.421 75.0951 C357.705 80.4651 371 78.8726 371 72.578 L371 22.5 C371 10.0807 381.081 0 393.5 0 L408.165 0 C409.278 0 423.511 1.95929 424.587 2.24205 C450.387 9.01972 482.269 17.7179 506.5 24 L507 24 Z " />
<glyph glyph-name="udieresis" unicode="&#xfc;" horiz-adv-x="520" d="M331 535 C366 535 389 558 389 593 C389 628 366 651 331 651 C296 651 273 628 273 593 C273 558 296 535 331 535 L331 535 Z M178 535 C213 535 236 558 236 593 C236 628 213 651 178 651 C143 651 120 628 120 593 C120 558 143 535 178 535 L178 535 Z M506 24 L506 29 C480 21 461 31 461 67 L461 358.56 C461 392.473 433.473 420 399.56 420 L336 420 L336 415 L356 415 C365 415 371 409 371 400 L371 132.544 C371 126.797 367.53 111.934 364.329 107.161 C341.46 73.06 293.4 52 234 52 C176 52 137 94 137 157 L137 358.56 C137 392.473 109.473 420 75.56 420 L12 420 L12 415 L32 415 C41 415 47 409 47 400 L47 157 C47 57 105 -10 192 -10 C262.125 -10 321.36 22.67 353.421 75.0951 C356.705 80.4651 370 78.8726 370 72.578 L370 22.5 C370 10.0807 380.081 0 392.5 0 L407.165 0 C408.278 0 422.511 1.95929 423.587 2.24205 C449.387 9.01972 481.269 17.7179 505.5 24 L506 24 Z " />
<glyph glyph-name="ydieresis" unicode="&#xff;" horiz-adv-x="518" d="M365 535 C400 535 423 558 423 593 C423 628 400 651 365 651 C330 651 307 628 307 593 C307 558 330 535 365 535 L365 535 Z M211 535 C246 535 269 558 269 593 C269 628 246 651 211 651 C176 651 153 628 153 593 C153 558 176 535 211 535 L211 535 Z M500.296 416.078 L499.65 420.025 C499.65 420.025 500 420 500 420 L403 420 L403 415 C425 415 430 397 418 360 L373.787 225.818 C356.269 172.655 291.849 165.347 262.869 213.235 L168 370 C151 402 153 416 173 416 L173 421 L8 421 L8 416 C32 416 54 398 76 361 L294.265 -0.129463 C295.075 -1.46894 295.2 -4.60011 294.5 -6 L294.39 -6.21963 C294.313 -6.37453 291.959 -11.7446 291.898 -11.9065 L238 -154 C229 -177 215 -193 211 -193 C189 -193 184 -163 161 -163 C133 -163 115 -181 115 -209 C115 -239 135 -259 166 -259 C193 -259 239 -222 260 -166 C282 -108 304 -51 326 7 C370 125 413 243 457 361 C467.725 390.7 481.853 410.191 499.946 416.103 C499.946 416.103 500.296 416.078 500.296 416.078 L499.65 420.025 C499.65 420.025 500 420 500 420 L500.296 416.078 Z " />
<glyph glyph-name="Amacron" unicode="&#x100;" horiz-adv-x="708" d="M227.5 814 L480.5 814 C497.887 814 512 828.113 512 845.5 C512 862.887 497.887 877 480.5 877 L227.5 877 C210.113 877 196 862.887 196 845.5 C196 828.113 210.113 814 227.5 814 L227.5 814 Z M431.64 0 L703 0 C704.656 0 706 1.34409 706 3 C706 4.65591 704.656 6 703 6 L697 6 C664 6 627 46 605 106 C533 301 462 496 389 690 C388.09 692.418 386.583 690 384 690 C381.821 690 379.434 687.28 379.316 685.104 C378.296 666.292 351.34 650.294 308.498 643.139 C305.457 642.631 301.946 639.398 303 636.5 C303.69 634.603 303.771 627.369 303.124 625.456 L125 99 C104 43 56 6 5 6 L-7 6 C-8.65591 6 -10 4.65591 -10 3 C-10 1.34409 -8.65591 0 -7 0 L199 0 C200.656 0 202 1.34409 202 3 C202 4.65591 200.656 6 199 6 L186 6 C134 6 113 46 133 106 L171.893 221.211 C179.271 243.066 207.039 263 230.106 263 L396.789 263 C419.235 263 447.021 243.458 454.61 222.334 L500 96 C516 42 495 7 446 7 L433.64 7 C431.708 7 429.531 5.35756 429 3.5 C428.469 1.64244 429.708 0 431.64 0 L431.64 0 Z M215.23 349.015 L252.842 460.918 C272.11 518.245 348.327 519.095 368.868 462.212 L409.278 350.308 C424.708 307.577 396.922 268 351.49 268 L273.468 268 C228.751 268 200.983 306.627 215.23 349.015 L215.23 349.015 Z " />
<glyph glyph-name="amacron" unicode="&#x101;" horiz-adv-x="523" d="M138.5 564 L391.5 564 C408.887 564 423 578.113 423 595.5 C423 612.887 408.887 627 391.5 627 L138.5 627 C121.113 627 107 612.887 107 595.5 C107 578.113 121.113 564 138.5 564 L138.5 564 Z M529.5 108 C527.779 108.983 525.552 107.364 525.102 105.434 C518.482 77.05 494.4 59 464 59 C432 59 411 71 411 88 C411 88 411 299 410 297 C410 389 352 430 265 430 C144 430 63 334 63 280 C63 242 84 216 116 216 C144 216 163 243 163 262 C163 280 143 303 143 321 C143 358 190 425 260 425 C297 425 321 395 321 329 L321 273.481 C321 245.821 300.413 218.4 273.227 213.3 C88.3481 178.617 43 155.4 43 74 C43 24 90 -10 160 -10 C196.9 -10 243.52 10.25 301.318 62.414 C308.029 68.4708 322.996 63.9764 325.97 55.4395 C338.962 18.1412 375.675 -5 426 -5 C476.7 -5 518.369 36.8275 531.543 101.018 C531.98 103.146 531.385 106.923 529.5 108 L529.5 108 Z M320 152.75 L320 111.289 C320 98.5426 310.773 78.1982 300.413 70.7721 C269.411 48.5497 237.525 38 207 38 C163 38 133 56 133 84 C133 157.425 157.503 182.866 250.867 204.683 C287.456 213.232 320 190.324 320 152.75 L320 152.75 Z " />
<glyph glyph-name="Abreve" unicode="&#x102;" horiz-adv-x="708" d="M213.421 902.791 C224.752 833.027 279.9 787 354 787 C428.1 787 483.247 832.125 494.579 900.941 C495.504 906.559 492.125 912.612 486.5 913.5 C482.162 914.185 476.589 910.872 475.351 906.658 C465.532 873.246 418.75 851 354 851 C289.25 851 242.468 873.246 232.649 908.241 C231.453 912.506 225.875 916.191 221.5 915.5 C215.881 914.613 212.509 908.406 213.421 902.791 L213.421 902.791 Z M431.64 0 L703 0 C704.656 0 706 1.34409 706 3 C706 4.65591 704.656 6 703 6 L697 6 C664 6 627 46 605 106 C533 301 462 496 389 690 C388.09 692.418 386.583 690 384 690 C381.821 690 379.434 687.28 379.316 685.104 C378.296 666.292 351.34 650.294 308.498 643.139 C305.457 642.631 301.946 639.398 303 636.5 C303.69 634.603 303.771 627.369 303.124 625.456 L125 99 C104 43 56 6 5 6 L-7 6 C-8.65591 6 -10 4.65591 -10 3 C-10 1.34409 -8.65591 0 -7 0 L199 0 C200.656 0 202 1.34409 202 3 C202 4.65591 200.656 6 199 6 L186 6 C134 6 113 46 133 106 L171.893 221.211 C179.271 243.066 207.039 263 230.106 263 L396.789 263 C419.235 263 447.021 243.458 454.61 222.334 L500 96 C516 42 495 7 446 7 L433.64 7 C431.708 7 429.531 5.35756 429 3.5 C428.469 1.64244 429.708 0 431.64 0 L431.64 0 Z M215.23 349.015 L252.842 460.918 C272.11 518.245 348.327 519.095 368.868 462.212 L409.278 350.308 C424.708 307.577 396.922 268 351.49 268 L273.468 268 C228.751 268 200.983 306.627 215.23 349.015 L215.23 349.015 Z " />
<glyph glyph-name="abreve" unicode="&#x103;" horiz-adv-x="523" d="M124.421 652.791 C135.752 583.027 190.9 537 265 537 C339.1 537 394.248 582.125 405.579 650.941 C406.504 656.559 403.125 662.612 397.5 663.5 C393.162 664.185 387.589 660.872 386.351 656.658 C376.532 623.246 329.75 601 265 601 C200.25 601 153.468 623.246 143.649 658.241 C142.453 662.506 136.875 666.191 132.5 665.5 C126.881 664.613 123.509 658.406 124.421 652.791 L124.421 652.791 Z M529.5 108 C527.779 108.983 525.552 107.364 525.102 105.434 C518.482 77.05 494.4 59 464 59 C432 59 411 71 411 88 C411 88 411 299 410 297 C410 389 352 430 265 430 C144 430 63 334 63 280 C63 242 84 216 116 216 C144 216 163 243 163 262 C163 280 143 303 143 321 C143 358 190 425 260 425 C297 425 321 395 321 329 L321 273.481 C321 245.821 300.413 218.4 273.227 213.3 C88.3481 178.617 43 155.4 43 74 C43 24 90 -10 160 -10 C196.9 -10 243.52 10.25 301.318 62.414 C308.029 68.4708 322.996 63.9764 325.97 55.4395 C338.962 18.1412 375.675 -5 426 -5 C476.7 -5 518.369 36.8275 531.543 101.018 C531.98 103.146 531.385 106.923 529.5 108 L529.5 108 Z M320 152.75 L320 111.289 C320 98.5426 310.773 78.1982 300.413 70.7721 C269.411 48.5497 237.525 38 207 38 C163 38 133 56 133 84 C133 157.425 157.503 182.866 250.867 204.683 C287.456 213.232 320 190.324 320 152.75 L320 152.75 Z " />
<glyph glyph-name="Cacute" unicode="&#x106;" horiz-adv-x="758" d="M440.941 737.02 L577 852 C615 885 640 909 640 915 C640 939 619 959 595 959 C589 959 566 933 536 893 L428.654 749.232 C426.112 745.828 426.496 740.504 429.5 737.5 C432.525 734.475 437.673 734.259 440.941 737.02 L440.941 737.02 Z M713 20 L713 172.5 C713 176.64 709.64 180 705.5 180 C701.672 180 696.602 176.605 695.144 173.065 L691 163 C659 83 529 -6 418 -6 C266 -6 164 130 164 335 C164 540 270 676 428 676 C496 676 546 661 588 635 C632 608 674 558 692 510 L696.282 498.99 C697.68 495.394 702.642 492 706.5 492 C710.64 492 714 495.36 714 499.5 L714 646 C714 648.208 712.208 650 710 650 L708.55 650 C707.067 650 705.829 649.215 705.627 647.746 C704.98 643.041 704.857 637.286 704 633 C701 609 678 607 647 628 C599 661 534 680 427 680 C200 680 48 542 48 335 C48 128 196 -10 417 -10 C505 -10 573 11 632 45 C671 68 700 64 703 35 C704 29 704 22 705 16 C705.272 14.3666 706.385 16 708.041 16 L709 16 C711.208 16 713 17.7921 713 20 L713 20 Z M702 118 L702 118 L702 118 L702 118 Z " />
<glyph glyph-name="Ccircumflex" unicode="&#x108;" horiz-adv-x="758" d="M713 20 L713 172.5 C713 176.64 709.64 180 705.5 180 C701.672 180 696.602 176.605 695.144 173.065 L691 163 C659 83 529 -6 418 -6 C266 -6 164 130 164 335 C164 540 270 676 428 676 C496 676 546 661 588 635 C632 608 674 558 692 510 L696.282 498.99 C697.68 495.394 702.642 492 706.5 492 C710.64 492 714 495.36 714 499.5 L714 646 C714 648.208 712.208 650 710 650 L708.55 650 C707.067 650 705.829 649.215 705.627 647.746 C704.98 643.041 704.857 637.286 704 633 C701 609 678 607 647 628 C599 661 534 680 427 680 C200 680 48 542 48 335 C48 128 196 -10 417 -10 C505 -10 573 11 632 45 C671 68 700 64 703 35 C704 29 704 22 705 16 C705.272 14.3666 706.385 16 708.041 16 L709 16 C711.208 16 713 17.7921 713 20 L713 20 Z M459 924 C453 934 437 956 427 956 C417 956 401 934 395 924 L279.202 742.583 C276.901 738.979 277.715 733.738 281 731 C284.292 728.256 289.537 728.447 292.622 731.421 L384.352 819.875 C407.877 842.56 446.123 842.56 469.648 819.875 L561.378 731.421 C564.463 728.447 569.708 728.256 573 731 C576.285 733.738 577.099 738.979 574.798 742.583 L459 924 L459 924 Z M702 118 L702 118 L702 118 L702 118 Z " />
<glyph glyph-name="Cdot" unicode="&#x10a;" horiz-adv-x="758" d="M427 785 C462 785 485 808 485 843 C485 878 462 901 427 901 C392 901 369 878 369 843 C369 808 392 785 427 785 L427 785 Z M713 20 L713 172.5 C713 176.64 709.64 180 705.5 180 C701.672 180 696.602 176.605 695.144 173.065 L691 163 C659 83 529 -6 418 -6 C266 -6 164 130 164 335 C164 540 270 676 428 676 C496 676 546 661 588 635 C632 608 674 558 692 510 L696.282 498.99 C697.68 495.394 702.642 492 706.5 492 C710.64 492 714 495.36 714 499.5 L714 646 C714 648.208 712.208 650 710 650 L708.55 650 C707.067 650 705.829 649.215 705.627 647.746 C704.98 643.041 704.857 637.286 704 633 C701 609 678 607 647 628 C599 661 534 680 427 680 C200 680 48 542 48 335 C48 128 196 -10 417 -10 C505 -10 573 11 632 45 C671 68 700 64 703 35 C704 29 704 22 705 16 C705.272 14.3666 706.385 16 708.041 16 L709 16 C711.208 16 713 17.7921 713 20 L713 20 Z M702 118 L702 118 L702 118 L702 118 Z " />
<glyph glyph-name="cdot" unicode="&#x10b;" horiz-adv-x="523" d="M315 535 C350 535 373 558 373 593 C373 628 350 651 315 651 C280 651 257 628 257 593 C257 558 280 535 315 535 L315 535 Z M469.812 82.9879 C430.1 36.9266 369.05 8 308 8 C207 8 139 99 139 236 C139 351 209 427 314 427 C345 427 381 386 403 325 C413 298 431 280 448 280 C485 280 503 298 493 325 C470 388 399 430 315 430 C153 430 45 337 45 198 C45 73 146 -10 297 -10 C361.6 -10 428.368 26.125 472.123 82.4077 C472.203 82.5107 469.898 83.0866 469.812 82.9879 L469.812 82.9879 Z " />
<glyph glyph-name="Ccaron" unicode="&#x10c;" horiz-adv-x="758" d="M561.378 958.579 L469.648 870.125 C446.123 847.44 407.877 847.44 384.352 870.125 L292.622 958.579 C289.537 961.553 284.292 961.744 281 959 C277.715 956.262 276.901 951.021 279.202 947.417 L395 766 C401 756 417 734 427 734 C437 734 453 756 459 766 L574.798 947.417 C577.099 951.021 576.285 956.262 573 959 C569.708 961.744 564.463 961.553 561.378 958.579 L561.378 958.579 Z M713 20 L713 172.5 C713 176.64 709.64 180 705.5 180 C701.672 180 696.602 176.605 695.144 173.065 L691 163 C659 83 529 -6 418 -6 C266 -6 164 130 164 335 C164 540 270 676 428 676 C496 676 546 661 588 635 C632 608 674 558 692 510 L696.282 498.99 C697.68 495.394 702.642 492 706.5 492 C710.64 492 714 495.36 714 499.5 L714 646 C714 648.208 712.208 650 710 650 L708.55 650 C707.067 650 705.829 649.215 705.627 647.746 C704.98 643.041 704.857 637.286 704 633 C701 609 678 607 647 628 C599 661 534 680 427 680 C200 680 48 542 48 335 C48 128 196 -10 417 -10 C505 -10 573 11 632 45 C671 68 700 64 703 35 C704 29 704 22 705 16 C705.272 14.3666 706.385 16 708.041 16 L709 16 C711.208 16 713 17.7921 713 20 L713 20 Z M702 118 L702 118 L702 118 L702 118 Z " />
<glyph glyph-name="ccaron" unicode="&#x10d;" horiz-adv-x="523" d="M449.378 708.579 L357.648 620.125 C334.123 597.44 295.877 597.44 272.352 620.125 L180.622 708.579 C177.537 711.553 172.292 711.744 169 709 C165.715 706.262 164.901 701.021 167.202 697.417 L283 516 C289 506 305 484 315 484 C325 484 341 506 347 516 L462.798 697.417 C465.099 701.021 464.285 706.262 461 709 C457.708 711.744 452.463 711.553 449.378 708.579 L449.378 708.579 Z M469.812 82.9879 C430.1 36.9266 369.05 8 308 8 C207 8 139 99 139 236 C139 351 209 427 314 427 C345 427 381 386 403 325 C413 298 431 280 448 280 C485 280 503 298 493 325 C470 388 399 430 315 430 C153 430 45 337 45 198 C45 73 146 -10 297 -10 C361.6 -10 428.368 26.125 472.123 82.4077 C472.203 82.5107 469.898 83.0866 469.812 82.9879 L469.812 82.9879 Z " />
<glyph glyph-name="Dcaron" unicode="&#x10e;" horiz-adv-x="842" d="M526.118 958.286 L434.811 869.587 C411.19 846.642 372.81 846.642 349.189 869.587 L257.602 958.558 C254.527 961.545 249.294 961.745 246 959 C242.713 956.261 241.911 951.03 244.227 947.432 L361 766 C367 756 383 734 393 734 C402 734 418 756 424 766 L540.562 947.104 C543.003 950.897 542.075 956.25 538.5 959 C534.949 961.731 529.331 961.407 526.118 958.286 L526.118 958.286 Z M300 3 C228 3 220 20 220 46 L220 610 C220 641.462 245.538 667 277 667 L334 667 C556 667 671 534 671 335 C671 116 523 3 300 3 L300 3 Z M59 665 C93 665 114 650 114 615 L114 55 C114 20 93 5 59 5 L59 0 L304 0 C594 0 788 114 788 335 C788 536 638 670 347 670 L59 670 L59 665 L59 665 Z " />
<glyph glyph-name="dcaron" unicode="&#x10f;" horiz-adv-x="582" d="M602 680 C583 680 573 617 569 572 L559.73 469.107 C559.329 464.652 562.604 460.324 567 459.5 C571.339 458.686 576.355 461.47 577.961 465.582 L616 563 C632 602 642 643 642 667 C642 676 626 680 602 680 L602 680 Z M390.036 643.956 C410.8 643.047 423 628.031 423 598 L423 372.856 C423 366.072 411.213 364.37 406.906 369.612 C377.977 404.817 332.85 430 285 430 C127 430 45 342 45 210 C45 81 131 -5 261 -5 C312.15 -5 364.661 16.0994 401.688 49.3139 C408.589 55.5037 423 52.0636 423 42.7938 L423 22.5 C423 10.0807 433.081 0 445.5 0 L461.199 0 C462.19 0 473.075 1.52349 474.027 1.8 C485.731 5.2 499.15 8.6 512.75 12 L567 26 L567 31 L558 29 C530 22 512 37 512 67 L512 646.499 C512 658.918 501.919 669.112 489.5 669.25 L474.91 669.412 C473.772 669.425 459.585 667.632 458.482 667.352 C435.79 661.59 408.257 654.314 387 649 C385.636 648.659 387.224 647.878 387.5 646.5 C387.756 645.219 388.731 644.013 390.036 643.956 L390.036 643.956 Z M422 304.624 L422 95.4391 C422 85.2065 417.61 71.529 409.647 65.102 C383.51 44.005 342.2 31 298 31 C201 31 136 112 136 233 C136 335 190 403 295 403 C352 403 401.78 365.998 419.476 321.143 C420.345 318.942 422 306.99 422 304.624 L422 304.624 Z " />
<glyph glyph-name="Emacron" unicode="&#x112;" horiz-adv-x="622" d="M198.5 814 L452.5 814 C469.887 814 484 828.113 484 845.5 C484 862.887 469.887 877 452.5 877 L198.5 877 C181.113 877 167 862.887 167 845.5 C167 828.113 181.113 814 198.5 814 L198.5 814 Z M480 244.5 L480 447.5 C480 450.536 477.536 453 474.5 453 C471.523 453 468.505 450.526 467.921 447.607 L464 428 C455 380 418 348 370 348 L280.44 348 C246.527 348 219 375.527 219 409.44 L219 605.56 C219 639.473 246.527 667 280.44 667 L430 667 C478 667 519 635 534 587 L540.324 567.238 C541.205 564.484 544.609 562 547.5 562 C550.509 562 552.746 564.024 552.377 567.011 C549.015 594.185 545.049 628.308 541.584 656.674 C540.509 665.467 532.734 669.507 523.875 669.516 L38 670 L38 665 L50 665 C88 665 113 637 113 595 L113 75 C113 33 88 5 50 5 L38 5 L38 0 L550.786 0.72908 C558.732 0.740377 566.571 6.96531 567.967 14.7878 C572.604 40.7723 578.405 71.5343 582.611 95.7494 C583.123 98.6999 580.495 98 577.5 98 C574.681 98 571.004 95.5105 569.957 92.8934 L566 83 C547 35 493 3 430 3 L265 3 C224 3 219 20 219 46 L219 282.56 C219 316.473 246.527 344 280.44 344 L370 344 C418 344 455 312 464 264 L467.921 244.393 C468.505 241.474 471.523 239 474.5 239 C477.536 239 480 241.464 480 244.5 L480 244.5 Z " />
<glyph glyph-name="emacron" unicode="&#x113;" horiz-adv-x="556" d="M183.5 564 L436.5 564 C453.887 564 468 578.113 468 595.5 C468 612.887 453.887 627 436.5 627 L183.5 627 C166.113 627 152 612.887 152 595.5 C152 578.113 166.113 564 183.5 564 L183.5 564 Z M152.631 286 L471.292 286 C504.45 286 521.103 306.41 504.052 334.849 C463.326 402.775 394.15 430 310 430 C151 430 45 363 45 192 C45 71 141 -10 286 -10 C368.45 -10 443.675 27.9312 486.496 86.5982 C486.544 86.6638 488.536 91.0677 488.486 91.0037 C448.952 40.4288 374.45 9 292 9 C201 9 140 97 140 229 C140 246.64 140.706 262.869 142.71 277.686 C143.369 282.56 147.714 286 152.631 286 L152.631 286 Z M373.823 289.814 L195.224 289.179 C163.071 289.064 145.798 305.803 157.941 335.575 C184.404 400.456 238.875 427 309 427 C343.65 427 377.96 401.136 407.437 336.494 C419.641 309.731 403.236 289.919 373.823 289.814 L373.823 289.814 Z " />
<glyph glyph-name="Ebreve" unicode="&#x114;" horiz-adv-x="622" d="M185.421 902.791 C196.752 833.027 251.9 787 326 787 C400.1 787 455.248 832.125 466.579 900.941 C467.504 906.559 464.125 912.612 458.5 913.5 C454.162 914.185 448.589 910.872 447.351 906.658 C437.532 873.246 390.75 851 326 851 C260.325 851 213.474 873.246 203.65 908.241 C202.513 912.291 197.149 916.191 193 915.5 C187.676 914.613 184.556 908.118 185.421 902.791 L185.421 902.791 Z M480 244.5 L480 447.5 C480 450.536 477.536 453 474.5 453 C471.523 453 468.505 450.526 467.921 447.607 L464 428 C455 380 418 348 370 348 L280.44 348 C246.527 348 219 375.527 219 409.44 L219 605.56 C219 639.473 246.527 667 280.44 667 L430 667 C478 667 519 635 534 587 L540.324 567.238 C541.205 564.484 544.609 562 547.5 562 C550.509 562 552.746 564.024 552.377 567.011 C549.015 594.185 545.049 628.308 541.584 656.674 C540.509 665.467 532.734 669.507 523.875 669.516 L38 670 L38 665 L50 665 C88 665 113 637 113 595 L113 75 C113 33 88 5 50 5 L38 5 L38 0 L550.786 0.72908 C558.732 0.740377 566.571 6.96531 567.967 14.7878 C572.604 40.7723 578.405 71.5343 582.611 95.7494 C583.123 98.6999 580.495 98 577.5 98 C574.681 98 571.004 95.5105 569.957 92.8934 L566 83 C547 35 493 3 430 3 L265 3 C224 3 219 20 219 46 L219 282.56 C219 316.473 246.527 344 280.44 344 L370 344 C418 344 455 312 464 264 L467.921 244.393 C468.505 241.474 471.523 239 474.5 239 C477.536 239 480 241.464 480 244.5 L480 244.5 Z " />
<glyph glyph-name="ebreve" unicode="&#x115;" horiz-adv-x="556" d="M169.421 652.791 C180.753 583.027 235.9 537 310 537 C384.1 537 439.248 582.125 450.579 650.941 C451.504 656.559 448.125 662.612 442.5 663.5 C438.162 664.185 432.589 660.872 431.351 656.658 C421.532 623.246 374.75 601 310 601 C245.25 601 198.468 623.246 188.649 658.241 C187.453 662.506 181.875 666.191 177.5 665.5 C171.881 664.613 168.509 658.406 169.421 652.791 L169.421 652.791 Z M152.631 286 L471.292 286 C504.45 286 521.103 306.41 504.052 334.849 C463.326 402.775 394.15 430 310 430 C151 430 45 363 45 192 C45 71 141 -10 286 -10 C368.45 -10 443.675 27.9312 486.496 86.5982 C486.544 86.6638 488.536 91.0677 488.486 91.0037 C448.952 40.4288 374.45 9 292 9 C201 9 140 97 140 229 C140 246.64 140.706 262.869 142.71 277.686 C143.369 282.56 147.714 286 152.631 286 L152.631 286 Z M373.823 289.814 L195.224 289.179 C163.071 289.064 145.798 305.803 157.941 335.575 C184.404 400.456 238.875 427 309 427 C343.65 427 377.96 401.136 407.437 336.494 C419.641 309.731 403.236 289.919 373.823 289.814 L373.823 289.814 Z " />
<glyph glyph-name="Edot" unicode="&#x116;" horiz-adv-x="622" d="M326 785 C361 785 384 808 384 843 C384 878 361 901 326 901 C291 901 267 878 267 843 C267 808 291 785 326 785 L326 785 Z M480 244.5 L480 447.5 C480 450.536 477.536 453 474.5 453 C471.523 453 468.505 450.526 467.921 447.607 L464 428 C455 380 418 348 370 348 L280.44 348 C246.527 348 219 375.527 219 409.44 L219 605.56 C219 639.473 246.527 667 280.44 667 L430 667 C478 667 519 635 534 587 L540.324 567.238 C541.205 564.484 544.609 562 547.5 562 C550.509 562 552.746 564.024 552.377 567.011 C549.015 594.185 545.049 628.308 541.584 656.674 C540.509 665.467 532.734 669.507 523.875 669.516 L38 670 L38 665 L50 665 C88 665 113 637 113 595 L113 75 C113 33 88 5 50 5 L38 5 L38 0 L550.786 0.72908 C558.732 0.740377 566.571 6.96531 567.967 14.7878 C572.604 40.7723 578.405 71.5343 582.611 95.7494 C583.123 98.6999 580.495 98 577.5 98 C574.681 98 571.004 95.5105 569.957 92.8934 L566 83 C547 35 493 3 430 3 L265 3 C224 3 219 20 219 46 L219 282.56 C219 316.473 246.527 344 280.44 344 L370 344 C418 344 455 312 464 264 L467.921 244.393 C468.505 241.474 471.523 239 474.5 239 C477.536 239 480 241.464 480 244.5 L480 244.5 Z " />
<glyph glyph-name="edot" unicode="&#x117;" horiz-adv-x="556" d="M310 535 C345 535 368 558 368 593 C368 628 345 651 310 651 C275 651 252 628 252 593 C252 558 275 535 310 535 L310 535 Z M152.631 286 L471.292 286 C504.45 286 521.103 306.41 504.052 334.849 C463.326 402.775 394.15 430 310 430 C151 430 45 363 45 192 C45 71 141 -10 286 -10 C368.45 -10 443.675 27.9312 486.496 86.5982 C486.544 86.6638 488.536 91.0677 488.486 91.0037 C448.952 40.4288 374.45 9 292 9 C201 9 140 97 140 229 C140 246.64 140.706 262.869 142.71 277.686 C143.369 282.56 147.714 286 152.631 286 L152.631 286 Z M373.823 289.814 L195.224 289.179 C163.071 289.064 145.798 305.803 157.941 335.575 C184.404 400.456 238.875 427 309 427 C343.65 427 377.96 401.136 407.437 336.494 C419.641 309.731 403.236 289.919 373.823 289.814 L373.823 289.814 Z " />
<glyph glyph-name="Ecaron" unicode="&#x11a;" horiz-adv-x="622" d="M460.118 958.286 L368.811 869.587 C345.19 846.642 306.81 846.642 283.189 869.587 L191.602 958.558 C188.527 961.545 183.294 961.745 180 959 C176.713 956.261 175.911 951.03 178.227 947.432 L295 766 C301 756 317 734 327 734 C336 734 352 756 358 766 L474.562 947.104 C477.003 950.897 476.075 956.25 472.5 959 C468.949 961.731 463.331 961.407 460.118 958.286 L460.118 958.286 Z M481 244.5 L481 447.5 C481 450.536 478.536 453 475.5 453 C472.523 453 469.505 450.526 468.921 447.607 L465 428 C456 380 419 348 371 348 L281.44 348 C247.527 348 220 375.527 220 409.44 L220 605.56 C220 639.473 247.527 667 281.44 667 L431 667 C479 667 520 635 535 587 L541.324 567.238 C542.205 564.484 545.609 562 548.5 562 C551.509 562 553.746 564.024 553.377 567.011 C550.015 594.185 546.049 628.308 542.584 656.674 C541.509 665.467 533.734 669.507 524.875 669.516 L39 670 L39 665 L51 665 C89 665 114 637 114 595 L114 75 C114 33 89 5 51 5 L39 5 L39 0 L551.786 0.72908 C559.732 0.740377 567.571 6.96531 568.967 14.7878 C573.604 40.7723 579.405 71.5343 583.611 95.7494 C584.123 98.6999 581.495 98 578.5 98 C575.681 98 572.004 95.5105 570.957 92.8934 L567 83 C548 35 494 3 431 3 L266 3 C225 3 220 20 220 46 L220 282.56 C220 316.473 247.527 344 281.44 344 L371 344 C419 344 456 312 465 264 L468.921 244.393 C469.505 241.474 472.523 239 475.5 239 C478.536 239 481 241.464 481 244.5 L481 244.5 Z " />
<glyph glyph-name="ecaron" unicode="&#x11b;" horiz-adv-x="556" d="M444.378 708.579 L352.648 620.125 C329.123 597.44 290.877 597.44 267.352 620.125 L175.622 708.579 C172.537 711.553 167.292 711.744 164 709 C160.715 706.262 159.901 701.021 162.202 697.417 L278 516 C284 506 300 484 310 484 C320 484 336 506 342 516 L457.798 697.417 C460.099 701.021 459.285 706.262 456 709 C452.708 711.744 447.463 711.553 444.378 708.579 L444.378 708.579 Z M152.631 286 L471.292 286 C504.45 286 521.103 306.41 504.052 334.849 C463.326 402.775 394.15 430 310 430 C151 430 45 363 45 192 C45 71 141 -10 286 -10 C368.45 -10 443.675 27.9312 486.496 86.5982 C486.544 86.6638 488.536 91.0677 488.486 91.0037 C448.952 40.4288 374.45 9 292 9 C201 9 140 97 140 229 C140 246.64 140.706 262.869 142.71 277.686 C143.369 282.56 147.714 286 152.631 286 L152.631 286 Z M373.823 289.814 L195.224 289.179 C163.071 289.064 145.798 305.803 157.941 335.575 C184.404 400.456 238.875 427 309 427 C343.65 427 377.96 401.136 407.437 336.494 C419.641 309.731 403.236 289.919 373.823 289.814 L373.823 289.814 Z " />
<glyph glyph-name="Gcircumflex" unicode="&#x11c;" horiz-adv-x="809" d="M714 499.5 L714 646 C714 648.208 712.208 650 710 650 L708.55 650 C707.067 650 705.829 649.215 705.627 647.746 C704.98 643.041 704.857 637.286 704 633 C701 609 678 607 647 628 C599 661 534 680 427 680 C200 680 48 542 48 335 C48 128 198 -10 423 -10 C567.3 -10 666.445 17.0928 760.291 60.1561 C760.326 60.1724 757.509 59.0033 757.473 58.988 C742.499 52.6165 726.342 47.279 709.004 42.3255 C702.024 40.3312 697 45.2034 697 52.4629 L697 199 C697 250 719 284 752 284 L759 284 C760.656 284 762 285.344 762 287 C762 288.656 760.656 290 759 290 L529 290 C527.344 290 526 288.656 526 287 C526 285.344 527.344 284 529 284 L536 284 C569 284 591 250 591 199 C592 199 592 123 592 115 C589 52 529 11 441 11 C275 11 164 141 164 335 C164 540 270 676 428 676 C496 676 546 661 588 635 C632 608 674 558 692 510 L696.282 498.99 C697.68 495.394 702.642 492 706.5 492 C710.64 492 714 495.36 714 499.5 L714 499.5 Z M459 924 C453 934 437 956 427 956 C417 956 401 934 395 924 L279.202 742.583 C276.901 738.979 277.715 733.738 281 731 C284.292 728.256 289.537 728.447 292.622 731.421 L384.352 819.875 C407.877 842.56 446.123 842.56 469.648 819.875 L561.378 731.421 C564.463 728.447 569.708 728.256 573 731 C576.285 733.738 577.099 738.979 574.798 742.583 L459 924 L459 924 Z " />
<glyph glyph-name="Gbreve" unicode="&#x11e;" horiz-adv-x="809" d="M286.421 902.791 C297.752 833.027 352.9 787 427 787 C501.1 787 556.247 832.125 567.579 900.941 C568.504 906.559 565.125 912.612 559.5 913.5 C555.162 914.185 549.589 910.872 548.351 906.658 C538.532 873.246 491.75 851 427 851 C362.25 851 315.468 873.246 305.649 908.241 C304.453 912.506 298.875 916.191 294.5 915.5 C288.881 914.613 285.509 908.406 286.421 902.791 L286.421 902.791 Z M714 499.5 L714 646 C714 648.208 712.208 650 710 650 L708.55 650 C707.067 650 705.829 649.215 705.627 647.746 C704.98 643.041 704.857 637.286 704 633 C701 609 678 607 647 628 C599 661 534 680 427 680 C200 680 48 542 48 335 C48 128 198 -10 423 -10 C567.3 -10 666.445 17.0928 760.291 60.1561 C760.326 60.1724 757.509 59.0033 757.473 58.988 C742.499 52.6165 726.342 47.279 709.004 42.3255 C702.024 40.3312 697 45.2034 697 52.4629 L697 199 C697 250 719 284 752 284 L759 284 C760.656 284 762 285.344 762 287 C762 288.656 760.656 290 759 290 L529 290 C527.344 290 526 288.656 526 287 C526 285.344 527.344 284 529 284 L536 284 C569 284 591 250 591 199 C592 199 592 123 592 115 C589 52 529 11 441 11 C275 11 164 141 164 335 C164 540 270 676 428 676 C496 676 546 661 588 635 C632 608 674 558 692 510 L696.282 498.99 C697.68 495.394 702.642 492 706.5 492 C710.64 492 714 495.36 714 499.5 L714 499.5 Z " />
<glyph glyph-name="gbreve" unicode="&#x11f;" horiz-adv-x="531" d="M120.421 652.791 C131.753 583.027 186.9 537 261 537 C335.1 537 390.248 582.125 401.579 650.941 C402.504 656.559 399.125 662.612 393.5 663.5 C389.162 664.185 383.589 660.872 382.351 656.658 C372.532 623.246 325.75 601 261 601 C196.25 601 149.468 623.246 139.649 658.241 C138.453 662.506 132.875 666.191 128.5 665.5 C122.881 664.613 119.509 658.406 120.421 652.791 L120.421 652.791 Z M553 420 C553 452 530 474 495 474 C462.625 474 427.188 449.5 403.426 411.219 C398.866 403.873 386.24 399.485 378.672 403.665 C347.997 420.607 307.75 430 261 430 C149 430 74 376 74 294 C74 233.775 114.157 188.524 179.31 168.354 C183.205 167.148 183.905 155.747 179.86 155.235 C101.685 145.33 54 120 54 86 C54 48.875 77.8219 19.9175 117.604 5.86569 C123.717 3.70652 124.624 -8.38701 118.706 -11.0361 C72.1775 -31.8675 44 -62.85 44 -96 C44 -177 134 -231 270 -231 C406 -231 496 -165 496 -67 C496 25 443 86 306 86 L184 86 C138 86 107 97 107 113 C107 139 169 157 261 157 C373 157 447 211 447 293 C447 330.925 431.599 362.861 403.962 386.433 C399.827 389.959 398.389 394.715 401.978 398.796 C411.786 409.944 427.04 417 443 417 C465 417 494 381 516 381 C539 381 553.5 397 553.5 420 L553 420 Z M262 161 C204 161 165 214 165 294 C165 374 204 427 262 427 C320 427 358 374 358 294 C358 214 320 161 262 161 L262 161 Z M161.312 -2.488 C167.2 -3 173.6 -3 180 -3 L297 -3 C387 -3 422 -37 422 -88 C422 -171 362 -227 272 -227 C181 -227 120 -166 120 -74 C120 -44.6316 132.565 -18.8532 153.444 -4.31725 C154.48 -3.59627 160.055 -2.37869 161.312 -2.488 L161.312 -2.488 Z " />
<glyph glyph-name="Gdot" unicode="&#x120;" horiz-adv-x="809" d="M427 785 C462 785 485 808 485 843 C485 878 462 901 427 901 C392 901 369 878 369 843 C369 808 392 785 427 785 L427 785 Z M714 499.5 L714 646 C714 648.208 712.208 650 710 650 L708.55 650 C707.067 650 705.829 649.215 705.627 647.746 C704.98 643.041 704.857 637.286 704 633 C701 609 678 607 647 628 C599 661 534 680 427 680 C200 680 48 542 48 335 C48 128 198 -10 423 -10 C567.3 -10 666.445 17.0928 760.291 60.1561 C760.326 60.1724 757.509 59.0033 757.473 58.988 C742.499 52.6165 726.342 47.279 709.004 42.3255 C702.024 40.3312 697 45.2034 697 52.4629 L697 199 C697 250 719 284 752 284 L759 284 C760.656 284 762 285.344 762 287 C762 288.656 760.656 290 759 290 L529 290 C527.344 290 526 288.656 526 287 C526 285.344 527.344 284 529 284 L536 284 C569 284 591 250 591 199 C592 199 592 123 592 115 C589 52 529 11 441 11 C275 11 164 141 164 335 C164 540 270 676 428 676 C496 676 546 661 588 635 C632 608 674 558 692 510 L696.282 498.99 C697.68 495.394 702.642 492 706.5 492 C710.64 492 714 495.36 714 499.5 L714 499.5 Z " />
<glyph glyph-name="gdot" unicode="&#x121;" horiz-adv-x="531" d="M261 535 C296 535 319 558 319 593 C319 628 296 651 261 651 C226 651 203 628 203 593 C203 558 226 535 261 535 L261 535 Z M553 420 C553 452 530 474 495 474 C462.625 474 427.188 449.5 403.426 411.219 C398.866 403.873 386.24 399.485 378.672 403.665 C347.997 420.607 307.75 430 261 430 C149 430 74 376 74 294 C74 233.775 114.157 188.524 179.31 168.354 C183.205 167.148 183.905 155.747 179.86 155.235 C101.685 145.33 54 120 54 86 C54 48.875 77.8219 19.9175 117.604 5.86569 C123.717 3.70652 124.624 -8.38701 118.706 -11.0361 C72.1775 -31.8675 44 -62.85 44 -96 C44 -177 134 -231 270 -231 C406 -231 496 -165 496 -67 C496 25 443 86 306 86 L184 86 C138 86 107 97 107 113 C107 139 169 157 261 157 C373 157 447 211 447 293 C447 330.925 431.599 362.861 403.962 386.433 C399.827 389.959 398.389 394.715 401.978 398.796 C411.786 409.944 427.04 417 443 417 C465 417 494 381 516 381 C539 381 553.5 397 553.5 420 L553 420 Z M262 161 C204 161 165 214 165 294 C165 374 204 427 262 427 C320 427 358 374 358 294 C358 214 320 161 262 161 L262 161 Z M161.312 -2.488 C167.2 -3 173.6 -3 180 -3 L297 -3 C387 -3 422 -37 422 -88 C422 -171 362 -227 272 -227 C181 -227 120 -166 120 -74 C120 -44.6316 132.565 -18.8532 153.444 -4.31725 C154.48 -3.59627 160.055 -2.37869 161.312 -2.488 L161.312 -2.488 Z " />
<glyph glyph-name="Hcircumflex" unicode="&#x124;" horiz-adv-x="818" d="M459 924 C453 934 437 956 427 956 C417 956 401 934 395 924 L279.202 742.583 C276.901 738.979 277.715 733.738 281 731 C284.292 728.256 289.537 728.447 292.622 731.421 L384.352 819.875 C407.877 842.56 446.123 842.56 469.648 819.875 L561.378 731.421 C564.463 728.447 569.708 728.256 573 731 C576.285 733.738 577.099 738.979 574.798 742.583 L459 924 L459 924 Z M759 5 C725 5 704 20 704 55 L704 615 C704 650 725 665 759 665 L759 670 L544 670 L544 665 C578 665 599 650 599 615 L599 407.44 C599 373.527 571.473 346 537.56 346 L316.44 346 C282.527 346 255 373.527 255 407.44 L255 615 C255 650 276 665 310 665 L310 670 L94 670 L94 665 C128 665 149 650 149 615 L149 55 C149 20 128 5 94 5 L94 0 L310 0 L310 5 C276 5 255 20 255 55 L255 280.56 C255 314.473 282.527 342 316.44 342 L537.56 342 C571.473 342 599 314.473 599 280.56 L599 55 C599 20 578 5 544 5 L544 0 L759 0 L759 5 L759 5 Z " />
<glyph glyph-name="Itilde" unicode="&#x128;" horiz-adv-x="327" d="M7.33485 807.021 L11.2997 806.492 C11.2997 806.492 10.692 807.295 10.692 807.295 C15.9256 832.665 32.9 849 56 849 C111 849 184 784 239 784 C280.625 784 308.132 826.781 312.024 891.766 C312.024 891.766 313.242 890.705 313.242 890.705 L309.29 891.327 C309.29 891.327 310.508 890.267 310.508 890.267 C304.365 864.335 284.575 848 259 848 C204 848 131 913 76 913 C37.15 913 11.5622 871.074 7.94255 806.218 C7.94255 806.218 7.33485 807.021 7.33485 807.021 L11.2997 806.492 C11.2997 806.492 10.692 807.295 10.692 807.295 L7.33485 807.021 Z M268 5 C234 5 213 20 213 55 L213 615 C213 650 234 665 268 665 L268 670 L52 670 L52 665 C86 665 107 650 107 615 L107 55 C107 20 86 5 52 5 L52 0 L268 0 L268 5 L268 5 Z " />
<glyph glyph-name="itilde" unicode="&#x129;" horiz-adv-x="262" d="M-14.6652 556.021 L-10.7003 555.492 C-10.7003 555.492 -11.308 556.295 -11.308 556.295 C-6.07437 581.665 10.9 598 34 598 C89 598 162 533 217 533 C258.625 533 286.132 575.781 290.024 640.766 C290.024 640.766 291.242 639.705 291.242 639.705 L287.29 640.327 C287.29 640.327 288.508 639.267 288.508 639.267 C282.365 613.335 262.575 597 237 597 C182 597 109 662 54 662 C15.15 662 -10.4378 620.074 -14.0575 555.218 C-14.0575 555.218 -14.6652 556.021 -14.6652 556.021 L-10.7003 555.492 C-10.7003 555.492 -11.308 556.295 -11.308 556.295 L-14.6652 556.021 Z M60.4734 393.618 L78 398 C87 400 93 396 93 387 L93 20 C93 11 87 5 78 5 L58 5 L58 0 L218 0 L218 5 L198 5 C189 5 183 11 183 20 L183 397.5 C183 409.919 172.919 420 160.5 420 L144.801 420 C143.799 420 132.846 418.45 131.885 418.17 C119.876 414.661 105.5 410.9 92.75 407.5 L59.464 398.655 C58.1066 398.294 57.2246 396.877 57.5 395.5 C57.7757 394.122 59.1097 393.277 60.4734 393.618 L60.4734 393.618 Z " />
<glyph glyph-name="Imacron" unicode="&#x12a;" horiz-adv-x="327" d="M33.5 814 L286.5 814 C303.887 814 318 828.113 318 845.5 C318 862.887 303.887 877 286.5 877 L33.5 877 C16.1129 877 2 862.887 2 845.5 C2 828.113 16.1129 814 33.5 814 L33.5 814 Z M268 5 C234 5 213 20 213 55 L213 615 C213 650 234 665 268 665 L268 670 L52 670 L52 665 C86 665 107 650 107 615 L107 55 C107 20 86 5 52 5 L52 0 L268 0 L268 5 L268 5 Z " />
<glyph glyph-name="imacron" unicode="&#x12b;" horiz-adv-x="262" d="M11.5 563 L264.5 563 C281.887 563 296 577.113 296 594.5 C296 611.887 281.887 626 264.5 626 L11.5 626 C-5.88706 626 -20 611.887 -20 594.5 C-20 577.113 -5.88706 563 11.5 563 L11.5 563 Z M60.4734 393.618 L78 398 C87 400 93 396 93 387 L93 20 C93 11 87 5 78 5 L58 5 L58 0 L218 0 L218 5 L198 5 C189 5 183 11 183 20 L183 397.5 C183 409.919 172.919 420 160.5 420 L144.801 420 C143.799 420 132.846 418.45 131.885 418.17 C119.876 414.661 105.5 410.9 92.75 407.5 L59.464 398.655 C58.1066 398.294 57.2246 396.877 57.5 395.5 C57.7757 394.122 59.1097 393.277 60.4734 393.618 L60.4734 393.618 Z " />
<glyph glyph-name="Ibreve" unicode="&#x12c;" horiz-adv-x="327" d="M19.4214 902.791 C30.7525 833.027 85.9 787 160 787 C234.1 787 289.248 832.125 300.579 900.941 C301.504 906.559 298.125 912.612 292.5 913.5 C288.162 914.185 282.589 910.872 281.351 906.658 C271.532 873.246 224.75 851 160 851 C95.25 851 48.4681 873.246 38.6492 908.241 C37.4526 912.506 31.8754 916.191 27.5 915.5 C21.8805 914.613 18.5093 908.406 19.4214 902.791 L19.4214 902.791 Z M268 5 C234 5 213 20 213 55 L213 615 C213 650 234 665 268 665 L268 670 L52 670 L52 665 C86 665 107 650 107 615 L107 55 C107 20 86 5 52 5 L52 0 L268 0 L268 5 L268 5 Z " />
<glyph glyph-name="ibreve" unicode="&#x12d;" horiz-adv-x="262" d="M-2.57862 651.791 C8.7525 582.027 63.9 536 138 536 C212.1 536 267.248 581.125 278.579 649.941 C279.504 655.559 276.125 661.612 270.5 662.5 C266.162 663.185 260.589 659.872 259.351 655.658 C249.532 622.246 202.75 600 138 600 C73.25 600 26.4681 622.246 16.6492 657.241 C15.4526 661.506 9.87542 665.191 5.5 664.5 C-0.119463 663.613 -3.49071 657.406 -2.57862 651.791 L-2.57862 651.791 Z M60.4734 393.618 L78 398 C87 400 93 396 93 387 L93 20 C93 11 87 5 78 5 L58 5 L58 0 L218 0 L218 5 L198 5 C189 5 183 11 183 20 L183 397.5 C183 409.919 172.919 420 160.5 420 L144.801 420 C143.799 420 132.846 418.45 131.885 418.17 C119.876 414.661 105.5 410.9 92.75 407.5 L59.464 398.655 C58.1066 398.294 57.2246 396.877 57.5 395.5 C57.7757 394.122 59.1097 393.277 60.4734 393.618 L60.4734 393.618 Z " />
<glyph glyph-name="Idot" unicode="&#x130;" horiz-adv-x="327" d="M160 785 C195 785 218 808 218 843 C218 878 195 901 160 901 C125 901 102 878 102 843 C102 808 125 785 160 785 L160 785 Z M268 5 C234 5 213 20 213 55 L213 615 C213 650 234 665 268 665 L268 670 L52 670 L52 665 C86 665 107 650 107 615 L107 55 C107 20 86 5 52 5 L52 0 L268 0 L268 5 L268 5 Z " />
<glyph glyph-name="dotlessi" unicode="&#x131;" horiz-adv-x="262" d="M60.4734 393.618 L78 398 C87 400 93 396 93 387 L93 20 C93 11 87 5 78 5 L58 5 L58 0 L218 0 L218 5 L198 5 C189 5 183 11 183 20 L183 397.5 C183 409.919 172.919 420 160.5 420 L144.801 420 C143.799 420 132.846 418.45 131.885 418.17 C119.876 414.661 105.5 410.9 92.75 407.5 L59.464 398.655 C58.1066 398.294 57.2246 396.877 57.5 395.5 C57.7757 394.122 59.1097 393.277 60.4734 393.618 L60.4734 393.618 Z " />
<glyph glyph-name="Jcircumflex" unicode="&#x134;" horiz-adv-x="327" d="M192 924 C186 934 170 956 160 956 C150 956 134 934 128 924 L12.2022 742.583 C9.90128 738.979 10.7147 733.738 14 731 C17.2922 728.256 22.5373 728.447 25.6222 731.421 L117.352 819.875 C140.877 842.56 179.123 842.56 202.648 819.875 L294.378 731.421 C297.463 728.447 302.708 728.256 306 731 C309.285 733.738 310.099 738.979 307.798 742.583 L192 924 L192 924 Z M251.395 666.227 L250.992 670.206 C250.992 670.206 251 670 251 670 L52 670 L52 665 C85 665 105 652 107 619 C107 482 106 104 106 -77 C106 -191 35 -213 -17 -213 C-69 -213 -44 -128 -96 -128 C-125 -128 -144 -147 -144 -176 C-144 -202 -94 -219 -20 -219 C78 -219 213 -164 213 123 L213 616 C213 644.875 227.293 661.499 251.387 666.433 C251.387 666.433 251.395 666.227 251.395 666.227 L250.992 670.206 C250.992 670.206 251 670 251 670 L251.395 666.227 Z " />
<glyph glyph-name="Lacute" unicode="&#x139;" horiz-adv-x="606" d="M170.941 737.02 L307 852 C345 885 370 909 370 915 C370 939 349 959 325 959 C319 959 296 933 266 893 L158.654 749.232 C156.112 745.828 156.496 740.504 159.5 737.5 C162.525 734.475 167.673 734.259 170.941 737.02 L170.941 737.02 Z M268 670 L52 670 L52 665 C86 665 107 650 107 615 L107 55 C107 20 86 5 52 5 L52 0 L554.5 0 C558.64 0 562 3.36022 562 7.5 L562 9.91507 C562 10.3683 562.683 19.118 562.757 19.5651 C567.343 47.3324 572.657 81.6201 577.243 108.577 C577.743 111.521 575.486 113 572.5 113 C569.681 113 566.004 110.51 564.957 107.893 L561 98 C542 50 488 18 425 18 L259 18 C218 18 213 29 213 46 L213 615 C213 650 234 665 268 665 L268 670 L268 670 Z " />
<glyph glyph-name="Lcaron" unicode="&#x13d;" horiz-adv-x="606" d="M368 728 C350 728 340 665 336 620 L326.686 516.618 C326.31 512.437 329.384 508.323 333.5 507.5 C337.577 506.685 342.27 509.252 343.782 513.125 L382 611 C398 651 409 693 409 715 C409 724 393 728 368 728 L368 728 Z M268 670 L52 670 L52 665 C86 665 107 650 107 615 L107 55 C107 20 86 5 52 5 L52 0 L554.5 0 C558.64 0 562 3.36022 562 7.5 L562 9.91507 C562 10.3683 562.683 19.118 562.757 19.5651 C567.343 47.3324 572.657 81.6201 577.243 108.577 C577.743 111.521 575.486 113 572.5 113 C569.681 113 566.004 110.51 564.957 107.893 L561 98 C542 50 488 18 425 18 L259 18 C218 18 213 29 213 46 L213 615 C213 650 234 665 268 665 L268 670 L268 670 Z " />
<glyph glyph-name="lcaron" unicode="&#x13e;" horiz-adv-x="206" d="M231 678 C212 678 202 615 198 570 L188.73 467.107 C188.329 462.652 191.604 458.324 196 457.5 C200.339 456.686 205.355 459.47 206.961 463.582 L245 561 C261 600 271 641 271 665 C271 674 255 678 231 678 L231 678 Z M21.0186 641.824 C40.5742 640.063 52 625.063 52 596 L52 20 C52 11 46 5 37 5 L17 5 L17 0 L177 0 L177 5 L157 5 C148 5 142 11 142 20 L142 647.5 C142 659.919 131.919 670 119.5 670 L103.801 670 C102.799 670 91.8465 668.45 90.8851 668.17 C78.8756 664.661 64.5 660.9 51.75 657.5 L18.9394 648.781 C17.3242 648.352 16.2252 646.649 16.5 645 C16.7436 643.538 19.5427 641.957 21.0186 641.824 L21.0186 641.824 Z " />
<glyph glyph-name="Nacute" unicode="&#x143;" horiz-adv-x="740" d="M279.958 737 L417 852 C455 884 480 908 480 915 C480 939 459 959 435 959 C429 959 406 933 376 893 L267.68 749.213 C265.122 745.817 265.494 740.506 268.5 737.5 C271.524 734.476 276.682 734.251 279.958 737 L279.958 737 Z M-4.50142 663.617 C22.4694 659.26 47.075 644.575 71 619 L93.5408 592.195 C98.6891 586.072 107.972 560.533 107.957 552.534 L107 54 C107 19 86 4 52 4 L52 -1 L193 -1 L193 4 C160 4 138 19 138 54 L135.729 424.178 C135.47 466.373 188.509 480.109 215.85 447.97 C339.05 303.145 462.25 158.209 585.45 12.6481 C588.307 9.27201 603.077 -1 607.5 -1 C613.295 -1 618.053 3.70438 618.118 9.49934 L624.96 618.399 C624.964 618.773 625.289 624.039 625.349 624.408 C630.061 653.623 649.842 665 681 665 L681 670 L539 670 L539 665 C573 665 594 650 594 615 L595.516 260.248 C595.686 220.45 543.347 210.144 517.838 240.692 C402.347 379 286.452 517.308 171.156 655.615 C163.161 665.206 143.297 668.816 130.812 668.679 L-5.00103 667.187 C-5.10338 667.186 -4.60247 663.633 -4.50142 663.617 L-4.50142 663.617 Z " />
<glyph glyph-name="Ncaron" unicode="&#x147;" horiz-adv-x="740" d="M501.118 958.286 L409.811 869.587 C386.19 846.642 347.81 846.642 324.189 869.587 L232.602 958.558 C229.527 961.545 224.294 961.745 221 959 C217.713 956.261 216.911 951.03 219.227 947.432 L336 766 C342 756 358 734 368 734 C377 734 393 756 399 766 L515.562 947.104 C518.003 950.897 517.075 956.25 513.5 959 C509.949 961.731 504.331 961.407 501.118 958.286 L501.118 958.286 Z M-3.50142 663.617 C23.4694 659.26 48.075 644.575 72 619 L94.5408 592.195 C99.6891 586.072 108.972 560.533 108.957 552.534 L108 54 C108 19 87 4 53 4 L53 -1 L194 -1 L194 4 C161 4 139 19 139 54 L136.729 424.178 C136.47 466.373 189.509 480.109 216.85 447.97 C340.05 303.145 463.25 158.209 586.45 12.6481 C589.307 9.27201 604.077 -1 608.5 -1 C614.295 -1 619.053 3.70438 619.118 9.49934 L625.96 618.399 C625.964 618.773 626.289 624.039 626.349 624.408 C631.061 653.623 650.842 665 682 665 L682 670 L540 670 L540 665 C574 665 595 650 595 615 L596.516 260.248 C596.686 220.45 544.347 210.144 518.838 240.692 C403.347 379 287.452 517.308 172.156 655.615 C164.161 665.206 144.297 668.816 131.812 668.679 L-4.00103 667.187 C-4.10338 667.186 -3.60247 663.633 -3.50142 663.617 L-3.50142 663.617 Z " />
<glyph glyph-name="ncaron" unicode="&#x148;" horiz-adv-x="525" d="M391.118 708.286 L299.811 619.587 C276.19 596.642 237.81 596.642 214.189 619.587 L122.602 708.558 C119.527 711.545 114.294 711.745 111 709 C107.713 706.261 106.911 701.03 109.227 697.432 L226 516 C232 506 248 484 258 484 C267 484 283 506 289 516 L405.562 697.104 C408.003 700.897 407.075 706.25 403.5 709 C399.949 711.731 394.331 711.407 391.118 708.286 L391.118 708.286 Z M22.0186 391.824 C41.5742 390.063 53 375.063 53 346 L53 20 C53 11 47 5 38 5 L18 5 L18 0 L178 0 L178 5 L158 5 C149 5 143 11 143 20 L143 273.665 C143 280.869 150.592 303.108 155.031 308.782 C192.93 357.22 246.3 388 294 388 C345 388 372 331 372 245 L372 20 C372 11 366 5 357 5 L337 5 L337 0 L497 0 L497 5 L477 5 C468 5 462 11 462 20 L462 245 C462 356 413 430 318 430 C271.8 430 216.071 395.969 170.467 341.944 C162.09 332.021 143 336.808 143 349.794 L143 397.5 C143 409.919 132.919 420 120.5 420 L104.801 420 C103.799 420 92.8465 418.45 91.8851 418.17 C79.8756 414.661 65.5 410.9 52.75 407.5 L19.9394 398.781 C18.3242 398.352 17.2252 396.649 17.5 395 C17.7436 393.538 20.5427 391.957 22.0186 391.824 L22.0186 391.824 Z " />
<glyph glyph-name="Omacron" unicode="&#x14c;" horiz-adv-x="871" d="M300.5 814 L553.5 814 C570.887 814 585 828.113 585 845.5 C585 862.887 570.887 877 553.5 877 L300.5 877 C283.113 877 269 862.887 269 845.5 C269 828.113 283.113 814 300.5 814 L300.5 814 Z M163 335 C163 540 268 676 426 676 C591 676 701 540 701 335 C701 130 588 -6 418 -6 C265 -6 163 130 163 335 L163 335 Z M48 335 C48 128 196 -10 417 -10 C656 -10 816 128 816 335 C816 542 660 680 427 680 C200 680 48 542 48 335 L48 335 Z " />
<glyph glyph-name="omacron" unicode="&#x14d;" horiz-adv-x="626" d="M186.5 564 L439.5 564 C456.887 564 471 578.113 471 595.5 C471 612.887 456.887 627 439.5 627 L186.5 627 C169.113 627 155 612.887 155 595.5 C155 578.113 169.113 564 186.5 564 L186.5 564 Z M144 210 C144 340 212 426 313 426 C414 426 482 340 482 210 C482 80 414 -6 313 -6 C212 -6 144 80 144 210 L144 210 Z M45 210 C45 78 152 -10 313 -10 C474 -10 581 78 581 210 C581 342 474 430 313 430 C152 430 45 342 45 210 L45 210 Z " />
<glyph glyph-name="Obreve" unicode="&#x14e;" horiz-adv-x="871" d="M286.421 902.791 C297.752 833.027 352.9 787 427 787 C501.1 787 556.247 832.125 567.579 900.941 C568.504 906.559 565.125 912.612 559.5 913.5 C555.162 914.185 549.589 910.872 548.351 906.658 C538.532 873.246 491.75 851 427 851 C362.25 851 315.468 873.246 305.649 908.241 C304.453 912.506 298.875 916.191 294.5 915.5 C288.881 914.613 285.509 908.406 286.421 902.791 L286.421 902.791 Z M163 335 C163 540 268 676 426 676 C591 676 701 540 701 335 C701 130 588 -6 418 -6 C265 -6 163 130 163 335 L163 335 Z M48 335 C48 128 196 -10 417 -10 C656 -10 816 128 816 335 C816 542 660 680 427 680 C200 680 48 542 48 335 L48 335 Z " />
<glyph glyph-name="obreve" unicode="&#x14f;" horiz-adv-x="626" d="M172.421 652.791 C183.752 583.027 238.9 537 313 537 C387.1 537 442.247 582.125 453.579 650.941 C454.504 656.559 451.125 662.612 445.5 663.5 C441.162 664.185 435.589 660.872 434.351 656.658 C424.532 623.246 377.75 601 313 601 C248.25 601 201.468 623.246 191.649 658.241 C190.453 662.506 184.875 666.191 180.5 665.5 C174.881 664.613 171.509 658.406 172.421 652.791 L172.421 652.791 Z M144 210 C144 340 212 426 313 426 C414 426 482 340 482 210 C482 80 414 -6 313 -6 C212 -6 144 80 144 210 L144 210 Z M45 210 C45 78 152 -10 313 -10 C474 -10 581 78 581 210 C581 342 474 430 313 430 C152 430 45 342 45 210 L45 210 Z " />
<glyph glyph-name="Racute" unicode="&#x154;" horiz-adv-x="760" d="M311.941 737.02 L448 852 C486 885 511 909 511 915 C511 939 490 959 466 959 C460 959 437 933 407 893 L299.654 749.232 C297.112 745.828 297.496 740.504 300.5 737.5 C303.525 734.475 308.673 734.259 311.941 737.02 L311.941 737.02 Z M74.6127 663.595 C98.7069 659.137 113 643.875 113 615 L113 55 C113 20 92 5 58 5 L58 0 L274 0 L274 5 C240 5 219 20 219 55 L219 259.5 C219 289.03 242.97 313 272.5 313 L305.592 313 C314.687 313 331.051 304.717 335.988 297.078 C364.125 253.547 425.375 166.375 505 57 C546 1 555 -1 751 -1 L751 4 C670 4 665 6 628 57 C549.8 164.1 487.495 249.525 451.525 298.536 C444.157 308.575 445.195 322.818 457.282 325.817 C546.096 347.858 600 397.6 600 479 C600 593 492 669 330 669 L74.9995 667.125 C74.9312 667.124 74.5455 663.608 74.6127 663.595 L74.6127 663.595 Z M219 393.5 L219 608 C219 630.079 236.921 648 259 648 L299 648 C409 648 483 589 483 500 C483 388 422 338 330 338 L274.5 338 C243.866 338 219 362.866 219 393.5 L219 393.5 Z " />
<glyph glyph-name="Rcaron" unicode="&#x158;" horiz-adv-x="760" d="M432.378 958.579 L340.648 870.125 C317.123 847.44 278.877 847.44 255.352 870.125 L163.622 958.579 C160.537 961.553 155.292 961.744 152 959 C148.715 956.262 147.901 951.021 150.202 947.417 L266 766 C272 756 288 734 298 734 C308 734 324 756 330 766 L445.798 947.417 C448.099 951.021 447.285 956.262 444 959 C440.708 961.744 435.463 961.553 432.378 958.579 L432.378 958.579 Z M74.6127 663.595 C98.7069 659.137 113 643.875 113 615 L113 55 C113 20 92 5 58 5 L58 0 L274 0 L274 5 C240 5 219 20 219 55 L219 259.5 C219 289.03 242.97 313 272.5 313 L305.592 313 C314.687 313 331.051 304.717 335.988 297.078 C364.125 253.547 425.375 166.375 505 57 C546 1 555 -1 751 -1 L751 4 C670 4 665 6 628 57 C549.8 164.1 487.495 249.525 451.525 298.536 C444.157 308.575 445.195 322.818 457.282 325.817 C546.096 347.858 600 397.6 600 479 C600 593 492 669 330 669 L74.9995 667.125 C74.9312 667.124 74.5455 663.608 74.6127 663.595 L74.6127 663.595 Z M219 393.5 L219 608 C219 630.079 236.921 648 259 648 L299 648 C409 648 483 589 483 500 C483 388 422 338 330 338 L274.5 338 C243.866 338 219 362.866 219 393.5 L219 393.5 Z " />
<glyph glyph-name="rcaron" unicode="&#x159;" horiz-adv-x="411" d="M353.378 708.579 L261.648 620.125 C238.123 597.44 199.877 597.44 176.352 620.125 L84.6222 708.579 C81.5373 711.553 76.2922 711.744 73 709 C69.7147 706.262 68.9013 701.021 71.2022 697.417 L187 516 C193 506 209 484 219 484 C229 484 245 506 251 516 L366.798 697.417 C369.099 701.021 368.285 706.262 365 709 C361.708 711.744 356.463 711.553 353.378 708.579 L353.378 708.579 Z M22.0186 391.824 C41.5742 390.063 53 375.063 53 346 L53 20 C53 11 47 5 38 5 L18 5 L18 0 L178 0 L178 5 L158 5 C149 5 143 11 143 20 L143 300.37 C143 305.27 147.405 322.815 149.942 327.007 C172.64 364.51 211.7 388 254 388 C279 388 295 374 295 353 C295 321 316 300 348 300 C380 300 401 321 401 353 C401 399 359 430 296 430 C243.2 430 193.123 400.733 160.928 353.43 C156.634 347.12 143 349.413 143 357.045 L143 397.5 C143 409.919 132.919 420 120.5 420 L104.801 420 C103.799 420 92.8465 418.45 91.8851 418.17 C79.8756 414.661 65.5 410.9 52.75 407.5 L19.9394 398.781 C18.3242 398.352 17.2252 396.649 17.5 395 C17.7436 393.538 20.5427 391.957 22.0186 391.824 L22.0186 391.824 Z " />
<glyph glyph-name="Sacute" unicode="&#x15a;" horiz-adv-x="562" d="M291.958 737 L429 852 C467 884 492 908 492 915 C492 939 471 959 447 959 C441 959 418 933 388 893 L279.68 749.213 C277.122 745.817 277.494 740.506 280.5 737.5 C283.524 734.476 288.682 734.251 291.958 737 L291.958 737 Z M483 519.016 L483 652 C483 654.208 481.208 656 479 656 L475 656 C474 652 474 646 473 642 C470 624 452 621 427 636 C415.3 643.2 402.79 649.59 389.47 655.17 C389.353 655.219 381.038 659.287 380.926 659.347 C375.407 662.292 369.593 664.569 364.074 667.069 C363.76 667.212 355.803 670.213 355.47 670.305 C326.597 678.293 294.25 681 261 681 C142 681 63 609 63 500 C63 413 132 330 265 281 C379 239 438 190 438 149 C438 57 381 -4 296 -4 C253 -4 210 10 173 35 C133 62 93 119 71 177 L66.7183 188.01 C65.3199 191.606 60.3583 195 56.5 195 C52.3602 195 49 191.64 49 187.5 L49 17 C49 14.7921 50.7921 13 53 13 L53.4645 13 C55.5149 13 57.3585 15.7505 57.5405 17.7929 C58.0494 23.5062 58.2222 29.5556 59 35 C62 65 87 69 121 44 C168 10 230 -10 295 -10 C431 -10 521 65 521 178 C521 263 455 343 327 390 C207 434 145 489 145 539 C145 621 191 676 260 676 C297 676 333 666 365 649 C404 626 441 580 460 528 L464.095 517.471 C465.623 513.542 470.793 510.237 475 510.5 C479.407 510.775 483 514.6 483 519.016 L483 519.016 Z " />
<glyph glyph-name="Scircumflex" unicode="&#x15c;" horiz-adv-x="562" d="M483 519.016 L483 652 C483 654.208 481.208 656 479 656 L475 656 C474 652 474 646 473 642 C470 624 452 621 427 636 C415.3 643.2 402.79 649.59 389.47 655.17 C389.353 655.219 381.038 659.287 380.926 659.347 C375.407 662.292 369.593 664.569 364.074 667.069 C363.76 667.212 355.803 670.213 355.47 670.305 C326.597 678.293 294.25 681 261 681 C142 681 63 609 63 500 C63 413 132 330 265 281 C379 239 438 190 438 149 C438 57 381 -4 296 -4 C253 -4 210 10 173 35 C133 62 93 119 71 177 L66.7183 188.01 C65.3199 191.606 60.3583 195 56.5 195 C52.3602 195 49 191.64 49 187.5 L49 17 C49 14.7921 50.7921 13 53 13 L53.4645 13 C55.5149 13 57.3585 15.7505 57.5405 17.7929 C58.0494 23.5062 58.2222 29.5556 59 35 C62 65 87 69 121 44 C168 10 230 -10 295 -10 C431 -10 521 65 521 178 C521 263 455 343 327 390 C207 434 145 489 145 539 C145 621 191 676 260 676 C297 676 333 666 365 649 C404 626 441 580 460 528 L464.095 517.471 C465.623 513.542 470.793 510.237 475 510.5 C479.407 510.775 483 514.6 483 519.016 L483 519.016 Z M309 923 C303 933 287 955 278 955 C268 955 252 933 246 923 L129.227 741.568 C126.911 737.97 127.713 732.739 131 730 C134.292 727.256 139.537 727.447 142.621 730.422 L235.347 819.859 C258.875 842.553 297.125 842.553 320.653 819.859 L413.379 730.422 C416.463 727.447 421.708 727.256 425 730 C428.288 732.74 429.079 737.961 426.748 741.552 L309 923 L309 923 Z " />
<glyph glyph-name="Scaron" unicode="&#x160;" horiz-adv-x="562" d="M413.118 958.286 L321.811 869.587 C298.19 846.642 259.81 846.642 236.189 869.587 L144.602 958.558 C141.527 961.545 136.294 961.745 133 959 C129.713 956.261 128.911 951.03 131.227 947.432 L248 766 C254 756 270 734 280 734 C289 734 305 756 311 766 L427.562 947.104 C430.003 950.897 429.075 956.25 425.5 959 C421.949 961.731 416.331 961.407 413.118 958.286 L413.118 958.286 Z M484 519.016 L484 652 C484 654.208 482.208 656 480 656 L476 656 C475 652 475 646 474 642 C471 624 453 621 428 636 C416.3 643.2 403.79 649.59 390.47 655.17 C390.353 655.219 382.038 659.287 381.926 659.347 C376.407 662.292 370.593 664.569 365.074 667.069 C364.76 667.212 356.803 670.213 356.47 670.305 C327.597 678.293 295.25 681 262 681 C143 681 64 609 64 500 C64 413 133 330 266 281 C380 239 439 190 439 149 C439 57 382 -4 297 -4 C254 -4 211 10 174 35 C134 62 94 119 72 177 L67.7183 188.01 C66.3199 191.606 61.3583 195 57.5 195 C53.3602 195 50 191.64 50 187.5 L50 17 C50 14.7921 51.7921 13 54 13 L54.4645 13 C56.5149 13 58.3585 15.7505 58.5405 17.7929 C59.0494 23.5062 59.2222 29.5556 60 35 C63 65 88 69 122 44 C169 10 231 -10 296 -10 C432 -10 522 65 522 178 C522 263 456 343 328 390 C208 434 146 489 146 539 C146 621 192 676 261 676 C298 676 334 666 366 649 C405 626 442 580 461 528 L465.095 517.471 C466.623 513.542 471.793 510.237 476 510.5 C480.407 510.775 484 514.6 484 519.016 L484 519.016 Z " />
<glyph glyph-name="scaron" unicode="&#x161;" horiz-adv-x="440" d="M357.378 708.579 L265.648 620.125 C242.123 597.44 203.877 597.44 180.352 620.125 L88.6222 708.579 C85.5373 711.553 80.2922 711.744 77 709 C73.7147 706.262 72.9013 701.021 75.2022 697.417 L191 516 C197 506 213 484 223 484 C233 484 249 506 255 516 L370.798 697.417 C373.099 701.021 372.285 706.262 369 709 C365.708 711.744 360.463 711.553 357.378 708.579 L357.378 708.579 Z M63.5 132 C61.5681 132 60 130.432 60 128.5 L60 16 C60 14.3441 61.3441 13 63 13 L66 13 C66 17 67 21 67 25 C69 42 119 16 139 7 L158.244 -0.872459 C158.451 -0.957142 162.935 -2.56352 163.15 -2.62391 C182.571 -8.07015 203.786 -9 225 -9 C325 -9 392 40 392 113 C392 169 342 219 245 245 C165 266 124 306 124 348 C124 396 160 428 213 428 C233 428 252 424 270 417 C304.125 400.425 343.003 356.282 359.755 308.669 C360.262 307.23 362.475 305 364 305 C365.656 305 367 306.344 367 308 L367 410 C367 411.656 365.656 413 364 413 C362.354 413 360.85 411.654 360.669 410.018 L360 404 C359.033 398.2 339.378 401.744 309.163 411.923 C308.908 412.009 304.113 413.896 303.87 414.013 C291.169 420.165 279.796 427.576 267.235 432.468 C265.178 433.269 262.37 432.529 261.5 430.5 C260.705 428.645 257.672 427.463 255.687 427.829 C241.943 430.363 227.381 432 212 432 C120 432 59 386 59 318 C59 257 108 204 204 178 C282 157 322 123 322 89 C322 33 283 -5 224 -5 C204 -5 184 0 165 9 C129.9 25.575 88.1456 74.4713 68.4695 128.81 C67.8642 130.481 65.2778 132 63.5 132 L63.5 132 Z " />
<glyph glyph-name="Tcaron" unicode="&#x164;" horiz-adv-x="786" d="M526.378 958.579 L434.648 870.125 C411.123 847.44 372.877 847.44 349.352 870.125 L257.622 958.579 C254.537 961.553 249.292 961.744 246 959 C242.715 956.262 241.901 951.021 244.202 947.417 L360 766 C366 756 382 734 392 734 C402 734 418 756 424 766 L539.798 947.417 C542.099 951.021 541.285 956.262 538 959 C534.708 961.744 529.463 961.553 526.378 958.579 L526.378 958.579 Z M710.651 681.907 C692.12 673.24 651.8 670 605 670 L181 670 C132.9 670 92.5006 673.423 74.8395 682.642 C74.076 683.04 67.3613 685 66.5 685 C64.1608 685 61.2732 682.965 60.4865 680.762 L52 657 L57 657 L57 652 C57 650.938 55.4384 643.272 55.0284 642.292 C43.0741 613.713 28.9734 579.382 17.8291 552.423 C16.7578 549.831 18.6955 548 21.5 548 C24.1032 548 28.4904 550.484 29.8297 552.716 L36 563 C66 611 119 643 170 643 L279.56 643 C313.473 643 341 615.473 341 581.56 L341 54 C341 19 320 4 286 4 L286 -1 L502 -1 L502 4 C468 4 447 19 447 54 L447 581.56 C447 615.473 474.527 643 508.44 643 L617 643 C669 643 722 611 751 563 L757.17 552.716 C758.51 550.484 762.897 548 765.5 548 C768.328 548 770.359 549.635 769.321 552.265 C759.077 578.239 745.876 610.856 734.822 638.449 C734.363 639.594 733 647.767 733 649 L733 655 L738 655 C735.462 661.769 731.491 670.686 728.512 678.722 C727.758 680.755 724.466 683.461 722.333 683.849 L721.5 684 C720.198 684.237 711.85 682.468 710.651 681.907 L710.651 681.907 Z " />
<glyph glyph-name="tcaron" unicode="&#x165;" horiz-adv-x="390" d="M321 420 L236.5 420 C208.626 420 186 442.626 186 470.5 L186 518 C186 519.656 184.656 521 183 521 C181.897 521 178.585 519.737 177.762 519.002 L34.7301 391.33 C33.1941 389.959 31 385.059 31 383 C31 380.24 33.2402 378 36 378 L63.5 378 C81.439 378 96 363.439 96 345.5 L96 138 C96 31 153 -10 238 -10 C297.475 -10 353.147 25.1731 378.139 78.8359 C379.431 81.611 377.842 83.8631 375 85 C372.478 86.0088 368.985 84.6658 367.693 82.2765 C351.785 52.855 311.6 33 266 33 C217 33 184 57 184 118 L185.52 311.044 C185.785 344.689 213.312 372 246.958 372 L321 372 C334.247 372 345 382.753 345 396 C345 409.247 334.247 420 321 420 L321 420 Z M439 678 C420 678 410 615 406 570 L396.73 467.107 C396.329 462.652 399.604 458.324 404 457.5 C408.339 456.686 413.355 459.47 414.961 463.582 L453 561 C469 600 479 641 479 665 C479 674 463 678 439 678 L439 678 Z " />
<glyph glyph-name="Utilde" unicode="&#x168;" horiz-adv-x="721" d="M204.589 808.023 L208.553 807.49 C208.553 807.49 207.692 808.295 207.692 808.295 C212.926 833.665 229.9 850 253 850 C308 850 381 785 436 785 C477.625 785 505.56 827.781 509.516 892.766 C509.516 892.766 510.756 891.708 510.756 891.708 L506.803 892.325 C506.803 892.325 508.043 891.267 508.043 891.267 C501.994 865.335 482.4 849 456 849 C401 849 329 914 274 914 C235.15 914 209.134 872.074 205.451 807.218 C205.451 807.218 204.589 808.023 204.589 808.023 L208.553 807.49 C208.553 807.49 207.692 808.295 207.692 808.295 L204.589 808.023 Z M692 34 L683 32 C655 25 637 40 637 70 L637 643.499 C637 658.126 625.127 670.112 610.5 670.25 L584 670.5 L476 671 L476 666 C510 666 531 651 531 616 L531 202.675 C531 198.516 527.091 181.005 525.095 177.356 C485.485 104.93 404.45 58 318 58 C238 58 184 122 184 218 L184 643.499 C184 658.126 172.127 670.112 157.5 670.25 L131 670.5 L23 671 L23 666 C57 666 78 651 78 616 L78 218 C78 81 157 -10 276 -10 C366.75 -10 452.055 31.5181 503.278 97.1474 C510.135 105.934 531 102.822 531 91.676 L531 26.5 C531 11.8728 542.873 0 557.5 0 L576.436 0 C577.482 0 590.379 1.60677 591.392 1.86455 C622.533 9.78313 662.4 20.675 692 29 L692 34 L692 34 Z " />
<glyph glyph-name="utilde" unicode="&#x169;" horiz-adv-x="520" d="M101.589 557.023 L105.553 556.49 C105.553 556.49 104.692 557.295 104.692 557.295 C109.926 582.665 126.9 599 150 599 C205 599 278 534 333 534 C374.625 534 402.56 576.781 406.516 641.766 C406.516 641.766 407.756 640.708 407.756 640.708 L403.803 641.325 C403.803 641.325 405.043 640.267 405.043 640.267 C398.994 614.335 379.4 598 353 598 C298 598 226 663 171 663 C132.15 663 106.134 621.074 102.451 556.218 C102.451 556.218 101.589 557.023 101.589 557.023 L105.553 556.49 C105.553 556.49 104.692 557.295 104.692 557.295 L101.589 557.023 Z M506 24 L506 29 C480 21 461 31 461 67 L461 358.56 C461 392.473 433.473 420 399.56 420 L336 420 L336 415 L356 415 C365 415 371 409 371 400 L371 132.544 C371 126.797 367.53 111.934 364.329 107.161 C341.46 73.06 293.4 52 234 52 C176 52 137 94 137 157 L137 358.56 C137 392.473 109.473 420 75.56 420 L12 420 L12 415 L32 415 C41 415 47 409 47 400 L47 157 C47 57 105 -10 192 -10 C262.125 -10 321.36 22.67 353.421 75.0951 C356.705 80.4651 370 78.8726 370 72.578 L370 22.5 C370 10.0807 380.081 0 392.5 0 L407.165 0 C408.278 0 422.511 1.95929 423.587 2.24205 C449.387 9.01972 481.269 17.7179 505.5 24 L506 24 Z " />
<glyph glyph-name="Umacron" unicode="&#x16a;" horiz-adv-x="721" d="M230.5 815 L484.5 815 C501.887 815 516 829.113 516 846.5 C516 863.887 501.887 878 484.5 878 L230.5 878 C213.113 878 199 863.887 199 846.5 C199 829.113 213.113 815 230.5 815 L230.5 815 Z M692 34 L683 32 C655 25 637 40 637 70 L637 643.499 C637 658.126 625.127 670.112 610.5 670.25 L584 670.5 L476 671 L476 666 C510 666 531 651 531 616 L531 202.675 C531 198.516 527.091 181.005 525.095 177.356 C485.485 104.93 404.45 58 318 58 C238 58 184 122 184 218 L184 643.499 C184 658.126 172.127 670.112 157.5 670.25 L131 670.5 L23 671 L23 666 C57 666 78 651 78 616 L78 218 C78 81 157 -10 276 -10 C366.75 -10 452.055 31.5181 503.278 97.1474 C510.135 105.934 531 102.822 531 91.676 L531 26.5 C531 11.8728 542.873 0 557.5 0 L576.436 0 C577.482 0 590.379 1.60677 591.392 1.86455 C622.533 9.78313 662.4 20.675 692 29 L692 34 L692 34 Z " />
<glyph glyph-name="umacron" unicode="&#x16b;" horiz-adv-x="520" d="M127.5 564 L381.5 564 C398.887 564 413 578.113 413 595.5 C413 612.887 398.887 627 381.5 627 L127.5 627 C110.113 627 96 612.887 96 595.5 C96 578.113 110.113 564 127.5 564 L127.5 564 Z M506 24 L506 29 C480 21 461 31 461 67 L461 358.56 C461 392.473 433.473 420 399.56 420 L336 420 L336 415 L356 415 C365 415 371 409 371 400 L371 132.544 C371 126.797 367.53 111.934 364.329 107.161 C341.46 73.06 293.4 52 234 52 C176 52 137 94 137 157 L137 358.56 C137 392.473 109.473 420 75.56 420 L12 420 L12 415 L32 415 C41 415 47 409 47 400 L47 157 C47 57 105 -10 192 -10 C262.125 -10 321.36 22.67 353.421 75.0951 C356.705 80.4651 370 78.8726 370 72.578 L370 22.5 C370 10.0807 380.081 0 392.5 0 L407.165 0 C408.278 0 422.511 1.95929 423.587 2.24205 C449.387 9.01972 481.269 17.7179 505.5 24 L506 24 Z " />
<glyph glyph-name="Ubreve" unicode="&#x16c;" horiz-adv-x="721" d="M217.421 903.791 C228.753 834.027 283.9 788 358 788 C432.1 788 487.248 833.125 498.579 901.941 C499.504 907.559 496.125 913.612 490.5 914.5 C486.162 915.185 480.589 911.872 479.351 907.658 C469.532 874.246 422.75 852 358 852 C292.325 852 245.474 874.246 235.65 909.241 C234.513 913.291 229.149 917.191 225 916.5 C219.676 915.613 216.556 909.118 217.421 903.791 L217.421 903.791 Z M692 34 L683 32 C655 25 637 40 637 70 L637 643.499 C637 658.126 625.127 670.112 610.5 670.25 L584 670.5 L476 671 L476 666 C510 666 531 651 531 616 L531 202.675 C531 198.516 527.091 181.005 525.095 177.356 C485.485 104.93 404.45 58 318 58 C238 58 184 122 184 218 L184 643.499 C184 658.126 172.127 670.112 157.5 670.25 L131 670.5 L23 671 L23 666 C57 666 78 651 78 616 L78 218 C78 81 157 -10 276 -10 C366.75 -10 452.055 31.5181 503.278 97.1474 C510.135 105.934 531 102.822 531 91.676 L531 26.5 C531 11.8728 542.873 0 557.5 0 L576.436 0 C577.482 0 590.379 1.60677 591.392 1.86455 C622.533 9.78313 662.4 20.675 692 29 L692 34 L692 34 Z " />
<glyph glyph-name="ubreve" unicode="&#x16d;" horiz-adv-x="520" d="M114.421 652.791 C125.753 583.027 180.9 537 255 537 C329.1 537 384.248 582.125 395.579 650.941 C396.504 656.559 393.125 662.612 387.5 663.5 C383.162 664.185 377.589 660.872 376.351 656.658 C366.532 623.246 319.75 601 255 601 C189.325 601 142.474 623.246 132.65 658.241 C131.513 662.291 126.149 666.191 122 665.5 C116.676 664.613 113.556 658.118 114.421 652.791 L114.421 652.791 Z M506 24 L506 29 C480 21 461 31 461 67 L461 358.56 C461 392.473 433.473 420 399.56 420 L336 420 L336 415 L356 415 C365 415 371 409 371 400 L371 132.544 C371 126.797 367.53 111.934 364.329 107.161 C341.46 73.06 293.4 52 234 52 C176 52 137 94 137 157 L137 358.56 C137 392.473 109.473 420 75.56 420 L12 420 L12 415 L32 415 C41 415 47 409 47 400 L47 157 C47 57 105 -10 192 -10 C262.125 -10 321.36 22.67 353.421 75.0951 C356.705 80.4651 370 78.8726 370 72.578 L370 22.5 C370 10.0807 380.081 0 392.5 0 L407.165 0 C408.278 0 422.511 1.95929 423.587 2.24205 C449.387 9.01972 481.269 17.7179 505.5 24 L506 24 Z " />
<glyph glyph-name="Uring" unicode="&#x16e;" horiz-adv-x="721" d="M286 826 C286 870 315 900 358 900 C401 900 429 870 429 826 C429 786 396 752 358 752 C319 752 286 786 286 826 L286 826 Z M260 826 C260 775 305 731 358 731 C410 731 455 775 455 826 C455 883 416 921 358 921 C299 921 260 883 260 826 L260 826 Z M692 34 L683 32 C655 25 637 40 637 70 L637 643.499 C637 658.126 625.127 670.112 610.5 670.25 L584 670.5 L476 671 L476 666 C510 666 531 651 531 616 L531 202.675 C531 198.516 527.091 181.005 525.095 177.356 C485.485 104.93 404.45 58 318 58 C238 58 184 122 184 218 L184 643.499 C184 658.126 172.127 670.112 157.5 670.25 L131 670.5 L23 671 L23 666 C57 666 78 651 78 616 L78 218 C78 81 157 -10 276 -10 C366.75 -10 452.055 31.5181 503.278 97.1474 C510.135 105.934 531 102.822 531 91.676 L531 26.5 C531 11.8728 542.873 0 557.5 0 L576.436 0 C577.482 0 590.379 1.60677 591.392 1.86455 C622.533 9.78313 662.4 20.675 692 29 L692 34 L692 34 Z " />
<glyph glyph-name="uring" unicode="&#x16f;" horiz-adv-x="520" d="M183 575 C183 619 212 649 255 649 C298 649 326 619 326 575 C326 535 293 501 255 501 C216 501 183 535 183 575 L183 575 Z M157 575 C157 524 202 480 255 480 C307 480 352 524 352 575 C352 632 313 670 255 670 C196 670 157 632 157 575 L157 575 Z M506 24 L506 29 C480 21 461 31 461 67 L461 358.56 C461 392.473 433.473 420 399.56 420 L336 420 L336 415 L356 415 C365 415 371 409 371 400 L371 132.544 C371 126.797 367.53 111.934 364.329 107.161 C341.46 73.06 293.4 52 234 52 C176 52 137 94 137 157 L137 358.56 C137 392.473 109.473 420 75.56 420 L12 420 L12 415 L32 415 C41 415 47 409 47 400 L47 157 C47 57 105 -10 192 -10 C262.125 -10 321.36 22.67 353.421 75.0951 C356.705 80.4651 370 78.8726 370 72.578 L370 22.5 C370 10.0807 380.081 0 392.5 0 L407.165 0 C408.278 0 422.511 1.95929 423.587 2.24205 C449.387 9.01972 481.269 17.7179 505.5 24 L506 24 Z " />
<glyph glyph-name="Wcircumflex" unicode="&#x174;" horiz-adv-x="1076" d="M233.959 670 L1 670 C-0.65591 670 -2 668.656 -2 667 C-2 665.404 -1.50618 664.02 0.0888438 663.962 C27.1 662.986 48.55 642.925 70 601 C161 397 252 194 343 -10 C345.67 -15.9847 349.447 -10 356 -10 C362.544 -10 371.648 -4.11227 374.332 1.85604 L525.785 338.596 C538.641 367.18 576.785 363.644 589.55 335.02 C639.15 223.795 688.75 112.459 738.35 0.498141 C741.109 -5.73004 749.688 -10 756.5 -10 C763.558 -10 772.763 -1.83599 775.025 4.85 C840.351 197.9 905.7 390.95 972 584 C988 632 1021 664 1054 664 L1060 664 C1061.66 664 1063 665.344 1063 667 C1063 668.656 1061.66 670 1060 670 L848 670 C846.344 670 845 668.656 845 667 C845 665.344 846.344 664 848 664 L878 664 C926 664 947.5 632 932.5 584 L817.312 222.334 C808.333 194.144 770.538 195.688 758.355 222.65 C703.931 343.1 649.625 463.55 596 584 C574 632 592 664 640 664 L654 664 C655.656 664 657 665.344 657 667 C657 668.656 655.656 670 654 670 L397 670 C395.344 670 394 668.656 394 667 C394 665.344 395.344 664 397 664 L402 664 C427 664 458 632 479 584 C495.5 546.05 512.681 508.1 529.419 470.712 C533.525 461.54 534.229 433.617 530.25 424.391 L457.038 254.624 C434.57 202.524 368.065 201.92 344.654 253.604 L195 584 C173 632 185 664 224 664 L232.959 664 C234.615 664 236.228 665.367 236.5 667 C236.772 668.633 235.615 670 233.959 670 L233.959 670 Z M552 924 C546 934 530 956 520 956 C510 956 494 934 488 924 L372.202 742.583 C369.901 738.979 370.715 733.738 374 731 C377.292 728.256 382.537 728.447 385.622 731.421 L477.352 819.875 C500.877 842.56 539.123 842.56 562.648 819.875 L654.378 731.421 C657.463 728.447 662.708 728.256 666 731 C669.285 733.738 670.099 738.979 667.798 742.583 L552 924 L552 924 Z " />
<glyph glyph-name="Ycircumflex" unicode="&#x176;" horiz-adv-x="689" d="M230.45 670 L-3 670 L-3 665 C22 665 44 650 68 619 L289.021 300.806 C292.478 295.829 300 271.815 300 265.755 L300 75 C300 33 275 5 237 5 L225 5 L225 0 L481 0 L481 5 L469 5 C431 5 406 33 406 75 L406 284.77 C406 289.715 412.388 312.493 414.96 316.718 L593.5 610 C616.5 648 650 665 692 665 L692 670 L527 670 L527 665 L564 665 C597 665 606 643 586 610 L435.271 358.234 C419.672 332.177 384.242 335.323 367.214 360.47 C310.936 443.583 253.795 527.128 198 610 C176 643 182 665 215 665 L229.45 665 C230.83 665 232.229 666.147 232.5 667.5 C232.771 668.853 231.83 670 230.45 670 L230.45 670 Z M384 924 C378 934 362 956 352 956 C342 956 326 934 320 924 L204.202 742.583 C201.901 738.979 202.715 733.738 206 731 C209.292 728.256 214.537 728.447 217.622 731.421 L309.352 819.875 C332.877 842.56 371.123 842.56 394.648 819.875 L486.378 731.421 C489.463 728.447 494.708 728.256 498 731 C501.285 733.738 502.099 738.979 499.798 742.583 L384 924 L384 924 Z " />
<glyph glyph-name="Ydieresis" unicode="&#x178;" horiz-adv-x="689" d="M430 785 C465 785 488 808 488 843 C488 878 465 901 430 901 C395 901 372 878 372 843 C372 808 395 785 430 785 L430 785 Z M276 785 C311 785 334 808 334 843 C334 878 311 901 276 901 C241 901 218 878 218 843 C218 808 241 785 276 785 L276 785 Z M230.45 670 L-3 670 L-3 665 C22 665 44 650 68 619 L289.021 300.806 C292.478 295.829 300 271.815 300 265.755 L300 75 C300 33 275 5 237 5 L225 5 L225 0 L481 0 L481 5 L469 5 C431 5 406 33 406 75 L406 284.77 C406 289.715 412.388 312.493 414.96 316.718 L593.5 610 C616.5 648 650 665 692 665 L692 670 L527 670 L527 665 L564 665 C597 665 606 643 586 610 L435.271 358.234 C419.672 332.177 384.242 335.323 367.214 360.47 C310.936 443.583 253.795 527.128 198 610 C176 643 182 665 215 665 L229.45 665 C230.83 665 232.229 666.147 232.5 667.5 C232.771 668.853 231.83 670 230.45 670 L230.45 670 Z " />
<glyph glyph-name="Zacute" unicode="&#x179;" horiz-adv-x="648" d="M357.958 737 L495 852 C533 884 558 908 558 915 C558 939 537 959 513 959 C507 959 484 933 454 893 L345.68 749.213 C343.122 745.817 343.494 740.506 346.5 737.5 C349.524 734.476 354.682 734.251 357.958 737 L357.958 737 Z M71.654 551.789 L74 560 C89 608 140 641 203 642 L377.842 644.895 C432.826 645.805 461.077 589.717 427.616 546.078 L31.3891 29.3324 C29.2432 26.5339 25 14.0266 25 10.5 C25 4.70431 29.7043 0 35.5 0 L608.811 0 C613.227 0 617.806 3.68624 618.75 8 L620.5 16 L644.758 120.642 C645.426 123.523 643.457 126 640.5 126 C637.71 126 633.933 123.509 632.833 120.945 L629 112 C609 67 560 36 503 30 L276.89 25.5035 C222.118 24.4143 193.65 79.9273 226.497 123.77 L613.704 640.597 C615.788 643.378 620 656.025 620 659.5 C620 665.296 615.296 670 609.5 670 L84.052 670 C75.7724 670 68.4376 663.251 67.75 655 L66.5 640 C64.6 622.9 62.2488 592.262 58.5889 553.232 C58.2791 549.928 60.6932 546.776 64 546.5 C67.249 546.229 70.7584 548.654 71.654 551.789 L71.654 551.789 Z " />
<glyph glyph-name="Zdot" unicode="&#x17b;" horiz-adv-x="648" d="M345 785 C380 785 403 808 403 843 C403 878 380 901 345 901 C310 901 286 878 286 843 C286 808 310 785 345 785 L345 785 Z M71.654 551.789 L74 560 C89 608 140 641 203 642 L377.842 644.895 C432.826 645.805 461.077 589.717 427.616 546.078 L31.3891 29.3324 C29.2432 26.5339 25 14.0266 25 10.5 C25 4.70431 29.7043 0 35.5 0 L608.811 0 C613.227 0 617.806 3.68624 618.75 8 L620.5 16 L644.758 120.642 C645.426 123.523 643.457 126 640.5 126 C637.71 126 633.933 123.509 632.833 120.945 L629 112 C609 67 560 36 503 30 L276.89 25.5035 C222.118 24.4143 193.65 79.9273 226.497 123.77 L613.704 640.597 C615.788 643.378 620 656.025 620 659.5 C620 665.296 615.296 670 609.5 670 L84.052 670 C75.7724 670 68.4376 663.251 67.75 655 L66.5 640 C64.6 622.9 62.2488 592.262 58.5889 553.232 C58.2791 549.928 60.6932 546.776 64 546.5 C67.249 546.229 70.7584 548.654 71.654 551.789 L71.654 551.789 Z " />
<glyph glyph-name="zdot" unicode="&#x17c;" horiz-adv-x="486" d="M257 535 C292 535 315 558 315 593 C315 628 292 651 257 651 C222 651 199 628 199 593 C199 558 222 535 257 535 L257 535 Z M66 422 C65 419 62 404 60 404 C60 404 51.8775 374.218 39.9194 328.37 C39.0425 325.009 41.0256 321 44.5 321 L44.8967 321 C47.6566 321 52.9173 323.739 54.5 326 L58 331 C75.55 361.225 113.063 383.845 155.71 390.518 C155.979 390.56 162.021 391.086 162.293 391.094 L247 393.5 C284.308 394.56 303.645 356.142 280.569 326.808 L46.492 29.2525 C44.2764 26.4361 40 14.0834 40 10.5 C40 4.70431 44.7043 0 50.5 0 L432.938 0 C437.354 0 441.452 3.61834 442 8 L443 16 C443 16 447.512 45.7825 452.251 91.6295 C452.619 95.1912 450.081 99 446.5 99 L445.59 99 C442.83 99 438.734 96.4685 437.5 94 L435 89 C420 54 377 30 327 28 L240.5 25.5 C203.691 24.4362 184.542 62.2235 207.166 91.2781 L439.549 389.715 C441.737 392.525 446 404.939 446 408.5 C446 414.296 441.296 419 435.5 419 L108 419 C90 419 77 419.5 76 420.5 L66 422 L66 422 Z " />
<glyph glyph-name="Zcaron" unicode="&#x17d;" horiz-adv-x="648" d="M479.118 958.286 L387.811 869.587 C364.19 846.642 325.81 846.642 302.189 869.587 L210.602 958.558 C207.527 961.545 202.294 961.745 199 959 C195.713 956.261 194.911 951.03 197.227 947.432 L314 766 C320 756 336 734 346 734 C355 734 371 756 377 766 L493.562 947.104 C496.003 950.897 495.075 956.25 491.5 959 C487.949 961.731 482.331 961.407 479.118 958.286 L479.118 958.286 Z M72.654 551.789 L75 560 C90 608 141 641 204 642 L378.842 644.895 C433.826 645.805 462.077 589.717 428.616 546.078 L32.3891 29.3324 C30.2432 26.5339 26 14.0266 26 10.5 C26 4.70431 30.7043 0 36.5 0 L609.811 0 C614.227 0 618.806 3.68624 619.75 8 L621.5 16 L645.758 120.642 C646.426 123.523 644.457 126 641.5 126 C638.71 126 634.933 123.509 633.833 120.945 L630 112 C610 67 561 36 504 30 L277.89 25.5035 C223.118 24.4143 194.65 79.9273 227.497 123.77 L614.704 640.597 C616.788 643.378 621 656.025 621 659.5 C621 665.296 616.296 670 610.5 670 L85.052 670 C76.7724 670 69.4376 663.251 68.75 655 L67.5 640 C65.6 622.9 63.2488 592.262 59.5889 553.232 C59.2791 549.928 61.6932 546.776 65 546.5 C68.249 546.229 71.7584 548.654 72.654 551.789 L72.654 551.789 Z " />
<glyph glyph-name="zcaron" unicode="&#x17e;" horiz-adv-x="486" d="M391.378 708.579 L299.648 620.125 C276.123 597.44 237.877 597.44 214.352 620.125 L122.622 708.579 C119.537 711.553 114.292 711.744 111 709 C107.715 706.262 106.901 701.021 109.202 697.417 L225 516 C231 506 247 484 257 484 C267 484 283 506 289 516 L404.798 697.417 C407.099 701.021 406.285 706.262 403 709 C399.708 711.744 394.463 711.553 391.378 708.579 L391.378 708.579 Z M66 422 C65 419 62 404 60 404 C60 404 51.8775 374.218 39.9194 328.37 C39.0425 325.009 41.0256 321 44.5 321 L44.8967 321 C47.6566 321 52.9173 323.739 54.5 326 L58 331 C75.55 361.225 113.063 383.845 155.71 390.518 C155.979 390.56 162.021 391.086 162.293 391.094 L247 393.5 C284.308 394.56 303.645 356.142 280.569 326.808 L46.492 29.2525 C44.2764 26.4361 40 14.0834 40 10.5 C40 4.70431 44.7043 0 50.5 0 L432.938 0 C437.354 0 441.452 3.61834 442 8 L443 16 C443 16 447.512 45.7825 452.251 91.6295 C452.619 95.1912 450.081 99 446.5 99 L445.59 99 C442.83 99 438.734 96.4685 437.5 94 L435 89 C420 54 377 30 327 28 L240.5 25.5 C203.691 24.4362 184.542 62.2235 207.166 91.2781 L439.549 389.715 C441.737 392.525 446 404.939 446 408.5 C446 414.296 441.296 419 435.5 419 L108 419 C90 419 77 419.5 76 420.5 L66 422 L66 422 Z " />
<glyph glyph-name="oogonek" unicode="&#x1eb;" horiz-adv-x="776" d="M995.779 -60.418 C952.727 -80.1328 850.625 -92 729 -92 C581.775 -92 425.044 -60.6294 323.686 -10.8642 C321.972 -10.0222 323.221 -7.71517 325.124 -7.8832 C341.106 -9.2944 357.2 -10 374 -10 C585 -10 726 95 726 252 C726 409 589 513 384 513 C184 513 51 409 51 252 C51 149 107 68 200 25 C200.145 24.9328 213.265 17.124 213.403 17.043 C388.304 -85.5056 588.35 -153 719 -153 C815.2 -153 922.095 -118.347 994.573 -65.6621 C994.715 -65.5592 995.938 -60.3451 995.779 -60.418 L995.779 -60.418 Z M294 5 C209 38 156 128 156 250 C156 405 247 508 384 508 C527 508 623 405 623 250 C623 94 522 -10 371 -10 C343 -10 317 -4.5 294 4.5 L294 5 Z " />
<glyph glyph-name="Adotabove" unicode="&#x226;" horiz-adv-x="708" d="M354 785 C389 785 412 808 412 843 C412 878 389 901 354 901 C319 901 296 878 296 843 C296 808 319 785 354 785 L354 785 Z M431.64 0 L703 0 C704.656 0 706 1.34409 706 3 C706 4.65591 704.656 6 703 6 L697 6 C664 6 627 46 605 106 C533 301 462 496 389 690 C388.09 692.418 386.583 690 384 690 C381.821 690 379.434 687.28 379.316 685.104 C378.296 666.292 351.34 650.294 308.498 643.139 C305.457 642.631 301.946 639.398 303 636.5 C303.69 634.603 303.771 627.369 303.124 625.456 L125 99 C104 43 56 6 5 6 L-7 6 C-8.65591 6 -10 4.65591 -10 3 C-10 1.34409 -8.65591 0 -7 0 L199 0 C200.656 0 202 1.34409 202 3 C202 4.65591 200.656 6 199 6 L186 6 C134 6 113 46 133 106 L171.893 221.211 C179.271 243.066 207.039 263 230.106 263 L396.789 263 C419.235 263 447.021 243.458 454.61 222.334 L500 96 C516 42 495 7 446 7 L433.64 7 C431.708 7 429.531 5.35756 429 3.5 C428.469 1.64244 429.708 0 431.64 0 L431.64 0 Z M215.23 349.015 L252.842 460.918 C272.11 518.245 348.327 519.095 368.868 462.212 L409.278 350.308 C424.708 307.577 396.922 268 351.49 268 L273.468 268 C228.751 268 200.983 306.627 215.23 349.015 L215.23 349.015 Z " />
<glyph glyph-name="G_sc" unicode="&#x262;" horiz-adv-x="721" d="M626 362.159 L626 506 C626 508.208 624.208 510 622 510 L620.55 510 C619.067 510 617.829 509.215 617.627 507.746 C616.98 503.041 616.857 497.286 616 493 C613.091 471.667 594.197 464.438 567.523 475.873 C567.348 475.948 563.441 477.897 563.275 477.99 C547.536 486.815 526.019 493.345 506.743 501.225 C506.325 501.396 498.077 504.062 497.636 504.163 C466.424 511.292 427.45 514 379 514 C182 514 50 410 50 253 C50 96 182 -9 380 -9 C446 -9 505 1 561 17 L608 31 C628.471 38.6765 648.577 49.6267 668.941 59.5071 C668.96 59.5162 669.416 60.1243 669.397 60.1163 C654.427 53.9088 638.791 48.6103 622.488 43.3321 C616.007 41.2339 609.198 46.3926 609.33 53.2031 C610 87.6563 610 129 610 129 C610 180 632 214 665 214 L672 214 C673.656 214 675 215.344 675 217 C675 218.656 673.656 220 672 220 L452 220 C450.344 220 449 218.656 449 217 C449 215.344 450.344 214 452 214 L459 214 C492 214 514.5 180 514.5 129 C514.5 117.8 514.936 106.6 514.994 95.4 C514.997 94.8196 514.506 89.855 514.402 89.284 C505.688 41.42 460.375 11 397 11 C252 11 156 108 156 254 C156 409 246 512 381 512 C430 512 468 505 499 492 C544 473 587 426 605 376 L609.405 364.672 C610.602 361.596 615.772 357.192 619 356.5 C622.778 355.69 626 358.295 626 362.159 L626 362.159 Z " />
<glyph glyph-name="I_sc" unicode="&#x26a;" horiz-adv-x="321" d="M262 5 C228 5 207 20 207 55 L207 448 C207 483 228 498 262 498 L262 503 L57 503 L57 498 C91 498 112 483 112 448 L112 55 C112 20 91 5 57 5 L57 0 L262 0 L262 5 L262 5 Z " />
<glyph glyph-name="N_sc" unicode="&#x274;" horiz-adv-x="656" d="M54.5495 0 L191 0 L191 5 C158 5 136 20 136 55 L134.342 246.797 C133.835 305.433 199.705 332.169 240.207 289.767 L510.438 6.86955 C513.057 4.12767 522.708 0 526.5 0 C531.743 0 536.056 4.25637 536.125 9.49917 L542 455 C545 486 565 498 597 498 L597 503 L459 503 L459 498 C493 498 514 483 514 448 L514.745 181.438 C514.837 148.456 473.615 137.531 451.913 162.369 C358.666 269.095 264.923 375.431 171.15 482.307 C163.535 490.987 136.705 503 125.158 503 L-15 503 L-15 498 C21 498 55 481 87 448 L97 437.5 C100.817 433.492 106.976 418.035 106.961 412.5 L106 55 C106 20.875 85.0862 5.7625 53.4542 5.0282 C52.101 4.99679 51.2345 3.82732 51.5 2.5 C51.7706 1.14687 53.1696 0 54.5495 0 L54.5495 0 Z " />
<glyph glyph-name="R_sc" unicode="&#x280;" horiz-adv-x="620" d="M61 498 C95 498 116 483 116 448 L116 55 C116 20 95 5 61 5 L61 0 L266 0 L266 5 C232 5 211 20 211 55 L211 203.5 C211 218.679 223.321 231 238.5 231 L249.775 231 C256.852 231 270.23 224.727 274.314 218.947 C297.297 186.422 344.875 123.75 407 45 C440 3 448 1 610 1 L610 6 C551 6 547 8 518 45 C456.8 122.35 407.882 184.527 378.617 221.707 C372.525 229.446 375.047 240.669 384.667 242.782 C463.085 260.007 511 298.025 511 360 C511 446 414 503 269 503 L61 503 L61 498 L61 498 Z M211 284 L211 469 C211 477.28 217.72 484 226 484 L241 484 C340 484 406 442 406 378 C406 293 351 255 269 255 L240 255 C223.993 255 211 267.993 211 284 L211 284 Z " />
<glyph glyph-name="Y_sc" unicode="&#x28f;" horiz-adv-x="600" d="M221.45 503 L1 503 L1 498 C26 498 51 482 77 450 L247.342 227.531 C251.59 221.984 260 197.166 260 190.179 L260 75 C260 33 235 5 197 5 L185 5 L185 0 L431 0 L431 5 L419 5 C381 5 356 33 356 75 L356 207.362 C356 213.078 363.18 236.745 366.355 241.497 L501 443 C526 480 561 498 602 498 L602 503 L439 503 L439 498 L476 498 C505.167 498 514.484 480.986 501.195 454.31 C501.087 454.093 498.614 449.892 498.481 449.69 L401.96 302.925 C377.039 265.032 328.793 263.506 301.528 299.749 L190 448 C169 478 176 498 207 498 L220.45 498 C221.83 498 223.229 499.147 223.5 500.5 C223.771 501.853 222.83 503 221.45 503 L221.45 503 Z " />
<glyph glyph-name="B_sc" unicode="&#x299;" horiz-adv-x="573" d="M347 259 C396 259 428 208 428 131 C428 26 388 1 327 1 L277 1 C237 1 211 20 211 49 L211 208 C211 235.599 233.402 258 261 258 L311 258 C319 258 347 258 347 259 L347 259 Z M63.5255 496.972 C96.0369 496.238 116 481.125 116 447 L116 56 C116 21.875 96.0369 6.7625 63.5255 6.0282 C61.9074 5.99166 61 4.61852 61 3 C61 1.34409 62.3441 0 64 0 L331 0 C452 0 533 25 533 131 C533 196.45 482.425 243.838 403.383 257.195 C400.044 257.76 400.282 269.369 403.528 270.338 C468.204 289.651 507 330.2 507 383 C507 455 463 503 274 503 L64 503 C62.3441 503 61 501.656 61 500 C61 498.381 61.9074 497.008 63.5255 496.972 L63.5255 496.972 Z M310 261 L260.5 261 C233.177 261 211 283.177 211 310.5 L211 471.5 C211 487.231 223.769 500 239.5 500 L268 500 C385 500 413 449 413 373 C413 306 372 261 310 261 L310 261 Z " />
<glyph glyph-name="H_sc" unicode="&#x29c;" horiz-adv-x="733" d="M674 5 C640 5 619 20 619 55 L619 448 C619 483 640 498 674 498 L674 503 L469 503 L469 498 C503 498 524 483 524 448 L524 322.44 C524 288.527 496.473 261 462.56 261 L308.44 261 C274.527 261 247 288.527 247 322.44 L247 448 C247 483 268 498 302 498 L302 503 L97 503 L97 498 C131 498 152 483 152 448 L152 55 C152 20 131 5 97 5 L97 0 L302 0 L302 5 C268 5 247 20 247 55 L247 195.56 C247 229.473 274.527 257 308.44 257 L462.56 257 C496.473 257 524 229.473 524 195.56 L524 55 C524 20 503 5 469 5 L469 0 L674 0 L674 5 L674 5 Z " />
<glyph glyph-name="L_sc" unicode="&#x29f;" horiz-adv-x="521" d="M262 503 L57 503 L57 498 C91 498 112 483 112 448 L112 55 C112 20 91 5 57 5 L57 0 L473 0 C475.208 0 477 1.79212 477 4 C477 4.40756 477.831 12.3222 477.907 12.7225 C483.39 41.4775 489.562 77.5225 494.235 106.278 C494.717 109.239 492.5 111 489.5 111 C486.681 111 483.004 108.51 481.957 105.893 L478 96 C459 48 405 16 342 16 L253 16 C212 16 207 28 207 46 L207 448 C207 483 228 498 262 498 L262 503 L262 503 Z " />
<glyph glyph-name="circumflex" unicode="&#x2c6;" horiz-adv-x="353" d="M209 674 C203 684 187 706 177 706 C167 706 151 684 145 674 L29.2022 492.583 C26.9013 488.979 27.7147 483.738 31 481 C34.2922 478.256 39.5373 478.447 42.6222 481.421 L134.352 569.875 C157.877 592.56 196.123 592.56 219.648 569.875 L311.378 481.421 C314.463 478.447 319.708 478.256 323 481 C326.285 483.738 327.099 488.979 324.798 492.583 L209 674 L209 674 Z " />
<glyph glyph-name="caron" unicode="&#x2c7;" horiz-adv-x="353" d="M311.378 708.579 L219.648 620.125 C196.123 597.44 157.877 597.44 134.352 620.125 L42.6222 708.579 C39.5373 711.553 34.2922 711.744 31 709 C27.7147 706.262 26.9013 701.021 29.2022 697.417 L145 516 C151 506 167 484 177 484 C187 484 203 506 209 516 L324.798 697.417 C327.099 701.021 326.285 706.262 323 709 C319.708 711.744 314.463 711.553 311.378 708.579 L311.378 708.579 Z " />
<glyph glyph-name="firsttonechinese" unicode="&#x2c9;" horiz-adv-x="353" d="M50.5 564 L303.5 564 C320.887 564 335 578.113 335 595.5 C335 612.887 320.887 627 303.5 627 L50.5 627 C33.1129 627 19 612.887 19 595.5 C19 578.113 33.1129 564 50.5 564 L50.5 564 Z " />
</font>
</svg>
