<?xml version="1.0" encoding="UTF-8"?>
<svg xmlns="http://www.w3.org/2000/svg" xmlns:xlink="http://www.w3.org/1999/xlink" version="1.2" >
<font id="Thomas Craft Thin">
<font-face  font-family="Thomas Craft" units-per-em="1024" ascent="871" descent="-300" font-style="normal" font-weight="100" font-stretch="normal" cap-height="961" x-height="436" underline-position="-125" underline-thickness="50" />
<missing-glyph  horiz-adv-x="100" d="" />
<glyph glyph-name="NULL" d="" />
<glyph glyph-name="CR" unicode="&#xd;" horiz-adv-x="256" d="" />
<glyph glyph-name="space" unicode="&#x20;" horiz-adv-x="263" d="" />
<glyph glyph-name="exclam" unicode="&#x21;" horiz-adv-x="164" d="M102 15 C102 41 62 41 62 15 C62 -11 102 -11 102 15 L102 15 Z M82 675 C73 675 69 648 70 608 L80 176 L84 176 L94 608 C95 648 91 675 82 675 L82 675 Z " />
<glyph glyph-name="quotedbl" unicode="&#x22;" horiz-adv-x="336" d="M220 670 C215 670 213 652 214 625 L221 480 L223 480 L230 625 C229 654 232 672 220 670 L220 670 Z M100 670 C95 670 93 652 94 625 L101 480 L103 480 L110 625 C109 654 112 672 100 670 L100 670 Z " />
<glyph glyph-name="numbersign" unicode="&#x23;" horiz-adv-x="525" d="M389 612 L358 388 L194 388 L225 612 L224 612 L193 388 L50 388 L47 372 L191 372 L168 208 L22 208 L20 192 L165 192 L139 0 L140 0 L166 192 L330 192 L304 0 L305 0 L331 192 L470 192 L472 208 L334 208 L357 372 L503 372 L505 388 L359 388 L390 612 L389 612 L389 612 Z M192 372 L356 372 L333 208 L169 208 L192 372 L192 372 Z " />
<glyph glyph-name="dollar" unicode="&#x24;" horiz-adv-x="552" d="M55 186 L55 16 L63 16 C64 23 64 31 65 38 C68 67 90 73 121 52 C153 27 185 11 232 -1 L232 -76 L247 -76 L247 -4 C268 -8 290 -10 312 -10 L312 -75 L327 -75 L327 -10 C439 -6 512 58 512 152 C512 215 449 287 327 345 L327 668 C382 653 430 603 446 543 C448 536 451 526 453 519 L468 519 L468 654 L460 654 C459 650 459 644 458 640 C455 623 439 620 415 633 C391 650 359 664 327 673 L327 746 L312 746 L312 674 C291 678 269 680 246 680 L246 745 L231 745 L231 680 C139 676 78 615 78 526 C78 480 130 422 231 364 L231 3 C212 8 194 15 177 24 C131 50 91 103 76 161 C74 169 71 179 69 187 L55 186 L55 186 Z M58 136 L58 136 L58 136 L58 136 Z M246 355 C266 344 288 333 311 322 L311 -9 C289 -9 267 -6 246 -1 L246 355 L246 355 Z M326 315 C435 260 492 198 492 146 C492 57 426 -4 326 -8 L326 315 L326 315 Z M246 387 L246 680 C268 680 290 677 311 672 L311 353 C287 364 265 375 245 386 L246 387 L246 387 Z M230 395 C142 447 96 497 96 535 C96 617 149 674 230 679 L230 395 L230 395 Z " />
<glyph glyph-name="percent" unicode="&#x25;" horiz-adv-x="807" d="M50 501 C50 608 101 679 177 679 C253 679 304 605 304 493 C304 387 253 317 177 317 C101 317 50 391 50 501 L50 501 Z M30 497 C30 388 89 316 177 316 C265 316 323 390 323 500 C323 608 265 680 177 680 C89 680 30 607 30 497 L30 497 Z M522 179 C522 283 572 353 647 353 C725 353 777 280 777 171 C777 63 725 -9 647 -9 C572 -9 522 66 522 179 L522 179 Z M502 175 C502 64 560 -10 647 -10 C736 -10 795 65 795 178 C795 284 736 354 647 354 C560 354 502 282 502 175 L502 175 Z M178 0 L648 670 L647 670 L176 0 L178 0 L178 0 Z " />
<glyph glyph-name="ampersand" unicode="&#x26;" horiz-adv-x="871" d="M311 471 L314 468 C395 493 449 551 449 614 C449 654 395 680 315 680 C222 680 160 651 160 607 C160 582 217 514 302 412 C302 412 389 314 537 137 C453 55 355 8 257 8 C150 8 78 88 78 209 C78 314 148 406 252 438 L248 439 C133 404 57 309 57 202 C57 74 132 -11 245 -11 C349 -11 453 41 541 131 C548 123 555 115 562 107 C621 37 676 -10 699 -10 C763 -10 814 54 826 149 L822 150 C811 64 765 6 707 6 C687 6 636 50 580 117 C572 127 564 137 556 147 C622 219 679 312 719 421 L714 421 C675 314 618 222 551 153 C405 327 319 423 319 423 C233 525 176 594 176 619 C176 653 231 676 314 676 C385 676 432 652 432 616 C432 552 383 494 310 472 L311 471 L311 471 Z " />
<glyph glyph-name="quotesingle" unicode="&#x27;" horiz-adv-x="209" d="M100 670 C95 670 93 652 94 625 L101 480 L103 480 L110 625 C109 654 112 672 100 670 L100 670 Z " />
<glyph glyph-name="parenleft" unicode="&#x28;" horiz-adv-x="173" d="M161 680 C100 608 60 488 60 233 C60 -22 100 -142 161 -214 L163 -212 C110 -149 75 -32 75 233 C75 498 110 615 163 678 L161 680 L161 680 Z " />
<glyph glyph-name="parenright" unicode="&#x29;" horiz-adv-x="136" d="M9 678 C71 638 112 460 112 233 C112 6 71 -172 9 -212 L10 -214 C80 -169 126 10 126 233 C126 456 80 635 10 680 L9 678 L9 678 Z " />
<glyph glyph-name="asterisk" unicode="&#x2a;" horiz-adv-x="246" d="M257 608 C266 612 261 621 252 616 C252 616 256 609 258 606 L257 608 L257 608 Z M252 486 L252 486 L252 486 Z M50 485 C50 485 50 485 50 486 L50 485 L50 485 Z M50 486 C48 489 45 494 45 494 C37 490 42 480 51 486 L50 486 L50 486 Z M51 486 L51 486 L51 484 L151 548 L151 548 L258 603 L252 613 L151 548 L157 667 C157 678 145 678 145 667 L151 548 L150 548 L50 612 C41 619 35 609 44 605 L44 603 L150 549 L44 495 L51 486 L51 486 Z M258 495 L258 495 L151 550 L252 485 L253 486 C262 480 265 490 258 495 L258 495 Z M145 429 C145 418 157 418 157 429 L151 549 L145 429 L145 429 Z " />
<glyph glyph-name="plus" unicode="&#x2b;" horiz-adv-x="631" d="M308 431 L308 222 L100 222 L100 208 L308 208 L308 0 L323 0 L323 208 L531 208 L531 222 L323 222 L323 431 L308 431 L308 431 Z " />
<glyph glyph-name="comma" unicode="&#x2c;" horiz-adv-x="257" d="M174 65 C180 49 183 29 183 6 C183 -63 135 -109 64 -109 L64 -110 C137 -110 186 -62 186 9 C186 45 178 74 164 92 C155 106 141 114 124 114 C88 114 64 90 64 54 C64 18 88 -6 124 -6 C157 -6 178 23 174 64 L174 65 L174 65 Z " />
<glyph glyph-name="hyphen" unicode="&#x2d;" horiz-adv-x="441" d="M80 231 L361 231 L361 248 L80 248 L80 231 L80 231 Z " />
<glyph glyph-name="period" unicode="&#x2e;" horiz-adv-x="195" d="M145 15 C145 41 105 41 105 15 C105 -11 145 -11 145 15 L145 15 Z " />
<glyph glyph-name="slash" unicode="&#x2f;" horiz-adv-x="370" d="M328 690 L46 -80 L58 -80 L340 690 L328 690 L328 690 Z " />
<glyph glyph-name="zero" unicode="0" horiz-adv-x="522" d="M62 210 C62 324 143 422 265 422 C375 422 468 337 468 210 C468 96 387 -2 265 -2 C155 -2 62 83 62 210 L62 210 Z M53 210 C53 78 151 -10 265 -10 C392 -10 477 91 477 210 C477 342 379 430 265 430 C138 430 53 329 53 210 L53 210 Z " />
<glyph glyph-name="one" unicode="1" horiz-adv-x="206" d="M168 5 C134 5 113 20 113 55 L113 365 C113 400 134 415 168 415 L168 420 L38 420 L38 415 C72 415 93 400 93 365 L93 55 C93 20 72 5 38 5 L38 0 L168 0 L168 5 L168 5 Z " />
<glyph glyph-name="two" unicode="2" horiz-adv-x="526" d="M464 53 L459 47 C446 30 412 18 373 18 L65 18 C263 121 426 225 426 288 C426 373 358 430 257 430 C152 430 68 356 47 246 L51 245 C71 347 149 415 247 415 C342 415 406 362 406 283 C406 218 249 117 58 18 C54 18 50 16 46 13 C39 10 32 7 25 4 L28 2 L429 2 L439 19 C446 30 455 43 461 53 L464 53 L464 53 Z " />
<glyph glyph-name="three" unicode="3" horiz-adv-x="412" d="M19 -228 L20 -232 C231 -210 372 -127 372 -25 C372 71 260 134 93 134 C263 207 377 273 377 321 C377 386 313 430 217 430 C123 430 46 366 24 270 L28 269 C48 357 121 416 209 416 C297 416 356 375 356 314 C356 268 249 204 88 136 L88 132 L88 132 L88 132 C246 110 351 45 351 -31 C351 -128 218 -207 19 -228 L19 -228 Z " />
<glyph glyph-name="four" unicode="4" horiz-adv-x="641" d="M558 15 L426 15 L426 447 L423 447 L15 4 L15 0 L406 0 L406 -220 L426 -220 L426 0 L556 0 C585 0 602 -8 602 -25 C602 -25 609 -26 612 -26 C614 -16 616 -3 617 7 C618 7 624 49 625 53 C620 53 616 55 616 55 C608 31 591 15 558 15 L558 15 Z M34 15 L406 417 L406 15 L34 15 L34 15 Z " />
<glyph glyph-name="five" unicode="5" horiz-adv-x="432" d="M352 420 C352 420 357 444 357 445 L347 445 L345 441 C340 428 319 420 292 420 L136 420 L78 212 L82 209 C262 209 385 144 385 38 C385 -97 255 -203 60 -227 L60 -231 C265 -206 402 -95 402 45 C402 157 276 230 90 230 L140 402 L349 403 L352 420 L352 420 Z " />
<glyph glyph-name="six" unicode="6" horiz-adv-x="577" d="M561 670 C264 656 66 489 66 253 C66 95 161 -10 303 -10 C437 -10 526 80 526 214 C526 318 426 387 276 387 C179 387 109 348 88 287 C110 505 294 655 562 667 L561 670 L561 670 Z M86 242 C86 328 162 386 276 386 C414 386 506 318 506 215 C506 81 425 -9 303 -9 C173 -9 86 91 86 242 L86 242 Z " />
<glyph glyph-name="seven" unicode="7" horiz-adv-x="448" d="M68 374 C79 392 101 404 132 404 L435 404 L442 407 L122 -220 L137 -220 L443 407 L443 420 L140 420 C110 420 98 425 98 437 C97 437 89 438 88 439 C84 431 79 420 75 412 L76 412 L59 378 C61 377 66 375 68 374 L68 374 Z " />
<glyph glyph-name="eight" unicode="8" horiz-adv-x="555" d="M258 352 C263 350 268 348 273 346 C409 299 499 252 499 172 C499 63 413 -9 284 -9 C156 -9 71 57 71 155 C71 234 145 312 258 351 L258 352 L258 352 Z M257 352 C135 309 54 231 54 155 C54 56 146 -10 284 -10 C423 -10 515 60 515 164 C515 260 428 312 296 359 C411 399 486 469 486 534 C486 622 404 680 282 680 C394 680 469 621 469 532 C469 465 399 397 294 360 C289 362 284 364 279 366 C168 404 94 465 94 533 C94 622 169 681 282 681 C160 681 78 619 78 525 C78 456 149 395 257 354 L257 352 L257 352 Z " />
<glyph glyph-name="nine" unicode="9" horiz-adv-x="577" d="M16 -250 C313 -236 511 -69 511 167 C511 325 416 430 274 430 C140 430 51 340 51 206 C51 102 151 33 301 33 C398 33 468 72 489 133 C467 -85 283 -235 15 -247 L16 -250 L16 -250 Z M491 178 C491 92 415 34 301 34 C163 34 71 102 71 205 C71 339 152 429 274 429 C404 429 491 329 491 178 L491 178 Z " />
<glyph glyph-name="colon" unicode="&#x3a;" horiz-adv-x="135" d="M145 325 C145 351 105 351 105 325 C105 299 145 299 145 325 L145 325 Z M145 15 C145 41 105 41 105 15 C105 -11 145 -11 145 15 L145 15 Z " />
<glyph glyph-name="semicolon" unicode="&#x3b;" horiz-adv-x="257" d="M145 325 C145 351 105 351 105 325 C105 299 145 299 145 325 L145 325 Z M174 65 C180 49 183 29 183 6 C183 -63 135 -109 64 -109 L64 -110 C137 -110 186 -62 186 9 C186 45 178 74 164 92 C155 106 141 114 124 114 C88 114 64 90 64 54 C64 18 88 -6 124 -6 C157 -6 178 23 174 64 L174 65 L174 65 Z " />
<glyph glyph-name="equal" unicode="&#x3d;" horiz-adv-x="534" d="M73 164 L73 156 L464 156 L464 164 L73 164 L73 164 Z M73 264 L73 256 L464 256 L464 264 L73 264 L73 264 Z " />
<glyph glyph-name="question" unicode="&#x3f;" horiz-adv-x="309" d="M145 15 C145 41 105 41 105 15 C105 -11 145 -11 145 15 L145 15 Z M119 130 C119 130 121 321 125 322 C203 322 238 357 278 410 C294 431 305 465 305 493 C305 605 241 679 145 679 C134 679 126 673 126 664 C126 658 130 654 137 654 C142 654 148 658 152 658 C240 658 299 591 299 490 C299 469 289 441 273 420 C237 373 204 342 118 342 C116 341 115 130 115 130 L119 130 L119 130 Z " />
<glyph glyph-name="at" unicode="&#x40;" horiz-adv-x="1138" d="M1063 0 C996 -145 798 -241 569 -241 C270 -241 71 -57 71 219 C71 495 270 679 569 679 C868 679 1068 523 1068 288 C1068 116 986 2 864 2 C717 2 642 81 678 200 L739 403 L720 403 L692 311 C687 372 641 412 574 412 C415 412 309 315 309 170 C309 78 378 17 481 17 C550 17 615 72 651 158 C643 59 722 -5 861 -5 C994 -5 1083 112 1083 288 C1083 526 877 684 569 684 C261 684 55 498 55 219 C55 -59 263 -244 574 -244 C803 -244 1002 -146 1070 0 L1063 0 L1063 0 Z M688 298 L659 200 C628 97 561 28 492 28 C395 28 331 86 331 174 C331 313 428 406 574 406 C642 406 688 363 688 298 L688 298 Z " />
<glyph glyph-name="A" unicode="A" horiz-adv-x="640" d="M447 0 L639 0 L639 6 L629 6 C599 6 567 39 546 90 C479 290 414 491 345 690 L343 690 C345 676 340 665 330 664 L333 654 L333 654 L131 106 C109 46 58 6 5 6 L-10 6 L-10 0 L198 0 L198 6 L182 6 C131 6 111 44 131 102 L334 653 L517 106 L516 106 C536 46 515 6 463 6 L447 6 L447 0 L447 0 Z " />
<glyph glyph-name="B" unicode="B" horiz-adv-x="572" d="M277 0 C430 0 532 33 532 173 C532 276 440 345 302 345 L291 345 C433 354 526 417 526 508 C526 605 473 670 247 670 L79 670 L79 664 C113 664 134 649 134 614 L134 56 C134 21 113 6 79 6 L79 0 L226 0 L277 0 L277 0 Z M226 0 C185 0 157 20 157 49 L157 344 L300 344 C424 344 507 276 507 173 C507 33 415 0 276 0 L226 0 L226 0 Z M257 345 L157 345 L157 669 L245 669 C454 669 503 603 503 505 C503 409 405 345 257 345 L257 345 Z " />
<glyph glyph-name="C" unicode="C" horiz-adv-x="690" d="M641 505 L641 646 L633 646 C632 641 632 634 631 629 C628 605 607 604 577 623 C529 658 467 679 366 679 C189 679 71 541 71 334 C71 127 185 -11 355 -11 C438 -11 506 13 567 52 C603 71 629 66 632 39 C633 33 633 26 634 20 L642 20 L642 165 L627 165 C625 159 622 151 620 145 C604 96 556 47 499 21 L499 21 C455 1 408 -10 356 -10 C200 -10 96 128 96 334 C96 540 204 678 366 678 C428 678 475 669 513 653 L513 653 C561 633 603 583 619 528 C621 521 624 512 626 505 L641 505 L641 505 Z M639 113 L639 113 L639 113 L639 113 Z " />
<glyph glyph-name="D" unicode="D" horiz-adv-x="757" d="M240 1 C165 1 157 19 157 46 L157 669 L281 669 C542 669 676 535 676 335 C676 115 502 1 240 1 L240 1 Z M79 665 C113 665 134 650 134 615 L134 55 C134 20 113 5 79 5 L79 0 L241 0 C518 0 702 114 702 335 C702 536 560 670 284 670 L79 670 L79 665 L79 665 Z " />
<glyph glyph-name="E" unicode="E" horiz-adv-x="560" d="M418 239 L418 450 L407 450 L402 425 C393 377 356 345 308 345 L157 345 L157 669 L368 669 C416 669 457 637 472 589 L480 564 L491 564 C487 596 482 638 478 670 L59 670 L59 665 L71 665 C109 665 134 637 134 595 L134 75 C134 33 109 5 71 5 L59 5 L59 0 L503 0 C508 29 515 67 520 96 L509 96 L503 81 C485 33 431 1 368 1 L203 1 C162 1 157 19 157 46 L157 344 L308 344 C356 344 393 312 402 264 L407 239 L418 239 L418 239 Z " />
<glyph glyph-name="F" unicode="F" horiz-adv-x="535" d="M408 239 L408 450 L397 450 L392 425 C383 377 346 345 298 345 L157 345 L157 669 L368 669 C416 669 457 637 472 589 L480 564 L491 564 C487 596 482 638 478 670 L59 670 L59 665 L71 665 C109 665 134 637 134 595 L134 75 C134 33 109 5 71 5 L59 5 L59 0 L232 0 L232 5 L220 5 C182 5 157 33 157 75 L157 344 L298 344 C346 344 383 312 392 264 L397 239 L408 239 L408 239 Z " />
<glyph glyph-name="G" unicode="G" horiz-adv-x="733" d="M599 50 L599 25 C572 17 543 10 511 5 C543 11 599 24 599 50 L599 50 Z M360 -5 C202 -5 96 131 96 335 C96 541 204 679 366 679 C428 679 475 670 513 654 L513 654 C561 634 603 584 619 529 C621 522 624 513 626 506 L641 506 L641 647 L633 647 C632 642 632 635 631 630 C628 606 607 605 577 624 C529 659 467 680 366 680 C189 680 71 542 71 335 C71 128 185 -10 356 -10 C458 -10 540 4 612 28 L623 30 L623 31 C644 38 664 46 683 55 C664 47 644 39 623 32 L623 199 C623 250 645 284 678 284 L688 284 L688 290 L535 290 L535 284 L545 284 C578 284 600 250 600 199 L600 25 C539 15 426 -5 361 -5 L360 -5 L360 -5 Z M683 55 C689 58 695 61 701 64 C695 61 689 58 683 55 L683 55 Z " />
<glyph glyph-name="H" unicode="H" horiz-adv-x="736" d="M677 5 C643 5 622 20 622 55 L622 615 C622 650 643 665 677 665 L677 670 L543 670 L543 665 C577 665 598 650 598 615 L598 343 L193 343 L193 615 C193 650 214 665 248 665 L248 670 L115 670 L115 665 C149 665 170 650 170 615 L170 55 C170 20 149 5 115 5 L115 0 L248 0 L248 5 C214 5 193 20 193 55 L193 342 L598 342 L598 55 C598 20 577 5 543 5 L543 0 L677 0 L677 5 L677 5 Z " />
<glyph glyph-name="I" unicode="I" horiz-adv-x="285" d="M226 5 C192 5 171 20 171 55 L171 615 C171 650 192 665 226 665 L226 670 L93 670 L93 665 C127 665 148 650 148 615 L148 55 C148 20 127 5 93 5 L93 0 L226 0 L226 5 L226 5 Z " />
<glyph glyph-name="J" unicode="J" horiz-adv-x="285" d="M226 670 L93 670 L93 665 C127 665 148 650 148 615 L148 0 C148 -184 74 -219 21 -219 C9 -219 15 -200 3 -200 C-3 -200 -7 -204 -7 -211 C-7 -216 4 -220 21 -220 C84 -220 171 -178 171 44 L171 615 C171 650 192 665 226 665 L226 670 L226 670 Z " />
<glyph glyph-name="K" unicode="K" horiz-adv-x="620" d="M572 670 L367 670 L367 665 L387 665 C447 665 447 625 387 565 L157 335 L157 615 C157 650 178 665 212 665 L212 670 L79 670 L79 665 C113 665 134 650 134 615 L134 55 C134 20 113 5 79 5 L79 0 L212 0 L212 5 C178 5 157 20 157 55 L157 335 L535 0 L615 0 L615 5 C579 5 542 22 505 55 L505 55 L177 349 L437 606 C475 641 523 664 559 664 L571 664 L572 670 L572 670 Z " />
<glyph glyph-name="L" unicode="L" horiz-adv-x="564" d="M226 670 L93 670 L93 665 C127 665 148 650 148 615 L148 55 C148 20 127 5 93 5 L93 0 L520 0 L520 2 C525 31 532 70 537 99 L526 99 L520 84 C502 36 448 4 385 4 L217 4 C176 4 171 21 171 46 L171 615 C171 650 192 665 226 665 L226 670 L226 670 Z " />
<glyph glyph-name="M" unicode="M" horiz-adv-x="784" d="M56 665 C87 665 110 653 126 625 L109 48 C105 17 85 4 54 4 L54 -1 L171 -1 L171 4 C140 4 120 15 117 45 L132 613 C223 408 315 204 404 -2 L410 -2 L673 650 C679 451 686 251 691 53 C692 18 671 3 638 3 L638 -2 L770 -2 L770 3 C739 3 719 16 715 47 C710 236 704 426 699 614 C698 649 719 664 752 664 L752 669 L674 669 L418 29 L138 669 L58 669 L56 665 L56 665 Z " />
<glyph glyph-name="N" unicode="N" horiz-adv-x="703" d="M44 665 C71 665 91 658 113 639 L113 55 C113 20 92 5 58 5 L58 0 L175 0 L175 5 C141 5 120 20 120 55 L120 55 L119 633 C125 627 130 621 135 614 L135 614 L562 27 L583 -1 L587 -1 L589 614 L589 614 C589 649 610 664 644 664 L644 669 L527 669 L527 664 C561 664 582 649 582 614 L583 34 L579 40 L125 669 L44 669 L44 665 L44 665 Z " />
<glyph glyph-name="O" unicode="O" horiz-adv-x="781" d="M96 335 C96 541 215 679 393 679 C578 679 701 541 701 335 C701 129 574 -9 384 -9 C211 -9 96 129 96 335 L96 335 Z M71 335 C71 128 196 -10 384 -10 C589 -10 726 128 726 335 C726 542 593 680 394 680 C200 680 71 542 71 335 L71 335 Z " />
<glyph glyph-name="P" unicode="P" horiz-adv-x="521" d="M218 5 C184 5 163 20 163 55 L163 321 L216 321 C387 321 501 372 501 484 C501 596 408 670 269 670 L85 670 L85 665 C119 665 140 650 140 615 L140 55 C140 20 119 5 85 5 L85 0 L218 0 L218 5 L218 5 Z M163 326 L163 666 L263 666 C393 666 479 595 479 488 C479 376 374 326 216 326 L163 326 L163 326 Z " />
<glyph glyph-name="Q" unicode="Q" horiz-adv-x="776" d="M1090 -54 C1061 -78 945 -94 800 -94 C622 -94 448 -60 365 -9 C362 -9 354 -8 353 -8 C199 8 98 141 98 335 C98 541 217 679 395 679 C580 679 703 541 703 335 C703 128 576 -10 385 -10 C590 -10 727 128 727 335 C727 542 594 680 395 680 C201 680 72 542 72 335 C72 142 180 9 347 -8 C346 -8 345 -8 343 -8 C443 -68 625 -109 799 -109 C935 -109 1052 -87 1091 -54 L1090 -54 L1090 -54 Z M385 -10 L385 -10 L385 -10 L385 -10 Z " />
<glyph glyph-name="R" unicode="R" horiz-adv-x="605" d="M79 665 C113 665 134 650 134 615 L134 55 C134 20 113 5 79 5 L79 0 L212 0 L212 5 C178 5 157 20 157 55 L157 334 L335 334 C342 314 390 207 458 58 C483 2 489 0 595 0 L595 1 C514 1 510 3 485 58 C419 205 371 309 359 335 C453 341 515 388 515 483 C515 595 443 669 336 669 L79 669 L79 665 L79 665 Z M336 338 L157 338 L157 664 L329 664 C425 664 489 594 489 488 C489 385 428 338 336 338 L336 338 Z " />
<glyph glyph-name="S" unicode="S" horiz-adv-x="552" d="M59 135 L59 135 L59 135 L59 135 Z M55 186 L55 16 L63 16 C64 23 64 31 65 38 C68 67 90 73 121 52 C138 39 157 27 178 18 C179 17 187 13 187 14 C226 -2 270 -11 316 -11 C434 -11 512 54 512 151 C512 215 448 288 323 346 C175 415 98 484 98 534 C98 620 156 678 243 678 C252 678 327 671 326 667 C381 652 429 602 445 542 C447 535 450 525 452 518 L467 518 L467 653 L459 653 C458 649 458 643 457 639 C454 622 438 619 414 632 C390 649 358 663 326 672 L326 670 C300 676 272 679 243 679 C145 679 79 617 79 525 C79 468 157 393 309 322 C430 265 493 199 493 144 C493 52 422 -10 316 -10 C266 -10 218 1 177 21 C131 47 91 100 76 158 C74 166 71 176 69 184 L55 186 L55 186 Z " />
<glyph glyph-name="T" unicode="T" horiz-adv-x="786" d="M716 685 C701 674 657 670 605 670 L181 670 C129 670 86 674 71 685 L62 685 C60 680 57 673 55 667 L56 667 L56 665 C44 636 29 597 17 569 L28 569 L37 584 C67 632 120 664 171 664 L382 664 L382 55 C382 20 361 5 327 5 L327 0 L461 0 L461 5 C427 5 406 20 406 55 L406 664 L616 664 C668 664 721 632 750 584 L759 569 L770 569 C758 597 743 635 731 664 L732 664 L732 667 L733 667 C732 669 727 682 726 685 L716 685 L716 685 Z " />
<glyph glyph-name="U" unicode="U" horiz-adv-x="597" d="M568 22 L559 20 C531 13 513 28 513 58 L513 670 L435 670 L435 665 C469 665 490 650 490 615 L490 162 C446 68 342 5 229 5 C165 5 122 90 122 218 L122 670 L44 670 L44 665 C78 665 99 650 99 615 L99 218 C99 81 147 -10 219 -10 C337 -10 445 54 490 151 L490 0 L502 0 L513 3 C531 8 552 13 568 17 L568 22 L568 22 Z " />
<glyph glyph-name="V" unicode="V" horiz-adv-x="694" d="M653 670 L466 670 L466 664 L484 664 C540 664 565 629 547 575 L325 32 L129 565 C107 625 127 665 179 665 L195 665 L195 671 L21 671 L21 665 L27 665 C50 665 79 625 101 565 L101 565 C170 374 239 182 308 -9 L313 -9 C393 182 472 374 552 565 C577 625 614 665 644 665 L653 665 L653 670 L653 670 Z " />
<glyph glyph-name="W" unicode="W" horiz-adv-x="1008" d="M614 670 L440 670 L440 664 C471 664 493 643 510 597 L555 446 L326 28 C265 213 202 399 142 584 C126 632 142 664 181 664 L193 664 L193 670 L44 670 L44 664 C73 664 93 643 110 599 C175 396 241 194 305 -9 L311 -9 L557 439 C601 290 645 140 691 -8 L697 -8 L699 -1 C767 195 835 391 904 586 C921 634 954 666 987 666 L996 666 L996 672 L810 672 L810 666 L843 666 C891 666 912 634 895 586 L895 586 L705 35 C650 219 594 403 539 587 C525 635 547 667 595 667 L613 667 L614 670 L614 670 Z " />
<glyph glyph-name="X" unicode="X" horiz-adv-x="678" d="M214 670 L75 670 L75 665 C101 665 125 648 150 614 L347 332 L134 52 C105 19 72 4 32 4 L32 -1 L197 -1 L197 4 L161 4 C130 4 123 24 144 54 L350 328 L538 59 C561 26 555 4 522 4 L505 4 L505 -1 L644 -1 L644 4 C618 4 594 21 569 55 L364 348 C430 435 496 523 562 610 C590 647 625 665 667 665 L667 670 L500 670 L500 665 L536 665 C569 665 575 643 551 610 L551 610 L362 349 L180 610 C157 643 163 665 196 665 L213 665 L214 670 L214 670 Z " />
<glyph glyph-name="Y" unicode="Y" horiz-adv-x="635" d="M184 670 L46 670 L46 665 C71 665 94 649 117 616 L322 300 L322 75 C322 33 297 5 259 5 L247 5 L247 0 L420 0 L420 5 L408 5 C370 5 345 33 345 75 L345 303 L542 615 C566 649 598 665 637 665 L637 670 L479 670 L479 665 L516 665 C549 665 557 643 536 610 L536 610 L344 305 C279 407 212 509 147 610 C126 643 133 665 166 665 L183 665 L184 670 L184 670 Z " />
<glyph glyph-name="Z" unicode="Z" horiz-adv-x="648" d="M72 568 L76 583 C90 631 143 662 205 663 L596 664 L26 4 L26 -1 L618 -1 L619 2 L620 2 C620 2 629 42 643 101 L632 101 L626 86 C606 38 550 6 486 6 L486 6 L54 5 L622 665 L622 670 L71 670 L71 667 C70 667 68 628 63 568 L72 568 L72 568 Z " />
<glyph glyph-name="bracketleft" unicode="&#x5b;" horiz-adv-x="277" d="M117 664 L327 664 L327 670 L110 670 L110 -195 L327 -195 L327 -189 L117 -189 L117 664 L117 664 Z " />
<glyph glyph-name="backslash" unicode="&#x5c;" horiz-adv-x="328" d="M46 690 L306 -80 L318 -80 L58 690 L46 690 L46 690 Z " />
<glyph glyph-name="bracketright" unicode="&#x5d;" horiz-adv-x="280" d="M163 664 L163 -189 L-47 -189 L-47 -195 L170 -195 L170 670 L-47 670 L-47 664 L163 664 L163 664 Z " />
<glyph glyph-name="asciicircum" unicode="&#x5e;" horiz-adv-x="353" d="M184 694 C181 702 174 702 171 694 L31 481 L34 479 L178 678 L322 479 L325 481 L184 694 L184 694 Z " />
<glyph glyph-name="underscore" unicode="&#x5f;" horiz-adv-x="480" d="M5 -50 L5 -61 L475 -61 L475 -50 L5 -50 L5 -50 Z " />
<glyph glyph-name="grave" unicode="&#x60;" horiz-adv-x="353" d="M-30 682 C-30 679 0 651 45 610 L181 484 L184 487 L54 619 C12 663 -17 692 -20 692 C-25 692 -30 687 -30 682 L-30 682 Z " />
<glyph glyph-name="a" unicode="a" horiz-adv-x="522" d="M532 57 L527 59 C522 29 499 9 470 9 C435 9 411 27 411 54 L411 303 C411 391 355 430 272 430 C157 430 81 334 81 280 C81 272 85 266 91 266 C106 266 116 272 116 276 C116 281 96 290 96 293 C96 342 166 429 271 429 C343 429 391 392 391 310 L391 223 C124 176 61 154 61 60 C61 18 109 -10 181 -10 C236 -10 306 18 391 92 L391 54 C391 19 419 -5 462 -5 C497 -5 525 20 532 57 L532 57 Z M391 222 L391 93 C315 27 247 2 191 2 C125 2 81 26 81 63 C81 157 140 178 391 223 L391 222 L391 222 Z " />
<glyph glyph-name="b" unicode="b" horiz-adv-x="474" d="M10 651 C32 651 45 636 45 605 L45 125 L41 125 C42 121 43 117 44 113 L44 0 L45 0 L53 75 C54 75 64 75 64 75 C100 22 162 -11 234 -11 C350 -11 428 77 428 210 C428 338 340 424 208 424 C169 424 112 384 64 324 L64 668 L54 668 C41 664 23 659 9 655 L10 651 L10 651 Z M64 109 L64 321 C110 379 165 418 202 418 C324 418 406 334 406 207 C406 78 338 -8 235 -8 C159 -8 92 39 64 110 L64 109 L64 109 Z " />
<glyph glyph-name="c" unicode="c" horiz-adv-x="448" d="M418 114 L417 114 C377 42 300 -6 225 -6 C128 -6 64 83 64 216 C64 344 134 429 240 429 C312 429 375 387 398 325 C400 319 404 315 408 315 C416 315 420 319 418 325 C395 388 324 430 241 430 C123 430 45 340 45 205 C45 76 116 -10 223 -10 C299 -10 377 40 418 114 L418 114 Z " />
<glyph glyph-name="d" unicode="d" horiz-adv-x="564" d="M440 657 L440 651 C462 651 475 636 475 605 L475 325 C453 383 391 430 321 430 C139 430 45 344 45 215 C45 83 144 -5 292 -5 C366 -5 438 28 474 78 L474 -1 L484 -1 C503 4 529 11 549 16 L549 21 L540 19 C512 12 494 27 494 57 L494 669 L484 669 C470 665 453 660 439 656 L440 657 L440 657 Z M474 314 L474 79 C441 33 372 3 300 3 C159 3 65 90 65 220 C65 342 153 424 323 424 C394 424 457 374 475 315 L474 314 L474 314 Z " />
<glyph glyph-name="e" unicode="e" horiz-adv-x="537" d="M299 429 C383 429 452 389 485 286 L507 286 C473 390 396 430 299 430 C147 430 45 366 45 200 C45 74 137 -10 276 -10 C369 -10 455 40 492 115 C455 42 370 -6 277 -6 C150 -6 65 80 65 208 C65 362 155 429 298 429 L299 429 L299 429 Z M491 115 C492 117 493 119 494 121 C493 119 492 117 491 115 L491 115 Z " />
<glyph glyph-name="f" unicode="f" horiz-adv-x="297" d="M161 5 L141 5 C132 5 126 11 126 20 L126 409 L287 409 L287 420 L126 420 C126 569 172 669 261 669 C298 669 334 555 365 555 C392 555 410 573 410 600 C410 645 353 675 268 675 C161 675 106 573 106 420 L-4 411 L-4 409 L106 409 L106 20 C106 11 100 5 91 5 L71 5 L71 0 L161 0 L161 5 L161 5 Z " />
<glyph glyph-name="g" unicode="g" horiz-adv-x="531" d="M535 398 C485 398 449 375 438 339 C416 395 354 430 269 430 C162 430 91 376 91 294 C91 218 153 166 248 159 C137 156 64 131 64 93 C64 57 111 33 183 31 C109 12 60 -37 60 -93 C60 -176 148 -232 279 -232 C410 -232 497 -175 497 -90 C497 -6 444 50 309 50 L194 50 C124 50 77 69 77 97 C77 132 154 156 270 156 C376 156 447 210 447 292 C447 308 444 323 439 337 C450 366 482 384 525 384 C530 384 536 376 541 376 C554 376 549 397 535 397 L535 398 L535 398 Z M184 31 C187 31 190 31 193 31 L307 31 C432 31 481 -19 481 -94 C481 -176 400 -230 279 -230 C157 -230 76 -173 76 -87 C76 -32 119 14 184 31 L184 31 Z M269 158 C174 158 111 212 111 293 C111 374 174 428 269 428 C363 428 426 374 426 293 C426 212 363 158 269 158 L269 158 Z " />
<glyph glyph-name="h" unicode="h" horiz-adv-x="442" d="M35 651 C57 651 70 636 70 605 L70 20 C70 11 64 5 55 5 L35 5 L35 0 L125 0 L125 5 L105 5 C96 5 90 11 90 20 L90 288 C140 365 205 416 251 416 C322 416 358 376 358 315 L358 20 C358 11 352 5 343 5 L323 5 L323 0 L413 0 L413 5 L393 5 C384 5 378 11 378 20 L378 315 C378 384 339 430 263 430 C215 430 146 374 90 289 L90 670 L80 670 C67 666 49 661 35 657 L35 651 L35 651 Z " />
<glyph glyph-name="i" unicode="i" horiz-adv-x="164" d="M110 555 C110 581 70 581 70 555 C70 529 110 529 110 555 L110 555 Z M45 401 C67 401 80 386 80 355 L80 20 C80 11 74 5 65 5 L45 5 L45 0 L135 0 L135 5 L115 5 C106 5 100 11 100 20 L100 420 L90 420 C77 416 59 411 45 407 L45 401 L45 401 Z " />
<glyph glyph-name="j" unicode="j" horiz-adv-x="175" d="M95 555 C95 581 55 581 55 555 C55 529 95 529 95 555 L95 555 Z M30 401 C52 401 65 386 65 355 L65 12 C65 -59 50 -115 28 -128 C-7 -128 -55 -100 -90 -100 C-117 -100 -135 -116 -135 -140 C-135 -169 -111 -187 -75 -185 C-68 -185 -26 -163 30 -130 C63 -111 85 -54 85 12 L85 420 L75 420 C62 416 44 411 30 407 L30 401 L30 401 Z " />
<glyph glyph-name="k" unicode="k" horiz-adv-x="360" d="M380 420 L184 420 L184 415 L223 415 C283 415 271 375 193 315 L90 235 L90 670 L80 670 C67 666 49 661 35 657 L35 651 C57 651 70 636 70 605 L70 20 C70 11 64 5 55 5 L35 5 L35 0 L125 0 L125 5 L105 5 C96 5 90 11 90 20 L90 235 L276 41 C299 16 301 5 281 5 L281 0 L357 0 L357 5 C343 5 321 23 290 55 L290 55 L108 246 C153 281 198 316 243 350 C298 393 344 415 382 415 L380 420 L380 420 Z " />
<glyph glyph-name="l" unicode="l" horiz-adv-x="154" d="M35 651 C57 651 70 636 70 605 L70 20 C70 11 64 5 55 5 L35 5 L35 0 L125 0 L125 5 L105 5 C96 5 90 11 90 20 L90 670 L80 670 C67 666 49 661 35 657 L35 651 L35 651 Z " />
<glyph glyph-name="m" unicode="m" horiz-adv-x="756" d="M35 401 C57 401 70 386 70 355 L70 20 C70 11 64 5 55 5 L35 5 L35 0 L125 0 L125 5 L105 5 C96 5 90 11 90 20 L90 293 C138 366 201 415 247 415 C336 415 371 375 371 315 L371 20 C371 11 365 5 356 5 L336 5 L336 0 L426 0 L426 5 L406 5 C397 5 391 11 391 20 L391 295 C439 367 501 415 548 415 C637 415 672 375 672 315 L672 20 C672 11 666 5 657 5 L637 5 L637 0 L727 0 L727 5 L707 5 C698 5 692 11 692 20 L692 315 C692 384 654 430 557 430 C510 430 445 377 391 296 L391 315 C391 384 353 430 256 430 C210 430 144 376 90 294 L90 420 L80 420 C67 416 49 411 35 407 L35 401 L35 401 Z " />
<glyph glyph-name="n" unicode="n" horiz-adv-x="455" d="M35 401 C57 401 70 386 70 355 L70 20 C70 11 64 5 55 5 L35 5 L35 0 L125 0 L125 5 L105 5 C96 5 90 11 90 20 L90 284 C144 366 208 421 250 421 C330 421 371 351 371 247 L371 20 C371 11 365 5 356 5 L336 5 L336 0 L426 0 L426 5 L406 5 C397 5 391 11 391 20 L391 247 C391 357 345 430 256 430 C213 430 146 373 90 287 L90 420 L80 420 C67 416 49 411 35 407 L35 401 L35 401 Z " />
<glyph glyph-name="o" unicode="o" horiz-adv-x="607" d="M67 210 C67 341 162 429 304 429 C446 429 540 341 540 210 C540 79 446 -9 304 -9 C162 -9 67 79 67 210 L67 210 Z M45 210 C45 78 149 -10 304 -10 C459 -10 562 78 562 210 C562 342 459 430 304 430 C149 430 45 342 45 210 L45 210 Z " />
<glyph glyph-name="p" unicode="p" horiz-adv-x="489" d="M20 401 C42 401 55 386 55 355 L55 -200 C55 -209 49 -215 40 -215 L20 -215 L20 -220 L110 -220 L110 -215 L90 -215 C81 -215 75 -209 75 -200 L75 78 C102 27 148 -5 197 -5 C345 -5 444 95 444 212 C444 343 356 430 223 430 C170 430 111 402 75 359 L75 420 L65 420 C52 416 34 411 20 407 L20 401 L20 401 Z M75 117 L75 352 C111 394 166 422 213 422 C338 422 422 335 422 205 C422 94 332 0 198 0 C146 0 96 47 75 117 L75 117 Z " />
<glyph glyph-name="q" unicode="q" horiz-adv-x="542" d="M538 -215 L518 -215 C509 -215 503 -209 503 -200 L503 420 L502 420 L495 360 L483 348 L483 338 C446 395 377 431 298 431 C129 431 42 345 42 215 C42 84 145 -4 299 -4 C383 -4 455 26 483 72 L483 -199 C483 -208 477 -214 468 -214 L448 -214 L448 -219 L538 -219 L538 -215 L538 -215 Z M483 310 L483 78 C456 33 387 4 307 4 C160 4 62 91 62 221 C62 344 142 426 296 426 C381 426 454 380 482 310 L483 310 L483 310 Z " />
<glyph glyph-name="r" unicode="r" horiz-adv-x="297" d="M36 401 C58 401 71 386 71 355 L71 20 C71 11 65 5 56 5 L36 5 L36 0 L126 0 L126 5 L106 5 C97 5 91 11 91 20 L91 309 C117 376 174 421 235 421 C252 421 263 407 263 386 C263 370 287 370 287 386 C287 412 270 430 244 430 C180 430 119 382 91 310 L91 420 L81 420 C68 416 50 411 36 407 L36 401 L36 401 Z " />
<glyph glyph-name="s" unicode="s" horiz-adv-x="427" d="M60 126 L60 15 L66 15 C66 19 68 23 68 27 C70 52 156 -2 157 2 C182 -6 209 -10 238 -10 C321 -10 376 32 376 94 C376 139 330 186 242 218 C134 257 79 303 79 341 C79 394 121 429 185 429 C213 429 239 425 262 417 C304 400 334 365 338 325 C338 321 340 315 340 311 L346 311 L346 410 L340 410 C340 407 339 404 339 401 C337 388 258 422 242 426 L241 425 C223 429 204 431 184 431 C112 431 64 393 64 335 C64 293 121 244 233 203 C316 173 359 130 359 90 C359 31 310 -8 237 -8 C208 -8 181 -3 157 6 L157 6 C108 24 71 66 66 112 C65 116 66 123 65 127 L60 126 L60 126 Z " />
<glyph glyph-name="t" unicode="t" horiz-adv-x="313" d="M277 420 L116 420 L116 521 L115 521 L31 420 L31 410 L96 410 L96 86 C96 17 138 -10 200 -10 C235 -10 276 9 303 37 L302 39 C279 15 240 -1 206 -1 C152 -1 116 22 116 82 L116 409 L277 409 L277 420 L277 420 Z " />
<glyph glyph-name="u" unicode="u" horiz-adv-x="451" d="M437 20 C411 12 392 22 392 58 L392 420 L337 420 L337 415 L357 415 C366 415 372 409 372 400 L372 113 C349 47 284 4 203 4 C133 4 86 65 86 157 L86 420 L31 420 L31 415 L51 415 C60 415 66 409 66 400 L66 157 C66 57 117 -10 194 -10 C279 -10 347 38 371 112 L371 0 L381 0 C397 4 419 10 436 15 L437 20 L437 20 Z " />
<glyph glyph-name="v" unicode="v" horiz-adv-x="406" d="M391 420 L314 420 L314 415 L319 415 C346 415 324 360 324 360 L173 -10 L179 -10 L334 362 C350 398 368 415 392 415 L391 420 L391 420 Z M97 420 L8 420 L8 415 C29 415 44 401 56 371 L174 -10 L186 20 C151 133 115 247 81 360 C70 397 75 415 97 415 L97 420 L97 420 Z " />
<glyph glyph-name="w" unicode="w" horiz-adv-x="622" d="M597 420 L520 420 L520 415 L525 415 C552 415 530 360 530 360 L391 23 L297 369 C291 401 298 415 318 415 L318 420 L228 420 L228 415 C251 415 268 396 278 360 L278 360 L296 294 L177 -10 L183 -10 L299 282 L378 -10 L384 -10 C436 113 488 237 541 360 C556 396 575 415 598 415 L597 420 L597 420 Z M117 420 L27 420 L27 415 C50 415 67 396 77 360 L77 360 L178 -10 L191 24 L97 370 C91 401 98 415 118 415 L117 420 L117 420 Z " />
<glyph glyph-name="x" unicode="x" horiz-adv-x="448" d="M13 0 L87 0 L87 5 L82 5 C68 5 75 25 100 55 L220 196 C254 151 289 105 322 60 C347 27 353 5 337 5 L332 5 L332 0 L423 0 L423 5 C400 5 377 22 351 55 L234 211 C267 261 300 311 334 360 C358 396 382 415 405 415 L405 420 L330 420 L330 415 L335 415 C349 415 348 398 333 371 L231 215 C195 263 159 311 123 359 C98 392 92 414 108 414 L113 414 L113 419 L23 419 L23 414 C46 414 68 398 94 366 L218 199 L95 57 C64 22 38 3 14 3 L13 0 L13 0 Z " />
<glyph glyph-name="y" unicode="y" horiz-adv-x="444" d="M114 420 L26 420 L26 415 C48 415 65 400 81 369 L247 -5 L245 -10 L191 -167 C185 -183 172 -194 164 -194 C142 -194 137 -184 115 -184 C93 -184 78 -199 78 -221 C78 -244 94 -260 119 -260 C136 -260 177 -224 196 -169 C216 -111 237 -54 256 5 C296 123 335 242 375 360 C387 396 404 415 428 415 L428 420 L351 420 L351 415 C373 415 378 397 366 360 L366 360 L255 22 L104 360 C104 360 80 415 107 415 L112 415 L114 420 L114 420 Z " />
<glyph glyph-name="z" unicode="z" horiz-adv-x="486" d="M62 422 C62 420 61 418 60 416 C59 416 52 387 40 344 L53 344 L60 355 C78 387 119 409 165 412 L421 413 L40 3 L40 -2 L441 -2 L441 5 L441 5 C442 14 445 39 449 73 L436 73 L431 62 C418 30 381 8 336 5 L67 4 L447 414 L447 419 L105 419 C87 419 74 419 73 420 L73 421 L62 422 L62 422 Z " />
<glyph glyph-name="braceleft" unicode="&#x7b;" horiz-adv-x="243" d="M20 270 C52 270 73 244 73 205 L73 -8 C73 -81 123 -130 198 -130 L238 -130 L199 -129 C133 -129 89 -81 89 -8 L89 194 C89 240 62 270 21 270 C62 270 89 303 89 353 L88 549 C88 622 132 670 199 670 C123 670 73 623 73 549 L73 342 C73 299 52 270 20 270 L20 270 Z " />
<glyph glyph-name="bar" unicode="&#x7c;" horiz-adv-x="136" d="M60 720 L60 -250 L76 -250 L76 720 L60 720 L60 720 Z " />
<glyph glyph-name="braceright" unicode="&#x7d;" horiz-adv-x="243" d="M222 270 C181 270 154 240 154 194 L154 -8 C154 -81 110 -129 44 -129 L5 -130 L45 -130 C120 -130 170 -81 170 -8 L170 205 C170 244 191 270 223 270 C191 270 170 299 170 342 L170 549 C170 623 120 670 44 670 C111 670 155 622 155 549 L154 353 C154 303 181 270 222 270 L222 270 Z " />
<glyph glyph-name="asciitilde" unicode="&#x7e;" horiz-adv-x="353" d="M25 270 C25 313 46 341 77 341 C136 341 214 276 272 276 C306 276 329 306 329 351 C329 315 308 291 276 291 C218 291 140 356 81 356 C47 356 25 322 25 270 L25 270 Z " />
<glyph glyph-name="exclamdown" unicode="&#xa1;" horiz-adv-x="164" d="M62 405 C62 379 102 379 102 405 C102 431 62 431 62 405 L62 405 Z M82 -255 C91 -255 95 -228 94 -188 C94 -188 84 114 84 244 L80 244 C80 114 70 -188 70 -188 C69 -228 73 -255 82 -255 L82 -255 Z " />
<glyph glyph-name="cent" unicode="&#xa2;" horiz-adv-x="448" d="M219 495 L219 429 C113 418 45 331 45 205 C45 78 114 -7 219 -9 L219 -74 L233 -74 L233 -9 C306 -5 379 44 418 115 L417 115 C378 46 305 -1 233 -4 L233 431 C309 434 374 391 398 327 C400 321 404 317 408 317 C416 317 420 321 418 327 C394 392 320 435 233 432 L233 497 L219 495 L219 495 Z M219 -4 C125 0 64 88 64 218 C64 337 125 419 219 430 L219 -4 L219 -4 Z " />
<glyph glyph-name="acute" unicode="&#xb4;" horiz-adv-x="353" d="M183 484 L319 610 C364 653 394 681 394 682 C394 687 389 692 384 692 C384 692 354 663 310 619 L180 487 L183 484 L183 484 Z " />
<glyph glyph-name="questiondown" unicode="&#xbf;" horiz-adv-x="309" d="M164 405 C164 379 204 379 204 405 C204 431 164 431 164 405 L164 405 Z M190 290 C190 290 188 99 184 98 C106 98 71 63 31 10 C15 -11 4 -45 4 -73 C4 -185 68 -259 164 -259 C175 -259 183 -253 183 -244 C183 -238 179 -234 172 -234 C167 -234 161 -238 157 -238 C69 -238 10 -171 10 -70 C10 -49 20 -21 36 0 C72 47 105 78 191 78 C193 79 194 290 194 290 L190 290 L190 290 Z " />
<glyph glyph-name="Agrave" unicode="&#xc0;" horiz-adv-x="640" d="M135 932 C135 929 165 901 210 860 L346 734 L349 737 L219 869 C177 913 148 942 145 942 C140 942 135 937 135 932 L135 932 Z M447 0 L639 0 L639 6 L629 6 C599 6 567 39 546 90 C479 290 414 491 345 690 L343 690 C345 676 340 665 330 664 L333 654 L333 654 L131 106 C109 46 58 6 5 6 L-10 6 L-10 0 L198 0 L198 6 L182 6 C131 6 111 44 131 102 L334 653 L517 106 L516 106 C536 46 515 6 463 6 L447 6 L447 0 L447 0 Z " />
<glyph glyph-name="Aacute" unicode="&#xc1;" horiz-adv-x="640" d="M348 734 L484 860 C529 903 559 931 559 932 C559 937 554 942 549 942 C549 942 519 913 475 869 L345 737 L348 734 L348 734 Z M447 0 L639 0 L639 6 L629 6 C599 6 567 39 546 90 C479 290 414 491 345 690 L343 690 C345 676 340 665 330 664 L333 654 L333 654 L131 106 C109 46 58 6 5 6 L-10 6 L-10 0 L198 0 L198 6 L182 6 C131 6 111 44 131 102 L334 653 L517 106 L516 106 C536 46 515 6 463 6 L447 6 L447 0 L447 0 Z " />
<glyph glyph-name="Acircumflex" unicode="&#xc2;" horiz-adv-x="640" d="M349 944 C346 952 339 952 336 944 L196 731 L199 729 L343 928 L487 729 L490 731 L349 944 L349 944 Z M448 0 L640 0 L640 6 L630 6 C600 6 568 39 547 90 C480 290 415 491 346 690 L344 690 C346 676 341 665 331 664 L334 654 L334 654 L132 106 C110 46 59 6 6 6 L-9 6 L-9 0 L199 0 L199 6 L183 6 C132 6 112 44 132 102 L335 653 L518 106 L517 106 C537 46 516 6 464 6 L448 6 L448 0 L448 0 Z " />
<glyph glyph-name="Atilde" unicode="&#xc3;" horiz-adv-x="640" d="M190 790 C190 833 211 861 242 861 C301 861 379 796 437 796 C471 796 494 826 494 871 C494 835 473 811 441 811 C383 811 305 876 246 876 C212 876 190 842 190 790 L190 790 Z M447 0 L639 0 L639 6 L629 6 C599 6 567 39 546 90 C479 290 414 491 345 690 L343 690 C345 676 340 665 330 664 L333 654 L333 654 L131 106 C109 46 58 6 5 6 L-10 6 L-10 0 L198 0 L198 6 L182 6 C131 6 111 44 131 102 L334 653 L517 106 L516 106 C536 46 515 6 463 6 L447 6 L447 0 L447 0 Z " />
<glyph glyph-name="Adieresis" unicode="&#xc4;" horiz-adv-x="640" d="M426 805 C426 831 386 831 386 805 C386 779 426 779 426 805 L426 805 Z M298 805 C298 831 258 831 258 805 C258 779 298 779 298 805 L298 805 Z M447 0 L639 0 L639 6 L629 6 C599 6 567 39 546 90 C479 290 414 491 345 690 L343 690 C345 676 340 665 330 664 L333 654 L333 654 L131 106 C109 46 58 6 5 6 L-10 6 L-10 0 L198 0 L198 6 L182 6 C131 6 111 44 131 102 L334 653 L517 106 L516 106 C536 46 515 6 463 6 L447 6 L447 0 L447 0 Z " />
<glyph glyph-name="Aring" unicode="&#xc5;" horiz-adv-x="640" d="M253 825 C253 879 289 915 342 915 C395 915 431 879 431 825 C431 776 390 735 342 735 C294 735 253 776 253 825 L253 825 Z M247 825 C247 774 291 730 342 730 C393 730 437 774 437 825 C437 882 399 920 342 920 C285 920 247 882 247 825 L247 825 Z M447 0 L639 0 L639 6 L629 6 C599 6 567 39 546 90 C479 290 414 491 345 690 L343 690 C345 676 340 665 330 664 L333 654 L333 654 L131 106 C109 46 58 6 5 6 L-10 6 L-10 0 L198 0 L198 6 L182 6 C131 6 111 44 131 102 L334 653 L517 106 L516 106 C536 46 515 6 463 6 L447 6 L447 0 L447 0 Z " />
<glyph glyph-name="Egrave" unicode="&#xc8;" horiz-adv-x="560" d="M99 932 C99 929 129 901 174 860 L310 734 L313 737 L183 869 C141 913 112 942 109 942 C104 942 99 937 99 932 L99 932 Z M418 239 L418 450 L407 450 L402 425 C393 377 356 345 308 345 L157 345 L157 669 L368 669 C416 669 457 637 472 589 L480 564 L491 564 C487 596 482 638 478 670 L59 670 L59 665 L71 665 C109 665 134 637 134 595 L134 75 C134 33 109 5 71 5 L59 5 L59 0 L503 0 C508 29 515 67 520 96 L509 96 L503 81 C485 33 431 1 368 1 L203 1 C162 1 157 19 157 46 L157 344 L308 344 C356 344 393 312 402 264 L407 239 L418 239 L418 239 Z " />
<glyph glyph-name="Eacute" unicode="&#xc9;" horiz-adv-x="560" d="M312 734 L448 860 C493 903 523 931 523 932 C523 937 518 942 513 942 C513 942 483 913 439 869 L309 737 L312 734 L312 734 Z M418 239 L418 450 L407 450 L402 425 C393 377 356 345 308 345 L157 345 L157 669 L368 669 C416 669 457 637 472 589 L480 564 L491 564 C487 596 482 638 478 670 L59 670 L59 665 L71 665 C109 665 134 637 134 595 L134 75 C134 33 109 5 71 5 L59 5 L59 0 L503 0 C508 29 515 67 520 96 L509 96 L503 81 C485 33 431 1 368 1 L203 1 C162 1 157 19 157 46 L157 344 L308 344 C356 344 393 312 402 264 L407 239 L418 239 L418 239 Z " />
<glyph glyph-name="Ecircumflex" unicode="&#xca;" horiz-adv-x="560" d="M313 944 C310 952 303 952 300 944 L160 731 L163 729 L307 928 L451 729 L454 731 L313 944 L313 944 Z M419 239 L419 450 L408 450 L403 425 C394 377 357 345 309 345 L158 345 L158 669 L369 669 C417 669 458 637 473 589 L481 564 L492 564 C488 596 483 638 479 670 L60 670 L60 665 L72 665 C110 665 135 637 135 595 L135 75 C135 33 110 5 72 5 L60 5 L60 0 L504 0 C509 29 516 67 521 96 L510 96 L504 81 C486 33 432 1 369 1 L204 1 C163 1 158 19 158 46 L158 344 L309 344 C357 344 394 312 403 264 L408 239 L419 239 L419 239 Z " />
<glyph glyph-name="Edieresis" unicode="&#xcb;" horiz-adv-x="560" d="M390 805 C390 831 350 831 350 805 C350 779 390 779 390 805 L390 805 Z M262 805 C262 831 222 831 222 805 C222 779 262 779 262 805 L262 805 Z M418 239 L418 450 L407 450 L402 425 C393 377 356 345 308 345 L157 345 L157 669 L368 669 C416 669 457 637 472 589 L480 564 L491 564 C487 596 482 638 478 670 L59 670 L59 665 L71 665 C109 665 134 637 134 595 L134 75 C134 33 109 5 71 5 L59 5 L59 0 L503 0 C508 29 515 67 520 96 L509 96 L503 81 C485 33 431 1 368 1 L203 1 C162 1 157 19 157 46 L157 344 L308 344 C356 344 393 312 402 264 L407 239 L418 239 L418 239 Z " />
<glyph glyph-name="Igrave" unicode="&#xcc;" horiz-adv-x="285" d="M-47 932 C-47 929 -17 901 28 860 L164 734 L167 737 L37 869 C-5 913 -34 942 -37 942 C-42 942 -47 937 -47 932 L-47 932 Z M226 5 C192 5 171 20 171 55 L171 615 C171 650 192 665 226 665 L226 670 L93 670 L93 665 C127 665 148 650 148 615 L148 55 C148 20 127 5 93 5 L93 0 L226 0 L226 5 L226 5 Z " />
<glyph glyph-name="Iacute" unicode="&#xcd;" horiz-adv-x="285" d="M166 734 L302 860 C347 903 377 931 377 932 C377 937 372 942 367 942 C367 942 337 913 293 869 L163 737 L166 734 L166 734 Z M226 5 C192 5 171 20 171 55 L171 615 C171 650 192 665 226 665 L226 670 L93 670 L93 665 C127 665 148 650 148 615 L148 55 C148 20 127 5 93 5 L93 0 L226 0 L226 5 L226 5 Z " />
<glyph glyph-name="Icircumflex" unicode="&#xce;" horiz-adv-x="285" d="M167 944 C164 952 157 952 154 944 L14 731 L17 729 L161 928 L305 729 L308 731 L167 944 L167 944 Z M227 5 C193 5 172 20 172 55 L172 615 C172 650 193 665 227 665 L227 670 L94 670 L94 665 C128 665 149 650 149 615 L149 55 C149 20 128 5 94 5 L94 0 L227 0 L227 5 L227 5 Z " />
<glyph glyph-name="Idieresis" unicode="&#xcf;" horiz-adv-x="285" d="M244 805 C244 831 204 831 204 805 C204 779 244 779 244 805 L244 805 Z M116 805 C116 831 76 831 76 805 C76 779 116 779 116 805 L116 805 Z M226 5 C192 5 171 20 171 55 L171 615 C171 650 192 665 226 665 L226 670 L93 670 L93 665 C127 665 148 650 148 615 L148 55 C148 20 127 5 93 5 L93 0 L226 0 L226 5 L226 5 Z " />
<glyph glyph-name="Ntilde" unicode="&#xd1;" horiz-adv-x="703" d="M199 790 C199 833 220 861 251 861 C310 861 388 796 446 796 C480 796 503 826 503 871 C503 835 482 811 450 811 C392 811 314 876 255 876 C221 876 199 842 199 790 L199 790 Z M44 665 C71 665 91 658 113 639 L113 55 C113 20 92 5 58 5 L58 0 L175 0 L175 5 C141 5 120 20 120 55 L120 55 L119 633 C125 627 130 621 135 614 L135 614 L562 27 L583 -1 L587 -1 L589 614 L589 614 C589 649 610 664 644 664 L644 669 L527 669 L527 664 C561 664 582 649 582 614 L583 34 L579 40 L125 669 L44 669 L44 665 L44 665 Z " />
<glyph glyph-name="Ograve" unicode="&#xd2;" horiz-adv-x="781" d="M96 335 C96 541 215 679 393 679 C578 679 701 541 701 335 C701 129 574 -9 384 -9 C211 -9 96 129 96 335 L96 335 Z M71 335 C71 128 196 -10 384 -10 C589 -10 726 128 726 335 C726 542 593 680 394 680 C200 680 71 542 71 335 L71 335 Z M187 932 C187 929 217 901 262 860 L398 734 L401 737 L271 869 C229 913 200 942 197 942 C192 942 187 937 187 932 L187 932 Z " />
<glyph glyph-name="Oacute" unicode="&#xd3;" horiz-adv-x="781" d="M400 734 L536 860 C581 903 611 931 611 932 C611 937 606 942 601 942 C601 942 571 913 527 869 L397 737 L400 734 L400 734 Z M96 335 C96 541 215 679 393 679 C578 679 701 541 701 335 C701 129 574 -9 384 -9 C211 -9 96 129 96 335 L96 335 Z M71 335 C71 128 196 -10 384 -10 C589 -10 726 128 726 335 C726 542 593 680 394 680 C200 680 71 542 71 335 L71 335 Z " />
<glyph glyph-name="Ocircumflex" unicode="&#xd4;" horiz-adv-x="781" d="M96 335 C96 541 215 679 393 679 C578 679 701 541 701 335 C701 129 574 -9 384 -9 C211 -9 96 129 96 335 L96 335 Z M71 335 C71 128 196 -10 384 -10 C589 -10 726 128 726 335 C726 542 593 680 394 680 C200 680 71 542 71 335 L71 335 Z M401 944 C398 952 391 952 388 944 L248 731 L251 729 L395 928 L539 729 L542 731 L401 944 L401 944 Z " />
<glyph glyph-name="Otilde" unicode="&#xd5;" horiz-adv-x="781" d="M242 790 C242 833 263 861 294 861 C353 861 431 796 489 796 C523 796 546 826 546 871 C546 835 525 811 493 811 C435 811 357 876 298 876 C264 876 242 842 242 790 L242 790 Z M96 335 C96 541 215 679 393 679 C578 679 701 541 701 335 C701 129 574 -9 384 -9 C211 -9 96 129 96 335 L96 335 Z M71 335 C71 128 196 -10 384 -10 C589 -10 726 128 726 335 C726 542 593 680 394 680 C200 680 71 542 71 335 L71 335 Z " />
<glyph glyph-name="Odieresis" unicode="&#xd6;" horiz-adv-x="781" d="M478 805 C478 831 438 831 438 805 C438 779 478 779 478 805 L478 805 Z M350 805 C350 831 310 831 310 805 C310 779 350 779 350 805 L350 805 Z M96 335 C96 541 215 679 393 679 C578 679 701 541 701 335 C701 129 574 -9 384 -9 C211 -9 96 129 96 335 L96 335 Z M71 335 C71 128 196 -10 384 -10 C589 -10 726 128 726 335 C726 542 593 680 394 680 C200 680 71 542 71 335 L71 335 Z " />
<glyph glyph-name="Oslash" unicode="&#xd8;" horiz-adv-x="781" d="M72 -11 L160 82 C215 24 292 -9 384 -9 C589 -9 726 129 726 336 C726 439 693 525 636 585 L727 681 L725 683 L634 587 C576 647 493 681 394 681 C200 681 71 543 71 336 C71 232 103 145 158 85 L70 -8 L72 -11 L72 -11 Z M624 576 L168 95 C122 155 96 238 96 336 C96 542 215 680 393 680 C490 680 570 642 624 576 L624 576 Z M626 574 C674 515 701 433 701 336 C701 130 574 -8 384 -8 C294 -8 220 29 169 93 L626 574 L626 574 Z " />
<glyph glyph-name="Ugrave" unicode="&#xd9;" horiz-adv-x="597" d="M99 932 C99 929 129 901 174 860 L310 734 L313 737 L183 869 C141 913 112 942 109 942 C104 942 99 937 99 932 L99 932 Z M568 22 L559 20 C531 13 513 28 513 58 L513 670 L435 670 L435 665 C469 665 490 650 490 615 L490 162 C446 68 342 5 229 5 C165 5 122 90 122 218 L122 670 L44 670 L44 665 C78 665 99 650 99 615 L99 218 C99 81 147 -10 219 -10 C337 -10 445 54 490 151 L490 0 L502 0 L513 3 C531 8 552 13 568 17 L568 22 L568 22 Z " />
<glyph glyph-name="Uacute" unicode="&#xda;" horiz-adv-x="597" d="M312 734 L448 860 C493 903 523 931 523 932 C523 937 518 942 513 942 C513 942 483 913 439 869 L309 737 L312 734 L312 734 Z M568 22 L559 20 C531 13 513 28 513 58 L513 670 L435 670 L435 665 C469 665 490 650 490 615 L490 162 C446 68 342 5 229 5 C165 5 122 90 122 218 L122 670 L44 670 L44 665 C78 665 99 650 99 615 L99 218 C99 81 147 -10 219 -10 C337 -10 445 54 490 151 L490 0 L502 0 L513 3 C531 8 552 13 568 17 L568 22 L568 22 Z " />
<glyph glyph-name="Ucircumflex" unicode="&#xdb;" horiz-adv-x="597" d="M313 944 C310 952 303 952 300 944 L160 731 L163 729 L307 928 L451 729 L454 731 L313 944 L313 944 Z M569 22 L560 20 C532 13 514 28 514 58 L514 670 L436 670 L436 665 C470 665 491 650 491 615 L491 162 C447 68 343 5 230 5 C166 5 123 90 123 218 L123 670 L45 670 L45 665 C79 665 100 650 100 615 L100 218 C100 81 148 -10 220 -10 C338 -10 446 54 491 151 L491 0 L503 0 L514 3 C532 8 553 13 569 17 L569 22 L569 22 Z " />
<glyph glyph-name="Udieresis" unicode="&#xdc;" horiz-adv-x="597" d="M390 805 C390 831 350 831 350 805 C350 779 390 779 390 805 L390 805 Z M262 805 C262 831 222 831 222 805 C222 779 262 779 262 805 L262 805 Z M568 22 L559 20 C531 13 513 28 513 58 L513 670 L435 670 L435 665 C469 665 490 650 490 615 L490 162 C446 68 342 5 229 5 C165 5 122 90 122 218 L122 670 L44 670 L44 665 C78 665 99 650 99 615 L99 218 C99 81 147 -10 219 -10 C337 -10 445 54 490 151 L490 0 L502 0 L513 3 C531 8 552 13 568 17 L568 22 L568 22 Z " />
<glyph glyph-name="Yacute" unicode="&#xdd;" horiz-adv-x="611" d="M315 734 L452 860 C498 903 528 932 528 932 C528 937 523 942 518 942 C517 942 487 913 443 869 L313 737 L315 734 L315 734 Z M160 670 L22 670 L22 665 C47 665 70 649 93 616 L298 300 L298 75 C298 33 273 5 235 5 L223 5 L223 0 L396 0 L396 5 L384 5 C346 5 321 33 321 75 L321 303 L518 615 C542 649 574 665 613 665 L613 670 L455 670 L455 665 L492 665 C525 665 533 643 512 610 L512 610 L320 305 C255 407 188 509 123 610 C102 643 109 665 142 665 L159 665 L160 670 L160 670 Z " />
<glyph glyph-name="agrave" unicode="&#xe0;" horiz-adv-x="522" d="M532 57 L527 59 C522 29 499 9 470 9 C435 9 411 27 411 54 L411 303 C411 391 355 430 272 430 C157 430 81 334 81 280 C81 272 85 266 91 266 C106 266 116 272 116 276 C116 281 96 290 96 293 C96 342 166 429 271 429 C343 429 391 392 391 310 L391 223 C124 176 61 154 61 60 C61 18 109 -10 181 -10 C236 -10 306 18 391 92 L391 54 C391 19 419 -5 462 -5 C497 -5 525 20 532 57 L532 57 Z M65 682 C65 679 95 651 140 610 L276 484 L279 487 L149 619 C107 663 78 692 75 692 C70 692 65 687 65 682 L65 682 Z M391 222 L391 93 C315 27 247 2 191 2 C125 2 81 26 81 63 C81 157 140 178 391 223 L391 222 L391 222 Z " />
<glyph glyph-name="aacute" unicode="&#xe1;" horiz-adv-x="522" d="M278 484 L414 610 C459 653 489 681 489 682 C489 687 484 692 479 692 C479 692 449 663 405 619 L275 487 L278 484 L278 484 Z M532 57 L527 59 C522 29 499 9 470 9 C435 9 411 27 411 54 L411 303 C411 391 355 430 272 430 C157 430 81 334 81 280 C81 272 85 266 91 266 C106 266 116 272 116 276 C116 281 96 290 96 293 C96 342 166 429 271 429 C343 429 391 392 391 310 L391 223 C124 176 61 154 61 60 C61 18 109 -10 181 -10 C236 -10 306 18 391 92 L391 54 C391 19 419 -5 462 -5 C497 -5 525 20 532 57 L532 57 Z M391 222 L391 93 C315 27 247 2 191 2 C125 2 81 26 81 63 C81 157 140 178 391 223 L391 222 L391 222 Z " />
<glyph glyph-name="acircumflex" unicode="&#xe2;" horiz-adv-x="522" d="M532 57 L527 59 C522 29 499 9 470 9 C435 9 411 27 411 54 L411 303 C411 391 355 430 272 430 C157 430 81 334 81 280 C81 272 85 266 91 266 C106 266 116 272 116 276 C116 281 96 290 96 293 C96 342 166 429 271 429 C343 429 391 392 391 310 L391 223 C124 176 61 154 61 60 C61 18 109 -10 181 -10 C236 -10 306 18 391 92 L391 54 C391 19 419 -5 462 -5 C497 -5 525 20 532 57 L532 57 Z M279 694 C276 702 269 702 266 694 L126 481 L129 479 L273 678 L417 479 L420 481 L279 694 L279 694 Z M392 222 L392 93 C316 27 248 2 192 2 C126 2 82 26 82 63 C82 157 141 178 392 223 L392 222 L392 222 Z " />
<glyph glyph-name="atilde" unicode="&#xe3;" horiz-adv-x="522" d="M120 540 C120 583 141 611 172 611 C231 611 309 546 367 546 C401 546 424 576 424 621 C424 585 403 561 371 561 C313 561 235 626 176 626 C142 626 120 592 120 540 L120 540 Z M532 57 L527 59 C522 29 499 9 470 9 C435 9 411 27 411 54 L411 303 C411 391 355 430 272 430 C157 430 81 334 81 280 C81 272 85 266 91 266 C106 266 116 272 116 276 C116 281 96 290 96 293 C96 342 166 429 271 429 C343 429 391 392 391 310 L391 223 C124 176 61 154 61 60 C61 18 109 -10 181 -10 C236 -10 306 18 391 92 L391 54 C391 19 419 -5 462 -5 C497 -5 525 20 532 57 L532 57 Z M391 222 L391 93 C315 27 247 2 191 2 C125 2 81 26 81 63 C81 157 140 178 391 223 L391 222 L391 222 Z " />
<glyph glyph-name="adieresis" unicode="&#xe4;" horiz-adv-x="522" d="M356 555 C356 581 316 581 316 555 C316 529 356 529 356 555 L356 555 Z M228 555 C228 581 188 581 188 555 C188 529 228 529 228 555 L228 555 Z M532 57 L527 59 C522 29 499 9 470 9 C435 9 411 27 411 54 L411 303 C411 391 355 430 272 430 C157 430 81 334 81 280 C81 272 85 266 91 266 C106 266 116 272 116 276 C116 281 96 290 96 293 C96 342 166 429 271 429 C343 429 391 392 391 310 L391 223 C124 176 61 154 61 60 C61 18 109 -10 181 -10 C236 -10 306 18 391 92 L391 54 C391 19 419 -5 462 -5 C497 -5 525 20 532 57 L532 57 Z M391 222 L391 93 C315 27 247 2 191 2 C125 2 81 26 81 63 C81 157 140 178 391 223 L391 222 L391 222 Z " />
<glyph glyph-name="aring" unicode="&#xe5;" horiz-adv-x="522" d="M183 575 C183 629 219 665 272 665 C325 665 361 629 361 575 C361 526 320 485 272 485 C224 485 183 526 183 575 L183 575 Z M177 575 C177 524 221 480 272 480 C323 480 367 524 367 575 C367 632 329 670 272 670 C215 670 177 632 177 575 L177 575 Z M532 57 L527 59 C522 29 499 9 470 9 C435 9 411 27 411 54 L411 303 C411 391 355 430 272 430 C157 430 81 334 81 280 C81 272 85 266 91 266 C106 266 116 272 116 276 C116 281 96 290 96 293 C96 342 166 429 271 429 C343 429 391 392 391 310 L391 223 C124 176 61 154 61 60 C61 18 109 -10 181 -10 C236 -10 306 18 391 92 L391 54 C391 19 419 -5 462 -5 C497 -5 525 20 532 57 L532 57 Z M391 222 L391 93 C315 27 247 2 191 2 C125 2 81 26 81 63 C81 157 140 178 391 223 L391 222 L391 222 Z " />
<glyph glyph-name="egrave" unicode="&#xe8;" horiz-adv-x="537" d="M92 682 C92 679 122 651 167 610 L303 484 L306 487 L176 619 C134 663 105 692 102 692 C97 692 92 687 92 682 L92 682 Z M299 429 C383 429 452 389 485 286 L507 286 C473 390 396 430 299 430 C147 430 45 366 45 200 C45 74 137 -10 276 -10 C369 -10 455 40 492 115 C455 42 370 -6 277 -6 C150 -6 65 80 65 208 C65 362 155 429 298 429 L299 429 L299 429 Z M491 115 C492 117 493 119 494 121 C493 119 492 117 491 115 L491 115 Z " />
<glyph glyph-name="eacute" unicode="&#xe9;" horiz-adv-x="537" d="M305 484 L441 610 C486 653 516 681 516 682 C516 687 511 692 506 692 C506 692 476 663 432 619 L302 487 L305 484 L305 484 Z M299 429 C383 429 452 389 485 286 L507 286 C473 390 396 430 299 430 C147 430 45 366 45 200 C45 74 137 -10 276 -10 C369 -10 455 40 492 115 C455 42 370 -6 277 -6 C150 -6 65 80 65 208 C65 362 155 429 298 429 L299 429 L299 429 Z M491 115 C492 117 493 119 494 121 C493 119 492 117 491 115 L491 115 Z " />
<glyph glyph-name="ecircumflex" unicode="&#xea;" horiz-adv-x="537" d="M306 694 C303 702 296 702 293 694 L153 481 L156 479 L300 678 L444 479 L447 481 L306 694 L306 694 Z M300 429 C384 429 453 389 486 286 L508 286 C474 390 397 430 300 430 C148 430 46 366 46 200 C46 74 138 -10 277 -10 C370 -10 456 40 493 115 C456 42 371 -6 278 -6 C151 -6 66 80 66 208 C66 362 156 429 299 429 L300 429 L300 429 Z M492 115 C493 117 494 119 495 121 C494 119 493 117 492 115 L492 115 Z " />
<glyph glyph-name="edieresis" unicode="&#xeb;" horiz-adv-x="537" d="M383 555 C383 581 343 581 343 555 C343 529 383 529 383 555 L383 555 Z M255 555 C255 581 215 581 215 555 C215 529 255 529 255 555 L255 555 Z M299 429 C383 429 452 389 485 286 L507 286 C473 390 396 430 299 430 C147 430 45 366 45 200 C45 74 137 -10 276 -10 C369 -10 455 40 492 115 C455 42 370 -6 277 -6 C150 -6 65 80 65 208 C65 362 155 429 298 429 L299 429 L299 429 Z M491 115 C492 117 493 119 494 121 C493 119 492 117 491 115 L491 115 Z " />
<glyph glyph-name="igrave" unicode="&#xec;" horiz-adv-x="210" d="M-86 681 C-86 678 -56 650 -11 609 L125 483 L128 486 L-2 618 C-44 662 -73 691 -76 691 C-81 691 -86 686 -86 681 L-86 681 Z M76 402 L96 407 C105 409 111 405 111 396 L111 20 C111 11 105 5 96 5 L76 5 L76 0 L166 0 L166 5 L146 5 C137 5 131 11 131 20 L131 420 L121 420 C108 416 90 411 76 407 L76 402 L76 402 Z " />
<glyph glyph-name="iacute" unicode="&#xed;" horiz-adv-x="210" d="M-86 681 C-86 678 -56 650 -11 609 L125 483 L128 486 L-2 618 C-44 662 -73 691 -76 691 C-81 691 -86 686 -86 681 L-86 681 Z M76 402 L96 407 C105 409 111 405 111 396 L111 20 C111 11 105 5 96 5 L76 5 L76 0 L166 0 L166 5 L146 5 C137 5 131 11 131 20 L131 420 L121 420 C108 416 90 411 76 407 L76 402 L76 402 Z " />
<glyph glyph-name="icircumflex" unicode="&#xee;" horiz-adv-x="210" d="M128 693 C125 701 118 701 115 693 L-25 480 L-22 478 L122 677 L266 478 L269 480 L128 693 L128 693 Z M77 402 L97 407 C106 409 112 405 112 396 L112 20 C112 11 106 5 97 5 L77 5 L77 0 L167 0 L167 5 L147 5 C138 5 132 11 132 20 L132 420 L122 420 C109 416 91 411 77 407 L77 402 L77 402 Z " />
<glyph glyph-name="idieresis" unicode="&#xef;" horiz-adv-x="210" d="M205 554 C205 580 165 580 165 554 C165 528 205 528 205 554 L205 554 Z M77 554 C77 580 37 580 37 554 C37 528 77 528 77 554 L77 554 Z M76 402 L96 407 C105 409 111 405 111 396 L111 20 C111 11 105 5 96 5 L76 5 L76 0 L166 0 L166 5 L146 5 C137 5 131 11 131 20 L131 420 L121 420 C108 416 90 411 76 407 L76 402 L76 402 Z " />
<glyph glyph-name="ntilde" unicode="&#xf1;" horiz-adv-x="455" d="M79 540 C79 583 99 611 130 611 C189 611 267 546 325 546 C360 546 383 576 383 621 L382 621 C382 585 361 561 329 561 C271 561 193 626 135 626 C101 626 78 592 78 540 L79 540 L79 540 Z M35 401 C57 401 70 386 70 355 L70 20 C70 11 64 5 55 5 L35 5 L35 0 L125 0 L125 5 L105 5 C96 5 90 11 90 20 L90 284 C144 366 208 421 250 421 C330 421 371 351 371 247 L371 20 C371 11 365 5 356 5 L336 5 L336 0 L426 0 L426 5 L406 5 C397 5 391 11 391 20 L391 247 C391 357 345 430 256 430 C213 430 146 373 90 287 L90 420 L80 420 C67 416 49 411 35 407 L35 401 L35 401 Z " />
<glyph glyph-name="ograve" unicode="&#xf2;" horiz-adv-x="607" d="M67 210 C67 341 162 429 304 429 C446 429 540 341 540 210 C540 79 446 -9 304 -9 C162 -9 67 79 67 210 L67 210 Z M45 210 C45 78 149 -10 304 -10 C459 -10 562 78 562 210 C562 342 459 430 304 430 C149 430 45 342 45 210 L45 210 Z M97 682 C97 679 127 651 172 610 L308 484 L311 487 L181 619 C139 663 110 692 107 692 C102 692 97 687 97 682 L97 682 Z " />
<glyph glyph-name="oacute" unicode="&#xf3;" horiz-adv-x="607" d="M310 484 L446 610 C491 653 521 681 521 682 C521 687 516 692 511 692 C511 692 481 663 437 619 L307 487 L310 484 L310 484 Z M67 210 C67 341 162 429 304 429 C446 429 540 341 540 210 C540 79 446 -9 304 -9 C162 -9 67 79 67 210 L67 210 Z M45 210 C45 78 149 -10 304 -10 C459 -10 562 78 562 210 C562 342 459 430 304 430 C149 430 45 342 45 210 L45 210 Z " />
<glyph glyph-name="ocircumflex" unicode="&#xf4;" horiz-adv-x="607" d="M67 210 C67 341 162 429 304 429 C446 429 540 341 540 210 C540 79 446 -9 304 -9 C162 -9 67 79 67 210 L67 210 Z M45 210 C45 78 149 -10 304 -10 C459 -10 562 78 562 210 C562 342 459 430 304 430 C149 430 45 342 45 210 L45 210 Z M311 694 C308 702 301 702 298 694 L158 481 L161 479 L305 678 L449 479 L452 481 L311 694 L311 694 Z " />
<glyph glyph-name="otilde" unicode="&#xf5;" horiz-adv-x="607" d="M152 540 C152 583 173 611 204 611 C263 611 341 546 399 546 C433 546 456 576 456 621 C456 585 435 561 403 561 C345 561 267 626 208 626 C174 626 152 592 152 540 L152 540 Z M67 210 C67 341 162 429 304 429 C446 429 540 341 540 210 C540 79 446 -9 304 -9 C162 -9 67 79 67 210 L67 210 Z M45 210 C45 78 149 -10 304 -10 C459 -10 562 78 562 210 C562 342 459 430 304 430 C149 430 45 342 45 210 L45 210 Z " />
<glyph glyph-name="odieresis" unicode="&#xf6;" horiz-adv-x="607" d="M388 555 C388 581 348 581 348 555 C348 529 388 529 388 555 L388 555 Z M260 555 C260 581 220 581 220 555 C220 529 260 529 260 555 L260 555 Z M67 210 C67 341 162 429 304 429 C446 429 540 341 540 210 C540 79 446 -9 304 -9 C162 -9 67 79 67 210 L67 210 Z M45 210 C45 78 149 -10 304 -10 C459 -10 562 78 562 210 C562 342 459 430 304 430 C149 430 45 342 45 210 L45 210 Z " />
<glyph glyph-name="oslash" unicode="&#xf8;" horiz-adv-x="607" d="M304 430 C149 430 45 342 45 210 C45 144 71 89 116 51 C70 12 45 -9 45 -9 C45 -9 70 12 116 51 C161 12 226 -10 304 -10 C459 -10 562 78 562 210 C562 350 449 430 304 430 L304 430 Z M540 210 C540 79 446 -9 304 -9 C167 -9 67 74 67 210 C67 341 162 429 304 429 C441 429 540 346 540 210 L540 210 Z " />
<glyph glyph-name="ugrave" unicode="&#xf9;" horiz-adv-x="451" d="M22 682 C22 679 52 651 97 610 L233 484 L236 487 L106 619 C64 663 35 692 32 692 C27 692 22 687 22 682 L22 682 Z M437 20 C411 12 392 22 392 58 L392 420 L337 420 L337 415 L357 415 C366 415 372 409 372 400 L372 113 C349 47 284 4 203 4 C133 4 86 65 86 157 L86 420 L31 420 L31 415 L51 415 C60 415 66 409 66 400 L66 157 C66 57 117 -10 194 -10 C279 -10 347 38 371 112 L371 0 L381 0 C397 4 419 10 436 15 L437 20 L437 20 Z " />
<glyph glyph-name="uacute" unicode="&#xfa;" horiz-adv-x="451" d="M235 484 L371 610 C416 653 446 681 446 682 C446 687 441 692 436 692 C436 692 406 663 362 619 L232 487 L235 484 L235 484 Z M437 20 C411 12 392 22 392 58 L392 420 L337 420 L337 415 L357 415 C366 415 372 409 372 400 L372 113 C349 47 284 4 203 4 C133 4 86 65 86 157 L86 420 L31 420 L31 415 L51 415 C60 415 66 409 66 400 L66 157 C66 57 117 -10 194 -10 C279 -10 347 38 371 112 L371 0 L381 0 C397 4 419 10 436 15 L437 20 L437 20 Z " />
<glyph glyph-name="ucircumflex" unicode="&#xfb;" horiz-adv-x="451" d="M236 694 C233 702 226 702 223 694 L83 481 L86 479 L230 678 L374 479 L377 481 L236 694 L236 694 Z M438 20 C412 12 393 22 393 58 L393 420 L338 420 L338 415 L358 415 C367 415 373 409 373 400 L373 113 C350 47 285 4 204 4 C134 4 87 65 87 157 L87 420 L32 420 L32 415 L52 415 C61 415 67 409 67 400 L67 157 C67 57 118 -10 195 -10 C280 -10 348 38 372 112 L372 0 L382 0 C398 4 420 10 437 15 L438 20 L438 20 Z " />
<glyph glyph-name="udieresis" unicode="&#xfc;" horiz-adv-x="451" d="M313 555 C313 581 273 581 273 555 C273 529 313 529 313 555 L313 555 Z M185 555 C185 581 145 581 145 555 C145 529 185 529 185 555 L185 555 Z M437 20 C411 12 392 22 392 58 L392 420 L337 420 L337 415 L357 415 C366 415 372 409 372 400 L372 113 C349 47 284 4 203 4 C133 4 86 65 86 157 L86 420 L31 420 L31 415 L51 415 C60 415 66 409 66 400 L66 157 C66 57 117 -10 194 -10 C279 -10 347 38 371 112 L371 0 L381 0 C397 4 419 10 436 15 L437 20 L437 20 Z " />
<glyph glyph-name="ydieresis" unicode="&#xff;" horiz-adv-x="417" d="M299 555 C299 581 259 581 259 555 C259 529 299 529 299 555 L299 555 Z M171 555 C171 581 131 581 131 555 C131 529 171 529 171 555 L171 555 Z M96 420 L8 420 L8 415 C30 415 47 400 63 369 L229 -5 L227 -10 L173 -167 C167 -183 154 -194 146 -194 C124 -194 119 -184 97 -184 C75 -184 60 -199 60 -221 C60 -244 76 -260 101 -260 C118 -260 159 -224 178 -169 C198 -111 219 -54 238 5 C278 123 317 242 357 360 C369 396 386 415 410 415 L410 420 L333 420 L333 415 C355 415 360 397 348 360 L348 360 L237 22 L86 360 C86 360 62 415 89 415 L94 415 L96 420 L96 420 Z " />
<glyph glyph-name="Amacron" unicode="&#x100;" horiz-adv-x="640" d="M184 827 L500 827 L500 840 L184 840 L184 827 L184 827 Z M447 0 L639 0 L639 6 L629 6 C599 6 567 39 546 90 C479 290 414 491 345 690 L343 690 C345 676 340 665 330 664 L333 654 L333 654 L131 106 C109 46 58 6 5 6 L-10 6 L-10 0 L198 0 L198 6 L182 6 C131 6 111 44 131 102 L334 653 L517 106 L516 106 C536 46 515 6 463 6 L447 6 L447 0 L447 0 Z " />
<glyph glyph-name="amacron" unicode="&#x101;" horiz-adv-x="522" d="M114 577 L430 577 L430 590 L114 590 L114 577 L114 577 Z M532 57 L527 59 C522 29 499 9 470 9 C435 9 411 27 411 54 L411 303 C411 391 355 430 272 430 C157 430 81 334 81 280 C81 272 85 266 91 266 C106 266 116 272 116 276 C116 281 96 290 96 293 C96 342 166 429 271 429 C343 429 391 392 391 310 L391 223 C124 176 61 154 61 60 C61 18 109 -10 181 -10 C236 -10 306 18 391 92 L391 54 C391 19 419 -5 462 -5 C497 -5 525 20 532 57 L532 57 Z M391 222 L391 93 C315 27 247 2 191 2 C125 2 81 26 81 63 C81 157 140 178 391 223 L391 222 L391 222 Z " />
<glyph glyph-name="Abreve" unicode="&#x102;" horiz-adv-x="640" d="M220 915 C221 860 270 824 342 824 C414 824 463 860 464 914 L460 915 C459 869 412 839 342 839 C272 839 225 869 224 915 L220 915 L220 915 Z M447 0 L639 0 L639 6 L629 6 C599 6 567 39 546 90 C479 290 414 491 345 690 L343 690 C345 676 340 665 330 664 L333 654 L333 654 L131 106 C109 46 58 6 5 6 L-10 6 L-10 0 L198 0 L198 6 L182 6 C131 6 111 44 131 102 L334 653 L517 106 L516 106 C536 46 515 6 463 6 L447 6 L447 0 L447 0 Z " />
<glyph glyph-name="abreve" unicode="&#x103;" horiz-adv-x="522" d="M150 665 C151 610 200 574 272 574 C344 574 393 610 394 664 L390 665 C389 619 342 589 272 589 C202 589 155 619 154 665 L150 665 L150 665 Z M532 57 L527 59 C522 29 499 9 470 9 C435 9 411 27 411 54 L411 303 C411 391 355 430 272 430 C157 430 81 334 81 280 C81 272 85 266 91 266 C106 266 116 272 116 276 C116 281 96 290 96 293 C96 342 166 429 271 429 C343 429 391 392 391 310 L391 223 C124 176 61 154 61 60 C61 18 109 -10 181 -10 C236 -10 306 18 391 92 L391 54 C391 19 419 -5 462 -5 C497 -5 525 20 532 57 L532 57 Z M391 222 L391 93 C315 27 247 2 191 2 C125 2 81 26 81 63 C81 157 140 178 391 223 L391 222 L391 222 Z " />
<glyph glyph-name="Cacute" unicode="&#x106;" horiz-adv-x="690" d="M372 734 L508 860 C553 903 583 931 583 932 C583 937 578 942 573 942 C573 942 543 913 499 869 L369 737 L372 734 L372 734 Z M641 505 L641 646 L633 646 C632 641 632 634 631 629 C628 605 607 604 577 623 C529 658 467 679 366 679 C189 679 71 541 71 334 C71 127 185 -11 355 -11 C438 -11 506 13 567 52 C603 71 629 66 632 39 C633 33 633 26 634 20 L642 20 L642 165 L627 165 C625 159 622 151 620 145 C604 96 556 47 499 21 L499 21 C455 1 408 -10 356 -10 C200 -10 96 128 96 334 C96 540 204 678 366 678 C428 678 475 669 513 653 L513 653 C561 633 603 583 619 528 C621 521 624 512 626 505 L641 505 L641 505 Z M639 113 L639 113 L639 113 L639 113 Z " />
<glyph glyph-name="Ccircumflex" unicode="&#x108;" horiz-adv-x="690" d="M641 505 L641 646 L633 646 C632 641 632 634 631 629 C628 605 607 604 577 623 C529 658 467 679 366 679 C189 679 71 541 71 334 C71 127 185 -11 355 -11 C438 -11 506 13 567 52 C603 71 629 66 632 39 C633 33 633 26 634 20 L642 20 L642 165 L627 165 C625 159 622 151 620 145 C604 96 556 47 499 21 L499 21 C455 1 408 -10 356 -10 C200 -10 96 128 96 334 C96 540 204 678 366 678 C428 678 475 669 513 653 L513 653 C561 633 603 583 619 528 C621 521 624 512 626 505 L641 505 L641 505 Z M373 944 C370 952 363 952 360 944 L220 731 L223 729 L367 928 L511 729 L514 731 L373 944 L373 944 Z M640 113 L640 113 L640 113 L640 113 Z " />
<glyph glyph-name="Cdot" unicode="&#x10a;" horiz-adv-x="690" d="M386 805 C386 831 346 831 346 805 C346 779 386 779 386 805 L386 805 Z M641 505 L641 646 L633 646 C632 641 632 634 631 629 C628 605 607 604 577 623 C529 658 467 679 366 679 C189 679 71 541 71 334 C71 127 185 -11 355 -11 C438 -11 506 13 567 52 C603 71 629 66 632 39 C633 33 633 26 634 20 L642 20 L642 165 L627 165 C625 159 622 151 620 145 C604 96 556 47 499 21 L499 21 C455 1 408 -10 356 -10 C200 -10 96 128 96 334 C96 540 204 678 366 678 C428 678 475 669 513 653 L513 653 C561 633 603 583 619 528 C621 521 624 512 626 505 L641 505 L641 505 Z M639 113 L639 113 L639 113 L639 113 Z " />
<glyph glyph-name="cdot" unicode="&#x10b;" horiz-adv-x="448" d="M261 555 C261 581 221 581 221 555 C221 529 261 529 261 555 L261 555 Z M418 114 L417 114 C377 42 300 -6 225 -6 C128 -6 64 83 64 216 C64 344 134 429 240 429 C312 429 375 387 398 325 C400 319 404 315 408 315 C416 315 420 319 418 325 C395 388 324 430 241 430 C123 430 45 340 45 205 C45 76 116 -10 223 -10 C299 -10 377 40 418 114 L418 114 Z " />
<glyph glyph-name="Ccaron" unicode="&#x10c;" horiz-adv-x="690" d="M510 961 L366 762 L222 961 L219 959 L359 746 C362 738 369 738 372 746 L512 959 L510 961 L510 961 Z M640 505 L640 646 L632 646 C631 641 631 634 630 629 C627 605 606 604 576 623 C528 658 466 679 365 679 C188 679 70 541 70 334 C70 127 184 -11 354 -11 C437 -11 505 13 566 52 C602 71 628 66 631 39 C632 33 632 26 633 20 L641 20 L641 165 L626 165 C624 159 621 151 619 145 C603 96 555 47 498 21 L498 21 C454 1 407 -10 355 -10 C199 -10 95 128 95 334 C95 540 203 678 365 678 C427 678 474 669 512 653 L512 653 C560 633 602 583 618 528 C620 521 623 512 625 505 L640 505 L640 505 Z M638 113 L638 113 L638 113 L638 113 Z " />
<glyph glyph-name="ccaron" unicode="&#x10d;" horiz-adv-x="448" d="M385 711 L241 512 L97 711 L94 709 L234 496 C237 488 244 488 247 496 L387 709 L385 711 L385 711 Z M417 114 L416 114 C376 42 299 -6 224 -6 C127 -6 63 83 63 216 C63 344 133 429 239 429 C311 429 374 387 397 325 C399 319 403 315 407 315 C415 315 419 319 417 325 C394 388 323 430 240 430 C122 430 44 340 44 205 C44 76 115 -10 222 -10 C298 -10 376 40 417 114 L417 114 Z " />
<glyph glyph-name="Dcaron" unicode="&#x10e;" horiz-adv-x="757" d="M549 961 L405 762 L261 961 L258 959 L398 746 C401 738 408 738 411 746 L551 959 L549 961 L549 961 Z M239 1 C164 1 156 19 156 46 L156 669 L280 669 C541 669 675 535 675 335 C675 115 501 1 239 1 L239 1 Z M78 665 C112 665 133 650 133 615 L133 55 C133 20 112 5 78 5 L78 0 L240 0 C517 0 701 114 701 335 C701 536 559 670 283 670 L78 670 L78 665 L78 665 Z " />
<glyph glyph-name="dcaron" unicode="&#x10f;" horiz-adv-x="564" d="M580 679 C575 679 566 618 560 574 L544 463 L548 462 L570 571 C581 625 589 667 589 676 C589 678 585 679 580 679 L580 679 Z M440 657 L440 651 C462 651 475 636 475 605 L475 325 C453 383 391 430 321 430 C139 430 45 344 45 215 C45 83 144 -5 292 -5 C366 -5 438 28 474 78 L474 -1 L484 -1 C503 4 529 11 549 16 L549 21 L540 19 C512 12 494 27 494 57 L494 669 L484 669 C470 665 453 660 439 656 L440 657 L440 657 Z M474 314 L474 79 C441 33 372 3 300 3 C159 3 65 90 65 220 C65 342 153 424 323 424 C394 424 457 374 475 315 L474 314 L474 314 Z " />
<glyph glyph-name="Emacron" unicode="&#x112;" horiz-adv-x="560" d="M148 827 L464 827 L464 840 L148 840 L148 827 L148 827 Z M418 239 L418 450 L407 450 L402 425 C393 377 356 345 308 345 L157 345 L157 669 L368 669 C416 669 457 637 472 589 L480 564 L491 564 C487 596 482 638 478 670 L59 670 L59 665 L71 665 C109 665 134 637 134 595 L134 75 C134 33 109 5 71 5 L59 5 L59 0 L503 0 C508 29 515 67 520 96 L509 96 L503 81 C485 33 431 1 368 1 L203 1 C162 1 157 19 157 46 L157 344 L308 344 C356 344 393 312 402 264 L407 239 L418 239 L418 239 Z " />
<glyph glyph-name="emacron" unicode="&#x113;" horiz-adv-x="537" d="M141 577 L457 577 L457 590 L141 590 L141 577 L141 577 Z M299 429 C383 429 452 389 485 286 L507 286 C473 390 396 430 299 430 C147 430 45 366 45 200 C45 74 137 -10 276 -10 C369 -10 455 40 492 115 C455 42 370 -6 277 -6 C150 -6 65 80 65 208 C65 362 155 429 298 429 L299 429 L299 429 Z M491 115 C492 117 493 119 494 121 C493 119 492 117 491 115 L491 115 Z " />
<glyph glyph-name="Ebreve" unicode="&#x114;" horiz-adv-x="560" d="M184 915 C185 860 234 824 306 824 C378 824 427 860 428 914 L424 915 C423 869 376 839 306 839 C236 839 189 869 188 915 L184 915 L184 915 Z M418 239 L418 450 L407 450 L402 425 C393 377 356 345 308 345 L157 345 L157 669 L368 669 C416 669 457 637 472 589 L480 564 L491 564 C487 596 482 638 478 670 L59 670 L59 665 L71 665 C109 665 134 637 134 595 L134 75 C134 33 109 5 71 5 L59 5 L59 0 L503 0 C508 29 515 67 520 96 L509 96 L503 81 C485 33 431 1 368 1 L203 1 C162 1 157 19 157 46 L157 344 L308 344 C356 344 393 312 402 264 L407 239 L418 239 L418 239 Z " />
<glyph glyph-name="ebreve" unicode="&#x115;" horiz-adv-x="537" d="M177 665 C178 610 227 574 299 574 C371 574 420 610 421 664 L417 665 C416 619 369 589 299 589 C229 589 182 619 181 665 L177 665 L177 665 Z M299 429 C383 429 452 389 485 286 L507 286 C473 390 396 430 299 430 C147 430 45 366 45 200 C45 74 137 -10 276 -10 C369 -10 455 40 492 115 C455 42 370 -6 277 -6 C150 -6 65 80 65 208 C65 362 155 429 298 429 L299 429 L299 429 Z M491 115 C492 117 493 119 494 121 C493 119 492 117 491 115 L491 115 Z " />
<glyph glyph-name="Edot" unicode="&#x116;" horiz-adv-x="560" d="M326 805 C326 831 286 831 286 805 C286 779 326 779 326 805 L326 805 Z M418 239 L418 450 L407 450 L402 425 C393 377 356 345 308 345 L157 345 L157 669 L368 669 C416 669 457 637 472 589 L480 564 L491 564 C487 596 482 638 478 670 L59 670 L59 665 L71 665 C109 665 134 637 134 595 L134 75 C134 33 109 5 71 5 L59 5 L59 0 L503 0 C508 29 515 67 520 96 L509 96 L503 81 C485 33 431 1 368 1 L203 1 C162 1 157 19 157 46 L157 344 L308 344 C356 344 393 312 402 264 L407 239 L418 239 L418 239 Z " />
<glyph glyph-name="edot" unicode="&#x117;" horiz-adv-x="537" d="M319 555 C319 581 279 581 279 555 C279 529 319 529 319 555 L319 555 Z M299 429 C383 429 452 389 485 286 L507 286 C473 390 396 430 299 430 C147 430 45 366 45 200 C45 74 137 -10 276 -10 C369 -10 455 40 492 115 C455 42 370 -6 277 -6 C150 -6 65 80 65 208 C65 362 155 429 298 429 L299 429 L299 429 Z M491 115 C492 117 493 119 494 121 C493 119 492 117 491 115 L491 115 Z " />
<glyph glyph-name="Ecaron" unicode="&#x11a;" horiz-adv-x="560" d="M450 961 L306 762 L162 961 L159 959 L299 746 C302 738 309 738 312 746 L452 959 L450 961 L450 961 Z M417 239 L417 450 L406 450 L401 425 C392 377 355 345 307 345 L156 345 L156 669 L367 669 C415 669 456 637 471 589 L479 564 L490 564 C486 596 481 638 477 670 L58 670 L58 665 L70 665 C108 665 133 637 133 595 L133 75 C133 33 108 5 70 5 L58 5 L58 0 L502 0 C507 29 514 67 519 96 L508 96 L502 81 C484 33 430 1 367 1 L202 1 C161 1 156 19 156 46 L156 344 L307 344 C355 344 392 312 401 264 L406 239 L417 239 L417 239 Z " />
<glyph glyph-name="ecaron" unicode="&#x11b;" horiz-adv-x="537" d="M443 711 L299 512 L155 711 L152 709 L292 496 C295 488 302 488 305 496 L445 709 L443 711 L443 711 Z M298 429 C382 429 451 389 484 286 L506 286 C472 390 395 430 298 430 C146 430 44 366 44 200 C44 74 136 -10 275 -10 C368 -10 454 40 491 115 C454 42 369 -6 276 -6 C149 -6 64 80 64 208 C64 362 154 429 297 429 L298 429 L298 429 Z M490 115 C491 117 492 119 493 121 C492 119 491 117 490 115 L490 115 Z " />
<glyph glyph-name="Gcircumflex" unicode="&#x11c;" horiz-adv-x="733" d="M373 944 C370 952 363 952 360 944 L220 731 L223 729 L367 928 L511 729 L514 731 L373 944 L373 944 Z M600 50 L600 25 C573 17 544 10 512 5 C544 11 600 24 600 50 L600 50 Z M361 -5 C203 -5 97 131 97 335 C97 541 205 679 367 679 C429 679 476 670 514 654 L514 654 C562 634 604 584 620 529 C622 522 625 513 627 506 L642 506 L642 647 L634 647 C633 642 633 635 632 630 C629 606 608 605 578 624 C530 659 468 680 367 680 C190 680 72 542 72 335 C72 128 186 -10 357 -10 C459 -10 541 4 613 28 L624 30 L624 31 C645 38 665 46 684 55 C665 47 645 39 624 32 L624 199 C624 250 646 284 679 284 L689 284 L689 290 L536 290 L536 284 L546 284 C579 284 601 250 601 199 L601 25 C540 15 427 -5 362 -5 L361 -5 L361 -5 Z M684 55 C690 58 696 61 702 64 C696 61 690 58 684 55 L684 55 Z " />
<glyph glyph-name="Gbreve" unicode="&#x11e;" horiz-adv-x="733" d="M244 915 C245 860 294 824 366 824 C438 824 487 860 488 914 L484 915 C483 869 436 839 366 839 C296 839 249 869 248 915 L244 915 L244 915 Z M599 50 L599 25 C572 17 543 10 511 5 C543 11 599 24 599 50 L599 50 Z M360 -5 C202 -5 96 131 96 335 C96 541 204 679 366 679 C428 679 475 670 513 654 L513 654 C561 634 603 584 619 529 C621 522 624 513 626 506 L641 506 L641 647 L633 647 C632 642 632 635 631 630 C628 606 607 605 577 624 C529 659 467 680 366 680 C189 680 71 542 71 335 C71 128 185 -10 356 -10 C458 -10 540 4 612 28 L623 30 L623 31 C644 38 664 46 683 55 C664 47 644 39 623 32 L623 199 C623 250 645 284 678 284 L688 284 L688 290 L535 290 L535 284 L545 284 C578 284 600 250 600 199 L600 25 C539 15 426 -5 361 -5 L360 -5 L360 -5 Z M683 55 C689 58 695 61 701 64 C695 61 689 58 683 55 L683 55 Z " />
<glyph glyph-name="gbreve" unicode="&#x11f;" horiz-adv-x="531" d="M147 665 C148 610 197 574 269 574 C341 574 390 610 391 664 L387 665 C386 619 339 589 269 589 C199 589 152 619 151 665 L147 665 L147 665 Z M535 398 C485 398 449 375 438 339 C416 395 354 430 269 430 C162 430 91 376 91 294 C91 218 153 166 248 159 C137 156 64 131 64 93 C64 57 111 33 183 31 C109 12 60 -37 60 -93 C60 -176 148 -232 279 -232 C410 -232 497 -175 497 -90 C497 -6 444 50 309 50 L194 50 C124 50 77 69 77 97 C77 132 154 156 270 156 C376 156 447 210 447 292 C447 308 444 323 439 337 C450 366 482 384 525 384 C530 384 536 376 541 376 C554 376 549 397 535 397 L535 398 L535 398 Z M184 31 C187 31 190 31 193 31 L307 31 C432 31 481 -19 481 -94 C481 -176 400 -230 279 -230 C157 -230 76 -173 76 -87 C76 -32 119 14 184 31 L184 31 Z M269 158 C174 158 111 212 111 293 C111 374 174 428 269 428 C363 428 426 374 426 293 C426 212 363 158 269 158 L269 158 Z " />
<glyph glyph-name="Gdot" unicode="&#x120;" horiz-adv-x="733" d="M386 805 C386 831 346 831 346 805 C346 779 386 779 386 805 L386 805 Z M599 50 L599 25 C572 17 543 10 511 5 C543 11 599 24 599 50 L599 50 Z M360 -5 C202 -5 96 131 96 335 C96 541 204 679 366 679 C428 679 475 670 513 654 L513 654 C561 634 603 584 619 529 C621 522 624 513 626 506 L641 506 L641 647 L633 647 C632 642 632 635 631 630 C628 606 607 605 577 624 C529 659 467 680 366 680 C189 680 71 542 71 335 C71 128 185 -10 356 -10 C458 -10 540 4 612 28 L623 30 L623 31 C644 38 664 46 683 55 C664 47 644 39 623 32 L623 199 C623 250 645 284 678 284 L688 284 L688 290 L535 290 L535 284 L545 284 C578 284 600 250 600 199 L600 25 C539 15 426 -5 361 -5 L360 -5 L360 -5 Z M683 55 C689 58 695 61 701 64 C695 61 689 58 683 55 L683 55 Z " />
<glyph glyph-name="gdot" unicode="&#x121;" horiz-adv-x="531" d="M289 555 C289 581 249 581 249 555 C249 529 289 529 289 555 L289 555 Z M535 398 C485 398 449 375 438 339 C416 395 354 430 269 430 C162 430 91 376 91 294 C91 218 153 166 248 159 C137 156 64 131 64 93 C64 57 111 33 183 31 C109 12 60 -37 60 -93 C60 -176 148 -232 279 -232 C410 -232 497 -175 497 -90 C497 -6 444 50 309 50 L194 50 C124 50 77 69 77 97 C77 132 154 156 270 156 C376 156 447 210 447 292 C447 308 444 323 439 337 C450 366 482 384 525 384 C530 384 536 376 541 376 C554 376 549 397 535 397 L535 398 L535 398 Z M184 31 C187 31 190 31 193 31 L307 31 C432 31 481 -19 481 -94 C481 -176 400 -230 279 -230 C157 -230 76 -173 76 -87 C76 -32 119 14 184 31 L184 31 Z M269 158 C174 158 111 212 111 293 C111 374 174 428 269 428 C363 428 426 374 426 293 C426 212 363 158 269 158 L269 158 Z " />
<glyph glyph-name="Hcircumflex" unicode="&#x124;" horiz-adv-x="736" d="M403 944 C400 952 393 952 390 944 L250 731 L253 729 L397 928 L541 729 L544 731 L403 944 L403 944 Z M678 5 C644 5 623 20 623 55 L623 615 C623 650 644 665 678 665 L678 670 L544 670 L544 665 C578 665 599 650 599 615 L599 343 L194 343 L194 615 C194 650 215 665 249 665 L249 670 L116 670 L116 665 C150 665 171 650 171 615 L171 55 C171 20 150 5 116 5 L116 0 L249 0 L249 5 C215 5 194 20 194 55 L194 342 L599 342 L599 55 C599 20 578 5 544 5 L544 0 L678 0 L678 5 L678 5 Z " />
<glyph glyph-name="Itilde" unicode="&#x128;" horiz-adv-x="285" d="M8 790 C8 833 29 861 60 861 C119 861 197 796 255 796 C289 796 312 826 312 871 C312 835 291 811 259 811 C201 811 123 876 64 876 C30 876 8 842 8 790 L8 790 Z M226 5 C192 5 171 20 171 55 L171 615 C171 650 192 665 226 665 L226 670 L93 670 L93 665 C127 665 148 650 148 615 L148 55 C148 20 127 5 93 5 L93 0 L226 0 L226 5 L226 5 Z " />
<glyph glyph-name="itilde" unicode="&#x129;" horiz-adv-x="210" d="M-31 539 C-31 582 -10 610 21 610 C80 610 158 545 216 545 C250 545 273 575 273 620 C273 584 252 560 220 560 C162 560 84 625 25 625 C-9 625 -31 591 -31 539 L-31 539 Z M76 402 L96 407 C105 409 111 405 111 396 L111 20 C111 11 105 5 96 5 L76 5 L76 0 L166 0 L166 5 L146 5 C137 5 131 11 131 20 L131 420 L121 420 C108 416 90 411 76 407 L76 402 L76 402 Z " />
<glyph glyph-name="Imacron" unicode="&#x12a;" horiz-adv-x="285" d="M2 827 L318 827 L318 840 L2 840 L2 827 L2 827 Z M226 5 C192 5 171 20 171 55 L171 615 C171 650 192 665 226 665 L226 670 L93 670 L93 665 C127 665 148 650 148 615 L148 55 C148 20 127 5 93 5 L93 0 L226 0 L226 5 L226 5 Z " />
<glyph glyph-name="imacron" unicode="&#x12b;" horiz-adv-x="210" d="M-37 576 L279 576 L279 589 L-37 589 L-37 576 L-37 576 Z M76 402 L96 407 C105 409 111 405 111 396 L111 20 C111 11 105 5 96 5 L76 5 L76 0 L166 0 L166 5 L146 5 C137 5 131 11 131 20 L131 420 L121 420 C108 416 90 411 76 407 L76 402 L76 402 Z " />
<glyph glyph-name="Ibreve" unicode="&#x12c;" horiz-adv-x="285" d="M38 915 C39 860 88 824 160 824 C232 824 281 860 282 914 L278 915 C277 869 230 839 160 839 C90 839 43 869 42 915 L38 915 L38 915 Z M226 5 C192 5 171 20 171 55 L171 615 C171 650 192 665 226 665 L226 670 L93 670 L93 665 C127 665 148 650 148 615 L148 55 C148 20 127 5 93 5 L93 0 L226 0 L226 5 L226 5 Z " />
<glyph glyph-name="ibreve" unicode="&#x12d;" horiz-adv-x="210" d="M-1 664 C0 609 49 573 121 573 C193 573 242 609 243 663 L239 664 C238 618 191 588 121 588 C51 588 4 618 3 664 L-1 664 L-1 664 Z M76 402 L96 407 C105 409 111 405 111 396 L111 20 C111 11 105 5 96 5 L76 5 L76 0 L166 0 L166 5 L146 5 C137 5 131 11 131 20 L131 420 L121 420 C108 416 90 411 76 407 L76 402 L76 402 Z " />
<glyph glyph-name="Idot" unicode="&#x130;" horiz-adv-x="285" d="M180 805 C180 831 140 831 140 805 C140 779 180 779 180 805 L180 805 Z M226 5 C192 5 171 20 171 55 L171 615 C171 650 192 665 226 665 L226 670 L93 670 L93 665 C127 665 148 650 148 615 L148 55 C148 20 127 5 93 5 L93 0 L226 0 L226 5 L226 5 Z " />
<glyph glyph-name="dotlessi" unicode="&#x131;" horiz-adv-x="210" d="M76 402 L96 407 C105 409 111 405 111 396 L111 20 C111 11 105 5 96 5 L76 5 L76 0 L166 0 L166 5 L146 5 C137 5 131 11 131 20 L131 420 L121 420 C108 416 90 411 76 407 L76 402 L76 402 Z " />
<glyph glyph-name="Jcircumflex" unicode="&#x134;" horiz-adv-x="285" d="M167 944 C164 952 157 952 154 944 L14 731 L17 729 L161 928 L305 729 L308 731 L167 944 L167 944 Z M227 670 L94 670 L94 665 C128 665 149 650 149 615 L149 0 C149 -184 75 -219 22 -219 C10 -219 16 -200 4 -200 C-2 -200 -6 -204 -6 -211 C-6 -216 5 -220 22 -220 C85 -220 172 -178 172 44 L172 615 C172 650 193 665 227 665 L227 670 L227 670 Z " />
<glyph glyph-name="Lacute" unicode="&#x139;" horiz-adv-x="564" d="M166 734 L302 860 C347 903 377 931 377 932 C377 937 372 942 367 942 C367 942 337 913 293 869 L163 737 L166 734 L166 734 Z M226 670 L93 670 L93 665 C127 665 148 650 148 615 L148 55 C148 20 127 5 93 5 L93 0 L520 0 L520 2 C525 31 532 70 537 99 L526 99 L520 84 C502 36 448 4 385 4 L217 4 C176 4 171 21 171 46 L171 615 C171 650 192 665 226 665 L226 670 L226 670 Z " />
<glyph glyph-name="Lcaron" unicode="&#x13d;" horiz-adv-x="564" d="M326 729 C321 729 312 668 306 624 L290 513 L293 512 L316 621 C327 672 335 714 335 726 C335 728 331 729 326 729 L326 729 Z M226 670 L93 670 L93 665 C127 665 148 650 148 615 L148 55 C148 20 127 5 93 5 L93 0 L520 0 L520 2 C525 31 532 70 537 99 L526 99 L520 84 C502 36 448 4 385 4 L217 4 C176 4 171 21 171 46 L171 615 C171 650 192 665 226 665 L226 670 L226 670 Z " />
<glyph glyph-name="lcaron" unicode="&#x13e;" horiz-adv-x="154" d="M175 679 C170 679 161 618 155 574 L139 463 L143 462 L165 571 C176 625 184 667 184 676 C184 678 180 679 175 679 L175 679 Z M35 651 C57 651 70 636 70 605 L70 20 C70 11 64 5 55 5 L35 5 L35 0 L125 0 L125 5 L105 5 C96 5 90 11 90 20 L90 670 L80 670 C67 666 49 661 35 657 L35 651 L35 651 Z " />
<glyph glyph-name="Nacute" unicode="&#x143;" horiz-adv-x="703" d="M257 734 L393 860 C438 903 468 931 468 932 C468 937 463 942 458 942 C458 942 428 913 384 869 L254 737 L257 734 L257 734 Z M44 665 C71 665 91 658 113 639 L113 55 C113 20 92 5 58 5 L58 0 L175 0 L175 5 C141 5 120 20 120 55 L120 55 L119 633 C125 627 130 621 135 614 L135 614 L562 27 L583 -1 L587 -1 L589 614 L589 614 C589 649 610 664 644 664 L644 669 L527 669 L527 664 C561 664 582 649 582 614 L583 34 L579 40 L125 669 L44 669 L44 665 L44 665 Z " />
<glyph glyph-name="Ncaron" unicode="&#x147;" horiz-adv-x="703" d="M495 961 L351 762 L207 961 L204 959 L344 746 C347 738 354 738 357 746 L497 959 L495 961 L495 961 Z M43 665 C70 665 90 658 112 639 L112 55 C112 20 91 5 57 5 L57 0 L174 0 L174 5 C140 5 119 20 119 55 L119 55 L118 633 C124 627 129 621 134 614 L134 614 L561 27 L582 -1 L586 -1 L588 614 L588 614 C588 649 609 664 643 664 L643 669 L526 669 L526 664 C560 664 581 649 581 614 L582 34 L578 40 L124 669 L43 669 L43 665 L43 665 Z " />
<glyph glyph-name="ncaron" unicode="&#x148;" horiz-adv-x="455" d="M374 711 L231 513 L87 711 L84 709 L223 496 C226 488 235 487 238 496 L377 709 L374 711 L374 711 Z M35 401 C57 401 70 386 70 355 L70 20 C70 11 64 5 55 5 L35 5 L35 0 L125 0 L125 5 L105 5 C96 5 90 11 90 20 L90 284 C144 366 208 421 250 421 C330 421 371 351 371 247 L371 20 C371 11 365 5 356 5 L336 5 L336 0 L426 0 L426 5 L406 5 C397 5 391 11 391 20 L391 247 C391 357 345 430 256 430 C213 430 146 373 90 287 L90 420 L80 420 C67 416 49 411 35 407 L35 401 L35 401 Z " />
<glyph glyph-name="Omacron" unicode="&#x14c;" horiz-adv-x="781" d="M236 827 L552 827 L552 840 L236 840 L236 827 L236 827 Z M96 335 C96 541 215 679 393 679 C578 679 701 541 701 335 C701 129 574 -9 384 -9 C211 -9 96 129 96 335 L96 335 Z M71 335 C71 128 196 -10 384 -10 C589 -10 726 128 726 335 C726 542 593 680 394 680 C200 680 71 542 71 335 L71 335 Z " />
<glyph glyph-name="omacron" unicode="&#x14d;" horiz-adv-x="607" d="M146 577 L462 577 L462 590 L146 590 L146 577 L146 577 Z M67 210 C67 341 162 429 304 429 C446 429 540 341 540 210 C540 79 446 -9 304 -9 C162 -9 67 79 67 210 L67 210 Z M45 210 C45 78 149 -10 304 -10 C459 -10 562 78 562 210 C562 342 459 430 304 430 C149 430 45 342 45 210 L45 210 Z " />
<glyph glyph-name="Obreve" unicode="&#x14e;" horiz-adv-x="781" d="M272 915 C273 860 322 824 394 824 C466 824 515 860 516 914 L512 915 C511 869 464 839 394 839 C324 839 277 869 276 915 L272 915 L272 915 Z M96 335 C96 541 215 679 393 679 C578 679 701 541 701 335 C701 129 574 -9 384 -9 C211 -9 96 129 96 335 L96 335 Z M71 335 C71 128 196 -10 384 -10 C589 -10 726 128 726 335 C726 542 593 680 394 680 C200 680 71 542 71 335 L71 335 Z " />
<glyph glyph-name="obreve" unicode="&#x14f;" horiz-adv-x="607" d="M182 665 C183 610 232 574 304 574 C376 574 425 610 426 664 L422 665 C421 619 374 589 304 589 C234 589 187 619 186 665 L182 665 L182 665 Z M67 210 C67 341 162 429 304 429 C446 429 540 341 540 210 C540 79 446 -9 304 -9 C162 -9 67 79 67 210 L67 210 Z M45 210 C45 78 149 -10 304 -10 C459 -10 562 78 562 210 C562 342 459 430 304 430 C149 430 45 342 45 210 L45 210 Z " />
<glyph glyph-name="Racute" unicode="&#x154;" horiz-adv-x="605" d="M317 734 L454 860 C500 903 530 932 530 932 C530 937 525 942 520 942 C519 942 489 913 445 869 L315 737 L317 734 L317 734 Z M79 665 C113 665 134 650 134 615 L134 55 C134 20 113 5 79 5 L79 0 L212 0 L212 5 C178 5 157 20 157 55 L157 334 L335 334 C342 314 390 207 458 58 C483 2 489 0 595 0 L595 1 C514 1 510 3 485 58 C419 205 371 309 359 335 C453 341 515 388 515 483 C515 595 443 669 336 669 L79 669 L79 665 L79 665 Z M336 338 L157 338 L157 664 L329 664 C425 664 489 594 489 488 C489 385 428 338 336 338 L336 338 Z " />
<glyph glyph-name="Rcaron" unicode="&#x158;" horiz-adv-x="605" d="M455 961 L312 763 L168 961 L165 959 L304 746 C307 738 316 737 319 746 L458 959 L455 961 L455 961 Z M79 665 C113 665 134 650 134 615 L134 55 C134 20 113 5 79 5 L79 0 L212 0 L212 5 C178 5 157 20 157 55 L157 334 L335 334 C342 314 390 207 458 58 C483 2 489 0 595 0 L595 1 C514 1 510 3 485 58 C419 205 371 309 359 335 C453 341 515 388 515 483 C515 595 443 669 336 669 L79 669 L79 665 L79 665 Z M336 338 L157 338 L157 664 L329 664 C425 664 489 594 489 488 C489 385 428 338 336 338 L336 338 Z " />
<glyph glyph-name="rcaron" unicode="&#x159;" horiz-adv-x="297" d="M321 711 L177 512 L33 711 L30 709 L170 496 C173 488 180 488 183 496 L323 709 L321 711 L321 711 Z M35 401 C57 401 70 386 70 355 L70 20 C70 11 64 5 55 5 L35 5 L35 0 L125 0 L125 5 L105 5 C96 5 90 11 90 20 L90 309 C116 376 173 421 234 421 C251 421 262 407 262 386 C262 370 286 370 286 386 C286 412 269 430 243 430 C179 430 118 382 90 310 L90 420 L80 420 C67 416 49 411 35 407 L35 401 L35 401 Z " />
<glyph glyph-name="Sacute" unicode="&#x15a;" horiz-adv-x="552" d="M285 734 L422 860 C468 903 498 932 498 932 C498 937 493 942 488 942 C487 942 457 913 413 869 L283 737 L285 734 L285 734 Z M59 135 L59 135 L59 135 L59 135 Z M55 186 L55 16 L63 16 C64 23 64 31 65 38 C68 67 90 73 121 52 C138 39 157 27 178 18 C179 17 187 13 187 14 C226 -2 270 -11 316 -11 C434 -11 512 54 512 151 C512 215 448 288 323 346 C175 415 98 484 98 534 C98 620 156 678 243 678 C252 678 327 671 326 667 C381 652 429 602 445 542 C447 535 450 525 452 518 L467 518 L467 653 L459 653 C458 649 458 643 457 639 C454 622 438 619 414 632 C390 649 358 663 326 672 L326 670 C300 676 272 679 243 679 C145 679 79 617 79 525 C79 468 157 393 309 322 C430 265 493 199 493 144 C493 52 422 -10 316 -10 C266 -10 218 1 177 21 C131 47 91 100 76 158 C74 166 71 176 69 184 L55 186 L55 186 Z " />
<glyph glyph-name="Scircumflex" unicode="&#x15c;" horiz-adv-x="552" d="M287 944 C284 953 275 952 272 944 L133 731 L136 729 L280 927 L423 729 L426 731 L287 944 L287 944 Z M59 135 L59 135 L59 135 L59 135 Z M55 186 L55 16 L63 16 C64 23 64 31 65 38 C68 67 90 73 121 52 C138 39 157 27 178 18 C179 17 187 13 187 14 C226 -2 270 -11 316 -11 C434 -11 512 54 512 151 C512 215 448 288 323 346 C175 415 98 484 98 534 C98 620 156 678 243 678 C252 678 327 671 326 667 C381 652 429 602 445 542 C447 535 450 525 452 518 L467 518 L467 653 L459 653 C458 649 458 643 457 639 C454 622 438 619 414 632 C390 649 358 663 326 672 L326 670 C300 676 272 679 243 679 C145 679 79 617 79 525 C79 468 157 393 309 322 C430 265 493 199 493 144 C493 52 422 -10 316 -10 C266 -10 218 1 177 21 C131 47 91 100 76 158 C74 166 71 176 69 184 L55 186 L55 186 Z " />
<glyph glyph-name="Scaron" unicode="&#x160;" horiz-adv-x="552" d="M423 961 L280 763 L136 961 L133 959 L272 746 C275 738 284 737 287 746 L426 959 L423 961 L423 961 Z M59 135 L59 135 L59 135 L59 135 Z M55 186 L55 16 L63 16 C64 23 64 31 65 38 C68 67 90 73 121 52 C138 39 157 27 178 18 C179 17 187 13 187 14 C226 -2 270 -11 316 -11 C434 -11 512 54 512 151 C512 215 448 288 323 346 C175 415 98 484 98 534 C98 620 156 678 243 678 C252 678 327 671 326 667 C381 652 429 602 445 542 C447 535 450 525 452 518 L467 518 L467 653 L459 653 C458 649 458 643 457 639 C454 622 438 619 414 632 C390 649 358 663 326 672 L326 670 C300 676 272 679 243 679 C145 679 79 617 79 525 C79 468 157 393 309 322 C430 265 493 199 493 144 C493 52 422 -10 316 -10 C266 -10 218 1 177 21 C131 47 91 100 76 158 C74 166 71 176 69 184 L55 186 L55 186 Z " />
<glyph glyph-name="scaron" unicode="&#x161;" horiz-adv-x="427" d="M383 711 L239 512 L95 711 L92 709 L232 496 C235 488 242 488 245 496 L385 709 L383 711 L383 711 Z M59 126 L59 15 L65 15 C65 19 67 23 67 27 C69 52 155 -2 156 2 C181 -6 208 -10 237 -10 C320 -10 375 32 375 94 C375 139 329 186 241 218 C133 257 78 303 78 341 C78 394 120 429 184 429 C212 429 238 425 261 417 C303 400 333 365 337 325 C337 321 339 315 339 311 L345 311 L345 410 L339 410 C339 407 338 404 338 401 C336 388 257 422 241 426 L240 425 C222 429 203 431 183 431 C111 431 63 393 63 335 C63 293 120 244 232 203 C315 173 358 130 358 90 C358 31 309 -8 236 -8 C207 -8 180 -3 156 6 L156 6 C107 24 70 66 65 112 C64 116 65 123 64 127 L59 126 L59 126 Z " />
<glyph glyph-name="Tcaron" unicode="&#x164;" horiz-adv-x="786" d="M536 961 L392 762 L248 961 L245 959 L385 746 C388 738 395 738 398 746 L538 959 L536 961 L536 961 Z M715 685 C700 674 656 670 604 670 L180 670 C128 670 85 674 70 685 L61 685 C59 680 56 673 54 667 L55 667 L55 665 C43 636 28 597 16 569 L27 569 L36 584 C66 632 119 664 170 664 L381 664 L381 55 C381 20 360 5 326 5 L326 0 L460 0 L460 5 C426 5 405 20 405 55 L405 664 L615 664 C667 664 720 632 749 584 L758 569 L769 569 C757 597 742 635 730 664 L731 664 L731 667 L732 667 C731 669 726 682 725 685 L715 685 L715 685 Z " />
<glyph glyph-name="tcaron" unicode="&#x165;" horiz-adv-x="313" d="M277 420 L116 420 L116 521 L115 521 L31 420 L31 410 L96 410 L96 86 C96 17 138 -10 200 -10 C235 -10 276 9 303 37 L302 39 C279 15 240 -1 206 -1 C152 -1 116 22 116 82 L116 409 L277 409 L277 420 L277 420 Z M358 679 C353 679 344 618 338 574 L322 463 L326 462 L348 571 C359 625 367 667 367 676 C367 678 363 679 358 679 L358 679 Z " />
<glyph glyph-name="Utilde" unicode="&#x168;" horiz-adv-x="597" d="M154 790 C154 833 175 861 206 861 C265 861 343 796 401 796 C435 796 458 826 458 871 C458 835 437 811 405 811 C347 811 269 876 210 876 C176 876 154 842 154 790 L154 790 Z M568 22 L559 20 C531 13 513 28 513 58 L513 670 L435 670 L435 665 C469 665 490 650 490 615 L490 162 C446 68 342 5 229 5 C165 5 122 90 122 218 L122 670 L44 670 L44 665 C78 665 99 650 99 615 L99 218 C99 81 147 -10 219 -10 C337 -10 445 54 490 151 L490 0 L502 0 L513 3 C531 8 552 13 568 17 L568 22 L568 22 Z " />
<glyph glyph-name="utilde" unicode="&#x169;" horiz-adv-x="451" d="M77 540 C77 583 98 611 129 611 C188 611 266 546 324 546 C358 546 381 576 381 621 C381 585 360 561 328 561 C270 561 192 626 133 626 C99 626 77 592 77 540 L77 540 Z M437 20 C411 12 392 22 392 58 L392 420 L337 420 L337 415 L357 415 C366 415 372 409 372 400 L372 113 C349 47 284 4 203 4 C133 4 86 65 86 157 L86 420 L31 420 L31 415 L51 415 C60 415 66 409 66 400 L66 157 C66 57 117 -10 194 -10 C279 -10 347 38 371 112 L371 0 L381 0 C397 4 419 10 436 15 L437 20 L437 20 Z " />
<glyph glyph-name="Umacron" unicode="&#x16a;" horiz-adv-x="597" d="M148 827 L464 827 L464 840 L148 840 L148 827 L148 827 Z M568 22 L559 20 C531 13 513 28 513 58 L513 670 L435 670 L435 665 C469 665 490 650 490 615 L490 162 C446 68 342 5 229 5 C165 5 122 90 122 218 L122 670 L44 670 L44 665 C78 665 99 650 99 615 L99 218 C99 81 147 -10 219 -10 C337 -10 445 54 490 151 L490 0 L502 0 L513 3 C531 8 552 13 568 17 L568 22 L568 22 Z " />
<glyph glyph-name="umacron" unicode="&#x16b;" horiz-adv-x="451" d="M71 577 L387 577 L387 590 L71 590 L71 577 L71 577 Z M437 20 C411 12 392 22 392 58 L392 420 L337 420 L337 415 L357 415 C366 415 372 409 372 400 L372 113 C349 47 284 4 203 4 C133 4 86 65 86 157 L86 420 L31 420 L31 415 L51 415 C60 415 66 409 66 400 L66 157 C66 57 117 -10 194 -10 C279 -10 347 38 371 112 L371 0 L381 0 C397 4 419 10 436 15 L437 20 L437 20 Z " />
<glyph glyph-name="Ubreve" unicode="&#x16c;" horiz-adv-x="597" d="M184 915 C185 860 234 824 306 824 C378 824 427 860 428 914 L424 915 C423 869 376 839 306 839 C236 839 189 869 188 915 L184 915 L184 915 Z M568 22 L559 20 C531 13 513 28 513 58 L513 670 L435 670 L435 665 C469 665 490 650 490 615 L490 162 C446 68 342 5 229 5 C165 5 122 90 122 218 L122 670 L44 670 L44 665 C78 665 99 650 99 615 L99 218 C99 81 147 -10 219 -10 C337 -10 445 54 490 151 L490 0 L502 0 L513 3 C531 8 552 13 568 17 L568 22 L568 22 Z " />
<glyph glyph-name="ubreve" unicode="&#x16d;" horiz-adv-x="451" d="M107 665 C108 610 157 574 229 574 C301 574 350 610 351 664 L347 665 C346 619 299 589 229 589 C159 589 112 619 111 665 L107 665 L107 665 Z M437 20 C411 12 392 22 392 58 L392 420 L337 420 L337 415 L357 415 C366 415 372 409 372 400 L372 113 C349 47 284 4 203 4 C133 4 86 65 86 157 L86 420 L31 420 L31 415 L51 415 C60 415 66 409 66 400 L66 157 C66 57 117 -10 194 -10 C279 -10 347 38 371 112 L371 0 L381 0 C397 4 419 10 436 15 L437 20 L437 20 Z " />
<glyph glyph-name="Uring" unicode="&#x16e;" horiz-adv-x="597" d="M217 825 C217 879 253 915 306 915 C359 915 395 879 395 825 C395 776 354 735 306 735 C258 735 217 776 217 825 L217 825 Z M211 825 C211 774 255 730 306 730 C357 730 401 774 401 825 C401 882 363 920 306 920 C249 920 211 882 211 825 L211 825 Z M568 22 L559 20 C531 13 513 28 513 58 L513 670 L435 670 L435 665 C469 665 490 650 490 615 L490 162 C446 68 342 5 229 5 C165 5 122 90 122 218 L122 670 L44 670 L44 665 C78 665 99 650 99 615 L99 218 C99 81 147 -10 219 -10 C337 -10 445 54 490 151 L490 0 L502 0 L513 3 C531 8 552 13 568 17 L568 22 L568 22 Z " />
<glyph glyph-name="uring" unicode="&#x16f;" horiz-adv-x="451" d="M140 575 C140 629 176 665 229 665 C282 665 318 629 318 575 C318 526 277 485 229 485 C181 485 140 526 140 575 L140 575 Z M134 575 C134 524 178 480 229 480 C280 480 324 524 324 575 C324 632 286 670 229 670 C172 670 134 632 134 575 L134 575 Z M437 20 C411 12 392 22 392 58 L392 420 L337 420 L337 415 L357 415 C366 415 372 409 372 400 L372 113 C349 47 284 4 203 4 C133 4 86 65 86 157 L86 420 L31 420 L31 415 L51 415 C60 415 66 409 66 400 L66 157 C66 57 117 -10 194 -10 C279 -10 347 38 371 112 L371 0 L381 0 C397 4 419 10 436 15 L437 20 L437 20 Z " />
<glyph glyph-name="Wcircumflex" unicode="&#x174;" horiz-adv-x="984" d="M590 670 L416 670 L416 664 C447 664 469 643 486 597 L531 446 L302 28 C241 213 178 399 118 584 C102 632 118 664 157 664 L169 664 L169 670 L20 670 L20 664 C49 664 69 643 86 599 C151 396 217 194 281 -9 L287 -9 L533 439 C577 290 621 140 667 -8 L673 -8 L675 -1 C743 195 811 391 880 586 C897 634 930 666 963 666 L972 666 L972 672 L786 672 L786 666 L819 666 C867 666 888 634 871 586 L871 586 L681 35 C626 219 570 403 515 587 C501 635 523 667 571 667 L589 667 L590 670 L590 670 Z M493 947 C490 956 481 955 478 947 L339 734 L342 732 L486 930 L629 732 L632 734 L493 947 L493 947 Z " />
<glyph glyph-name="Ycircumflex" unicode="&#x176;" horiz-adv-x="611" d="M160 670 L22 670 L22 665 C47 665 70 649 93 616 L298 300 L298 75 C298 33 273 5 235 5 L223 5 L223 0 L396 0 L396 5 L384 5 C346 5 321 33 321 75 L321 303 L518 615 C542 649 574 665 613 665 L613 670 L455 670 L455 665 L492 665 C525 665 533 643 512 610 L512 610 L320 305 C255 407 188 509 123 610 C102 643 109 665 142 665 L159 665 L160 670 L160 670 Z M316 944 C313 953 304 952 301 944 L162 731 L165 729 L309 927 L452 729 L455 731 L316 944 L316 944 Z " />
<glyph glyph-name="Ydieresis" unicode="&#x178;" horiz-adv-x="611" d="M393 805 C393 831 353 831 353 805 C353 779 393 779 393 805 L393 805 Z M266 805 C266 831 226 831 226 805 C226 779 266 779 266 805 L266 805 Z M160 670 L22 670 L22 665 C47 665 70 649 93 616 L298 300 L298 75 C298 33 273 5 235 5 L223 5 L223 0 L396 0 L396 5 L384 5 C346 5 321 33 321 75 L321 303 L518 615 C542 649 574 665 613 665 L613 670 L455 670 L455 665 L492 665 C525 665 533 643 512 610 L512 610 L320 305 C255 407 188 509 123 610 C102 643 109 665 142 665 L159 665 L160 670 L160 670 Z " />
<glyph glyph-name="Zacute" unicode="&#x179;" horiz-adv-x="648" d="M353 734 L490 860 C536 903 566 932 566 932 C566 937 561 942 556 942 C555 942 525 913 481 869 L351 737 L353 734 L353 734 Z M72 568 L76 583 C90 631 143 662 205 663 L596 664 L26 4 L26 -1 L618 -1 L619 2 L620 2 C620 2 629 42 643 101 L632 101 L626 86 C606 38 550 6 486 6 L486 6 L54 5 L622 665 L622 670 L71 670 L71 667 C70 667 68 628 63 568 L72 568 L72 568 Z " />
<glyph glyph-name="Zdot" unicode="&#x17b;" horiz-adv-x="648" d="M368 805 C368 831 328 831 328 805 C328 779 368 779 368 805 L368 805 Z M72 568 L76 583 C90 631 143 662 205 663 L596 664 L26 4 L26 -1 L618 -1 L619 2 L620 2 C620 2 629 42 643 101 L632 101 L626 86 C606 38 550 6 486 6 L486 6 L54 5 L622 665 L622 670 L71 670 L71 667 C70 667 68 628 63 568 L72 568 L72 568 Z " />
<glyph glyph-name="zdot" unicode="&#x17c;" horiz-adv-x="486" d="M275 555 C275 581 235 581 235 555 C235 529 275 529 275 555 L275 555 Z M62 422 C62 420 61 418 60 416 C59 416 52 387 40 344 L53 344 L60 355 C78 387 119 409 165 412 L421 413 L40 3 L40 -2 L441 -2 L441 5 L441 5 C442 14 445 39 449 73 L436 73 L431 62 C418 30 381 8 336 5 L67 4 L447 414 L447 419 L105 419 C87 419 74 419 73 420 L73 421 L62 422 L62 422 Z " />
<glyph glyph-name="Zcaron" unicode="&#x17d;" horiz-adv-x="648" d="M491 961 L348 763 L204 961 L201 959 L340 746 C343 738 352 737 355 746 L494 959 L491 961 L491 961 Z M72 568 L76 583 C90 631 143 662 205 663 L596 664 L26 4 L26 -1 L618 -1 L619 2 L620 2 C620 2 629 42 643 101 L632 101 L626 86 C606 38 550 6 486 6 L486 6 L54 5 L622 665 L622 670 L71 670 L71 667 C70 667 68 628 63 568 L72 568 L72 568 Z " />
<glyph glyph-name="zcaron" unicode="&#x17e;" horiz-adv-x="486" d="M398 711 L255 513 L111 711 L108 709 L247 496 C250 488 259 487 262 496 L401 709 L398 711 L398 711 Z M62 422 C62 420 61 418 60 416 C59 416 52 387 40 344 L53 344 L60 355 C78 387 119 409 165 412 L421 413 L40 3 L40 -2 L441 -2 L441 5 L441 5 C442 14 445 39 449 73 L436 73 L431 62 C418 30 381 8 336 5 L67 4 L447 414 L447 419 L105 419 C87 419 74 419 73 420 L73 421 L62 422 L62 422 Z " />
<glyph glyph-name="oogonek" unicode="&#x1eb;" horiz-adv-x="694" d="M929 -54 L928 -54 C899 -78 803 -94 687 -94 C555 -94 409 -60 322 -9 C318 -9 311 -8 308 -8 C178 7 94 108 94 253 C94 406 192 509 341 514 C179 509 71 406 71 253 C71 109 163 9 305 -6 C304 -6 303 -6 302 -6 C405 -66 558 -106 684 -106 C792 -106 889 -84 928 -52 L929 -54 L929 -54 Z M342 -8 L342 -8 L342 -8 L342 -8 Z M342 -8 C523 -8 643 97 643 254 C643 411 527 515 352 515 C512 515 620 411 620 254 C620 97 508 -8 342 -8 L342 -8 Z M340 515 C344 515 348 515 352 515 C348 515 344 515 340 515 L340 515 Z " />
<glyph glyph-name="Adotabove" unicode="&#x226;" horiz-adv-x="640" d="M362 805 C362 831 322 831 322 805 C322 779 362 779 362 805 L362 805 Z M447 0 L639 0 L639 6 L629 6 C599 6 567 39 546 90 C479 290 414 491 345 690 L343 690 C345 676 340 665 330 664 L333 654 L333 654 L131 106 C109 46 58 6 5 6 L-10 6 L-10 0 L198 0 L198 6 L182 6 C131 6 111 44 131 102 L334 653 L517 106 L516 106 C536 46 515 6 463 6 L447 6 L447 0 L447 0 Z " />
<glyph glyph-name="G_sc" unicode="&#x262;" horiz-adv-x="652" d="M429 505 L428 503 C400 509 366 512 324 512 C373 512 411 506 442 496 C486 479 523 437 537 387 C539 380 542 372 544 365 L559 365 L559 506 L551 506 C550 501 550 494 549 489 C546 466 523 462 490 480 L490 480 C473 489 449 498 428 504 L429 505 L429 505 Z M491 15 C490 15 489 15 488 15 C444 7 364 -6 323 -6 C186 -6 94 97 94 252 C94 409 186 513 325 513 C173 513 71 409 71 252 C71 95 171 -10 320 -10 C386 -10 446 0 504 18 C500 17 496 17 491 16 L491 15 L491 15 Z M519 43 L519 24 C510 21 501 18 492 15 C510 23 520 32 520 42 L519 43 L519 43 Z M606 217 L455 217 L455 211 L465 211 C498 211 520 177 520 126 L520 20 C520 20 514 19 504 17 C509 19 514 21 519 23 L519 21 L540 26 L540 30 C566 40 592 51 618 63 C592 51 566 40 539 31 L539 127 C539 178 561 212 594 212 L604 212 L606 217 L606 217 Z " />
<glyph glyph-name="I_sc" unicode="&#x26a;" horiz-adv-x="284" d="M225 5 C191 5 170 20 170 55 L170 448 C170 483 191 498 225 498 L225 503 L94 503 L94 498 C128 498 149 483 149 448 L149 55 C149 20 128 5 94 5 L94 0 L225 0 L225 5 L225 5 Z " />
<glyph glyph-name="N_sc" unicode="&#x274;" horiz-adv-x="622" d="M46 498 C72 498 90 492 113 475 L113 55 C113 20 92 5 58 5 L58 0 L174 0 L174 5 C140 5 119 20 119 55 L119 470 C127 463 134 455 141 447 L141 447 C262 298 384 150 503 -1 L507 -1 L508 447 L508 447 C508 482 529 497 563 497 L563 502 L447 502 L447 497 C481 497 502 482 502 447 L502 447 L503 22 C376 181 251 342 125 502 L47 502 L46 498 L46 498 Z " />
<glyph glyph-name="R_sc" unicode="&#x280;" horiz-adv-x="523" d="M79 498 C113 498 134 483 134 448 L134 55 C134 20 113 5 79 5 L79 0 L210 0 L210 5 C176 5 155 20 155 55 L155 250 L273 250 C281 233 325 153 386 43 C410 1 415 -1 513 -1 L513 0 C438 0 434 2 411 43 C350 151 306 229 294 250 C379 255 434 290 434 362 C434 446 370 502 273 502 L78 502 L79 498 L79 498 Z M273 254 L154 254 L154 498 L267 498 C353 498 410 446 410 367 C410 289 354 254 273 254 L273 254 Z " />
<glyph glyph-name="Y_sc" unicode="&#x28f;" horiz-adv-x="530" d="M158 503 L22 503 L22 498 C49 498 75 479 101 443 L258 224 L258 75 C258 33 233 5 195 5 L183 5 L183 0 L354 0 L354 5 L342 5 C304 5 279 33 279 75 L279 228 L432 447 C458 482 491 498 532 498 L532 503 L374 503 L374 498 L411 498 C443 498 450 476 427 443 L427 443 L278 229 C227 300 175 372 125 443 C101 476 108 498 141 498 L157 498 L158 503 L158 503 Z " />
<glyph glyph-name="B_sc" unicode="&#x299;" horiz-adv-x="479" d="M275 0 C373 0 439 25 439 130 C439 207 383 259 300 259 L281 259 C373 266 433 313 433 381 C433 454 392 503 218 503 C375 503 412 453 412 379 C412 307 349 259 255 259 L155 259 L155 503 L79 503 L79 497 C113 497 134 482 134 447 L134 56 C134 21 113 6 79 6 L79 0 L224 0 L275 0 L275 0 Z M224 0 C183 0 155 20 155 49 L155 258 L298 258 C369 258 416 207 416 130 C416 25 359 0 274 0 L224 0 L224 0 Z " />
<glyph glyph-name="H_sc" unicode="&#x29c;" horiz-adv-x="659" d="M600 5 C566 5 545 20 545 55 L545 448 C545 483 566 498 600 498 L600 503 L469 503 L469 498 C503 498 524 483 524 448 L524 258 L191 258 L191 448 C191 483 212 498 246 498 L246 503 L115 503 L115 498 C149 498 170 483 170 448 L170 55 C170 20 149 5 115 5 L115 0 L246 0 L246 5 C212 5 191 20 191 55 L191 257 L524 257 L524 55 C524 20 503 5 469 5 L469 0 L600 0 L600 5 L600 5 Z " />
<glyph glyph-name="L_sc" unicode="&#x29f;" horiz-adv-x="484" d="M225 503 L94 503 L94 498 C128 498 149 483 149 448 L149 55 C149 20 128 5 94 5 L94 0 L440 0 L440 2 C445 31 452 70 457 99 L446 99 L440 84 C422 36 368 4 305 4 L216 4 C175 4 170 21 170 46 L170 448 C170 483 191 498 225 498 L225 503 L225 503 Z " />
<glyph glyph-name="circumflex" unicode="&#x2c6;" horiz-adv-x="353" d="M184 694 C181 702 174 702 171 694 L31 481 L34 479 L178 678 L322 479 L325 481 L184 694 L184 694 Z " />
<glyph glyph-name="caron" unicode="&#x2c7;" horiz-adv-x="353" d="M321 711 L177 512 L33 711 L30 709 L170 496 C173 488 180 488 183 496 L323 709 L321 711 L321 711 Z " />
<glyph glyph-name="firsttonechinese" unicode="&#x2c9;" horiz-adv-x="353" d="M19 577 L335 577 L335 590 L19 590 L19 577 L19 577 Z " />
<glyph glyph-name="breve" unicode="&#x2d8;" horiz-adv-x="353" d="M55 665 C56 610 105 574 177 574 C249 574 298 610 299 664 L295 665 C294 619 247 589 177 589 C107 589 60 619 59 665 L55 665 L55 665 Z " />
<glyph glyph-name="dotaccent" unicode="&#x2d9;" horiz-adv-x="353" d="M197 555 C197 581 157 581 157 555 C157 529 197 529 197 555 L197 555 Z " />
<glyph glyph-name="ring" unicode="&#x2da;" horiz-adv-x="353" d="M88 575 C88 629 124 665 177 665 C230 665 266 629 266 575 C266 526 225 485 177 485 C129 485 88 526 88 575 L88 575 Z M82 575 C82 524 126 480 177 480 C228 480 272 524 272 575 C272 632 234 670 177 670 C120 670 82 632 82 575 L82 575 Z " />
<glyph glyph-name="A_sc" unicode="&#x1d00;" horiz-adv-x="565" d="M374 0 L563 0 L563 6 L554 6 C522 6 486 44 463 102 C410 242 357 382 304 523 L302 523 C304 510 300 500 292 499 L296 489 C256 393 216 296 175 200 L175 199 C162 168 149 137 136 106 C111 46 59 6 6 6 L-10 6 L-10 0 L198 0 L198 6 L182 6 C130 6 112 45 136 104 L175 198 L404 198 C415 167 427 136 438 105 C460 45 441 5 389 5 L373 5 L374 0 L374 0 Z M175 199 L295 488 L403 199 L175 199 L175 199 Z " />
<glyph glyph-name="C_sc" unicode="&#x1d04;" horiz-adv-x="609" d="M429 505 L428 503 C400 509 366 512 324 512 C373 512 411 506 442 496 C486 479 523 437 537 387 C539 380 542 372 544 365 L559 365 L559 506 L551 506 C550 501 550 494 549 489 C546 466 523 462 490 480 L490 480 C473 489 449 498 428 504 L429 505 L429 505 Z M559 -7 L559 137 L544 137 C542 131 539 123 537 117 C521 67 472 23 416 5 L416 5 C232 -52 93 55 93 252 C93 409 185 513 324 513 C172 513 70 409 70 252 C70 95 168 -10 314 -10 C353 -10 387 -6 417 2 L417 1 C438 7 459 15 478 24 C518 44 546 39 549 11 C550 5 550 -2 551 -8 L559 -7 L559 -7 Z M557 84 L557 84 L557 84 L557 84 Z " />
<glyph glyph-name="D_sc" unicode="&#x1d05;" horiz-adv-x="676" d="M79 498 C113 498 134 483 134 448 L134 55 C134 20 113 5 79 5 L79 0 L214 0 C458 0 621 86 621 252 C621 403 493 503 244 503 L155 503 C155 503 241 503 241 502 C476 502 597 402 597 252 C597 86 443 1 213 1 C161 1 155 19 155 46 L155 503 L79 503 L79 498 L79 498 Z " />
<glyph glyph-name="E_sc" unicode="&#x1d07;" horiz-adv-x="495" d="M353 153 L353 364 L342 364 L337 339 C328 291 291 259 243 259 L155 259 L155 503 L59 503 L59 498 L71 498 C109 498 134 470 134 428 L134 75 C134 33 109 5 71 5 L59 5 L59 0 L438 0 C443 29 450 67 455 96 L444 96 L438 81 C420 33 366 1 303 1 L201 1 C160 1 155 19 155 46 L155 258 L243 258 C291 258 328 226 337 178 L342 153 L353 153 L353 153 Z M426 398 C422 430 417 472 413 503 L303 503 C351 503 392 471 407 423 L415 398 L426 398 L426 398 Z " />
<glyph glyph-name="J_sc" unicode="&#x1d0a;" horiz-adv-x="284" d="M225 503 L94 503 L94 498 C128 498 149 483 149 448 L149 2 C149 -184 84 -219 37 -219 C26 -219 32 -202 21 -202 C16 -202 12 -206 12 -212 C12 -217 22 -220 36 -220 C92 -220 170 -178 170 42 L170 448 C170 483 191 498 225 498 L225 503 L225 503 Z " />
<glyph glyph-name="K_sc" unicode="&#x1d0b;" horiz-adv-x="537" d="M210 503 L79 503 L79 498 C113 498 134 483 134 448 L134 55 C134 20 113 5 79 5 L79 0 L210 0 L210 5 C176 5 155 20 155 55 L155 252 L457 0 L532 0 L532 5 C498 5 464 19 427 48 L173 264 L358 443 C396 476 443 498 478 498 L489 498 L489 503 L287 503 L287 498 L307 498 C367 498 365 458 304 398 L155 252 L155 448 C155 483 176 498 210 498 L210 503 L210 503 Z " />
<glyph glyph-name="M_sc" unicode="&#x1d0d;" horiz-adv-x="703" d="M669 503 L594 503 L377 29 L134 501 L134 503 L56 503 L56 498 C86 498 108 488 127 463 C121 327 116 190 110 54 C109 19 88 4 54 4 L54 -1 L170 -1 L170 4 C137 4 117 17 117 51 L132 454 C133 453 134 452 135 451 C211 301 287 150 364 0 L369 0 L595 489 L612 52 C612 18 592 5 559 5 L559 0 L690 0 L690 5 C656 5 635 20 634 55 L634 55 L617 454 C619 486 638 498 670 498 L669 503 L669 503 Z " />
<glyph glyph-name="O_sc" unicode="&#x1d0f;" horiz-adv-x="699" d="M94 252 C94 405 192 508 341 513 C179 508 71 405 71 252 C71 95 180 -10 343 -10 C524 -10 644 95 644 252 C644 409 528 513 353 513 C513 513 621 409 621 252 C621 95 510 -9 343 -9 C194 -9 94 95 94 252 L94 252 Z M341 513 C345 513 349 513 353 513 C349 513 345 513 341 513 L341 513 Z " />
<glyph glyph-name="P_sc" unicode="&#x1d18;" horiz-adv-x="419" d="M216 5 C182 5 161 20 161 55 L161 240 L198 240 C319 240 399 278 399 364 C399 447 333 503 235 503 L85 503 L85 498 C119 498 140 483 140 448 L140 55 C140 20 119 5 85 5 L85 0 L216 0 L216 5 L216 5 Z M161 245 L161 500 L230 500 C319 500 379 447 379 367 C379 283 307 245 198 245 L161 245 L161 245 Z " />
<glyph glyph-name="T_sc" unicode="&#x1d1b;" horiz-adv-x="722" d="M653 518 C638 507 594 503 542 503 L181 503 C129 503 86 507 71 518 L62 518 C60 513 57 506 55 500 L56 500 L56 499 C44 470 29 431 17 403 L28 403 L37 418 C67 466 120 498 171 498 L352 498 L352 55 C352 20 331 5 297 5 L297 0 L428 0 L428 5 C394 5 373 20 373 55 L373 498 L553 498 C605 498 658 466 687 418 L696 403 L707 403 C695 431 680 469 668 498 L669 498 L669 500 L670 500 C669 502 664 515 663 518 L653 518 L653 518 Z " />
<glyph glyph-name="U_sc" unicode="&#x1d1c;" horiz-adv-x="515" d="M486 22 L477 20 C449 13 431 28 431 58 L431 503 L354 503 L354 498 C388 498 409 483 409 448 L409 143 C370 60 279 4 182 4 C145 4 120 82 120 200 L120 503 L44 503 L44 498 C78 498 99 483 99 448 L99 200 C99 74 129 -10 173 -10 C275 -10 369 47 409 133 L409 0 L420 0 C440 5 466 12 486 17 L486 22 L486 22 Z " />
<glyph glyph-name="V_sc" unicode="&#x1d20;" horiz-adv-x="588" d="M571 503 L386 503 L386 497 L404 497 C461 497 483 461 462 406 L291 32 C239 154 186 276 134 397 C108 457 125 497 177 497 L193 497 L193 503 L22 503 L22 497 L29 497 C50 497 81 459 105 402 C161 265 217 128 273 -10 L277 -10 C340 126 403 262 466 397 C494 457 533 497 563 497 L572 497 L571 503 L571 503 Z " />
<glyph glyph-name="W_sc" unicode="&#x1d21;" horiz-adv-x="855" d="M167 503 L22 503 L22 497 C50 497 72 474 91 428 C143 282 194 135 248 -10 L253 -10 L458 328 C495 215 532 102 569 -10 L575 -10 L752 430 C774 476 803 497 843 497 L843 503 L658 503 L658 497 L691 497 C737 497 756 468 741 424 L584 30 L453 419 C438 466 459 497 506 497 L524 497 L524 503 L352 503 L352 497 L360 497 C385 497 412 465 428 417 L428 417 L455 336 L268 25 C218 156 168 287 119 417 C101 465 115 497 154 497 L166 497 L167 503 L167 503 Z " />
<glyph glyph-name="Z_sc" unicode="&#x1d22;" horiz-adv-x="585" d="M73 402 L77 417 C91 462 136 494 193 498 L534 499 L25 4 L25 0 L554 0 L554 3 C555 3 563 41 577 101 L566 101 L560 86 C541 42 492 10 435 6 L51 5 L558 500 L558 504 L70 504 L69 498 L70 498 C69 488 66 453 62 404 L73 402 L73 402 Z " />
<glyph glyph-name="Wgrave" unicode="&#x1e80;" horiz-adv-x="984" d="M590 670 L416 670 L416 664 C447 664 469 643 486 597 L531 446 L302 28 C241 213 178 399 118 584 C102 632 118 664 157 664 L169 664 L169 670 L20 670 L20 664 C49 664 69 643 86 599 C151 396 217 194 281 -9 L287 -9 L533 439 C577 290 621 140 667 -8 L673 -8 L675 -1 C743 195 811 391 880 586 C897 634 930 666 963 666 L972 666 L972 672 L786 672 L786 666 L819 666 C867 666 888 634 871 586 L871 586 L681 35 C626 219 570 403 515 587 C501 635 523 667 571 667 L589 667 L590 670 L590 670 Z M277 935 C277 932 307 904 353 863 L490 737 L492 740 L362 872 C320 916 290 945 287 945 C282 945 277 940 277 935 L277 935 Z " />
<glyph glyph-name="Wacute" unicode="&#x1e82;" horiz-adv-x="984" d="M492 734 L629 860 C675 903 705 932 705 932 C705 937 700 942 695 942 C694 942 664 913 620 869 L490 737 L492 734 L492 734 Z M590 670 L416 670 L416 664 C447 664 469 643 486 597 L531 446 L302 28 C241 213 178 399 118 584 C102 632 118 664 157 664 L169 664 L169 670 L20 670 L20 664 C49 664 69 643 86 599 C151 396 217 194 281 -9 L287 -9 L533 439 C577 290 621 140 667 -8 L673 -8 L675 -1 C743 195 811 391 880 586 C897 634 930 666 963 666 L972 666 L972 672 L786 672 L786 666 L819 666 C867 666 888 634 871 586 L871 586 L681 35 C626 219 570 403 515 587 C501 635 523 667 571 667 L589 667 L590 670 L590 670 Z " />
<glyph glyph-name="Wdieresis" unicode="&#x1e84;" horiz-adv-x="984" d="M570 805 C570 831 530 831 530 805 C530 779 570 779 570 805 L570 805 Z M443 805 C443 831 403 831 403 805 C403 779 443 779 443 805 L443 805 Z M590 670 L416 670 L416 664 C447 664 469 643 486 597 L531 446 L302 28 C241 213 178 399 118 584 C102 632 118 664 157 664 L169 664 L169 670 L20 670 L20 664 C49 664 69 643 86 599 C151 396 217 194 281 -9 L287 -9 L533 439 C577 290 621 140 667 -8 L673 -8 L675 -1 C743 195 811 391 880 586 C897 634 930 666 963 666 L972 666 L972 672 L786 672 L786 666 L819 666 C867 666 888 634 871 586 L871 586 L681 35 C626 219 570 403 515 587 C501 635 523 667 571 667 L589 667 L590 670 L590 670 Z " />
<glyph glyph-name="Etilde" unicode="&#x1ebc;" horiz-adv-x="560" d="M154 790 C154 833 175 861 206 861 C265 861 343 796 401 796 C435 796 458 826 458 871 C458 835 437 811 405 811 C347 811 269 876 210 876 C176 876 154 842 154 790 L154 790 Z M418 239 L418 450 L407 450 L402 425 C393 377 356 345 308 345 L157 345 L157 669 L368 669 C416 669 457 637 472 589 L480 564 L491 564 C487 596 482 638 478 670 L59 670 L59 665 L71 665 C109 665 134 637 134 595 L134 75 C134 33 109 5 71 5 L59 5 L59 0 L503 0 C508 29 515 67 520 96 L509 96 L503 81 C485 33 431 1 368 1 L203 1 C162 1 157 19 157 46 L157 344 L308 344 C356 344 393 312 402 264 L407 239 L418 239 L418 239 Z " />
<glyph glyph-name="Ygrave" unicode="&#x1ef2;" horiz-adv-x="611" d="M160 670 L22 670 L22 665 C47 665 70 649 93 616 L298 300 L298 75 C298 33 273 5 235 5 L223 5 L223 0 L396 0 L396 5 L384 5 C346 5 321 33 321 75 L321 303 L518 615 C542 649 574 665 613 665 L613 670 L455 670 L455 665 L492 665 C525 665 533 643 512 610 L512 610 L320 305 C255 407 188 509 123 610 C102 643 109 665 142 665 L159 665 L160 670 L160 670 Z M100 932 C100 929 130 901 176 860 L313 734 L315 737 L185 869 C143 913 113 942 110 942 C105 942 100 937 100 932 L100 932 Z " />
<glyph glyph-name="quoteleft" unicode="&#x2018;" horiz-adv-x="480" d="M90 541 C101 541 102 560 90 560 L90 573 C86 573 84 569 84 562 C84 619 102 662 130 669 L120 680 C95 673 78 624 78 558 C78 548 83 541 90 541 L90 541 Z " />
<glyph glyph-name="quoteright" unicode="&#x2019;" d="" />
<glyph glyph-name="quotedblleft" unicode="&#x201c;" horiz-adv-x="480" d="M137 541 C148 541 149 560 137 560 L137 573 C133 573 131 569 131 562 C131 619 149 662 177 669 L167 680 C142 673 125 624 125 558 C125 548 130 541 137 541 L137 541 Z M78 541 C89 541 90 560 78 560 L78 573 C74 573 72 569 72 562 C72 619 90 662 118 669 L108 680 C83 673 66 624 66 558 C66 548 71 541 78 541 L78 541 Z " />
<glyph glyph-name="quotedblright" unicode="&#x201d;" horiz-adv-x="480" d="M143 664 C143 599 139 554 132 552 L143 541 C147 542 149 593 149 669 C149 676 144 680 137 680 C125 680 126 661 137 661 L137 648 C141 648 143 654 143 663 L143 664 L143 664 Z M84 663 C84 598 80 553 73 551 L84 540 C88 541 90 592 90 668 C90 675 85 679 78 679 C66 679 67 660 78 660 L78 647 C82 647 84 653 84 662 L84 663 L84 663 Z " />
<glyph glyph-name="perthousand" unicode="&#x2030;" horiz-adv-x="1137" d="M852 179 C852 283 903 353 979 353 C1055 353 1106 280 1106 171 C1106 63 1055 -9 979 -9 C903 -9 852 66 852 179 L852 179 Z M832 175 C832 64 891 -10 979 -10 C1067 -10 1125 65 1125 178 C1125 284 1067 354 979 354 C891 354 832 282 832 175 L832 175 Z M50 501 C50 608 101 679 177 679 C253 679 304 605 304 493 C304 387 253 317 177 317 C101 317 50 391 50 501 L50 501 Z M30 497 C30 388 89 316 177 316 C265 316 323 390 323 500 C323 608 265 680 177 680 C89 680 30 607 30 497 L30 497 Z M522 179 C522 283 572 353 647 353 C725 353 777 280 777 171 C777 63 725 -9 647 -9 C572 -9 522 66 522 179 L522 179 Z M502 175 C502 64 560 -10 647 -10 C736 -10 795 65 795 178 C795 284 736 354 647 354 C560 354 502 282 502 175 L502 175 Z M178 0 L648 670 L647 670 L176 0 L178 0 L178 0 Z " />
<glyph glyph-name="fraction" unicode="&#x2044;" horiz-adv-x="512" d="M31 0 L501 670 L500 670 L29 0 L31 0 L31 0 Z " />
<glyph glyph-name="Euro" unicode="&#x20ac;" horiz-adv-x="740" d="M691 21 L691 110 L689 113 C689 113 690 110 690 109 L690 165 L675 165 C673 159 671 151 669 145 C641 57 526 -10 405 -10 C259 -10 159 111 147 295 L469 295 L471 309 L147 309 C146 325 146 342 147 358 L471 358 L473 372 L147 372 C160 556 264 677 416 677 C483 677 533 666 573 647 C617 624 655 577 670 525 C672 518 674 510 676 503 L691 503 L691 644 L684 644 C683 639 683 632 682 627 C679 602 656 601 623 624 C576 658 515 678 416 678 C250 678 136 557 122 372 L57 372 L55 358 L122 358 C121 342 121 325 122 309 L55 309 L53 295 L122 295 C135 110 245 -11 404 -11 C502 -11 578 22 647 74 C633 63 619 53 608 46 C649 71 678 68 681 39 C682 33 682 26 683 20 L691 21 L691 21 Z " />
<glyph glyph-name="F_sc" unicode="&#xa730;" horiz-adv-x="470" d="M343 153 L343 364 L332 364 L327 339 C318 291 281 259 233 259 L155 259 L155 503 L59 503 L59 498 L71 498 C109 498 134 470 134 428 L134 75 C134 33 109 5 71 5 L59 5 L59 0 L230 0 L230 5 L218 5 C180 5 155 33 155 75 L155 258 L233 258 C281 258 318 226 327 178 L332 153 L343 153 L343 153 Z M426 398 C422 430 417 472 413 503 L303 503 C351 503 392 471 407 423 L415 398 L426 398 L426 398 Z " />
<glyph glyph-name="S_sc" unicode="&#xa731;" horiz-adv-x="488" d="M403 377 L403 511 L395 511 C394 507 394 501 393 497 C390 477 370 473 342 487 L342 487 C317 500 288 510 256 514 L256 511 C318 503 365 458 382 400 C384 393 387 384 389 377 L403 377 L403 377 Z M56 153 L56 -17 L64 -17 C65 -10 65 -1 66 6 C69 36 91 45 123 30 C144 17 170 6 196 -1 L196 0 C222 -7 251 -11 281 -11 C382 -11 449 37 449 110 C449 156 394 212 287 262 C162 320 97 372 97 404 C97 469 145 512 217 512 C135 512 81 466 81 396 C81 357 147 300 275 240 C379 192 432 142 432 104 C432 36 372 -10 281 -10 C247 -10 214 -5 184 5 C134 24 92 72 77 128 C75 135 72 145 70 152 L56 153 L56 153 Z " />
<glyph glyph-name="X_sc" unicode="&#xf078;" horiz-adv-x="585" d="M586 503 L421 503 L421 498 L457 498 C487 498 494 480 474 452 L322 264 L176 452 C157 480 165 498 195 498 L211 498 L211 503 L75 503 L75 498 C102 498 130 479 157 443 L157 443 L306 250 L136 52 C105 20 70 5 32 5 L32 0 L196 0 L196 5 L160 5 C106 5 151 60 151 60 L308 247 L456 55 C476 25 470 5 439 5 L423 5 L423 0 L560 0 L560 5 C533 5 507 24 478 60 L478 60 L322 262 L481 450 C512 483 546 498 585 498 L586 503 L586 503 Z " />
</font>
</svg>
