<?xml version="1.0" encoding="UTF-8"?>
<svg xmlns="http://www.w3.org/2000/svg" xmlns:xlink="http://www.w3.org/1999/xlink" version="1.2" >
<font id="Thomas Mag Bold">
<font-face  font-family="Thomas Mag" units-per-em="1024" ascent="936" descent="-280" font-style="normal" font-weight="700" font-stretch="normal" cap-height="660" x-height="500" underline-position="0" underline-thickness="0" />
<missing-glyph  horiz-adv-x="472" d="M0 700 C0 700 432 700 432 700 C432 700 432 0 432 0 C432 0 0 0 0 0 C0 0 0 700 0 700 L0 700 Z M50 50 C50 50 382 50 382 50 C382 50 382 650 382 650 C382 650 50 650 50 650 C50 650 50 50 50 50 L50 50 Z " />
<glyph glyph-name="NULL" d="" />
<glyph glyph-name="CR" unicode="&#xd;" horiz-adv-x="256" d="" />
<glyph glyph-name="space" unicode="&#x20;" horiz-adv-x="250" d="" />
<glyph glyph-name="exclam" unicode="&#x21;" horiz-adv-x="279" d="M150 -5 C198 -5 230 27 230 75 C230 123 198 155 150 155 C102 155 70 123 70 75 C70 27 102 -5 150 -5 L150 -5 Z M213 583 C220 632 192 665 142 665 C91 665 62 632 72 583 C72 583 142 230 142 230 C142 230 158 230 158 230 C158 230 213 583 213 583 L213 583 Z " />
<glyph glyph-name="quotedbl" unicode="&#x22;" horiz-adv-x="417" d="M223 660 C223 660 287 400 287 400 C287 400 306 400 306 400 C306 400 370 660 370 660 C370 660 223 660 223 660 L223 660 Z M46 660 C46 660 110 400 110 400 C110 400 129 400 129 400 C129 400 193 660 193 660 C193 660 46 660 46 660 L46 660 Z " />
<glyph glyph-name="numbersign" unicode="&#x23;" horiz-adv-x="567" d="M397 656 C397 656 374 504 374 504 C374 504 244 504 244 504 C244 504 267 656 267 656 C267 656 222 656 222 656 C222 656 199 504 199 504 C199 504 78 504 78 504 C78 504 65 416 65 416 C65 416 185 416 185 416 C185 416 159 244 159 244 C159 244 35 244 35 244 C35 244 23 156 23 156 C23 156 146 156 146 156 C146 156 122 0 122 0 C122 0 166 0 166 0 C166 0 190 156 190 156 C190 156 321 156 321 156 C321 156 297 0 297 0 C297 0 341 0 341 0 C341 0 365 156 365 156 C365 156 480 156 480 156 C480 156 493 244 493 244 C493 244 379 244 379 244 C379 244 405 416 405 416 C405 416 528 416 528 416 C528 416 541 504 541 504 C541 504 419 504 419 504 C419 504 442 656 442 656 C442 656 397 656 397 656 L397 656 Z M230 416 C230 416 360 416 360 416 C360 416 334 244 334 244 C334 244 204 244 204 244 C204 244 230 416 230 416 L230 416 Z " />
<glyph glyph-name="dollar" unicode="&#x24;" horiz-adv-x="528" d="M278 735 C278 735 278 665 278 665 C273 665 269 665 264 665 C254 665 245 665 236 664 C236 664 236 735 236 735 C236 735 198 735 198 735 C198 735 198 657 198 657 C100 634 39 556 39 449 C39 370 99 297 190 266 C193 265 195 264 198 263 C198 263 198 42 198 42 C150 54 91 98 53 146 C53 146 40 146 40 146 C40 146 40 74 40 74 C65 36 126 7 198 -2 C198 -2 198 -75 198 -75 C198 -75 236 -75 236 -75 C236 -75 236 -5 236 -5 C240 -5 244 -5 248 -5 C258 -5 268 -5 278 -4 C278 -4 278 -75 278 -75 C278 -75 316 -75 316 -75 C316 -75 316 2 316 2 C414 25 476 99 476 200 C476 284 413 362 319 394 C318 394 317 395 316 395 C316 395 316 611 316 611 C340 598 388 552 419 514 C419 514 432 514 432 514 C432 514 432 586 432 586 C409 621 366 648 316 659 C316 659 316 735 316 735 C316 735 278 735 278 735 L278 735 Z M236 430 C236 430 236 622 236 622 C243 623 250 624 257 624 C264 624 271 623 278 622 C278 622 278 410 278 410 C263 416 249 423 236 430 C236 430 236 430 236 430 L236 430 Z M198 454 C170 475 154 496 154 515 C154 556 170 589 198 607 C198 607 198 454 198 454 L198 454 Z M236 247 C251 241 265 233 278 226 C278 226 278 39 278 39 C269 37 259 36 248 36 C244 36 240 36 236 36 C236 36 236 247 236 247 L236 247 Z M316 199 C343 177 359 154 359 132 C359 97 343 70 316 53 C316 53 316 199 316 199 L316 199 Z " />
<glyph glyph-name="ampersand" unicode="&#x26;" horiz-adv-x="743" d="M595 380 C595 380 509 380 509 380 C509 380 509 365 509 365 C509 365 514 365 514 365 C528 365 538 350 538 270 C538 270 538 240 538 240 C538 206 531 175 517 148 C490 177 460 211 425 252 C384 301 348 348 320 390 C413 422 472 482 472 550 C472 619 410 665 317 665 C224 665 162 598 162 497 C162 463 179 419 208 368 C115 324 57 244 57 159 C57 60 139 -5 261 -5 C347 -5 419 17 471 56 C569 -17 646 -16 737 0 C737 0 737 19 737 19 C690 10 643 19 536 129 C553 161 563 199 563 240 C563 240 563 270 563 270 C563 350 574 365 590 365 C590 365 595 365 595 365 C595 365 595 380 595 380 L595 380 Z M306 412 C270 467 250 514 250 548 C250 603 274 640 310 640 C354 640 383 601 383 544 C383 488 354 439 306 412 C306 412 306 412 306 412 L306 412 Z M446 76 C413 57 372 46 325 46 C229 46 166 109 166 203 C166 262 187 313 222 344 C253 295 294 240 342 183 C380 138 414 103 446 76 C446 76 446 76 446 76 L446 76 Z " />
<glyph glyph-name="quotesingle" unicode="&#x27;" horiz-adv-x="240" d="M46 660 C46 660 110 400 110 400 C110 400 129 400 129 400 C129 400 193 660 193 660 C193 660 46 660 46 660 L46 660 Z " />
<glyph glyph-name="parenleft" unicode="&#x28;" horiz-adv-x="292" d="M264 690 C145 604 66 485 66 270 C66 55 145 -64 264 -150 C264 -150 275 -135 275 -135 C204 -82 156 23 156 270 C156 517 204 622 275 675 C275 675 264 690 264 690 L264 690 Z " />
<glyph glyph-name="parenright" unicode="&#x29;" horiz-adv-x="292" d="M17 -150 C136 -64 215 55 215 270 C215 485 136 604 17 690 C17 690 6 675 6 675 C77 622 125 517 125 270 C125 23 77 -82 6 -135 C6 -135 17 -150 17 -150 L17 -150 Z " />
<glyph glyph-name="asterisk" unicode="&#x2a;" horiz-adv-x="306" d="M144 540 C144 540 35 510 35 510 C15 505 9 485 23 463 C36 439 55 434 71 450 C71 450 151 529 151 529 C151 529 122 420 122 420 C116 399 130 385 157 385 C183 385 197 399 192 420 C192 420 163 529 163 529 C163 529 243 450 243 450 C259 434 278 439 291 463 C304 485 299 505 278 510 C278 510 170 540 170 540 C170 540 278 570 278 570 C300 575 305 594 291 618 C278 640 259 646 243 630 C243 630 163 551 163 551 C163 551 192 660 192 660 C197 681 183 695 157 695 C130 695 116 681 122 660 C122 660 151 551 151 551 C151 551 71 630 71 630 C55 646 36 640 23 618 C9 594 14 575 35 570 C35 570 144 540 144 540 L144 540 Z " />
<glyph glyph-name="plus" unicode="&#x2b;" horiz-adv-x="561" d="M254 450 C254 450 254 276 254 276 C254 276 82 276 82 276 C82 276 82 224 82 224 C82 224 254 224 254 224 C254 224 254 50 254 50 C254 50 310 50 310 50 C310 50 310 224 310 224 C310 224 482 224 482 224 C482 224 482 276 482 276 C482 276 310 276 310 276 C310 276 310 450 310 450 C310 450 254 450 254 450 L254 450 Z " />
<glyph glyph-name="comma" unicode="&#x2c;" horiz-adv-x="296" d="M212 27 C221 40 226 56 226 74 C226 122 194 154 146 154 C99 154 67 122 67 74 C67 39 85 12 114 1 C151 -35 174 -51 174 -38 C174 -90 140 -138 90 -157 C90 -157 96 -174 96 -174 C183 -141 240 -65 240 17 C240 9 230 13 212 27 C212 27 212 27 212 27 L212 27 Z " />
<glyph glyph-name="hyphen" unicode="&#x2d;" horiz-adv-x="286" d="M27 190 C27 190 260 190 260 190 C260 190 260 280 260 280 C260 280 27 280 27 280 C27 280 27 190 27 190 L27 190 Z " />
<glyph glyph-name="period" unicode="&#x2e;" horiz-adv-x="271" d="M125 -5 C173 -5 205 27 205 75 C205 123 173 155 125 155 C77 155 45 123 45 75 C45 27 77 -5 125 -5 L125 -5 Z " />
<glyph glyph-name="slash" unicode="&#x2f;" horiz-adv-x="368" d="M7 -145 C7 -145 58 -145 58 -145 C58 -145 368 710 368 710 C368 710 317 710 317 710 C317 710 7 -145 7 -145 L7 -145 Z " />
<glyph glyph-name="zero" unicode="0" horiz-adv-x="582" d="M291 21 C213 21 161 113 161 250 C161 387 213 479 291 479 C370 479 422 387 422 250 C422 113 370 21 291 21 L291 21 Z M33 250 C33 97 136 -5 291 -5 C447 -5 550 97 550 250 C550 403 447 505 291 505 C136 505 33 403 33 250 L33 250 Z " />
<glyph glyph-name="one" unicode="1" horiz-adv-x="280" d="M219 500 C219 500 195 500 195 500 C195 500 137 500 137 500 C137 500 80 500 80 500 C80 500 56 500 56 500 C56 500 56 485 56 485 C56 485 60 485 60 485 C72 485 80 459 80 420 C80 420 80 80 80 80 C80 41 72 15 60 15 C60 15 56 15 56 15 C56 15 56 0 56 0 C56 0 80 0 80 0 C80 0 137 0 137 0 C137 0 195 0 195 0 C195 0 219 0 219 0 C219 0 219 15 219 15 C219 15 215 15 215 15 C203 15 195 41 195 80 C195 80 195 420 195 420 C195 459 203 485 215 485 C215 485 219 485 219 485 C219 485 219 500 219 500 L219 500 Z " />
<glyph glyph-name="two" unicode="2" horiz-adv-x="500" d="M449 139 C449 139 449 135 449 135 C448 123 421 115 382 115 C382 115 213 115 213 115 C359 208 449 274 449 355 C449 445 382 505 281 505 C194 505 112 447 76 359 C76 359 90 350 90 350 C108 392 161 420 224 420 C282 420 321 378 321 316 C321 180 205 138 32 26 C32 26 32 0 32 0 C32 0 452 0 452 0 C452 0 462 115 462 115 C462 115 462 115 462 115 C463 123 463 131 464 139 C464 139 449 139 449 139 L449 139 Z " />
<glyph glyph-name="three" unicode="3" horiz-adv-x="466" d="M30 -215 C269 -202 428 -100 428 41 C428 125 366 186 266 204 C349 253 399 311 399 367 C399 450 338 505 245 505 C162 505 70 450 15 369 C15 369 29 359 29 359 C54 396 117 421 187 421 C244 421 283 384 283 330 C283 286 258 244 215 210 C210 210 204 210 199 210 C206 210 211 209 212 207 C195 195 176 183 154 173 C141 168 126 162 109 156 C109 156 109 137 109 137 C113 138 117 140 121 141 C139 146 159 149 174 149 C254 149 307 103 307 35 C307 -95 196 -187 29 -196 C29 -196 30 -215 30 -215 L30 -215 Z " />
<glyph glyph-name="four" unicode="4" horiz-adv-x="504" d="M76 51 C76 51 262 310 262 310 C262 310 262 51 262 51 C262 51 76 51 76 51 L76 51 Z M262 0 C262 0 262 -150 262 -150 C262 -150 377 -150 377 -150 C377 -150 377 0 377 0 C377 0 487 0 487 0 C487 0 487 51 487 51 C487 51 377 51 377 51 C377 51 377 470 377 470 C377 470 377 505 377 505 C377 505 358 505 358 505 C358 505 11 20 11 20 C11 20 11 0 11 0 C11 0 36 0 36 0 C36 0 39 0 39 0 C39 0 262 0 262 0 L262 0 Z " />
<glyph glyph-name="five" unicode="5" horiz-adv-x="470" d="M71 173 C71 173 100 173 100 173 C100 173 114 173 114 173 C225 173 298 123 298 48 C298 -72 194 -155 37 -160 C37 -160 38 -182 38 -182 C264 -174 414 -67 414 85 C414 206 317 286 172 286 C172 286 109 286 109 286 C109 286 100 173 100 173 C100 173 125 500 125 500 C125 500 116 379 116 379 C116 379 362 379 362 379 C362 379 387 458 387 458 C395 480 403 505 409 524 C409 524 394 524 394 524 C390 507 364 500 321 500 C321 500 125 500 125 500 C125 500 91 500 91 500 C91 500 71 173 71 173 L71 173 Z " />
<glyph glyph-name="six" unicode="6" horiz-adv-x="528" d="M459 715 C198 706 23 537 23 293 C23 114 113 -5 248 -5 C400 -5 497 84 490 217 C490 346 409 432 289 432 C234 432 192 402 157 350 C164 552 283 689 460 696 C460 696 459 715 459 715 L459 715 Z M157 304 C186 364 222 400 269 400 C329 400 369 324 369 210 C374 100 331 27 261 27 C197 27 155 89 155 183 C155 218 156 264 157 304 C157 304 157 304 157 304 L157 304 Z " />
<glyph glyph-name="seven" unicode="7" horiz-adv-x="457" d="M40 359 C40 359 40 362 40 362 C41 374 67 382 107 382 C107 382 389 382 389 382 C389 382 120 -140 120 -140 C120 -140 248 -140 248 -140 C312 70 376 280 441 489 C441 489 432 500 432 500 C432 500 37 500 37 500 C37 500 32 441 32 441 C29 416 27 383 25 359 C25 359 40 359 40 359 L40 359 Z " />
<glyph glyph-name="eight" unicode="8" horiz-adv-x="505" d="M297 372 C283 379 269 385 254 390 C188 414 144 471 144 534 C144 597 179 640 232 640 C292 640 332 584 332 501 C332 446 319 400 297 372 C297 372 297 372 297 372 L297 372 Z M323 359 C388 391 428 450 428 520 C428 607 352 665 238 665 C124 665 48 595 48 489 C48 423 84 360 142 317 C67 296 20 238 20 160 C20 61 108 -5 240 -5 C373 -5 461 69 461 180 C461 245 408 312 323 359 C323 359 323 359 323 359 L323 359 Z M166 301 C180 292 196 284 213 278 C297 248 353 193 353 141 C353 68 310 20 247 20 C175 20 128 84 128 179 C128 234 142 277 166 301 L166 301 Z " />
<glyph glyph-name="nine" unicode="9" horiz-adv-x="564" d="M87 -215 C349 -206 524 -37 523 207 C524 386 434 505 299 505 C147 505 50 416 57 283 C57 154 137 68 258 68 C312 68 355 98 389 149 C382 -53 262 -189 87 -196 C87 -196 87 -215 87 -215 L87 -215 Z M390 197 C360 136 324 100 277 100 C218 100 178 176 178 290 C172 400 216 473 286 473 C349 473 392 411 392 317 C392 282 391 236 390 197 C390 197 390 197 390 197 L390 197 Z " />
<glyph glyph-name="colon" unicode="&#x3a;" horiz-adv-x="271" d="M125 408 C173 408 205 440 205 488 C205 536 173 568 125 568 C77 568 45 536 45 488 C45 440 77 408 125 408 L125 408 Z M125 -5 C173 -5 205 27 205 75 C205 123 173 155 125 155 C77 155 45 123 45 75 C45 27 77 -5 125 -5 L125 -5 Z " />
<glyph glyph-name="semicolon" unicode="&#x3b;" horiz-adv-x="296" d="M146 411 C194 411 226 443 226 490 C226 537 194 569 146 569 C99 569 67 537 67 490 C67 443 99 411 146 411 L146 411 Z M212 27 C221 40 226 56 226 74 C226 122 194 154 146 154 C99 154 67 122 67 74 C67 39 85 12 114 1 C151 -35 174 -51 174 -38 C174 -90 140 -138 90 -157 C90 -157 96 -174 96 -174 C183 -141 240 -65 240 17 C240 9 230 13 212 27 C212 27 212 27 212 27 L212 27 Z " />
<glyph glyph-name="less" unicode="&#x3c;" horiz-adv-x="553" d="M472 500 C472 500 57 309 57 309 C57 309 47 304 47 304 C47 304 47 246 47 246 C47 246 57 241 57 241 C57 241 472 50 472 50 C472 50 472 108 472 108 C472 108 95 275 95 275 C95 275 472 443 472 443 C472 443 472 500 472 500 L472 500 Z " />
<glyph glyph-name="equal" unicode="&#x3d;" horiz-adv-x="551" d="M95 226 C95 226 95 174 95 174 C95 174 475 174 475 174 C475 174 475 226 475 226 C475 226 95 226 95 226 L95 226 Z M95 326 C95 326 95 274 95 274 C95 274 475 274 475 274 C475 274 475 326 475 326 C475 326 95 326 95 326 L95 326 Z " />
<glyph glyph-name="greater" unicode="&#x3e;" horiz-adv-x="543" d="M447 275 C447 275 82 108 82 108 C82 108 82 50 82 50 C82 50 484 241 484 241 C484 241 497 247 497 247 C497 247 497 303 497 303 C497 303 484 309 484 309 C484 309 82 500 82 500 C82 500 82 443 82 443 C82 443 447 275 447 275 L447 275 Z " />
<glyph glyph-name="question" unicode="&#x3f;" horiz-adv-x="386" d="M146 -5 C194 -5 226 27 226 75 C226 123 194 155 146 155 C98 155 66 123 66 75 C66 27 98 -5 146 -5 L146 -5 Z M126 377 C116 377 110 370 113 360 C113 360 138 235 138 235 C138 235 153 235 153 235 C153 235 179 360 179 360 C179 360 165 290 165 290 C165 290 200 290 200 290 C321 290 344 371 344 416 C344 565 256 665 125 665 C75 665 42 636 42 592 C42 562 62 542 92 542 C117 542 136 575 161 575 C255 575 318 517 318 429 C318 410 293 377 161 377 C161 377 126 377 126 377 L126 377 Z " />
<glyph glyph-name="at" unicode="&#x40;" horiz-adv-x="1191" d="M1046 0 C981 -140 809 -234 618 -234 C338 -234 152 -37 152 259 C152 555 330 752 596 752 C862 752 1040 588 1040 343 C1040 143 970 10 866 10 C791 10 761 86 789 200 C789 200 859 480 859 480 C859 480 751 480 751 480 C751 480 734 413 734 413 C715 461 666 490 601 490 C414 490 289 369 289 188 C289 77 361 4 470 4 C556 4 631 41 674 102 C685 20 747 -30 845 -30 C1016 -30 1130 119 1130 343 C1130 608 916 784 596 784 C276 784 63 574 63 259 C63 -56 285 -266 618 -266 C823 -266 1010 -160 1084 0 C1084 0 1046 0 1046 0 L1046 0 Z M720 356 C720 356 681 200 681 200 C661 121 600 68 529 68 C461 68 415 125 415 210 C415 359 488 458 598 458 C671 458 719 417 720 356 L720 356 Z " />
<glyph glyph-name="A" unicode="A" horiz-adv-x="684" d="M666 15 C666 15 662 15 662 15 C648 15 627 41 609 80 C609 80 609 80 609 80 C609 80 326 675 326 675 C326 675 285 675 285 675 C285 675 58 80 58 80 C58 80 57 80 57 80 C42 41 24 15 12 15 C12 15 9 15 9 15 C9 15 9 0 9 0 C9 0 27 0 27 0 C27 0 54 0 54 0 C54 0 81 0 81 0 C81 0 116 0 116 0 C116 0 116 15 116 15 C116 15 112 15 112 15 C97 15 98 47 116 95 C116 95 115 95 115 95 C115 95 149 188 149 188 C149 188 150 186 150 186 C150 186 347 256 347 256 C347 256 434 69 434 69 C448 36 451 15 441 15 C441 15 438 15 438 15 C438 15 438 0 438 0 C438 0 466 0 466 0 C466 0 556 0 556 0 C556 0 647 0 647 0 C647 0 666 0 666 0 C666 0 666 15 666 15 L666 15 Z M310 336 C310 336 179 269 179 269 C179 269 250 465 250 465 C250 465 310 336 310 336 L310 336 Z " />
<glyph glyph-name="B" unicode="B" horiz-adv-x="693" d="M31 645 C31 645 34 645 34 645 C46 645 54 619 54 580 C54 580 54 80 54 80 C54 41 46 15 34 15 C34 15 31 15 31 15 C31 15 31 0 31 0 C31 0 54 0 54 0 C54 0 137 0 137 0 C137 0 220 0 220 0 C220 0 356 0 356 0 C542 0 666 74 666 184 C666 273 574 337 429 356 C540 377 609 431 609 502 C609 597 498 660 332 660 C332 660 220 660 220 660 C220 660 137 660 137 660 C137 660 54 660 54 660 C54 660 31 660 31 660 C31 660 31 645 31 645 L31 645 Z M220 364 C220 364 220 628 220 628 C220 628 332 628 332 628 C399 628 444 578 444 502 C444 419 390 364 309 364 C309 364 220 364 220 364 L220 364 Z M220 336 C220 336 302 336 302 336 C416 336 492 275 492 184 C492 93 433 32 343 32 C343 32 220 32 220 32 C220 32 220 336 220 336 L220 336 Z " />
<glyph glyph-name="C" unicode="C" horiz-adv-x="766" d="M699 511 C699 511 699 574 699 574 C699 574 682 562 682 562 C682 562 682 562 682 562 C682 562 699 574 699 574 C663 629 557 665 435 665 C188 665 23 531 23 330 C23 129 188 -5 435 -5 C557 -5 663 31 699 86 C699 86 682 98 682 98 C682 98 682 98 682 98 C682 98 699 86 699 86 C699 86 699 149 699 149 C699 149 686 149 686 149 C683 144 677 138 673 132 C635 84 562 46 490 39 C490 39 490 39 490 39 C472 37 454 36 435 36 C297 36 205 154 205 330 C205 506 297 624 435 624 C470 624 503 621 533 615 C533 615 533 615 533 615 C584 605 640 570 673 528 C677 522 683 516 686 511 C686 511 699 511 699 511 L699 511 Z " />
<glyph glyph-name="D" unicode="D" horiz-adv-x="785" d="M31 645 C31 645 34 645 34 645 C46 645 54 619 54 580 C54 580 54 80 54 80 C54 41 46 15 34 15 C34 15 31 15 31 15 C31 15 31 0 31 0 C31 0 54 0 54 0 C54 0 137 0 137 0 C137 0 220 0 220 0 C220 0 357 0 357 0 C580 0 729 132 729 330 C729 528 567 660 323 660 C323 660 220 660 220 660 C220 660 137 660 137 660 C137 660 54 660 54 660 C54 660 31 660 31 660 C31 660 31 645 31 645 L31 645 Z M220 32 C220 32 220 628 220 628 C220 628 323 628 323 628 C468 628 564 509 564 330 C564 151 481 32 357 32 C357 32 220 32 220 32 L220 32 Z " />
<glyph glyph-name="E" unicode="E" horiz-adv-x="592" d="M457 304 C457 304 457 331 457 331 C457 331 457 352 457 352 C457 352 457 373 457 373 C457 373 457 397 457 397 C457 396 456 396 455 397 C449 396 445 396 445 397 C445 397 441 393 441 393 C430 381 388 373 337 373 C337 373 227 373 227 373 C227 373 227 619 227 619 C227 619 372 619 372 619 C439 619 490 602 516 576 C516 576 527 576 527 576 C527 576 527 639 527 639 C527 639 527 660 527 660 C527 660 512 660 512 660 C512 660 447 660 447 660 C447 660 227 660 227 660 C227 660 144 660 144 660 C144 660 61 660 61 660 C61 660 37 660 37 660 C37 660 37 645 37 645 C37 645 41 645 41 645 C53 645 61 619 61 580 C61 580 61 80 61 80 C61 41 53 15 41 15 C41 15 37 15 37 15 C37 15 37 0 37 0 C37 0 61 0 61 0 C61 0 144 0 144 0 C144 0 227 0 227 0 C227 0 445 0 445 0 C445 0 522 0 522 0 C522 0 525 0 525 0 C526 6 527 14 528 21 C532 40 536 65 540 84 C540 85 539 85 538 84 C533 85 529 85 529 84 C529 84 521 78 521 78 C495 56 437 42 377 41 C377 41 227 41 227 41 C227 41 227 331 227 331 C227 331 337 331 337 331 C388 331 430 322 441 308 C441 308 445 304 445 304 C445 304 457 304 457 304 L457 304 Z " />
<glyph glyph-name="F" unicode="F" horiz-adv-x="558" d="M447 299 C447 299 447 326 447 326 C447 326 447 347 447 347 C447 347 447 368 447 368 C447 368 447 392 447 392 C447 391 446 391 445 392 C439 391 435 391 435 392 C435 392 431 388 431 388 C420 376 378 368 327 368 C327 368 227 368 227 368 C227 368 227 619 227 619 C227 619 402 619 402 619 C469 619 520 602 546 576 C546 576 557 576 557 576 C557 576 557 639 557 639 C557 639 557 660 557 660 C557 660 542 660 542 660 C542 660 477 660 477 660 C477 660 227 660 227 660 C227 660 144 660 144 660 C144 660 61 660 61 660 C61 660 37 660 37 660 C37 660 37 645 37 645 C37 645 41 645 41 645 C53 645 61 619 61 580 C61 580 61 80 61 80 C61 41 53 15 41 15 C41 15 37 15 37 15 C37 15 37 0 37 0 C37 0 61 0 61 0 C61 0 144 0 144 0 C144 0 227 0 227 0 C227 0 261 0 261 0 C261 0 261 15 261 15 C261 15 256 15 256 15 C238 15 227 41 227 80 C227 80 227 326 227 326 C227 326 327 326 327 326 C378 326 420 317 431 303 C431 303 435 299 435 299 C435 299 447 299 447 299 L447 299 Z " />
<glyph glyph-name="G" unicode="G" horiz-adv-x="746" d="M690 310 C690 310 667 310 667 310 C667 310 592 310 592 310 C592 310 518 310 518 310 C518 310 494 310 494 310 C494 310 494 295 494 295 C494 295 497 295 497 295 C510 295 518 269 518 230 C518 230 518 46 518 46 C483 39 446 36 410 36 C278 36 190 154 190 330 C190 506 278 624 410 624 C441 624 470 621 497 616 C497 616 497 616 497 616 C549 607 605 572 638 528 C642 522 648 516 651 511 C651 511 664 511 664 511 C664 511 664 574 664 574 C664 574 647 562 647 562 C647 562 647 562 647 562 C647 562 664 574 664 574 C628 629 526 665 410 665 C169 665 8 531 8 330 C8 129 169 -5 410 -5 C505 -5 608 17 667 51 C667 51 667 230 667 230 C667 230 667 242 667 242 C668 274 676 295 687 295 C687 295 690 295 690 295 C690 295 690 310 690 310 L690 310 Z " />
<glyph glyph-name="H" unicode="H" horiz-adv-x="698" d="M438 645 C438 645 442 645 442 645 C454 645 462 619 462 580 C462 580 462 368 462 368 C462 368 227 368 227 368 C227 368 227 580 227 580 C227 619 235 645 247 645 C247 645 251 645 251 645 C251 645 251 660 251 660 C251 660 227 660 227 660 C227 660 144 660 144 660 C144 660 61 660 61 660 C61 660 37 660 37 660 C37 660 37 645 37 645 C37 645 41 645 41 645 C53 645 61 619 61 580 C61 580 61 80 61 80 C61 41 53 15 41 15 C41 15 37 15 37 15 C37 15 37 0 37 0 C37 0 61 0 61 0 C61 0 144 0 144 0 C144 0 227 0 227 0 C227 0 251 0 251 0 C251 0 251 15 251 15 C251 15 247 15 247 15 C235 15 227 41 227 80 C227 80 227 326 227 326 C227 326 462 326 462 326 C462 326 462 80 462 80 C462 41 454 15 442 15 C442 15 438 15 438 15 C438 15 438 0 438 0 C438 0 462 0 462 0 C462 0 545 0 545 0 C545 0 628 0 628 0 C628 0 652 0 652 0 C651 0 651 3 652 8 C651 12 651 15 652 15 C652 15 648 15 648 15 C636 15 628 41 628 80 C628 80 628 580 628 580 C628 619 636 645 648 645 C648 645 652 645 652 645 C651 645 651 648 652 653 C651 657 651 660 652 660 C652 660 628 660 628 660 C628 660 545 660 545 660 C545 660 462 660 462 660 C462 660 438 660 438 660 C438 660 438 645 438 645 L438 645 Z " />
<glyph glyph-name="I" unicode="I" horiz-adv-x="288" d="M241 660 C241 660 217 660 217 660 C217 660 135 660 135 660 C135 660 52 660 52 660 C52 660 28 660 28 660 C28 660 28 645 28 645 C28 645 32 645 32 645 C44 645 52 619 52 580 C52 580 52 80 52 80 C52 41 44 15 32 15 C32 15 28 15 28 15 C28 15 28 0 28 0 C28 0 52 0 52 0 C52 0 135 0 135 0 C135 0 217 0 217 0 C217 0 241 0 241 0 C241 0 241 15 241 15 C241 15 238 15 238 15 C226 15 218 41 217 80 C217 80 217 580 217 580 C218 619 226 645 238 645 C238 645 241 645 241 645 C241 645 241 660 241 660 L241 660 Z " />
<glyph glyph-name="J" unicode="J" horiz-adv-x="435" d="M388 660 C388 660 364 660 364 660 C364 660 282 660 282 660 C282 660 199 660 199 660 C199 660 175 660 175 660 C175 660 175 645 175 645 C175 645 179 645 179 645 C191 645 199 619 199 580 C199 580 199 200 199 200 C199 68 193 16 178 16 C147 16 122 35 115 64 C107 95 84 115 58 115 C19 115 -1 95 7 64 C18 20 73 -10 146 -10 C304 -10 365 88 365 339 C365 339 364 586 364 586 C366 622 374 645 385 645 C385 645 388 645 388 645 C388 645 388 660 388 660 L388 660 Z " />
<glyph glyph-name="K" unicode="K" horiz-adv-x="673" d="M449 645 C449 645 451 645 451 645 C456 645 444 626 420 596 C420 596 220 355 220 355 C220 355 220 580 220 580 C220 619 228 645 240 645 C240 645 244 645 244 645 C244 645 244 660 244 660 C244 660 220 660 220 660 C220 660 137 660 137 660 C137 660 54 660 54 660 C54 660 31 660 31 660 C31 660 31 645 31 645 C31 645 34 645 34 645 C46 645 54 619 54 580 C54 580 54 80 54 80 C54 41 46 15 34 15 C34 15 31 15 31 15 C31 15 31 0 31 0 C31 0 54 0 54 0 C54 0 137 0 137 0 C137 0 220 0 220 0 C220 0 244 0 244 0 C244 0 244 15 244 15 C244 15 240 15 240 15 C228 15 220 41 220 80 C220 80 220 355 220 355 C220 355 378 112 378 112 C434 28 499 -5 613 -5 C613 -5 656 -5 656 -5 C656 -5 656 20 656 20 C656 20 651 20 651 20 C604 20 550 73 461 210 C461 210 326 416 326 416 C326 416 476 592 476 592 C504 624 529 645 540 645 C540 645 544 645 544 645 C544 645 544 660 544 660 C544 660 533 660 533 660 C533 660 503 660 503 660 C503 660 473 660 473 660 C473 660 449 660 449 660 C449 660 449 645 449 645 L449 645 Z " />
<glyph glyph-name="L" unicode="L" horiz-adv-x="577" d="M251 660 C251 660 227 660 227 660 C227 660 144 660 144 660 C144 660 61 660 61 660 C61 660 37 660 37 660 C37 660 37 645 37 645 C37 645 41 645 41 645 C53 645 61 619 61 580 C61 580 61 80 61 80 C61 41 53 15 41 15 C41 15 37 15 37 15 C37 15 37 0 37 0 C37 0 61 0 61 0 C61 0 144 0 144 0 C144 0 227 0 227 0 C227 0 445 0 445 0 C445 0 522 0 522 0 C522 0 525 0 525 0 C526 6 527 14 528 21 C532 41 537 67 540 87 C540 87 537 87 537 87 C528 88 521 89 521 89 C496 60 447 42 387 41 C387 41 227 41 227 41 C227 41 227 580 227 580 C227 619 235 645 247 645 C247 645 251 645 251 645 C251 645 251 660 251 660 L251 660 Z " />
<glyph glyph-name="M" unicode="M" horiz-adv-x="819" d="M779 660 C779 660 756 660 756 660 C756 660 681 660 681 660 C681 660 651 660 651 660 C651 660 607 660 607 660 C607 660 401 188 401 188 C401 188 225 660 225 660 C225 660 117 660 117 660 C117 660 92 660 92 660 C92 660 67 660 67 660 C67 660 43 660 43 660 C43 660 43 645 43 645 C43 645 47 645 47 645 C58 645 65 620 64 582 C64 582 45 80 45 80 C44 41 35 15 22 15 C22 15 19 15 19 15 C19 15 19 0 19 0 C19 0 42 0 42 0 C42 0 67 0 67 0 C67 0 92 0 92 0 C92 0 127 0 127 0 C127 0 127 15 127 15 C127 15 121 15 121 15 C106 15 96 39 95 76 C95 76 110 478 110 478 C110 478 305 23 305 23 C305 23 317 -5 317 -5 C317 -5 359 -5 359 -5 C359 -5 609 564 609 564 C609 564 619 66 619 66 C617 35 611 15 600 15 C600 15 596 15 596 15 C596 15 596 0 596 0 C596 0 620 0 620 0 C620 0 703 0 703 0 C703 0 786 0 786 0 C786 0 809 0 809 0 C809 0 809 15 809 15 C809 15 805 15 805 15 C794 15 786 35 783 67 C783 67 759 595 759 595 C760 625 766 645 776 645 C776 645 779 645 779 645 C779 645 779 660 779 660 L779 660 Z " />
<glyph glyph-name="N" unicode="N" horiz-adv-x="639" d="M599 660 C599 660 575 660 575 660 C575 660 551 660 551 660 C551 660 526 660 526 660 C526 660 502 660 502 660 C502 660 502 645 502 645 C502 645 506 645 506 645 C518 645 526 619 526 580 C526 580 526 201 526 201 C526 201 226 660 226 660 C226 660 115 660 115 660 C115 660 90 660 90 660 C90 660 65 660 65 660 C65 660 42 660 42 660 C42 660 42 645 42 645 C42 645 45 645 45 645 C57 645 65 619 65 580 C65 580 65 80 65 80 C65 41 57 15 45 15 C45 15 42 15 42 15 C42 15 42 0 42 0 C42 0 65 0 65 0 C65 0 90 0 90 0 C90 0 115 0 115 0 C115 0 139 0 139 0 C139 0 139 15 139 15 C139 15 135 15 135 15 C123 15 115 41 115 80 C115 80 115 531 115 531 C115 531 450 23 450 23 C450 23 479 -20 479 -20 C479 -20 575 -20 575 -20 C575 -20 575 84 575 84 C575 84 575 580 575 580 C576 619 584 645 596 645 C596 645 599 645 599 645 C599 645 599 660 599 660 L599 660 Z " />
<glyph glyph-name="O" unicode="O" horiz-adv-x="772" d="M377 36 C273 36 220 171 220 330 C220 489 273 624 377 624 C481 624 534 489 534 330 C534 171 481 36 377 36 L377 36 Z M38 330 C38 149 153 -5 377 -5 C601 -5 716 149 716 330 C716 511 601 665 377 665 C153 665 38 511 38 330 L38 330 Z " />
<glyph glyph-name="P" unicode="P" horiz-adv-x="591" d="M31 645 C31 645 34 645 34 645 C46 645 54 619 54 580 C54 580 54 80 54 80 C54 41 46 15 34 15 C34 15 31 15 31 15 C31 15 31 0 31 0 C31 0 54 0 54 0 C54 0 137 0 137 0 C137 0 220 0 220 0 C220 0 244 0 244 0 C244 0 244 15 244 15 C244 15 240 15 240 15 C228 15 220 41 220 80 C220 80 220 293 220 293 C220 293 288 293 288 293 C454 293 565 367 565 477 C565 587 461 660 305 660 C305 660 220 660 220 660 C220 660 137 660 137 660 C137 660 54 660 54 660 C54 660 31 660 31 660 C31 660 31 645 31 645 L31 645 Z M220 325 C220 325 220 628 220 628 C220 628 305 628 305 628 C357 628 391 568 391 478 C391 386 350 325 288 325 C288 325 220 325 220 325 L220 325 Z " />
<glyph glyph-name="Q" unicode="Q" horiz-adv-x="772" d="M810 -28 C810 -28 797 -20 797 -20 C784 -42 720 -57 637 -57 C522 -57 445 -37 398 -5 C608 5 716 155 716 330 C716 511 601 665 377 665 C153 665 38 511 38 330 C38 157 143 8 349 -4 C436 -87 529 -140 624 -140 C694 -140 769 -95 810 -28 L810 -28 Z M377 36 C273 36 220 171 220 330 C220 489 273 624 377 624 C481 624 534 489 534 330 C534 171 481 36 377 36 L377 36 Z " />
<glyph glyph-name="R" unicode="R" horiz-adv-x="692" d="M31 645 C31 645 34 645 34 645 C46 645 54 619 54 580 C54 580 54 80 54 80 C54 41 46 15 34 15 C34 15 31 15 31 15 C31 15 31 0 31 0 C31 0 54 0 54 0 C54 0 137 0 137 0 C137 0 220 0 220 0 C220 0 244 0 244 0 C244 0 244 15 244 15 C244 15 240 15 240 15 C228 15 220 41 220 80 C220 80 220 312 220 312 C220 312 283 312 283 312 C283 312 423 106 423 106 C493 4 502 0 642 0 C642 0 686 0 686 0 C686 0 686 25 686 25 C686 25 681 25 681 25 C639 25 635 27 598 81 C598 81 428 323 428 323 C544 348 616 408 616 489 C616 592 502 660 331 660 C331 660 220 660 220 660 C220 660 137 660 137 660 C137 660 54 660 54 660 C54 660 31 660 31 660 C31 660 31 645 31 645 L31 645 Z M309 344 C309 344 261 344 261 344 C261 344 220 344 220 344 C220 344 220 628 220 628 C220 628 331 628 331 628 C398 628 442 573 442 490 C442 402 389 344 309 344 L309 344 Z " />
<glyph glyph-name="S" unicode="S" horiz-adv-x="528" d="M53 146 C53 146 40 146 40 146 C40 146 40 74 40 74 C71 27 154 -5 248 -5 C385 -5 476 77 476 200 C476 284 413 362 319 394 C220 428 154 477 154 515 C154 580 195 624 257 624 C276 624 295 620 313 612 C313 612 313 612 313 612 C336 602 387 554 419 514 C419 514 432 514 432 514 C432 514 432 586 432 586 C401 633 334 665 264 665 C129 665 39 579 39 449 C39 370 99 297 190 266 C291 230 359 177 359 132 C359 74 315 36 248 36 C235 36 222 37 210 39 C210 39 210 39 210 39 C160 47 95 94 53 146 L53 146 Z " />
<glyph glyph-name="T" unicode="T" horiz-adv-x="633" d="M626 571 C624 591 621 619 620 639 C619 646 618 654 618 660 C618 660 587 660 587 660 C587 660 538 660 538 660 C538 660 96 660 96 660 C96 660 47 660 47 660 C47 660 16 660 16 660 C16 654 15 646 14 639 C12 619 10 591 8 571 C8 571 20 571 20 571 C20 571 28 578 28 578 C55 603 104 619 152 619 C152 619 234 619 234 619 C234 619 234 80 234 80 C234 41 226 15 214 15 C214 15 210 15 210 15 C210 15 210 0 210 0 C210 0 234 0 234 0 C234 0 317 0 317 0 C317 0 400 0 400 0 C400 0 424 0 424 0 C423 0 423 3 424 8 C423 12 423 15 424 15 C424 15 420 15 420 15 C409 15 401 36 400 68 C400 68 400 80 400 80 C400 80 400 619 400 619 C400 619 481 619 481 619 C529 619 579 603 606 578 C606 578 614 571 614 571 C614 571 626 571 626 571 L626 571 Z " />
<glyph glyph-name="U" unicode="U" horiz-adv-x="635" d="M609 660 C609 660 581 660 581 660 C581 660 562 660 562 660 C562 660 543 660 543 660 C543 660 515 660 515 660 C515 660 515 645 515 645 C515 645 519 645 519 645 C533 645 543 615 543 570 C543 570 543 202 543 202 C543 113 487 53 343 53 C247 53 210 107 210 187 C210 187 210 580 210 580 C210 619 218 645 230 645 C230 645 234 645 234 645 C234 645 234 660 234 660 C234 660 210 660 210 660 C210 660 127 660 127 660 C127 660 44 660 44 660 C44 660 21 660 21 660 C21 660 21 645 21 645 C21 645 24 645 24 645 C36 645 44 619 44 580 C44 580 44 219 44 219 C44 85 121 -5 318 -5 C507 -5 581 73 581 189 C581 189 581 570 581 570 C582 615 591 645 604 645 C604 645 609 645 609 645 C609 645 609 660 609 660 L609 660 Z " />
<glyph glyph-name="V" unicode="V" horiz-adv-x="692" d="M648 660 C648 660 630 660 630 660 C630 660 611 660 611 660 C611 660 592 660 592 660 C592 660 553 660 553 660 C553 660 553 645 553 645 C553 645 558 645 558 645 C574 645 572 613 555 564 C555 564 396 150 396 150 C396 150 223 580 223 580 C223 580 224 580 224 580 C208 619 206 645 219 645 C219 645 223 645 223 645 C223 645 223 660 223 660 C223 660 191 660 191 660 C191 660 100 660 100 660 C100 660 9 660 9 660 C9 660 -3 660 -3 660 C-2 660 -2 657 -3 653 C-2 648 -2 645 -3 645 C-3 645 0 645 0 645 C8 645 23 627 39 598 C39 598 333 -15 333 -15 C333 -15 365 -15 365 -15 C365 -15 599 580 599 580 C599 580 599 580 599 580 C614 619 632 645 644 645 C644 645 648 645 648 645 C648 645 648 660 648 660 L648 660 Z " />
<glyph glyph-name="W" unicode="W" horiz-adv-x="1006" d="M977 660 C977 660 957 660 957 660 C957 660 938 660 938 660 C938 660 919 660 919 660 C919 660 886 660 886 660 C886 660 886 645 886 645 C886 645 890 645 890 645 C905 645 907 619 895 580 C895 580 895 580 895 580 C895 580 718 -15 718 -15 C718 -15 775 177 775 177 C775 177 580 670 580 670 C580 670 548 670 548 670 C548 670 309 -15 309 -15 C309 -15 371 163 371 163 C371 163 236 590 236 590 C227 623 228 645 239 645 C239 645 242 645 242 645 C243 645 243 648 242 653 C243 657 243 660 242 660 C242 660 214 660 214 660 C214 660 123 660 123 660 C123 660 32 660 32 660 C32 660 19 660 19 660 C19 660 19 645 19 645 C19 645 22 645 22 645 C31 645 46 621 63 585 C63 585 309 -15 309 -15 C309 -15 341 -15 341 -15 C341 -15 580 670 580 670 C580 670 510 468 510 468 C510 468 718 -15 718 -15 C718 -15 749 -15 749 -15 C749 -15 932 580 932 580 C932 580 933 580 933 580 C945 619 961 645 973 645 C973 645 977 645 977 645 C977 645 977 660 977 660 L977 660 Z " />
<glyph glyph-name="X" unicode="X" horiz-adv-x="731" d="M647 660 C647 660 635 660 635 660 C635 660 603 660 603 660 C603 660 570 660 570 660 C570 660 535 660 535 660 C536 660 536 657 535 653 C536 648 536 645 535 645 C535 645 539 645 539 645 C551 645 541 619 513 580 C513 580 513 580 513 580 C513 580 393 411 393 411 C393 411 271 590 271 590 C250 624 243 645 253 645 C253 645 256 645 256 645 C256 645 256 660 256 660 C256 660 224 660 224 660 C224 660 130 660 130 660 C130 660 35 660 35 660 C35 660 28 660 28 660 C28 660 28 645 28 645 C28 645 31 645 31 645 C38 645 55 627 76 599 C76 599 272 311 272 311 C272 311 95 65 95 65 C71 35 49 15 39 15 C39 15 35 15 35 15 C35 15 35 0 35 0 C35 0 48 0 48 0 C48 0 79 0 79 0 C79 0 109 0 109 0 C109 0 144 0 144 0 C144 0 144 15 144 15 C144 15 141 15 141 15 C128 15 141 46 172 92 C172 92 297 274 297 274 C297 274 436 69 436 69 C457 36 465 15 454 15 C454 15 451 15 451 15 C451 15 451 0 451 0 C451 0 483 0 483 0 C483 0 577 0 577 0 C577 0 672 0 672 0 C672 0 679 0 679 0 C679 0 679 15 679 15 C679 15 676 15 676 15 C669 15 652 33 631 61 C631 61 417 375 417 375 C417 375 574 580 574 580 C574 580 574 580 574 580 C604 619 632 645 644 645 C644 645 647 645 647 645 C647 645 647 660 647 660 L647 660 Z " />
<glyph glyph-name="Y" unicode="Y" horiz-adv-x="654" d="M426 15 C426 15 422 15 422 15 C410 15 402 41 402 80 C402 80 402 358 402 358 C402 358 578 594 578 594 C603 625 624 645 633 645 C633 645 636 645 636 645 C636 645 636 660 636 660 C636 660 627 660 627 660 C627 660 608 660 608 660 C608 660 588 660 588 660 C588 660 553 660 553 660 C554 660 554 657 553 653 C554 648 554 645 553 645 C553 645 557 645 557 645 C570 645 553 611 515 560 C515 560 515 560 515 560 C515 560 368 359 368 359 C368 359 360 359 360 359 C360 359 250 580 250 580 C250 580 250 580 250 580 C230 619 225 645 236 645 C236 645 239 645 239 645 C239 645 239 660 239 660 C239 660 210 660 210 660 C210 660 111 660 111 660 C111 660 12 660 12 660 C12 660 3 660 3 660 C3 660 3 645 3 645 C3 645 6 645 6 645 C15 645 37 619 62 580 C62 580 62 580 62 580 C62 580 236 302 236 302 C236 302 236 80 236 80 C236 41 228 15 216 15 C216 15 213 15 213 15 C213 15 213 0 213 0 C213 0 236 0 236 0 C236 0 319 0 319 0 C319 0 402 0 402 0 C402 0 426 0 426 0 C426 0 426 15 426 15 L426 15 Z " />
<glyph glyph-name="Z" unicode="Z" horiz-adv-x="590" d="M489 91 C489 91 482 84 482 84 C460 59 409 43 355 43 C355 43 235 43 235 43 C235 43 537 660 537 660 C537 660 442 660 442 660 C442 660 348 660 348 660 C348 660 158 660 158 660 C158 660 109 660 109 660 C109 660 78 660 78 660 C76 654 74 646 72 639 C67 622 61 598 56 580 C56 580 68 580 68 580 C68 580 77 586 77 586 C107 606 158 619 207 619 C207 619 328 619 328 619 C328 619 29 0 29 0 C29 0 121 0 121 0 C121 0 214 0 214 0 C214 0 412 0 412 0 C412 0 490 0 490 0 C490 0 492 0 492 0 C494 7 495 15 496 22 C500 42 504 68 508 88 C502 89 489 91 489 91 L489 91 Z " />
<glyph glyph-name="bracketleft" unicode="&#x5b;" horiz-adv-x="282" d="M161 634 C161 634 266 634 266 634 C266 634 266 660 266 660 C266 660 161 660 161 660 C161 660 72 660 72 660 C72 660 72 -120 72 -120 C72 -120 161 -120 161 -120 C161 -120 266 -120 266 -120 C266 -120 266 -94 266 -94 C266 -94 161 -94 161 -94 C161 -94 161 634 161 634 L161 634 Z " />
<glyph glyph-name="backslash" unicode="&#x5c;" horiz-adv-x="283" d="M237 -145 C237 -145 277 -145 277 -145 C277 -145 -13 710 -13 710 C-13 710 -53 710 -53 710 C-53 710 237 -145 237 -145 L237 -145 Z " />
<glyph glyph-name="bracketright" unicode="&#x5d;" horiz-adv-x="275" d="M109 634 C109 634 109 -94 109 -94 C109 -94 4 -94 4 -94 C4 -94 4 -120 4 -120 C4 -120 109 -120 109 -120 C109 -120 199 -120 199 -120 C199 -120 199 660 199 660 C199 660 109 660 109 660 C109 660 4 660 4 660 C4 660 4 634 4 634 C4 634 109 634 109 634 L109 634 Z " />
<glyph glyph-name="underscore" unicode="&#x5f;" horiz-adv-x="461" d="M12 -50 C12 -50 12 -114 12 -114 C12 -114 450 -114 450 -114 C450 -114 450 -50 450 -50 C450 -50 12 -50 12 -50 L12 -50 Z " />
<glyph glyph-name="a" unicode="a" horiz-adv-x="525" d="M497 64 C489 52 477 45 451 45 C421 45 412 72 412 112 C412 112 412 352 412 352 C412 444 356 505 272 505 C107 505 23 435 62 329 C62 329 177 329 177 329 C145 415 173 473 246 473 C272 473 290 435 290 378 C290 378 290 262 290 262 C290 262 224 252 224 252 C115 235 43 176 43 105 C43 39 90 -5 161 -5 C213 -5 262 11 299 37 C310 8 332 -10 373 -10 C449 -10 487 13 510 48 C510 48 497 64 497 64 L497 64 Z M290 232 C290 232 290 100 290 100 C290 93 290 86 291 80 C270 75 246 72 219 72 C182 72 157 98 157 138 C157 175 184 206 224 216 C224 216 290 232 290 232 L290 232 Z " />
<glyph glyph-name="b" unicode="b" horiz-adv-x="529" d="M9 674 C29 649 33 639 33 579 C33 579 33 0 33 0 C33 0 46 0 46 0 C57 19 81 32 106 32 C151 32 185 -5 246 -5 C393 -5 491 97 491 249 C491 403 414 505 298 505 C223 505 169 483 148 448 C148 448 148 610 148 610 C148 610 148 690 148 690 C148 690 148 720 148 720 C148 720 125 720 125 720 C125 720 9 683 9 683 C9 683 9 674 9 674 L9 674 Z M148 397 C148 431 172 454 209 454 C304 454 367 355 367 207 C367 99 319 27 246 27 C187 27 148 87 148 177 C148 177 148 397 148 397 L148 397 Z " />
<glyph glyph-name="c" unicode="c" horiz-adv-x="500" d="M456 159 C456 159 441 167 441 167 C412 106 372 65 341 65 C230 65 156 148 156 273 C156 393 204 473 277 473 C315 473 343 446 347 404 C350 371 373 348 405 348 C435 348 456 368 456 399 C450 462 383 505 290 505 C136 505 34 395 34 229 C34 89 119 -5 245 -5 C325 -5 409 61 456 159 L456 159 Z " />
<glyph glyph-name="d" unicode="d" horiz-adv-x="552" d="M496 46 C476 71 472 81 472 141 C472 141 472 610 472 610 C472 610 472 690 472 690 C472 690 472 720 472 720 C472 720 449 720 449 720 C449 720 333 683 333 683 C333 683 333 674 333 674 C353 649 357 639 357 579 C357 579 357 466 357 466 C332 491 298 505 258 505 C118 505 25 391 25 219 C25 85 101 -5 214 -5 C271 -5 325 27 357 77 C357 77 357 30 357 30 C357 30 357 0 357 0 C357 0 380 0 380 0 C380 0 496 37 496 37 C496 37 496 46 496 46 L496 46 Z M357 110 C357 110 357 106 357 106 C342 81 312 65 278 65 C198 65 145 144 145 263 C145 390 188 474 253 474 C301 474 338 449 357 411 C357 411 357 110 357 110 L357 110 Z " />
<glyph glyph-name="e" unicode="e" horiz-adv-x="517" d="M461 159 C461 159 447 167 447 167 C417 106 376 65 344 65 C230 65 155 148 155 273 C155 282 155 291 156 300 C156 300 352 300 352 300 C352 300 461 300 461 300 C461 423 384 505 268 505 C127 505 33 395 33 229 C33 89 119 -5 247 -5 C329 -5 414 61 461 159 L461 159 Z M158 321 C168 414 207 473 262 473 C316 473 353 442 353 396 C353 396 353 395 353 395 C352 365 332 342 302 337 C302 337 158 321 158 321 L158 321 Z " />
<glyph glyph-name="f" unicode="f" horiz-adv-x="402" d="M208 15 C208 15 204 15 204 15 C192 15 184 41 184 80 C184 80 184 455 184 455 C184 455 319 455 319 455 C319 455 319 500 319 500 C319 500 184 500 184 500 C184 500 184 533 184 533 C184 629 223 694 282 694 C310 694 331 674 333 645 C335 614 358 594 390 594 C421 594 441 614 441 645 C438 690 386 720 313 720 C181 720 86 655 75 558 C75 558 69 500 69 500 C69 500 1 500 1 500 C1 500 1 455 1 455 C1 455 69 455 69 455 C69 455 69 80 69 80 C69 41 61 15 49 15 C49 15 45 15 45 15 C45 15 45 0 45 0 C45 0 69 0 69 0 C69 0 127 0 127 0 C127 0 184 0 184 0 C184 0 208 0 208 0 C208 0 208 15 208 15 L208 15 Z " />
<glyph glyph-name="g" unicode="g" horiz-adv-x="492" d="M486 500 C486 500 348 472 348 472 C319 493 280 505 235 505 C131 505 61 441 61 346 C61 280 95 229 151 204 C88 194 48 150 48 89 C48 49 69 18 104 0 C54 -28 23 -77 23 -134 C23 -199 86 -243 180 -243 C351 -243 466 -157 466 -28 C466 45 394 94 285 94 C285 94 196 90 196 90 C154 88 125 106 125 134 C125 166 147 187 180 187 C180 187 235 187 235 187 C340 187 410 251 410 346 C410 378 402 407 387 430 C387 430 486 436 486 436 C486 436 486 500 486 500 L486 500 Z M169 346 C169 426 196 479 235 479 C275 479 301 426 301 346 C301 266 275 212 235 212 C196 212 169 266 169 346 L169 346 Z M138 -13 C157 -17 179 -19 202 -18 C202 -18 254 -15 254 -15 C331 -15 383 -44 383 -86 C383 -161 307 -211 193 -211 C136 -211 99 -175 99 -120 C99 -74 114 -36 138 -13 C138 -13 138 -13 138 -13 L138 -13 Z " />
<glyph glyph-name="h" unicode="h" horiz-adv-x="547" d="M501 15 C501 15 497 15 497 15 C485 15 477 41 477 80 C477 80 477 338 477 338 C477 438 446 505 366 505 C281 505 217 478 190 433 C190 433 190 610 190 610 C190 610 190 690 190 690 C190 690 190 720 190 720 C190 720 167 720 167 720 C167 720 51 683 51 683 C51 683 51 674 51 674 C71 649 75 639 75 579 C75 579 75 80 75 80 C75 41 67 15 55 15 C55 15 51 15 51 15 C51 15 51 0 51 0 C51 0 75 0 75 0 C75 0 133 0 133 0 C133 0 190 0 190 0 C190 0 214 0 214 0 C214 0 214 15 214 15 C214 15 210 15 210 15 C198 15 190 41 190 80 C190 80 190 396 190 396 C204 416 235 428 277 428 C338 428 362 387 362 326 C362 326 362 80 362 80 C362 41 354 15 342 15 C342 15 338 15 338 15 C338 15 338 0 338 0 C338 0 362 0 362 0 C362 0 419 0 419 0 C419 0 477 0 477 0 C477 0 501 0 501 0 C501 0 501 15 501 15 L501 15 Z " />
<glyph glyph-name="i" unicode="i" horiz-adv-x="266" d="M52 454 C72 429 76 419 76 359 C76 359 76 80 76 80 C76 41 68 15 56 15 C56 15 52 15 52 15 C52 15 52 0 52 0 C52 0 76 0 76 0 C76 0 133 0 133 0 C133 0 191 0 191 0 C191 0 215 0 215 0 C215 0 215 15 215 15 C215 15 211 15 211 15 C199 15 191 41 191 80 C191 80 191 390 191 390 C191 390 191 470 191 470 C191 470 191 500 191 500 C191 500 168 500 168 500 C168 500 52 463 52 463 C52 463 52 454 52 454 L52 454 Z M127 570 C173 570 204 601 204 647 C204 692 173 723 127 723 C81 723 50 692 50 647 C50 601 81 570 127 570 L127 570 Z " />
<glyph glyph-name="j" unicode="j" horiz-adv-x="266" d="M52 454 C69 432 75 422 76 378 C76 378 75 -1 75 -1 C75 -129 48 -171 -35 -223 C-35 -223 -24 -239 -24 -239 C138 -138 192 -82 192 31 C192 31 191 470 191 470 C191 470 191 500 191 500 C191 500 168 500 168 500 C168 500 52 463 52 463 C52 463 52 454 52 454 L52 454 Z M127 570 C173 570 204 601 204 647 C204 692 173 723 127 723 C81 723 50 692 50 647 C50 601 81 570 127 570 L127 570 Z " />
<glyph glyph-name="k" unicode="k" horiz-adv-x="512" d="M535 15 C535 15 531 15 531 15 C521 15 499 34 475 65 C475 65 279 338 279 338 C279 338 368 420 368 420 C368 420 369 420 369 420 C411 459 447 485 459 485 C459 485 463 485 463 485 C463 485 463 500 463 500 C463 500 455 500 455 500 C455 500 430 500 430 500 C430 500 404 500 404 500 C404 500 380 500 380 500 C380 500 380 485 380 485 C380 485 382 485 382 485 C385 485 372 469 347 442 C347 442 183 275 183 275 C183 275 183 610 183 610 C183 610 183 690 183 690 C183 690 183 720 183 720 C183 720 160 720 160 720 C160 720 44 683 44 683 C44 683 44 674 44 674 C64 649 68 639 68 579 C68 579 68 80 68 80 C68 41 60 15 48 15 C48 15 44 15 44 15 C44 15 44 0 44 0 C44 0 68 0 68 0 C68 0 126 0 126 0 C126 0 183 0 183 0 C183 0 207 0 207 0 C207 0 207 15 207 15 C207 15 203 15 203 15 C191 15 183 41 183 80 C183 80 183 275 183 275 C183 275 335 60 335 60 C353 32 362 15 357 15 C357 15 355 15 355 15 C355 15 355 0 355 0 C355 0 378 0 378 0 C378 0 450 0 450 0 C450 0 522 0 522 0 C522 0 535 0 535 0 C535 0 535 15 535 15 L535 15 Z " />
<glyph glyph-name="l" unicode="l" horiz-adv-x="266" d="M52 674 C72 649 76 639 76 579 C76 579 76 80 76 80 C76 41 68 15 56 15 C56 15 52 15 52 15 C52 15 52 0 52 0 C52 0 76 0 76 0 C76 0 133 0 133 0 C133 0 191 0 191 0 C191 0 215 0 215 0 C215 0 215 15 215 15 C215 15 211 15 211 15 C199 15 191 41 191 80 C191 80 191 610 191 610 C191 610 191 690 191 690 C191 690 191 720 191 720 C191 720 168 720 168 720 C168 720 52 683 52 683 C52 683 52 674 52 674 L52 674 Z " />
<glyph glyph-name="m" unicode="m" horiz-adv-x="854" d="M807 15 C807 15 804 15 804 15 C792 15 785 35 784 67 C784 67 784 80 784 80 C784 80 784 338 784 338 C784 438 733 505 665 505 C559 505 494 475 472 426 C452 475 415 505 372 505 C277 505 216 479 190 435 C190 435 190 500 190 500 C190 500 167 500 167 500 C167 500 51 463 51 463 C51 463 51 454 51 454 C71 429 75 419 75 359 C75 359 75 80 75 80 C75 41 67 15 55 15 C55 15 51 15 51 15 C51 15 51 0 51 0 C51 0 75 0 75 0 C75 0 133 0 133 0 C133 0 190 0 190 0 C190 0 214 0 214 0 C214 0 214 15 214 15 C214 15 210 15 210 15 C198 15 190 41 190 80 C190 80 190 390 190 390 C190 390 190 399 190 399 C204 422 235 435 282 435 C333 435 372 391 372 326 C372 326 372 80 372 80 C372 41 364 15 352 15 C352 15 348 15 348 15 C348 15 348 0 348 0 C348 0 372 0 372 0 C372 0 429 0 429 0 C429 0 487 0 487 0 C487 0 511 0 511 0 C511 0 511 15 511 15 C511 15 507 15 507 15 C495 15 487 41 487 80 C487 80 487 338 487 338 C487 358 485 377 481 394 C493 415 525 428 576 428 C628 428 668 387 668 326 C668 326 669 69 669 69 C667 36 660 15 648 15 C648 15 645 15 645 15 C645 15 645 0 645 0 C645 0 669 0 669 0 C669 0 726 0 726 0 C726 0 784 0 784 0 C784 0 807 0 807 0 C807 0 807 15 807 15 L807 15 Z " />
<glyph glyph-name="n" unicode="n" horiz-adv-x="547" d="M501 15 C501 15 497 15 497 15 C485 15 477 41 477 80 C477 80 477 338 477 338 C477 438 446 505 366 505 C281 505 217 478 190 433 C190 433 190 500 190 500 C190 500 167 500 167 500 C167 500 51 463 51 463 C51 463 51 454 51 454 C71 429 75 419 75 359 C75 359 75 80 75 80 C75 41 67 15 55 15 C55 15 51 15 51 15 C51 15 51 0 51 0 C51 0 75 0 75 0 C75 0 133 0 133 0 C133 0 190 0 190 0 C190 0 214 0 214 0 C214 0 214 15 214 15 C214 15 210 15 210 15 C198 15 190 41 190 80 C190 80 190 390 190 390 C190 390 190 396 190 396 C204 416 235 428 277 428 C338 428 362 387 362 326 C362 326 362 80 362 80 C362 41 354 15 342 15 C342 15 338 15 338 15 C338 15 338 0 338 0 C338 0 362 0 362 0 C362 0 419 0 419 0 C419 0 477 0 477 0 C477 0 501 0 501 0 C501 0 501 15 501 15 L501 15 Z " />
<glyph glyph-name="o" unicode="o" horiz-adv-x="596" d="M298 21 C223 21 173 113 173 250 C173 387 223 479 298 479 C374 479 424 387 424 250 C424 113 374 21 298 21 L298 21 Z M45 250 C45 97 146 -5 298 -5 C451 -5 552 97 552 250 C552 403 451 505 298 505 C146 505 45 403 45 250 L45 250 Z " />
<glyph glyph-name="p" unicode="p" horiz-adv-x="589" d="M40 454 C60 429 64 419 64 359 C64 359 64 -150 64 -150 C64 -189 56 -215 44 -215 C44 -215 40 -215 40 -215 C40 -215 40 -230 40 -230 C40 -230 64 -230 64 -230 C64 -230 122 -230 122 -230 C122 -230 179 -230 179 -230 C179 -230 203 -230 203 -230 C203 -230 203 -215 203 -215 C203 -215 199 -215 199 -215 C187 -215 179 -189 179 -150 C179 -150 179 28 179 28 C206 7 242 -5 284 -5 C438 -5 540 104 540 268 C540 410 465 505 352 505 C265 505 200 471 175 416 C175 416 163 500 163 500 C163 500 140 500 140 500 C140 500 40 463 40 463 C40 463 40 454 40 454 L40 454 Z M179 156 C179 156 179 378 179 378 C191 409 222 428 263 428 C357 428 420 332 420 187 C420 91 366 27 284 27 C221 27 179 79 179 156 C179 156 179 156 179 156 L179 156 Z " />
<glyph glyph-name="q" unicode="q" horiz-adv-x="552" d="M338 -230 C338 -230 362 -230 362 -230 C362 -230 419 -230 419 -230 C419 -230 477 -230 477 -230 C477 -230 501 -230 501 -230 C500 -230 500 -227 501 -222 C500 -218 500 -215 501 -215 C501 -215 497 -215 497 -215 C486 -215 478 -194 477 -162 C477 -162 477 -150 477 -150 C477 -150 477 500 477 500 C477 500 464 500 464 500 C453 478 424 463 392 463 C350 463 320 505 263 505 C124 505 31 391 31 219 C31 85 101 -5 206 -5 C269 -5 328 30 362 85 C362 85 362 -150 362 -150 C362 -189 354 -215 341 -215 C341 -215 338 -215 338 -215 C338 -215 338 -230 338 -230 L338 -230 Z M362 117 C347 86 311 65 269 65 C198 65 151 144 151 263 C151 389 196 473 263 473 C322 473 362 403 362 297 C362 297 362 117 362 117 L362 117 Z " />
<glyph glyph-name="r" unicode="r" horiz-adv-x="400" d="M51 454 C71 429 75 419 75 359 C75 359 75 80 75 80 C75 41 67 15 55 15 C55 15 51 15 51 15 C51 15 51 0 51 0 C51 0 75 0 75 0 C75 0 133 0 133 0 C133 0 190 0 190 0 C190 0 214 0 214 0 C214 0 214 15 214 15 C214 15 210 15 210 15 C198 15 190 41 190 80 C190 80 190 390 190 390 C190 390 188 400 188 400 C196 413 207 420 220 420 C258 420 291 376 328 376 C361 376 383 398 383 431 C383 476 363 505 312 505 C250 505 204 472 186 420 C186 420 174 500 174 500 C174 500 151 500 151 500 C151 500 51 463 51 463 C51 463 51 454 51 454 L51 454 Z " />
<glyph glyph-name="s" unicode="s" horiz-adv-x="431" d="M48 108 C48 108 48 59 48 59 C74 21 131 -5 190 -5 C300 -5 374 58 374 153 C374 207 333 261 272 291 C194 328 142 372 142 402 C142 448 179 479 235 479 C244 479 253 476 263 471 C273 465 295 445 319 418 C320 416 321 415 322 414 C322 414 323 414 323 414 C327 409 332 404 337 398 C339 396 342 392 344 390 C344 390 356 390 356 390 C356 390 356 436 356 436 C328 477 280 505 235 505 C126 505 53 448 53 362 C53 310 108 249 191 209 C243 184 278 145 278 111 C278 57 245 21 196 21 C192 21 189 21 185 21 C185 21 185 22 185 22 C152 25 106 54 70 96 C67 99 63 105 59 108 C59 108 48 108 48 108 L48 108 Z " />
<glyph glyph-name="t" unicode="t" horiz-adv-x="384" d="M345 500 C345 500 210 500 210 500 C210 500 210 640 210 640 C210 640 191 640 191 640 C190 639 190 638 189 637 C141 544 78 476 32 468 C32 468 32 455 32 455 C32 455 95 455 95 455 C95 455 95 125 95 125 C95 24 119 -5 204 -5 C263 -5 311 51 358 135 C358 135 347 141 347 141 C315 84 287 46 261 46 C221 46 210 59 210 105 C210 105 210 455 210 455 C210 455 345 455 345 455 C345 455 345 500 345 500 L345 500 Z " />
<glyph glyph-name="u" unicode="u" horiz-adv-x="512" d="M471 46 C451 71 447 81 447 141 C447 141 447 500 447 500 C447 500 389 500 389 500 C389 500 332 500 332 500 C332 500 308 500 308 500 C308 500 308 485 308 485 C308 485 312 485 312 485 C324 485 332 459 332 420 C332 420 332 112 332 112 C319 87 298 71 266 71 C196 71 160 109 160 166 C160 166 160 500 160 500 C160 500 103 500 103 500 C103 500 45 500 45 500 C45 500 21 500 21 500 C21 500 21 485 21 485 C21 485 25 485 25 485 C37 485 45 459 45 420 C45 420 45 154 45 154 C45 59 90 -5 176 -5 C251 -5 301 29 332 84 C332 84 332 30 332 30 C332 30 332 0 332 0 C332 0 355 0 355 0 C355 0 471 37 471 37 C471 37 471 46 471 46 L471 46 Z " />
<glyph glyph-name="v" unicode="v" horiz-adv-x="531" d="M496 500 C496 500 479 500 479 500 C479 500 460 500 460 500 C460 500 441 500 441 500 C441 500 417 500 417 500 C417 500 417 485 417 485 C417 485 420 485 420 485 C429 485 424 459 409 420 C409 420 409 420 409 420 C409 420 297 137 297 137 C297 137 175 420 175 420 C175 420 175 420 175 420 C158 459 153 485 162 485 C162 485 164 485 164 485 C164 485 164 500 164 500 C164 500 140 500 140 500 C140 500 75 500 75 500 C75 500 9 500 9 500 C9 500 -8 500 -8 500 C-8 500 -8 485 -8 485 C-8 485 -5 485 -5 485 C8 485 27 459 45 420 C45 420 45 420 45 420 C45 420 239 -10 239 -10 C239 -10 258 -10 258 -10 C258 -10 450 433 450 433 C465 465 481 485 493 485 C493 485 496 485 496 485 C496 485 496 500 496 500 L496 500 Z " />
<glyph glyph-name="w" unicode="w" horiz-adv-x="859" d="M843 500 C843 500 831 500 831 500 C831 500 792 500 792 500 C792 500 759 500 759 500 C759 500 759 485 759 485 C759 485 765 485 765 485 C778 485 780 471 751 396 C751 396 751 396 751 396 C751 396 649 138 649 138 C649 138 531 411 531 411 C531 411 531 411 531 411 C502 473 505 485 517 485 C517 485 522 485 522 485 C522 485 522 500 522 500 C522 500 492 500 492 500 C492 500 360 500 360 500 C360 500 350 500 350 500 C350 500 350 485 350 485 C350 485 355 485 355 485 C361 485 369 477 388 439 C388 439 416 377 416 377 C416 377 320 134 320 134 C320 134 202 411 202 411 C202 411 203 411 203 411 C174 473 176 485 187 485 C187 485 192 485 192 485 C192 485 192 500 192 500 C192 500 164 500 164 500 C164 500 33 500 33 500 C33 500 21 500 21 500 C21 500 21 485 21 485 C21 485 26 485 26 485 C34 485 46 473 74 408 C74 408 74 408 74 408 C74 408 263 -10 263 -10 C263 -10 282 -10 282 -10 C282 -10 429 347 429 347 C429 347 591 -10 591 -10 C591 -10 610 -10 610 -10 C610 -10 812 457 812 457 C824 479 831 485 838 485 C838 485 843 485 843 485 C843 485 843 500 843 500 L843 500 Z " />
<glyph glyph-name="x" unicode="x" horiz-adv-x="522" d="M458 500 C458 500 447 500 447 500 C447 500 428 500 428 500 C428 500 408 500 408 500 C408 500 377 500 377 500 C377 500 377 485 377 485 C377 485 380 485 380 485 C389 485 381 466 360 436 C360 436 282 331 282 331 C282 331 219 433 219 433 C201 465 195 485 204 485 C204 485 207 485 207 485 C207 485 207 500 207 500 C207 500 178 500 178 500 C178 500 108 500 108 500 C108 500 38 500 38 500 C38 500 28 500 28 500 C28 500 28 485 28 485 C28 485 31 485 31 485 C41 485 63 459 87 420 C87 420 87 420 87 420 C87 420 203 231 203 231 C203 231 91 69 91 69 C66 36 43 15 30 15 C30 15 26 15 26 15 C26 15 26 0 26 0 C26 0 43 0 43 0 C43 0 62 0 62 0 C62 0 81 0 81 0 C81 0 120 0 120 0 C120 0 120 15 120 15 C120 15 115 15 115 15 C101 15 109 41 135 80 C135 80 135 80 135 80 C135 80 219 206 219 206 C219 206 303 69 303 69 C322 36 330 15 324 15 C324 15 322 15 322 15 C322 15 322 0 322 0 C322 0 345 0 345 0 C345 0 416 0 416 0 C416 0 486 0 486 0 C486 0 493 0 493 0 C493 0 493 15 493 15 C493 15 490 15 490 15 C482 15 461 41 437 80 C437 80 437 80 437 80 C437 80 294 311 294 311 C294 311 388 427 388 427 C417 462 444 485 455 485 C455 485 458 485 458 485 C458 485 458 500 458 500 L458 500 Z " />
<glyph glyph-name="y" unicode="y" horiz-adv-x="507" d="M508 500 C508 500 491 500 491 500 C491 500 472 500 472 500 C472 500 453 500 453 500 C453 500 429 500 429 500 C429 500 429 485 429 485 C429 485 432 485 432 485 C441 485 436 459 421 420 C421 420 421 420 421 420 C421 420 309 137 309 137 C309 137 187 420 187 420 C187 420 187 420 187 420 C170 459 165 485 174 485 C174 485 176 485 176 485 C176 485 176 500 176 500 C176 500 152 500 152 500 C152 500 87 500 87 500 C87 500 21 500 21 500 C21 500 4 500 4 500 C4 500 4 485 4 485 C4 485 7 485 7 485 C20 485 39 459 57 420 C57 420 57 420 57 420 C57 420 244 6 244 6 C244 6 213 -62 213 -62 C184 -128 159 -154 125 -154 C96 -154 65 -129 37 -129 C2 -129 -21 -148 -21 -178 C-21 -209 9 -230 54 -230 C141 -230 194 -186 243 -72 C243 -72 270 -10 270 -10 C270 -10 462 433 462 433 C477 465 493 485 505 485 C505 485 508 485 508 485 C508 485 508 500 508 500 L508 500 Z " />
<glyph glyph-name="z" unicode="z" horiz-adv-x="497" d="M210 473 C210 473 210 473 210 473 C210 473 293 474 293 474 C293 474 44 0 44 0 C44 0 112 0 112 0 C112 0 180 0 180 0 C180 0 333 0 333 0 C333 0 407 0 407 0 C407 0 413 0 413 0 C413 4 414 9 415 13 C418 30 422 54 425 71 C419 72 406 74 406 74 C383 44 332 26 272 26 C272 26 194 26 194 26 C194 26 440 500 440 500 C440 500 374 500 374 500 C374 500 307 500 307 500 C307 500 157 500 157 500 C157 500 108 500 108 500 C108 500 77 500 77 500 C76 496 75 490 74 487 C70 474 66 457 62 445 C62 445 74 445 74 445 C74 445 83 449 83 449 C111 463 162 473 210 473 L210 473 Z " />
<glyph glyph-name="braceleft" unicode="&#x7b;" horiz-adv-x="268" d="M246 -120 C246 -120 246 -101 246 -101 C246 -101 232 -101 232 -101 C186 -101 156 -54 156 16 C156 16 156 139 156 139 C156 208 123 258 69 270 C123 282 156 332 156 402 C156 402 156 524 156 524 C156 594 186 641 232 641 C232 641 246 641 246 641 C246 641 246 660 246 660 C246 660 206 660 206 660 C123 660 67 606 67 524 C67 524 67 338 67 338 C67 303 47 280 17 280 C17 280 12 280 12 280 C12 280 12 260 12 260 C12 260 17 260 17 260 C47 260 67 237 67 203 C67 203 67 16 67 16 C67 -66 123 -120 206 -120 C206 -120 246 -120 246 -120 L246 -120 Z " />
<glyph glyph-name="bar" unicode="&#x7c;" horiz-adv-x="223" d="M67 770 C67 770 67 -234 67 -234 C67 -234 156 -234 156 -234 C156 -234 156 770 156 770 C156 770 67 770 67 770 L67 770 Z " />
<glyph glyph-name="braceright" unicode="&#x7d;" horiz-adv-x="268" d="M12 660 C12 660 12 641 12 641 C12 641 26 641 26 641 C72 641 102 594 102 524 C102 524 102 401 102 401 C102 332 136 282 189 270 C136 258 102 208 102 138 C102 138 102 16 102 16 C102 -54 72 -101 26 -101 C26 -101 12 -101 12 -101 C12 -101 12 -120 12 -120 C12 -120 52 -120 52 -120 C135 -120 191 -66 191 16 C191 16 191 202 191 202 C191 237 211 260 241 260 C241 260 246 260 246 260 C246 260 246 280 246 280 C246 280 241 280 241 280 C211 280 191 303 191 337 C191 337 191 524 191 524 C191 606 135 660 52 660 C52 660 12 660 12 660 L12 660 Z " />
<glyph glyph-name="[namenotfound]" unicode="&#xa0;" horiz-adv-x="220" d="" />
<glyph glyph-name="exclamdown" unicode="&#xa1;" horiz-adv-x="279" d="M130 505 C82 505 50 473 50 425 C50 377 82 345 130 345 C178 345 210 377 210 425 C210 473 178 505 130 505 L130 505 Z M67 -83 C59 -132 88 -165 137 -165 C189 -165 217 -132 207 -83 C207 -83 137 270 137 270 C137 270 122 270 122 270 C122 270 67 -83 67 -83 L67 -83 Z " />
<glyph glyph-name="cent" unicode="&#xa2;" horiz-adv-x="535" d="M279 575 C279 575 279 503 279 503 C144 488 57 382 57 229 C57 89 142 -5 268 -5 C272 -5 275 -5 279 -5 C279 -5 279 -75 279 -75 C279 -75 317 -75 317 -75 C317 -75 317 3 317 3 C381 23 442 81 479 159 C479 159 464 167 464 167 C435 106 395 65 364 65 C347 65 332 67 317 70 C317 70 317 471 317 471 C346 464 367 439 370 404 C373 371 396 348 428 348 C458 348 479 368 479 399 C473 461 408 504 317 505 C317 505 317 575 317 575 C317 575 279 575 279 575 L279 575 Z M279 84 C217 116 179 184 179 273 C179 381 218 457 279 471 C279 471 279 84 279 84 L279 84 Z " />
<glyph glyph-name="guillemotleft" unicode="&#xab;" horiz-adv-x="467" d="M297 250 C297 250 413 454 413 454 C413 454 400 466 400 466 C400 466 184 256 184 256 C184 256 184 244 184 244 C184 244 403 34 403 34 C403 34 416 46 416 46 C416 46 297 250 297 250 L297 250 Z M139 250 C139 250 248 454 248 454 C248 454 236 466 236 466 C236 466 27 256 27 256 C27 256 27 244 27 244 C27 244 239 34 239 34 C239 34 251 46 251 46 C251 46 139 250 139 250 L139 250 Z " />
<glyph glyph-name="guillemotright" unicode="&#xbb;" horiz-adv-x="467" d="M171 250 C171 250 55 454 55 454 C55 454 68 466 68 466 C68 466 283 256 283 256 C283 256 283 244 283 244 C283 244 65 34 65 34 C65 34 52 46 52 46 C52 46 171 250 171 250 L171 250 Z M329 251 C329 251 220 454 220 454 C220 454 232 466 232 466 C232 466 441 256 441 256 C441 256 441 244 441 244 C441 244 229 34 229 34 C229 34 216 46 216 46 C216 46 329 251 329 251 L329 251 Z " />
<glyph glyph-name="questiondown" unicode="&#xbf;" horiz-adv-x="386" d="M240 505 C192 505 160 473 160 425 C160 377 192 345 240 345 C288 345 320 377 320 425 C320 473 288 505 240 505 L240 505 Z M261 123 C271 123 276 130 274 140 C274 140 248 265 248 265 C248 265 233 265 233 265 C233 265 222 210 222 210 C222 210 187 210 187 210 C65 210 42 129 42 84 C42 -65 130 -165 261 -165 C311 -165 344 -136 344 -92 C344 -62 324 -42 294 -42 C269 -42 250 -75 225 -75 C131 -75 68 -17 68 71 C68 90 93 123 226 123 C226 123 261 123 261 123 L261 123 Z " />
<glyph glyph-name="Agrave" unicode="&#xc0;" horiz-adv-x="684" d="M666 15 C666 15 662 15 662 15 C648 15 627 41 609 80 C609 80 609 80 609 80 C609 80 326 675 326 675 C326 675 285 675 285 675 C285 675 58 80 58 80 C58 80 57 80 57 80 C42 41 24 15 12 15 C12 15 9 15 9 15 C9 15 9 0 9 0 C9 0 27 0 27 0 C27 0 54 0 54 0 C54 0 81 0 81 0 C81 0 116 0 116 0 C116 0 116 15 116 15 C116 15 112 15 112 15 C97 15 98 47 116 95 C116 95 115 95 115 95 C115 95 164 230 164 230 C164 230 359 230 359 230 C359 230 434 69 434 69 C448 36 451 15 441 15 C441 15 438 15 438 15 C438 15 438 0 438 0 C438 0 466 0 466 0 C466 0 556 0 556 0 C556 0 647 0 647 0 C647 0 666 0 666 0 C666 0 666 15 666 15 L666 15 Z M317 859 C303 889 292 909 287 909 C267 909 221 875 221 861 C221 854 236 836 258 814 C258 814 377 690 377 690 C377 690 390 699 390 699 C390 699 317 859 317 859 L317 859 Z M340 270 C340 270 179 271 179 271 C179 271 250 465 250 465 C250 465 340 270 340 270 L340 270 Z " />
<glyph glyph-name="Aacute" unicode="&#xc1;" horiz-adv-x="684" d="M245 690 C245 690 361 814 361 814 C383 837 397 855 397 861 C397 875 351 909 331 909 C327 909 316 889 303 859 C303 859 232 699 232 699 C232 699 245 690 245 690 L245 690 Z M666 15 C666 15 662 15 662 15 C648 15 627 41 609 80 C609 80 609 80 609 80 C609 80 326 675 326 675 C326 675 285 675 285 675 C285 675 58 80 58 80 C58 80 57 80 57 80 C42 41 24 15 12 15 C12 15 9 15 9 15 C9 15 9 0 9 0 C9 0 27 0 27 0 C27 0 54 0 54 0 C54 0 81 0 81 0 C81 0 116 0 116 0 C116 0 116 15 116 15 C116 15 112 15 112 15 C97 15 98 47 116 95 C116 95 115 95 115 95 C115 95 164 230 164 230 C164 230 359 230 359 230 C359 230 434 69 434 69 C448 36 451 15 441 15 C441 15 438 15 438 15 C438 15 438 0 438 0 C438 0 466 0 466 0 C466 0 556 0 556 0 C556 0 647 0 647 0 C647 0 666 0 666 0 C666 0 666 15 666 15 L666 15 Z M340 270 C340 270 179 271 179 271 C179 271 250 465 250 465 C250 465 340 270 340 270 L340 270 Z " />
<glyph glyph-name="Acircumflex" unicode="&#xc2;" horiz-adv-x="684" d="M666 15 C666 15 662 15 662 15 C648 15 627 41 609 80 C609 80 609 80 609 80 C609 80 326 675 326 675 C326 675 285 675 285 675 C285 675 58 80 58 80 C58 80 57 80 57 80 C42 41 24 15 12 15 C12 15 9 15 9 15 C9 15 9 0 9 0 C9 0 27 0 27 0 C27 0 54 0 54 0 C54 0 81 0 81 0 C81 0 116 0 116 0 C116 0 116 15 116 15 C116 15 112 15 112 15 C97 15 98 47 116 95 C116 95 115 95 115 95 C115 95 164 230 164 230 C164 230 359 230 359 230 C359 230 434 69 434 69 C448 36 451 15 441 15 C441 15 438 15 438 15 C438 15 438 0 438 0 C438 0 466 0 466 0 C466 0 556 0 556 0 C556 0 647 0 647 0 C647 0 666 0 666 0 C666 0 666 15 666 15 L666 15 Z M306 800 C306 800 416 691 416 691 C416 691 428 701 428 701 C428 701 342 872 342 872 C337 881 324 904 306 904 C287 904 274 882 269 872 C269 872 184 701 184 701 C184 701 195 691 195 691 C195 691 306 800 306 800 L306 800 Z M340 270 C340 270 179 271 179 271 C179 271 250 465 250 465 C250 465 340 270 340 270 L340 270 Z " />
<glyph glyph-name="Atilde" unicode="&#xc3;" horiz-adv-x="684" d="M166 755 C166 789 182 811 205 811 C263 811 317 748 375 748 C428 748 464 803 464 885 C464 885 445 885 445 885 C445 849 427 825 400 825 C342 825 288 887 230 887 C180 887 147 834 147 755 C147 755 166 755 166 755 L166 755 Z M666 15 C666 15 662 15 662 15 C648 15 627 41 609 80 C609 80 609 80 609 80 C609 80 326 675 326 675 C326 675 285 675 285 675 C285 675 58 80 58 80 C58 80 57 80 57 80 C42 41 24 15 12 15 C12 15 9 15 9 15 C9 15 9 0 9 0 C9 0 27 0 27 0 C27 0 54 0 54 0 C54 0 81 0 81 0 C81 0 116 0 116 0 C116 0 116 15 116 15 C116 15 112 15 112 15 C97 15 98 47 116 95 C116 95 115 95 115 95 C115 95 164 230 164 230 C164 230 359 230 359 230 C359 230 434 69 434 69 C448 36 451 15 441 15 C441 15 438 15 438 15 C438 15 438 0 438 0 C438 0 466 0 466 0 C466 0 556 0 556 0 C556 0 647 0 647 0 C647 0 666 0 666 0 C666 0 666 15 666 15 L666 15 Z M340 270 C340 270 179 271 179 271 C179 271 250 465 250 465 C250 465 340 270 340 270 L340 270 Z " />
<glyph glyph-name="Adieresis" unicode="&#xc4;" horiz-adv-x="684" d="M406 730 C448 730 476 758 476 800 C476 843 448 871 406 871 C364 871 336 843 336 800 C336 758 364 730 406 730 L406 730 Z M205 730 C248 730 276 758 276 800 C276 843 248 871 205 871 C163 871 135 843 135 800 C135 758 163 730 205 730 L205 730 Z M666 15 C666 15 662 15 662 15 C648 15 627 41 609 80 C609 80 609 80 609 80 C609 80 326 675 326 675 C326 675 285 675 285 675 C285 675 58 80 58 80 C58 80 57 80 57 80 C42 41 24 15 12 15 C12 15 9 15 9 15 C9 15 9 0 9 0 C9 0 27 0 27 0 C27 0 54 0 54 0 C54 0 81 0 81 0 C81 0 116 0 116 0 C116 0 116 15 116 15 C116 15 112 15 112 15 C97 15 98 47 116 95 C116 95 115 95 115 95 C115 95 164 230 164 230 C164 230 359 230 359 230 C359 230 434 69 434 69 C448 36 451 15 441 15 C441 15 438 15 438 15 C438 15 438 0 438 0 C438 0 466 0 466 0 C466 0 556 0 556 0 C556 0 647 0 647 0 C647 0 666 0 666 0 C666 0 666 15 666 15 L666 15 Z M340 270 C340 270 179 271 179 271 C179 271 250 465 250 465 C250 465 340 270 340 270 L340 270 Z " />
<glyph glyph-name="Aring" unicode="&#xc5;" horiz-adv-x="684" d="M306 721 C271 721 242 752 242 788 C242 827 267 854 306 854 C344 854 370 827 370 788 C370 752 340 721 306 721 L306 721 Z M210 788 C210 738 254 695 306 695 C358 695 402 738 402 788 C402 843 363 880 306 880 C248 880 210 843 210 788 L210 788 Z M666 15 C666 15 662 15 662 15 C648 15 627 41 609 80 C609 80 609 80 609 80 C609 80 326 675 326 675 C326 675 285 675 285 675 C285 675 58 80 58 80 C58 80 57 80 57 80 C42 41 24 15 12 15 C12 15 9 15 9 15 C9 15 9 0 9 0 C9 0 27 0 27 0 C27 0 54 0 54 0 C54 0 81 0 81 0 C81 0 116 0 116 0 C116 0 116 15 116 15 C116 15 112 15 112 15 C97 15 98 47 116 95 C116 95 115 95 115 95 C115 95 164 230 164 230 C164 230 359 230 359 230 C359 230 434 69 434 69 C448 36 451 15 441 15 C441 15 438 15 438 15 C438 15 438 0 438 0 C438 0 466 0 466 0 C466 0 556 0 556 0 C556 0 647 0 647 0 C647 0 666 0 666 0 C666 0 666 15 666 15 L666 15 Z M340 270 C340 270 179 271 179 271 C179 271 250 465 250 465 C250 465 340 270 340 270 L340 270 Z " />
<glyph glyph-name="Ccedilla" unicode="&#xc7;" horiz-adv-x="781" d="M714 511 C714 511 714 574 714 574 C714 574 697 562 697 562 C697 562 697 562 697 562 C697 562 714 574 714 574 C678 629 572 665 450 665 C203 665 38 531 38 330 C38 129 203 -5 450 -5 C572 -5 678 31 714 86 C714 86 697 98 697 98 C697 98 697 98 697 98 C697 98 714 86 714 86 C714 86 714 149 714 149 C714 149 701 149 701 149 C698 144 692 138 688 132 C650 84 577 46 505 39 C505 39 505 39 505 39 C487 37 469 36 450 36 C312 36 220 154 220 330 C220 506 312 624 450 624 C485 624 518 621 548 615 C548 615 548 615 548 615 C599 605 655 570 688 528 C692 522 698 516 701 511 C701 511 714 511 714 511 L714 511 Z " />
<glyph glyph-name="Egrave" unicode="&#xc8;" horiz-adv-x="592" d="M457 304 C457 304 457 331 457 331 C457 331 457 352 457 352 C457 352 457 373 457 373 C457 373 457 397 457 397 C457 396 456 396 455 397 C449 396 445 396 445 397 C445 397 441 393 441 393 C430 381 388 373 337 373 C337 373 227 373 227 373 C227 373 227 619 227 619 C227 619 372 619 372 619 C439 619 490 602 516 576 C516 576 527 576 527 576 C527 576 527 639 527 639 C527 639 527 660 527 660 C527 660 512 660 512 660 C512 660 447 660 447 660 C447 660 227 660 227 660 C227 660 144 660 144 660 C144 660 61 660 61 660 C61 660 37 660 37 660 C37 660 37 645 37 645 C37 645 41 645 41 645 C53 645 61 619 61 580 C61 580 61 80 61 80 C61 41 53 15 41 15 C41 15 37 15 37 15 C37 15 37 0 37 0 C37 0 61 0 61 0 C61 0 144 0 144 0 C144 0 227 0 227 0 C227 0 445 0 445 0 C445 0 522 0 522 0 C522 0 525 0 525 0 C526 6 527 14 528 21 C532 40 536 65 540 84 C540 85 539 85 538 84 C533 85 529 85 529 84 C529 84 521 78 521 78 C495 56 437 42 377 41 C377 41 227 41 227 41 C227 41 227 331 227 331 C227 331 337 331 337 331 C388 331 430 322 441 308 C441 308 445 304 445 304 C445 304 457 304 457 304 L457 304 Z M282 859 C268 889 257 909 252 909 C233 909 187 875 187 861 C187 854 201 836 223 814 C223 814 343 690 343 690 C343 690 356 699 356 699 C356 699 282 859 282 859 L282 859 Z " />
<glyph glyph-name="Eacute" unicode="&#xc9;" horiz-adv-x="592" d="M256 690 C256 690 373 814 373 814 C394 837 409 855 408 861 C408 875 362 909 343 909 C338 909 328 889 314 859 C314 859 244 699 244 699 C244 699 256 690 256 690 L256 690 Z M457 304 C457 304 457 331 457 331 C457 331 457 352 457 352 C457 352 457 373 457 373 C457 373 457 397 457 397 C457 396 456 396 455 397 C449 396 445 396 445 397 C445 397 441 393 441 393 C430 381 388 373 337 373 C337 373 227 373 227 373 C227 373 227 619 227 619 C227 619 372 619 372 619 C439 619 490 602 516 576 C516 576 527 576 527 576 C527 576 527 639 527 639 C527 639 527 660 527 660 C527 660 512 660 512 660 C512 660 447 660 447 660 C447 660 227 660 227 660 C227 660 144 660 144 660 C144 660 61 660 61 660 C61 660 37 660 37 660 C37 660 37 645 37 645 C37 645 41 645 41 645 C53 645 61 619 61 580 C61 580 61 80 61 80 C61 41 53 15 41 15 C41 15 37 15 37 15 C37 15 37 0 37 0 C37 0 61 0 61 0 C61 0 144 0 144 0 C144 0 227 0 227 0 C227 0 445 0 445 0 C445 0 522 0 522 0 C522 0 525 0 525 0 C526 6 527 14 528 21 C532 40 536 65 540 84 C540 85 539 85 538 84 C533 85 529 85 529 84 C529 84 521 78 521 78 C495 56 437 42 377 41 C377 41 227 41 227 41 C227 41 227 331 227 331 C227 331 337 331 337 331 C388 331 430 322 441 308 C441 308 445 304 445 304 C445 304 457 304 457 304 L457 304 Z " />
<glyph glyph-name="Ecircumflex" unicode="&#xca;" horiz-adv-x="592" d="M457 304 C457 304 457 331 457 331 C457 331 457 352 457 352 C457 352 457 373 457 373 C457 373 457 397 457 397 C457 396 456 396 455 397 C449 396 445 396 445 397 C445 397 441 393 441 393 C430 381 388 373 337 373 C337 373 227 373 227 373 C227 373 227 619 227 619 C227 619 372 619 372 619 C439 619 490 602 516 576 C516 576 527 576 527 576 C527 576 527 639 527 639 C527 639 527 660 527 660 C527 660 512 660 512 660 C512 660 447 660 447 660 C447 660 227 660 227 660 C227 660 144 660 144 660 C144 660 61 660 61 660 C61 660 37 660 37 660 C37 660 37 645 37 645 C37 645 41 645 41 645 C53 645 61 619 61 580 C61 580 61 80 61 80 C61 41 53 15 41 15 C41 15 37 15 37 15 C37 15 37 0 37 0 C37 0 61 0 61 0 C61 0 144 0 144 0 C144 0 227 0 227 0 C227 0 445 0 445 0 C445 0 522 0 522 0 C522 0 525 0 525 0 C526 6 527 14 528 21 C532 40 536 65 540 84 C540 85 539 85 538 84 C533 85 529 85 529 84 C529 84 521 78 521 78 C495 56 437 42 377 41 C377 41 227 41 227 41 C227 41 227 331 227 331 C227 331 337 331 337 331 C388 331 430 322 441 308 C441 308 445 304 445 304 C445 304 457 304 457 304 L457 304 Z M287 800 C287 800 397 691 397 691 C397 691 409 701 409 701 C409 701 323 872 323 872 C318 881 305 904 287 904 C268 904 255 882 250 872 C250 872 165 701 165 701 C165 701 176 691 176 691 C176 691 287 800 287 800 L287 800 Z " />
<glyph glyph-name="Edieresis" unicode="&#xcb;" horiz-adv-x="592" d="M387 730 C429 730 457 758 457 800 C457 843 429 871 387 871 C345 871 317 843 317 800 C317 758 345 730 387 730 L387 730 Z M186 730 C229 730 257 758 257 800 C257 843 229 871 186 871 C144 871 116 843 116 800 C116 758 144 730 186 730 L186 730 Z M457 304 C457 304 457 331 457 331 C457 331 457 352 457 352 C457 352 457 373 457 373 C457 373 457 397 457 397 C457 396 456 396 455 397 C449 396 445 396 445 397 C445 397 441 393 441 393 C430 381 388 373 337 373 C337 373 227 373 227 373 C227 373 227 619 227 619 C227 619 372 619 372 619 C439 619 490 602 516 576 C516 576 527 576 527 576 C527 576 527 639 527 639 C527 639 527 660 527 660 C527 660 512 660 512 660 C512 660 447 660 447 660 C447 660 227 660 227 660 C227 660 144 660 144 660 C144 660 61 660 61 660 C61 660 37 660 37 660 C37 660 37 645 37 645 C37 645 41 645 41 645 C53 645 61 619 61 580 C61 580 61 80 61 80 C61 41 53 15 41 15 C41 15 37 15 37 15 C37 15 37 0 37 0 C37 0 61 0 61 0 C61 0 144 0 144 0 C144 0 227 0 227 0 C227 0 445 0 445 0 C445 0 522 0 522 0 C522 0 525 0 525 0 C526 6 527 14 528 21 C532 40 536 65 540 84 C540 85 539 85 538 84 C533 85 529 85 529 84 C529 84 521 78 521 78 C495 56 437 42 377 41 C377 41 227 41 227 41 C227 41 227 331 227 331 C227 331 337 331 337 331 C388 331 430 322 441 308 C441 308 445 304 445 304 C445 304 457 304 457 304 L457 304 Z " />
<glyph glyph-name="Igrave" unicode="&#xcc;" horiz-adv-x="288" d="M241 660 C241 660 217 660 217 660 C217 660 135 660 135 660 C135 660 52 660 52 660 C52 660 28 660 28 660 C28 660 28 645 28 645 C28 645 32 645 32 645 C44 645 52 619 52 580 C52 580 52 80 52 80 C52 41 44 15 32 15 C32 15 28 15 28 15 C28 15 28 0 28 0 C28 0 52 0 52 0 C52 0 135 0 135 0 C135 0 217 0 217 0 C217 0 241 0 241 0 C241 0 241 15 241 15 C241 15 238 15 238 15 C226 15 218 41 217 80 C217 80 217 580 217 580 C218 619 226 645 238 645 C238 645 241 645 241 645 C241 645 241 660 241 660 L241 660 Z M146 859 C132 889 121 909 116 909 C96 909 50 875 50 861 C50 854 65 836 87 814 C87 814 206 690 206 690 C206 690 219 699 219 699 C219 699 146 859 146 859 L146 859 Z " />
<glyph glyph-name="Iacute" unicode="&#xcd;" horiz-adv-x="288" d="M74 690 C74 690 191 814 191 814 C212 837 226 855 226 861 C226 875 180 909 160 909 C156 909 145 889 132 859 C132 859 61 699 61 699 C61 699 74 690 74 690 L74 690 Z M241 660 C241 660 217 660 217 660 C217 660 135 660 135 660 C135 660 52 660 52 660 C52 660 28 660 28 660 C28 660 28 645 28 645 C28 645 32 645 32 645 C44 645 52 619 52 580 C52 580 52 80 52 80 C52 41 44 15 32 15 C32 15 28 15 28 15 C28 15 28 0 28 0 C28 0 52 0 52 0 C52 0 135 0 135 0 C135 0 217 0 217 0 C217 0 241 0 241 0 C241 0 241 15 241 15 C241 15 238 15 238 15 C226 15 218 41 217 80 C217 80 217 580 217 580 C218 619 226 645 238 645 C238 645 241 645 241 645 C241 645 241 660 241 660 L241 660 Z " />
<glyph glyph-name="Icircumflex" unicode="&#xce;" horiz-adv-x="288" d="M241 660 C241 660 217 660 217 660 C217 660 135 660 135 660 C135 660 52 660 52 660 C52 660 28 660 28 660 C28 660 28 645 28 645 C28 645 32 645 32 645 C44 645 52 619 52 580 C52 580 52 80 52 80 C52 41 44 15 32 15 C32 15 28 15 28 15 C28 15 28 0 28 0 C28 0 52 0 52 0 C52 0 135 0 135 0 C135 0 217 0 217 0 C217 0 241 0 241 0 C241 0 241 15 241 15 C241 15 238 15 238 15 C226 15 218 41 217 80 C217 80 217 580 217 580 C218 619 226 645 238 645 C238 645 241 645 241 645 C241 645 241 660 241 660 L241 660 Z M135 800 C135 800 245 691 245 691 C245 691 257 701 257 701 C257 701 171 872 171 872 C166 881 153 904 135 904 C116 904 103 882 98 872 C98 872 13 701 13 701 C13 701 24 691 24 691 C24 691 135 800 135 800 L135 800 Z " />
<glyph glyph-name="Idieresis" unicode="&#xcf;" horiz-adv-x="288" d="M235 730 C277 730 305 758 305 800 C305 843 277 871 235 871 C193 871 165 843 165 800 C165 758 193 730 235 730 L235 730 Z M34 730 C77 730 105 758 105 800 C105 843 77 871 34 871 C-8 871 -36 843 -36 800 C-36 758 -8 730 34 730 L34 730 Z M241 660 C241 660 217 660 217 660 C217 660 135 660 135 660 C135 660 52 660 52 660 C52 660 28 660 28 660 C28 660 28 645 28 645 C28 645 32 645 32 645 C44 645 52 619 52 580 C52 580 52 80 52 80 C52 41 44 15 32 15 C32 15 28 15 28 15 C28 15 28 0 28 0 C28 0 52 0 52 0 C52 0 135 0 135 0 C135 0 217 0 217 0 C217 0 241 0 241 0 C241 0 241 15 241 15 C241 15 238 15 238 15 C226 15 218 41 217 80 C217 80 217 580 217 580 C218 619 226 645 238 645 C238 645 241 645 241 645 C241 645 241 660 241 660 L241 660 Z " />
<glyph glyph-name="Ntilde" unicode="&#xd1;" horiz-adv-x="639" d="M181 755 C181 789 197 811 220 811 C278 811 332 748 390 748 C443 748 479 803 479 885 C479 885 460 885 460 885 C460 849 442 825 414 825 C357 825 303 887 245 887 C195 887 162 834 162 755 C162 755 181 755 181 755 L181 755 Z M599 660 C599 660 575 660 575 660 C575 660 551 660 551 660 C551 660 526 660 526 660 C526 660 502 660 502 660 C502 660 502 645 502 645 C502 645 506 645 506 645 C518 645 526 619 526 580 C526 580 526 201 526 201 C526 201 226 660 226 660 C226 660 115 660 115 660 C115 660 90 660 90 660 C90 660 65 660 65 660 C65 660 42 660 42 660 C42 660 42 645 42 645 C42 645 45 645 45 645 C57 645 65 619 65 580 C65 580 65 80 65 80 C65 41 57 15 45 15 C45 15 42 15 42 15 C42 15 42 0 42 0 C42 0 65 0 65 0 C65 0 90 0 90 0 C90 0 115 0 115 0 C115 0 139 0 139 0 C139 0 139 15 139 15 C139 15 135 15 135 15 C123 15 115 41 115 80 C115 80 115 531 115 531 C115 531 450 23 450 23 C450 23 479 -20 479 -20 C479 -20 575 -20 575 -20 C575 -20 575 84 575 84 C575 84 575 580 575 580 C576 619 584 645 596 645 C596 645 599 645 599 645 C599 645 599 660 599 660 L599 660 Z " />
<glyph glyph-name="Ograve" unicode="&#xd2;" horiz-adv-x="772" d="M377 36 C273 36 220 171 220 330 C220 489 273 624 377 624 C481 624 534 489 534 330 C534 171 481 36 377 36 L377 36 Z M38 330 C38 149 153 -5 377 -5 C601 -5 716 149 716 330 C716 511 601 665 377 665 C153 665 38 511 38 330 L38 330 Z M388 859 C375 889 364 909 359 909 C339 909 293 875 293 861 C293 854 308 836 330 814 C330 814 449 690 449 690 C449 690 462 699 462 699 C462 699 388 859 388 859 L388 859 Z " />
<glyph glyph-name="Oacute" unicode="&#xd3;" horiz-adv-x="772" d="M355 690 C355 690 471 814 471 814 C492 837 506 855 507 861 C506 875 460 909 441 909 C437 909 426 889 412 859 C412 859 342 699 342 699 C342 699 355 690 355 690 L355 690 Z M377 36 C273 36 220 171 220 330 C220 489 273 624 377 624 C481 624 534 489 534 330 C534 171 481 36 377 36 L377 36 Z M38 330 C38 149 153 -5 377 -5 C601 -5 716 149 716 330 C716 511 601 665 377 665 C153 665 38 511 38 330 L38 330 Z " />
<glyph glyph-name="Ocircumflex" unicode="&#xd4;" horiz-adv-x="772" d="M377 36 C273 36 220 171 220 330 C220 489 273 624 377 624 C481 624 534 489 534 330 C534 171 481 36 377 36 L377 36 Z M38 330 C38 149 153 -5 377 -5 C601 -5 716 149 716 330 C716 511 601 665 377 665 C153 665 38 511 38 330 L38 330 Z M377 799 C377 799 487 691 487 691 C487 691 499 701 499 701 C499 701 414 872 414 872 C409 881 396 904 377 904 C359 904 346 882 341 872 C341 872 255 701 255 701 C255 701 267 691 267 691 C267 691 377 799 377 799 L377 799 Z " />
<glyph glyph-name="Otilde" unicode="&#xd5;" horiz-adv-x="772" d="M238 755 C238 789 254 811 277 811 C335 811 389 748 446 748 C500 748 536 803 536 885 C536 885 516 885 516 885 C516 849 498 825 471 825 C413 825 360 887 302 887 C252 887 219 834 219 755 C219 755 238 755 238 755 L238 755 Z M377 36 C273 36 220 171 220 330 C220 489 273 624 377 624 C481 624 534 489 534 330 C534 171 481 36 377 36 L377 36 Z M38 330 C38 149 153 -5 377 -5 C601 -5 716 149 716 330 C716 511 601 665 377 665 C153 665 38 511 38 330 L38 330 Z " />
<glyph glyph-name="Odieresis" unicode="&#xd6;" horiz-adv-x="772" d="M477 730 C520 730 548 758 548 800 C548 843 520 871 477 871 C435 871 407 843 407 800 C407 758 435 730 477 730 L477 730 Z M277 730 C319 730 347 758 347 800 C347 843 319 871 277 871 C235 871 207 843 207 800 C207 758 235 730 277 730 L277 730 Z M377 36 C273 36 220 171 220 330 C220 489 273 624 377 624 C481 624 534 489 534 330 C534 171 481 36 377 36 L377 36 Z M38 330 C38 149 153 -5 377 -5 C601 -5 716 149 716 330 C716 511 601 665 377 665 C153 665 38 511 38 330 L38 330 Z " />
<glyph glyph-name="Oslash" unicode="&#xd8;" horiz-adv-x="772" d="M65 -31 C65 -31 159 62 159 62 C214 20 286 -5 377 -5 C601 -5 716 149 716 330 C716 411 693 487 647 545 C647 545 742 639 742 639 C742 639 690 691 690 691 C690 691 595 597 595 597 C541 640 468 665 377 665 C153 665 38 511 38 330 C38 249 61 173 107 115 C107 115 12 21 12 21 C12 21 65 -31 65 -31 L65 -31 Z M377 36 C317 36 274 81 248 150 C248 150 527 426 527 426 C532 396 534 363 534 330 C534 171 481 36 377 36 C377 36 377 36 377 36 L377 36 Z M227 234 C222 264 220 296 220 330 C220 489 273 624 377 624 C437 624 481 579 506 509 C506 509 227 234 227 234 L227 234 Z " />
<glyph glyph-name="Ugrave" unicode="&#xd9;" horiz-adv-x="635" d="M609 660 C609 660 581 660 581 660 C581 660 562 660 562 660 C562 660 543 660 543 660 C543 660 515 660 515 660 C515 660 515 645 515 645 C515 645 519 645 519 645 C533 645 543 615 543 570 C543 570 543 202 543 202 C543 113 487 53 343 53 C247 53 210 107 210 187 C210 187 210 580 210 580 C210 619 218 645 230 645 C230 645 234 645 234 645 C234 645 234 660 234 660 C234 660 210 660 210 660 C210 660 127 660 127 660 C127 660 44 660 44 660 C44 660 21 660 21 660 C21 660 21 645 21 645 C21 645 24 645 24 645 C36 645 44 619 44 580 C44 580 44 219 44 219 C44 85 121 -5 318 -5 C507 -5 581 73 581 189 C581 189 581 570 581 570 C582 615 591 645 604 645 C604 645 609 645 609 645 C609 645 609 660 609 660 L609 660 Z M324 859 C311 889 300 909 294 909 C275 909 229 875 229 861 C229 854 244 836 265 814 C265 814 385 690 385 690 C385 690 398 699 398 699 C398 699 324 859 324 859 L324 859 Z " />
<glyph glyph-name="Uacute" unicode="&#xda;" horiz-adv-x="635" d="M313 690 C313 690 430 814 430 814 C451 837 465 855 465 861 C465 875 419 909 399 909 C395 909 384 889 371 859 C371 859 300 699 300 699 C300 699 313 690 313 690 L313 690 Z M609 660 C609 660 581 660 581 660 C581 660 562 660 562 660 C562 660 543 660 543 660 C543 660 515 660 515 660 C515 660 515 645 515 645 C515 645 519 645 519 645 C533 645 543 615 543 570 C543 570 543 202 543 202 C543 113 487 53 343 53 C247 53 210 107 210 187 C210 187 210 580 210 580 C210 619 218 645 230 645 C230 645 234 645 234 645 C234 645 234 660 234 660 C234 660 210 660 210 660 C210 660 127 660 127 660 C127 660 44 660 44 660 C44 660 21 660 21 660 C21 660 21 645 21 645 C21 645 24 645 24 645 C36 645 44 619 44 580 C44 580 44 219 44 219 C44 85 121 -5 318 -5 C507 -5 581 73 581 189 C581 189 581 570 581 570 C582 615 591 645 604 645 C604 645 609 645 609 645 C609 645 609 660 609 660 L609 660 Z " />
<glyph glyph-name="Ucircumflex" unicode="&#xdb;" horiz-adv-x="635" d="M609 660 C609 660 581 660 581 660 C581 660 562 660 562 660 C562 660 543 660 543 660 C543 660 515 660 515 660 C515 660 515 645 515 645 C515 645 519 645 519 645 C533 645 543 615 543 570 C543 570 543 202 543 202 C543 113 487 53 343 53 C247 53 210 107 210 187 C210 187 210 580 210 580 C210 619 218 645 230 645 C230 645 234 645 234 645 C234 645 234 660 234 660 C234 660 210 660 210 660 C210 660 127 660 127 660 C127 660 44 660 44 660 C44 660 21 660 21 660 C21 660 21 645 21 645 C21 645 24 645 24 645 C36 645 44 619 44 580 C44 580 44 219 44 219 C44 85 121 -5 318 -5 C507 -5 581 73 581 189 C581 189 581 570 581 570 C582 615 591 645 604 645 C604 645 609 645 609 645 C609 645 609 660 609 660 L609 660 Z M313 799 C313 799 423 691 423 691 C423 691 435 701 435 701 C435 701 350 872 350 872 C345 881 331 904 313 904 C294 904 281 882 277 872 C277 872 191 701 191 701 C191 701 203 691 203 691 C203 691 313 799 313 799 L313 799 Z " />
<glyph glyph-name="Udieresis" unicode="&#xdc;" horiz-adv-x="635" d="M413 730 C456 730 484 758 484 800 C484 843 456 871 413 871 C371 871 343 843 343 800 C343 758 371 730 413 730 L413 730 Z M213 730 C255 730 283 758 283 800 C283 843 255 871 213 871 C170 871 142 843 142 800 C142 758 170 730 213 730 L213 730 Z M609 660 C609 660 581 660 581 660 C581 660 562 660 562 660 C562 660 543 660 543 660 C543 660 515 660 515 660 C515 660 515 645 515 645 C515 645 519 645 519 645 C533 645 543 615 543 570 C543 570 543 202 543 202 C543 113 487 53 343 53 C247 53 210 107 210 187 C210 187 210 580 210 580 C210 619 218 645 230 645 C230 645 234 645 234 645 C234 645 234 660 234 660 C234 660 210 660 210 660 C210 660 127 660 127 660 C127 660 44 660 44 660 C44 660 21 660 21 660 C21 660 21 645 21 645 C21 645 24 645 24 645 C36 645 44 619 44 580 C44 580 44 219 44 219 C44 85 121 -5 318 -5 C507 -5 581 73 581 189 C581 189 581 570 581 570 C582 615 591 645 604 645 C604 645 609 645 609 645 C609 645 609 660 609 660 L609 660 Z " />
<glyph glyph-name="Yacute" unicode="&#xdd;" horiz-adv-x="654" d="M319 690 C319 690 436 814 436 814 C457 837 471 855 471 861 C471 875 425 909 406 909 C402 909 391 889 377 859 C377 859 307 699 307 699 C307 699 319 690 319 690 L319 690 Z M426 15 C426 15 422 15 422 15 C410 15 402 41 402 80 C402 80 402 358 402 358 C402 358 578 594 578 594 C603 625 624 645 633 645 C633 645 636 645 636 645 C636 645 636 660 636 660 C636 660 627 660 627 660 C627 660 608 660 608 660 C608 660 588 660 588 660 C588 660 553 660 553 660 C554 660 554 657 553 653 C554 648 554 645 553 645 C553 645 557 645 557 645 C570 645 553 611 515 560 C515 560 515 560 515 560 C515 560 368 359 368 359 C368 359 360 359 360 359 C360 359 250 580 250 580 C250 580 250 580 250 580 C230 619 225 645 236 645 C236 645 239 645 239 645 C239 645 239 660 239 660 C239 660 210 660 210 660 C210 660 111 660 111 660 C111 660 12 660 12 660 C12 660 3 660 3 660 C3 660 3 645 3 645 C3 645 6 645 6 645 C15 645 37 619 62 580 C62 580 62 580 62 580 C62 580 236 302 236 302 C236 302 236 80 236 80 C236 41 228 15 216 15 C216 15 213 15 213 15 C213 15 213 0 213 0 C213 0 236 0 236 0 C236 0 319 0 319 0 C319 0 402 0 402 0 C402 0 426 0 426 0 C426 0 426 15 426 15 L426 15 Z " />
<glyph glyph-name="agrave" unicode="&#xe0;" horiz-adv-x="602" d="M510 46 C490 71 486 81 486 141 C486 141 486 500 486 500 C486 500 454 500 454 500 C454 500 398 396 398 396 C383 461 337 505 276 505 C147 505 61 391 61 219 C61 85 129 -5 232 -5 C296 -5 346 29 371 86 C371 86 371 0 371 0 C371 0 371 -5 371 -5 C371 -5 390 -5 390 -5 C390 -5 472 25 472 25 C472 25 510 37 510 37 C510 37 510 46 510 46 L510 46 Z M243 699 C230 729 219 749 214 749 C194 749 148 715 148 701 C148 694 163 676 184 654 C184 654 304 530 304 530 C304 530 317 539 317 539 C317 539 243 699 243 699 L243 699 Z M371 134 C359 91 332 65 295 65 C227 65 181 144 181 263 C181 390 217 474 271 474 C331 474 371 420 371 347 C371 347 371 134 371 134 L371 134 Z " />
<glyph glyph-name="aacute" unicode="&#xe1;" horiz-adv-x="525" d="M206 530 C206 530 323 654 323 654 C344 677 359 695 358 701 C358 715 313 749 293 749 C288 749 278 729 264 699 C264 699 194 539 194 539 C194 539 206 530 206 530 L206 530 Z M497 64 C489 52 477 45 451 45 C421 45 412 72 412 112 C412 112 412 352 412 352 C412 444 356 505 272 505 C107 505 23 435 62 329 C62 329 177 329 177 329 C145 415 173 473 246 473 C272 473 290 435 290 378 C290 378 290 262 290 262 C290 262 224 252 224 252 C115 235 43 176 43 105 C43 39 90 -5 161 -5 C213 -5 262 11 299 37 C310 8 332 -10 373 -10 C449 -10 487 13 510 48 C510 48 497 64 497 64 L497 64 Z M290 232 C290 232 290 100 290 100 C290 93 290 86 291 80 C270 75 246 72 219 72 C182 72 157 98 157 138 C157 175 184 206 224 216 C224 216 290 232 290 232 L290 232 Z " />
<glyph glyph-name="acircumflex" unicode="&#xe2;" horiz-adv-x="602" d="M510 46 C490 71 486 81 486 141 C486 141 486 500 486 500 C486 500 454 500 454 500 C454 500 398 396 398 396 C383 461 337 505 276 505 C147 505 61 391 61 219 C61 85 129 -5 232 -5 C296 -5 346 29 371 86 C371 86 371 0 371 0 C371 0 371 -5 371 -5 C371 -5 390 -5 390 -5 C390 -5 472 25 472 25 C472 25 510 37 510 37 C510 37 510 46 510 46 L510 46 Z M232 639 C232 639 342 531 342 531 C342 531 354 541 354 541 C354 541 269 712 269 712 C264 721 251 744 232 744 C214 744 201 722 196 712 C196 712 110 541 110 541 C110 541 122 531 122 531 C122 531 232 639 232 639 L232 639 Z M371 134 C359 91 332 65 295 65 C227 65 181 144 181 263 C181 390 217 474 271 474 C331 474 371 420 371 347 C371 347 371 134 371 134 L371 134 Z " />
<glyph glyph-name="atilde" unicode="&#xe3;" horiz-adv-x="602" d="M93 595 C93 629 109 651 132 651 C190 651 244 588 301 588 C355 588 391 643 391 725 C391 725 371 725 371 725 C371 689 353 665 326 665 C268 665 215 727 157 727 C107 727 74 674 74 595 C74 595 93 595 93 595 L93 595 Z M510 46 C490 71 486 81 486 141 C486 141 486 500 486 500 C486 500 454 500 454 500 C454 500 398 396 398 396 C383 461 337 505 276 505 C147 505 61 391 61 219 C61 85 129 -5 232 -5 C296 -5 346 29 371 86 C371 86 371 0 371 0 C371 0 371 -5 371 -5 C371 -5 390 -5 390 -5 C390 -5 472 25 472 25 C472 25 510 37 510 37 C510 37 510 46 510 46 L510 46 Z M371 134 C359 91 332 65 295 65 C227 65 181 144 181 263 C181 390 217 474 271 474 C331 474 371 420 371 347 C371 347 371 134 371 134 L371 134 Z " />
<glyph glyph-name="adieresis" unicode="&#xe4;" horiz-adv-x="602" d="M332 570 C375 570 403 598 403 640 C403 683 375 711 332 711 C290 711 262 683 262 640 C262 598 290 570 332 570 L332 570 Z M132 570 C174 570 202 598 202 640 C202 683 174 711 132 711 C90 711 62 683 62 640 C62 598 90 570 132 570 L132 570 Z M510 46 C490 71 486 81 486 141 C486 141 486 500 486 500 C486 500 454 500 454 500 C454 500 398 396 398 396 C383 461 337 505 276 505 C147 505 61 391 61 219 C61 85 129 -5 232 -5 C296 -5 346 29 371 86 C371 86 371 0 371 0 C371 0 371 -5 371 -5 C371 -5 390 -5 390 -5 C390 -5 472 25 472 25 C472 25 510 37 510 37 C510 37 510 46 510 46 L510 46 Z M371 134 C359 91 332 65 295 65 C227 65 181 144 181 263 C181 390 217 474 271 474 C331 474 371 420 371 347 C371 347 371 134 371 134 L371 134 Z " />
<glyph glyph-name="aring" unicode="&#xe5;" horiz-adv-x="602" d="M232 561 C198 561 168 592 168 628 C168 667 194 694 232 694 C270 694 296 667 296 628 C296 592 267 561 232 561 L232 561 Z M136 628 C136 578 180 535 232 535 C284 535 328 578 328 628 C328 683 290 720 232 720 C174 720 136 683 136 628 L136 628 Z M510 46 C490 71 486 81 486 141 C486 141 486 500 486 500 C486 500 454 500 454 500 C454 500 398 396 398 396 C383 461 337 505 276 505 C147 505 61 391 61 219 C61 85 129 -5 232 -5 C296 -5 346 29 371 86 C371 86 371 0 371 0 C371 0 371 -5 371 -5 C371 -5 390 -5 390 -5 C390 -5 472 25 472 25 C472 25 510 37 510 37 C510 37 510 46 510 46 L510 46 Z M371 134 C359 91 332 65 295 65 C227 65 181 144 181 263 C181 390 217 474 271 474 C331 474 371 420 371 347 C371 347 371 134 371 134 L371 134 Z " />
<glyph glyph-name="ccedilla" unicode="&#xe7;" horiz-adv-x="535" d="M479 159 C479 159 464 167 464 167 C435 106 395 65 364 65 C253 65 179 148 179 273 C179 393 227 473 300 473 C338 473 366 446 370 404 C373 371 396 348 428 348 C458 348 479 368 479 399 C473 462 406 505 313 505 C159 505 57 395 57 229 C57 89 142 -5 268 -5 C348 -5 432 61 479 159 L479 159 Z " />
<glyph glyph-name="egrave" unicode="&#xe8;" horiz-adv-x="541" d="M485 159 C485 159 471 167 471 167 C441 106 400 65 368 65 C254 65 179 148 179 273 C179 282 179 291 180 300 C180 300 376 300 376 300 C376 300 485 300 485 300 C485 423 408 505 292 505 C151 505 57 395 57 229 C57 89 143 -5 271 -5 C353 -5 438 61 485 159 L485 159 Z M303 699 C290 729 279 749 273 749 C254 749 208 715 208 701 C208 694 223 676 244 654 C244 654 364 530 364 530 C364 530 377 539 377 539 C377 539 303 699 303 699 L303 699 Z M182 321 C192 414 231 473 286 473 C340 473 377 442 377 396 C377 396 377 395 377 395 C376 365 356 342 326 337 C326 337 182 321 182 321 L182 321 Z " />
<glyph glyph-name="eacute" unicode="&#xe9;" horiz-adv-x="541" d="M262 530 C262 530 378 654 378 654 C399 677 414 695 414 701 C414 715 368 749 348 749 C343 749 333 729 320 699 C320 699 249 539 249 539 C249 539 262 530 262 530 L262 530 Z M485 159 C485 159 471 167 471 167 C441 106 400 65 368 65 C254 65 179 148 179 273 C179 282 179 291 180 300 C180 300 376 300 376 300 C376 300 485 300 485 300 C485 423 408 505 292 505 C151 505 57 395 57 229 C57 89 143 -5 271 -5 C353 -5 438 61 485 159 L485 159 Z M182 321 C192 414 231 473 286 473 C340 473 377 442 377 396 C377 396 377 395 377 395 C376 365 356 342 326 337 C326 337 182 321 182 321 L182 321 Z " />
<glyph glyph-name="ecircumflex" unicode="&#xea;" horiz-adv-x="541" d="M485 159 C485 159 471 167 471 167 C441 106 400 65 368 65 C254 65 179 148 179 273 C179 282 179 291 180 300 C180 300 376 300 376 300 C376 300 485 300 485 300 C485 423 408 505 292 505 C151 505 57 395 57 229 C57 89 143 -5 271 -5 C353 -5 438 61 485 159 L485 159 Z M292 639 C292 639 402 531 402 531 C402 531 414 541 414 541 C414 541 329 712 329 712 C324 721 310 744 292 744 C273 744 260 722 255 712 C255 712 170 541 170 541 C170 541 182 531 182 531 C182 531 292 639 292 639 L292 639 Z M182 321 C192 414 231 473 286 473 C340 473 377 442 377 396 C377 396 377 395 377 395 C376 365 356 342 326 337 C326 337 182 321 182 321 L182 321 Z " />
<glyph glyph-name="edieresis" unicode="&#xeb;" horiz-adv-x="541" d="M392 570 C434 570 462 598 462 640 C462 683 434 711 392 711 C350 711 322 683 322 640 C322 598 350 570 392 570 L392 570 Z M192 570 C234 570 262 598 262 640 C262 683 234 711 192 711 C149 711 121 683 121 640 C121 598 149 570 192 570 L192 570 Z M485 159 C485 159 471 167 471 167 C441 106 400 65 368 65 C254 65 179 148 179 273 C179 282 179 291 180 300 C180 300 376 300 376 300 C376 300 485 300 485 300 C485 423 408 505 292 505 C151 505 57 395 57 229 C57 89 143 -5 271 -5 C353 -5 438 61 485 159 L485 159 Z M182 321 C192 414 231 473 286 473 C340 473 377 442 377 396 C377 396 377 395 377 395 C376 365 356 342 326 337 C326 337 182 321 182 321 L182 321 Z " />
<glyph glyph-name="igrave" unicode="&#xec;" horiz-adv-x="266" d="M191 0 C191 0 215 0 215 0 C215 0 215 15 215 15 C215 15 210 15 210 15 C199 15 191 13 191 0 C191 0 191 420 191 420 C191 420 191 505 191 505 C191 505 184 505 184 505 C184 505 56 466 56 466 C56 466 56 456 56 456 C56 456 70 434 70 434 C74 428 76 419 76 387 C76 387 76 0 76 0 C76 0 52 0 52 0 C52 0 52 15 52 15 C52 15 57 15 57 15 C68 15 76 13 76 0 C76 0 191 0 191 0 L191 0 Z M144 699 C131 729 120 749 115 749 C95 749 49 715 49 701 C49 694 64 676 86 654 C86 654 205 530 205 530 C205 530 218 539 218 539 C218 539 144 699 144 699 L144 699 Z " />
<glyph glyph-name="iacute" unicode="&#xed;" horiz-adv-x="266" d="M57 530 C57 530 174 654 174 654 C195 677 209 695 209 701 C209 715 163 749 144 749 C140 749 129 729 115 699 C115 699 45 539 45 539 C45 539 57 530 57 530 L57 530 Z M191 0 C191 0 215 0 215 0 C215 0 215 15 215 15 C215 15 210 15 210 15 C199 15 191 13 191 0 C191 0 191 420 191 420 C191 420 191 505 191 505 C191 505 184 505 184 505 C184 505 56 466 56 466 C56 466 56 456 56 456 C56 456 70 434 70 434 C74 428 76 419 76 387 C76 387 76 0 76 0 C76 0 52 0 52 0 C52 0 52 15 52 15 C52 15 57 15 57 15 C68 15 76 13 76 0 C76 0 191 0 191 0 L191 0 Z " />
<glyph glyph-name="icircumflex" unicode="&#xee;" horiz-adv-x="266" d="M97 676 C97 676 134 640 134 640 C134 640 244 531 244 531 C244 531 255 541 255 541 C255 541 170 712 170 712 C165 721 152 744 133 744 C115 744 102 722 97 712 C97 712 11 541 11 541 C11 541 23 531 23 531 C23 531 134 640 134 640 C134 640 170 675 170 675 C170 675 97 676 97 676 L97 676 Z M191 0 C191 0 215 0 215 0 C215 0 215 15 215 15 C215 15 210 15 210 15 C199 15 191 13 191 0 C191 0 191 420 191 420 C191 420 191 505 191 505 C191 505 184 505 184 505 C184 505 56 466 56 466 C56 466 56 456 56 456 C56 456 70 434 70 434 C74 428 76 419 76 387 C76 387 76 0 76 0 C76 0 52 0 52 0 C52 0 52 15 52 15 C52 15 57 15 57 15 C68 15 76 13 76 0 C76 0 191 0 191 0 L191 0 Z " />
<glyph glyph-name="idieresis" unicode="&#xef;" horiz-adv-x="266" d="M234 570 C276 570 304 598 304 640 C304 683 276 711 234 711 C191 711 163 683 163 640 C163 598 191 570 234 570 L234 570 Z M33 570 C75 570 103 598 103 640 C103 683 75 711 33 711 C-9 711 -37 683 -37 640 C-37 598 -9 570 33 570 L33 570 Z M191 0 C191 0 215 0 215 0 C215 0 215 15 215 15 C215 15 210 15 210 15 C199 15 191 13 191 0 C191 0 191 420 191 420 C191 420 191 505 191 505 C191 505 184 505 184 505 C184 505 56 466 56 466 C56 466 56 456 56 456 C56 456 70 434 70 434 C74 428 76 419 76 387 C76 387 76 0 76 0 C76 0 52 0 52 0 C52 0 52 15 52 15 C52 15 57 15 57 15 C68 15 76 13 76 0 C76 0 191 0 191 0 L191 0 Z " />
<glyph glyph-name="ntilde" unicode="&#xf1;" horiz-adv-x="547" d="M137 595 C137 629 153 651 176 651 C234 651 287 588 345 588 C398 588 434 643 434 725 C434 725 415 725 415 725 C415 689 397 665 370 665 C312 665 258 727 201 727 C151 727 118 674 118 595 C118 595 137 595 137 595 L137 595 Z M501 15 C501 15 497 15 497 15 C485 15 477 41 477 80 C477 80 477 338 477 338 C477 438 446 505 366 505 C281 505 217 478 190 433 C190 433 190 500 190 500 C190 500 167 500 167 500 C167 500 51 463 51 463 C51 463 51 454 51 454 C71 429 75 419 75 359 C75 359 75 80 75 80 C75 41 67 15 55 15 C55 15 51 15 51 15 C51 15 51 0 51 0 C51 0 75 0 75 0 C75 0 133 0 133 0 C133 0 190 0 190 0 C190 0 214 0 214 0 C214 0 214 15 214 15 C214 15 210 15 210 15 C198 15 190 41 190 80 C190 80 190 390 190 390 C190 390 190 396 190 396 C204 416 235 428 277 428 C338 428 362 387 362 326 C362 326 362 80 362 80 C362 41 354 15 342 15 C342 15 338 15 338 15 C338 15 338 0 338 0 C338 0 362 0 362 0 C362 0 419 0 419 0 C419 0 477 0 477 0 C477 0 501 0 501 0 C501 0 501 15 501 15 L501 15 Z " />
<glyph glyph-name="ograve" unicode="&#xf2;" horiz-adv-x="620" d="M310 21 C235 21 185 113 185 250 C185 387 235 479 310 479 C386 479 436 387 436 250 C436 113 386 21 310 21 L310 21 Z M57 250 C57 97 158 -5 310 -5 C463 -5 564 97 564 250 C564 403 463 505 310 505 C158 505 57 403 57 250 L57 250 Z M321 699 C308 729 297 749 292 749 C272 749 226 715 226 701 C226 694 241 676 263 654 C263 654 382 530 382 530 C382 530 395 539 395 539 C395 539 321 699 321 699 L321 699 Z " />
<glyph glyph-name="oacute" unicode="&#xf3;" horiz-adv-x="620" d="M280 530 C280 530 397 654 397 654 C418 677 432 695 432 701 C432 715 386 749 366 749 C362 749 352 729 338 699 C338 699 267 539 267 539 C267 539 280 530 280 530 L280 530 Z M310 21 C235 21 185 113 185 250 C185 387 235 479 310 479 C386 479 436 387 436 250 C436 113 386 21 310 21 L310 21 Z M57 250 C57 97 158 -5 310 -5 C463 -5 564 97 564 250 C564 403 463 505 310 505 C158 505 57 403 57 250 L57 250 Z " />
<glyph glyph-name="ocircumflex" unicode="&#xf4;" horiz-adv-x="620" d="M310 21 C235 21 185 113 185 250 C185 387 235 479 310 479 C386 479 436 387 436 250 C436 113 386 21 310 21 L310 21 Z M57 250 C57 97 158 -5 310 -5 C463 -5 564 97 564 250 C564 403 463 505 310 505 C158 505 57 403 57 250 L57 250 Z M311 640 C311 640 421 531 421 531 C421 531 432 541 432 541 C432 541 347 712 347 712 C342 721 329 744 310 744 C292 744 279 722 274 712 C274 712 188 541 188 541 C188 541 200 531 200 531 C200 531 311 640 311 640 L311 640 Z " />
<glyph glyph-name="otilde" unicode="&#xf5;" horiz-adv-x="620" d="M171 595 C171 629 187 651 210 651 C268 651 322 588 380 588 C433 588 469 643 469 725 C469 725 450 725 450 725 C450 689 432 665 404 665 C347 665 293 727 235 727 C185 727 152 674 152 595 C152 595 171 595 171 595 L171 595 Z M310 21 C235 21 185 113 185 250 C185 387 235 479 310 479 C386 479 436 387 436 250 C436 113 386 21 310 21 L310 21 Z M57 250 C57 97 158 -5 310 -5 C463 -5 564 97 564 250 C564 403 463 505 310 505 C158 505 57 403 57 250 L57 250 Z " />
<glyph glyph-name="odieresis" unicode="&#xf6;" horiz-adv-x="620" d="M411 570 C453 570 481 598 481 640 C481 683 453 711 411 711 C368 711 340 683 340 640 C340 598 368 570 411 570 L411 570 Z M210 570 C252 570 280 598 280 640 C280 683 252 711 210 711 C168 711 140 683 140 640 C140 598 168 570 210 570 L210 570 Z M310 21 C235 21 185 113 185 250 C185 387 235 479 310 479 C386 479 436 387 436 250 C436 113 386 21 310 21 L310 21 Z M57 250 C57 97 158 -5 310 -5 C463 -5 564 97 564 250 C564 403 463 505 310 505 C158 505 57 403 57 250 L57 250 Z " />
<glyph glyph-name="oslash" unicode="&#xf8;" horiz-adv-x="620" d="M71 -19 C71 -19 141 52 141 52 C184 15 242 -5 310 -5 C463 -5 564 97 564 250 C564 319 544 377 507 421 C507 421 577 491 577 491 C577 491 550 519 550 519 C550 519 480 448 480 448 C436 485 378 505 310 505 C158 505 57 403 57 250 C57 181 77 123 113 80 C113 80 43 9 43 9 C43 9 71 -19 71 -19 L71 -19 Z M310 21 C263 21 226 56 205 116 C205 116 428 340 428 340 C433 313 436 283 436 250 C436 113 386 21 310 21 L310 21 Z M193 160 C188 187 185 217 185 250 C185 387 235 479 310 479 C357 479 394 444 416 384 C416 384 193 160 193 160 L193 160 Z " />
<glyph glyph-name="ugrave" unicode="&#xf9;" horiz-adv-x="512" d="M471 46 C451 71 447 81 447 141 C447 141 447 500 447 500 C447 500 389 500 389 500 C389 500 332 500 332 500 C332 500 308 500 308 500 C308 500 308 485 308 485 C308 485 312 485 312 485 C324 485 332 459 332 420 C332 420 332 112 332 112 C319 87 298 71 266 71 C196 71 160 109 160 166 C160 166 160 500 160 500 C160 500 103 500 103 500 C103 500 45 500 45 500 C45 500 21 500 21 500 C21 500 21 485 21 485 C21 485 25 485 25 485 C37 485 45 459 45 420 C45 420 45 154 45 154 C45 59 90 -5 176 -5 C251 -5 301 29 332 84 C332 84 332 30 332 30 C332 30 332 0 332 0 C332 0 355 0 355 0 C355 0 471 37 471 37 C471 37 471 46 471 46 L471 46 Z M257 699 C244 729 233 749 227 749 C208 749 162 715 162 701 C162 694 177 676 198 654 C198 654 318 530 318 530 C318 530 331 539 331 539 C331 539 257 699 257 699 L257 699 Z " />
<glyph glyph-name="uacute" unicode="&#xfa;" horiz-adv-x="512" d="M216 530 C216 530 332 654 332 654 C353 677 368 695 368 701 C368 715 322 749 302 749 C297 749 287 729 274 699 C274 699 203 539 203 539 C203 539 216 530 216 530 L216 530 Z M471 46 C451 71 447 81 447 141 C447 141 447 500 447 500 C447 500 389 500 389 500 C389 500 332 500 332 500 C332 500 308 500 308 500 C308 500 308 485 308 485 C308 485 312 485 312 485 C324 485 332 459 332 420 C332 420 332 112 332 112 C319 87 298 71 266 71 C196 71 160 109 160 166 C160 166 160 500 160 500 C160 500 103 500 103 500 C103 500 45 500 45 500 C45 500 21 500 21 500 C21 500 21 485 21 485 C21 485 25 485 25 485 C37 485 45 459 45 420 C45 420 45 154 45 154 C45 59 90 -5 176 -5 C251 -5 301 29 332 84 C332 84 332 30 332 30 C332 30 332 0 332 0 C332 0 355 0 355 0 C355 0 471 37 471 37 C471 37 471 46 471 46 L471 46 Z " />
<glyph glyph-name="ucircumflex" unicode="&#xfb;" horiz-adv-x="512" d="M471 46 C451 71 447 81 447 141 C447 141 447 500 447 500 C447 500 389 500 389 500 C389 500 332 500 332 500 C332 500 308 500 308 500 C308 500 308 485 308 485 C308 485 312 485 312 485 C324 485 332 459 332 420 C332 420 332 112 332 112 C319 87 298 71 266 71 C196 71 160 109 160 166 C160 166 160 500 160 500 C160 500 103 500 103 500 C103 500 45 500 45 500 C45 500 21 500 21 500 C21 500 21 485 21 485 C21 485 25 485 25 485 C37 485 45 459 45 420 C45 420 45 154 45 154 C45 59 90 -5 176 -5 C251 -5 301 29 332 84 C332 84 332 30 332 30 C332 30 332 0 332 0 C332 0 355 0 355 0 C355 0 471 37 471 37 C471 37 471 46 471 46 L471 46 Z M246 639 C246 639 356 531 356 531 C356 531 368 541 368 541 C368 541 283 712 283 712 C278 721 264 744 246 744 C228 744 215 722 210 712 C210 712 124 541 124 541 C124 541 136 531 136 531 C136 531 246 639 246 639 L246 639 Z " />
<glyph glyph-name="udieresis" unicode="&#xfc;" horiz-adv-x="512" d="M346 570 C389 570 417 598 417 640 C417 683 389 711 346 711 C304 711 276 683 276 640 C276 598 304 570 346 570 L346 570 Z M146 570 C188 570 216 598 216 640 C216 683 188 711 146 711 C103 711 75 683 75 640 C75 598 103 570 146 570 L146 570 Z M471 46 C451 71 447 81 447 141 C447 141 447 500 447 500 C447 500 389 500 389 500 C389 500 332 500 332 500 C332 500 308 500 308 500 C308 500 308 485 308 485 C308 485 312 485 312 485 C324 485 332 459 332 420 C332 420 332 112 332 112 C319 87 298 71 266 71 C196 71 160 109 160 166 C160 166 160 500 160 500 C160 500 103 500 103 500 C103 500 45 500 45 500 C45 500 21 500 21 500 C21 500 21 485 21 485 C21 485 25 485 25 485 C37 485 45 459 45 420 C45 420 45 154 45 154 C45 59 90 -5 176 -5 C251 -5 301 29 332 84 C332 84 332 30 332 30 C332 30 332 0 332 0 C332 0 355 0 355 0 C355 0 471 37 471 37 C471 37 471 46 471 46 L471 46 Z " />
<glyph glyph-name="ydieresis" unicode="&#xff;" horiz-adv-x="447" d="M344 570 C387 570 415 598 415 640 C415 683 387 711 344 711 C302 711 274 683 274 640 C274 598 302 570 344 570 L344 570 Z M144 570 C186 570 214 598 214 640 C214 683 186 711 144 711 C101 711 73 683 73 640 C73 598 101 570 144 570 L144 570 Z M496 500 C496 500 479 500 479 500 C479 500 460 500 460 500 C460 500 441 500 441 500 C441 500 417 500 417 500 C417 500 417 485 417 485 C417 485 420 485 420 485 C429 485 424 459 409 420 C409 420 409 420 409 420 C409 420 297 137 297 137 C297 137 175 420 175 420 C175 420 175 420 175 420 C158 459 153 485 162 485 C162 485 164 485 164 485 C164 485 164 500 164 500 C164 500 140 500 140 500 C140 500 75 500 75 500 C75 500 9 500 9 500 C9 500 -8 500 -8 500 C-8 500 -8 485 -8 485 C-8 485 -5 485 -5 485 C8 485 27 459 45 420 C45 420 45 420 45 420 C45 420 232 6 232 6 C232 6 201 -62 201 -62 C172 -128 147 -154 113 -154 C84 -154 53 -129 25 -129 C-10 -129 -33 -148 -33 -178 C-33 -209 -3 -230 42 -230 C129 -230 182 -186 231 -72 C231 -72 258 -10 258 -10 C258 -10 450 433 450 433 C465 465 481 485 493 485 C493 485 496 485 496 485 C496 485 496 500 496 500 L496 500 Z " />
<glyph glyph-name="Amacron" unicode="&#x100;" horiz-adv-x="684" d="M156 761 C156 761 456 761 456 761 C456 761 456 825 456 825 C456 825 156 825 156 825 C156 825 156 761 156 761 L156 761 Z M666 15 C666 15 662 15 662 15 C648 15 627 41 609 80 C609 80 609 80 609 80 C609 80 326 675 326 675 C326 675 285 675 285 675 C285 675 58 80 58 80 C58 80 57 80 57 80 C42 41 24 15 12 15 C12 15 9 15 9 15 C9 15 9 0 9 0 C9 0 27 0 27 0 C27 0 54 0 54 0 C54 0 81 0 81 0 C81 0 116 0 116 0 C116 0 116 15 116 15 C116 15 112 15 112 15 C97 15 98 47 116 95 C116 95 115 95 115 95 C115 95 164 230 164 230 C164 230 359 230 359 230 C359 230 434 69 434 69 C448 36 451 15 441 15 C441 15 438 15 438 15 C438 15 438 0 438 0 C438 0 466 0 466 0 C466 0 556 0 556 0 C556 0 647 0 647 0 C647 0 666 0 666 0 C666 0 666 15 666 15 L666 15 Z M340 270 C340 270 179 271 179 271 C179 271 250 465 250 465 C250 465 340 270 340 270 L340 270 Z " />
<glyph glyph-name="amacron" unicode="&#x101;" horiz-adv-x="602" d="M82 601 C82 601 382 601 382 601 C382 601 382 665 382 665 C382 665 82 665 82 665 C82 665 82 601 82 601 L82 601 Z M510 46 C490 71 486 81 486 141 C486 141 486 500 486 500 C486 500 454 500 454 500 C454 500 398 396 398 396 C383 461 337 505 276 505 C147 505 61 391 61 219 C61 85 129 -5 232 -5 C296 -5 346 29 371 86 C371 86 371 0 371 0 C371 0 371 -5 371 -5 C371 -5 390 -5 390 -5 C390 -5 472 25 472 25 C472 25 510 37 510 37 C510 37 510 46 510 46 L510 46 Z M371 134 C359 91 332 65 295 65 C227 65 181 144 181 263 C181 390 217 474 271 474 C331 474 371 420 371 347 C371 347 371 134 371 134 L371 134 Z " />
<glyph glyph-name="Abreve" unicode="&#x102;" horiz-adv-x="684" d="M173 870 C207 790 260 736 306 736 C351 736 404 790 438 870 C438 870 419 878 419 878 C402 838 357 812 306 812 C254 812 209 838 192 878 C192 878 173 870 173 870 L173 870 Z M666 15 C666 15 662 15 662 15 C648 15 627 41 609 80 C609 80 609 80 609 80 C609 80 326 675 326 675 C326 675 285 675 285 675 C285 675 58 80 58 80 C58 80 57 80 57 80 C42 41 24 15 12 15 C12 15 9 15 9 15 C9 15 9 0 9 0 C9 0 27 0 27 0 C27 0 54 0 54 0 C54 0 81 0 81 0 C81 0 116 0 116 0 C116 0 116 15 116 15 C116 15 112 15 112 15 C97 15 98 47 116 95 C116 95 115 95 115 95 C115 95 164 230 164 230 C164 230 359 230 359 230 C359 230 434 69 434 69 C448 36 451 15 441 15 C441 15 438 15 438 15 C438 15 438 0 438 0 C438 0 466 0 466 0 C466 0 556 0 556 0 C556 0 647 0 647 0 C647 0 666 0 666 0 C666 0 666 15 666 15 L666 15 Z M340 270 C340 270 179 271 179 271 C179 271 250 465 250 465 C250 465 340 270 340 270 L340 270 Z " />
<glyph glyph-name="abreve" unicode="&#x103;" horiz-adv-x="602" d="M100 680 C134 600 187 546 232 546 C277 546 330 600 364 680 C364 680 346 688 346 688 C329 648 284 622 232 622 C181 622 136 648 119 688 C119 688 100 680 100 680 L100 680 Z M510 46 C490 71 486 81 486 141 C486 141 486 500 486 500 C486 500 454 500 454 500 C454 500 398 396 398 396 C383 461 337 505 276 505 C147 505 61 391 61 219 C61 85 129 -5 232 -5 C296 -5 346 29 371 86 C371 86 371 0 371 0 C371 0 371 -5 371 -5 C371 -5 390 -5 390 -5 C390 -5 472 25 472 25 C472 25 510 37 510 37 C510 37 510 46 510 46 L510 46 Z M371 134 C359 91 332 65 295 65 C227 65 181 144 181 263 C181 390 217 474 271 474 C331 474 371 420 371 347 C371 347 371 134 371 134 L371 134 Z " />
<glyph glyph-name="Aogonek" unicode="&#x104;" horiz-adv-x="684" d="M666 15 C666 15 662 15 662 15 C648 15 627 41 609 80 C609 80 609 80 609 80 C609 80 326 675 326 675 C326 675 285 675 285 675 C285 675 58 80 58 80 C58 80 57 80 57 80 C42 41 24 15 12 15 C12 15 9 15 9 15 C9 15 9 0 9 0 C9 0 27 0 27 0 C27 0 54 0 54 0 C54 0 81 0 81 0 C81 0 116 0 116 0 C116 0 116 15 116 15 C116 15 112 15 112 15 C97 15 98 47 116 95 C116 95 115 95 115 95 C115 95 164 230 164 230 C164 230 359 230 359 230 C359 230 434 69 434 69 C446 40 450 21 444 16 C444 16 443 16 443 15 C442 15 442 15 441 15 C441 15 438 15 438 15 C438 15 438 13 438 13 C380 -20 293 -94 293 -152 C293 -203 348 -236 432 -236 C466 -236 501 -223 518 -202 C518 -202 510 -193 510 -193 C504 -199 483 -204 457 -204 C401 -204 364 -178 364 -140 C364 -78 435 -11 466 0 C466 0 556 0 556 0 C556 0 647 0 647 0 C647 0 666 0 666 0 C666 0 666 15 666 15 L666 15 Z M340 270 C340 270 179 271 179 271 C179 271 250 465 250 465 C250 465 340 270 340 270 L340 270 Z " />
<glyph glyph-name="aogonek" unicode="&#x105;" horiz-adv-x="525" d="M497 64 C494 59 490 55 485 52 C485 52 485 55 485 55 C479 53 472 50 465 46 C461 45 456 45 451 45 C421 45 412 72 412 112 C412 112 412 352 412 352 C412 444 356 505 272 505 C107 505 23 435 62 329 C62 329 177 329 177 329 C145 415 173 473 246 473 C272 473 290 435 290 378 C290 378 290 262 290 262 C290 262 224 252 224 252 C115 235 43 176 43 105 C43 39 90 -5 161 -5 C213 -5 262 11 299 37 C310 8 332 -10 373 -10 C378 -10 383 -10 388 -10 C347 -46 312 -92 312 -132 C312 -194 367 -236 450 -236 C485 -236 519 -223 536 -202 C536 -202 528 -193 528 -193 C522 -199 501 -204 475 -204 C419 -204 382 -170 382 -120 C382 -76 413 -31 443 -1 C475 9 495 26 510 48 C510 48 497 64 497 64 L497 64 Z M290 232 C290 232 290 100 290 100 C290 93 290 86 291 80 C270 75 246 72 219 72 C182 72 157 98 157 138 C157 175 184 206 224 216 C224 216 290 232 290 232 L290 232 Z " />
<glyph glyph-name="Cacute" unicode="&#x106;" horiz-adv-x="781" d="M404 690 C404 690 521 814 521 814 C542 837 556 855 556 861 C556 875 510 909 490 909 C486 909 475 889 462 859 C462 859 391 699 391 699 C391 699 404 690 404 690 L404 690 Z M714 511 C714 511 714 574 714 574 C714 574 697 562 697 562 C697 562 697 562 697 562 C697 562 714 574 714 574 C678 629 572 665 450 665 C203 665 38 531 38 330 C38 129 203 -5 450 -5 C572 -5 678 31 714 86 C714 86 697 98 697 98 C697 98 697 98 697 98 C697 98 714 86 714 86 C714 86 714 149 714 149 C714 149 701 149 701 149 C698 144 692 138 688 132 C650 84 577 46 505 39 C505 39 505 39 505 39 C487 37 469 36 450 36 C312 36 220 154 220 330 C220 506 312 624 450 624 C485 624 518 621 548 615 C548 615 548 615 548 615 C599 605 655 570 688 528 C692 522 698 516 701 511 C701 511 714 511 714 511 L714 511 Z " />
<glyph glyph-name="cacute" unicode="&#x107;" horiz-adv-x="535" d="M237 530 C237 530 353 654 353 654 C375 677 389 695 389 701 C389 715 343 749 323 749 C319 749 308 729 295 699 C295 699 224 539 224 539 C224 539 237 530 237 530 L237 530 Z M479 159 C479 159 464 167 464 167 C435 106 395 65 364 65 C253 65 179 148 179 273 C179 393 227 473 300 473 C338 473 366 446 370 404 C373 371 396 348 428 348 C458 348 479 368 479 399 C473 462 406 505 313 505 C159 505 57 395 57 229 C57 89 142 -5 268 -5 C348 -5 432 61 479 159 L479 159 Z " />
<glyph glyph-name="Ccircumflex" unicode="&#x108;" horiz-adv-x="781" d="M714 511 C714 511 714 574 714 574 C714 574 697 562 697 562 C697 562 697 562 697 562 C697 562 714 574 714 574 C678 629 572 665 450 665 C203 665 38 531 38 330 C38 129 203 -5 450 -5 C572 -5 678 31 714 86 C714 86 697 98 697 98 C697 98 697 98 697 98 C697 98 714 86 714 86 C714 86 714 149 714 149 C714 149 701 149 701 149 C698 144 692 138 688 132 C650 84 577 46 505 39 C505 39 505 39 505 39 C487 37 469 36 450 36 C312 36 220 154 220 330 C220 506 312 624 450 624 C485 624 518 621 548 615 C548 615 548 615 548 615 C599 605 655 570 688 528 C692 522 698 516 701 511 C701 511 714 511 714 511 L714 511 Z M450 800 C450 800 560 691 560 691 C560 691 572 701 572 701 C572 701 486 872 486 872 C481 881 468 904 450 904 C431 904 418 882 413 872 C413 872 328 701 328 701 C328 701 339 691 339 691 C339 691 450 800 450 800 L450 800 Z " />
<glyph glyph-name="Cdotaccent" unicode="&#x10a;" horiz-adv-x="781" d="M450 730 C492 730 520 758 520 800 C520 843 492 871 450 871 C407 871 379 843 379 800 C379 758 407 730 450 730 L450 730 Z M714 511 C714 511 714 574 714 574 C714 574 697 562 697 562 C697 562 697 562 697 562 C697 562 714 574 714 574 C678 629 572 665 450 665 C203 665 38 531 38 330 C38 129 203 -5 450 -5 C572 -5 678 31 714 86 C714 86 697 98 697 98 C697 98 697 98 697 98 C697 98 714 86 714 86 C714 86 714 149 714 149 C714 149 701 149 701 149 C698 144 692 138 688 132 C650 84 577 46 505 39 C505 39 505 39 505 39 C487 37 469 36 450 36 C312 36 220 154 220 330 C220 506 312 624 450 624 C485 624 518 621 548 615 C548 615 548 615 548 615 C599 605 655 570 688 528 C692 522 698 516 701 511 C701 511 714 511 714 511 L714 511 Z " />
<glyph glyph-name="cdotaccent" unicode="&#x10b;" horiz-adv-x="535" d="M313 570 C355 570 383 598 383 640 C383 683 355 711 313 711 C270 711 242 683 242 640 C242 598 270 570 313 570 L313 570 Z M479 159 C479 159 464 167 464 167 C435 106 395 65 364 65 C253 65 179 148 179 273 C179 393 227 473 300 473 C338 473 366 446 370 404 C373 371 396 348 428 348 C458 348 479 368 479 399 C473 462 406 505 313 505 C159 505 57 395 57 229 C57 89 142 -5 268 -5 C348 -5 432 61 479 159 L479 159 Z " />
<glyph glyph-name="Ccaron" unicode="&#x10c;" horiz-adv-x="781" d="M714 511 C714 511 714 574 714 574 C714 574 697 562 697 562 C697 562 697 562 697 562 C697 562 714 574 714 574 C678 629 572 665 450 665 C203 665 38 531 38 330 C38 129 203 -5 450 -5 C572 -5 678 31 714 86 C714 86 697 98 697 98 C697 98 697 98 697 98 C697 98 714 86 714 86 C714 86 714 149 714 149 C714 149 701 149 701 149 C698 144 692 138 688 132 C650 84 577 46 505 39 C505 39 505 39 505 39 C487 37 469 36 450 36 C312 36 220 154 220 330 C220 506 312 624 450 624 C485 624 518 621 548 615 C548 615 548 615 548 615 C599 605 655 570 688 528 C692 522 698 516 701 511 C701 511 714 511 714 511 L714 511 Z M450 820 C450 820 560 929 560 929 C560 929 572 919 572 919 C572 919 486 748 486 748 C481 739 468 716 450 716 C431 716 418 738 413 748 C413 748 328 919 328 919 C328 919 339 929 339 929 C339 929 450 820 450 820 L450 820 Z " />
<glyph glyph-name="ccaron" unicode="&#x10d;" horiz-adv-x="535" d="M479 159 C479 159 464 167 464 167 C435 106 395 65 364 65 C253 65 179 148 179 273 C179 393 227 473 300 473 C338 473 366 446 370 404 C373 371 396 348 428 348 C458 348 479 368 479 399 C473 462 406 505 313 505 C159 505 57 395 57 229 C57 89 142 -5 268 -5 C348 -5 432 61 479 159 L479 159 Z M313 660 C313 660 423 769 423 769 C423 769 435 759 435 759 C435 759 349 588 349 588 C344 579 331 556 313 556 C294 556 281 578 276 588 C276 588 191 759 191 759 C191 759 202 769 202 769 C202 769 313 660 313 660 L313 660 Z " />
<glyph glyph-name="Dcaron" unicode="&#x10e;" horiz-adv-x="785" d="M31 645 C31 645 34 645 34 645 C46 645 54 619 54 580 C54 580 54 80 54 80 C54 41 46 15 34 15 C34 15 31 15 31 15 C31 15 31 0 31 0 C31 0 54 0 54 0 C54 0 137 0 137 0 C137 0 220 0 220 0 C220 0 357 0 357 0 C580 0 729 132 729 330 C729 528 567 660 323 660 C323 660 220 660 220 660 C220 660 137 660 137 660 C137 660 54 660 54 660 C54 660 31 660 31 660 C31 660 31 645 31 645 L31 645 Z M309 821 C309 821 419 929 419 929 C419 929 431 919 431 919 C431 919 346 748 346 748 C341 739 327 716 309 716 C290 716 277 738 273 748 C273 748 187 919 187 919 C187 919 199 929 199 929 C199 929 309 821 309 821 L309 821 Z M220 32 C220 32 220 628 220 628 C220 628 323 628 323 628 C468 628 564 509 564 330 C564 151 481 32 357 32 C357 32 220 32 220 32 L220 32 Z " />
<glyph glyph-name="dcaron" unicode="&#x10f;" horiz-adv-x="624" d="M532 46 C512 71 508 81 508 141 C508 141 508 610 508 610 C508 610 508 690 508 690 C508 690 508 720 508 720 C508 720 485 720 485 720 C485 720 369 683 369 683 C369 683 369 674 369 674 C389 649 393 639 393 579 C393 579 393 466 393 466 C368 491 334 505 294 505 C154 505 61 391 61 219 C61 85 137 -5 250 -5 C307 -5 361 27 393 77 C393 77 393 30 393 30 C393 30 393 0 393 0 C393 0 416 0 416 0 C416 0 532 37 532 37 C532 37 532 46 532 46 L532 46 Z M652 616 C680 663 699 716 699 725 C699 744 648 751 626 751 C603 751 587 688 580 643 C580 643 554 477 554 477 C554 477 569 472 569 472 C569 472 652 616 652 616 L652 616 Z M393 110 C393 110 393 106 393 106 C378 81 348 65 314 65 C234 65 181 144 181 263 C181 390 224 474 289 474 C337 474 374 449 393 411 C393 411 393 110 393 110 L393 110 Z " />
<glyph glyph-name="Emacron" unicode="&#x112;" horiz-adv-x="592" d="M137 761 C137 761 437 761 437 761 C437 761 437 825 437 825 C437 825 137 825 137 825 C137 825 137 761 137 761 L137 761 Z M457 304 C457 304 457 331 457 331 C457 331 457 352 457 352 C457 352 457 373 457 373 C457 373 457 397 457 397 C457 396 456 396 455 397 C449 396 445 396 445 397 C445 397 441 393 441 393 C430 381 388 373 337 373 C337 373 227 373 227 373 C227 373 227 619 227 619 C227 619 372 619 372 619 C439 619 490 602 516 576 C516 576 527 576 527 576 C527 576 527 639 527 639 C527 639 527 660 527 660 C527 660 512 660 512 660 C512 660 447 660 447 660 C447 660 227 660 227 660 C227 660 144 660 144 660 C144 660 61 660 61 660 C61 660 37 660 37 660 C37 660 37 645 37 645 C37 645 41 645 41 645 C53 645 61 619 61 580 C61 580 61 80 61 80 C61 41 53 15 41 15 C41 15 37 15 37 15 C37 15 37 0 37 0 C37 0 61 0 61 0 C61 0 144 0 144 0 C144 0 227 0 227 0 C227 0 445 0 445 0 C445 0 522 0 522 0 C522 0 525 0 525 0 C526 6 527 14 528 21 C532 40 536 65 540 84 C540 85 539 85 538 84 C533 85 529 85 529 84 C529 84 521 78 521 78 C495 56 437 42 377 41 C377 41 227 41 227 41 C227 41 227 331 227 331 C227 331 337 331 337 331 C388 331 430 322 441 308 C441 308 445 304 445 304 C445 304 457 304 457 304 L457 304 Z " />
<glyph glyph-name="emacron" unicode="&#x113;" horiz-adv-x="541" d="M142 601 C142 601 442 601 442 601 C442 601 442 665 442 665 C442 665 142 665 142 665 C142 665 142 601 142 601 L142 601 Z M485 159 C485 159 471 167 471 167 C441 106 400 65 368 65 C254 65 179 148 179 273 C179 282 179 291 180 300 C180 300 376 300 376 300 C376 300 485 300 485 300 C485 423 408 505 292 505 C151 505 57 395 57 229 C57 89 143 -5 271 -5 C353 -5 438 61 485 159 L485 159 Z M182 321 C192 414 231 473 286 473 C340 473 377 442 377 396 C377 396 377 395 377 395 C376 365 356 342 326 337 C326 337 182 321 182 321 L182 321 Z " />
<glyph glyph-name="Ebreve" unicode="&#x114;" horiz-adv-x="592" d="M154 870 C188 790 241 736 287 736 C332 736 385 790 419 870 C419 870 400 878 400 878 C383 838 338 812 287 812 C235 812 190 838 173 878 C173 878 154 870 154 870 L154 870 Z M457 304 C457 304 457 331 457 331 C457 331 457 352 457 352 C457 352 457 373 457 373 C457 373 457 397 457 397 C457 396 456 396 455 397 C449 396 445 396 445 397 C445 397 441 393 441 393 C430 381 388 373 337 373 C337 373 227 373 227 373 C227 373 227 619 227 619 C227 619 372 619 372 619 C439 619 490 602 516 576 C516 576 527 576 527 576 C527 576 527 639 527 639 C527 639 527 660 527 660 C527 660 512 660 512 660 C512 660 447 660 447 660 C447 660 227 660 227 660 C227 660 144 660 144 660 C144 660 61 660 61 660 C61 660 37 660 37 660 C37 660 37 645 37 645 C37 645 41 645 41 645 C53 645 61 619 61 580 C61 580 61 80 61 80 C61 41 53 15 41 15 C41 15 37 15 37 15 C37 15 37 0 37 0 C37 0 61 0 61 0 C61 0 144 0 144 0 C144 0 227 0 227 0 C227 0 445 0 445 0 C445 0 522 0 522 0 C522 0 525 0 525 0 C526 6 527 14 528 21 C532 40 536 65 540 84 C540 85 539 85 538 84 C533 85 529 85 529 84 C529 84 521 78 521 78 C495 56 437 42 377 41 C377 41 227 41 227 41 C227 41 227 331 227 331 C227 331 337 331 337 331 C388 331 430 322 441 308 C441 308 445 304 445 304 C445 304 457 304 457 304 L457 304 Z " />
<glyph glyph-name="ebreve" unicode="&#x115;" horiz-adv-x="541" d="M160 710 C194 630 247 576 292 576 C337 576 390 630 424 710 C424 710 405 718 405 718 C388 678 343 652 292 652 C240 652 195 678 178 718 C178 718 160 710 160 710 L160 710 Z M485 159 C485 159 471 167 471 167 C441 106 400 65 368 65 C254 65 179 148 179 273 C179 282 179 291 180 300 C180 300 376 300 376 300 C376 300 485 300 485 300 C485 423 408 505 292 505 C151 505 57 395 57 229 C57 89 143 -5 271 -5 C353 -5 438 61 485 159 L485 159 Z M182 321 C192 414 231 473 286 473 C340 473 377 442 377 396 C377 396 377 395 377 395 C376 365 356 342 326 337 C326 337 182 321 182 321 L182 321 Z " />
<glyph glyph-name="Edotaccent" unicode="&#x116;" horiz-adv-x="592" d="M287 730 C329 730 357 758 357 800 C357 843 329 871 287 871 C244 871 216 843 216 800 C216 758 244 730 287 730 L287 730 Z M457 304 C457 304 457 331 457 331 C457 331 457 352 457 352 C457 352 457 373 457 373 C457 373 457 397 457 397 C457 396 456 396 455 397 C449 396 445 396 445 397 C445 397 441 393 441 393 C430 381 388 373 337 373 C337 373 227 373 227 373 C227 373 227 619 227 619 C227 619 372 619 372 619 C439 619 490 602 516 576 C516 576 527 576 527 576 C527 576 527 639 527 639 C527 639 527 660 527 660 C527 660 512 660 512 660 C512 660 447 660 447 660 C447 660 227 660 227 660 C227 660 144 660 144 660 C144 660 61 660 61 660 C61 660 37 660 37 660 C37 660 37 645 37 645 C37 645 41 645 41 645 C53 645 61 619 61 580 C61 580 61 80 61 80 C61 41 53 15 41 15 C41 15 37 15 37 15 C37 15 37 0 37 0 C37 0 61 0 61 0 C61 0 144 0 144 0 C144 0 227 0 227 0 C227 0 445 0 445 0 C445 0 522 0 522 0 C522 0 525 0 525 0 C526 6 527 14 528 21 C532 40 536 65 540 84 C540 85 539 85 538 84 C533 85 529 85 529 84 C529 84 521 78 521 78 C495 56 437 42 377 41 C377 41 227 41 227 41 C227 41 227 331 227 331 C227 331 337 331 337 331 C388 331 430 322 441 308 C441 308 445 304 445 304 C445 304 457 304 457 304 L457 304 Z " />
<glyph glyph-name="edotaccent" unicode="&#x117;" horiz-adv-x="541" d="M292 570 C334 570 362 598 362 640 C362 683 334 711 292 711 C250 711 222 683 222 640 C222 598 250 570 292 570 L292 570 Z M485 159 C485 159 471 167 471 167 C441 106 400 65 368 65 C254 65 179 148 179 273 C179 282 179 291 180 300 C180 300 376 300 376 300 C376 300 485 300 485 300 C485 423 408 505 292 505 C151 505 57 395 57 229 C57 89 143 -5 271 -5 C353 -5 438 61 485 159 L485 159 Z M182 321 C192 414 231 473 286 473 C340 473 377 442 377 396 C377 396 377 395 377 395 C376 365 356 342 326 337 C326 337 182 321 182 321 L182 321 Z " />
<glyph glyph-name="Eogonek" unicode="&#x118;" horiz-adv-x="592" d="M457 304 C457 304 457 331 457 331 C457 331 457 352 457 352 C457 352 457 373 457 373 C457 373 457 397 457 397 C457 396 456 396 455 397 C449 396 445 396 445 397 C445 397 441 393 441 393 C430 381 388 373 337 373 C337 373 227 373 227 373 C227 373 227 619 227 619 C227 619 372 619 372 619 C439 619 490 602 516 576 C516 576 527 576 527 576 C527 576 527 639 527 639 C527 639 527 660 527 660 C527 660 512 660 512 660 C512 660 447 660 447 660 C447 660 227 660 227 660 C227 660 144 660 144 660 C144 660 61 660 61 660 C61 660 37 660 37 660 C37 660 37 645 37 645 C37 645 41 645 41 645 C53 645 61 619 61 580 C61 580 61 80 61 80 C61 41 53 15 41 15 C41 15 37 15 37 15 C37 15 37 0 37 0 C37 0 61 0 61 0 C61 0 144 0 144 0 C144 0 227 0 227 0 C227 0 445 0 445 0 C445 0 473 0 473 0 C417 -37 349 -100 349 -152 C349 -203 404 -236 487 -236 C522 -236 556 -223 574 -202 C574 -202 565 -193 565 -193 C560 -199 539 -204 513 -204 C456 -204 419 -178 419 -140 C419 -78 491 -11 522 0 C522 0 525 0 525 0 C526 6 527 14 528 21 C532 40 536 65 540 84 C540 85 539 85 538 84 C533 85 529 85 529 84 C529 84 521 78 521 78 C495 56 437 42 377 41 C377 41 227 41 227 41 C227 41 227 331 227 331 C227 331 337 331 337 331 C388 331 430 322 441 308 C441 308 445 304 445 304 C445 304 457 304 457 304 L457 304 Z " />
<glyph glyph-name="eogonek" unicode="&#x119;" horiz-adv-x="541" d="M182 321 C192 414 231 473 286 473 C340 473 377 442 377 396 C377 396 377 395 377 395 C376 365 356 342 326 337 C326 337 182 321 182 321 L182 321 Z M376 300 C376 300 485 300 485 300 C485 423 408 505 292 505 C151 505 57 395 57 229 C57 89 143 -5 271 -5 C272 -5 272 -5 273 -5 C231 -42 194 -90 194 -131 C194 -194 249 -236 332 -236 C367 -236 401 -223 418 -202 C418 -202 410 -193 410 -193 C404 -199 383 -204 357 -204 C301 -204 264 -170 264 -118 C264 -71 299 -23 331 6 C392 29 449 85 485 159 C485 159 471 167 471 167 C441 106 400 65 368 65 C254 65 179 148 179 273 C179 282 179 291 180 300 C180 300 376 300 376 300 L376 300 Z " />
<glyph glyph-name="Ecaron" unicode="&#x11a;" horiz-adv-x="592" d="M457 304 C457 304 457 331 457 331 C457 331 457 352 457 352 C457 352 457 373 457 373 C457 373 457 397 457 397 C457 396 456 396 455 397 C449 396 445 396 445 397 C445 397 441 393 441 393 C430 381 388 373 337 373 C337 373 227 373 227 373 C227 373 227 619 227 619 C227 619 372 619 372 619 C439 619 490 602 516 576 C516 576 527 576 527 576 C527 576 527 639 527 639 C527 639 527 660 527 660 C527 660 512 660 512 660 C512 660 447 660 447 660 C447 660 227 660 227 660 C227 660 144 660 144 660 C144 660 61 660 61 660 C61 660 37 660 37 660 C37 660 37 645 37 645 C37 645 41 645 41 645 C53 645 61 619 61 580 C61 580 61 80 61 80 C61 41 53 15 41 15 C41 15 37 15 37 15 C37 15 37 0 37 0 C37 0 61 0 61 0 C61 0 144 0 144 0 C144 0 227 0 227 0 C227 0 445 0 445 0 C445 0 522 0 522 0 C522 0 525 0 525 0 C526 6 527 14 528 21 C532 40 536 65 540 84 C540 85 539 85 538 84 C533 85 529 85 529 84 C529 84 521 78 521 78 C495 56 437 42 377 41 C377 41 227 41 227 41 C227 41 227 331 227 331 C227 331 337 331 337 331 C388 331 430 322 441 308 C441 308 445 304 445 304 C445 304 457 304 457 304 L457 304 Z M287 820 C287 820 397 929 397 929 C397 929 409 919 409 919 C409 919 323 748 323 748 C318 739 305 716 287 716 C268 716 255 738 250 748 C250 748 165 919 165 919 C165 919 176 929 176 929 C176 929 287 820 287 820 L287 820 Z " />
<glyph glyph-name="ecaron" unicode="&#x11b;" horiz-adv-x="541" d="M485 159 C485 159 471 167 471 167 C441 106 400 65 368 65 C254 65 179 148 179 273 C179 282 179 291 180 300 C180 300 376 300 376 300 C376 300 485 300 485 300 C485 423 408 505 292 505 C151 505 57 395 57 229 C57 89 143 -5 271 -5 C353 -5 438 61 485 159 L485 159 Z M292 661 C292 661 402 769 402 769 C402 769 414 759 414 759 C414 759 329 588 329 588 C324 579 310 556 292 556 C273 556 260 578 255 588 C255 588 170 759 170 759 C170 759 182 769 182 769 C182 769 292 661 292 661 L292 661 Z M182 321 C192 414 231 473 286 473 C340 473 377 442 377 396 C377 396 377 395 377 395 C376 365 356 342 326 337 C326 337 182 321 182 321 L182 321 Z " />
<glyph glyph-name="Gcircumflex" unicode="&#x11c;" horiz-adv-x="818" d="M720 310 C720 310 697 310 697 310 C697 310 622 310 622 310 C622 310 548 310 548 310 C548 310 524 310 524 310 C524 310 524 295 524 295 C524 295 527 295 527 295 C540 295 548 269 548 230 C548 230 548 46 548 46 C513 39 476 36 440 36 C308 36 220 154 220 330 C220 506 308 624 440 624 C471 624 500 621 527 616 C527 616 527 616 527 616 C579 607 635 572 668 528 C672 522 678 516 681 511 C681 511 694 511 694 511 C694 511 694 574 694 574 C694 574 677 562 677 562 C677 562 677 562 677 562 C677 562 694 574 694 574 C658 629 556 665 440 665 C199 665 38 531 38 330 C38 129 199 -5 440 -5 C535 -5 638 17 697 51 C697 51 697 230 697 230 C697 230 697 242 697 242 C698 274 706 295 717 295 C717 295 720 295 720 295 C720 295 720 310 720 310 L720 310 Z M440 800 C440 800 550 691 550 691 C550 691 562 701 562 701 C562 701 476 872 476 872 C471 881 458 904 440 904 C421 904 408 882 403 872 C403 872 318 701 318 701 C318 701 329 691 329 691 C329 691 440 800 440 800 L440 800 Z " />
<glyph glyph-name="Gbreve" unicode="&#x11e;" horiz-adv-x="818" d="M307 870 C341 790 394 736 440 736 C485 736 538 790 572 870 C572 870 553 878 553 878 C536 838 491 812 440 812 C388 812 343 838 326 878 C326 878 307 870 307 870 L307 870 Z M720 310 C720 310 697 310 697 310 C697 310 622 310 622 310 C622 310 548 310 548 310 C548 310 524 310 524 310 C524 310 524 295 524 295 C524 295 527 295 527 295 C540 295 548 269 548 230 C548 230 548 46 548 46 C513 39 476 36 440 36 C308 36 220 154 220 330 C220 506 308 624 440 624 C471 624 500 621 527 616 C527 616 527 616 527 616 C579 607 635 572 668 528 C672 522 678 516 681 511 C681 511 694 511 694 511 C694 511 694 574 694 574 C694 574 677 562 677 562 C677 562 677 562 677 562 C677 562 694 574 694 574 C658 629 556 665 440 665 C199 665 38 531 38 330 C38 129 199 -5 440 -5 C535 -5 638 17 697 51 C697 51 697 230 697 230 C697 230 697 242 697 242 C698 274 706 295 717 295 C717 295 720 295 720 295 C720 295 720 310 720 310 L720 310 Z " />
<glyph glyph-name="gbreve" unicode="&#x11f;" horiz-adv-x="492" d="M103 710 C137 630 190 576 235 576 C281 576 334 630 368 710 C368 710 349 718 349 718 C332 678 287 652 235 652 C184 652 139 678 122 718 C122 718 103 710 103 710 L103 710 Z M486 500 C486 500 348 472 348 472 C319 493 280 505 235 505 C131 505 61 441 61 346 C61 280 95 229 151 204 C88 194 48 150 48 89 C48 49 69 18 104 0 C54 -28 23 -77 23 -134 C23 -199 86 -243 180 -243 C351 -243 466 -157 466 -28 C466 45 394 94 285 94 C285 94 196 90 196 90 C154 88 125 106 125 134 C125 166 147 187 180 187 C180 187 235 187 235 187 C340 187 410 251 410 346 C410 378 402 407 387 430 C387 430 486 436 486 436 C486 436 486 500 486 500 L486 500 Z M169 346 C169 426 196 479 235 479 C275 479 301 426 301 346 C301 266 275 212 235 212 C196 212 169 266 169 346 L169 346 Z M138 -13 C157 -17 179 -19 202 -18 C202 -18 254 -15 254 -15 C331 -15 383 -44 383 -86 C383 -161 307 -211 193 -211 C136 -211 99 -175 99 -120 C99 -74 114 -36 138 -13 C138 -13 138 -13 138 -13 L138 -13 Z " />
<glyph glyph-name="Gdotaccent" unicode="&#x120;" horiz-adv-x="818" d="M440 730 C482 730 510 758 510 800 C510 843 482 871 440 871 C397 871 369 843 369 800 C369 758 397 730 440 730 L440 730 Z M720 310 C720 310 697 310 697 310 C697 310 622 310 622 310 C622 310 548 310 548 310 C548 310 524 310 524 310 C524 310 524 295 524 295 C524 295 527 295 527 295 C540 295 548 269 548 230 C548 230 548 46 548 46 C513 39 476 36 440 36 C308 36 220 154 220 330 C220 506 308 624 440 624 C471 624 500 621 527 616 C527 616 527 616 527 616 C579 607 635 572 668 528 C672 522 678 516 681 511 C681 511 694 511 694 511 C694 511 694 574 694 574 C694 574 677 562 677 562 C677 562 677 562 677 562 C677 562 694 574 694 574 C658 629 556 665 440 665 C199 665 38 531 38 330 C38 129 199 -5 440 -5 C535 -5 638 17 697 51 C697 51 697 230 697 230 C697 230 697 242 697 242 C698 274 706 295 717 295 C717 295 720 295 720 295 C720 295 720 310 720 310 L720 310 Z " />
<glyph glyph-name="gdotaccent" unicode="&#x121;" horiz-adv-x="492" d="M235 570 C278 570 306 598 306 640 C306 683 278 711 235 711 C193 711 165 683 165 640 C165 598 193 570 235 570 L235 570 Z M486 500 C486 500 348 472 348 472 C319 493 280 505 235 505 C131 505 61 441 61 346 C61 280 95 229 151 204 C88 194 48 150 48 89 C48 49 69 18 104 0 C54 -28 23 -77 23 -134 C23 -199 86 -243 180 -243 C351 -243 466 -157 466 -28 C466 45 394 94 285 94 C285 94 196 90 196 90 C154 88 125 106 125 134 C125 166 147 187 180 187 C180 187 235 187 235 187 C340 187 410 251 410 346 C410 378 402 407 387 430 C387 430 486 436 486 436 C486 436 486 500 486 500 L486 500 Z M169 346 C169 426 196 479 235 479 C275 479 301 426 301 346 C301 266 275 212 235 212 C196 212 169 266 169 346 L169 346 Z M138 -13 C157 -17 179 -19 202 -18 C202 -18 254 -15 254 -15 C331 -15 383 -44 383 -86 C383 -161 307 -211 193 -211 C136 -211 99 -175 99 -120 C99 -74 114 -36 138 -13 C138 -13 138 -13 138 -13 L138 -13 Z " />
<glyph glyph-name="Hcircumflex" unicode="&#x124;" horiz-adv-x="698" d="M438 645 C438 645 442 645 442 645 C454 645 462 619 462 580 C462 580 462 368 462 368 C462 368 227 368 227 368 C227 368 227 580 227 580 C227 619 235 645 247 645 C247 645 251 645 251 645 C251 645 251 660 251 660 C251 660 227 660 227 660 C227 660 144 660 144 660 C144 660 61 660 61 660 C61 660 37 660 37 660 C37 660 37 645 37 645 C37 645 41 645 41 645 C53 645 61 619 61 580 C61 580 61 80 61 80 C61 41 53 15 41 15 C41 15 37 15 37 15 C37 15 37 0 37 0 C37 0 61 0 61 0 C61 0 144 0 144 0 C144 0 227 0 227 0 C227 0 251 0 251 0 C251 0 251 15 251 15 C251 15 247 15 247 15 C235 15 227 41 227 80 C227 80 227 326 227 326 C227 326 462 326 462 326 C462 326 462 80 462 80 C462 41 454 15 442 15 C442 15 438 15 438 15 C438 15 438 0 438 0 C438 0 462 0 462 0 C462 0 545 0 545 0 C545 0 628 0 628 0 C628 0 652 0 652 0 C651 0 651 3 652 8 C651 12 651 15 652 15 C652 15 648 15 648 15 C636 15 628 41 628 80 C628 80 628 580 628 580 C628 619 636 645 648 645 C648 645 652 645 652 645 C651 645 651 648 652 653 C651 657 651 660 652 660 C652 660 628 660 628 660 C628 660 545 660 545 660 C545 660 462 660 462 660 C462 660 438 660 438 660 C438 660 438 645 438 645 L438 645 Z M345 800 C345 800 455 691 455 691 C455 691 467 701 467 701 C467 701 381 872 381 872 C376 881 363 904 345 904 C326 904 313 882 308 872 C308 872 222 701 222 701 C222 701 234 691 234 691 C234 691 345 800 345 800 L345 800 Z " />
<glyph glyph-name="Itilde" unicode="&#x128;" horiz-adv-x="288" d="M-5 755 C-5 789 11 811 34 811 C92 811 146 748 204 748 C257 748 293 803 293 885 C293 885 274 885 274 885 C274 849 256 825 229 825 C171 825 117 887 59 887 C9 887 -24 834 -24 755 C-24 755 -5 755 -5 755 L-5 755 Z M241 660 C241 660 217 660 217 660 C217 660 135 660 135 660 C135 660 52 660 52 660 C52 660 28 660 28 660 C28 660 28 645 28 645 C28 645 32 645 32 645 C44 645 52 619 52 580 C52 580 52 80 52 80 C52 41 44 15 32 15 C32 15 28 15 28 15 C28 15 28 0 28 0 C28 0 52 0 52 0 C52 0 135 0 135 0 C135 0 217 0 217 0 C217 0 241 0 241 0 C241 0 241 15 241 15 C241 15 238 15 238 15 C226 15 218 41 217 80 C217 80 217 580 217 580 C218 619 226 645 238 645 C238 645 241 645 241 645 C241 645 241 660 241 660 L241 660 Z " />
<glyph glyph-name="itilde" unicode="&#x129;" horiz-adv-x="266" d="M-6 595 C-6 629 10 651 33 651 C91 651 145 588 202 588 C256 588 292 643 292 725 C292 725 272 725 272 725 C272 689 254 665 227 665 C170 665 116 727 58 727 C8 727 -25 674 -25 595 C-25 595 -6 595 -6 595 L-6 595 Z M191 0 C191 0 215 0 215 0 C215 0 215 15 215 15 C215 15 210 15 210 15 C199 15 191 13 191 0 C191 0 191 420 191 420 C191 420 191 505 191 505 C191 505 184 505 184 505 C184 505 56 466 56 466 C56 466 56 456 56 456 C56 456 70 434 70 434 C74 428 76 419 76 387 C76 387 76 0 76 0 C76 0 52 0 52 0 C52 0 52 15 52 15 C52 15 57 15 57 15 C68 15 76 13 76 0 C76 0 191 0 191 0 L191 0 Z " />
<glyph glyph-name="Imacron" unicode="&#x12a;" horiz-adv-x="288" d="M-15 761 C-15 761 285 761 285 761 C285 761 285 825 285 825 C285 825 -15 825 -15 825 C-15 825 -15 761 -15 761 L-15 761 Z M241 660 C241 660 217 660 217 660 C217 660 135 660 135 660 C135 660 52 660 52 660 C52 660 28 660 28 660 C28 660 28 645 28 645 C28 645 32 645 32 645 C44 645 52 619 52 580 C52 580 52 80 52 80 C52 41 44 15 32 15 C32 15 28 15 28 15 C28 15 28 0 28 0 C28 0 52 0 52 0 C52 0 135 0 135 0 C135 0 217 0 217 0 C217 0 241 0 241 0 C241 0 241 15 241 15 C241 15 238 15 238 15 C226 15 218 41 217 80 C217 80 217 580 217 580 C218 619 226 645 238 645 C238 645 241 645 241 645 C241 645 241 660 241 660 L241 660 Z " />
<glyph glyph-name="imacron" unicode="&#x12b;" horiz-adv-x="266" d="M-17 601 C-17 601 283 601 283 601 C283 601 283 665 283 665 C283 665 -17 665 -17 665 C-17 665 -17 601 -17 601 L-17 601 Z M191 0 C191 0 215 0 215 0 C215 0 215 15 215 15 C215 15 210 15 210 15 C199 15 191 13 191 0 C191 0 191 420 191 420 C191 420 191 505 191 505 C191 505 184 505 184 505 C184 505 56 466 56 466 C56 466 56 456 56 456 C56 456 70 434 70 434 C74 428 76 419 76 387 C76 387 76 0 76 0 C76 0 52 0 52 0 C52 0 52 15 52 15 C52 15 57 15 57 15 C68 15 76 13 76 0 C76 0 191 0 191 0 L191 0 Z " />
<glyph glyph-name="Ibreve" unicode="&#x12c;" horiz-adv-x="288" d="M2 870 C36 790 89 736 135 736 C180 736 233 790 267 870 C267 870 248 878 248 878 C231 838 186 812 135 812 C83 812 38 838 21 878 C21 878 2 870 2 870 L2 870 Z M241 660 C241 660 217 660 217 660 C217 660 135 660 135 660 C135 660 52 660 52 660 C52 660 28 660 28 660 C28 660 28 645 28 645 C28 645 32 645 32 645 C44 645 52 619 52 580 C52 580 52 80 52 80 C52 41 44 15 32 15 C32 15 28 15 28 15 C28 15 28 0 28 0 C28 0 52 0 52 0 C52 0 135 0 135 0 C135 0 217 0 217 0 C217 0 241 0 241 0 C241 0 241 15 241 15 C241 15 238 15 238 15 C226 15 218 41 217 80 C217 80 217 580 217 580 C218 619 226 645 238 645 C238 645 241 645 241 645 C241 645 241 660 241 660 L241 660 Z " />
<glyph glyph-name="ibreve" unicode="&#x12d;" horiz-adv-x="266" d="M1 710 C35 630 88 576 133 576 C178 576 231 630 266 710 C266 710 247 718 247 718 C230 678 185 652 133 652 C82 652 37 678 20 718 C20 718 1 710 1 710 L1 710 Z M191 0 C191 0 215 0 215 0 C215 0 215 15 215 15 C215 15 210 15 210 15 C199 15 191 13 191 0 C191 0 191 420 191 420 C191 420 191 505 191 505 C191 505 184 505 184 505 C184 505 56 466 56 466 C56 466 56 456 56 456 C56 456 70 434 70 434 C74 428 76 419 76 387 C76 387 76 0 76 0 C76 0 52 0 52 0 C52 0 52 15 52 15 C52 15 57 15 57 15 C68 15 76 13 76 0 C76 0 191 0 191 0 L191 0 Z " />
<glyph glyph-name="Idotaccent" unicode="&#x130;" horiz-adv-x="288" d="M135 730 C177 730 205 758 205 800 C205 843 177 871 135 871 C92 871 64 843 64 800 C64 758 92 730 135 730 L135 730 Z M241 660 C241 660 217 660 217 660 C217 660 135 660 135 660 C135 660 52 660 52 660 C52 660 28 660 28 660 C28 660 28 645 28 645 C28 645 32 645 32 645 C44 645 52 619 52 580 C52 580 52 80 52 80 C52 41 44 15 32 15 C32 15 28 15 28 15 C28 15 28 0 28 0 C28 0 52 0 52 0 C52 0 135 0 135 0 C135 0 217 0 217 0 C217 0 241 0 241 0 C241 0 241 15 241 15 C241 15 238 15 238 15 C226 15 218 41 217 80 C217 80 217 580 217 580 C218 619 226 645 238 645 C238 645 241 645 241 645 C241 645 241 660 241 660 L241 660 Z " />
<glyph glyph-name="dotlessi" unicode="&#x131;" horiz-adv-x="266" d="M191 0 C191 0 215 0 215 0 C215 0 215 15 215 15 C215 15 210 15 210 15 C199 15 191 13 191 0 C191 0 191 420 191 420 C191 420 191 505 191 505 C191 505 184 505 184 505 C184 505 56 466 56 466 C56 466 56 456 56 456 C56 456 70 434 70 434 C74 428 76 419 76 387 C76 387 76 0 76 0 C76 0 52 0 52 0 C52 0 52 15 52 15 C52 15 57 15 57 15 C68 15 76 13 76 0 C76 0 191 0 191 0 L191 0 Z " />
<glyph glyph-name="Jcircumflex" unicode="&#x134;" horiz-adv-x="435" d="M388 660 C388 660 364 660 364 660 C364 660 282 660 282 660 C282 660 199 660 199 660 C199 660 175 660 175 660 C175 660 175 645 175 645 C175 645 179 645 179 645 C191 645 199 619 199 580 C199 580 199 200 199 200 C199 68 193 16 178 16 C147 16 122 35 115 64 C107 95 84 115 58 115 C19 115 -1 95 7 64 C18 20 73 -10 146 -10 C304 -10 365 88 365 339 C365 339 364 586 364 586 C366 622 374 645 385 645 C385 645 388 645 388 645 C388 645 388 660 388 660 L388 660 Z M282 800 C282 800 392 691 392 691 C392 691 404 701 404 701 C404 701 318 872 318 872 C313 881 300 904 282 904 C263 904 250 882 245 872 C245 872 160 701 160 701 C160 701 171 691 171 691 C171 691 282 800 282 800 L282 800 Z " />
<glyph glyph-name="Lacute" unicode="&#x139;" horiz-adv-x="592" d="M121 690 C121 690 238 814 238 814 C259 837 273 855 273 861 C273 875 227 909 208 909 C204 909 193 889 179 859 C179 859 109 699 109 699 C109 699 121 690 121 690 L121 690 Z M251 660 C251 660 227 660 227 660 C227 660 144 660 144 660 C144 660 61 660 61 660 C61 660 37 660 37 660 C37 660 37 645 37 645 C37 645 41 645 41 645 C53 645 61 619 61 580 C61 580 61 80 61 80 C61 41 53 15 41 15 C41 15 37 15 37 15 C37 15 37 0 37 0 C37 0 61 0 61 0 C61 0 144 0 144 0 C144 0 227 0 227 0 C227 0 445 0 445 0 C445 0 522 0 522 0 C522 0 525 0 525 0 C526 6 527 14 528 21 C532 41 537 67 540 87 C540 87 537 87 537 87 C528 88 521 89 521 89 C496 60 447 42 387 41 C387 41 227 41 227 41 C227 41 227 580 227 580 C227 619 235 645 247 645 C247 645 251 645 251 645 C251 645 251 660 251 660 L251 660 Z " />
<glyph glyph-name="Lcaron" unicode="&#x13d;" horiz-adv-x="592" d="M251 660 C251 660 227 660 227 660 C227 660 144 660 144 660 C144 660 61 660 61 660 C61 660 37 660 37 660 C37 660 37 645 37 645 C37 645 41 645 41 645 C53 645 61 619 61 580 C61 580 61 80 61 80 C61 41 53 15 41 15 C41 15 37 15 37 15 C37 15 37 0 37 0 C37 0 61 0 61 0 C61 0 144 0 144 0 C144 0 227 0 227 0 C227 0 445 0 445 0 C445 0 522 0 522 0 C522 0 525 0 525 0 C526 6 527 14 528 21 C532 41 537 67 540 87 C540 87 537 87 537 87 C528 88 521 89 521 89 C496 60 447 42 387 41 C387 41 227 41 227 41 C227 41 227 580 227 580 C227 619 235 645 247 645 C247 645 251 645 251 645 C251 645 251 660 251 660 L251 660 Z M395 556 C422 603 441 656 441 665 C441 684 391 691 369 691 C345 691 329 628 323 583 C323 583 297 417 297 417 C297 417 312 412 312 412 C312 412 395 556 395 556 L395 556 Z " />
<glyph glyph-name="lcaron" unicode="&#x13e;" horiz-adv-x="266" d="M52 674 C72 649 76 639 76 579 C76 579 76 80 76 80 C76 41 68 15 56 15 C56 15 52 15 52 15 C52 15 52 0 52 0 C52 0 76 0 76 0 C76 0 133 0 133 0 C133 0 191 0 191 0 C191 0 215 0 215 0 C215 0 215 15 215 15 C215 15 211 15 211 15 C199 15 191 41 191 80 C191 80 191 610 191 610 C191 610 191 690 191 690 C191 690 191 720 191 720 C191 720 168 720 168 720 C168 720 52 683 52 683 C52 683 52 674 52 674 L52 674 Z M335 586 C363 633 381 686 381 695 C381 714 331 721 309 721 C286 721 270 658 263 613 C263 613 237 447 237 447 C237 447 252 442 252 442 C252 442 335 586 335 586 L335 586 Z " />
<glyph glyph-name="Lslash" unicode="&#x141;" horiz-adv-x="592" d="M11 261 C11 261 61 275 61 275 C61 275 61 80 61 80 C61 41 53 15 41 15 C41 15 37 15 37 15 C37 15 37 0 37 0 C37 0 61 0 61 0 C61 0 144 0 144 0 C144 0 227 0 227 0 C227 0 445 0 445 0 C445 0 522 0 522 0 C522 0 525 0 525 0 C526 6 527 14 528 21 C532 41 537 67 540 87 C540 87 537 87 537 87 C528 88 521 89 521 89 C496 60 447 42 387 41 C387 41 227 41 227 41 C227 41 227 321 227 321 C227 321 374 361 374 361 C374 361 374 399 374 399 C374 399 227 359 227 359 C227 359 227 580 227 580 C227 619 235 645 247 645 C247 645 251 645 251 645 C251 645 251 660 251 660 C251 660 227 660 227 660 C227 660 144 660 144 660 C144 660 61 660 61 660 C61 660 37 660 37 660 C37 660 37 645 37 645 C37 645 41 645 41 645 C53 645 61 619 61 580 C61 580 61 313 61 313 C61 313 11 299 11 299 C11 299 11 261 11 261 L11 261 Z " />
<glyph glyph-name="lslash" unicode="&#x142;" horiz-adv-x="266" d="M-24 291 C-24 291 76 323 76 323 C76 323 76 80 76 80 C76 41 68 15 56 15 C56 15 52 15 52 15 C52 15 52 0 52 0 C52 0 76 0 76 0 C76 0 133 0 133 0 C133 0 191 0 191 0 C191 0 215 0 215 0 C215 0 215 15 215 15 C215 15 211 15 211 15 C199 15 191 41 191 80 C191 80 191 359 191 359 C191 359 291 391 291 391 C291 391 291 429 291 429 C291 429 191 397 191 397 C191 397 191 610 191 610 C191 610 191 690 191 690 C191 690 191 720 191 720 C191 720 168 720 168 720 C168 720 52 683 52 683 C52 683 52 674 52 674 C72 649 76 639 76 579 C76 579 76 361 76 361 C76 361 -24 329 -24 329 C-24 329 -24 291 -24 291 L-24 291 Z " />
<glyph glyph-name="Nacute" unicode="&#x143;" horiz-adv-x="639" d="M290 690 C290 690 407 814 407 814 C428 837 442 855 442 861 C442 875 396 909 376 909 C372 909 362 889 348 859 C348 859 277 699 277 699 C277 699 290 690 290 690 L290 690 Z M599 660 C599 660 575 660 575 660 C575 660 551 660 551 660 C551 660 526 660 526 660 C526 660 502 660 502 660 C502 660 502 645 502 645 C502 645 506 645 506 645 C518 645 526 619 526 580 C526 580 526 201 526 201 C526 201 226 660 226 660 C226 660 115 660 115 660 C115 660 90 660 90 660 C90 660 65 660 65 660 C65 660 42 660 42 660 C42 660 42 645 42 645 C42 645 45 645 45 645 C57 645 65 619 65 580 C65 580 65 80 65 80 C65 41 57 15 45 15 C45 15 42 15 42 15 C42 15 42 0 42 0 C42 0 65 0 65 0 C65 0 90 0 90 0 C90 0 115 0 115 0 C115 0 139 0 139 0 C139 0 139 15 139 15 C139 15 135 15 135 15 C123 15 115 41 115 80 C115 80 115 531 115 531 C115 531 450 23 450 23 C450 23 479 -20 479 -20 C479 -20 575 -20 575 -20 C575 -20 575 84 575 84 C575 84 575 580 575 580 C576 619 584 645 596 645 C596 645 599 645 599 645 C599 645 599 660 599 660 L599 660 Z " />
<glyph glyph-name="nacute" unicode="&#x144;" horiz-adv-x="547" d="M200 530 C200 530 317 654 317 654 C338 677 352 695 352 701 C352 715 306 749 287 749 C282 749 271 729 258 699 C258 699 187 539 187 539 C187 539 200 530 200 530 L200 530 Z M501 15 C501 15 497 15 497 15 C485 15 477 41 477 80 C477 80 477 338 477 338 C477 438 446 505 366 505 C281 505 217 478 190 433 C190 433 190 500 190 500 C190 500 167 500 167 500 C167 500 51 463 51 463 C51 463 51 454 51 454 C71 429 75 419 75 359 C75 359 75 80 75 80 C75 41 67 15 55 15 C55 15 51 15 51 15 C51 15 51 0 51 0 C51 0 75 0 75 0 C75 0 133 0 133 0 C133 0 190 0 190 0 C190 0 214 0 214 0 C214 0 214 15 214 15 C214 15 210 15 210 15 C198 15 190 41 190 80 C190 80 190 390 190 390 C190 390 190 396 190 396 C204 416 235 428 277 428 C338 428 362 387 362 326 C362 326 362 80 362 80 C362 41 354 15 342 15 C342 15 338 15 338 15 C338 15 338 0 338 0 C338 0 362 0 362 0 C362 0 419 0 419 0 C419 0 477 0 477 0 C477 0 501 0 501 0 C501 0 501 15 501 15 L501 15 Z " />
<glyph glyph-name="Ncaron" unicode="&#x147;" horiz-adv-x="639" d="M599 660 C599 660 575 660 575 660 C575 660 551 660 551 660 C551 660 526 660 526 660 C526 660 502 660 502 660 C502 660 502 645 502 645 C502 645 506 645 506 645 C518 645 526 619 526 580 C526 580 526 201 526 201 C526 201 226 660 226 660 C226 660 115 660 115 660 C115 660 90 660 90 660 C90 660 65 660 65 660 C65 660 42 660 42 660 C42 660 42 645 42 645 C42 645 45 645 45 645 C57 645 65 619 65 580 C65 580 65 80 65 80 C65 41 57 15 45 15 C45 15 42 15 42 15 C42 15 42 0 42 0 C42 0 65 0 65 0 C65 0 90 0 90 0 C90 0 115 0 115 0 C115 0 139 0 139 0 C139 0 139 15 139 15 C139 15 135 15 135 15 C123 15 115 41 115 80 C115 80 115 531 115 531 C115 531 450 23 450 23 C450 23 479 -20 479 -20 C479 -20 575 -20 575 -20 C575 -20 575 84 575 84 C575 84 575 580 575 580 C576 619 584 645 596 645 C596 645 599 645 599 645 C599 645 599 660 599 660 L599 660 Z M321 820 C321 820 431 929 431 929 C431 929 442 919 442 919 C442 919 357 748 357 748 C352 739 339 716 320 716 C302 716 289 738 284 748 C284 748 198 919 198 919 C198 919 210 929 210 929 C210 929 321 820 321 820 L321 820 Z " />
<glyph glyph-name="ncaron" unicode="&#x148;" horiz-adv-x="547" d="M501 15 C501 15 497 15 497 15 C485 15 477 41 477 80 C477 80 477 338 477 338 C477 438 446 505 366 505 C281 505 217 478 190 433 C190 433 190 500 190 500 C190 500 167 500 167 500 C167 500 51 463 51 463 C51 463 51 454 51 454 C71 429 75 419 75 359 C75 359 75 80 75 80 C75 41 67 15 55 15 C55 15 51 15 51 15 C51 15 51 0 51 0 C51 0 75 0 75 0 C75 0 133 0 133 0 C133 0 190 0 190 0 C190 0 214 0 214 0 C214 0 214 15 214 15 C214 15 210 15 210 15 C198 15 190 41 190 80 C190 80 190 390 190 390 C190 390 190 396 190 396 C204 416 235 428 277 428 C338 428 362 387 362 326 C362 326 362 80 362 80 C362 41 354 15 342 15 C342 15 338 15 338 15 C338 15 338 0 338 0 C338 0 362 0 362 0 C362 0 419 0 419 0 C419 0 477 0 477 0 C477 0 501 0 501 0 C501 0 501 15 501 15 L501 15 Z M276 661 C276 661 386 769 386 769 C386 769 398 759 398 759 C398 759 313 588 313 588 C308 579 294 556 276 556 C258 556 245 578 240 588 C240 588 154 759 154 759 C154 759 166 769 166 769 C166 769 276 661 276 661 L276 661 Z " />
<glyph glyph-name="Omacron" unicode="&#x14c;" horiz-adv-x="772" d="M227 761 C227 761 527 761 527 761 C527 761 527 825 527 825 C527 825 227 825 227 825 C227 825 227 761 227 761 L227 761 Z M377 36 C273 36 220 171 220 330 C220 489 273 624 377 624 C481 624 534 489 534 330 C534 171 481 36 377 36 L377 36 Z M38 330 C38 149 153 -5 377 -5 C601 -5 716 149 716 330 C716 511 601 665 377 665 C153 665 38 511 38 330 L38 330 Z " />
<glyph glyph-name="omacron" unicode="&#x14d;" horiz-adv-x="620" d="M160 601 C160 601 460 601 460 601 C460 601 460 665 460 665 C460 665 160 665 160 665 C160 665 160 601 160 601 L160 601 Z M310 21 C235 21 185 113 185 250 C185 387 235 479 310 479 C386 479 436 387 436 250 C436 113 386 21 310 21 L310 21 Z M57 250 C57 97 158 -5 310 -5 C463 -5 564 97 564 250 C564 403 463 505 310 505 C158 505 57 403 57 250 L57 250 Z " />
<glyph glyph-name="Obreve" unicode="&#x14e;" horiz-adv-x="772" d="M245 870 C279 790 332 736 377 736 C422 736 475 790 509 870 C509 870 491 878 491 878 C474 838 429 812 377 812 C326 812 281 838 264 878 C264 878 245 870 245 870 L245 870 Z M377 36 C273 36 220 171 220 330 C220 489 273 624 377 624 C481 624 534 489 534 330 C534 171 481 36 377 36 L377 36 Z M38 330 C38 149 153 -5 377 -5 C601 -5 716 149 716 330 C716 511 601 665 377 665 C153 665 38 511 38 330 L38 330 Z " />
<glyph glyph-name="obreve" unicode="&#x14f;" horiz-adv-x="620" d="M178 710 C212 630 265 576 310 576 C356 576 409 630 443 710 C443 710 424 718 424 718 C407 678 362 652 310 652 C259 652 214 678 197 718 C197 718 178 710 178 710 L178 710 Z M310 21 C235 21 185 113 185 250 C185 387 235 479 310 479 C386 479 436 387 436 250 C436 113 386 21 310 21 L310 21 Z M57 250 C57 97 158 -5 310 -5 C463 -5 564 97 564 250 C564 403 463 505 310 505 C158 505 57 403 57 250 L57 250 Z " />
<glyph glyph-name="Racute" unicode="&#x154;" horiz-adv-x="692" d="M260 690 C260 690 376 814 376 814 C397 837 411 855 412 861 C411 875 365 909 346 909 C342 909 331 889 317 859 C317 859 247 699 247 699 C247 699 260 690 260 690 L260 690 Z M31 645 C31 645 34 645 34 645 C46 645 54 619 54 580 C54 580 54 80 54 80 C54 41 46 15 34 15 C34 15 31 15 31 15 C31 15 31 0 31 0 C31 0 54 0 54 0 C54 0 137 0 137 0 C137 0 220 0 220 0 C220 0 244 0 244 0 C244 0 244 15 244 15 C244 15 240 15 240 15 C228 15 220 41 220 80 C220 80 220 312 220 312 C220 312 283 312 283 312 C283 312 423 106 423 106 C493 4 502 0 642 0 C642 0 686 0 686 0 C686 0 686 25 686 25 C686 25 681 25 681 25 C639 25 635 27 598 81 C598 81 428 323 428 323 C544 348 616 408 616 489 C616 592 502 660 331 660 C331 660 220 660 220 660 C220 660 137 660 137 660 C137 660 54 660 54 660 C54 660 31 660 31 660 C31 660 31 645 31 645 L31 645 Z M309 344 C309 344 261 344 261 344 C261 344 220 344 220 344 C220 344 220 628 220 628 C220 628 331 628 331 628 C398 628 442 573 442 490 C442 402 389 344 309 344 L309 344 Z " />
<glyph glyph-name="Rcaron" unicode="&#x158;" horiz-adv-x="658" d="M31 645 C31 645 34 645 34 645 C46 645 54 619 54 580 C54 580 54 80 54 80 C54 41 46 15 34 15 C34 15 31 15 31 15 C31 15 31 0 31 0 C31 0 54 0 54 0 C54 0 137 0 137 0 C137 0 220 0 220 0 C220 0 244 0 244 0 C244 0 244 15 244 15 C244 15 240 15 240 15 C228 15 220 41 220 80 C220 80 220 312 220 312 C220 312 309 312 309 312 C347 206 484 63 651 -46 C651 -46 663 -27 663 -27 C601 13 517 156 454 329 C454 329 450 329 450 329 C553 355 616 413 616 489 C616 592 502 660 331 660 C331 660 220 660 220 660 C220 660 137 660 137 660 C137 660 54 660 54 660 C54 660 31 660 31 660 C31 660 31 645 31 645 L31 645 Z M336 820 C336 820 446 929 446 929 C446 929 457 919 457 919 C457 919 372 748 372 748 C367 739 354 716 335 716 C317 716 304 738 299 748 C299 748 213 919 213 919 C213 919 225 929 225 929 C225 929 336 820 336 820 L336 820 Z M220 344 C220 344 220 628 220 628 C220 628 331 628 331 628 C398 628 442 573 442 490 C442 402 389 344 309 344 C309 344 220 344 220 344 L220 344 Z " />
<glyph glyph-name="rcaron" unicode="&#x159;" horiz-adv-x="400" d="M51 454 C71 429 75 419 75 359 C75 359 75 80 75 80 C75 41 67 15 55 15 C55 15 51 15 51 15 C51 15 51 0 51 0 C51 0 75 0 75 0 C75 0 133 0 133 0 C133 0 190 0 190 0 C190 0 214 0 214 0 C214 0 214 15 214 15 C214 15 210 15 210 15 C198 15 190 41 190 80 C190 80 190 390 190 390 C190 390 188 400 188 400 C196 413 207 420 220 420 C258 420 291 376 328 376 C361 376 383 398 383 431 C383 476 363 505 312 505 C250 505 204 472 186 420 C186 420 174 500 174 500 C174 500 151 500 151 500 C151 500 51 463 51 463 C51 463 51 454 51 454 L51 454 Z M194 660 C194 660 304 769 304 769 C304 769 316 759 316 759 C316 759 230 588 230 588 C225 579 212 556 194 556 C175 556 162 578 157 588 C157 588 71 759 71 759 C71 759 83 769 83 769 C83 769 194 660 194 660 L194 660 Z " />
<glyph glyph-name="Sacute" unicode="&#x15a;" horiz-adv-x="528" d="M212 690 C212 690 328 814 328 814 C349 837 363 855 364 861 C364 875 318 909 298 909 C293 909 283 889 269 859 C269 859 199 699 199 699 C199 699 212 690 212 690 L212 690 Z M53 146 C53 146 40 146 40 146 C40 146 40 74 40 74 C71 27 154 -5 248 -5 C385 -5 476 77 476 200 C476 284 413 362 319 394 C220 428 154 477 154 515 C154 580 195 624 257 624 C276 624 295 620 313 612 C313 612 313 612 313 612 C336 602 387 554 419 514 C419 514 432 514 432 514 C432 514 432 586 432 586 C401 633 334 665 264 665 C129 665 39 579 39 449 C39 370 99 297 190 266 C291 230 359 177 359 132 C359 74 315 36 248 36 C235 36 222 37 210 39 C210 39 210 39 210 39 C160 47 95 94 53 146 L53 146 Z " />
<glyph glyph-name="sacute" unicode="&#x15b;" horiz-adv-x="431" d="M159 530 C159 530 275 654 275 654 C297 677 311 695 311 701 C311 715 265 749 245 749 C241 749 230 729 217 699 C217 699 146 539 146 539 C146 539 159 530 159 530 L159 530 Z M48 108 C48 108 48 59 48 59 C74 21 131 -5 190 -5 C300 -5 374 58 374 153 C374 207 333 261 272 291 C194 328 142 372 142 402 C142 448 179 479 235 479 C244 479 253 476 263 471 C273 465 295 445 319 418 C320 416 321 415 322 414 C322 414 323 414 323 414 C327 409 332 404 337 398 C339 396 342 392 344 390 C344 390 356 390 356 390 C356 390 356 436 356 436 C328 477 280 505 235 505 C126 505 53 448 53 362 C53 310 108 249 191 209 C243 184 278 145 278 111 C278 57 245 21 196 21 C192 21 189 21 185 21 C185 21 185 22 185 22 C152 25 106 54 70 96 C67 99 63 105 59 108 C59 108 48 108 48 108 L48 108 Z " />
<glyph glyph-name="Scircumflex" unicode="&#x15c;" horiz-adv-x="528" d="M53 146 C53 146 40 146 40 146 C40 146 40 74 40 74 C71 27 154 -5 248 -5 C385 -5 476 77 476 200 C476 284 413 362 319 394 C220 428 154 477 154 515 C154 580 195 624 257 624 C276 624 295 620 313 612 C313 612 313 612 313 612 C336 602 387 554 419 514 C419 514 432 514 432 514 C432 514 432 586 432 586 C401 633 334 665 264 665 C129 665 39 579 39 449 C39 370 99 297 190 266 C291 230 359 177 359 132 C359 74 315 36 248 36 C235 36 222 37 210 39 C210 39 210 39 210 39 C160 47 95 94 53 146 L53 146 Z M257 799 C257 799 367 691 367 691 C367 691 379 701 379 701 C379 701 294 872 294 872 C289 881 275 904 257 904 C239 904 226 882 221 872 C221 872 135 701 135 701 C135 701 147 691 147 691 C147 691 257 799 257 799 L257 799 Z " />
<glyph glyph-name="Scedilla" unicode="&#x15e;" horiz-adv-x="528" d="M53 146 C53 146 40 146 40 146 C40 146 40 74 40 74 C71 27 154 -5 248 -5 C385 -5 476 77 476 200 C476 284 413 362 319 394 C220 428 154 477 154 515 C154 580 195 624 257 624 C276 624 295 620 313 612 C313 612 313 612 313 612 C336 602 387 554 419 514 C419 514 432 514 432 514 C432 514 432 586 432 586 C401 633 334 665 264 665 C129 665 39 579 39 449 C39 370 99 297 190 266 C291 230 359 177 359 132 C359 74 315 36 248 36 C235 36 222 37 210 39 C210 39 210 39 210 39 C160 47 95 94 53 146 L53 146 Z " />
<glyph glyph-name="scedilla" unicode="&#x15f;" horiz-adv-x="431" d="M48 108 C48 108 48 59 48 59 C74 21 131 -5 190 -5 C300 -5 374 58 374 153 C374 207 333 261 272 291 C194 328 142 372 142 402 C142 448 179 479 235 479 C244 479 253 476 263 471 C273 465 295 445 319 418 C320 416 321 415 322 414 C322 414 323 414 323 414 C327 409 332 404 337 398 C339 396 342 392 344 390 C344 390 356 390 356 390 C356 390 356 436 356 436 C328 477 280 505 235 505 C126 505 53 448 53 362 C53 310 108 249 191 209 C243 184 278 145 278 111 C278 57 245 21 196 21 C192 21 189 21 185 21 C185 21 185 22 185 22 C152 25 106 54 70 96 C67 99 63 105 59 108 C59 108 48 108 48 108 L48 108 Z " />
<glyph glyph-name="Scaron" unicode="&#x160;" horiz-adv-x="528" d="M53 146 C53 146 40 146 40 146 C40 146 40 74 40 74 C71 27 154 -5 248 -5 C385 -5 476 77 476 200 C476 284 413 362 319 394 C220 428 154 477 154 515 C154 580 195 624 257 624 C276 624 295 620 313 612 C313 612 313 612 313 612 C336 602 387 554 419 514 C419 514 432 514 432 514 C432 514 432 586 432 586 C401 633 334 665 264 665 C129 665 39 579 39 449 C39 370 99 297 190 266 C291 230 359 177 359 132 C359 74 315 36 248 36 C235 36 222 37 210 39 C210 39 210 39 210 39 C160 47 95 94 53 146 L53 146 Z M257 821 C257 821 367 929 367 929 C367 929 379 919 379 919 C379 919 294 748 294 748 C289 739 275 716 257 716 C239 716 226 738 221 748 C221 748 135 919 135 919 C135 919 147 929 147 929 C147 929 257 821 257 821 L257 821 Z " />
<glyph glyph-name="scaron" unicode="&#x161;" horiz-adv-x="431" d="M48 108 C48 108 48 59 48 59 C74 21 131 -5 190 -5 C300 -5 374 58 374 153 C374 207 333 261 272 291 C194 328 142 372 142 402 C142 448 179 479 235 479 C244 479 253 476 263 471 C273 465 295 445 319 418 C320 416 321 415 322 414 C322 414 323 414 323 414 C327 409 332 404 337 398 C339 396 342 392 344 390 C344 390 356 390 356 390 C356 390 356 436 356 436 C328 477 280 505 235 505 C126 505 53 448 53 362 C53 310 108 249 191 209 C243 184 278 145 278 111 C278 57 245 21 196 21 C192 21 189 21 185 21 C185 21 185 22 185 22 C152 25 106 54 70 96 C67 99 63 105 59 108 C59 108 48 108 48 108 L48 108 Z M235 660 C235 660 345 769 345 769 C345 769 357 759 357 759 C357 759 271 588 271 588 C266 579 253 556 235 556 C216 556 203 578 198 588 C198 588 113 759 113 759 C113 759 124 769 124 769 C124 769 235 660 235 660 L235 660 Z " />
<glyph glyph-name="Tcaron" unicode="&#x164;" horiz-adv-x="633" d="M626 571 C624 591 621 619 620 639 C619 646 618 654 618 660 C618 660 587 660 587 660 C587 660 538 660 538 660 C538 660 96 660 96 660 C96 660 47 660 47 660 C47 660 16 660 16 660 C16 654 15 646 14 639 C12 619 10 591 8 571 C8 571 20 571 20 571 C20 571 28 578 28 578 C55 603 104 619 152 619 C152 619 234 619 234 619 C234 619 234 80 234 80 C234 41 226 15 214 15 C214 15 210 15 210 15 C210 15 210 0 210 0 C210 0 234 0 234 0 C234 0 317 0 317 0 C317 0 400 0 400 0 C400 0 424 0 424 0 C423 0 423 3 424 8 C423 12 423 15 424 15 C424 15 420 15 420 15 C409 15 401 36 400 68 C400 68 400 80 400 80 C400 80 400 619 400 619 C400 619 481 619 481 619 C529 619 579 603 606 578 C606 578 614 571 614 571 C614 571 626 571 626 571 L626 571 Z M317 821 C317 821 427 929 427 929 C427 929 439 919 439 919 C439 919 354 748 354 748 C349 739 335 716 317 716 C298 716 285 738 280 748 C280 748 195 919 195 919 C195 919 207 929 207 929 C207 929 317 821 317 821 L317 821 Z " />
<glyph glyph-name="tcaron" unicode="&#x165;" horiz-adv-x="384" d="M345 500 C345 500 210 500 210 500 C210 500 210 640 210 640 C210 640 191 640 191 640 C190 639 190 638 189 637 C141 544 78 476 32 468 C32 468 32 455 32 455 C32 455 95 455 95 455 C95 455 95 125 95 125 C95 24 119 -5 204 -5 C263 -5 311 51 358 135 C358 135 347 141 347 141 C315 84 287 46 261 46 C221 46 210 59 210 105 C210 105 210 455 210 455 C210 455 345 455 345 455 C345 455 345 500 345 500 L345 500 Z M489 586 C517 633 536 686 536 695 C536 714 485 721 464 721 C440 721 424 658 417 613 C417 613 392 447 392 447 C392 447 406 442 406 442 C406 442 489 586 489 586 L489 586 Z " />
<glyph glyph-name="Utilde" unicode="&#x168;" horiz-adv-x="635" d="M174 755 C174 789 189 811 213 811 C270 811 324 748 382 748 C435 748 471 803 471 885 C471 885 452 885 452 885 C452 849 434 825 407 825 C349 825 295 887 238 887 C188 887 155 834 155 755 C155 755 174 755 174 755 L174 755 Z M609 660 C609 660 581 660 581 660 C581 660 562 660 562 660 C562 660 543 660 543 660 C543 660 515 660 515 660 C515 660 515 645 515 645 C515 645 519 645 519 645 C533 645 543 615 543 570 C543 570 543 202 543 202 C543 113 487 53 343 53 C247 53 210 107 210 187 C210 187 210 580 210 580 C210 619 218 645 230 645 C230 645 234 645 234 645 C234 645 234 660 234 660 C234 660 210 660 210 660 C210 660 127 660 127 660 C127 660 44 660 44 660 C44 660 21 660 21 660 C21 660 21 645 21 645 C21 645 24 645 24 645 C36 645 44 619 44 580 C44 580 44 219 44 219 C44 85 121 -5 318 -5 C507 -5 581 73 581 189 C581 189 581 570 581 570 C582 615 591 645 604 645 C604 645 609 645 609 645 C609 645 609 660 609 660 L609 660 Z " />
<glyph glyph-name="utilde" unicode="&#x169;" horiz-adv-x="512" d="M107 595 C107 629 123 651 146 651 C204 651 257 588 315 588 C368 588 404 643 404 725 C404 725 385 725 385 725 C385 689 367 665 340 665 C282 665 228 727 171 727 C121 727 88 674 88 595 C88 595 107 595 107 595 L107 595 Z M471 46 C451 71 447 81 447 141 C447 141 447 500 447 500 C447 500 389 500 389 500 C389 500 332 500 332 500 C332 500 308 500 308 500 C308 500 308 485 308 485 C308 485 312 485 312 485 C324 485 332 459 332 420 C332 420 332 112 332 112 C319 87 298 71 266 71 C196 71 160 109 160 166 C160 166 160 500 160 500 C160 500 103 500 103 500 C103 500 45 500 45 500 C45 500 21 500 21 500 C21 500 21 485 21 485 C21 485 25 485 25 485 C37 485 45 459 45 420 C45 420 45 154 45 154 C45 59 90 -5 176 -5 C251 -5 301 29 332 84 C332 84 332 30 332 30 C332 30 332 0 332 0 C332 0 355 0 355 0 C355 0 471 37 471 37 C471 37 471 46 471 46 L471 46 Z " />
<glyph glyph-name="Umacron" unicode="&#x16a;" horiz-adv-x="635" d="M163 761 C163 761 463 761 463 761 C463 761 463 825 463 825 C463 825 163 825 163 825 C163 825 163 761 163 761 L163 761 Z M609 660 C609 660 581 660 581 660 C581 660 562 660 562 660 C562 660 543 660 543 660 C543 660 515 660 515 660 C515 660 515 645 515 645 C515 645 519 645 519 645 C533 645 543 615 543 570 C543 570 543 202 543 202 C543 113 487 53 343 53 C247 53 210 107 210 187 C210 187 210 580 210 580 C210 619 218 645 230 645 C230 645 234 645 234 645 C234 645 234 660 234 660 C234 660 210 660 210 660 C210 660 127 660 127 660 C127 660 44 660 44 660 C44 660 21 660 21 660 C21 660 21 645 21 645 C21 645 24 645 24 645 C36 645 44 619 44 580 C44 580 44 219 44 219 C44 85 121 -5 318 -5 C507 -5 581 73 581 189 C581 189 581 570 581 570 C582 615 591 645 604 645 C604 645 609 645 609 645 C609 645 609 660 609 660 L609 660 Z " />
<glyph glyph-name="umacron" unicode="&#x16b;" horiz-adv-x="512" d="M96 601 C96 601 396 601 396 601 C396 601 396 665 396 665 C396 665 96 665 96 665 C96 665 96 601 96 601 L96 601 Z M471 46 C451 71 447 81 447 141 C447 141 447 500 447 500 C447 500 389 500 389 500 C389 500 332 500 332 500 C332 500 308 500 308 500 C308 500 308 485 308 485 C308 485 312 485 312 485 C324 485 332 459 332 420 C332 420 332 112 332 112 C319 87 298 71 266 71 C196 71 160 109 160 166 C160 166 160 500 160 500 C160 500 103 500 103 500 C103 500 45 500 45 500 C45 500 21 500 21 500 C21 500 21 485 21 485 C21 485 25 485 25 485 C37 485 45 459 45 420 C45 420 45 154 45 154 C45 59 90 -5 176 -5 C251 -5 301 29 332 84 C332 84 332 30 332 30 C332 30 332 0 332 0 C332 0 355 0 355 0 C355 0 471 37 471 37 C471 37 471 46 471 46 L471 46 Z " />
<glyph glyph-name="Ubreve" unicode="&#x16c;" horiz-adv-x="635" d="M181 870 C215 790 268 736 313 736 C358 736 411 790 445 870 C445 870 426 878 426 878 C409 838 364 812 313 812 C261 812 216 838 200 878 C200 878 181 870 181 870 L181 870 Z M609 660 C609 660 581 660 581 660 C581 660 562 660 562 660 C562 660 543 660 543 660 C543 660 515 660 515 660 C515 660 515 645 515 645 C515 645 519 645 519 645 C533 645 543 615 543 570 C543 570 543 202 543 202 C543 113 487 53 343 53 C247 53 210 107 210 187 C210 187 210 580 210 580 C210 619 218 645 230 645 C230 645 234 645 234 645 C234 645 234 660 234 660 C234 660 210 660 210 660 C210 660 127 660 127 660 C127 660 44 660 44 660 C44 660 21 660 21 660 C21 660 21 645 21 645 C21 645 24 645 24 645 C36 645 44 619 44 580 C44 580 44 219 44 219 C44 85 121 -5 318 -5 C507 -5 581 73 581 189 C581 189 581 570 581 570 C582 615 591 645 604 645 C604 645 609 645 609 645 C609 645 609 660 609 660 L609 660 Z " />
<glyph glyph-name="ubreve" unicode="&#x16d;" horiz-adv-x="512" d="M114 710 C148 630 201 576 246 576 C291 576 344 630 378 710 C378 710 359 718 359 718 C343 678 298 652 246 652 C195 652 150 678 133 718 C133 718 114 710 114 710 L114 710 Z M471 46 C451 71 447 81 447 141 C447 141 447 500 447 500 C447 500 389 500 389 500 C389 500 332 500 332 500 C332 500 308 500 308 500 C308 500 308 485 308 485 C308 485 312 485 312 485 C324 485 332 459 332 420 C332 420 332 112 332 112 C319 87 298 71 266 71 C196 71 160 109 160 166 C160 166 160 500 160 500 C160 500 103 500 103 500 C103 500 45 500 45 500 C45 500 21 500 21 500 C21 500 21 485 21 485 C21 485 25 485 25 485 C37 485 45 459 45 420 C45 420 45 154 45 154 C45 59 90 -5 176 -5 C251 -5 301 29 332 84 C332 84 332 30 332 30 C332 30 332 0 332 0 C332 0 355 0 355 0 C355 0 471 37 471 37 C471 37 471 46 471 46 L471 46 Z " />
<glyph glyph-name="Uring" unicode="&#x16e;" horiz-adv-x="635" d="M313 721 C278 721 249 752 249 788 C249 827 275 854 313 854 C351 854 377 827 377 788 C377 752 348 721 313 721 L313 721 Z M217 788 C217 738 261 695 313 695 C365 695 409 738 409 788 C409 843 371 880 313 880 C255 880 217 843 217 788 L217 788 Z M609 660 C609 660 581 660 581 660 C581 660 562 660 562 660 C562 660 543 660 543 660 C543 660 515 660 515 660 C515 660 515 645 515 645 C515 645 519 645 519 645 C533 645 543 615 543 570 C543 570 543 202 543 202 C543 113 487 53 343 53 C247 53 210 107 210 187 C210 187 210 580 210 580 C210 619 218 645 230 645 C230 645 234 645 234 645 C234 645 234 660 234 660 C234 660 210 660 210 660 C210 660 127 660 127 660 C127 660 44 660 44 660 C44 660 21 660 21 660 C21 660 21 645 21 645 C21 645 24 645 24 645 C36 645 44 619 44 580 C44 580 44 219 44 219 C44 85 121 -5 318 -5 C507 -5 581 73 581 189 C581 189 581 570 581 570 C582 615 591 645 604 645 C604 645 609 645 609 645 C609 645 609 660 609 660 L609 660 Z " />
<glyph glyph-name="uring" unicode="&#x16f;" horiz-adv-x="512" d="M246 561 C211 561 182 592 182 628 C182 667 208 694 246 694 C284 694 310 667 310 628 C310 592 281 561 246 561 L246 561 Z M150 628 C150 578 194 535 246 535 C298 535 342 578 342 628 C342 683 304 720 246 720 C188 720 150 683 150 628 L150 628 Z M471 46 C451 71 447 81 447 141 C447 141 447 500 447 500 C447 500 389 500 389 500 C389 500 332 500 332 500 C332 500 308 500 308 500 C308 500 308 485 308 485 C308 485 312 485 312 485 C324 485 332 459 332 420 C332 420 332 112 332 112 C319 87 298 71 266 71 C196 71 160 109 160 166 C160 166 160 500 160 500 C160 500 103 500 103 500 C103 500 45 500 45 500 C45 500 21 500 21 500 C21 500 21 485 21 485 C21 485 25 485 25 485 C37 485 45 459 45 420 C45 420 45 154 45 154 C45 59 90 -5 176 -5 C251 -5 301 29 332 84 C332 84 332 30 332 30 C332 30 332 0 332 0 C332 0 355 0 355 0 C355 0 471 37 471 37 C471 37 471 46 471 46 L471 46 Z " />
<glyph glyph-name="Wcircumflex" unicode="&#x174;" horiz-adv-x="976" d="M962 660 C962 660 942 660 942 660 C942 660 923 660 923 660 C923 660 904 660 904 660 C904 660 871 660 871 660 C871 660 871 645 871 645 C871 645 875 645 875 645 C890 645 892 619 880 580 C880 580 880 580 880 580 C880 580 703 -15 703 -15 C703 -15 760 177 760 177 C760 177 565 670 565 670 C565 670 533 670 533 670 C533 670 294 -15 294 -15 C294 -15 356 163 356 163 C356 163 221 590 221 590 C212 623 213 645 224 645 C224 645 227 645 227 645 C228 645 228 648 227 653 C228 657 228 660 227 660 C227 660 199 660 199 660 C199 660 108 660 108 660 C108 660 17 660 17 660 C17 660 4 660 4 660 C4 660 4 645 4 645 C4 645 7 645 7 645 C16 645 31 621 48 585 C48 585 294 -15 294 -15 C294 -15 326 -15 326 -15 C326 -15 565 670 565 670 C565 670 495 468 495 468 C495 468 703 -15 703 -15 C703 -15 734 -15 734 -15 C734 -15 917 580 917 580 C917 580 918 580 918 580 C930 619 946 645 958 645 C958 645 962 645 962 645 C962 645 962 660 962 660 L962 660 Z M549 799 C549 799 659 691 659 691 C659 691 671 701 671 701 C671 701 586 872 586 872 C581 881 567 904 549 904 C530 904 517 882 512 872 C512 872 427 701 427 701 C427 701 439 691 439 691 C439 691 549 799 549 799 L549 799 Z " />
<glyph glyph-name="Ycircumflex" unicode="&#x176;" horiz-adv-x="654" d="M426 15 C426 15 422 15 422 15 C410 15 402 41 402 80 C402 80 402 358 402 358 C402 358 578 594 578 594 C603 625 624 645 633 645 C633 645 636 645 636 645 C636 645 636 660 636 660 C636 660 627 660 627 660 C627 660 608 660 608 660 C608 660 588 660 588 660 C588 660 553 660 553 660 C554 660 554 657 553 653 C554 648 554 645 553 645 C553 645 557 645 557 645 C570 645 553 611 515 560 C515 560 515 560 515 560 C515 560 368 359 368 359 C368 359 360 359 360 359 C360 359 250 580 250 580 C250 580 250 580 250 580 C230 619 225 645 236 645 C236 645 239 645 239 645 C239 645 239 660 239 660 C239 660 210 660 210 660 C210 660 111 660 111 660 C111 660 12 660 12 660 C12 660 3 660 3 660 C3 660 3 645 3 645 C3 645 6 645 6 645 C15 645 37 619 62 580 C62 580 62 580 62 580 C62 580 236 302 236 302 C236 302 236 80 236 80 C236 41 228 15 216 15 C216 15 213 15 213 15 C213 15 213 0 213 0 C213 0 236 0 236 0 C236 0 319 0 319 0 C319 0 402 0 402 0 C402 0 426 0 426 0 C426 0 426 15 426 15 L426 15 Z M319 799 C319 799 429 691 429 691 C429 691 441 701 441 701 C441 701 356 872 356 872 C351 881 338 904 319 904 C301 904 288 882 283 872 C283 872 197 701 197 701 C197 701 209 691 209 691 C209 691 319 799 319 799 L319 799 Z " />
<glyph glyph-name="Ydieresis" unicode="&#x178;" horiz-adv-x="654" d="M419 730 C462 730 490 758 490 800 C490 843 462 871 419 871 C377 871 349 843 349 800 C349 758 377 730 419 730 L419 730 Z M219 730 C261 730 289 758 289 800 C289 843 261 871 219 871 C177 871 149 843 149 800 C149 758 177 730 219 730 L219 730 Z M426 15 C426 15 422 15 422 15 C410 15 402 41 402 80 C402 80 402 358 402 358 C402 358 578 594 578 594 C603 625 624 645 633 645 C633 645 636 645 636 645 C636 645 636 660 636 660 C636 660 627 660 627 660 C627 660 608 660 608 660 C608 660 588 660 588 660 C588 660 553 660 553 660 C554 660 554 657 553 653 C554 648 554 645 553 645 C553 645 557 645 557 645 C570 645 553 611 515 560 C515 560 515 560 515 560 C515 560 368 359 368 359 C368 359 360 359 360 359 C360 359 250 580 250 580 C250 580 250 580 250 580 C230 619 225 645 236 645 C236 645 239 645 239 645 C239 645 239 660 239 660 C239 660 210 660 210 660 C210 660 111 660 111 660 C111 660 12 660 12 660 C12 660 3 660 3 660 C3 660 3 645 3 645 C3 645 6 645 6 645 C15 645 37 619 62 580 C62 580 62 580 62 580 C62 580 236 302 236 302 C236 302 236 80 236 80 C236 41 228 15 216 15 C216 15 213 15 213 15 C213 15 213 0 213 0 C213 0 236 0 236 0 C236 0 319 0 319 0 C319 0 402 0 402 0 C402 0 426 0 426 0 C426 0 426 15 426 15 L426 15 Z " />
<glyph glyph-name="Zacute" unicode="&#x179;" horiz-adv-x="590" d="M323 690 C323 690 439 814 439 814 C461 837 475 855 475 861 C475 875 429 909 409 909 C405 909 394 889 381 859 C381 859 310 699 310 699 C310 699 323 690 323 690 L323 690 Z M489 91 C489 91 482 84 482 84 C460 59 409 43 355 43 C355 43 235 43 235 43 C235 43 537 660 537 660 C537 660 442 660 442 660 C442 660 348 660 348 660 C348 660 158 660 158 660 C158 660 109 660 109 660 C109 660 78 660 78 660 C76 654 74 646 72 639 C67 622 61 598 56 580 C56 580 68 580 68 580 C68 580 77 586 77 586 C107 606 158 619 207 619 C207 619 328 619 328 619 C328 619 29 0 29 0 C29 0 121 0 121 0 C121 0 214 0 214 0 C214 0 412 0 412 0 C412 0 490 0 490 0 C490 0 492 0 492 0 C494 7 495 15 496 22 C500 42 504 68 508 88 C502 89 489 91 489 91 L489 91 Z " />
<glyph glyph-name="zacute" unicode="&#x17a;" horiz-adv-x="497" d="M198 530 C198 530 315 654 315 654 C336 677 350 695 350 701 C350 715 304 749 285 749 C281 749 270 729 256 699 C256 699 186 539 186 539 C186 539 198 530 198 530 L198 530 Z M210 473 C210 473 210 473 210 473 C210 473 293 474 293 474 C293 474 44 0 44 0 C44 0 112 0 112 0 C112 0 180 0 180 0 C180 0 333 0 333 0 C333 0 407 0 407 0 C407 0 413 0 413 0 C413 4 414 9 415 13 C418 30 422 54 425 71 C419 72 406 74 406 74 C383 44 332 26 272 26 C272 26 194 26 194 26 C194 26 440 500 440 500 C440 500 374 500 374 500 C374 500 307 500 307 500 C307 500 157 500 157 500 C157 500 108 500 108 500 C108 500 77 500 77 500 C76 496 75 490 74 487 C70 474 66 457 62 445 C62 445 74 445 74 445 C74 445 83 449 83 449 C111 463 162 473 210 473 L210 473 Z " />
<glyph glyph-name="Zdotaccent" unicode="&#x17b;" horiz-adv-x="590" d="M323 730 C365 730 393 758 393 800 C393 843 365 871 323 871 C280 871 252 843 252 800 C252 758 280 730 323 730 L323 730 Z M489 91 C489 91 482 84 482 84 C460 59 409 43 355 43 C355 43 235 43 235 43 C235 43 537 660 537 660 C537 660 442 660 442 660 C442 660 348 660 348 660 C348 660 158 660 158 660 C158 660 109 660 109 660 C109 660 78 660 78 660 C76 654 74 646 72 639 C67 622 61 598 56 580 C56 580 68 580 68 580 C68 580 77 586 77 586 C107 606 158 619 207 619 C207 619 328 619 328 619 C328 619 29 0 29 0 C29 0 121 0 121 0 C121 0 214 0 214 0 C214 0 412 0 412 0 C412 0 490 0 490 0 C490 0 492 0 492 0 C494 7 495 15 496 22 C500 42 504 68 508 88 C502 89 489 91 489 91 L489 91 Z " />
<glyph glyph-name="zdotaccent" unicode="&#x17c;" horiz-adv-x="497" d="M274 570 C316 570 344 598 344 640 C344 683 316 711 274 711 C232 711 204 683 204 640 C204 598 232 570 274 570 L274 570 Z M210 473 C210 473 210 473 210 473 C210 473 293 474 293 474 C293 474 44 0 44 0 C44 0 112 0 112 0 C112 0 180 0 180 0 C180 0 333 0 333 0 C333 0 407 0 407 0 C407 0 413 0 413 0 C413 4 414 9 415 13 C418 30 422 54 425 71 C419 72 406 74 406 74 C383 44 332 26 272 26 C272 26 194 26 194 26 C194 26 440 500 440 500 C440 500 374 500 374 500 C374 500 307 500 307 500 C307 500 157 500 157 500 C157 500 108 500 108 500 C108 500 77 500 77 500 C76 496 75 490 74 487 C70 474 66 457 62 445 C62 445 74 445 74 445 C74 445 83 449 83 449 C111 463 162 473 210 473 L210 473 Z " />
<glyph glyph-name="Zcaron" unicode="&#x17d;" horiz-adv-x="590" d="M489 91 C489 91 482 84 482 84 C460 59 409 43 355 43 C355 43 235 43 235 43 C235 43 537 660 537 660 C537 660 442 660 442 660 C442 660 348 660 348 660 C348 660 158 660 158 660 C158 660 109 660 109 660 C109 660 78 660 78 660 C76 654 74 646 72 639 C67 622 61 598 56 580 C56 580 68 580 68 580 C68 580 77 586 77 586 C107 606 158 619 207 619 C207 619 328 619 328 619 C328 619 29 0 29 0 C29 0 121 0 121 0 C121 0 214 0 214 0 C214 0 412 0 412 0 C412 0 490 0 490 0 C490 0 492 0 492 0 C494 7 495 15 496 22 C500 42 504 68 508 88 C502 89 489 91 489 91 L489 91 Z M323 820 C323 820 433 929 433 929 C433 929 445 919 445 919 C445 919 359 748 359 748 C354 739 341 716 323 716 C304 716 291 738 286 748 C286 748 201 919 201 919 C201 919 212 929 212 929 C212 929 323 820 323 820 L323 820 Z " />
<glyph glyph-name="zcaron" unicode="&#x17e;" horiz-adv-x="497" d="M210 473 C210 473 210 473 210 473 C210 473 293 474 293 474 C293 474 44 0 44 0 C44 0 112 0 112 0 C112 0 180 0 180 0 C180 0 333 0 333 0 C333 0 407 0 407 0 C407 0 413 0 413 0 C413 4 414 9 415 13 C418 30 422 54 425 71 C419 72 406 74 406 74 C383 44 332 26 272 26 C272 26 194 26 194 26 C194 26 440 500 440 500 C440 500 374 500 374 500 C374 500 307 500 307 500 C307 500 157 500 157 500 C157 500 108 500 108 500 C108 500 77 500 77 500 C76 496 75 490 74 487 C70 474 66 457 62 445 C62 445 74 445 74 445 C74 445 83 449 83 449 C111 463 162 473 210 473 L210 473 Z M274 661 C274 661 384 769 384 769 C384 769 396 759 396 759 C396 759 311 588 311 588 C306 579 293 556 274 556 C256 556 243 578 238 588 C238 588 152 759 152 759 C152 759 164 769 164 769 C164 769 274 661 274 661 L274 661 Z " />
<glyph glyph-name="SmallLetterOwithogon" unicode="&#x1eb;" horiz-adv-x="712" d="M722 -39 C722 -39 711 -31 711 -31 C697 -50 642 -63 573 -63 C480 -63 413 -40 366 -5 C558 3 656 129 656 277 C656 429 552 558 349 558 C147 558 43 429 43 277 C43 131 138 6 324 -4 C408 -85 491 -138 561 -138 C615 -138 680 -98 722 -39 L722 -39 Z M349 32 C255 32 207 145 207 277 C207 409 255 521 349 521 C444 521 492 409 492 277 C492 145 444 32 349 32 L349 32 Z " />
<glyph glyph-name="CapitalLetterAwithdo" unicode="&#x226;" horiz-adv-x="684" d="M306 730 C348 730 376 758 376 800 C376 843 348 871 306 871 C263 871 235 843 235 800 C235 758 263 730 306 730 L306 730 Z M666 15 C666 15 662 15 662 15 C648 15 627 41 609 80 C609 80 609 80 609 80 C609 80 326 675 326 675 C326 675 285 675 285 675 C285 675 58 80 58 80 C58 80 57 80 57 80 C42 41 24 15 12 15 C12 15 9 15 9 15 C9 15 9 0 9 0 C9 0 27 0 27 0 C27 0 54 0 54 0 C54 0 81 0 81 0 C81 0 116 0 116 0 C116 0 116 15 116 15 C116 15 112 15 112 15 C97 15 98 47 116 95 C116 95 115 95 115 95 C115 95 164 230 164 230 C164 230 359 230 359 230 C359 230 434 69 434 69 C448 36 451 15 441 15 C441 15 438 15 438 15 C438 15 438 0 438 0 C438 0 466 0 466 0 C466 0 556 0 556 0 C556 0 647 0 647 0 C647 0 666 0 666 0 C666 0 666 15 666 15 L666 15 Z M340 270 C340 270 179 271 179 271 C179 271 250 465 250 465 C250 465 340 270 340 270 L340 270 Z " />
<glyph glyph-name="LETTERSMALLCAPITALG" unicode="&#x262;" horiz-adv-x="744" d="M646 260 C646 260 622 260 622 260 C622 260 555 260 555 260 C555 260 488 260 488 260 C488 260 464 260 464 260 C464 260 464 245 464 245 C464 245 468 245 468 245 C480 245 488 219 488 180 C488 180 488 43 488 43 C457 36 426 32 397 32 C283 32 207 130 207 277 C207 423 283 521 397 521 C414 521 431 520 447 517 C447 517 447 517 447 517 C501 509 559 472 594 424 C598 419 603 411 607 406 C607 406 620 406 620 406 C620 406 620 467 620 467 C620 467 604 456 604 456 C604 456 604 456 604 456 C604 456 620 467 620 467 C583 522 494 558 397 558 C185 558 43 445 43 277 C43 108 185 -5 397 -5 C473 -5 563 18 622 52 C622 52 622 180 622 180 C623 219 631 245 643 245 C643 245 646 245 646 245 C646 245 646 260 646 260 L646 260 Z " />
<glyph glyph-name="LETTERSMALLCAPITALI" unicode="&#x26a;" horiz-adv-x="279" d="M233 553 C204 554 164 554 135 553 C105 554 66 554 36 553 C36 553 36 538 36 538 C36 538 40 538 40 538 C52 539 60 513 60 473 C60 473 60 80 60 80 C60 41 52 15 40 15 C40 15 36 15 36 15 C36 15 36 0 36 0 C36 0 60 0 60 0 C60 0 135 0 135 0 C135 0 209 0 209 0 C209 0 233 0 233 0 C233 0 233 15 233 15 C233 15 229 15 229 15 C217 15 209 41 209 80 C209 80 209 473 209 473 C209 513 217 539 229 538 C229 538 233 538 233 538 C233 538 233 553 233 553 L233 553 Z " />
<glyph glyph-name="LETTERSMALLCAPITALN" unicode="&#x274;" horiz-adv-x="574" d="M534 553 C520 554 502 554 488 553 C474 552 456 554 442 553 C442 553 442 538 442 538 C442 538 446 538 446 538 C458 539 466 513 466 473 C466 473 466 179 466 179 C466 179 212 553 212 553 C212 553 111 553 111 553 C111 553 89 553 89 553 C75 554 57 554 43 553 C43 553 43 538 43 538 C43 538 46 538 46 538 C59 539 67 513 67 473 C67 473 67 80 67 80 C67 41 59 15 46 15 C46 15 43 15 43 15 C43 15 43 0 43 0 C43 0 67 0 67 0 C67 0 89 0 89 0 C89 0 111 0 111 0 C111 0 135 0 135 0 C135 0 135 15 135 15 C135 15 132 15 132 15 C119 15 111 41 111 80 C111 80 111 440 111 440 C111 440 398 21 398 21 C398 21 426 -20 426 -20 C426 -20 510 -20 510 -20 C510 -20 510 75 510 75 C510 75 510 473 510 473 C511 513 519 539 531 538 C531 538 534 538 534 538 C534 538 534 553 534 553 L534 553 Z " />
<glyph glyph-name="LETTERSMALLCAPITALR" unicode="&#x280;" horiz-adv-x="613" d="M35 538 C35 538 38 538 38 538 C51 539 59 513 59 473 C59 473 59 80 59 80 C59 41 51 15 38 15 C38 15 35 15 35 15 C35 15 35 0 35 0 C35 0 59 0 59 0 C59 0 133 0 133 0 C133 0 207 0 207 0 C207 0 231 0 231 0 C231 0 231 15 231 15 C231 15 228 15 228 15 C216 15 208 41 207 80 C207 80 207 261 207 261 C207 261 241 261 241 261 C241 261 357 106 357 106 C434 4 442 0 567 0 C567 0 607 0 607 0 C607 0 607 23 607 23 C607 23 602 23 602 23 C563 23 559 25 514 84 C514 84 371 272 371 272 C470 293 531 344 531 412 C531 497 430 553 277 553 C277 553 207 553 207 553 C207 553 133 553 133 553 C104 554 64 554 35 553 C35 553 35 538 35 538 L35 538 Z M263 290 C263 290 219 290 219 290 C219 290 207 290 207 290 C207 290 207 525 207 525 C207 525 277 525 277 525 C335 525 374 480 374 412 C374 339 330 290 263 290 L263 290 Z " />
<glyph glyph-name="LETTERSMALLCAPITALY" unicode="&#x28f;" horiz-adv-x="578" d="M382 15 C382 15 378 15 378 15 C366 15 358 41 358 80 C358 80 358 304 358 304 C358 304 358 304 358 304 C358 304 489 473 489 473 C489 473 489 473 489 473 C489 473 489 474 490 474 C490 474 500 487 500 487 C525 519 547 539 557 538 C557 538 560 538 560 538 C560 538 560 553 560 553 C552 554 542 554 534 553 C518 554 497 554 482 553 C481 553 481 553 481 553 C481 553 481 553 482 553 C482 553 482 553 482 553 C482 552 482 550 481 546 C482 542 482 539 481 538 C481 538 485 538 485 538 C495 539 483 513 454 472 C454 472 327 304 327 304 C327 304 312 304 312 304 C312 304 233 473 233 473 C233 473 233 473 233 473 C215 513 210 539 221 538 C221 538 224 538 224 538 C224 538 224 553 224 553 C188 554 141 554 106 553 C77 554 38 554 9 553 C9 553 9 538 9 538 C9 538 11 538 11 538 C20 539 43 513 68 473 C68 473 68 473 68 473 C68 473 209 255 209 255 C209 255 209 80 209 80 C209 41 201 15 189 15 C189 15 185 15 185 15 C185 15 185 0 185 0 C185 0 209 0 209 0 C209 0 284 0 284 0 C284 0 358 0 358 0 C358 0 382 0 382 0 C382 0 382 15 382 15 L382 15 Z " />
<glyph glyph-name="LETTERSMALLCAPITALB" unicode="&#x299;" horiz-adv-x="607" d="M35 538 C35 538 38 538 38 538 C51 539 59 513 59 473 C59 473 59 80 59 80 C59 41 51 15 38 15 C38 15 35 15 35 15 C35 15 35 0 35 0 C35 0 59 0 59 0 C59 0 133 0 133 0 C133 0 207 0 207 0 C207 0 298 0 298 0 C468 0 581 62 581 155 C581 229 501 284 375 299 C468 318 524 362 524 420 C524 500 425 553 278 553 C278 553 207 553 207 553 C207 553 133 553 133 553 C104 554 64 554 35 553 C35 553 35 538 35 538 L35 538 Z M207 306 C207 306 207 525 207 525 C207 525 278 525 278 525 C336 525 375 483 375 420 C375 351 330 306 264 306 C264 306 207 306 207 306 L207 306 Z M207 281 C207 281 262 281 262 281 C359 281 424 231 424 155 C424 79 369 29 287 29 C287 29 207 29 207 29 C207 29 207 281 207 281 L207 281 Z " />
<glyph glyph-name="LETTERSMALLCAPITALH" unicode="&#x29c;" horiz-adv-x="638" d="M395 538 C395 538 398 538 398 538 C411 539 419 513 419 473 C419 473 419 311 419 311 C419 311 214 311 214 311 C214 311 214 473 214 473 C215 513 223 539 235 538 C235 538 238 538 238 538 C238 538 238 553 238 553 C209 554 169 554 140 553 C111 552 71 554 42 553 C42 553 42 538 42 538 C42 538 45 538 45 538 C57 539 65 513 65 473 C65 473 65 80 65 80 C65 41 57 15 45 15 C45 15 42 15 42 15 C42 15 42 0 42 0 C42 0 65 0 65 0 C65 0 140 0 140 0 C140 0 214 0 214 0 C214 0 238 0 238 0 C238 0 238 15 238 15 C238 15 235 15 235 15 C223 15 215 41 214 80 C214 80 214 274 214 274 C214 274 419 274 419 274 C419 274 419 80 419 80 C419 41 411 15 398 15 C398 15 395 15 395 15 C395 15 395 0 395 0 C395 0 419 0 419 0 C419 0 493 0 493 0 C493 0 568 0 568 0 C568 0 592 0 592 0 C591 0 591 3 592 8 C591 12 591 15 592 15 C592 15 588 15 588 15 C576 15 568 41 568 80 C568 80 568 473 568 473 C568 513 576 539 588 538 C588 538 592 538 592 538 C591 539 591 542 592 546 C591 550 591 552 591 553 C592 553 592 553 592 553 C592 553 592 553 591 553 C591 553 591 553 591 553 C562 554 523 554 493 553 C464 554 424 554 395 553 C395 553 395 538 395 538 L395 538 Z " />
<glyph glyph-name="LETTERSMALLCAPITALL" unicode="&#x29f;" horiz-adv-x="535" d="M238 553 C209 554 169 554 140 553 C111 552 71 554 42 553 C42 553 42 538 42 538 C42 538 45 538 45 538 C57 539 65 513 65 473 C65 473 65 80 65 80 C65 41 57 15 45 15 C45 15 42 15 42 15 C42 15 42 0 42 0 C42 0 65 0 65 0 C65 0 140 0 140 0 C140 0 214 0 214 0 C214 0 387 0 387 0 C387 0 464 0 464 0 C464 0 467 0 467 0 C468 5 469 13 470 19 C473 38 478 63 482 83 C482 83 478 83 478 83 C469 84 463 85 463 85 C463 85 456 78 456 78 C433 54 382 37 329 37 C329 37 214 37 214 37 C214 37 214 473 214 473 C215 513 223 539 235 538 C235 538 238 538 238 538 C238 538 238 553 238 553 L238 553 Z " />
<glyph glyph-name="LETTERSMALLCAPITALA" unicode="&#x1d00;" horiz-adv-x="606" d="M588 15 C588 15 584 15 584 15 C572 15 553 36 535 69 C535 69 289 566 289 566 C289 566 252 566 252 566 C252 566 56 69 56 69 C41 36 25 15 14 15 C14 15 10 15 10 15 C10 15 10 0 10 0 C10 0 28 0 28 0 C28 0 53 0 53 0 C53 0 77 0 77 0 C77 0 112 0 112 0 C112 0 112 15 112 15 C112 15 108 15 108 15 C93 15 95 47 113 95 C113 95 113 95 113 95 C113 95 149 192 149 192 C149 192 312 192 312 192 C312 192 367 80 367 80 C367 80 367 80 367 80 C386 41 392 15 382 15 C382 15 379 15 379 15 C379 15 379 0 379 0 C379 0 407 0 407 0 C407 0 488 0 488 0 C488 0 569 0 569 0 C569 0 588 0 588 0 C588 0 588 15 588 15 L588 15 Z M294 228 C294 228 163 229 163 229 C163 229 219 380 219 380 C219 380 294 228 294 228 L294 228 Z " />
<glyph glyph-name="LETTERSMALLCAPITALC" unicode="&#x1d04;" horiz-adv-x="706" d="M640 406 C640 406 640 467 640 467 C640 467 624 456 624 456 C624 456 624 456 624 456 C624 456 640 467 640 467 C603 522 510 558 407 558 C189 558 43 445 43 277 C43 108 189 -5 407 -5 C510 -5 603 32 640 86 C640 86 640 148 640 148 C640 148 627 148 627 148 C623 142 618 135 614 130 C574 75 498 36 425 33 C425 33 425 32 425 32 C419 32 413 32 407 32 C287 32 207 130 207 277 C207 423 287 521 407 521 C428 521 449 519 469 516 C469 516 469 516 469 516 C522 508 580 471 614 424 C618 418 623 411 627 406 C627 406 640 406 640 406 L640 406 Z " />
<glyph glyph-name="LETTERSMALLCAPITALD" unicode="&#x1d05;" horiz-adv-x="701" d="M35 538 C35 538 38 538 38 538 C51 539 59 513 59 473 C59 473 59 80 59 80 C59 41 51 15 38 15 C38 15 35 15 35 15 C35 15 35 0 35 0 C35 0 59 0 59 0 C59 0 133 0 133 0 C133 0 207 0 207 0 C207 0 304 0 304 0 C508 0 644 111 644 277 C644 442 498 553 280 553 C280 553 207 553 207 553 C207 553 133 553 133 553 C104 554 64 554 35 553 C35 553 35 538 35 538 L35 538 Z M207 29 C207 29 207 525 207 525 C207 525 280 525 280 525 C409 525 495 426 495 277 C495 128 419 29 304 29 C304 29 207 29 207 29 L207 29 Z " />
<glyph glyph-name="LETTERSMALLCAPITALE" unicode="&#x1d07;" horiz-adv-x="535" d="M387 338 C375 321 334 314 279 314 C279 314 214 314 214 314 C214 314 214 516 214 516 C214 516 313 516 313 516 C379 516 434 500 457 473 C457 473 468 473 468 473 C468 473 468 535 468 535 C468 535 468 553 468 553 C468 554 465 554 461 553 C458 554 455 554 453 553 C434 554 408 554 388 553 C388 553 214 553 214 553 C214 553 140 553 140 553 C111 554 71 554 42 553 C42 553 42 538 42 538 C42 538 45 538 45 538 C57 539 65 513 65 473 C65 473 65 80 65 80 C65 41 57 15 45 15 C45 15 42 15 42 15 C42 15 42 0 42 0 C42 0 65 0 65 0 C65 0 140 0 140 0 C140 0 214 0 214 0 C214 0 387 0 387 0 C387 0 464 0 464 0 C464 0 467 0 467 0 C468 5 469 13 470 19 C473 37 478 62 481 80 C481 80 470 80 470 80 C470 80 462 74 462 74 C436 52 378 37 319 37 C319 37 214 37 214 37 C214 37 214 276 214 276 C214 276 279 276 279 276 C334 276 376 268 387 249 C387 249 399 249 399 249 C399 249 399 276 399 276 C399 276 399 295 399 295 C399 295 399 314 399 314 C399 314 399 338 399 338 C399 338 387 338 387 338 L387 338 Z " />
<glyph glyph-name="LETTERSMALLCAPITALJ" unicode="&#x1d0a;" horiz-adv-x="381" d="M335 553 C306 554 266 554 237 553 C207 554 168 554 138 553 C138 553 138 538 138 538 C138 538 142 538 142 538 C154 539 162 513 162 473 C162 473 162 168 162 168 C162 56 160 13 153 13 C130 13 111 31 104 57 C98 85 77 104 53 104 C18 104 0 85 7 58 C16 17 64 -10 125 -10 C260 -10 312 75 312 293 C312 293 311 485 311 485 C313 518 320 539 331 538 C331 538 335 538 335 538 C335 538 335 553 335 553 L335 553 Z " />
<glyph glyph-name="LETTERSMALLCAPITALK" unicode="&#x1d0b;" horiz-adv-x="585" d="M231 553 C202 554 162 554 133 553 C104 552 64 554 35 553 C35 553 35 538 35 538 C35 538 38 538 38 538 C51 539 59 513 59 473 C59 473 59 80 59 80 C59 41 51 15 38 15 C38 15 35 15 35 15 C35 15 35 0 35 0 C35 0 59 0 59 0 C59 0 133 0 133 0 C133 0 207 0 207 0 C207 0 231 0 231 0 C231 0 231 15 231 15 C231 15 228 15 228 15 C216 15 208 41 207 80 C207 80 207 298 207 298 C207 298 316 118 316 118 C370 30 430 -5 529 -5 C529 -5 569 -5 569 -5 C569 -5 569 18 569 18 C569 18 564 18 564 18 C519 18 469 72 386 210 C386 210 298 355 298 355 C298 355 394 481 394 481 C422 516 447 539 458 538 C458 538 462 538 462 538 C461 539 461 542 462 546 C461 550 461 552 461 553 C462 553 462 553 462 553 C462 553 462 553 461 553 C461 553 461 553 461 553 C451 554 437 554 427 553 C413 554 395 554 381 553 C380 553 380 553 380 553 C380 553 380 553 381 553 C381 553 381 553 381 553 C381 552 381 550 380 546 C381 542 381 539 380 538 C380 538 382 538 382 538 C387 539 377 521 357 492 C357 492 277 389 277 389 C277 389 277 389 277 389 C277 389 207 298 207 298 C207 298 207 473 207 473 C208 513 216 539 228 538 C228 538 231 538 231 538 C231 538 231 553 231 553 L231 553 Z " />
<glyph glyph-name="LETTERSMALLCAPITALM" unicode="&#x1d0d;" horiz-adv-x="758" d="M748 15 C748 15 744 15 744 15 C734 15 725 35 721 66 C721 66 699 486 699 486 C698 519 704 539 714 538 C714 538 718 538 718 538 C718 538 717 542 718 546 C717 550 717 553 717 553 C690 554 654 554 628 553 C628 553 601 553 601 553 C601 553 561 553 561 553 C561 553 382 163 382 163 C382 163 226 553 226 553 C226 553 128 553 128 553 C128 553 106 553 106 553 C92 554 73 554 59 553 C59 553 59 538 59 538 C59 538 63 538 63 538 C73 539 79 519 80 488 C80 488 61 67 61 67 C58 35 50 15 39 15 C39 15 35 15 35 15 C35 15 35 0 35 0 C35 0 58 0 58 0 C58 0 81 0 81 0 C81 0 103 0 103 0 C103 0 138 0 138 0 C138 0 138 15 138 15 C138 15 133 15 133 15 C117 15 107 42 107 83 C107 83 121 397 121 397 C121 397 294 21 294 21 C294 21 305 -5 305 -5 C305 -5 343 -5 343 -5 C343 -5 563 471 563 471 C563 471 573 80 573 80 C574 41 567 15 555 15 C555 15 552 15 552 15 C552 15 552 0 552 0 C552 0 576 0 576 0 C576 0 650 0 650 0 C650 0 725 0 725 0 C725 0 748 0 748 0 C748 0 748 15 748 15 L748 15 Z " />
<glyph glyph-name="LETTERSMALLCAPITALO" unicode="&#x1d0f;" horiz-adv-x="712" d="M349 32 C255 32 207 145 207 277 C207 409 255 521 349 521 C444 521 492 409 492 277 C492 145 444 32 349 32 L349 32 Z M43 277 C43 125 147 -5 349 -5 C552 -5 656 125 656 277 C656 429 552 558 349 558 C147 558 43 429 43 277 L43 277 Z " />
<glyph glyph-name="LETTERSMALLCAPITALP" unicode="&#x1d18;" horiz-adv-x="522" d="M35 538 C35 538 38 538 38 538 C51 539 59 513 59 473 C59 473 59 80 59 80 C59 41 51 15 38 15 C38 15 35 15 35 15 C35 15 35 0 35 0 C35 0 59 0 59 0 C59 0 133 0 133 0 C133 0 207 0 207 0 C207 0 231 0 231 0 C231 0 231 15 231 15 C231 15 228 15 228 15 C216 15 208 41 207 80 C207 80 207 246 207 246 C207 246 252 246 252 246 C398 246 496 308 496 400 C496 492 403 553 263 553 C263 553 207 553 207 553 C207 553 133 553 133 553 C104 554 64 554 35 553 C35 553 35 538 35 538 L35 538 Z M207 275 C207 275 207 525 207 525 C207 525 263 525 263 525 C308 525 339 475 339 400 C339 325 304 275 252 275 C252 275 207 275 207 275 L207 275 Z " />
<glyph glyph-name="LETTERSMALLCAPITALT" unicode="&#x1d1b;" horiz-adv-x="573" d="M385 15 C385 15 382 15 382 15 C370 15 362 41 361 80 C361 80 361 516 361 516 C361 516 418 516 418 516 C466 516 516 500 542 476 C542 476 550 468 550 468 C550 468 562 468 562 468 C560 489 558 515 556 535 C556 540 555 548 555 553 C555 554 552 554 547 553 C545 554 542 554 540 553 C520 554 494 554 475 553 C475 553 99 553 99 553 C80 554 54 554 34 553 C32 554 29 554 27 553 C22 554 19 554 19 553 C19 548 18 540 18 535 C16 515 13 489 12 468 C12 468 24 468 24 468 C24 468 32 476 32 476 C58 500 108 516 156 516 C156 516 212 516 212 516 C212 516 212 80 212 80 C212 41 204 15 192 15 C192 15 189 15 189 15 C189 15 189 0 189 0 C189 0 212 0 212 0 C212 0 287 0 287 0 C287 0 361 0 361 0 C361 0 385 0 385 0 C385 0 385 15 385 15 L385 15 Z " />
<glyph glyph-name="LETTERSMALLCAPITALU" unicode="&#x1d1c;" horiz-adv-x="562" d="M535 553 C522 554 504 554 491 553 C477 554 459 554 445 553 C445 553 445 538 445 538 C445 538 449 538 449 538 C463 539 472 514 474 474 C474 474 473 164 473 164 C473 94 426 47 305 47 C228 47 198 88 198 149 C198 149 197 478 197 478 C199 515 207 539 218 538 C218 538 221 538 221 538 C221 538 221 553 221 553 C192 554 152 554 123 553 C94 552 54 554 25 553 C25 553 25 538 25 538 C25 538 28 538 28 538 C41 539 49 513 49 473 C49 473 49 178 49 178 C49 68 114 -5 283 -5 C445 -5 508 58 508 153 C508 153 508 463 508 463 C508 509 517 539 531 538 C531 538 535 538 535 538 C535 538 535 553 535 553 L535 553 Z " />
<glyph glyph-name="LETTERSMALLCAPITALV" unicode="&#x1d20;" horiz-adv-x="587" d="M573 553 C563 554 549 554 538 553 C522 554 499 554 483 553 C483 553 483 538 483 538 C483 538 488 538 488 538 C504 539 500 501 478 443 C478 443 478 443 478 443 C478 443 353 122 353 122 C353 122 205 486 205 486 C194 519 194 539 206 538 C206 538 210 538 210 538 C209 539 209 542 210 546 C209 550 209 552 209 553 C210 553 210 553 210 553 C210 553 210 553 209 553 C209 553 209 553 209 553 C175 554 130 554 96 553 C68 554 31 554 3 553 C2 553 2 553 2 553 C2 553 2 553 3 553 C3 553 3 553 3 553 C3 552 3 550 2 546 C3 542 3 539 2 538 C2 538 5 538 5 538 C15 539 35 513 54 473 C54 473 54 473 54 473 C54 473 299 -15 299 -15 C299 -15 328 -15 328 -15 C328 -15 525 477 525 477 C540 515 558 539 570 538 C570 538 573 538 573 538 C573 538 573 553 573 553 L573 553 Z " />
<glyph glyph-name="LETTERSMALLCAPITALW" unicode="&#x1d21;" horiz-adv-x="837" d="M823 553 C812 554 797 554 786 553 C771 554 751 554 736 553 C736 553 736 538 736 538 C736 538 740 538 740 538 C755 539 757 513 745 473 C745 473 745 473 745 473 C745 473 599 -15 599 -15 C599 -15 647 146 647 146 C647 146 487 563 487 563 C487 563 458 563 458 563 C458 563 309 134 309 134 C309 134 203 484 203 484 C194 518 196 539 207 538 C207 538 210 538 210 538 C210 538 210 553 210 553 C177 554 133 554 100 553 C72 554 34 554 5 553 C5 553 5 538 5 538 C5 538 8 538 8 538 C16 539 31 519 46 487 C46 487 257 -15 257 -15 C257 -15 285 -15 285 -15 C285 -15 487 563 487 563 C487 563 428 394 428 394 C428 394 599 -15 599 -15 C599 -15 628 -15 628 -15 C628 -15 783 487 783 487 C795 519 808 539 819 538 C819 538 823 538 823 538 C823 538 823 553 823 553 L823 553 Z " />
<glyph glyph-name="LETTERSMALLCAPITALZ" unicode="&#x1d22;" horiz-adv-x="530" d="M440 19 C443 39 448 64 451 84 C451 84 448 84 448 84 C439 86 433 86 432 86 C407 57 358 39 298 39 C298 39 220 39 220 39 C220 39 477 553 477 553 C477 553 392 553 392 553 C392 553 307 553 307 553 C307 553 165 553 165 553 C146 554 120 554 100 553 C98 554 95 554 93 553 C89 554 86 554 85 553 C84 548 82 540 80 535 C76 517 70 495 65 478 C65 478 77 478 77 478 C77 478 86 484 86 484 C116 503 168 516 215 516 C215 516 289 516 289 516 C289 516 33 0 33 0 C33 0 117 0 117 0 C117 0 200 0 200 0 C200 0 357 0 357 0 C357 0 434 0 434 0 C434 0 437 0 437 0 C437 6 439 14 440 19 L440 19 Z " />
<glyph glyph-name="Wgrave" unicode="&#x1e80;" horiz-adv-x="976" d="M962 660 C962 660 942 660 942 660 C942 660 923 660 923 660 C923 660 904 660 904 660 C904 660 871 660 871 660 C871 660 871 645 871 645 C871 645 875 645 875 645 C890 645 892 619 880 580 C880 580 880 580 880 580 C880 580 703 -15 703 -15 C703 -15 760 177 760 177 C760 177 565 670 565 670 C565 670 533 670 533 670 C533 670 294 -15 294 -15 C294 -15 356 163 356 163 C356 163 221 590 221 590 C212 623 213 645 224 645 C224 645 227 645 227 645 C228 645 228 648 227 653 C228 657 228 660 227 660 C227 660 199 660 199 660 C199 660 108 660 108 660 C108 660 17 660 17 660 C17 660 4 660 4 660 C4 660 4 645 4 645 C4 645 7 645 7 645 C16 645 31 621 48 585 C48 585 294 -15 294 -15 C294 -15 326 -15 326 -15 C326 -15 565 670 565 670 C565 670 495 468 495 468 C495 468 703 -15 703 -15 C703 -15 734 -15 734 -15 C734 -15 917 580 917 580 C917 580 918 580 918 580 C930 619 946 645 958 645 C958 645 962 645 962 645 C962 645 962 660 962 660 L962 660 Z M560 859 C547 889 536 909 530 909 C511 909 465 875 465 861 C465 854 479 836 501 814 C501 814 621 690 621 690 C621 690 633 699 633 699 C633 699 560 859 560 859 L560 859 Z " />
<glyph glyph-name="Wacute" unicode="&#x1e82;" horiz-adv-x="976" d="M962 660 C962 660 942 660 942 660 C942 660 923 660 923 660 C923 660 904 660 904 660 C904 660 871 660 871 660 C871 660 871 645 871 645 C871 645 875 645 875 645 C890 645 892 619 880 580 C880 580 880 580 880 580 C880 580 703 -15 703 -15 C703 -15 760 177 760 177 C760 177 565 670 565 670 C565 670 533 670 533 670 C533 670 294 -15 294 -15 C294 -15 356 163 356 163 C356 163 221 590 221 590 C212 623 213 645 224 645 C224 645 227 645 227 645 C228 645 228 648 227 653 C228 657 228 660 227 660 C227 660 199 660 199 660 C199 660 108 660 108 660 C108 660 17 660 17 660 C17 660 4 660 4 660 C4 660 4 645 4 645 C4 645 7 645 7 645 C16 645 31 621 48 585 C48 585 294 -15 294 -15 C294 -15 326 -15 326 -15 C326 -15 565 670 565 670 C565 670 495 468 495 468 C495 468 703 -15 703 -15 C703 -15 734 -15 734 -15 C734 -15 917 580 917 580 C917 580 918 580 918 580 C930 619 946 645 958 645 C958 645 962 645 962 645 C962 645 962 660 962 660 L962 660 Z M488 690 C488 690 605 814 605 814 C626 837 640 855 640 861 C640 875 594 909 575 909 C570 909 559 889 546 859 C546 859 476 699 476 699 C476 699 488 690 488 690 L488 690 Z " />
<glyph glyph-name="Wdieresis" unicode="&#x1e84;" horiz-adv-x="976" d="M962 660 C962 660 942 660 942 660 C942 660 923 660 923 660 C923 660 904 660 904 660 C904 660 871 660 871 660 C871 660 871 645 871 645 C871 645 875 645 875 645 C890 645 892 619 880 580 C880 580 880 580 880 580 C880 580 703 -15 703 -15 C703 -15 760 177 760 177 C760 177 565 670 565 670 C565 670 533 670 533 670 C533 670 294 -15 294 -15 C294 -15 356 163 356 163 C356 163 221 590 221 590 C212 623 213 645 224 645 C224 645 227 645 227 645 C228 645 228 648 227 653 C228 657 228 660 227 660 C227 660 199 660 199 660 C199 660 108 660 108 660 C108 660 17 660 17 660 C17 660 4 660 4 660 C4 660 4 645 4 645 C4 645 7 645 7 645 C16 645 31 621 48 585 C48 585 294 -15 294 -15 C294 -15 326 -15 326 -15 C326 -15 565 670 565 670 C565 670 495 468 495 468 C495 468 703 -15 703 -15 C703 -15 734 -15 734 -15 C734 -15 917 580 917 580 C917 580 918 580 918 580 C930 619 946 645 958 645 C958 645 962 645 962 645 C962 645 962 660 962 660 L962 660 Z M649 730 C691 730 719 758 719 800 C719 843 691 871 649 871 C607 871 579 843 579 800 C579 758 607 730 649 730 L649 730 Z M449 730 C491 730 519 758 519 800 C519 843 491 871 449 871 C406 871 378 843 378 800 C378 758 406 730 449 730 L449 730 Z " />
<glyph glyph-name="CapitalLetterEWITHTI" unicode="&#x1ebc;" horiz-adv-x="592" d="M147 755 C147 789 163 811 186 811 C244 811 298 748 356 748 C409 748 445 803 445 885 C445 885 426 885 426 885 C426 849 408 825 381 825 C323 825 269 887 211 887 C161 887 128 834 128 755 C128 755 147 755 147 755 L147 755 Z M457 304 C457 304 457 331 457 331 C457 331 457 352 457 352 C457 352 457 373 457 373 C457 373 457 397 457 397 C457 396 456 396 455 397 C449 396 445 396 445 397 C445 397 441 393 441 393 C430 381 388 373 337 373 C337 373 227 373 227 373 C227 373 227 619 227 619 C227 619 372 619 372 619 C439 619 490 602 516 576 C516 576 527 576 527 576 C527 576 527 639 527 639 C527 639 527 660 527 660 C527 660 512 660 512 660 C512 660 447 660 447 660 C447 660 227 660 227 660 C227 660 144 660 144 660 C144 660 61 660 61 660 C61 660 37 660 37 660 C37 660 37 645 37 645 C37 645 41 645 41 645 C53 645 61 619 61 580 C61 580 61 80 61 80 C61 41 53 15 41 15 C41 15 37 15 37 15 C37 15 37 0 37 0 C37 0 61 0 61 0 C61 0 144 0 144 0 C144 0 227 0 227 0 C227 0 445 0 445 0 C445 0 522 0 522 0 C522 0 525 0 525 0 C526 6 527 14 528 21 C532 40 536 65 540 84 C540 85 539 85 538 84 C533 85 529 85 529 84 C529 84 521 78 521 78 C495 56 437 42 377 41 C377 41 227 41 227 41 C227 41 227 331 227 331 C227 331 337 331 337 331 C388 331 430 322 441 308 C441 308 445 304 445 304 C445 304 457 304 457 304 L457 304 Z " />
<glyph glyph-name="Ygrave" unicode="&#x1ef2;" horiz-adv-x="654" d="M426 15 C426 15 422 15 422 15 C410 15 402 41 402 80 C402 80 402 358 402 358 C402 358 578 594 578 594 C603 625 624 645 633 645 C633 645 636 645 636 645 C636 645 636 660 636 660 C636 660 627 660 627 660 C627 660 608 660 608 660 C608 660 588 660 588 660 C588 660 553 660 553 660 C554 660 554 657 553 653 C554 648 554 645 553 645 C553 645 557 645 557 645 C570 645 553 611 515 560 C515 560 515 560 515 560 C515 560 368 359 368 359 C368 359 360 359 360 359 C360 359 250 580 250 580 C250 580 250 580 250 580 C230 619 225 645 236 645 C236 645 239 645 239 645 C239 645 239 660 239 660 C239 660 210 660 210 660 C210 660 111 660 111 660 C111 660 12 660 12 660 C12 660 3 660 3 660 C3 660 3 645 3 645 C3 645 6 645 6 645 C15 645 37 619 62 580 C62 580 62 580 62 580 C62 580 236 302 236 302 C236 302 236 80 236 80 C236 41 228 15 216 15 C216 15 213 15 213 15 C213 15 213 0 213 0 C213 0 236 0 236 0 C236 0 319 0 319 0 C319 0 402 0 402 0 C402 0 426 0 426 0 C426 0 426 15 426 15 L426 15 Z M330 859 C317 889 306 909 301 909 C281 909 235 875 235 861 C235 854 250 836 272 814 C272 814 391 690 391 690 C391 690 404 699 404 699 C404 699 330 859 330 859 L330 859 Z " />
<glyph glyph-name="quoteleft" unicode="&#x2018;" horiz-adv-x="296" d="M146 501 C138 501 131 500 124 498 C121 502 119 504 119 504 C119 574 152 633 203 652 C203 652 196 669 196 669 C110 637 53 549 53 449 C53 448 58 442 68 432 C67 428 67 425 67 421 C67 373 99 342 146 342 C194 342 226 373 226 421 C226 469 194 501 146 501 L146 501 Z " />
<glyph glyph-name="quoteright" unicode="&#x2019;" horiz-adv-x="296" d="M146 506 C154 506 162 507 169 509 C172 505 174 502 174 502 C174 433 140 373 90 355 C90 355 96 337 96 337 C183 370 240 458 240 557 C240 558 235 565 225 575 C226 579 226 582 226 586 C226 633 194 665 146 665 C99 665 67 633 67 586 C67 538 99 506 146 506 L146 506 Z " />
<glyph glyph-name="quotedblleft" unicode="&#x201c;" horiz-adv-x="519" d="M146 501 C138 501 131 500 124 498 C121 502 119 504 119 504 C119 574 152 633 203 652 C203 652 196 669 196 669 C110 637 53 549 53 449 C53 448 58 442 68 432 C67 428 67 425 67 421 C67 373 99 342 146 342 C194 342 226 373 226 421 C226 469 194 501 146 501 L146 501 Z M301 466 C294 454 290 438 290 421 C289 373 321 342 369 342 C393 342 413 350 427 364 C429 361 432 359 434 356 C434 356 497 415 497 415 C403 514 341 550 341 504 C341 574 375 633 426 652 C426 652 419 669 419 669 C333 637 276 549 276 449 C276 466 285 472 301 466 C301 466 301 466 301 466 L301 466 Z " />
<glyph glyph-name="quotedblright" unicode="&#x201d;" horiz-adv-x="519" d="M146 506 C154 506 162 507 169 509 C172 505 174 502 174 502 C174 433 140 373 90 355 C90 355 96 337 96 337 C183 370 240 458 240 557 C240 558 235 565 225 575 C226 579 226 582 226 586 C226 633 194 665 146 665 C99 665 67 633 67 586 C67 538 99 506 146 506 L146 506 Z M437 540 C445 553 449 568 449 586 C449 633 417 665 369 665 C345 665 325 657 311 642 C309 645 306 647 304 650 C304 650 242 591 242 591 C335 493 397 457 397 502 C397 433 363 373 313 355 C313 355 319 337 319 337 C405 370 463 458 463 557 C463 540 454 535 437 540 C437 540 437 540 437 540 L437 540 Z " />
<glyph glyph-name="ellipsis" unicode="&#x2026;" horiz-adv-x="658" d="M544 0 C592 0 624 32 624 80 C624 128 592 160 544 160 C496 160 464 128 464 80 C464 32 496 0 544 0 L544 0 Z M329 0 C377 0 409 32 409 80 C409 128 377 160 329 160 C281 160 249 128 249 80 C249 32 281 0 329 0 L329 0 Z M114 0 C162 0 194 32 194 80 C194 128 162 160 114 160 C66 160 34 128 34 80 C34 32 66 0 114 0 L114 0 Z " />
<glyph glyph-name="guilsinglleft" unicode="&#x2039;" horiz-adv-x="306" d="M140 252 C140 252 251 454 251 454 C251 454 239 466 239 466 C239 466 27 258 27 258 C27 258 27 245 27 245 C27 245 242 37 242 37 C242 37 255 50 255 50 C255 50 140 252 140 252 L140 252 Z " />
<glyph glyph-name="guilsinglright" unicode="&#x203a;" horiz-adv-x="306" d="M167 252 C167 252 55 454 55 454 C55 454 68 466 68 466 C68 466 280 258 280 258 C280 258 280 245 280 245 C280 245 65 37 65 37 C65 37 52 50 52 50 C52 50 167 252 167 252 L167 252 Z " />
<glyph glyph-name="Euro" unicode="&#x20ac;" horiz-adv-x="736" d="M669 527 C669 527 669 602 669 602 C669 602 657 584 657 584 C657 584 657 584 657 584 C657 584 669 602 669 602 C604 640 520 665 461 665 C284 665 155 578 112 440 C112 440 68 440 68 440 C68 440 57 358 57 358 C57 358 97 358 97 358 C96 350 96 341 96 333 C96 325 96 316 97 308 C97 308 57 308 57 308 C57 308 45 225 45 225 C45 225 111 225 111 225 C154 84 284 -5 461 -5 C515 -5 598 22 669 63 C669 63 657 81 657 81 C657 81 657 81 657 81 C657 81 669 63 669 63 C669 63 669 138 669 138 C669 138 656 138 656 138 C652 133 647 127 643 123 C615 90 576 64 534 49 C507 41 481 36 461 36 C375 36 312 109 288 225 C288 225 491 225 491 225 C491 225 503 308 503 308 C503 308 278 308 278 308 C278 316 278 325 278 333 C278 341 278 350 279 358 C279 358 503 358 503 358 C503 358 514 440 514 440 C514 440 288 440 288 440 C312 553 375 624 461 624 C469 624 477 623 485 623 C485 623 485 622 485 622 C545 615 608 583 643 542 C647 537 652 531 656 527 C656 527 669 527 669 527 L669 527 Z " />
</font>
</svg>
