<?xml version="1.0" encoding="UTF-8"?>
<svg xmlns="http://www.w3.org/2000/svg" xmlns:xlink="http://www.w3.org/1999/xlink" version="1.2" >
<font id="Thomas Mag Bold Italic">
<font-face  font-family="Thomas Mag" units-per-em="1024" ascent="936" descent="-280" font-style="italic" font-weight="700" font-stretch="normal" cap-height="660" x-height="500" underline-position="0" underline-thickness="0" />
<missing-glyph  horiz-adv-x="472" d="M0 700 C0 700 432 700 432 700 C432 700 432 0 432 0 C432 0 0 0 0 0 C0 0 0 700 0 700 L0 700 Z M50 50 C50 50 382 50 382 50 C382 50 382 650 382 650 C382 650 50 650 50 650 C50 650 50 50 50 50 L50 50 Z " />
<glyph glyph-name="NULL" d="" />
<glyph glyph-name="CR" unicode="&#xd;" horiz-adv-x="256" d="" />
<glyph glyph-name="space" unicode="&#x20;" horiz-adv-x="250" d="" />
<glyph glyph-name="exclam" unicode="&#x21;" horiz-adv-x="279" d="M149 -5 C197 -5 235 27 243 75 C252 123 225 155 177 155 C129 155 92 123 83 75 C75 27 101 -5 149 -5 L149 -5 Z M315 583 C332 632 309 665 260 665 C208 665 174 632 175 583 C175 583 183 230 183 230 C183 230 198 230 198 230 C198 230 315 583 315 583 L315 583 Z " />
<glyph glyph-name="quotedbl" unicode="&#x22;" horiz-adv-x="417" d="M340 660 C340 660 358 400 358 400 C358 400 377 400 377 400 C377 400 487 660 487 660 C487 660 340 660 340 660 L340 660 Z M163 660 C163 660 181 400 181 400 C181 400 200 400 200 400 C200 400 310 660 310 660 C310 660 163 660 163 660 L163 660 Z " />
<glyph glyph-name="numbersign" unicode="&#x23;" horiz-adv-x="567" d="M513 656 C513 656 463 504 463 504 C463 504 332 504 332 504 C332 504 382 656 382 656 C382 656 338 656 338 656 C338 656 288 504 288 504 C288 504 167 504 167 504 C167 504 139 416 139 416 C139 416 259 416 259 416 C259 416 202 244 202 244 C202 244 78 244 78 244 C78 244 50 156 50 156 C50 156 173 156 173 156 C173 156 122 0 122 0 C122 0 166 0 166 0 C166 0 217 156 217 156 C217 156 348 156 348 156 C348 156 297 0 297 0 C297 0 341 0 341 0 C341 0 392 156 392 156 C392 156 508 156 508 156 C508 156 536 244 536 244 C536 244 421 244 421 244 C421 244 478 416 478 416 C478 416 602 416 602 416 C602 416 630 504 630 504 C630 504 507 504 507 504 C507 504 557 656 557 656 C557 656 513 656 513 656 L513 656 Z M303 416 C303 416 434 416 434 416 C434 416 377 244 377 244 C377 244 246 244 246 244 C246 244 303 416 303 416 L303 416 Z " />
<glyph glyph-name="dollar" unicode="&#x24;" horiz-adv-x="528" d="M407 735 C407 735 395 665 395 665 C390 665 386 665 381 665 C372 665 362 665 353 664 C353 664 366 735 366 735 C366 735 327 735 327 735 C327 735 313 657 313 657 C212 634 137 556 118 449 C104 370 152 297 237 266 C239 265 242 264 244 263 C244 263 205 42 205 42 C165 52 119 86 89 131 C86 135 81 141 79 146 C79 146 66 146 66 146 C66 146 53 74 53 74 C72 36 127 7 198 -2 C198 -2 185 -75 185 -75 C185 -75 223 -75 223 -75 C223 -75 235 -5 235 -5 C239 -5 243 -5 247 -5 C257 -5 268 -5 278 -4 C278 -4 265 -75 265 -75 C265 -75 303 -75 303 -75 C303 -75 317 3 317 3 C419 25 494 99 511 200 C526 284 477 362 388 394 C387 394 387 395 386 395 C386 395 424 610 424 610 C439 602 460 582 480 556 C480 555 481 555 481 554 C481 554 481 554 481 554 C487 547 493 538 499 530 C502 525 506 519 510 514 C510 514 523 514 523 514 C523 514 535 586 535 586 C518 621 480 648 433 659 C433 659 446 735 446 735 C446 735 407 735 407 735 L407 735 Z M312 430 C312 430 346 622 346 622 C353 623 360 624 367 624 C374 624 381 623 387 622 C387 622 350 410 350 410 C336 416 323 423 312 430 C312 430 312 430 312 430 L312 430 Z M278 454 C254 475 242 496 245 515 C252 556 274 588 305 607 C305 607 278 454 278 454 L278 454 Z M280 247 C294 241 306 233 318 226 C318 226 285 39 285 39 C275 37 265 36 254 36 C250 36 246 36 243 36 C243 36 280 247 280 247 L280 247 Z M351 199 C375 177 386 154 382 132 C376 97 355 70 326 53 C326 53 351 199 351 199 L351 199 Z " />
<glyph glyph-name="ampersand" unicode="&#x26;" horiz-adv-x="743" d="M662 380 C662 380 576 380 576 380 C576 379 573 365 573 365 C573 365 578 365 578 365 C593 365 600 350 585 270 C585 270 580 240 580 240 C574 206 561 175 543 148 C521 177 497 211 470 252 C437 302 409 350 388 393 C487 423 557 483 570 552 C581 620 527 665 434 665 C341 665 267 598 249 497 C243 463 252 419 273 368 C172 324 99 244 84 159 C67 60 138 -5 260 -5 C346 -5 422 17 481 56 C566 -17 644 -16 737 0 C737 0 740 19 740 19 C692 10 646 19 559 129 C582 161 599 199 606 240 C606 240 611 270 611 270 C625 350 638 365 655 365 C655 365 659 365 659 365 C659 365 662 379 662 380 L662 380 Z M378 413 C353 468 341 514 347 548 C357 603 387 640 423 640 C467 640 489 602 479 546 C469 488 431 439 378 413 C378 413 378 413 378 413 L378 413 Z M460 75 C423 56 380 46 333 46 C238 46 185 109 201 203 C212 261 242 313 283 344 C305 295 336 240 374 183 C404 138 432 103 460 75 C460 75 460 75 460 75 L460 75 Z " />
<glyph glyph-name="quotesingle" unicode="&#x27;" horiz-adv-x="240" d="M46 660 C46 660 110 400 110 400 C110 400 129 400 129 400 C129 400 193 660 193 660 C193 660 46 660 46 660 L46 660 Z " />
<glyph glyph-name="parenleft" unicode="&#x28;" horiz-adv-x="292" d="M386 690 C252 604 152 485 114 270 C76 55 134 -64 238 -150 C238 -150 252 -135 252 -135 C189 -82 160 23 203 270 C247 517 313 622 394 675 C394 675 386 690 386 690 L386 690 Z " />
<glyph glyph-name="parenright" unicode="&#x29;" horiz-adv-x="292" d="M-10 -150 C125 -64 225 55 262 270 C300 485 242 604 139 690 C139 690 125 675 125 675 C187 622 216 517 173 270 C129 23 63 -82 -18 -135 C-18 -135 -10 -150 -10 -150 L-10 -150 Z " />
<glyph glyph-name="asterisk" unicode="&#x2a;" horiz-adv-x="306" d="M144 540 C144 540 35 510 35 510 C15 505 9 485 23 463 C36 439 55 434 71 450 C71 450 151 529 151 529 C151 529 122 420 122 420 C116 399 130 385 157 385 C183 385 197 399 192 420 C192 420 163 529 163 529 C163 529 243 450 243 450 C259 434 278 439 291 463 C304 485 299 505 278 510 C278 510 170 540 170 540 C170 540 278 570 278 570 C300 575 305 594 291 618 C278 640 259 646 243 630 C243 630 163 551 163 551 C163 551 192 660 192 660 C197 681 183 695 157 695 C130 695 116 681 122 660 C122 660 151 551 151 551 C151 551 71 630 71 630 C55 646 36 640 23 618 C9 594 14 575 35 570 C35 570 144 540 144 540 L144 540 Z " />
<glyph glyph-name="plus" unicode="&#x2b;" horiz-adv-x="561" d="M333 450 C333 450 303 276 303 276 C303 276 131 276 131 276 C131 276 121 224 121 224 C121 224 293 224 293 224 C293 224 263 50 263 50 C263 50 319 50 319 50 C319 50 349 224 349 224 C349 224 521 224 521 224 C521 224 531 276 531 276 C531 276 359 276 359 276 C359 276 389 450 389 450 C389 450 333 450 333 450 L333 450 Z " />
<glyph glyph-name="comma" unicode="&#x2c;" horiz-adv-x="296" d="M228 131 C228 131 228 131 228 131 C217 146 198 154 174 154 C126 154 89 122 80 74 C72 27 98 -5 145 -5 C155 -5 164 -4 173 -1 C173 -5 173 -9 172 -13 C160 -80 116 -138 62 -157 C62 -157 66 -174 66 -174 C158 -141 230 -55 247 42 C253 73 245 109 228 131 C228 131 228 131 228 131 L228 131 Z " />
<glyph glyph-name="hyphen" unicode="&#x2d;" horiz-adv-x="286" d="M60 190 C60 190 294 190 294 190 C294 190 309 280 309 280 C309 280 76 280 76 280 C76 280 60 190 60 190 L60 190 Z " />
<glyph glyph-name="period" unicode="&#x2e;" horiz-adv-x="271" d="M124 -5 C172 -5 210 27 218 75 C227 123 200 155 152 155 C104 155 67 123 58 75 C50 27 76 -5 124 -5 L124 -5 Z " />
<glyph glyph-name="slash" unicode="&#x2f;" horiz-adv-x="368" d="M-19 -145 C-19 -145 32 -145 32 -145 C32 -145 493 710 493 710 C493 710 442 710 442 710 C442 710 -19 -145 -19 -145 L-19 -145 Z " />
<glyph glyph-name="zero" unicode="0" horiz-adv-x="582" d="M295 21 C217 21 181 113 205 250 C229 387 298 479 376 479 C454 479 490 387 466 250 C442 113 373 21 295 21 L295 21 Z M77 250 C50 97 135 -5 291 -5 C446 -5 567 97 594 250 C621 403 536 505 380 505 C225 505 104 403 77 250 L77 250 Z " />
<glyph glyph-name="one" unicode="1" horiz-adv-x="280" d="M141 485 C141 485 145 485 145 485 C156 485 160 462 155 427 C155 427 94 80 94 80 C94 80 94 80 94 80 C87 41 74 15 62 15 C62 15 59 15 59 15 C59 13 56 6 56 0 C56 0 80 0 80 0 C80 0 137 0 137 0 C137 0 195 0 195 0 C195 0 219 0 219 0 C219 1 221 12 221 15 C221 15 218 15 218 15 C206 15 202 38 208 72 C208 72 269 420 269 420 C269 420 269 420 269 420 C276 459 288 485 301 485 C301 485 304 485 304 485 C304 485 305 488 305 493 C306 497 307 500 307 500 C307 500 283 500 283 500 C283 500 225 500 225 500 C225 500 168 500 168 500 C168 500 144 500 144 500 C144 499 141 485 141 485 L141 485 Z " />
<glyph glyph-name="two" unicode="2" horiz-adv-x="500" d="M468 63 C475 86 482 116 489 139 C489 139 474 139 474 139 C470 122 445 115 402 115 C402 115 233 115 233 115 C396 208 497 274 512 355 C527 445 471 505 370 505 C283 505 190 447 140 359 C140 359 152 350 152 350 C177 392 235 420 298 420 C356 420 388 378 376 316 C353 180 230 138 36 26 C36 26 32 0 32 0 C32 0 452 0 452 0 C452 0 468 63 468 63 L468 63 Z " />
<glyph glyph-name="three" unicode="3" horiz-adv-x="466" d="M-7 -215 C233 -202 410 -100 435 41 C450 125 399 186 303 204 C394 253 454 311 463 367 C478 450 427 505 334 505 C251 505 150 450 80 369 C80 369 93 359 93 359 C124 396 192 421 261 421 C319 421 351 384 341 330 C333 286 301 244 252 210 C247 210 241 210 236 210 C243 210 247 209 249 207 C230 195 209 183 185 173 C171 168 155 162 137 156 C137 156 134 137 134 137 C140 139 145 140 151 142 C167 146 186 149 200 149 C280 149 325 103 313 35 C290 -95 163 -187 -5 -196 C-5 -196 -7 -215 -7 -215 L-7 -215 Z " />
<glyph glyph-name="four" unicode="4" horiz-adv-x="504" d="M85 51 C85 51 317 310 317 310 C317 310 271 51 271 51 C271 51 85 51 85 51 L85 51 Z M262 0 C262 0 236 -150 236 -150 C236 -150 351 -150 351 -150 C360 -100 369 -50 377 0 C377 0 487 0 487 0 C487 0 496 51 496 51 C496 51 386 51 386 51 C411 191 435 330 460 470 C460 470 460 470 460 470 C460 470 460 470 460 470 C462 482 464 493 466 505 C466 505 447 505 447 505 C447 505 14 20 14 20 C14 20 11 0 11 0 C11 0 36 0 36 0 C36 0 39 0 39 0 C39 0 262 0 262 0 L262 0 Z " />
<glyph glyph-name="five" unicode="5" horiz-adv-x="470" d="M101 173 C101 173 130 173 130 173 C130 173 145 173 145 173 C255 173 320 123 307 48 C286 -72 166 -155 9 -160 C9 -160 6 -182 6 -182 C233 -174 402 -67 429 85 C450 206 368 286 223 286 C223 286 159 286 159 286 C159 286 130 173 130 173 C130 173 213 500 213 500 C213 500 183 379 183 379 C183 379 428 379 428 379 C428 379 458 439 458 439 C458 439 459 439 459 439 C472 465 489 499 501 524 C501 524 486 524 486 524 C486 524 484 520 484 520 C478 508 448 500 409 500 C409 500 213 500 213 500 C213 500 179 500 179 500 C179 500 101 173 101 173 L101 173 Z " />
<glyph glyph-name="six" unicode="6" horiz-adv-x="528" d="M586 715 C322 706 118 537 75 293 C43 114 112 -5 247 -5 C399 -5 511 84 528 217 C551 346 486 432 365 432 C299 432 252 401 219 349 C261 552 405 689 583 696 C583 696 586 715 586 715 L586 715 Z M187 183 C212 313 255 400 340 400 C400 400 426 324 406 210 C392 100 336 27 265 27 C202 27 171 89 187 183 L187 183 Z " />
<glyph glyph-name="seven" unicode="7" horiz-adv-x="457" d="M99 400 C95 386 91 371 88 359 C88 359 103 359 103 359 C103 359 104 362 104 362 C107 374 135 382 174 382 C174 382 456 382 456 382 C456 382 95 -140 95 -140 C95 -140 223 -140 223 -140 C324 70 425 280 527 489 C527 489 520 500 520 500 C520 500 125 500 125 500 C125 500 99 400 99 400 L99 400 Z " />
<glyph glyph-name="eight" unicode="8" horiz-adv-x="505" d="M365 371 C352 378 338 384 323 390 C261 414 227 471 238 534 C249 597 292 640 345 640 C405 640 435 584 421 501 C410 444 390 398 365 371 L365 371 Z M387 358 C457 389 507 449 519 520 C535 607 469 665 355 665 C241 665 153 595 134 489 C123 425 146 363 194 320 C118 300 63 241 48 160 C31 61 107 -5 239 -5 C372 -5 473 69 493 180 C504 245 463 311 387 358 C387 358 387 358 387 358 L387 358 Z M215 304 C229 294 245 285 263 278 C341 248 387 193 378 141 C365 68 314 20 250 20 C179 20 143 84 160 179 C170 236 190 280 215 304 L215 304 Z " />
<glyph glyph-name="nine" unicode="9" horiz-adv-x="564" d="M49 -215 C313 -206 517 -37 560 207 C591 386 523 505 388 505 C236 505 124 416 107 283 C84 154 149 68 270 68 C336 68 383 99 416 152 C374 -51 230 -189 52 -196 C52 -196 49 -215 49 -215 L49 -215 Z M448 317 C423 187 380 100 295 100 C235 100 209 176 229 290 C243 400 299 473 369 473 C433 473 464 411 448 317 L448 317 Z " />
<glyph glyph-name="colon" unicode="&#x3a;" horiz-adv-x="271" d="M197 408 C245 408 283 440 291 488 C300 536 273 568 225 568 C177 568 140 536 131 488 C123 440 149 408 197 408 L197 408 Z M124 -5 C172 -5 210 27 218 75 C227 123 200 155 152 155 C104 155 67 123 58 75 C50 27 76 -5 124 -5 L124 -5 Z " />
<glyph glyph-name="semicolon" unicode="&#x3b;" horiz-adv-x="296" d="M219 411 C267 411 304 443 312 490 C321 537 295 569 247 569 C199 569 162 537 153 490 C145 443 171 411 219 411 L219 411 Z M228 131 C228 131 228 131 228 131 C217 146 198 154 174 154 C126 154 89 122 80 74 C72 27 98 -5 145 -5 C155 -5 164 -4 173 -1 C173 -5 173 -9 172 -13 C160 -80 116 -138 62 -157 C62 -157 66 -174 66 -174 C158 -141 230 -55 247 42 C253 73 245 109 228 131 C228 131 228 131 228 131 L228 131 Z " />
<glyph glyph-name="less" unicode="&#x3c;" horiz-adv-x="553" d="M560 500 C560 500 111 309 111 309 C111 309 101 304 101 304 C101 304 90 246 90 246 C90 246 99 241 99 241 C99 241 481 50 481 50 C481 50 491 108 491 108 C491 108 143 275 143 275 C143 275 550 443 550 443 C550 443 560 500 560 500 L560 500 Z " />
<glyph glyph-name="equal" unicode="&#x3d;" horiz-adv-x="551" d="M135 226 C135 226 126 174 126 174 C126 174 506 174 506 174 C506 174 515 226 515 226 C515 226 135 226 135 226 L135 226 Z M152 326 C152 326 143 274 143 274 C143 274 523 274 523 274 C523 274 532 326 532 326 C532 326 152 326 152 326 L152 326 Z " />
<glyph glyph-name="greater" unicode="&#x3e;" horiz-adv-x="543" d="M496 275 C496 275 101 108 101 108 C101 108 91 50 91 50 C91 50 527 241 527 241 C527 241 541 247 541 247 C541 247 550 303 550 303 C550 303 539 309 539 309 C539 309 170 500 170 500 C170 500 160 443 160 443 C160 443 496 275 496 275 L496 275 Z " />
<glyph glyph-name="question" unicode="&#x3f;" horiz-adv-x="386" d="M145 -5 C193 -5 231 27 239 75 C248 123 221 155 173 155 C125 155 88 123 79 75 C71 27 97 -5 145 -5 L145 -5 Z M176 360 C176 360 180 235 180 235 C180 235 195 235 195 235 C195 235 216 290 216 290 C216 290 251 290 251 290 C372 290 410 371 418 416 C444 565 374 665 242 665 C193 665 154 636 147 592 C141 562 158 542 188 542 C213 542 237 575 263 575 C357 575 409 517 394 429 C390 410 359 377 227 377 C227 377 192 377 192 377 C182 377 176 370 176 360 L176 360 Z " />
<glyph glyph-name="at" unicode="&#x40;" horiz-adv-x="1191" d="M1046 0 C956 -140 768 -234 577 -234 C297 -234 146 -37 198 259 C250 555 462 752 729 752 C995 752 1144 588 1101 343 C1065 143 972 10 867 10 C793 10 776 86 825 200 C825 200 944 480 944 480 C944 480 835 480 835 480 C835 480 807 414 807 414 C795 461 752 490 688 490 C500 490 354 369 322 188 C303 77 362 4 471 4 C558 4 638 41 691 102 C689 20 741 -30 840 -30 C1011 -30 1151 119 1190 343 C1237 608 1055 784 734 784 C414 784 164 574 108 259 C53 -56 238 -266 571 -266 C776 -266 982 -160 1084 0 C1084 0 1046 0 1046 0 L1046 0 Z M782 356 C782 356 716 200 716 200 C682 121 612 68 541 68 C473 68 437 125 452 210 C478 359 569 458 679 458 C752 458 793 417 782 356 L782 356 Z " />
<glyph glyph-name="A" unicode="A" horiz-adv-x="684" d="M668 15 C668 15 664 15 664 15 C652 15 637 36 626 70 C626 70 445 675 445 675 C445 675 404 675 404 675 C404 675 72 80 72 80 C72 80 71 80 71 80 C49 41 27 15 15 15 C15 15 11 15 11 15 C10 12 9 1 9 0 C9 0 27 0 27 0 C27 0 54 0 54 0 C54 0 81 0 81 0 C81 0 116 0 116 0 C116 0 117 3 118 8 C118 12 119 15 119 15 C119 15 114 15 114 15 C101 15 106 44 128 87 C128 87 182 187 182 187 C182 187 182 186 182 186 C182 186 392 256 392 256 C392 256 445 74 445 74 C454 38 454 15 444 15 C444 15 441 15 441 15 C441 15 440 12 439 8 C439 3 438 0 438 0 C438 0 466 0 466 0 C466 0 556 0 556 0 C556 0 647 0 647 0 C647 0 666 0 666 0 C667 3 668 14 668 15 C668 15 668 15 668 15 L668 15 Z M369 336 C369 336 226 269 226 269 C226 269 332 465 332 465 C332 465 369 336 369 336 L369 336 Z " />
<glyph glyph-name="B" unicode="B" horiz-adv-x="693" d="M144 645 C144 645 148 645 148 645 C159 645 163 621 158 586 C158 586 68 80 68 80 C68 80 68 80 68 80 C61 41 49 15 37 15 C37 15 33 15 33 15 C32 12 31 1 31 0 C31 0 54 0 54 0 C54 0 137 0 137 0 C137 0 220 0 220 0 C220 0 279 336 279 336 C279 336 361 336 361 336 C475 336 541 275 525 184 C509 93 438 32 349 32 C349 32 226 32 226 32 C226 32 220 0 220 0 C220 0 356 0 356 0 C542 0 679 74 699 184 C714 273 633 337 492 356 C607 377 685 431 698 502 C714 597 614 660 448 660 C448 660 336 660 336 660 C336 660 331 628 331 628 C331 628 442 628 442 628 C510 628 546 578 532 502 C518 419 454 364 374 364 C374 364 284 364 284 364 C284 364 281 347 281 347 C281 347 279 338 279 338 C279 338 336 660 336 660 C336 660 254 660 254 660 C254 660 171 660 171 660 C171 660 147 660 147 660 C147 659 145 645 144 645 C144 645 144 645 144 645 L144 645 Z " />
<glyph glyph-name="C" unicode="C" horiz-adv-x="766" d="M789 511 C789 511 801 574 801 574 C774 629 674 665 552 665 C305 665 117 531 82 330 C46 129 187 -5 434 -5 C556 -5 669 31 715 86 C715 86 726 149 726 149 C726 149 713 149 713 149 C708 144 702 138 697 132 C650 84 570 46 497 39 C497 39 497 39 497 39 C479 37 460 36 441 36 C303 36 232 154 264 330 C294 506 407 624 545 624 C580 624 613 621 642 615 C642 615 642 615 642 615 C691 605 741 570 766 528 C769 522 773 516 776 511 C776 511 789 511 789 511 L789 511 Z " />
<glyph glyph-name="D" unicode="D" horiz-adv-x="785" d="M144 645 C144 645 148 645 148 645 C159 645 163 621 158 586 C158 586 68 80 68 80 C68 80 68 80 68 80 C61 41 49 15 37 15 C37 15 33 15 33 15 C32 12 31 1 31 0 C31 0 54 0 54 0 C54 0 137 0 137 0 C137 0 220 0 220 0 C220 0 357 0 357 0 C580 0 752 132 787 330 C822 528 683 660 439 660 C439 660 336 660 336 660 C336 660 331 628 331 628 C331 628 434 628 434 628 C578 628 654 509 622 330 C590 151 487 32 363 32 C363 32 226 32 226 32 C226 32 220 0 220 0 C220 0 336 660 336 660 C336 660 254 660 254 660 C254 660 171 660 171 660 C171 660 147 660 147 660 C147 659 145 645 144 645 C144 645 144 645 144 645 L144 645 Z " />
<glyph glyph-name="E" unicode="E" horiz-adv-x="592" d="M629 576 C632 595 637 621 640 639 C641 646 643 654 644 660 C644 660 628 660 628 660 C628 660 564 660 564 660 C564 660 343 660 343 660 C343 660 260 660 260 660 C260 660 178 660 178 660 C178 660 154 660 154 660 C154 660 153 657 153 653 C151 648 151 645 151 645 C151 645 155 645 155 645 C166 645 170 621 165 586 C165 586 75 80 75 80 C75 80 75 80 75 80 C68 41 56 15 44 15 C44 15 40 15 40 15 C40 15 39 12 39 8 C38 3 37 0 37 0 C37 0 61 0 61 0 C61 0 144 0 144 0 C144 0 227 0 227 0 C227 0 445 0 445 0 C445 0 522 0 522 0 C522 0 525 0 525 0 C527 6 530 14 532 21 C539 40 548 65 554 84 C555 85 554 85 553 84 C542 86 540 82 535 78 C505 56 444 42 384 41 C384 41 234 41 234 41 C234 41 285 331 285 331 C285 331 395 331 395 331 C449 331 489 323 498 304 C498 304 511 304 511 304 C512 313 514 324 516 334 C516 334 519 352 519 352 C519 352 523 373 523 373 C523 373 523 373 523 373 C524 381 526 389 527 397 C527 397 527 397 527 397 C527 397 527 397 527 397 C527 396 526 396 525 397 C519 396 515 396 515 397 C515 397 510 393 510 393 C497 381 454 373 403 373 C403 373 293 373 293 373 C293 373 287 343 287 343 C287 343 343 660 343 660 C343 660 336 619 336 619 C336 619 481 619 481 619 C541 619 594 604 612 582 C612 582 618 576 618 576 C618 576 629 576 629 576 L629 576 Z " />
<glyph glyph-name="F" unicode="F" horiz-adv-x="558" d="M659 576 C662 595 667 621 670 639 C671 646 673 654 674 660 C674 660 658 660 658 660 C658 660 594 660 594 660 C594 660 343 660 343 660 C343 660 260 660 260 660 C260 660 178 660 178 660 C178 660 154 660 154 660 C154 660 153 657 153 653 C151 648 151 645 151 645 C151 645 155 645 155 645 C166 645 170 621 165 586 C165 586 75 80 75 80 C75 80 75 80 75 80 C68 41 56 15 44 15 C44 15 40 15 40 15 C40 15 39 12 39 8 C38 3 37 0 37 0 C37 0 61 0 61 0 C61 0 144 0 144 0 C144 0 227 0 227 0 C227 0 261 0 261 0 C261 1 263 12 263 15 C263 15 258 15 258 15 C242 15 235 39 240 74 C240 74 284 326 284 326 C284 326 384 326 384 326 C439 326 478 318 487 299 C487 299 500 299 500 299 C502 314 506 333 508 347 C508 347 512 368 512 368 C512 368 512 368 512 368 C513 376 515 384 516 392 C516 392 516 392 516 392 C516 392 516 392 516 392 C516 391 515 391 514 392 C508 391 504 391 504 392 C488 376 448 368 392 368 C392 368 292 368 292 368 C292 368 288 346 288 346 C288 346 343 660 343 660 C343 660 336 619 336 619 C336 619 511 619 511 619 C571 619 624 604 642 582 C642 582 648 576 648 576 C648 576 659 576 659 576 L659 576 Z " />
<glyph glyph-name="G" unicode="G" horiz-adv-x="746" d="M546 295 C546 295 549 295 549 295 C562 295 565 269 558 230 C558 230 558 230 558 230 C543 144 532 80 526 46 C490 39 452 36 416 36 C284 36 217 154 249 330 C279 506 388 624 520 624 C551 624 580 621 606 616 C606 616 606 616 606 616 C656 607 706 572 731 528 C734 522 738 516 741 511 C741 511 754 511 754 511 C754 511 766 574 766 574 C739 629 643 665 527 665 C286 665 102 531 67 330 C31 129 168 -5 409 -5 C504 -5 611 17 676 51 C676 51 688 122 708 235 C715 271 728 295 739 295 C739 295 742 295 742 295 C742 295 743 298 744 303 C744 307 745 310 745 310 C745 310 721 310 721 310 C721 310 647 310 647 310 C647 310 572 310 572 310 C572 310 548 310 548 310 C549 310 546 295 546 295 C546 295 546 295 546 295 L546 295 Z " />
<glyph glyph-name="H" unicode="H" horiz-adv-x="698" d="M552 645 C552 645 556 645 556 645 C568 645 571 619 564 580 C564 580 565 580 565 580 C565 580 527 368 527 368 C527 368 292 368 292 368 C292 368 329 580 329 580 C329 580 329 580 329 580 C336 619 349 645 361 645 C361 645 364 645 364 645 C364 645 367 659 367 660 C367 660 343 660 343 660 C343 660 260 660 260 660 C260 660 178 660 178 660 C178 660 154 660 154 660 C154 660 153 657 153 653 C151 648 151 645 151 645 C151 645 155 645 155 645 C166 645 170 621 165 586 C165 586 75 80 75 80 C75 80 75 80 75 80 C68 41 56 15 44 15 C44 15 40 15 40 15 C40 15 39 12 39 8 C38 3 37 0 37 0 C37 0 61 0 61 0 C61 0 144 0 144 0 C144 0 227 0 227 0 C227 0 251 0 251 0 C251 1 253 12 253 15 C253 15 250 15 250 15 C239 15 234 38 240 73 C240 73 284 326 284 326 C284 326 520 326 520 326 C520 326 476 80 476 80 C476 80 476 80 476 80 C469 41 457 15 445 15 C445 15 441 15 441 15 C441 15 440 12 440 8 C439 3 438 0 438 0 C438 0 462 0 462 0 C462 0 545 0 545 0 C545 0 628 0 628 0 C628 0 652 0 652 0 C651 0 654 14 654 15 C654 15 651 15 651 15 C639 15 635 38 641 73 C641 73 730 580 730 580 C730 580 730 580 730 580 C737 619 749 645 762 645 C762 645 765 645 765 645 C765 645 766 648 767 653 C767 657 768 660 768 660 C768 660 744 660 744 660 C744 660 661 660 661 660 C661 660 579 660 579 660 C579 660 555 660 555 660 C555 658 552 651 552 645 L552 645 Z " />
<glyph glyph-name="I" unicode="I" horiz-adv-x="288" d="M358 660 C358 660 334 660 334 660 C334 660 251 660 251 660 C251 660 168 660 168 660 C168 660 144 660 144 660 C143 657 142 646 142 645 C142 645 145 645 145 645 C157 645 161 622 155 587 C155 587 66 80 66 80 C66 80 66 80 66 80 C59 41 46 15 34 15 C34 15 31 15 31 15 C31 15 30 12 29 8 C29 3 28 0 28 0 C28 0 52 0 52 0 C52 0 135 0 135 0 C135 0 217 0 217 0 C217 0 241 0 241 0 C241 0 242 3 243 8 C243 12 244 15 244 15 C244 15 240 15 240 15 C228 15 225 41 232 80 C232 80 231 80 231 80 C231 80 320 580 320 580 C320 580 320 580 320 580 C327 619 340 645 351 645 C351 645 355 645 355 645 C355 645 357 660 358 660 C358 660 358 660 358 660 L358 660 Z " />
<glyph glyph-name="J" unicode="J" horiz-adv-x="435" d="M505 660 C505 660 481 660 481 660 C481 660 398 660 398 660 C398 660 315 660 315 660 C315 660 291 660 291 660 C290 657 289 646 289 645 C289 645 292 645 292 645 C304 645 308 623 302 588 C302 588 234 200 234 200 C211 68 196 16 180 16 C150 16 128 35 126 64 C124 95 105 115 78 115 C40 115 16 95 18 64 C21 20 72 -10 144 -10 C302 -10 380 88 425 339 C425 339 468 584 468 584 C475 621 486 645 498 645 C498 645 502 645 502 645 C502 645 504 660 505 660 C505 660 505 660 505 660 L505 660 Z " />
<glyph glyph-name="K" unicode="K" horiz-adv-x="673" d="M563 645 C563 645 565 645 565 645 C570 645 554 626 526 597 C526 597 283 355 283 355 C283 355 398 112 398 112 C438 28 498 -5 612 -5 C612 -5 655 -5 655 -5 C655 -5 660 20 660 20 C660 20 655 20 655 20 C607 20 563 73 498 210 C498 210 400 416 400 416 C400 416 580 592 580 592 C614 624 643 645 654 645 C654 645 658 645 658 645 C658 646 660 657 660 660 C660 660 649 660 649 660 C649 660 619 660 619 660 C619 660 589 660 589 660 C589 660 566 660 566 660 C565 660 563 645 563 645 C563 645 563 645 563 645 L563 645 Z M360 660 C360 660 336 660 336 660 C336 660 254 660 254 660 C254 660 171 660 171 660 C171 660 147 660 147 660 C147 659 145 645 144 645 C144 645 148 645 148 645 C159 645 163 621 158 586 C158 586 68 80 68 80 C68 80 68 80 68 80 C61 41 49 15 37 15 C37 15 33 15 33 15 C32 12 31 1 31 0 C31 0 54 0 54 0 C54 0 137 0 137 0 C137 0 220 0 220 0 C220 0 244 0 244 0 C244 1 246 12 246 15 C246 15 243 15 243 15 C232 15 227 38 233 73 C233 73 322 580 322 580 C322 580 322 580 322 580 C329 619 342 645 354 645 C354 645 357 645 357 645 C358 645 360 659 360 660 L360 660 Z " />
<glyph glyph-name="L" unicode="L" horiz-adv-x="577" d="M367 660 C367 660 343 660 343 660 C343 660 260 660 260 660 C260 660 178 660 178 660 C178 660 154 660 154 660 C154 660 153 657 153 653 C151 648 151 645 151 645 C151 645 155 645 155 645 C166 645 170 621 165 586 C165 586 75 80 75 80 C75 80 75 80 75 80 C68 41 56 15 44 15 C44 15 40 15 40 15 C40 15 39 12 39 8 C38 3 37 0 37 0 C37 0 61 0 61 0 C61 0 144 0 144 0 C144 0 227 0 227 0 C227 0 445 0 445 0 C445 0 522 0 522 0 C522 0 525 0 525 0 C527 6 530 14 532 21 C539 41 548 67 555 87 C555 87 552 87 552 87 C543 88 537 89 537 89 C537 89 529 82 529 82 C502 58 448 42 394 41 C394 41 234 41 234 41 C234 41 329 580 329 580 C329 580 329 580 329 580 C336 619 349 645 361 645 C361 645 364 645 364 645 C364 645 367 659 367 660 C367 660 367 660 367 660 L367 660 Z " />
<glyph glyph-name="M" unicode="M" horiz-adv-x="819" d="M895 660 C895 660 872 660 872 660 C872 660 798 660 798 660 C798 660 768 660 768 660 C768 660 723 660 723 660 C723 660 434 188 434 188 C434 188 342 660 342 660 C342 660 233 660 233 660 C233 660 208 660 208 660 C208 660 183 660 183 660 C183 660 159 660 159 660 C158 657 157 646 157 645 C157 645 160 645 160 645 C171 645 174 621 167 585 C167 585 59 80 59 80 C51 41 37 15 25 15 C25 15 21 15 21 15 C21 15 19 0 19 0 C19 0 42 0 42 0 C42 0 67 0 67 0 C67 0 92 0 92 0 C92 0 127 0 127 0 C127 1 129 12 129 15 C129 15 124 15 124 15 C108 15 103 42 110 83 C110 83 195 480 195 480 C195 480 309 23 309 23 C309 23 316 -5 316 -5 C316 -5 358 -5 358 -5 C358 -5 708 562 708 562 C708 562 630 63 630 63 C623 34 613 15 603 15 C603 15 599 15 599 15 C599 15 598 12 598 8 C597 3 596 0 596 0 C596 0 620 0 620 0 C620 0 703 0 703 0 C703 0 786 0 786 0 C786 0 809 0 809 0 C809 1 808 3 812 15 C812 15 808 15 808 15 C798 15 792 35 795 66 C795 66 862 580 862 580 C867 619 878 645 889 645 C889 645 893 645 893 645 C892 645 895 659 895 660 L895 660 Z " />
<glyph glyph-name="N" unicode="N" horiz-adv-x="639" d="M716 660 C716 660 692 660 692 660 C692 660 667 660 667 660 C667 660 642 660 642 660 C642 660 618 660 618 660 C617 657 616 646 616 645 C616 645 619 645 619 645 C631 645 635 621 629 585 C629 585 561 200 561 200 C561 200 343 660 343 660 C343 660 231 660 231 660 C231 660 222 606 222 606 C222 606 221 605 221 605 C221 605 231 660 231 660 C231 660 207 660 207 660 C207 660 182 660 182 660 C182 660 158 660 158 660 C158 659 156 645 155 645 C155 645 159 645 159 645 C170 645 174 621 169 586 C169 586 79 80 79 80 C79 80 79 80 79 80 C72 41 60 15 48 15 C48 15 44 15 44 15 C43 12 42 1 42 0 C42 0 65 0 65 0 C65 0 90 0 90 0 C90 0 115 0 115 0 C115 0 139 0 139 0 C139 1 138 3 142 15 C142 15 138 15 138 15 C127 15 122 38 128 73 C128 73 208 531 208 531 C208 531 454 23 454 23 C454 23 475 -20 475 -20 C475 -20 572 -20 572 -20 C572 -20 590 84 590 84 C590 84 678 580 678 580 C678 580 678 580 678 580 C685 619 698 645 709 645 C709 645 713 645 713 645 C713 645 715 660 716 660 C716 660 716 660 716 660 L716 660 Z " />
<glyph glyph-name="O" unicode="O" horiz-adv-x="772" d="M384 36 C280 36 250 171 279 330 C306 489 383 624 487 624 C591 624 620 489 592 330 C564 171 487 36 384 36 L384 36 Z M97 330 C64 149 152 -5 376 -5 C600 -5 742 149 774 330 C806 511 718 665 494 665 C271 665 128 511 97 330 L97 330 Z " />
<glyph glyph-name="P" unicode="P" horiz-adv-x="591" d="M144 645 C144 645 148 645 148 645 C159 645 163 621 158 586 C158 586 68 80 68 80 C68 80 68 80 68 80 C61 41 49 15 37 15 C37 15 33 15 33 15 C32 12 31 1 31 0 C31 0 54 0 54 0 C54 0 137 0 137 0 C137 0 220 0 220 0 C220 0 244 0 244 0 C244 1 246 12 246 15 C246 15 243 15 243 15 C232 15 227 38 233 73 C233 73 276 319 276 319 C276 319 272 293 272 293 C272 293 340 293 340 293 C506 293 630 367 649 477 C668 587 578 660 422 660 C422 660 336 660 336 660 C336 660 331 628 331 628 C331 628 416 628 416 628 C468 628 491 568 475 478 C459 386 407 325 346 325 C346 325 277 325 277 325 C277 325 336 660 336 660 C336 660 254 660 254 660 C254 660 171 660 171 660 C171 660 147 660 147 660 C147 659 145 645 144 645 C144 645 144 645 144 645 L144 645 Z " />
<glyph glyph-name="Q" unicode="Q" horiz-adv-x="772" d="M805 -28 C805 -28 794 -20 794 -20 C776 -42 710 -57 627 -57 C512 -57 438 -37 396 -5 C609 4 743 155 774 330 C806 511 718 665 494 665 C271 665 128 511 97 330 C65 157 145 8 348 -4 C420 -87 505 -140 599 -140 C669 -140 752 -95 805 -28 L805 -28 Z M384 36 C280 36 250 171 279 330 C306 489 383 624 487 624 C591 624 620 489 592 330 C564 171 487 36 384 36 L384 36 Z " />
<glyph glyph-name="R" unicode="R" horiz-adv-x="692" d="M144 645 C144 645 148 645 148 645 C159 645 163 621 158 586 C158 586 68 80 68 80 C68 80 68 80 68 80 C61 41 49 15 37 15 C37 15 33 15 33 15 C32 12 31 1 31 0 C31 0 54 0 54 0 C54 0 137 0 137 0 C137 0 220 0 220 0 C220 0 244 0 244 0 C244 1 246 12 246 15 C246 15 243 15 243 15 C232 15 227 38 233 73 C233 73 336 660 336 660 C336 660 331 628 331 628 C331 628 442 628 442 628 C508 628 543 573 529 490 C513 402 449 344 370 344 C370 344 321 344 321 344 C321 344 281 344 281 344 C281 344 275 312 275 312 C275 312 337 312 337 312 C337 312 442 106 442 106 C494 4 502 0 642 0 C642 0 686 0 686 0 C686 0 690 25 690 25 C690 25 685 25 685 25 C643 25 640 27 612 81 C612 81 486 323 486 323 C606 348 688 408 703 489 C720 592 618 660 448 660 C448 660 336 660 336 660 C336 660 254 660 254 660 C254 660 171 660 171 660 C171 660 147 660 147 660 C147 659 145 645 144 645 C144 645 144 645 144 645 L144 645 Z " />
<glyph glyph-name="S" unicode="S" horiz-adv-x="528" d="M66 146 C66 146 53 74 53 74 C76 27 154 -5 247 -5 C384 -5 490 77 511 200 C526 284 477 362 388 394 C295 428 238 477 245 515 C256 580 305 624 367 624 C386 624 405 620 422 611 C437 604 459 583 480 556 C480 555 481 555 481 554 C481 554 481 554 481 554 C487 547 493 538 499 530 C502 525 506 519 510 514 C510 514 523 514 523 514 C523 514 535 586 535 586 C512 633 451 665 381 665 C246 665 141 579 118 449 C104 370 152 297 237 266 C332 230 390 177 382 132 C372 74 321 36 254 36 C241 36 229 37 217 39 C217 39 217 39 217 39 C174 46 122 82 89 131 C86 135 81 141 79 146 C79 146 66 146 66 146 L66 146 Z " />
<glyph glyph-name="T" unicode="T" horiz-adv-x="633" d="M426 15 C426 15 423 15 423 15 C411 15 407 37 413 72 C413 72 509 619 509 619 C509 619 590 619 590 619 C645 619 689 600 714 571 C714 571 726 571 726 571 C728 591 730 619 732 639 C733 646 734 654 734 660 C734 660 703 660 703 660 C703 660 654 660 654 660 C654 660 212 660 212 660 C212 660 163 660 163 660 C163 660 132 660 132 660 C131 654 129 646 127 639 C122 619 114 591 109 571 C109 571 121 571 121 571 C121 571 130 578 130 578 C161 603 214 619 262 619 C262 619 343 619 343 619 C343 619 248 80 248 80 C248 80 248 80 248 80 C241 41 229 15 217 15 C217 15 213 15 213 15 C213 15 212 12 212 8 C211 3 210 0 210 0 C210 0 234 0 234 0 C234 0 317 0 317 0 C317 0 400 0 400 0 C400 0 424 0 424 0 C423 0 426 14 426 15 L426 15 Z " />
<glyph glyph-name="U" unicode="U" horiz-adv-x="635" d="M725 660 C725 660 698 660 698 660 C698 660 679 660 679 660 C679 660 660 660 660 660 C660 660 631 660 631 660 C631 659 629 645 628 645 C628 645 633 645 633 645 C646 645 651 618 645 578 C645 578 578 202 578 202 C563 113 496 53 352 53 C257 53 229 107 243 187 C243 187 312 580 312 580 C312 580 312 580 312 580 C319 619 332 645 344 645 C344 645 347 645 347 645 C348 645 350 659 350 660 C350 660 326 660 326 660 C326 660 244 660 244 660 C244 660 161 660 161 660 C161 660 137 660 137 660 C137 659 135 645 134 645 C134 645 138 645 138 645 C149 645 153 621 148 585 C148 585 83 219 83 219 C59 85 120 -5 317 -5 C507 -5 594 73 615 189 C615 189 684 579 684 579 C692 619 706 645 718 645 C718 645 722 645 722 645 C723 645 725 659 725 660 C725 660 725 660 725 660 L725 660 Z " />
<glyph glyph-name="V" unicode="V" horiz-adv-x="692" d="M764 660 C764 660 746 660 746 660 C746 660 727 660 727 660 C727 660 708 660 708 660 C708 660 670 660 670 660 C670 660 669 657 669 653 C668 648 667 645 667 645 C667 645 672 645 672 645 C689 645 679 607 646 550 C646 550 647 550 647 550 C647 550 423 149 423 149 C423 149 326 580 326 580 C326 580 326 580 326 580 C317 619 320 645 333 645 C333 645 337 645 337 645 C337 645 339 660 340 660 C340 660 308 660 308 660 C308 660 217 660 217 660 C217 660 126 660 126 660 C126 660 114 660 114 660 C114 660 113 657 112 653 C112 648 111 645 111 645 C111 645 114 645 114 645 C124 645 138 619 150 580 C150 580 150 580 150 580 C150 580 331 -15 331 -15 C331 -15 363 -15 363 -15 C363 -15 701 580 701 580 C701 580 701 580 701 580 C723 619 746 645 758 645 C758 645 762 645 762 645 C762 646 764 657 764 660 C764 660 764 660 764 660 L764 660 Z " />
<glyph glyph-name="W" unicode="W" horiz-adv-x="1006" d="M1093 660 C1093 660 1074 660 1074 660 C1074 660 1055 660 1055 660 C1055 660 1035 660 1035 660 C1035 660 1002 660 1002 660 C1002 659 1000 645 999 645 C999 645 1004 645 1004 645 C1018 645 1016 619 997 580 C997 580 715 -15 715 -15 C715 -15 747 -15 747 -15 C747 -15 1040 591 1040 591 C1058 624 1076 645 1087 645 C1087 645 1090 645 1090 645 C1090 645 1093 659 1093 660 L1093 660 Z M698 670 C698 670 666 670 666 670 C666 670 307 -15 307 -15 C307 -15 339 -15 339 -15 C339 -15 592 468 592 468 C592 468 698 670 698 670 L698 670 Z M340 589 C337 623 342 645 353 645 C353 645 356 645 356 645 C356 645 357 648 358 653 C358 657 359 660 359 660 C359 660 330 660 330 660 C330 660 239 660 239 660 C239 660 148 660 148 660 C148 660 135 660 135 660 C135 659 133 645 133 645 C133 645 135 645 135 645 C144 645 155 624 164 591 C164 591 340 589 340 589 L340 589 Z " />
<glyph glyph-name="X" unicode="X" horiz-adv-x="731" d="M764 660 C764 660 751 660 751 660 C751 660 719 660 719 660 C719 660 687 660 687 660 C687 660 652 660 652 660 C652 660 651 657 650 653 C650 648 649 645 649 645 C649 645 653 645 653 645 C665 645 650 619 617 581 C617 581 466 411 466 411 C466 411 375 592 375 592 C360 624 356 645 366 645 C366 645 370 645 370 645 C370 645 373 660 372 660 C372 660 341 660 341 660 C341 660 246 660 246 660 C246 660 152 660 152 660 C152 660 145 660 145 660 C144 660 142 645 142 645 C142 645 145 645 145 645 C154 645 173 619 192 580 C192 580 192 580 192 580 C192 580 327 311 327 311 C327 311 327 311 327 311 C327 311 110 69 110 69 C79 36 53 15 41 15 C41 15 38 15 38 15 C38 15 37 12 36 8 C36 3 35 0 35 0 C35 0 48 0 48 0 C48 0 79 0 79 0 C79 0 109 0 109 0 C109 0 144 0 144 0 C144 0 145 3 146 8 C146 12 147 15 147 15 C147 15 143 15 143 15 C131 15 150 47 191 95 C191 95 191 95 191 95 C191 95 345 274 345 274 C345 274 446 75 446 75 C463 39 467 15 457 15 C457 15 454 15 454 15 C454 15 453 12 452 8 C452 3 451 0 451 0 C451 0 483 0 483 0 C483 0 577 0 577 0 C577 0 672 0 672 0 C672 0 679 0 679 0 C679 0 682 15 681 15 C681 15 679 15 679 15 C672 15 658 32 643 59 C643 59 484 376 484 376 C484 376 676 580 676 580 C676 580 676 580 676 580 C713 619 746 645 757 645 C757 645 761 645 761 645 C761 645 763 660 764 660 C764 660 764 660 764 660 L764 660 Z " />
<glyph glyph-name="Y" unicode="Y" horiz-adv-x="654" d="M428 15 C428 15 425 15 425 15 C414 15 410 37 415 71 C431 165 450 273 465 359 C465 359 680 591 680 591 C711 624 737 645 747 645 C747 645 750 645 750 645 C750 645 751 648 751 653 C752 657 753 660 753 660 C753 660 743 660 743 660 C743 660 724 660 724 660 C724 660 705 660 705 660 C705 660 670 660 670 660 C670 659 667 645 667 645 C667 645 671 645 671 645 C683 645 661 611 614 560 C614 560 614 560 614 560 C614 560 432 359 432 359 C432 359 422 359 422 359 C422 359 347 598 347 598 C339 627 340 645 349 645 C349 645 353 645 353 645 C352 645 353 648 354 653 C354 657 355 660 355 660 C355 660 327 660 327 660 C327 660 227 660 227 660 C227 660 128 660 128 660 C128 660 120 660 120 660 C120 660 119 657 119 653 C118 648 117 645 117 645 C117 645 120 645 120 645 C128 645 143 624 159 591 C159 591 289 301 289 301 C276 225 261 140 247 64 C240 34 229 15 219 15 C219 15 215 15 215 15 C214 12 213 1 213 0 C213 0 236 0 236 0 C236 0 319 0 319 0 C319 0 402 0 402 0 C402 0 426 0 426 0 C426 1 428 12 428 15 C428 15 428 15 428 15 L428 15 Z " />
<glyph glyph-name="Z" unicode="Z" horiz-adv-x="590" d="M505 91 C505 91 497 84 497 84 C470 59 417 43 362 43 C362 43 243 43 243 43 C243 43 653 660 653 660 C653 660 559 660 559 660 C559 660 464 660 464 660 C464 660 274 660 274 660 C274 660 225 660 225 660 C225 660 194 660 194 660 C191 654 188 646 185 639 C177 622 166 598 159 580 C159 580 171 580 171 580 C171 580 181 586 181 586 C214 606 268 619 316 619 C316 619 437 619 437 619 C437 619 29 0 29 0 C29 0 121 0 121 0 C121 0 214 0 214 0 C214 0 412 0 412 0 C412 0 490 0 490 0 C490 0 492 0 492 0 C495 7 498 15 500 22 C507 42 516 68 523 88 C517 89 505 91 505 91 L505 91 Z " />
<glyph glyph-name="bracketleft" unicode="&#x5b;" horiz-adv-x="282" d="M145 -94 C145 -94 277 660 277 660 C277 660 273 634 273 634 C273 634 378 634 378 634 C378 634 382 660 382 660 C382 660 277 660 277 660 C277 660 188 660 188 660 C188 660 50 -120 50 -120 C50 -120 140 -120 140 -120 C140 -120 245 -120 245 -120 C245 -120 249 -94 249 -94 C249 -94 145 -94 145 -94 L145 -94 Z " />
<glyph glyph-name="backslash" unicode="&#x5c;" horiz-adv-x="283" d="M211 -145 C211 -145 251 -145 251 -145 C251 -145 112 710 112 710 C112 710 72 710 72 710 C72 710 211 -145 211 -145 L211 -145 Z " />
<glyph glyph-name="bracketright" unicode="&#x5d;" horiz-adv-x="275" d="M93 -94 C93 -94 -12 -94 -12 -94 C-12 -94 -17 -120 -17 -120 C-17 -120 88 -120 88 -120 C88 -120 178 -120 178 -120 C178 -120 315 660 315 660 C315 660 226 660 226 660 C226 660 121 660 121 660 C121 660 116 634 116 634 C116 634 221 634 221 634 C221 634 226 660 226 660 C226 660 93 -94 93 -94 L93 -94 Z " />
<glyph glyph-name="underscore" unicode="&#x5f;" horiz-adv-x="461" d="M3 -50 C3 -50 -8 -114 -8 -114 C-8 -114 430 -114 430 -114 C430 -114 441 -50 441 -50 C441 -50 3 -50 3 -50 L3 -50 Z " />
<glyph glyph-name="a" unicode="a" horiz-adv-x="525" d="M508 64 C498 52 485 45 459 45 C429 45 425 72 432 112 C432 112 474 352 474 352 C490 444 445 505 361 505 C196 505 99 435 120 329 C120 329 235 329 235 329 C218 415 256 473 329 473 C356 473 367 435 357 378 C357 378 337 262 337 262 C337 262 268 252 268 252 C157 235 74 176 62 105 C50 39 89 -5 160 -5 C212 -5 264 11 305 37 C311 8 330 -10 371 -10 C448 -10 489 13 519 48 C519 48 508 64 508 64 L508 64 Z M331 232 C331 232 308 100 308 100 C307 93 306 86 305 80 C284 75 259 72 232 72 C194 72 174 98 182 138 C188 175 220 206 262 216 C262 216 331 232 331 232 L331 232 Z " />
<glyph glyph-name="b" unicode="b" horiz-adv-x="529" d="M135 579 C135 579 135 579 135 579 C101 386 67 193 33 0 C33 0 46 0 46 0 C46 0 46 1 47 1 C61 19 86 32 112 32 C157 32 184 -5 245 -5 C392 -5 508 97 535 249 C562 403 503 505 387 505 C312 505 253 483 227 447 C227 447 256 610 256 610 C256 610 256 610 256 610 C256 610 263 651 263 651 C263 651 270 690 270 690 C270 690 270 690 270 690 C270 690 275 720 275 720 C275 720 252 720 252 720 C252 720 130 683 130 683 C129 683 129 683 129 682 C128 677 128 674 128 674 C143 649 146 639 135 579 C135 579 135 579 135 579 L135 579 Z M218 399 C225 432 254 454 289 454 C384 454 429 355 403 207 C384 99 324 27 251 27 C203 27 175 67 175 131 C175 145 176 160 179 177 C179 177 218 399 218 399 L218 399 Z " />
<glyph glyph-name="c" unicode="c" horiz-adv-x="500" d="M484 159 C484 159 471 167 471 167 C431 106 384 65 353 65 C242 65 182 148 204 273 C225 393 288 473 360 473 C399 473 422 446 418 404 C415 371 434 348 466 348 C497 348 521 368 526 399 C531 462 473 505 379 505 C225 505 104 395 75 229 C50 89 118 -5 244 -5 C324 -5 420 61 484 159 L484 159 Z " />
<glyph glyph-name="d" unicode="d" horiz-adv-x="552" d="M497 141 C497 141 497 141 497 141 C497 141 580 610 580 610 C580 610 580 610 580 610 C580 610 587 650 587 650 C587 650 594 690 594 690 C594 690 594 690 594 690 C594 690 599 720 599 720 C599 720 576 720 576 720 C576 720 454 683 454 683 C453 683 453 683 453 682 C452 677 452 674 452 674 C467 649 470 639 459 579 C459 579 459 579 459 579 C459 579 439 466 439 466 C419 491 387 505 347 505 C207 505 94 391 64 219 C40 85 100 -5 213 -5 C270 -5 329 27 370 77 C370 77 369 70 369 70 C369 70 362 30 362 30 C362 30 362 30 362 30 C362 30 357 0 357 0 C357 0 380 0 380 0 C380 0 502 37 502 37 C503 37 503 38 503 38 C504 43 504 46 504 46 C489 71 486 81 497 141 C497 141 497 141 497 141 L497 141 Z M376 110 C376 110 376 110 376 110 C376 110 375 105 375 105 C355 80 322 65 289 65 C210 65 171 144 192 263 C214 390 272 474 336 474 C384 474 417 449 429 411 C429 411 376 110 376 110 L376 110 Z " />
<glyph glyph-name="e" unicode="e" horiz-adv-x="517" d="M490 159 C490 159 476 167 476 167 C436 106 388 65 355 65 C242 65 181 148 203 273 C205 282 206 291 208 300 C208 300 514 300 514 300 C535 423 473 505 357 505 C216 505 103 395 74 229 C49 89 118 -5 247 -5 C328 -5 425 61 490 159 L490 159 Z M214 321 C240 414 290 473 345 473 C400 473 431 442 423 396 C417 366 394 343 363 337 C363 337 214 321 214 321 L214 321 Z " />
<glyph glyph-name="f" unicode="f" horiz-adv-x="402" d="M211 15 C211 15 207 15 207 15 C196 15 192 37 197 72 C219 199 241 327 264 455 C264 455 399 455 399 455 C399 455 407 500 407 500 C407 500 272 500 272 500 C274 511 276 522 278 533 C295 629 345 694 404 694 C432 694 449 674 447 645 C444 614 463 594 495 594 C525 594 550 614 555 645 C559 690 513 720 440 720 C308 720 202 655 174 558 C174 558 157 500 157 500 C157 500 89 500 89 500 C89 500 81 455 81 455 C81 455 149 455 149 455 C149 455 83 80 83 80 C83 80 83 80 83 80 C76 41 64 15 51 15 C51 15 48 15 48 15 C48 15 47 12 46 8 C46 3 45 0 45 0 C45 0 69 0 69 0 C69 0 127 0 127 0 C127 0 184 0 184 0 C184 0 208 0 208 0 C208 1 207 3 211 15 C211 15 211 15 211 15 L211 15 Z " />
<glyph glyph-name="g" unicode="g" horiz-adv-x="492" d="M574 500 C574 500 432 472 432 472 C406 493 369 505 324 505 C220 505 139 441 122 346 C110 280 135 229 187 204 C122 193 74 150 63 89 C54 40 80 3 130 -11 C60 -31 9 -77 -1 -134 C-12 -199 43 -243 137 -243 C309 -243 438 -157 461 -28 C474 45 410 94 301 94 C301 94 212 90 212 90 C169 88 144 106 149 134 C154 166 180 187 213 187 C213 187 268 187 268 187 C373 187 454 251 471 346 C477 378 474 407 463 430 C463 430 562 436 562 436 C562 436 574 500 574 500 L574 500 Z M230 346 C244 426 280 479 320 479 C359 479 376 426 362 346 C348 266 312 212 273 212 C233 212 216 266 230 346 L230 346 Z M163 -17 C174 -18 186 -19 199 -18 C199 -18 251 -15 251 -15 C329 -15 375 -44 368 -86 C355 -161 270 -211 155 -211 C99 -211 68 -175 78 -120 C87 -69 121 -29 163 -17 L163 -17 Z " />
<glyph glyph-name="h" unicode="h" horiz-adv-x="547" d="M503 15 C503 15 500 15 500 15 C489 15 485 36 489 69 C489 69 537 338 537 338 C554 438 535 505 455 505 C370 505 302 478 267 434 C267 434 298 610 298 610 C298 610 298 610 298 610 C298 610 304 645 304 645 C304 645 312 690 312 690 C312 690 312 690 312 690 C312 690 317 720 317 720 C317 720 294 720 294 720 C294 720 172 683 172 683 C172 683 171 683 172 682 C171 677 170 674 170 674 C185 649 188 639 177 579 C177 579 177 579 177 579 C177 579 89 80 89 80 C89 80 89 80 89 80 C82 41 70 15 58 15 C58 15 54 15 54 15 C54 15 53 12 53 8 C52 3 51 0 51 0 C51 0 75 0 75 0 C75 0 133 0 133 0 C133 0 190 0 190 0 C190 0 214 0 214 0 C214 0 215 3 215 8 C216 12 217 15 217 15 C217 15 213 15 213 15 C202 15 198 37 203 71 C203 71 260 396 260 396 C278 416 311 428 352 428 C414 428 430 387 419 326 C419 326 376 78 376 78 C369 40 356 15 344 15 C344 15 341 15 341 15 C341 15 340 12 339 8 C339 3 338 0 338 0 C338 0 362 0 362 0 C362 0 419 0 419 0 C419 0 477 0 477 0 C477 0 501 0 501 0 C502 3 503 14 503 15 L503 15 Z " />
<glyph glyph-name="i" unicode="i" horiz-adv-x="266" d="M139 359 C139 359 139 359 139 359 C139 359 90 80 90 80 C90 80 90 80 90 80 C83 41 70 15 58 15 C58 15 55 15 55 15 C55 13 52 6 52 0 C52 0 76 0 76 0 C76 0 133 0 133 0 C133 0 191 0 191 0 C191 0 215 0 215 0 C215 1 217 12 217 15 C217 15 214 15 214 15 C202 15 199 37 203 71 C203 71 260 390 260 390 C260 390 260 390 260 390 C260 390 266 423 266 423 C266 423 274 470 274 470 C274 470 274 470 274 470 C274 470 279 500 279 500 C279 500 256 500 256 500 C256 500 134 463 134 463 C134 463 133 462 133 462 C133 457 132 454 132 454 C147 429 150 419 139 359 C139 359 139 359 139 359 L139 359 Z M227 570 C274 570 310 601 318 647 C326 692 301 723 254 723 C208 723 172 692 164 647 C156 601 181 570 227 570 L227 570 Z " />
<glyph glyph-name="j" unicode="j" horiz-adv-x="266" d="M139 359 C139 359 139 359 139 359 C139 359 75 -1 75 -1 C52 -129 17 -171 -74 -223 C-74 -223 -66 -239 -66 -239 C114 -138 177 -82 197 31 C197 31 260 390 260 390 C260 390 260 390 260 390 C260 390 262 402 262 402 C262 402 274 470 274 470 C274 470 274 470 274 470 C274 470 279 500 279 500 C279 500 256 500 256 500 C256 500 134 463 134 463 C134 463 133 462 133 462 C133 457 132 454 132 454 C147 429 150 419 139 359 C139 359 139 359 139 359 L139 359 Z M227 570 C274 570 310 601 318 647 C326 692 301 723 254 723 C208 723 172 692 164 647 C156 601 181 570 227 570 L227 570 Z " />
<glyph glyph-name="k" unicode="k" horiz-adv-x="512" d="M537 15 C537 15 534 15 534 15 C524 15 506 34 487 64 C487 64 339 337 339 337 C339 337 443 420 443 420 C443 420 448 424 448 424 C495 461 532 485 545 485 C545 485 548 485 548 485 C548 485 549 488 550 493 C550 497 551 500 551 500 C551 500 544 500 544 500 C544 500 518 500 518 500 C518 500 492 500 492 500 C492 500 469 500 469 500 C469 498 466 491 466 485 C466 485 467 485 467 485 C471 485 455 469 426 443 C426 443 232 275 232 275 C232 275 348 57 348 57 C360 31 365 15 359 15 C359 15 357 15 357 15 C356 12 355 1 355 0 C355 0 378 0 378 0 C378 0 450 0 450 0 C450 0 522 0 522 0 C522 0 535 0 535 0 C535 1 537 12 537 15 C537 15 537 15 537 15 L537 15 Z M170 579 C170 579 170 579 170 579 C170 579 82 80 82 80 C82 80 82 80 82 80 C75 41 63 15 50 15 C50 15 47 15 47 15 C47 15 46 12 45 8 C45 3 44 0 44 0 C44 0 68 0 68 0 C68 0 126 0 126 0 C126 0 183 0 183 0 C183 0 207 0 207 0 C207 1 206 3 210 15 C210 15 206 15 206 15 C195 15 191 37 196 71 C196 71 291 610 291 610 C291 610 291 610 291 610 C291 610 297 645 297 645 C297 645 305 690 305 690 C305 690 305 690 305 690 C305 690 310 720 310 720 C310 720 287 720 287 720 C287 720 165 683 165 683 C164 683 164 683 164 682 C163 677 163 674 163 674 C178 649 181 639 170 579 C170 579 170 579 170 579 L170 579 Z " />
<glyph glyph-name="l" unicode="l" horiz-adv-x="266" d="M217 15 C217 15 214 15 214 15 C202 15 198 39 204 75 C204 75 298 610 298 610 C298 610 298 610 298 610 C298 610 318 720 318 720 C318 720 295 720 295 720 C295 720 172 683 172 683 C172 683 172 682 172 682 C171 677 171 674 171 674 C183 654 187 644 183 610 C183 610 90 80 90 80 C90 80 90 80 90 80 C83 41 70 15 58 15 C58 15 55 15 55 15 C55 13 52 6 52 0 C52 0 76 0 76 0 C76 0 133 0 133 0 C133 0 191 0 191 0 C191 0 215 0 215 0 C215 1 217 12 217 15 C217 15 217 15 217 15 L217 15 Z " />
<glyph glyph-name="m" unicode="m" horiz-adv-x="854" d="M645 0 C645 0 669 0 669 0 C669 0 726 0 726 0 C726 0 784 0 784 0 C784 0 807 0 807 0 C807 0 808 3 809 7 C809 12 810 15 810 15 C810 15 806 15 806 15 C795 15 791 35 796 67 C796 67 798 79 798 79 C798 79 798 80 798 80 C798 80 798 80 798 80 C798 80 843 338 843 338 C861 438 822 505 754 505 C648 505 578 475 547 426 C536 475 505 505 461 505 C367 505 301 479 267 436 C267 436 278 500 278 500 C278 500 255 500 255 500 C255 500 133 463 133 463 C133 463 133 462 133 462 C132 457 131 454 131 454 C146 429 149 419 138 359 C138 359 139 359 139 359 C139 359 89 80 89 80 C89 80 89 80 89 80 C82 41 70 15 58 15 C58 15 54 15 54 15 C54 15 53 12 53 8 C52 3 51 0 51 0 C51 0 75 0 75 0 C75 0 133 0 133 0 C133 0 190 0 190 0 C190 0 214 0 214 0 C214 0 215 3 215 8 C216 12 217 15 217 15 C217 15 213 15 213 15 C202 15 198 37 202 71 C202 71 259 390 259 390 C259 390 261 400 261 400 C278 422 312 435 359 435 C410 435 441 391 429 326 C429 326 386 78 386 78 C379 40 366 15 354 15 C354 15 351 15 351 15 C351 15 350 12 349 8 C349 3 348 0 348 0 C348 0 372 0 372 0 C372 0 429 0 429 0 C429 0 487 0 487 0 C487 0 511 0 511 0 C512 3 513 14 513 15 C513 15 510 15 510 15 C499 15 495 36 499 69 C499 69 547 338 547 338 C550 358 552 377 551 395 C567 415 602 428 652 428 C704 428 736 387 726 326 C726 326 683 78 683 78 C676 40 663 15 651 15 C651 15 647 15 647 15 C648 15 645 0 645 0 C645 0 645 0 645 0 L645 0 Z " />
<glyph glyph-name="n" unicode="n" horiz-adv-x="547" d="M503 15 C503 15 500 15 500 15 C489 15 485 36 489 69 C489 69 537 338 537 338 C554 438 535 505 455 505 C370 505 302 478 267 434 C267 434 278 500 278 500 C278 500 255 500 255 500 C255 500 133 463 133 463 C133 463 133 462 133 462 C132 457 131 454 131 454 C146 429 149 419 138 359 C138 359 139 359 139 359 C139 359 89 80 89 80 C89 80 89 80 89 80 C82 41 70 15 58 15 C58 15 54 15 54 15 C54 15 53 12 53 8 C52 3 51 0 51 0 C51 0 75 0 75 0 C75 0 133 0 133 0 C133 0 190 0 190 0 C190 0 214 0 214 0 C214 0 215 3 215 8 C216 12 217 15 217 15 C217 15 213 15 213 15 C202 15 198 37 202 71 C202 71 259 390 259 390 C259 390 260 396 260 396 C278 416 311 428 352 428 C414 428 430 387 419 326 C419 326 376 78 376 78 C369 40 356 15 344 15 C344 15 341 15 341 15 C341 15 340 12 339 8 C339 3 338 0 338 0 C338 0 362 0 362 0 C362 0 419 0 419 0 C419 0 477 0 477 0 C477 0 501 0 501 0 C502 3 503 14 503 15 L503 15 Z " />
<glyph glyph-name="o" unicode="o" horiz-adv-x="596" d="M302 21 C227 21 193 113 217 250 C241 387 308 479 383 479 C458 479 492 387 468 250 C444 113 377 21 302 21 L302 21 Z M89 250 C62 97 145 -5 298 -5 C450 -5 569 97 596 250 C623 403 540 505 387 505 C235 505 116 403 89 250 L89 250 Z " />
<glyph glyph-name="p" unicode="p" horiz-adv-x="589" d="M127 359 C127 359 128 359 128 359 C128 359 38 -150 38 -150 C38 -150 38 -150 38 -150 C31 -189 18 -215 6 -215 C6 -215 2 -215 2 -215 C1 -218 0 -229 0 -230 C0 -230 24 -230 24 -230 C24 -230 81 -230 81 -230 C81 -230 139 -230 139 -230 C139 -230 162 -230 162 -230 C163 -230 165 -216 165 -215 C165 -215 161 -215 161 -215 C150 -215 146 -192 152 -157 C152 -157 184 27 184 27 C208 6 241 -5 283 -5 C437 -5 558 104 587 268 C612 410 554 505 441 505 C354 505 283 471 249 416 C249 416 251 500 251 500 C251 500 228 500 228 500 C228 500 122 463 122 463 C122 463 122 462 122 462 C121 457 120 454 120 454 C135 429 138 419 127 359 L127 359 Z M207 156 C207 156 246 378 246 378 C264 409 298 428 339 428 C433 428 479 332 453 187 C436 91 370 27 289 27 C226 27 193 79 207 156 C207 156 207 156 207 156 L207 156 Z " />
<glyph glyph-name="q" unicode="q" horiz-adv-x="552" d="M463 -215 C463 -215 459 -215 459 -215 C448 -215 444 -193 449 -159 C487 61 526 281 565 500 C565 500 552 500 552 500 C537 478 506 463 474 463 C431 463 409 505 352 505 C213 505 100 391 70 219 C46 85 100 -5 205 -5 C268 -5 333 30 376 84 C376 84 335 -150 335 -150 C335 -150 335 -150 335 -150 C329 -189 316 -215 303 -215 C303 -215 300 -215 300 -215 C300 -215 299 -218 299 -222 C298 -227 297 -230 297 -230 C297 -230 321 -230 321 -230 C321 -230 379 -230 379 -230 C379 -230 436 -230 436 -230 C436 -230 460 -230 460 -230 C460 -230 462 -215 463 -215 L463 -215 Z M382 118 C362 86 322 65 281 65 C210 65 176 144 197 263 C220 389 279 473 346 473 C404 473 431 407 416 307 C415 303 415 300 414 297 C414 297 382 118 382 118 L382 118 Z " />
<glyph glyph-name="r" unicode="r" horiz-adv-x="400" d="M138 359 C138 359 139 359 139 359 C139 359 89 80 89 80 C89 80 89 80 89 80 C82 41 70 15 58 15 C58 15 54 15 54 15 C54 15 53 12 53 8 C52 3 51 0 51 0 C51 0 75 0 75 0 C75 0 133 0 133 0 C133 0 190 0 190 0 C190 0 214 0 214 0 C214 0 215 3 215 8 C216 12 217 15 217 15 C217 15 213 15 213 15 C202 15 198 37 202 71 C202 71 259 390 259 390 C259 390 259 401 259 401 C269 413 281 420 294 420 C332 420 357 376 395 376 C427 376 453 398 460 431 C467 476 452 505 401 505 C339 505 287 472 260 419 C260 419 262 500 262 500 C262 500 239 500 239 500 C239 500 133 463 133 463 C133 463 133 462 133 462 C132 457 131 454 131 454 C146 429 149 419 138 359 C138 359 138 359 138 359 L138 359 Z " />
<glyph glyph-name="s" unicode="s" horiz-adv-x="431" d="M68 108 C68 108 59 59 59 59 C78 21 130 -5 189 -5 C299 -5 384 58 401 153 C410 207 379 261 323 291 C252 328 208 372 213 402 C221 448 264 479 319 479 C329 479 339 475 349 469 C358 461 375 442 394 416 C394 416 395 415 395 414 C395 414 395 414 395 414 C399 409 403 404 407 398 C409 396 411 392 413 390 C413 390 425 390 425 390 C425 390 433 436 433 436 C413 477 369 505 324 505 C215 505 132 448 117 362 C108 310 152 249 227 209 C275 184 304 145 298 111 C288 57 249 21 200 21 C196 21 192 21 188 22 C188 22 188 22 188 22 C156 25 116 54 87 96 C87 96 79 108 79 108 C79 108 68 108 68 108 L68 108 Z " />
<glyph glyph-name="t" unicode="t" horiz-adv-x="384" d="M433 500 C433 500 298 500 298 500 C306 547 315 593 323 640 C323 640 304 640 304 640 C303 639 303 638 302 638 C237 544 162 476 114 468 C114 468 112 455 112 455 C112 455 175 455 175 455 C175 455 117 125 117 125 C99 24 118 -5 203 -5 C262 -5 320 51 382 135 C382 135 372 141 372 141 C330 84 295 46 269 46 C229 46 220 59 228 105 C249 222 269 338 290 455 C290 455 425 455 425 455 C425 455 433 500 433 500 L433 500 Z " />
<glyph glyph-name="u" unicode="u" horiz-adv-x="512" d="M472 141 C472 141 472 141 472 141 C472 141 535 500 535 500 C535 500 478 500 478 500 C478 500 420 500 420 500 C420 500 396 500 396 500 C395 497 394 486 394 485 C394 485 397 485 397 485 C408 485 412 463 407 429 C407 429 352 112 352 112 C335 87 310 71 278 71 C209 71 179 109 189 166 C189 166 248 500 248 500 C248 500 191 500 191 500 C191 500 133 500 133 500 C133 500 109 500 109 500 C108 497 107 486 107 485 C107 485 110 485 110 485 C121 485 125 463 120 428 C120 428 72 154 72 154 C55 59 89 -5 175 -5 C250 -5 306 29 346 84 C346 84 345 77 345 77 C345 77 337 30 337 30 C337 30 337 30 337 30 C337 30 332 0 332 0 C332 0 355 0 355 0 C355 0 477 37 477 37 C477 37 477 38 477 38 C478 43 479 46 479 46 C464 71 461 81 472 141 C472 141 472 141 472 141 L472 141 Z " />
<glyph glyph-name="v" unicode="v" horiz-adv-x="531" d="M585 500 C585 500 567 500 567 500 C567 500 548 500 548 500 C548 500 529 500 529 500 C529 500 505 500 505 500 C505 500 504 497 504 493 C503 488 502 485 502 485 C502 485 505 485 505 485 C514 485 505 459 483 420 C483 420 483 420 483 420 C483 420 321 137 321 137 C321 137 245 437 245 437 C239 467 239 485 247 485 C247 485 250 485 250 485 C250 486 252 497 252 500 C252 500 229 500 229 500 C229 500 163 500 163 500 C163 500 97 500 97 500 C97 500 80 500 80 500 C80 500 79 497 79 493 C78 488 77 485 77 485 C77 485 81 485 81 485 C93 485 107 460 118 423 C118 423 237 -10 237 -10 C237 -10 256 -10 256 -10 C256 -10 524 429 524 429 C546 463 567 485 578 485 C578 485 582 485 582 485 C582 485 584 500 585 500 C585 500 585 500 585 500 L585 500 Z " />
<glyph glyph-name="w" unicode="w" horiz-adv-x="859" d="M931 500 C931 500 919 500 919 500 C919 500 881 500 881 500 C881 500 847 500 847 500 C847 499 845 485 844 485 C844 485 851 485 851 485 C863 485 863 471 821 396 C821 396 822 396 822 396 C822 396 673 137 673 137 C673 137 603 411 603 411 C603 411 603 411 603 411 C602 414 602 416 601 418 C601 418 599 426 599 426 C587 475 591 485 602 485 C602 485 608 485 608 485 C608 486 610 497 610 500 C610 500 580 500 580 500 C580 500 449 500 449 500 C449 500 438 500 438 500 C438 499 435 485 435 485 C435 485 440 485 440 485 C448 485 456 473 474 408 C474 408 474 408 474 408 C474 408 483 377 483 377 C483 377 344 135 344 135 C344 135 266 446 266 446 C260 478 265 485 273 485 C273 485 278 485 278 485 C278 486 280 497 280 500 C280 500 253 500 253 500 C253 500 121 500 121 500 C121 500 109 500 109 500 C109 500 108 497 107 493 C107 488 106 485 106 485 C106 485 111 485 111 485 C120 485 129 473 146 408 C146 408 146 408 146 408 C146 408 261 -10 261 -10 C261 -10 280 -10 280 -10 C280 -10 491 348 491 348 C491 348 589 -10 589 -10 C589 -10 608 -10 608 -10 C608 -10 893 458 893 458 C909 480 917 485 924 485 C924 485 929 485 929 485 C929 486 931 497 931 500 C931 500 931 500 931 500 L931 500 Z " />
<glyph glyph-name="x" unicode="x" horiz-adv-x="522" d="M547 500 C547 500 535 500 535 500 C535 500 516 500 516 500 C516 500 497 500 497 500 C497 500 465 500 465 500 C465 500 464 497 463 493 C463 488 462 485 462 485 C462 485 465 485 465 485 C475 485 458 459 423 420 C423 420 423 420 423 420 C423 420 341 330 341 330 C341 330 297 430 297 430 C283 463 281 485 289 485 C289 485 292 485 292 485 C292 485 293 488 294 493 C294 497 295 500 295 500 C295 500 266 500 266 500 C266 500 196 500 196 500 C196 500 126 500 126 500 C126 500 116 500 116 500 C116 499 114 485 113 485 C113 485 116 485 116 485 C126 485 144 459 161 420 C161 420 161 420 161 420 C161 420 244 231 244 231 C244 231 105 72 105 72 C74 37 46 15 33 15 C33 15 29 15 29 15 C29 15 28 12 28 8 C27 3 26 0 26 0 C26 0 43 0 43 0 C43 0 62 0 62 0 C62 0 81 0 81 0 C81 0 120 0 120 0 C120 1 122 12 122 15 C122 15 118 15 118 15 C103 15 116 41 149 80 C149 80 149 80 149 80 C149 80 255 205 255 205 C255 205 312 75 312 75 C328 39 334 15 326 15 C326 15 324 15 324 15 C323 12 322 1 322 0 C322 0 345 0 345 0 C345 0 416 0 416 0 C416 0 486 0 486 0 C486 0 493 0 493 0 C493 1 495 12 495 15 C495 15 493 15 493 15 C485 15 468 41 451 80 C451 80 451 80 451 80 C451 80 349 311 349 311 C349 311 468 432 468 432 C501 464 529 485 540 485 C540 485 544 485 544 485 C544 486 543 488 547 500 C547 500 547 500 547 500 L547 500 Z " />
<glyph glyph-name="y" unicode="y" horiz-adv-x="507" d="M597 500 C597 500 579 500 579 500 C579 500 560 500 560 500 C560 500 541 500 541 500 C541 500 517 500 517 500 C517 500 516 497 516 493 C515 488 514 485 514 485 C514 485 517 485 517 485 C526 485 517 459 495 420 C495 420 495 420 495 420 C495 420 333 137 333 137 C333 137 257 437 257 437 C251 467 251 485 259 485 C259 485 262 485 262 485 C262 486 264 497 264 500 C264 500 241 500 241 500 C241 500 175 500 175 500 C175 500 109 500 109 500 C109 500 92 500 92 500 C92 500 91 497 91 493 C90 488 89 485 89 485 C89 485 93 485 93 485 C105 485 119 460 130 423 C130 423 245 6 245 6 C245 6 202 -62 202 -62 C162 -128 132 -154 97 -154 C69 -154 42 -129 14 -129 C-21 -129 -47 -148 -52 -178 C-58 -209 -32 -230 14 -230 C101 -230 161 -186 231 -72 C231 -72 268 -10 268 -10 C268 -10 536 429 536 429 C558 463 579 485 590 485 C590 485 594 485 594 485 C594 485 596 500 597 500 C597 500 597 500 597 500 L597 500 Z " />
<glyph glyph-name="z" unicode="z" horiz-adv-x="497" d="M293 473 C293 473 293 473 293 473 C293 473 377 474 377 474 C377 474 44 0 44 0 C44 0 112 0 112 0 C112 0 180 0 180 0 C180 0 333 0 333 0 C333 0 407 0 407 0 C407 0 413 0 413 0 C414 4 416 9 417 13 C423 30 432 54 438 71 C433 72 419 74 419 74 C419 74 411 66 411 66 C385 42 331 26 277 26 C277 26 198 26 198 26 C198 26 528 500 528 500 C528 500 462 500 462 500 C462 500 396 500 396 500 C396 500 245 500 245 500 C245 500 196 500 196 500 C196 500 165 500 165 500 C163 496 161 490 159 487 C154 474 146 457 141 445 C141 445 153 445 153 445 C188 460 239 473 293 473 C293 473 293 473 293 473 L293 473 Z " />
<glyph glyph-name="braceleft" unicode="&#x7b;" horiz-adv-x="268" d="M225 -120 C225 -120 229 -101 229 -101 C229 -101 214 -101 214 -101 C169 -101 147 -54 159 16 C159 16 181 139 181 139 C193 208 168 258 117 270 C172 282 215 332 227 402 C227 402 249 524 249 524 C261 594 299 641 345 641 C345 641 359 641 359 641 C359 641 363 660 363 660 C363 660 323 660 323 660 C239 660 174 606 159 524 C159 524 127 338 127 338 C121 303 96 280 66 280 C66 280 61 280 61 280 C61 280 58 260 58 260 C58 260 63 260 63 260 C93 260 109 237 103 203 C103 203 70 16 70 16 C56 -66 102 -120 185 -120 C185 -120 225 -120 225 -120 L225 -120 Z " />
<glyph glyph-name="bar" unicode="&#x7c;" horiz-adv-x="223" d="M203 770 C203 770 26 -234 26 -234 C26 -234 115 -234 115 -234 C115 -234 292 770 292 770 C292 770 203 770 203 770 L203 770 Z " />
<glyph glyph-name="braceright" unicode="&#x7d;" horiz-adv-x="268" d="M128 660 C128 660 125 641 125 641 C125 641 139 641 139 641 C185 641 207 594 194 524 C194 524 173 401 173 401 C160 332 186 282 237 270 C182 258 139 208 126 138 C126 138 105 16 105 16 C92 -54 54 -101 9 -101 C9 -101 -6 -101 -6 -101 C-6 -101 -9 -120 -9 -120 C-9 -120 31 -120 31 -120 C114 -120 180 -66 194 16 C194 16 227 202 227 202 C233 237 257 260 287 260 C287 260 292 260 292 260 C292 260 296 280 296 280 C296 280 291 280 291 280 C260 280 245 303 251 337 C251 337 284 524 284 524 C298 606 252 660 168 660 C168 660 128 660 128 660 L128 660 Z " />
<glyph glyph-name="[namenotfound]" unicode="&#xa0;" horiz-adv-x="220" d="" />
<glyph glyph-name="exclamdown" unicode="&#xa1;" horiz-adv-x="279" d="M219 505 C171 505 133 473 124 425 C116 377 142 345 190 345 C238 345 276 377 284 425 C293 473 267 505 219 505 L219 505 Z M52 -83 C36 -132 58 -165 108 -165 C160 -165 194 -132 193 -83 C193 -83 185 270 185 270 C185 270 169 270 169 270 C169 270 52 -83 52 -83 L52 -83 Z " />
<glyph glyph-name="cent" unicode="&#xa2;" horiz-adv-x="535" d="M380 575 C380 575 367 503 367 503 C230 488 125 382 98 229 C73 89 141 -5 267 -5 C270 -5 274 -5 277 -5 C277 -5 265 -75 265 -75 C265 -75 304 -75 304 -75 C304 -75 318 3 318 3 C385 23 456 81 507 159 C507 159 494 167 494 167 C454 106 407 65 376 65 C359 65 344 67 330 70 C330 70 400 471 400 471 C428 464 444 440 441 404 C438 371 457 348 489 348 C520 348 544 368 549 399 C554 461 498 504 406 505 C406 505 418 575 418 575 C418 575 380 575 380 575 L380 575 Z M293 85 C237 116 211 184 227 273 C246 381 299 456 362 471 C362 471 293 85 293 85 L293 85 Z " />
<glyph glyph-name="guillemotleft" unicode="&#xab;" horiz-adv-x="467" d="M342 250 C342 250 493 454 493 454 C493 454 482 466 482 466 C482 466 230 256 230 256 C230 256 227 244 227 244 C227 244 409 34 409 34 C409 34 424 46 424 46 C424 46 342 250 342 250 L342 250 Z M183 250 C183 250 328 454 328 454 C328 454 318 466 318 466 C318 466 72 256 72 256 C72 256 70 244 70 244 C70 244 245 34 245 34 C245 34 260 46 260 46 C260 46 183 250 183 250 L183 250 Z " />
<glyph glyph-name="guillemotright" unicode="&#xbb;" horiz-adv-x="467" d="M214 251 C214 251 135 454 135 454 C135 454 150 466 150 466 C150 466 329 256 329 256 C329 256 326 244 326 244 C326 244 71 34 71 34 C71 34 60 46 60 46 C60 46 214 251 214 251 L214 251 Z M373 251 C373 251 300 454 300 454 C300 454 314 466 314 466 C314 466 486 256 486 256 C486 256 484 244 484 244 C484 244 235 34 235 34 C235 34 225 46 225 46 C225 46 373 251 373 251 L373 251 Z " />
<glyph glyph-name="questiondown" unicode="&#xbf;" horiz-adv-x="386" d="M330 505 C281 505 244 473 235 425 C227 377 253 345 301 345 C349 345 387 377 395 425 C404 473 377 505 330 505 L330 505 Z M282 123 C292 123 299 130 298 140 C298 140 295 265 295 265 C295 265 280 265 280 265 C280 265 259 210 259 210 C259 210 224 210 224 210 C102 210 65 129 57 84 C31 -65 101 -165 232 -165 C282 -165 320 -136 327 -92 C333 -62 317 -42 287 -42 C262 -42 237 -75 212 -75 C118 -75 65 -17 81 71 C84 90 115 123 247 123 C247 123 282 123 282 123 L282 123 Z " />
<glyph glyph-name="Agrave" unicode="&#xc0;" horiz-adv-x="684" d="M668 15 C668 15 664 15 664 15 C652 15 637 36 626 70 C626 70 445 675 445 675 C445 675 404 675 404 675 C404 675 72 80 72 80 C72 80 71 80 71 80 C49 41 27 15 15 15 C15 15 11 15 11 15 C10 12 9 1 9 0 C9 0 27 0 27 0 C27 0 54 0 54 0 C54 0 81 0 81 0 C81 0 116 0 116 0 C116 0 117 3 118 8 C118 12 119 15 119 15 C119 15 114 15 114 15 C101 15 106 44 128 87 C128 87 205 230 205 230 C205 230 400 230 400 230 C400 230 445 74 445 74 C454 38 454 15 444 15 C444 15 441 15 441 15 C441 15 440 12 439 8 C439 3 438 0 438 0 C438 0 466 0 466 0 C466 0 556 0 556 0 C556 0 647 0 647 0 C647 0 666 0 666 0 C667 3 668 14 668 15 C668 15 668 15 668 15 L668 15 Z M468 859 C460 889 452 909 447 909 C427 909 376 875 373 861 C372 854 383 836 401 814 C401 814 499 690 499 690 C499 690 513 699 513 699 C513 699 468 859 468 859 L468 859 Z M388 270 C388 270 227 271 227 271 C227 271 332 465 332 465 C332 465 388 270 388 270 L388 270 Z " />
<glyph glyph-name="Aacute" unicode="&#xc1;" horiz-adv-x="684" d="M367 690 C367 690 505 814 505 814 C530 837 548 855 549 861 C551 875 511 909 492 909 C487 909 473 889 454 859 C454 859 356 699 356 699 C356 699 367 690 367 690 L367 690 Z M668 15 C668 15 664 15 664 15 C652 15 637 36 626 70 C626 70 445 675 445 675 C445 675 404 675 404 675 C404 675 72 80 72 80 C72 80 71 80 71 80 C49 41 27 15 15 15 C15 15 11 15 11 15 C10 12 9 1 9 0 C9 0 27 0 27 0 C27 0 54 0 54 0 C54 0 81 0 81 0 C81 0 116 0 116 0 C116 0 117 3 118 8 C118 12 119 15 119 15 C119 15 114 15 114 15 C101 15 106 44 128 87 C128 87 205 230 205 230 C205 230 400 230 400 230 C400 230 445 74 445 74 C454 38 454 15 444 15 C444 15 441 15 441 15 C441 15 440 12 439 8 C439 3 438 0 438 0 C438 0 466 0 466 0 C466 0 556 0 556 0 C556 0 647 0 647 0 C647 0 666 0 666 0 C667 3 668 14 668 15 C668 15 668 15 668 15 L668 15 Z M388 270 C388 270 227 271 227 271 C227 271 332 465 332 465 C332 465 388 270 388 270 L388 270 Z " />
<glyph glyph-name="Acircumflex" unicode="&#xc2;" horiz-adv-x="684" d="M668 15 C668 15 664 15 664 15 C652 15 637 36 626 70 C626 70 445 675 445 675 C445 675 404 675 404 675 C404 675 72 80 72 80 C72 80 71 80 71 80 C49 41 27 15 15 15 C15 15 11 15 11 15 C10 12 9 1 9 0 C9 0 27 0 27 0 C27 0 54 0 54 0 C54 0 81 0 81 0 C81 0 116 0 116 0 C116 0 117 3 118 8 C118 12 119 15 119 15 C119 15 114 15 114 15 C101 15 106 44 128 87 C128 87 205 230 205 230 C205 230 400 230 400 230 C400 230 445 74 445 74 C454 38 454 15 444 15 C444 15 441 15 441 15 C441 15 440 12 439 8 C439 3 438 0 438 0 C438 0 466 0 466 0 C466 0 556 0 556 0 C556 0 647 0 647 0 C647 0 666 0 666 0 C667 3 668 14 668 15 C668 15 668 15 668 15 L668 15 Z M447 800 C447 800 538 691 538 691 C538 691 551 701 551 701 C551 701 496 872 496 872 C493 881 483 904 465 904 C446 904 429 882 423 872 C423 872 307 701 307 701 C307 701 317 691 317 691 C317 691 447 800 447 800 L447 800 Z M388 270 C388 270 227 271 227 271 C227 271 332 465 332 465 C332 465 388 270 388 270 L388 270 Z " />
<glyph glyph-name="Atilde" unicode="&#xc3;" horiz-adv-x="684" d="M299 755 C305 789 325 811 348 811 C406 811 449 748 507 748 C560 748 606 803 620 885 C620 885 601 885 601 885 C595 849 572 825 545 825 C487 825 444 887 387 887 C337 887 294 834 280 755 C280 755 299 755 299 755 L299 755 Z M668 15 C668 15 664 15 664 15 C652 15 637 36 626 70 C626 70 445 675 445 675 C445 675 404 675 404 675 C404 675 72 80 72 80 C72 80 71 80 71 80 C49 41 27 15 15 15 C15 15 11 15 11 15 C10 12 9 1 9 0 C9 0 27 0 27 0 C27 0 54 0 54 0 C54 0 81 0 81 0 C81 0 116 0 116 0 C116 0 117 3 118 8 C118 12 119 15 119 15 C119 15 114 15 114 15 C101 15 106 44 128 87 C128 87 205 230 205 230 C205 230 400 230 400 230 C400 230 445 74 445 74 C454 38 454 15 444 15 C444 15 441 15 441 15 C441 15 440 12 439 8 C439 3 438 0 438 0 C438 0 466 0 466 0 C466 0 556 0 556 0 C556 0 647 0 647 0 C647 0 666 0 666 0 C667 3 668 14 668 15 C668 15 668 15 668 15 L668 15 Z M388 270 C388 270 227 271 227 271 C227 271 332 465 332 465 C332 465 388 270 388 270 L388 270 Z " />
<glyph glyph-name="Adieresis" unicode="&#xc4;" horiz-adv-x="684" d="M535 730 C577 730 610 758 617 800 C625 843 601 871 559 871 C517 871 484 843 477 800 C470 758 493 730 535 730 L535 730 Z M334 730 C376 730 409 758 417 800 C424 843 401 871 359 871 C317 871 284 843 276 800 C269 758 292 730 334 730 L334 730 Z M668 15 C668 15 664 15 664 15 C652 15 637 36 626 70 C626 70 445 675 445 675 C445 675 404 675 404 675 C404 675 72 80 72 80 C72 80 71 80 71 80 C49 41 27 15 15 15 C15 15 11 15 11 15 C10 12 9 1 9 0 C9 0 27 0 27 0 C27 0 54 0 54 0 C54 0 81 0 81 0 C81 0 116 0 116 0 C116 0 117 3 118 8 C118 12 119 15 119 15 C119 15 114 15 114 15 C101 15 106 44 128 87 C128 87 205 230 205 230 C205 230 400 230 400 230 C400 230 445 74 445 74 C454 38 454 15 444 15 C444 15 441 15 441 15 C441 15 440 12 439 8 C439 3 438 0 438 0 C438 0 466 0 466 0 C466 0 556 0 556 0 C556 0 647 0 647 0 C647 0 666 0 666 0 C667 3 668 14 668 15 C668 15 668 15 668 15 L668 15 Z M388 270 C388 270 227 271 227 271 C227 271 332 465 332 465 C332 465 388 270 388 270 L388 270 Z " />
<glyph glyph-name="Aring" unicode="&#xc5;" horiz-adv-x="684" d="M433 721 C398 721 374 752 380 788 C388 827 418 854 456 854 C495 854 516 827 508 788 C502 752 467 721 433 721 L433 721 Z M348 788 C340 738 377 695 428 695 C480 695 532 738 540 788 C550 843 519 880 461 880 C403 880 358 843 348 788 L348 788 Z M668 15 C668 15 664 15 664 15 C652 15 637 36 626 70 C626 70 445 675 445 675 C445 675 404 675 404 675 C404 675 72 80 72 80 C72 80 71 80 71 80 C49 41 27 15 15 15 C15 15 11 15 11 15 C10 12 9 1 9 0 C9 0 27 0 27 0 C27 0 54 0 54 0 C54 0 81 0 81 0 C81 0 116 0 116 0 C116 0 117 3 118 8 C118 12 119 15 119 15 C119 15 114 15 114 15 C101 15 106 44 128 87 C128 87 205 230 205 230 C205 230 400 230 400 230 C400 230 445 74 445 74 C454 38 454 15 444 15 C444 15 441 15 441 15 C441 15 440 12 439 8 C439 3 438 0 438 0 C438 0 466 0 466 0 C466 0 556 0 556 0 C556 0 647 0 647 0 C647 0 666 0 666 0 C667 3 668 14 668 15 C668 15 668 15 668 15 L668 15 Z M388 270 C388 270 227 271 227 271 C227 271 332 465 332 465 C332 465 388 270 388 270 L388 270 Z " />
<glyph glyph-name="Ccedilla" unicode="&#xc7;" horiz-adv-x="781" d="M804 511 C804 511 816 574 816 574 C789 629 689 665 567 665 C320 665 132 531 97 330 C61 129 202 -5 449 -5 C571 -5 684 31 730 86 C730 86 741 149 741 149 C741 149 728 149 728 149 C723 144 717 138 712 132 C665 84 585 46 512 39 C512 39 512 39 512 39 C494 37 475 36 456 36 C318 36 247 154 279 330 C309 506 422 624 560 624 C595 624 628 621 657 615 C657 615 657 615 657 615 C706 605 756 570 781 528 C784 522 788 516 791 511 C791 511 804 511 804 511 L804 511 Z " />
<glyph glyph-name="Egrave" unicode="&#xc8;" horiz-adv-x="592" d="M629 576 C632 595 637 621 640 639 C641 646 643 654 644 660 C644 660 628 660 628 660 C628 660 564 660 564 660 C564 660 343 660 343 660 C343 660 260 660 260 660 C260 660 178 660 178 660 C178 660 154 660 154 660 C154 660 153 657 153 653 C151 648 151 645 151 645 C151 645 155 645 155 645 C166 645 170 621 165 586 C165 586 75 80 75 80 C75 80 75 80 75 80 C68 41 56 15 44 15 C44 15 40 15 40 15 C40 15 39 12 39 8 C38 3 37 0 37 0 C37 0 61 0 61 0 C61 0 144 0 144 0 C144 0 227 0 227 0 C227 0 445 0 445 0 C445 0 522 0 522 0 C522 0 525 0 525 0 C527 6 530 14 532 21 C539 40 548 65 554 84 C555 85 554 85 553 84 C542 86 540 82 535 78 C505 56 444 42 384 41 C384 41 234 41 234 41 C234 41 285 331 285 331 C285 331 395 331 395 331 C449 331 489 323 498 304 C498 304 511 304 511 304 C512 313 514 324 516 334 C516 334 519 352 519 352 C519 352 523 373 523 373 C523 373 523 373 523 373 C524 381 526 389 527 397 C527 397 527 397 527 397 C527 397 527 397 527 397 C527 396 526 396 525 397 C519 396 515 396 515 397 C515 397 510 393 510 393 C497 381 454 373 403 373 C403 373 293 373 293 373 C293 373 287 343 287 343 C287 343 343 660 343 660 C343 660 336 619 336 619 C336 619 481 619 481 619 C541 619 594 604 612 582 C612 582 618 576 618 576 C618 576 629 576 629 576 L629 576 Z M433 859 C425 889 418 909 413 909 C393 909 341 875 339 861 C337 854 349 836 367 814 C367 814 464 690 464 690 C464 690 479 699 479 699 C479 699 433 859 433 859 L433 859 Z " />
<glyph glyph-name="Eacute" unicode="&#xc9;" horiz-adv-x="592" d="M629 576 C632 595 637 621 640 639 C641 646 643 654 644 660 C644 660 628 660 628 660 C628 660 564 660 564 660 C564 660 343 660 343 660 C343 660 260 660 260 660 C260 660 178 660 178 660 C178 660 154 660 154 660 C154 660 153 657 153 653 C151 648 151 645 151 645 C151 645 155 645 155 645 C166 645 170 621 165 586 C165 586 75 80 75 80 C75 80 75 80 75 80 C68 41 56 15 44 15 C44 15 40 15 40 15 C40 15 39 12 39 8 C38 3 37 0 37 0 C37 0 61 0 61 0 C61 0 144 0 144 0 C144 0 227 0 227 0 C227 0 445 0 445 0 C445 0 522 0 522 0 C522 0 525 0 525 0 C527 6 530 14 532 21 C539 40 548 65 554 84 C555 85 554 85 553 84 C542 86 540 82 535 78 C505 56 444 42 384 41 C384 41 234 41 234 41 C234 41 285 331 285 331 C285 331 395 331 395 331 C449 331 489 323 498 304 C498 304 511 304 511 304 C512 313 514 324 516 334 C516 334 519 352 519 352 C519 352 523 373 523 373 C523 373 523 373 523 373 C524 381 526 389 527 397 C527 397 527 397 527 397 C527 397 527 397 527 397 C527 396 526 396 525 397 C519 396 515 396 515 397 C515 397 510 393 510 393 C497 381 454 373 403 373 C403 373 293 373 293 373 C293 373 287 343 287 343 C287 343 343 660 343 660 C343 660 336 619 336 619 C336 619 481 619 481 619 C541 619 594 604 612 582 C612 582 618 576 618 576 C618 576 629 576 629 576 L629 576 Z M378 690 C378 690 516 814 516 814 C542 837 559 855 560 861 C563 875 523 909 503 909 C499 909 484 889 466 859 C466 859 367 699 367 699 C367 699 378 690 378 690 L378 690 Z " />
<glyph glyph-name="Ecircumflex" unicode="&#xca;" horiz-adv-x="592" d="M629 576 C632 595 637 621 640 639 C641 646 643 654 644 660 C644 660 628 660 628 660 C628 660 564 660 564 660 C564 660 343 660 343 660 C343 660 260 660 260 660 C260 660 178 660 178 660 C178 660 154 660 154 660 C154 660 153 657 153 653 C151 648 151 645 151 645 C151 645 155 645 155 645 C166 645 170 621 165 586 C165 586 75 80 75 80 C75 80 75 80 75 80 C68 41 56 15 44 15 C44 15 40 15 40 15 C40 15 39 12 39 8 C38 3 37 0 37 0 C37 0 61 0 61 0 C61 0 144 0 144 0 C144 0 227 0 227 0 C227 0 445 0 445 0 C445 0 522 0 522 0 C522 0 525 0 525 0 C527 6 530 14 532 21 C539 40 548 65 554 84 C555 85 554 85 553 84 C542 86 540 82 535 78 C505 56 444 42 384 41 C384 41 234 41 234 41 C234 41 285 331 285 331 C285 331 395 331 395 331 C449 331 489 323 498 304 C498 304 511 304 511 304 C512 313 514 324 516 334 C516 334 519 352 519 352 C519 352 523 373 523 373 C523 373 523 373 523 373 C524 381 526 389 527 397 C527 397 527 397 527 397 C527 397 527 397 527 397 C527 396 526 396 525 397 C519 396 515 396 515 397 C515 397 510 393 510 393 C497 381 454 373 403 373 C403 373 293 373 293 373 C293 373 287 343 287 343 C287 343 343 660 343 660 C343 660 336 619 336 619 C336 619 481 619 481 619 C541 619 594 604 612 582 C612 582 618 576 618 576 C618 576 629 576 629 576 L629 576 Z M428 800 C428 800 519 691 519 691 C519 691 532 701 532 701 C532 701 477 872 477 872 C474 881 464 904 446 904 C427 904 410 882 404 872 C404 872 288 701 288 701 C288 701 298 691 298 691 C298 691 428 800 428 800 L428 800 Z " />
<glyph glyph-name="Edieresis" unicode="&#xcb;" horiz-adv-x="592" d="M629 576 C632 595 637 621 640 639 C641 646 643 654 644 660 C644 660 628 660 628 660 C628 660 564 660 564 660 C564 660 343 660 343 660 C343 660 260 660 260 660 C260 660 178 660 178 660 C178 660 154 660 154 660 C154 660 153 657 153 653 C151 648 151 645 151 645 C151 645 155 645 155 645 C166 645 170 621 165 586 C165 586 75 80 75 80 C75 80 75 80 75 80 C68 41 56 15 44 15 C44 15 40 15 40 15 C40 15 39 12 39 8 C38 3 37 0 37 0 C37 0 61 0 61 0 C61 0 144 0 144 0 C144 0 227 0 227 0 C227 0 445 0 445 0 C445 0 522 0 522 0 C522 0 525 0 525 0 C527 6 530 14 532 21 C539 40 548 65 554 84 C555 85 554 85 553 84 C542 86 540 82 535 78 C505 56 444 42 384 41 C384 41 234 41 234 41 C234 41 285 331 285 331 C285 331 395 331 395 331 C449 331 489 323 498 304 C498 304 511 304 511 304 C512 313 514 324 516 334 C516 334 519 352 519 352 C519 352 523 373 523 373 C523 373 523 373 523 373 C524 381 526 389 527 397 C527 397 527 397 527 397 C527 397 527 397 527 397 C527 396 526 396 525 397 C519 396 515 396 515 397 C515 397 510 393 510 393 C497 381 454 373 403 373 C403 373 293 373 293 373 C293 373 287 343 287 343 C287 343 343 660 343 660 C343 660 336 619 336 619 C336 619 481 619 481 619 C541 619 594 604 612 582 C612 582 618 576 618 576 C618 576 629 576 629 576 L629 576 Z M516 730 C558 730 591 758 598 800 C606 843 583 871 540 871 C499 871 465 843 458 800 C451 758 474 730 516 730 L516 730 Z M315 730 C357 730 391 758 398 800 C405 843 382 871 340 871 C298 871 265 843 257 800 C250 758 273 730 315 730 L315 730 Z " />
<glyph glyph-name="Igrave" unicode="&#xcc;" horiz-adv-x="288" d="M358 660 C358 660 334 660 334 660 C334 660 251 660 251 660 C251 660 168 660 168 660 C168 660 144 660 144 660 C143 657 142 646 142 645 C142 645 145 645 145 645 C157 645 161 622 155 587 C155 587 66 80 66 80 C66 80 66 80 66 80 C59 41 46 15 34 15 C34 15 31 15 31 15 C31 15 30 12 29 8 C29 3 28 0 28 0 C28 0 52 0 52 0 C52 0 135 0 135 0 C135 0 217 0 217 0 C217 0 241 0 241 0 C241 0 242 3 243 8 C243 12 244 15 244 15 C244 15 240 15 240 15 C228 15 225 41 232 80 C232 80 231 80 231 80 C231 80 320 580 320 580 C320 580 320 580 320 580 C327 619 340 645 351 645 C351 645 355 645 355 645 C355 645 357 660 358 660 C358 660 358 660 358 660 L358 660 Z M297 859 C289 889 281 909 276 909 C257 909 205 875 202 861 C201 854 212 836 230 814 C230 814 328 690 328 690 C328 690 343 699 343 699 C343 699 297 859 297 859 L297 859 Z " />
<glyph glyph-name="Iacute" unicode="&#xcd;" horiz-adv-x="288" d="M196 690 C196 690 334 814 334 814 C359 837 377 855 378 861 C380 875 340 909 321 909 C316 909 302 889 283 859 C283 859 185 699 185 699 C185 699 196 690 196 690 L196 690 Z M358 660 C358 660 334 660 334 660 C334 660 251 660 251 660 C251 660 168 660 168 660 C168 660 144 660 144 660 C143 657 142 646 142 645 C142 645 145 645 145 645 C157 645 161 622 155 587 C155 587 66 80 66 80 C66 80 66 80 66 80 C59 41 46 15 34 15 C34 15 31 15 31 15 C31 15 30 12 29 8 C29 3 28 0 28 0 C28 0 52 0 52 0 C52 0 135 0 135 0 C135 0 217 0 217 0 C217 0 241 0 241 0 C241 0 242 3 243 8 C243 12 244 15 244 15 C244 15 240 15 240 15 C228 15 225 41 232 80 C232 80 231 80 231 80 C231 80 320 580 320 580 C320 580 320 580 320 580 C327 619 340 645 351 645 C351 645 355 645 355 645 C355 645 357 660 358 660 C358 660 358 660 358 660 L358 660 Z " />
<glyph glyph-name="Icircumflex" unicode="&#xce;" horiz-adv-x="288" d="M358 660 C358 660 334 660 334 660 C334 660 251 660 251 660 C251 660 168 660 168 660 C168 660 144 660 144 660 C143 657 142 646 142 645 C142 645 145 645 145 645 C157 645 161 622 155 587 C155 587 66 80 66 80 C66 80 66 80 66 80 C59 41 46 15 34 15 C34 15 31 15 31 15 C31 15 30 12 29 8 C29 3 28 0 28 0 C28 0 52 0 52 0 C52 0 135 0 135 0 C135 0 217 0 217 0 C217 0 241 0 241 0 C241 0 242 3 243 8 C243 12 244 15 244 15 C244 15 240 15 240 15 C228 15 225 41 232 80 C232 80 231 80 231 80 C231 80 320 580 320 580 C320 580 320 580 320 580 C327 619 340 645 351 645 C351 645 355 645 355 645 C355 645 357 660 358 660 C358 660 358 660 358 660 L358 660 Z M276 800 C276 800 367 691 367 691 C367 691 380 701 380 701 C380 701 325 872 325 872 C322 881 312 904 294 904 C275 904 258 882 252 872 C252 872 136 701 136 701 C136 701 146 691 146 691 C146 691 276 800 276 800 L276 800 Z " />
<glyph glyph-name="Idieresis" unicode="&#xcf;" horiz-adv-x="288" d="M364 730 C406 730 439 758 446 800 C454 843 431 871 388 871 C347 871 313 843 306 800 C299 758 322 730 364 730 L364 730 Z M163 730 C205 730 239 758 246 800 C253 843 230 871 188 871 C146 871 113 843 105 800 C98 758 121 730 163 730 L163 730 Z M358 660 C358 660 334 660 334 660 C334 660 251 660 251 660 C251 660 168 660 168 660 C168 660 144 660 144 660 C143 657 142 646 142 645 C142 645 145 645 145 645 C157 645 161 622 155 587 C155 587 66 80 66 80 C66 80 66 80 66 80 C59 41 46 15 34 15 C34 15 31 15 31 15 C31 15 30 12 29 8 C29 3 28 0 28 0 C28 0 52 0 52 0 C52 0 135 0 135 0 C135 0 217 0 217 0 C217 0 241 0 241 0 C241 0 242 3 243 8 C243 12 244 15 244 15 C244 15 240 15 240 15 C228 15 225 41 232 80 C232 80 231 80 231 80 C231 80 320 580 320 580 C320 580 320 580 320 580 C327 619 340 645 351 645 C351 645 355 645 355 645 C355 645 357 660 358 660 C358 660 358 660 358 660 L358 660 Z " />
<glyph glyph-name="Ntilde" unicode="&#xd1;" horiz-adv-x="639" d="M314 755 C320 789 340 811 363 811 C421 811 464 748 521 748 C575 748 620 803 635 885 C635 885 616 885 616 885 C610 849 587 825 560 825 C502 825 459 887 402 887 C352 887 309 834 295 755 C295 755 314 755 314 755 L314 755 Z M716 660 C716 660 692 660 692 660 C692 660 667 660 667 660 C667 660 642 660 642 660 C642 660 618 660 618 660 C617 657 616 646 616 645 C616 645 619 645 619 645 C631 645 635 621 629 585 C629 585 561 200 561 200 C561 200 343 660 343 660 C343 660 231 660 231 660 C231 660 222 606 222 606 C222 606 221 605 221 605 C221 605 231 660 231 660 C231 660 207 660 207 660 C207 660 182 660 182 660 C182 660 158 660 158 660 C158 659 156 645 155 645 C155 645 159 645 159 645 C170 645 174 621 169 586 C169 586 79 80 79 80 C79 80 79 80 79 80 C72 41 60 15 48 15 C48 15 44 15 44 15 C43 12 42 1 42 0 C42 0 65 0 65 0 C65 0 90 0 90 0 C90 0 115 0 115 0 C115 0 139 0 139 0 C139 1 138 3 142 15 C142 15 138 15 138 15 C127 15 122 38 128 73 C128 73 208 531 208 531 C208 531 454 23 454 23 C454 23 475 -20 475 -20 C475 -20 572 -20 572 -20 C572 -20 590 84 590 84 C590 84 678 580 678 580 C678 580 678 580 678 580 C685 619 698 645 709 645 C709 645 713 645 713 645 C713 645 715 660 716 660 C716 660 716 660 716 660 L716 660 Z " />
<glyph glyph-name="Ograve" unicode="&#xd2;" horiz-adv-x="772" d="M384 36 C280 36 250 171 279 330 C306 489 383 624 487 624 C591 624 620 489 592 330 C564 171 487 36 384 36 L384 36 Z M97 330 C64 149 152 -5 376 -5 C600 -5 742 149 774 330 C806 511 718 665 494 665 C271 665 128 511 97 330 L97 330 Z M540 859 C532 889 524 909 519 909 C499 909 447 875 445 861 C444 854 455 836 473 814 C473 814 571 690 571 690 C571 690 585 699 585 699 C585 699 540 859 540 859 L540 859 Z " />
<glyph glyph-name="Oacute" unicode="&#xd3;" horiz-adv-x="772" d="M476 690 C476 690 614 814 614 814 C640 837 657 855 658 861 C661 875 621 909 601 909 C597 909 583 889 564 859 C564 859 465 699 465 699 C465 699 476 690 476 690 L476 690 Z M384 36 C280 36 250 171 279 330 C306 489 383 624 487 624 C591 624 620 489 592 330 C564 171 487 36 384 36 L384 36 Z M97 330 C64 149 152 -5 376 -5 C600 -5 742 149 774 330 C806 511 718 665 494 665 C271 665 128 511 97 330 L97 330 Z " />
<glyph glyph-name="Ocircumflex" unicode="&#xd4;" horiz-adv-x="772" d="M384 36 C280 36 250 171 279 330 C306 489 383 624 487 624 C591 624 620 489 592 330 C564 171 487 36 384 36 L384 36 Z M97 330 C64 149 152 -5 376 -5 C600 -5 742 149 774 330 C806 511 718 665 494 665 C271 665 128 511 97 330 L97 330 Z M519 799 C519 799 609 691 609 691 C609 691 623 701 623 701 C623 701 568 872 568 872 C565 881 555 904 537 904 C518 904 501 882 495 872 C495 872 379 701 379 701 C379 701 389 691 389 691 C389 691 519 799 519 799 L519 799 Z " />
<glyph glyph-name="Otilde" unicode="&#xd5;" horiz-adv-x="772" d="M371 755 C377 789 397 811 420 811 C478 811 520 748 578 748 C632 748 677 803 692 885 C692 885 672 885 672 885 C666 849 644 825 617 825 C559 825 516 887 458 887 C409 887 366 834 352 755 C352 755 371 755 371 755 L371 755 Z M384 36 C280 36 250 171 279 330 C306 489 383 624 487 624 C591 624 620 489 592 330 C564 171 487 36 384 36 L384 36 Z M97 330 C64 149 152 -5 376 -5 C600 -5 742 149 774 330 C806 511 718 665 494 665 C271 665 128 511 97 330 L97 330 Z " />
<glyph glyph-name="Odieresis" unicode="&#xd6;" horiz-adv-x="772" d="M606 730 C649 730 682 758 689 800 C696 843 673 871 631 871 C589 871 556 843 548 800 C541 758 564 730 606 730 L606 730 Z M406 730 C448 730 481 758 488 800 C496 843 472 871 430 871 C388 871 355 843 348 800 C341 758 364 730 406 730 L406 730 Z M384 36 C280 36 250 171 279 330 C306 489 383 624 487 624 C591 624 620 489 592 330 C564 171 487 36 384 36 L384 36 Z M97 330 C64 149 152 -5 376 -5 C600 -5 742 149 774 330 C806 511 718 665 494 665 C271 665 128 511 97 330 L97 330 Z " />
<glyph glyph-name="Oslash" unicode="&#xd8;" horiz-adv-x="772" d="M59 -31 C59 -31 170 62 170 62 C217 20 285 -5 376 -5 C600 -5 742 149 774 330 C788 411 779 486 744 545 C744 545 855 639 855 639 C855 639 812 691 812 691 C812 691 701 597 701 597 C654 640 585 665 494 665 C271 665 128 511 97 330 C82 249 92 173 127 114 C127 114 16 21 16 21 C16 21 59 -31 59 -31 L59 -31 Z M384 36 C324 36 288 81 275 151 C275 151 602 426 602 426 C601 396 598 363 592 330 C564 171 487 36 384 36 C384 36 384 36 384 36 L384 36 Z M269 234 C269 264 273 296 279 330 C306 489 383 624 487 624 C547 624 583 578 596 509 C596 509 269 234 269 234 L269 234 Z " />
<glyph glyph-name="Ugrave" unicode="&#xd9;" horiz-adv-x="635" d="M725 660 C725 660 698 660 698 660 C698 660 679 660 679 660 C679 660 660 660 660 660 C660 660 631 660 631 660 C631 659 629 645 628 645 C628 645 633 645 633 645 C646 645 651 618 645 578 C645 578 578 202 578 202 C563 113 496 53 352 53 C257 53 229 107 243 187 C243 187 312 580 312 580 C312 580 312 580 312 580 C319 619 332 645 344 645 C344 645 347 645 347 645 C348 645 350 659 350 660 C350 660 326 660 326 660 C326 660 244 660 244 660 C244 660 161 660 161 660 C161 660 137 660 137 660 C137 659 135 645 134 645 C134 645 138 645 138 645 C149 645 153 621 148 585 C148 585 83 219 83 219 C59 85 120 -5 317 -5 C507 -5 594 73 615 189 C615 189 684 579 684 579 C692 619 706 645 718 645 C718 645 722 645 722 645 C723 645 725 659 725 660 C725 660 725 660 725 660 L725 660 Z M475 859 C468 889 460 909 455 909 C435 909 383 875 381 861 C379 854 391 836 409 814 C409 814 506 690 506 690 C506 690 521 699 521 699 C521 699 475 859 475 859 L475 859 Z " />
<glyph glyph-name="Uacute" unicode="&#xda;" horiz-adv-x="635" d="M435 690 C435 690 573 814 573 814 C598 837 616 855 617 861 C619 875 579 909 560 909 C555 909 541 889 522 859 C522 859 424 699 424 699 C424 699 435 690 435 690 L435 690 Z M725 660 C725 660 698 660 698 660 C698 660 679 660 679 660 C679 660 660 660 660 660 C660 660 631 660 631 660 C631 659 629 645 628 645 C628 645 633 645 633 645 C646 645 651 618 645 578 C645 578 578 202 578 202 C563 113 496 53 352 53 C257 53 229 107 243 187 C243 187 312 580 312 580 C312 580 312 580 312 580 C319 619 332 645 344 645 C344 645 347 645 347 645 C348 645 350 659 350 660 C350 660 326 660 326 660 C326 660 244 660 244 660 C244 660 161 660 161 660 C161 660 137 660 137 660 C137 659 135 645 134 645 C134 645 138 645 138 645 C149 645 153 621 148 585 C148 585 83 219 83 219 C59 85 120 -5 317 -5 C507 -5 594 73 615 189 C615 189 684 579 684 579 C692 619 706 645 718 645 C718 645 722 645 722 645 C723 645 725 659 725 660 C725 660 725 660 725 660 L725 660 Z " />
<glyph glyph-name="Ucircumflex" unicode="&#xdb;" horiz-adv-x="635" d="M725 660 C725 660 698 660 698 660 C698 660 679 660 679 660 C679 660 660 660 660 660 C660 660 631 660 631 660 C631 659 629 645 628 645 C628 645 633 645 633 645 C646 645 651 618 645 578 C645 578 578 202 578 202 C563 113 496 53 352 53 C257 53 229 107 243 187 C243 187 312 580 312 580 C312 580 312 580 312 580 C319 619 332 645 344 645 C344 645 347 645 347 645 C348 645 350 659 350 660 C350 660 326 660 326 660 C326 660 244 660 244 660 C244 660 161 660 161 660 C161 660 137 660 137 660 C137 659 135 645 134 645 C134 645 138 645 138 645 C149 645 153 621 148 585 C148 585 83 219 83 219 C59 85 120 -5 317 -5 C507 -5 594 73 615 189 C615 189 684 579 684 579 C692 619 706 645 718 645 C718 645 722 645 722 645 C723 645 725 659 725 660 C725 660 725 660 725 660 L725 660 Z M454 800 C454 800 545 691 545 691 C545 691 559 701 559 701 C559 701 503 872 503 872 C500 881 490 904 472 904 C454 904 437 882 430 872 C430 872 314 701 314 701 C314 701 324 691 324 691 C324 691 454 800 454 800 L454 800 Z " />
<glyph glyph-name="Udieresis" unicode="&#xdc;" horiz-adv-x="635" d="M542 730 C584 730 617 758 625 800 C632 843 609 871 567 871 C525 871 492 843 484 800 C477 758 500 730 542 730 L542 730 Z M341 730 C384 730 417 758 424 800 C432 843 408 871 366 871 C324 871 291 843 283 800 C276 758 299 730 341 730 L341 730 Z M725 660 C725 660 698 660 698 660 C698 660 679 660 679 660 C679 660 660 660 660 660 C660 660 631 660 631 660 C631 659 629 645 628 645 C628 645 633 645 633 645 C646 645 651 618 645 578 C645 578 578 202 578 202 C563 113 496 53 352 53 C257 53 229 107 243 187 C243 187 312 580 312 580 C312 580 312 580 312 580 C319 619 332 645 344 645 C344 645 347 645 347 645 C348 645 350 659 350 660 C350 660 326 660 326 660 C326 660 244 660 244 660 C244 660 161 660 161 660 C161 660 137 660 137 660 C137 659 135 645 134 645 C134 645 138 645 138 645 C149 645 153 621 148 585 C148 585 83 219 83 219 C59 85 120 -5 317 -5 C507 -5 594 73 615 189 C615 189 684 579 684 579 C692 619 706 645 718 645 C718 645 722 645 722 645 C723 645 725 659 725 660 C725 660 725 660 725 660 L725 660 Z " />
<glyph glyph-name="Yacute" unicode="&#xdd;" horiz-adv-x="654" d="M441 690 C441 690 579 814 579 814 C604 837 622 855 623 861 C626 875 586 909 566 909 C562 909 548 889 529 859 C529 859 430 699 430 699 C430 699 441 690 441 690 L441 690 Z M428 15 C428 15 425 15 425 15 C414 15 410 37 415 71 C431 165 450 273 465 359 C465 359 680 591 680 591 C711 624 737 645 747 645 C747 645 750 645 750 645 C750 645 751 648 751 653 C752 657 753 660 753 660 C753 660 743 660 743 660 C743 660 724 660 724 660 C724 660 705 660 705 660 C705 660 670 660 670 660 C670 659 667 645 667 645 C667 645 671 645 671 645 C683 645 661 611 614 560 C614 560 614 560 614 560 C614 560 432 359 432 359 C432 359 422 359 422 359 C422 359 347 598 347 598 C339 627 340 645 349 645 C349 645 353 645 353 645 C352 645 353 648 354 653 C354 657 355 660 355 660 C355 660 327 660 327 660 C327 660 227 660 227 660 C227 660 128 660 128 660 C128 660 120 660 120 660 C120 660 119 657 119 653 C118 648 117 645 117 645 C117 645 120 645 120 645 C128 645 143 624 159 591 C159 591 289 301 289 301 C276 225 261 140 247 64 C240 34 229 15 219 15 C219 15 215 15 215 15 C214 12 213 1 213 0 C213 0 236 0 236 0 C236 0 319 0 319 0 C319 0 402 0 402 0 C402 0 426 0 426 0 C426 1 428 12 428 15 C428 15 428 15 428 15 L428 15 Z " />
<glyph glyph-name="agrave" unicode="&#xe0;" horiz-adv-x="602" d="M511 141 C511 141 511 141 511 141 C532 261 553 380 574 500 C574 500 542 500 542 500 C542 500 467 396 467 396 C464 461 426 505 365 505 C236 505 130 391 100 219 C76 85 129 -5 231 -5 C295 -5 350 29 386 86 C386 86 384 75 384 75 C379 48 375 22 370 -5 C370 -5 389 -5 389 -5 C389 -5 476 25 476 25 C476 25 516 37 516 37 C517 37 517 38 517 38 C518 43 518 46 518 46 C503 71 500 81 511 141 L511 141 Z M366 699 C358 729 351 749 346 749 C326 749 274 715 272 701 C270 694 282 676 300 654 C300 654 397 530 397 530 C397 530 412 539 412 539 C412 539 366 699 366 699 L366 699 Z M394 132 C374 90 343 65 307 65 C238 65 207 144 228 263 C250 390 300 474 354 474 C414 474 445 420 432 347 C419 275 407 203 394 132 C394 132 394 132 394 132 L394 132 Z " />
<glyph glyph-name="aacute" unicode="&#xe1;" horiz-adv-x="525" d="M300 530 C300 530 438 654 438 654 C464 677 481 695 482 701 C485 715 445 749 425 749 C420 749 406 729 388 699 C388 699 289 539 289 539 C289 539 300 530 300 530 L300 530 Z M508 64 C498 52 485 45 459 45 C429 45 425 72 432 112 C432 112 474 352 474 352 C490 444 445 505 361 505 C196 505 99 435 120 329 C120 329 235 329 235 329 C218 415 256 473 329 473 C356 473 367 435 357 378 C357 378 337 262 337 262 C337 262 268 252 268 252 C157 235 74 176 62 105 C50 39 89 -5 160 -5 C212 -5 264 11 305 37 C311 8 330 -10 371 -10 C448 -10 489 13 519 48 C519 48 508 64 508 64 L508 64 Z M331 232 C331 232 308 100 308 100 C307 93 306 86 305 80 C284 75 259 72 232 72 C194 72 174 98 182 138 C188 175 220 206 262 216 C262 216 331 232 331 232 L331 232 Z " />
<glyph glyph-name="acircumflex" unicode="&#xe2;" horiz-adv-x="602" d="M511 141 C511 141 511 141 511 141 C532 261 553 380 574 500 C574 500 542 500 542 500 C542 500 467 396 467 396 C464 461 426 505 365 505 C236 505 130 391 100 219 C76 85 129 -5 231 -5 C295 -5 350 29 386 86 C386 86 384 75 384 75 C379 48 375 22 370 -5 C370 -5 389 -5 389 -5 C389 -5 476 25 476 25 C476 25 516 37 516 37 C517 37 517 38 517 38 C518 43 518 46 518 46 C503 71 500 81 511 141 L511 141 Z M345 640 C345 640 436 531 436 531 C436 531 450 541 450 541 C450 541 394 712 394 712 C391 721 382 744 363 744 C345 744 328 722 321 712 C321 712 205 541 205 541 C205 541 215 531 215 531 C215 531 345 640 345 640 L345 640 Z M394 132 C374 90 343 65 307 65 C238 65 207 144 228 263 C250 390 300 474 354 474 C414 474 445 420 432 347 C419 275 407 203 394 132 C394 132 394 132 394 132 L394 132 Z " />
<glyph glyph-name="atilde" unicode="&#xe3;" horiz-adv-x="602" d="M198 595 C204 629 223 651 247 651 C304 651 347 588 405 588 C459 588 504 643 518 725 C518 725 499 725 499 725 C493 689 470 665 443 665 C386 665 343 727 285 727 C235 727 193 674 179 595 C179 595 198 595 198 595 L198 595 Z M511 141 C511 141 511 141 511 141 C532 261 553 380 574 500 C574 500 542 500 542 500 C542 500 467 396 467 396 C464 461 426 505 365 505 C236 505 130 391 100 219 C76 85 129 -5 231 -5 C295 -5 350 29 386 86 C386 86 384 75 384 75 C379 48 375 22 370 -5 C370 -5 389 -5 389 -5 C389 -5 476 25 476 25 C476 25 516 37 516 37 C517 37 517 38 517 38 C518 43 518 46 518 46 C503 71 500 81 511 141 L511 141 Z M394 132 C374 90 343 65 307 65 C238 65 207 144 228 263 C250 390 300 474 354 474 C414 474 445 420 432 347 C419 275 407 203 394 132 C394 132 394 132 394 132 L394 132 Z " />
<glyph glyph-name="adieresis" unicode="&#xe4;" horiz-adv-x="602" d="M433 570 C475 570 508 598 516 640 C523 683 500 711 458 711 C416 711 382 683 375 640 C368 598 391 570 433 570 L433 570 Z M232 570 C274 570 308 598 315 640 C322 683 299 711 257 711 C215 711 182 683 174 640 C167 598 190 570 232 570 L232 570 Z M511 141 C511 141 511 141 511 141 C532 261 553 380 574 500 C574 500 542 500 542 500 C542 500 467 396 467 396 C464 461 426 505 365 505 C236 505 130 391 100 219 C76 85 129 -5 231 -5 C295 -5 350 29 386 86 C386 86 384 75 384 75 C379 48 375 22 370 -5 C370 -5 389 -5 389 -5 C389 -5 476 25 476 25 C476 25 516 37 516 37 C517 37 517 38 517 38 C518 43 518 46 518 46 C503 71 500 81 511 141 L511 141 Z M394 132 C374 90 343 65 307 65 C238 65 207 144 228 263 C250 390 300 474 354 474 C414 474 445 420 432 347 C419 275 407 203 394 132 C394 132 394 132 394 132 L394 132 Z " />
<glyph glyph-name="aring" unicode="&#xe5;" horiz-adv-x="602" d="M331 561 C296 561 272 592 279 628 C286 667 316 694 355 694 C393 694 414 667 407 628 C400 592 366 561 331 561 L331 561 Z M247 628 C238 578 275 535 326 535 C378 535 430 578 439 628 C448 683 417 720 359 720 C301 720 256 683 247 628 L247 628 Z M511 141 C511 141 511 141 511 141 C532 261 553 380 574 500 C574 500 542 500 542 500 C542 500 467 396 467 396 C464 461 426 505 365 505 C236 505 130 391 100 219 C76 85 129 -5 231 -5 C295 -5 350 29 386 86 C386 86 384 75 384 75 C379 48 375 22 370 -5 C370 -5 389 -5 389 -5 C389 -5 476 25 476 25 C476 25 516 37 516 37 C517 37 517 38 517 38 C518 43 518 46 518 46 C503 71 500 81 511 141 L511 141 Z M394 132 C374 90 343 65 307 65 C238 65 207 144 228 263 C250 390 300 474 354 474 C414 474 445 420 432 347 C419 275 407 203 394 132 C394 132 394 132 394 132 L394 132 Z " />
<glyph glyph-name="ccedilla" unicode="&#xe7;" horiz-adv-x="535" d="M507 159 C507 159 494 167 494 167 C454 106 407 65 376 65 C265 65 205 148 227 273 C248 393 311 473 383 473 C422 473 445 446 441 404 C438 371 457 348 489 348 C520 348 544 368 549 399 C554 462 496 505 402 505 C248 505 127 395 98 229 C73 89 141 -5 267 -5 C347 -5 443 61 507 159 L507 159 Z " />
<glyph glyph-name="egrave" unicode="&#xe8;" horiz-adv-x="541" d="M514 159 C514 159 500 167 500 167 C460 106 412 65 379 65 C266 65 205 148 227 273 C229 282 230 291 232 300 C232 300 538 300 538 300 C559 423 497 505 381 505 C240 505 127 395 98 229 C73 89 142 -5 271 -5 C352 -5 449 61 514 159 L514 159 Z M426 699 C418 729 411 749 405 749 C386 749 334 715 331 701 C330 694 342 676 359 654 C359 654 457 530 457 530 C457 530 472 539 472 539 C472 539 426 699 426 699 L426 699 Z M238 321 C264 414 314 473 369 473 C424 473 455 442 447 396 C441 366 418 343 387 337 C387 337 238 321 238 321 L238 321 Z " />
<glyph glyph-name="eacute" unicode="&#xe9;" horiz-adv-x="541" d="M355 530 C355 530 493 654 493 654 C519 677 536 695 537 701 C540 715 500 749 480 749 C475 749 461 729 443 699 C443 699 344 539 344 539 C344 539 355 530 355 530 L355 530 Z M514 159 C514 159 500 167 500 167 C460 106 412 65 379 65 C266 65 205 148 227 273 C229 282 230 291 232 300 C232 300 538 300 538 300 C559 423 497 505 381 505 C240 505 127 395 98 229 C73 89 142 -5 271 -5 C352 -5 449 61 514 159 L514 159 Z M238 321 C264 414 314 473 369 473 C424 473 455 442 447 396 C441 366 418 343 387 337 C387 337 238 321 238 321 L238 321 Z " />
<glyph glyph-name="ecircumflex" unicode="&#xea;" horiz-adv-x="541" d="M514 159 C514 159 500 167 500 167 C460 106 412 65 379 65 C266 65 205 148 227 273 C229 282 230 291 232 300 C232 300 538 300 538 300 C559 423 497 505 381 505 C240 505 127 395 98 229 C73 89 142 -5 271 -5 C352 -5 449 61 514 159 L514 159 Z M405 640 C405 640 496 531 496 531 C496 531 509 541 509 541 C509 541 454 712 454 712 C451 721 441 744 423 744 C404 744 387 722 381 712 C381 712 265 541 265 541 C265 541 275 531 275 531 C275 531 405 640 405 640 L405 640 Z M238 321 C264 414 314 473 369 473 C424 473 455 442 447 396 C441 366 418 343 387 337 C387 337 238 321 238 321 L238 321 Z " />
<glyph glyph-name="edieresis" unicode="&#xeb;" horiz-adv-x="541" d="M493 570 C535 570 568 598 575 640 C583 683 559 711 518 711 C475 711 442 683 435 640 C427 598 451 570 493 570 L493 570 Z M292 570 C334 570 367 598 375 640 C382 683 359 711 317 711 C275 711 242 683 234 640 C227 598 250 570 292 570 L292 570 Z M514 159 C514 159 500 167 500 167 C460 106 412 65 379 65 C266 65 205 148 227 273 C229 282 230 291 232 300 C232 300 538 300 538 300 C559 423 497 505 381 505 C240 505 127 395 98 229 C73 89 142 -5 271 -5 C352 -5 449 61 514 159 L514 159 Z M238 321 C264 414 314 473 369 473 C424 473 455 442 447 396 C441 366 418 343 387 337 C387 337 238 321 238 321 L238 321 Z " />
<glyph glyph-name="igrave" unicode="&#xec;" horiz-adv-x="266" d="M191 0 C191 0 215 0 215 0 C215 1 217 12 217 15 C217 15 212 15 212 15 C201 15 194 13 191 1 C191 1 265 420 265 420 C278 491 280 505 280 505 C280 505 273 505 273 505 C273 505 138 466 138 466 C138 466 138 464 137 461 C137 458 136 456 136 456 C136 456 146 434 146 434 C149 428 150 419 144 387 C144 387 144 387 144 387 C144 387 76 0 76 0 C78 13 71 15 59 15 C59 15 55 15 55 15 C55 13 52 6 52 0 C52 0 76 0 76 0 C76 0 191 0 191 0 L191 0 Z M268 699 C259 729 252 749 247 749 C227 749 175 715 173 701 C171 694 183 676 201 654 C201 654 298 530 298 530 C298 530 313 539 313 539 C313 539 268 699 268 699 L268 699 Z " />
<glyph glyph-name="iacute" unicode="&#xed;" horiz-adv-x="266" d="M151 530 C151 530 289 654 289 654 C314 677 332 695 333 701 C335 715 295 749 276 749 C272 749 258 729 239 699 C239 699 140 539 140 539 C140 539 151 530 151 530 L151 530 Z M191 0 C191 0 215 0 215 0 C215 1 217 12 217 15 C217 15 212 15 212 15 C201 15 194 13 191 1 C191 1 265 420 265 420 C278 491 280 505 280 505 C280 505 273 505 273 505 C273 505 138 466 138 466 C138 466 138 464 137 461 C137 458 136 456 136 456 C136 456 146 434 146 434 C149 428 150 419 144 387 C144 387 144 387 144 387 C144 387 76 0 76 0 C78 13 71 15 59 15 C59 15 55 15 55 15 C55 13 52 6 52 0 C52 0 76 0 76 0 C76 0 191 0 191 0 L191 0 Z " />
<glyph glyph-name="icircumflex" unicode="&#xee;" horiz-adv-x="266" d="M191 0 C191 0 215 0 215 0 C215 1 217 12 217 15 C217 15 212 15 212 15 C201 15 194 13 191 1 C191 1 265 420 265 420 C278 491 280 505 280 505 C280 505 273 505 273 505 C273 505 138 466 138 466 C138 466 138 464 137 461 C137 458 136 456 136 456 C136 456 146 434 146 434 C149 428 150 419 144 387 C144 387 144 387 144 387 C144 387 76 0 76 0 C78 13 71 15 59 15 C59 15 55 15 55 15 C55 13 52 6 52 0 C52 0 76 0 76 0 C76 0 191 0 191 0 L191 0 Z M247 639 C247 639 337 531 337 531 C337 531 351 541 351 541 C351 541 296 712 296 712 C292 721 283 744 265 744 C246 744 229 722 222 712 C222 712 107 541 107 541 C107 541 117 531 117 531 C117 531 247 639 247 639 L247 639 Z " />
<glyph glyph-name="idieresis" unicode="&#xef;" horiz-adv-x="266" d="M334 570 C376 570 409 598 417 640 C424 683 401 711 359 711 C317 711 283 683 276 640 C269 598 292 570 334 570 L334 570 Z M133 570 C175 570 209 598 216 640 C223 683 200 711 158 711 C116 711 83 683 76 640 C68 598 91 570 133 570 L133 570 Z M191 0 C191 0 215 0 215 0 C215 1 217 12 217 15 C217 15 212 15 212 15 C201 15 194 13 191 1 C191 1 265 420 265 420 C278 491 280 505 280 505 C280 505 273 505 273 505 C273 505 138 466 138 466 C138 466 138 464 137 461 C137 458 136 456 136 456 C136 456 146 434 146 434 C149 428 150 419 144 387 C144 387 144 387 144 387 C144 387 76 0 76 0 C78 13 71 15 59 15 C59 15 55 15 55 15 C55 13 52 6 52 0 C52 0 76 0 76 0 C76 0 191 0 191 0 L191 0 Z " />
<glyph glyph-name="ntilde" unicode="&#xf1;" horiz-adv-x="547" d="M242 595 C248 629 267 651 291 651 C348 651 391 588 449 588 C502 588 547 643 562 725 C562 725 543 725 543 725 C537 689 514 665 487 665 C430 665 387 727 329 727 C279 727 237 674 223 595 C223 595 242 595 242 595 L242 595 Z M503 15 C503 15 500 15 500 15 C489 15 485 36 489 69 C489 69 537 338 537 338 C554 438 535 505 455 505 C370 505 302 478 267 434 C267 434 278 500 278 500 C278 500 255 500 255 500 C255 500 133 463 133 463 C133 463 133 462 133 462 C132 457 131 454 131 454 C146 429 149 419 138 359 C138 359 139 359 139 359 C139 359 89 80 89 80 C89 80 89 80 89 80 C82 41 70 15 58 15 C58 15 54 15 54 15 C54 15 53 12 53 8 C52 3 51 0 51 0 C51 0 75 0 75 0 C75 0 133 0 133 0 C133 0 190 0 190 0 C190 0 214 0 214 0 C214 0 215 3 215 8 C216 12 217 15 217 15 C217 15 213 15 213 15 C202 15 198 37 202 71 C202 71 259 390 259 390 C259 390 260 396 260 396 C278 416 311 428 352 428 C414 428 430 387 419 326 C419 326 376 78 376 78 C369 40 356 15 344 15 C344 15 341 15 341 15 C341 15 340 12 339 8 C339 3 338 0 338 0 C338 0 362 0 362 0 C362 0 419 0 419 0 C419 0 477 0 477 0 C477 0 501 0 501 0 C502 3 503 14 503 15 L503 15 Z " />
<glyph glyph-name="ograve" unicode="&#xf2;" horiz-adv-x="620" d="M314 21 C239 21 205 113 229 250 C253 387 320 479 395 479 C470 479 504 387 480 250 C456 113 389 21 314 21 L314 21 Z M101 250 C74 97 157 -5 310 -5 C462 -5 581 97 608 250 C635 403 552 505 399 505 C247 505 128 403 101 250 L101 250 Z M445 699 C437 729 429 749 424 749 C404 749 352 715 350 701 C348 694 360 676 378 654 C378 654 476 530 476 530 C476 530 490 539 490 539 C490 539 445 699 445 699 L445 699 Z " />
<glyph glyph-name="oacute" unicode="&#xf3;" horiz-adv-x="620" d="M374 530 C374 530 512 654 512 654 C538 677 555 695 556 701 C558 715 518 749 499 749 C494 749 480 729 461 699 C461 699 363 539 363 539 C363 539 374 530 374 530 L374 530 Z M314 21 C239 21 205 113 229 250 C253 387 320 479 395 479 C470 479 504 387 480 250 C456 113 389 21 314 21 L314 21 Z M101 250 C74 97 157 -5 310 -5 C462 -5 581 97 608 250 C635 403 552 505 399 505 C247 505 128 403 101 250 L101 250 Z " />
<glyph glyph-name="ocircumflex" unicode="&#xf4;" horiz-adv-x="620" d="M314 21 C239 21 205 113 229 250 C253 387 320 479 395 479 C470 479 504 387 480 250 C456 113 389 21 314 21 L314 21 Z M101 250 C74 97 157 -5 310 -5 C462 -5 581 97 608 250 C635 403 552 505 399 505 C247 505 128 403 101 250 L101 250 Z M424 639 C424 639 514 531 514 531 C514 531 528 541 528 541 C528 541 473 712 473 712 C470 721 460 744 442 744 C423 744 406 722 400 712 C400 712 284 541 284 541 C284 541 294 531 294 531 C294 531 424 639 424 639 L424 639 Z " />
<glyph glyph-name="otilde" unicode="&#xf5;" horiz-adv-x="620" d="M276 595 C282 629 301 651 325 651 C382 651 425 588 483 588 C537 588 582 643 597 725 C597 725 577 725 577 725 C571 689 549 665 522 665 C464 665 421 727 363 727 C313 727 271 674 257 595 C257 595 276 595 276 595 L276 595 Z M314 21 C239 21 205 113 229 250 C253 387 320 479 395 479 C470 479 504 387 480 250 C456 113 389 21 314 21 L314 21 Z M101 250 C74 97 157 -5 310 -5 C462 -5 581 97 608 250 C635 403 552 505 399 505 C247 505 128 403 101 250 L101 250 Z " />
<glyph glyph-name="odieresis" unicode="&#xf6;" horiz-adv-x="620" d="M511 570 C553 570 586 598 594 640 C601 683 578 711 536 711 C494 711 461 683 453 640 C446 598 469 570 511 570 L511 570 Z M311 570 C353 570 386 598 393 640 C401 683 377 711 335 711 C293 711 260 683 253 640 C245 598 269 570 311 570 L311 570 Z M314 21 C239 21 205 113 229 250 C253 387 320 479 395 479 C470 479 504 387 480 250 C456 113 389 21 314 21 L314 21 Z M101 250 C74 97 157 -5 310 -5 C462 -5 581 97 608 250 C635 403 552 505 399 505 C247 505 128 403 101 250 L101 250 Z " />
<glyph glyph-name="oslash" unicode="&#xf8;" horiz-adv-x="620" d="M67 -19 C67 -19 150 52 150 52 C187 16 241 -5 310 -5 C462 -5 581 97 608 250 C620 319 610 377 582 421 C582 421 664 491 664 491 C664 491 642 519 642 519 C642 519 559 448 559 448 C522 484 468 505 399 505 C247 505 128 403 101 250 C89 181 99 123 127 79 C127 79 45 9 45 9 C45 9 67 -19 67 -19 L67 -19 Z M314 21 C267 21 237 57 226 117 C226 117 487 340 487 340 C488 313 486 283 480 250 C456 113 389 21 314 21 L314 21 Z M222 160 C221 187 223 217 229 250 C253 387 320 479 395 479 C442 479 472 443 483 383 C483 383 222 160 222 160 L222 160 Z " />
<glyph glyph-name="ugrave" unicode="&#xf9;" horiz-adv-x="512" d="M472 141 C472 141 472 141 472 141 C472 141 535 500 535 500 C535 500 478 500 478 500 C478 500 420 500 420 500 C420 500 396 500 396 500 C395 497 394 486 394 485 C394 485 397 485 397 485 C408 485 412 463 407 429 C407 429 352 112 352 112 C335 87 310 71 278 71 C209 71 179 109 189 166 C189 166 248 500 248 500 C248 500 191 500 191 500 C191 500 133 500 133 500 C133 500 109 500 109 500 C108 497 107 486 107 485 C107 485 110 485 110 485 C121 485 125 463 120 428 C120 428 72 154 72 154 C55 59 89 -5 175 -5 C250 -5 306 29 346 84 C346 84 345 77 345 77 C345 77 337 30 337 30 C337 30 337 30 337 30 C337 30 332 0 332 0 C332 0 355 0 355 0 C355 0 477 37 477 37 C477 37 477 38 477 38 C478 43 479 46 479 46 C464 71 461 81 472 141 C472 141 472 141 472 141 L472 141 Z M380 699 C372 729 365 749 360 749 C340 749 288 715 285 701 C284 694 296 676 314 654 C314 654 411 530 411 530 C411 530 426 539 426 539 C426 539 380 699 380 699 L380 699 Z " />
<glyph glyph-name="uacute" unicode="&#xfa;" horiz-adv-x="512" d="M309 530 C309 530 448 654 448 654 C473 677 490 695 491 701 C494 715 454 749 434 749 C429 749 415 729 397 699 C397 699 298 539 298 539 C298 539 309 530 309 530 L309 530 Z M472 141 C472 141 472 141 472 141 C472 141 535 500 535 500 C535 500 478 500 478 500 C478 500 420 500 420 500 C420 500 396 500 396 500 C395 497 394 486 394 485 C394 485 397 485 397 485 C408 485 412 463 407 429 C407 429 352 112 352 112 C335 87 310 71 278 71 C209 71 179 109 189 166 C189 166 248 500 248 500 C248 500 191 500 191 500 C191 500 133 500 133 500 C133 500 109 500 109 500 C108 497 107 486 107 485 C107 485 110 485 110 485 C121 485 125 463 120 428 C120 428 72 154 72 154 C55 59 89 -5 175 -5 C250 -5 306 29 346 84 C346 84 345 77 345 77 C345 77 337 30 337 30 C337 30 337 30 337 30 C337 30 332 0 332 0 C332 0 355 0 355 0 C355 0 477 37 477 37 C477 37 477 38 477 38 C478 43 479 46 479 46 C464 71 461 81 472 141 C472 141 472 141 472 141 L472 141 Z " />
<glyph glyph-name="ucircumflex" unicode="&#xfb;" horiz-adv-x="512" d="M472 141 C472 141 472 141 472 141 C472 141 535 500 535 500 C535 500 478 500 478 500 C478 500 420 500 420 500 C420 500 396 500 396 500 C395 497 394 486 394 485 C394 485 397 485 397 485 C408 485 412 463 407 429 C407 429 352 112 352 112 C335 87 310 71 278 71 C209 71 179 109 189 166 C189 166 248 500 248 500 C248 500 191 500 191 500 C191 500 133 500 133 500 C133 500 109 500 109 500 C108 497 107 486 107 485 C107 485 110 485 110 485 C121 485 125 463 120 428 C120 428 72 154 72 154 C55 59 89 -5 175 -5 C250 -5 306 29 346 84 C346 84 345 77 345 77 C345 77 337 30 337 30 C337 30 337 30 337 30 C337 30 332 0 332 0 C332 0 355 0 355 0 C355 0 477 37 477 37 C477 37 477 38 477 38 C478 43 479 46 479 46 C464 71 461 81 472 141 C472 141 472 141 472 141 L472 141 Z M359 639 C359 639 450 531 450 531 C450 531 463 541 463 541 C463 541 408 712 408 712 C405 721 395 744 377 744 C359 744 342 722 335 712 C335 712 219 541 219 541 C219 541 229 531 229 531 C229 531 359 639 359 639 L359 639 Z " />
<glyph glyph-name="udieresis" unicode="&#xfc;" horiz-adv-x="512" d="M447 570 C489 570 522 598 529 640 C537 683 514 711 472 711 C429 711 396 683 389 640 C381 598 405 570 447 570 L447 570 Z M246 570 C288 570 321 598 329 640 C336 683 313 711 271 711 C229 711 196 683 188 640 C181 598 204 570 246 570 L246 570 Z M472 141 C472 141 472 141 472 141 C472 141 535 500 535 500 C535 500 478 500 478 500 C478 500 420 500 420 500 C420 500 396 500 396 500 C395 497 394 486 394 485 C394 485 397 485 397 485 C408 485 412 463 407 429 C407 429 352 112 352 112 C335 87 310 71 278 71 C209 71 179 109 189 166 C189 166 248 500 248 500 C248 500 191 500 191 500 C191 500 133 500 133 500 C133 500 109 500 109 500 C108 497 107 486 107 485 C107 485 110 485 110 485 C121 485 125 463 120 428 C120 428 72 154 72 154 C55 59 89 -5 175 -5 C250 -5 306 29 346 84 C346 84 345 77 345 77 C345 77 337 30 337 30 C337 30 337 30 337 30 C337 30 332 0 332 0 C332 0 355 0 355 0 C355 0 477 37 477 37 C477 37 477 38 477 38 C478 43 479 46 479 46 C464 71 461 81 472 141 C472 141 472 141 472 141 L472 141 Z " />
<glyph glyph-name="ydieresis" unicode="&#xff;" horiz-adv-x="447" d="M445 570 C487 570 520 598 527 640 C535 683 512 711 470 711 C427 711 394 683 387 640 C379 598 403 570 445 570 L445 570 Z M244 570 C286 570 319 598 327 640 C334 683 311 711 269 711 C227 711 194 683 186 640 C179 598 202 570 244 570 L244 570 Z M585 500 C585 500 567 500 567 500 C567 500 548 500 548 500 C548 500 529 500 529 500 C529 500 505 500 505 500 C505 500 504 497 504 493 C503 488 502 485 502 485 C502 485 505 485 505 485 C514 485 505 459 483 420 C483 420 483 420 483 420 C483 420 321 137 321 137 C321 137 245 437 245 437 C239 467 239 485 247 485 C247 485 250 485 250 485 C250 486 252 497 252 500 C252 500 229 500 229 500 C229 500 163 500 163 500 C163 500 97 500 97 500 C97 500 80 500 80 500 C80 500 79 497 79 493 C78 488 77 485 77 485 C77 485 81 485 81 485 C93 485 107 460 118 423 C118 423 233 6 233 6 C233 6 190 -62 190 -62 C150 -128 120 -154 85 -154 C57 -154 30 -129 2 -129 C-33 -129 -59 -148 -64 -178 C-70 -209 -44 -230 2 -230 C89 -230 149 -186 219 -72 C219 -72 256 -10 256 -10 C256 -10 524 429 524 429 C546 463 567 485 578 485 C578 485 582 485 582 485 C582 485 584 500 585 500 C585 500 585 500 585 500 L585 500 Z " />
<glyph glyph-name="Amacron" unicode="&#x100;" horiz-adv-x="684" d="M290 761 C290 761 590 761 590 761 C590 761 601 825 601 825 C601 825 301 825 301 825 C301 825 290 761 290 761 L290 761 Z M668 15 C668 15 664 15 664 15 C652 15 637 36 626 70 C626 70 445 675 445 675 C445 675 404 675 404 675 C404 675 72 80 72 80 C72 80 71 80 71 80 C49 41 27 15 15 15 C15 15 11 15 11 15 C10 12 9 1 9 0 C9 0 27 0 27 0 C27 0 54 0 54 0 C54 0 81 0 81 0 C81 0 116 0 116 0 C116 0 117 3 118 8 C118 12 119 15 119 15 C119 15 114 15 114 15 C101 15 106 44 128 87 C128 87 205 230 205 230 C205 230 400 230 400 230 C400 230 445 74 445 74 C454 38 454 15 444 15 C444 15 441 15 441 15 C441 15 440 12 439 8 C439 3 438 0 438 0 C438 0 466 0 466 0 C466 0 556 0 556 0 C556 0 647 0 647 0 C647 0 666 0 666 0 C667 3 668 14 668 15 C668 15 668 15 668 15 L668 15 Z M388 270 C388 270 227 271 227 271 C227 271 332 465 332 465 C332 465 388 270 388 270 L388 270 Z " />
<glyph glyph-name="amacron" unicode="&#x101;" horiz-adv-x="602" d="M188 601 C188 601 488 601 488 601 C488 601 499 665 499 665 C499 665 199 665 199 665 C199 665 188 601 188 601 L188 601 Z M511 141 C511 141 511 141 511 141 C532 261 553 380 574 500 C574 500 542 500 542 500 C542 500 467 396 467 396 C464 461 426 505 365 505 C236 505 130 391 100 219 C76 85 129 -5 231 -5 C295 -5 350 29 386 86 C386 86 384 75 384 75 C379 48 375 22 370 -5 C370 -5 389 -5 389 -5 C389 -5 476 25 476 25 C476 25 516 37 516 37 C517 37 517 38 517 38 C518 43 518 46 518 46 C503 71 500 81 511 141 L511 141 Z M394 132 C374 90 343 65 307 65 C238 65 207 144 228 263 C250 390 300 474 354 474 C414 474 445 420 432 347 C419 275 407 203 394 132 C394 132 394 132 394 132 L394 132 Z " />
<glyph glyph-name="Abreve" unicode="&#x102;" horiz-adv-x="684" d="M327 870 C347 790 390 736 435 736 C481 736 543 790 591 870 C591 870 574 878 574 878 C550 838 500 812 449 812 C397 812 357 838 347 878 C347 878 327 870 327 870 L327 870 Z M668 15 C668 15 664 15 664 15 C652 15 637 36 626 70 C626 70 445 675 445 675 C445 675 404 675 404 675 C404 675 72 80 72 80 C72 80 71 80 71 80 C49 41 27 15 15 15 C15 15 11 15 11 15 C10 12 9 1 9 0 C9 0 27 0 27 0 C27 0 54 0 54 0 C54 0 81 0 81 0 C81 0 116 0 116 0 C116 0 117 3 118 8 C118 12 119 15 119 15 C119 15 114 15 114 15 C101 15 106 44 128 87 C128 87 205 230 205 230 C205 230 400 230 400 230 C400 230 445 74 445 74 C454 38 454 15 444 15 C444 15 441 15 441 15 C441 15 440 12 439 8 C439 3 438 0 438 0 C438 0 466 0 466 0 C466 0 556 0 556 0 C556 0 647 0 647 0 C647 0 666 0 666 0 C667 3 668 14 668 15 C668 15 668 15 668 15 L668 15 Z M388 270 C388 270 227 271 227 271 C227 271 332 465 332 465 C332 465 388 270 388 270 L388 270 Z " />
<glyph glyph-name="abreve" unicode="&#x103;" horiz-adv-x="602" d="M220 680 C240 600 283 546 328 546 C373 546 436 600 484 680 C484 680 467 688 467 688 C443 648 393 622 342 622 C291 622 250 648 240 688 C240 688 220 680 220 680 L220 680 Z M511 141 C511 141 511 141 511 141 C532 261 553 380 574 500 C574 500 542 500 542 500 C542 500 467 396 467 396 C464 461 426 505 365 505 C236 505 130 391 100 219 C76 85 129 -5 231 -5 C295 -5 350 29 386 86 C386 86 384 75 384 75 C379 48 375 22 370 -5 C370 -5 389 -5 389 -5 C389 -5 476 25 476 25 C476 25 516 37 516 37 C517 37 517 38 517 38 C518 43 518 46 518 46 C503 71 500 81 511 141 L511 141 Z M394 132 C374 90 343 65 307 65 C238 65 207 144 228 263 C250 390 300 474 354 474 C414 474 445 420 432 347 C419 275 407 203 394 132 C394 132 394 132 394 132 L394 132 Z " />
<glyph glyph-name="Aogonek" unicode="&#x104;" horiz-adv-x="684" d="M668 15 C668 15 664 15 664 15 C652 15 637 36 626 70 C626 70 445 675 445 675 C445 675 404 675 404 675 C404 675 72 80 72 80 C72 80 71 80 71 80 C49 41 27 15 15 15 C15 15 11 15 11 15 C10 12 9 1 9 0 C9 0 27 0 27 0 C27 0 54 0 54 0 C54 0 81 0 81 0 C81 0 116 0 116 0 C116 0 117 3 118 8 C118 12 119 15 119 15 C119 15 114 15 114 15 C101 15 106 44 128 87 C128 87 205 230 205 230 C205 230 400 230 400 230 C400 230 445 74 445 74 C453 43 454 21 447 16 C447 16 446 16 446 15 C445 15 445 15 444 15 C444 15 441 15 441 15 C441 15 441 14 440 12 C376 -20 276 -95 266 -155 C257 -203 307 -236 390 -236 C426 -236 463 -224 482 -206 C482 -206 475 -196 475 -196 C470 -201 449 -204 421 -204 C365 -204 332 -179 339 -142 C350 -79 434 -11 466 0 C466 0 556 0 556 0 C556 0 647 0 647 0 C647 0 666 0 666 0 C667 3 668 14 668 15 C668 15 668 15 668 15 L668 15 Z M388 270 C388 270 227 271 227 271 C227 271 332 465 332 465 C332 465 388 270 388 270 L388 270 Z " />
<glyph glyph-name="aogonek" unicode="&#x105;" horiz-adv-x="525" d="M508 64 C498 52 485 45 459 45 C429 45 425 72 432 112 C432 112 474 352 474 352 C490 444 445 505 361 505 C196 505 99 435 120 329 C120 329 235 329 235 329 C218 415 256 473 329 473 C356 473 367 435 357 378 C357 378 337 262 337 262 C337 262 268 252 268 252 C157 235 74 176 62 105 C50 39 89 -5 160 -5 C212 -5 264 11 305 37 C311 8 330 -10 371 -10 C380 -10 389 -10 397 -9 C343 -47 288 -99 280 -144 C271 -199 320 -236 402 -236 C438 -236 475 -224 494 -206 C494 -206 487 -196 487 -196 C482 -201 461 -204 433 -204 C377 -204 345 -175 353 -131 C362 -77 422 -20 460 5 C485 15 504 30 519 48 C519 48 508 64 508 64 L508 64 Z M331 232 C331 232 308 100 308 100 C307 93 306 86 305 80 C284 75 259 72 232 72 C194 72 174 98 182 138 C188 175 220 206 262 216 C262 216 331 232 331 232 L331 232 Z " />
<glyph glyph-name="Cacute" unicode="&#x106;" horiz-adv-x="781" d="M526 690 C526 690 664 814 664 814 C690 837 707 855 708 861 C711 875 671 909 651 909 C646 909 632 889 614 859 C614 859 515 699 515 699 C515 699 526 690 526 690 L526 690 Z M804 511 C804 511 816 574 816 574 C789 629 689 665 567 665 C320 665 132 531 97 330 C61 129 202 -5 449 -5 C571 -5 684 31 730 86 C730 86 741 149 741 149 C741 149 728 149 728 149 C723 144 717 138 712 132 C665 84 585 46 512 39 C512 39 512 39 512 39 C494 37 475 36 456 36 C318 36 247 154 279 330 C309 506 422 624 560 624 C595 624 628 621 657 615 C657 615 657 615 657 615 C706 605 756 570 781 528 C784 522 788 516 791 511 C791 511 804 511 804 511 L804 511 Z " />
<glyph glyph-name="cacute" unicode="&#x107;" horiz-adv-x="535" d="M330 530 C330 530 469 654 469 654 C494 677 511 695 512 701 C515 715 475 749 455 749 C451 749 437 729 418 699 C418 699 319 539 319 539 C319 539 330 530 330 530 L330 530 Z M507 159 C507 159 494 167 494 167 C454 106 407 65 376 65 C265 65 205 148 227 273 C248 393 311 473 383 473 C422 473 445 446 441 404 C438 371 457 348 489 348 C520 348 544 368 549 399 C554 462 496 505 402 505 C248 505 127 395 98 229 C73 89 141 -5 267 -5 C347 -5 443 61 507 159 L507 159 Z " />
<glyph glyph-name="Ccircumflex" unicode="&#x108;" horiz-adv-x="781" d="M804 511 C804 511 816 574 816 574 C789 629 689 665 567 665 C320 665 132 531 97 330 C61 129 202 -5 449 -5 C571 -5 684 31 730 86 C730 86 741 149 741 149 C741 149 728 149 728 149 C723 144 717 138 712 132 C665 84 585 46 512 39 C512 39 512 39 512 39 C494 37 475 36 456 36 C318 36 247 154 279 330 C309 506 422 624 560 624 C595 624 628 621 657 615 C657 615 657 615 657 615 C706 605 756 570 781 528 C784 522 788 516 791 511 C791 511 804 511 804 511 L804 511 Z M591 800 C591 800 682 691 682 691 C682 691 695 701 695 701 C695 701 640 872 640 872 C637 881 627 904 609 904 C590 904 573 882 567 872 C567 872 451 701 451 701 C451 701 461 691 461 691 C461 691 591 800 591 800 L591 800 Z " />
<glyph glyph-name="Cdotaccent" unicode="&#x10a;" horiz-adv-x="781" d="M578 730 C621 730 654 758 661 800 C669 843 645 871 603 871 C561 871 528 843 520 800 C513 758 536 730 578 730 L578 730 Z M804 511 C804 511 816 574 816 574 C789 629 689 665 567 665 C320 665 132 531 97 330 C61 129 202 -5 449 -5 C571 -5 684 31 730 86 C730 86 741 149 741 149 C741 149 728 149 728 149 C723 144 717 138 712 132 C665 84 585 46 512 39 C512 39 512 39 512 39 C494 37 475 36 456 36 C318 36 247 154 279 330 C309 506 422 624 560 624 C595 624 628 621 657 615 C657 615 657 615 657 615 C706 605 756 570 781 528 C784 522 788 516 791 511 C791 511 804 511 804 511 L804 511 Z " />
<glyph glyph-name="cdotaccent" unicode="&#x10b;" horiz-adv-x="535" d="M413 570 C455 570 488 598 496 640 C503 683 480 711 438 711 C396 711 363 683 355 640 C348 598 371 570 413 570 L413 570 Z M507 159 C507 159 494 167 494 167 C454 106 407 65 376 65 C265 65 205 148 227 273 C248 393 311 473 383 473 C422 473 445 446 441 404 C438 371 457 348 489 348 C520 348 544 368 549 399 C554 462 496 505 402 505 C248 505 127 395 98 229 C73 89 141 -5 267 -5 C347 -5 443 61 507 159 L507 159 Z " />
<glyph glyph-name="Ccaron" unicode="&#x10c;" horiz-adv-x="781" d="M804 511 C804 511 816 574 816 574 C789 629 689 665 567 665 C320 665 132 531 97 330 C61 129 202 -5 449 -5 C571 -5 684 31 730 86 C730 86 741 149 741 149 C741 149 728 149 728 149 C723 144 717 138 712 132 C665 84 585 46 512 39 C512 39 512 39 512 39 C494 37 475 36 456 36 C318 36 247 154 279 330 C309 506 422 624 560 624 C595 624 628 621 657 615 C657 615 657 615 657 615 C706 605 756 570 781 528 C784 522 788 516 791 511 C791 511 804 511 804 511 L804 511 Z M594 820 C594 820 724 929 724 929 C724 929 734 919 734 919 C734 919 618 748 618 748 C612 739 594 716 576 716 C557 716 548 738 545 748 C545 748 490 919 490 919 C490 919 503 929 503 929 C503 929 594 820 594 820 L594 820 Z " />
<glyph glyph-name="ccaron" unicode="&#x10d;" horiz-adv-x="535" d="M507 159 C507 159 494 167 494 167 C454 106 407 65 376 65 C265 65 205 148 227 273 C248 393 311 473 383 473 C422 473 445 446 441 404 C438 371 457 348 489 348 C520 348 544 368 549 399 C554 462 496 505 402 505 C248 505 127 395 98 229 C73 89 141 -5 267 -5 C347 -5 443 61 507 159 L507 159 Z M429 660 C429 660 559 769 559 769 C559 769 569 759 569 759 C569 759 453 588 453 588 C447 579 429 556 411 556 C392 556 383 578 380 588 C380 588 324 759 324 759 C324 759 338 769 338 769 C338 769 429 660 429 660 L429 660 Z " />
<glyph glyph-name="Dcaron" unicode="&#x10e;" horiz-adv-x="785" d="M144 645 C144 645 148 645 148 645 C159 645 163 621 158 586 C158 586 68 80 68 80 C68 80 68 80 68 80 C61 41 49 15 37 15 C37 15 33 15 33 15 C32 12 31 1 31 0 C31 0 54 0 54 0 C54 0 137 0 137 0 C137 0 220 0 220 0 C220 0 357 0 357 0 C580 0 752 132 787 330 C822 528 683 660 439 660 C439 660 336 660 336 660 C336 660 331 628 331 628 C331 628 434 628 434 628 C578 628 654 509 622 330 C590 151 487 32 363 32 C363 32 226 32 226 32 C226 32 220 0 220 0 C220 0 336 660 336 660 C336 660 254 660 254 660 C254 660 171 660 171 660 C171 660 147 660 147 660 C147 659 145 645 144 645 C144 645 144 645 144 645 L144 645 Z M454 821 C454 821 583 929 583 929 C583 929 593 919 593 919 C593 919 478 748 478 748 C471 739 453 716 435 716 C416 716 407 738 404 748 C404 748 349 919 349 919 C349 919 362 929 362 929 C362 929 454 821 454 821 L454 821 Z " />
<glyph glyph-name="dcaron" unicode="&#x10f;" horiz-adv-x="624" d="M533 141 C533 141 533 141 533 141 C533 141 616 610 616 610 C616 610 616 610 616 610 C616 610 623 650 623 650 C623 650 630 690 630 690 C630 690 630 690 630 690 C630 690 635 720 635 720 C635 720 612 720 612 720 C612 720 490 683 490 683 C489 683 489 683 489 682 C488 677 488 674 488 674 C503 649 506 639 495 579 C495 579 495 579 495 579 C495 579 475 466 475 466 C455 491 423 505 383 505 C243 505 130 391 100 219 C76 85 136 -5 249 -5 C306 -5 365 27 406 77 C406 77 405 70 405 70 C405 70 398 30 398 30 C398 30 398 30 398 30 C398 30 393 0 393 0 C393 0 416 0 416 0 C416 0 538 37 538 37 C539 37 539 38 539 38 C540 43 540 46 540 46 C525 71 522 81 533 141 C533 141 533 141 533 141 L533 141 Z M761 616 C797 663 825 716 826 725 C830 744 781 751 759 751 C735 751 708 688 693 643 C693 643 639 477 639 477 C639 477 652 472 652 472 C652 472 761 616 761 616 L761 616 Z M412 110 C412 110 412 110 412 110 C412 110 411 105 411 105 C391 80 358 65 325 65 C246 65 207 144 228 263 C250 390 308 474 372 474 C420 474 453 449 465 411 C465 411 412 110 412 110 L412 110 Z " />
<glyph glyph-name="Emacron" unicode="&#x112;" horiz-adv-x="592" d="M629 576 C632 595 637 621 640 639 C641 646 643 654 644 660 C644 660 628 660 628 660 C628 660 564 660 564 660 C564 660 343 660 343 660 C343 660 260 660 260 660 C260 660 178 660 178 660 C178 660 154 660 154 660 C154 660 153 657 153 653 C151 648 151 645 151 645 C151 645 155 645 155 645 C166 645 170 621 165 586 C165 586 75 80 75 80 C75 80 75 80 75 80 C68 41 56 15 44 15 C44 15 40 15 40 15 C40 15 39 12 39 8 C38 3 37 0 37 0 C37 0 61 0 61 0 C61 0 144 0 144 0 C144 0 227 0 227 0 C227 0 445 0 445 0 C445 0 522 0 522 0 C522 0 525 0 525 0 C527 6 530 14 532 21 C539 40 548 65 554 84 C555 85 554 85 553 84 C542 86 540 82 535 78 C505 56 444 42 384 41 C384 41 234 41 234 41 C234 41 285 331 285 331 C285 331 395 331 395 331 C449 331 489 323 498 304 C498 304 511 304 511 304 C512 313 514 324 516 334 C516 334 519 352 519 352 C519 352 523 373 523 373 C523 373 523 373 523 373 C524 381 526 389 527 397 C527 397 527 397 527 397 C527 397 527 397 527 397 C527 396 526 396 525 397 C519 396 515 396 515 397 C515 397 510 393 510 393 C497 381 454 373 403 373 C403 373 293 373 293 373 C293 373 287 343 287 343 C287 343 343 660 343 660 C343 660 336 619 336 619 C336 619 481 619 481 619 C541 619 594 604 612 582 C612 582 618 576 618 576 C618 576 629 576 629 576 L629 576 Z M271 761 C271 761 571 761 571 761 C571 761 582 825 582 825 C582 825 282 825 282 825 C282 825 271 761 271 761 L271 761 Z " />
<glyph glyph-name="emacron" unicode="&#x113;" horiz-adv-x="541" d="M248 601 C248 601 548 601 548 601 C548 601 559 665 559 665 C559 665 259 665 259 665 C259 665 248 601 248 601 L248 601 Z M514 159 C514 159 500 167 500 167 C460 106 412 65 379 65 C266 65 205 148 227 273 C229 282 230 291 232 300 C232 300 538 300 538 300 C559 423 497 505 381 505 C240 505 127 395 98 229 C73 89 142 -5 271 -5 C352 -5 449 61 514 159 L514 159 Z M238 321 C264 414 314 473 369 473 C424 473 455 442 447 396 C441 366 418 343 387 337 C387 337 238 321 238 321 L238 321 Z " />
<glyph glyph-name="Ebreve" unicode="&#x114;" horiz-adv-x="592" d="M629 576 C632 595 637 621 640 639 C641 646 643 654 644 660 C644 660 628 660 628 660 C628 660 564 660 564 660 C564 660 343 660 343 660 C343 660 260 660 260 660 C260 660 178 660 178 660 C178 660 154 660 154 660 C154 660 153 657 153 653 C151 648 151 645 151 645 C151 645 155 645 155 645 C166 645 170 621 165 586 C165 586 75 80 75 80 C75 80 75 80 75 80 C68 41 56 15 44 15 C44 15 40 15 40 15 C40 15 39 12 39 8 C38 3 37 0 37 0 C37 0 61 0 61 0 C61 0 144 0 144 0 C144 0 227 0 227 0 C227 0 445 0 445 0 C445 0 522 0 522 0 C522 0 525 0 525 0 C527 6 530 14 532 21 C539 40 548 65 554 84 C555 85 554 85 553 84 C542 86 540 82 535 78 C505 56 444 42 384 41 C384 41 234 41 234 41 C234 41 285 331 285 331 C285 331 395 331 395 331 C449 331 489 323 498 304 C498 304 511 304 511 304 C512 313 514 324 516 334 C516 334 519 352 519 352 C519 352 523 373 523 373 C523 373 523 373 523 373 C524 381 526 389 527 397 C527 397 527 397 527 397 C527 397 527 397 527 397 C527 396 526 396 525 397 C519 396 515 396 515 397 C515 397 510 393 510 393 C497 381 454 373 403 373 C403 373 293 373 293 373 C293 373 287 343 287 343 C287 343 343 660 343 660 C343 660 336 619 336 619 C336 619 481 619 481 619 C541 619 594 604 612 582 C612 582 618 576 618 576 C618 576 629 576 629 576 L629 576 Z M308 870 C328 790 371 736 416 736 C462 736 524 790 572 870 C572 870 555 878 555 878 C531 838 481 812 430 812 C378 812 338 838 328 878 C328 878 308 870 308 870 L308 870 Z " />
<glyph glyph-name="ebreve" unicode="&#x115;" horiz-adv-x="541" d="M285 710 C305 630 348 576 393 576 C438 576 501 630 549 710 C549 710 532 718 532 718 C508 678 458 652 407 652 C355 652 315 678 305 718 C305 718 285 710 285 710 L285 710 Z M514 159 C514 159 500 167 500 167 C460 106 412 65 379 65 C266 65 205 148 227 273 C229 282 230 291 232 300 C232 300 538 300 538 300 C559 423 497 505 381 505 C240 505 127 395 98 229 C73 89 142 -5 271 -5 C352 -5 449 61 514 159 L514 159 Z M238 321 C264 414 314 473 369 473 C424 473 455 442 447 396 C441 366 418 343 387 337 C387 337 238 321 238 321 L238 321 Z " />
<glyph glyph-name="Edotaccent" unicode="&#x116;" horiz-adv-x="592" d="M629 576 C632 595 637 621 640 639 C641 646 643 654 644 660 C644 660 628 660 628 660 C628 660 564 660 564 660 C564 660 343 660 343 660 C343 660 260 660 260 660 C260 660 178 660 178 660 C178 660 154 660 154 660 C154 660 153 657 153 653 C151 648 151 645 151 645 C151 645 155 645 155 645 C166 645 170 621 165 586 C165 586 75 80 75 80 C75 80 75 80 75 80 C68 41 56 15 44 15 C44 15 40 15 40 15 C40 15 39 12 39 8 C38 3 37 0 37 0 C37 0 61 0 61 0 C61 0 144 0 144 0 C144 0 227 0 227 0 C227 0 445 0 445 0 C445 0 522 0 522 0 C522 0 525 0 525 0 C527 6 530 14 532 21 C539 40 548 65 554 84 C555 85 554 85 553 84 C542 86 540 82 535 78 C505 56 444 42 384 41 C384 41 234 41 234 41 C234 41 285 331 285 331 C285 331 395 331 395 331 C449 331 489 323 498 304 C498 304 511 304 511 304 C512 313 514 324 516 334 C516 334 519 352 519 352 C519 352 523 373 523 373 C523 373 523 373 523 373 C524 381 526 389 527 397 C527 397 527 397 527 397 C527 397 527 397 527 397 C527 396 526 396 525 397 C519 396 515 396 515 397 C515 397 510 393 510 393 C497 381 454 373 403 373 C403 373 293 373 293 373 C293 373 287 343 287 343 C287 343 343 660 343 660 C343 660 336 619 336 619 C336 619 481 619 481 619 C541 619 594 604 612 582 C612 582 618 576 618 576 C618 576 629 576 629 576 L629 576 Z M415 730 C458 730 491 758 498 800 C506 843 482 871 440 871 C398 871 365 843 357 800 C350 758 373 730 415 730 L415 730 Z " />
<glyph glyph-name="edotaccent" unicode="&#x117;" horiz-adv-x="541" d="M392 570 C434 570 468 598 475 640 C482 683 459 711 417 711 C375 711 342 683 335 640 C327 598 350 570 392 570 L392 570 Z M514 159 C514 159 500 167 500 167 C460 106 412 65 379 65 C266 65 205 148 227 273 C229 282 230 291 232 300 C232 300 538 300 538 300 C559 423 497 505 381 505 C240 505 127 395 98 229 C73 89 142 -5 271 -5 C352 -5 449 61 514 159 L514 159 Z M238 321 C264 414 314 473 369 473 C424 473 455 442 447 396 C441 366 418 343 387 337 C387 337 238 321 238 321 L238 321 Z " />
<glyph glyph-name="Eogonek" unicode="&#x118;" horiz-adv-x="592" d="M629 576 C632 595 637 621 640 639 C641 646 643 654 644 660 C644 660 628 660 628 660 C628 660 564 660 564 660 C564 660 343 660 343 660 C343 660 260 660 260 660 C260 660 178 660 178 660 C178 660 154 660 154 660 C154 660 153 657 153 653 C151 648 151 645 151 645 C151 645 155 645 155 645 C166 645 170 621 165 586 C165 586 75 80 75 80 C75 80 75 80 75 80 C68 41 56 15 44 15 C44 15 40 15 40 15 C40 15 39 12 39 8 C38 3 37 0 37 0 C37 0 61 0 61 0 C61 0 144 0 144 0 C144 0 227 0 227 0 C227 0 445 0 445 0 C445 0 473 0 473 0 C411 -37 331 -102 322 -155 C313 -203 363 -236 446 -236 C482 -236 519 -224 537 -206 C537 -206 531 -196 531 -196 C526 -201 504 -204 477 -204 C420 -204 388 -179 394 -142 C405 -79 489 -11 522 0 C522 0 525 0 525 0 C527 6 530 14 532 21 C539 40 548 65 554 84 C555 85 554 85 553 84 C542 86 540 82 535 78 C505 56 444 42 384 41 C384 41 234 41 234 41 C234 41 285 331 285 331 C285 331 395 331 395 331 C449 331 489 323 498 304 C498 304 511 304 511 304 C512 313 514 324 516 334 C516 334 519 352 519 352 C519 352 523 373 523 373 C523 373 523 373 523 373 C524 381 526 389 527 397 C527 397 527 397 527 397 C527 397 527 397 527 397 C527 396 526 396 525 397 C519 396 515 396 515 397 C515 397 510 393 510 393 C497 381 454 373 403 373 C403 373 293 373 293 373 C293 373 287 343 287 343 C287 343 343 660 343 660 C343 660 336 619 336 619 C336 619 481 619 481 619 C541 619 594 604 612 582 C612 582 618 576 618 576 C618 576 629 576 629 576 L629 576 Z " />
<glyph glyph-name="eogonek" unicode="&#x119;" horiz-adv-x="541" d="M385 65 C383 65 381 65 379 65 C266 65 205 148 227 273 C229 282 230 291 232 300 C232 300 538 300 538 300 C559 423 497 505 381 505 C240 505 127 395 98 229 C73 89 142 -5 271 -5 C280 -5 289 -4 299 -3 C265 -36 237 -73 231 -108 C218 -185 264 -236 347 -236 C383 -236 420 -224 439 -206 C439 -206 432 -196 432 -196 C427 -201 406 -204 378 -204 C322 -204 293 -160 304 -95 C312 -50 346 -4 378 28 C428 56 476 102 514 159 C514 159 500 167 500 167 C480 136 458 111 436 93 C423 87 405 78 385 65 L385 65 Z M238 321 C264 414 314 473 369 473 C424 473 455 442 447 396 C441 366 418 343 387 337 C387 337 238 321 238 321 L238 321 Z " />
<glyph glyph-name="Ecaron" unicode="&#x11a;" horiz-adv-x="592" d="M629 576 C632 595 637 621 640 639 C641 646 643 654 644 660 C644 660 628 660 628 660 C628 660 564 660 564 660 C564 660 343 660 343 660 C343 660 260 660 260 660 C260 660 178 660 178 660 C178 660 154 660 154 660 C154 660 153 657 153 653 C151 648 151 645 151 645 C151 645 155 645 155 645 C166 645 170 621 165 586 C165 586 75 80 75 80 C75 80 75 80 75 80 C68 41 56 15 44 15 C44 15 40 15 40 15 C40 15 39 12 39 8 C38 3 37 0 37 0 C37 0 61 0 61 0 C61 0 144 0 144 0 C144 0 227 0 227 0 C227 0 445 0 445 0 C445 0 522 0 522 0 C522 0 525 0 525 0 C527 6 530 14 532 21 C539 40 548 65 554 84 C555 85 554 85 553 84 C542 86 540 82 535 78 C505 56 444 42 384 41 C384 41 234 41 234 41 C234 41 285 331 285 331 C285 331 395 331 395 331 C449 331 489 323 498 304 C498 304 511 304 511 304 C512 313 514 324 516 334 C516 334 519 352 519 352 C519 352 523 373 523 373 C523 373 523 373 523 373 C524 381 526 389 527 397 C527 397 527 397 527 397 C527 397 527 397 527 397 C527 396 526 396 525 397 C519 396 515 396 515 397 C515 397 510 393 510 393 C497 381 454 373 403 373 C403 373 293 373 293 373 C293 373 287 343 287 343 C287 343 343 660 343 660 C343 660 336 619 336 619 C336 619 481 619 481 619 C541 619 594 604 612 582 C612 582 618 576 618 576 C618 576 629 576 629 576 L629 576 Z M431 820 C431 820 561 929 561 929 C561 929 571 919 571 919 C571 919 455 748 455 748 C449 739 431 716 413 716 C394 716 385 738 382 748 C382 748 327 919 327 919 C327 919 340 929 340 929 C340 929 431 820 431 820 L431 820 Z " />
<glyph glyph-name="ecaron" unicode="&#x11b;" horiz-adv-x="541" d="M514 159 C514 159 500 167 500 167 C460 106 412 65 379 65 C266 65 205 148 227 273 C229 282 230 291 232 300 C232 300 538 300 538 300 C559 423 497 505 381 505 C240 505 127 395 98 229 C73 89 142 -5 271 -5 C352 -5 449 61 514 159 L514 159 Z M408 660 C408 660 538 769 538 769 C538 769 548 759 548 759 C548 759 432 588 432 588 C426 579 408 556 390 556 C371 556 362 578 359 588 C359 588 304 759 304 759 C304 759 317 769 317 769 C317 769 408 660 408 660 L408 660 Z M238 321 C264 414 314 473 369 473 C424 473 455 442 447 396 C441 366 418 343 387 337 C387 337 238 321 238 321 L238 321 Z " />
<glyph glyph-name="Gcircumflex" unicode="&#x11c;" horiz-adv-x="818" d="M576 295 C576 295 579 295 579 295 C592 295 595 269 588 230 C588 230 588 230 588 230 C573 144 562 80 556 46 C520 39 482 36 446 36 C314 36 247 154 279 330 C309 506 418 624 550 624 C581 624 610 621 636 616 C636 616 636 616 636 616 C686 607 736 572 761 528 C764 522 768 516 771 511 C771 511 784 511 784 511 C784 511 796 574 796 574 C769 629 673 665 557 665 C316 665 132 531 97 330 C61 129 198 -5 439 -5 C534 -5 641 17 706 51 C706 51 718 122 738 235 C745 271 758 295 769 295 C769 295 772 295 772 295 C772 295 773 298 774 303 C774 307 775 310 775 310 C775 310 751 310 751 310 C751 310 677 310 677 310 C677 310 602 310 602 310 C602 310 578 310 578 310 C579 310 576 295 576 295 C576 295 576 295 576 295 L576 295 Z M581 800 C581 800 672 691 672 691 C672 691 685 701 685 701 C685 701 630 872 630 872 C627 881 617 904 599 904 C580 904 563 882 557 872 C557 872 441 701 441 701 C441 701 451 691 451 691 C451 691 581 800 581 800 L581 800 Z " />
<glyph glyph-name="Gbreve" unicode="&#x11e;" horiz-adv-x="818" d="M461 870 C481 790 524 736 569 736 C615 736 677 790 725 870 C725 870 708 878 708 878 C684 838 634 812 583 812 C531 812 491 838 481 878 C481 878 461 870 461 870 L461 870 Z M576 295 C576 295 579 295 579 295 C592 295 595 269 588 230 C588 230 588 230 588 230 C573 144 562 80 556 46 C520 39 482 36 446 36 C314 36 247 154 279 330 C309 506 418 624 550 624 C581 624 610 621 636 616 C636 616 636 616 636 616 C686 607 736 572 761 528 C764 522 768 516 771 511 C771 511 784 511 784 511 C784 511 796 574 796 574 C769 629 673 665 557 665 C316 665 132 531 97 330 C61 129 198 -5 439 -5 C534 -5 641 17 706 51 C706 51 718 122 738 235 C745 271 758 295 769 295 C769 295 772 295 772 295 C772 295 773 298 774 303 C774 307 775 310 775 310 C775 310 751 310 751 310 C751 310 677 310 677 310 C677 310 602 310 602 310 C602 310 578 310 578 310 C579 310 576 295 576 295 C576 295 576 295 576 295 L576 295 Z " />
<glyph glyph-name="gbreve" unicode="&#x11f;" horiz-adv-x="492" d="M228 710 C248 630 292 576 337 576 C382 576 445 630 493 710 C493 710 475 718 475 718 C452 678 402 652 350 652 C299 652 258 678 249 718 C249 718 228 710 228 710 L228 710 Z M574 500 C574 500 432 472 432 472 C406 493 369 505 324 505 C220 505 139 441 122 346 C110 280 135 229 187 204 C122 193 74 150 63 89 C54 40 80 3 130 -11 C60 -31 9 -77 -1 -134 C-12 -199 43 -243 137 -243 C309 -243 438 -157 461 -28 C474 45 410 94 301 94 C301 94 212 90 212 90 C169 88 144 106 149 134 C154 166 180 187 213 187 C213 187 268 187 268 187 C373 187 454 251 471 346 C477 378 474 407 463 430 C463 430 562 436 562 436 C562 436 574 500 574 500 L574 500 Z M230 346 C244 426 280 479 320 479 C359 479 376 426 362 346 C348 266 312 212 273 212 C233 212 216 266 230 346 L230 346 Z M163 -17 C174 -18 186 -19 199 -18 C199 -18 251 -15 251 -15 C329 -15 375 -44 368 -86 C355 -161 270 -211 155 -211 C99 -211 68 -175 78 -120 C87 -69 121 -29 163 -17 L163 -17 Z " />
<glyph glyph-name="Gdotaccent" unicode="&#x120;" horiz-adv-x="818" d="M568 730 C611 730 644 758 651 800 C659 843 635 871 593 871 C551 871 518 843 510 800 C503 758 526 730 568 730 L568 730 Z M576 295 C576 295 579 295 579 295 C592 295 595 269 588 230 C588 230 588 230 588 230 C573 144 562 80 556 46 C520 39 482 36 446 36 C314 36 247 154 279 330 C309 506 418 624 550 624 C581 624 610 621 636 616 C636 616 636 616 636 616 C686 607 736 572 761 528 C764 522 768 516 771 511 C771 511 784 511 784 511 C784 511 796 574 796 574 C769 629 673 665 557 665 C316 665 132 531 97 330 C61 129 198 -5 439 -5 C534 -5 641 17 706 51 C706 51 718 122 738 235 C745 271 758 295 769 295 C769 295 772 295 772 295 C772 295 773 298 774 303 C774 307 775 310 775 310 C775 310 751 310 751 310 C751 310 677 310 677 310 C677 310 602 310 602 310 C602 310 578 310 578 310 C579 310 576 295 576 295 C576 295 576 295 576 295 L576 295 Z " />
<glyph glyph-name="gdotaccent" unicode="&#x121;" horiz-adv-x="492" d="M336 570 C378 570 411 598 419 640 C426 683 403 711 361 711 C319 711 285 683 278 640 C271 598 294 570 336 570 L336 570 Z M574 500 C574 500 432 472 432 472 C406 493 369 505 324 505 C220 505 139 441 122 346 C110 280 135 229 187 204 C122 193 74 150 63 89 C54 40 80 3 130 -11 C60 -31 9 -77 -1 -134 C-12 -199 43 -243 137 -243 C309 -243 438 -157 461 -28 C474 45 410 94 301 94 C301 94 212 90 212 90 C169 88 144 106 149 134 C154 166 180 187 213 187 C213 187 268 187 268 187 C373 187 454 251 471 346 C477 378 474 407 463 430 C463 430 562 436 562 436 C562 436 574 500 574 500 L574 500 Z M230 346 C244 426 280 479 320 479 C359 479 376 426 362 346 C348 266 312 212 273 212 C233 212 216 266 230 346 L230 346 Z M163 -17 C174 -18 186 -19 199 -18 C199 -18 251 -15 251 -15 C329 -15 375 -44 368 -86 C355 -161 270 -211 155 -211 C99 -211 68 -175 78 -120 C87 -69 121 -29 163 -17 L163 -17 Z " />
<glyph glyph-name="Hcircumflex" unicode="&#x124;" horiz-adv-x="698" d="M552 645 C552 645 556 645 556 645 C568 645 571 619 564 580 C564 580 565 580 565 580 C565 580 527 368 527 368 C527 368 292 368 292 368 C292 368 329 580 329 580 C329 580 329 580 329 580 C336 619 349 645 361 645 C361 645 364 645 364 645 C364 645 367 659 367 660 C367 660 343 660 343 660 C343 660 260 660 260 660 C260 660 178 660 178 660 C178 660 154 660 154 660 C154 660 153 657 153 653 C151 648 151 645 151 645 C151 645 155 645 155 645 C166 645 170 621 165 586 C165 586 75 80 75 80 C75 80 75 80 75 80 C68 41 56 15 44 15 C44 15 40 15 40 15 C40 15 39 12 39 8 C38 3 37 0 37 0 C37 0 61 0 61 0 C61 0 144 0 144 0 C144 0 227 0 227 0 C227 0 251 0 251 0 C251 1 253 12 253 15 C253 15 250 15 250 15 C239 15 234 38 240 73 C240 73 284 326 284 326 C284 326 520 326 520 326 C520 326 476 80 476 80 C476 80 476 80 476 80 C469 41 457 15 445 15 C445 15 441 15 441 15 C441 15 440 12 440 8 C439 3 438 0 438 0 C438 0 462 0 462 0 C462 0 545 0 545 0 C545 0 628 0 628 0 C628 0 652 0 652 0 C651 0 654 14 654 15 C654 15 651 15 651 15 C639 15 635 38 641 73 C641 73 730 580 730 580 C730 580 730 580 730 580 C737 619 749 645 762 645 C762 645 765 645 765 645 C765 645 766 648 767 653 C767 657 768 660 768 660 C768 660 744 660 744 660 C744 660 661 660 661 660 C661 660 579 660 579 660 C579 660 555 660 555 660 C555 658 552 651 552 645 L552 645 Z M486 800 C486 800 577 691 577 691 C577 691 590 701 590 701 C590 701 535 872 535 872 C532 881 522 904 504 904 C485 904 468 882 462 872 C462 872 346 701 346 701 C346 701 356 691 356 691 C356 691 486 800 486 800 L486 800 Z " />
<glyph glyph-name="Itilde" unicode="&#x128;" horiz-adv-x="288" d="M129 755 C134 789 154 811 177 811 C235 811 278 748 336 748 C389 748 435 803 449 885 C449 885 430 885 430 885 C424 849 401 825 374 825 C316 825 274 887 216 887 C166 887 123 834 109 755 C109 755 129 755 129 755 L129 755 Z M358 660 C358 660 334 660 334 660 C334 660 251 660 251 660 C251 660 168 660 168 660 C168 660 144 660 144 660 C143 657 142 646 142 645 C142 645 145 645 145 645 C157 645 161 622 155 587 C155 587 66 80 66 80 C66 80 66 80 66 80 C59 41 46 15 34 15 C34 15 31 15 31 15 C31 15 30 12 29 8 C29 3 28 0 28 0 C28 0 52 0 52 0 C52 0 135 0 135 0 C135 0 217 0 217 0 C217 0 241 0 241 0 C241 0 242 3 243 8 C243 12 244 15 244 15 C244 15 240 15 240 15 C228 15 225 41 232 80 C232 80 231 80 231 80 C231 80 320 580 320 580 C320 580 320 580 320 580 C327 619 340 645 351 645 C351 645 355 645 355 645 C355 645 357 660 358 660 C358 660 358 660 358 660 L358 660 Z " />
<glyph glyph-name="itilde" unicode="&#x129;" horiz-adv-x="266" d="M99 595 C105 629 124 651 148 651 C205 651 248 588 306 588 C360 588 405 643 419 725 C419 725 400 725 400 725 C394 689 371 665 345 665 C287 665 244 727 186 727 C136 727 94 674 80 595 C80 595 99 595 99 595 L99 595 Z M191 0 C191 0 215 0 215 0 C215 1 217 12 217 15 C217 15 212 15 212 15 C201 15 194 13 191 1 C191 1 265 420 265 420 C278 491 280 505 280 505 C280 505 273 505 273 505 C273 505 138 466 138 466 C138 466 138 464 137 461 C137 458 136 456 136 456 C136 456 146 434 146 434 C149 428 150 419 144 387 C144 387 144 387 144 387 C144 387 76 0 76 0 C78 13 71 15 59 15 C59 15 55 15 55 15 C55 13 52 6 52 0 C52 0 76 0 76 0 C76 0 191 0 191 0 L191 0 Z " />
<glyph glyph-name="Imacron" unicode="&#x12a;" horiz-adv-x="288" d="M119 761 C119 761 419 761 419 761 C419 761 430 825 430 825 C430 825 130 825 130 825 C130 825 119 761 119 761 L119 761 Z M358 660 C358 660 334 660 334 660 C334 660 251 660 251 660 C251 660 168 660 168 660 C168 660 144 660 144 660 C143 657 142 646 142 645 C142 645 145 645 145 645 C157 645 161 622 155 587 C155 587 66 80 66 80 C66 80 66 80 66 80 C59 41 46 15 34 15 C34 15 31 15 31 15 C31 15 30 12 29 8 C29 3 28 0 28 0 C28 0 52 0 52 0 C52 0 135 0 135 0 C135 0 217 0 217 0 C217 0 241 0 241 0 C241 0 242 3 243 8 C243 12 244 15 244 15 C244 15 240 15 240 15 C228 15 225 41 232 80 C232 80 231 80 231 80 C231 80 320 580 320 580 C320 580 320 580 320 580 C327 619 340 645 351 645 C351 645 355 645 355 645 C355 645 357 660 358 660 C358 660 358 660 358 660 L358 660 Z " />
<glyph glyph-name="imacron" unicode="&#x12b;" horiz-adv-x="266" d="M89 601 C89 601 389 601 389 601 C389 601 401 665 401 665 C401 665 101 665 101 665 C101 665 89 601 89 601 L89 601 Z M191 0 C191 0 215 0 215 0 C215 1 217 12 217 15 C217 15 212 15 212 15 C201 15 194 13 191 1 C191 1 265 420 265 420 C278 491 280 505 280 505 C280 505 273 505 273 505 C273 505 138 466 138 466 C138 466 138 464 137 461 C137 458 136 456 136 456 C136 456 146 434 146 434 C149 428 150 419 144 387 C144 387 144 387 144 387 C144 387 76 0 76 0 C78 13 71 15 59 15 C59 15 55 15 55 15 C55 13 52 6 52 0 C52 0 76 0 76 0 C76 0 191 0 191 0 L191 0 Z " />
<glyph glyph-name="Ibreve" unicode="&#x12c;" horiz-adv-x="288" d="M156 870 C176 790 219 736 264 736 C310 736 372 790 420 870 C420 870 403 878 403 878 C379 838 329 812 278 812 C226 812 186 838 176 878 C176 878 156 870 156 870 L156 870 Z M358 660 C358 660 334 660 334 660 C334 660 251 660 251 660 C251 660 168 660 168 660 C168 660 144 660 144 660 C143 657 142 646 142 645 C142 645 145 645 145 645 C157 645 161 622 155 587 C155 587 66 80 66 80 C66 80 66 80 66 80 C59 41 46 15 34 15 C34 15 31 15 31 15 C31 15 30 12 29 8 C29 3 28 0 28 0 C28 0 52 0 52 0 C52 0 135 0 135 0 C135 0 217 0 217 0 C217 0 241 0 241 0 C241 0 242 3 243 8 C243 12 244 15 244 15 C244 15 240 15 240 15 C228 15 225 41 232 80 C232 80 231 80 231 80 C231 80 320 580 320 580 C320 580 320 580 320 580 C327 619 340 645 351 645 C351 645 355 645 355 645 C355 645 357 660 358 660 C358 660 358 660 358 660 L358 660 Z " />
<glyph glyph-name="ibreve" unicode="&#x12d;" horiz-adv-x="266" d="M126 710 C146 630 190 576 235 576 C280 576 342 630 391 710 C391 710 373 718 373 718 C350 678 300 652 248 652 C197 652 156 678 146 718 C146 718 126 710 126 710 L126 710 Z M191 0 C191 0 215 0 215 0 C215 1 217 12 217 15 C217 15 212 15 212 15 C201 15 194 13 191 1 C191 1 265 420 265 420 C278 491 280 505 280 505 C280 505 273 505 273 505 C273 505 138 466 138 466 C138 466 138 464 137 461 C137 458 136 456 136 456 C136 456 146 434 146 434 C149 428 150 419 144 387 C144 387 144 387 144 387 C144 387 76 0 76 0 C78 13 71 15 59 15 C59 15 55 15 55 15 C55 13 52 6 52 0 C52 0 76 0 76 0 C76 0 191 0 191 0 L191 0 Z " />
<glyph glyph-name="Idotaccent" unicode="&#x130;" horiz-adv-x="288" d="M263 730 C306 730 339 758 346 800 C354 843 330 871 288 871 C246 871 213 843 205 800 C198 758 221 730 263 730 L263 730 Z M358 660 C358 660 334 660 334 660 C334 660 251 660 251 660 C251 660 168 660 168 660 C168 660 144 660 144 660 C143 657 142 646 142 645 C142 645 145 645 145 645 C157 645 161 622 155 587 C155 587 66 80 66 80 C66 80 66 80 66 80 C59 41 46 15 34 15 C34 15 31 15 31 15 C31 15 30 12 29 8 C29 3 28 0 28 0 C28 0 52 0 52 0 C52 0 135 0 135 0 C135 0 217 0 217 0 C217 0 241 0 241 0 C241 0 242 3 243 8 C243 12 244 15 244 15 C244 15 240 15 240 15 C228 15 225 41 232 80 C232 80 231 80 231 80 C231 80 320 580 320 580 C320 580 320 580 320 580 C327 619 340 645 351 645 C351 645 355 645 355 645 C355 645 357 660 358 660 C358 660 358 660 358 660 L358 660 Z " />
<glyph glyph-name="dotlessi" unicode="&#x131;" horiz-adv-x="266" d="M191 0 C191 0 215 0 215 0 C215 1 217 12 217 15 C217 15 212 15 212 15 C201 15 194 13 191 1 C191 1 265 420 265 420 C278 491 280 505 280 505 C280 505 273 505 273 505 C273 505 138 466 138 466 C138 466 138 464 137 461 C137 458 136 456 136 456 C136 456 146 434 146 434 C149 428 150 419 144 387 C144 387 144 387 144 387 C144 387 76 0 76 0 C78 13 71 15 59 15 C59 15 55 15 55 15 C55 13 52 6 52 0 C52 0 76 0 76 0 C76 0 191 0 191 0 L191 0 Z " />
<glyph glyph-name="Jcircumflex" unicode="&#x134;" horiz-adv-x="435" d="M505 660 C505 660 481 660 481 660 C481 660 398 660 398 660 C398 660 315 660 315 660 C315 660 291 660 291 660 C290 657 289 646 289 645 C289 645 292 645 292 645 C304 645 308 623 302 588 C302 588 234 200 234 200 C211 68 196 16 180 16 C150 16 128 35 126 64 C124 95 105 115 78 115 C40 115 16 95 18 64 C21 20 72 -10 144 -10 C302 -10 380 88 425 339 C425 339 468 584 468 584 C475 621 486 645 498 645 C498 645 502 645 502 645 C502 645 504 660 505 660 C505 660 505 660 505 660 L505 660 Z M423 800 C423 800 514 691 514 691 C514 691 527 701 527 701 C527 701 472 872 472 872 C469 881 459 904 441 904 C422 904 405 882 399 872 C399 872 283 701 283 701 C283 701 293 691 293 691 C293 691 423 800 423 800 L423 800 Z " />
<glyph glyph-name="Lacute" unicode="&#x139;" horiz-adv-x="592" d="M243 690 C243 690 381 814 381 814 C407 837 424 855 425 861 C428 875 388 909 368 909 C364 909 350 889 331 859 C331 859 232 699 232 699 C232 699 243 690 243 690 L243 690 Z M367 660 C367 660 343 660 343 660 C343 660 260 660 260 660 C260 660 178 660 178 660 C178 660 154 660 154 660 C154 660 153 657 153 653 C151 648 151 645 151 645 C151 645 155 645 155 645 C166 645 170 621 165 586 C165 586 75 80 75 80 C75 80 75 80 75 80 C68 41 56 15 44 15 C44 15 40 15 40 15 C40 15 39 12 39 8 C38 3 37 0 37 0 C37 0 61 0 61 0 C61 0 144 0 144 0 C144 0 227 0 227 0 C227 0 445 0 445 0 C445 0 522 0 522 0 C522 0 525 0 525 0 C527 6 530 14 532 21 C539 41 548 67 555 87 C555 87 552 87 552 87 C543 88 537 89 537 89 C537 89 529 82 529 82 C502 58 448 42 394 41 C394 41 234 41 234 41 C234 41 329 580 329 580 C329 580 329 580 329 580 C336 619 349 645 361 645 C361 645 364 645 364 645 C364 645 367 659 367 660 C367 660 367 660 367 660 L367 660 Z " />
<glyph glyph-name="Lcaron" unicode="&#x13d;" horiz-adv-x="592" d="M367 660 C367 660 343 660 343 660 C343 660 260 660 260 660 C260 660 178 660 178 660 C178 660 154 660 154 660 C154 660 153 657 153 653 C151 648 151 645 151 645 C151 645 155 645 155 645 C166 645 170 621 165 586 C165 586 75 80 75 80 C75 80 75 80 75 80 C68 41 56 15 44 15 C44 15 40 15 40 15 C40 15 39 12 39 8 C38 3 37 0 37 0 C37 0 61 0 61 0 C61 0 144 0 144 0 C144 0 227 0 227 0 C227 0 445 0 445 0 C445 0 522 0 522 0 C522 0 525 0 525 0 C527 6 530 14 532 21 C539 41 548 67 555 87 C555 87 552 87 552 87 C543 88 537 89 537 89 C537 89 529 82 529 82 C502 58 448 42 394 41 C394 41 234 41 234 41 C234 41 329 580 329 580 C329 580 329 580 329 580 C336 619 349 645 361 645 C361 645 364 645 364 645 C364 645 367 659 367 660 C367 660 367 660 367 660 L367 660 Z M493 556 C529 603 557 656 558 665 C562 684 513 691 491 691 C467 691 440 628 425 583 C425 583 371 417 371 417 C371 417 384 412 384 412 C384 412 493 556 493 556 L493 556 Z " />
<glyph glyph-name="lcaron" unicode="&#x13e;" horiz-adv-x="266" d="M217 15 C217 15 214 15 214 15 C202 15 198 39 204 75 C204 75 298 610 298 610 C298 610 298 610 298 610 C298 610 318 720 318 720 C318 720 295 720 295 720 C295 720 172 683 172 683 C172 683 172 682 172 682 C171 677 171 674 171 674 C183 654 187 644 183 610 C183 610 90 80 90 80 C90 80 90 80 90 80 C83 41 70 15 58 15 C58 15 55 15 55 15 C55 13 52 6 52 0 C52 0 76 0 76 0 C76 0 133 0 133 0 C133 0 191 0 191 0 C191 0 215 0 215 0 C215 1 217 12 217 15 C217 15 217 15 217 15 L217 15 Z M438 586 C474 633 502 686 504 695 C507 714 458 721 436 721 C413 721 386 658 371 613 C371 613 316 447 316 447 C316 447 330 442 330 442 C330 442 438 586 438 586 L438 586 Z " />
<glyph glyph-name="Lslash" unicode="&#x141;" horiz-adv-x="592" d="M57 261 C57 261 110 275 110 275 C110 275 75 80 75 80 C75 80 75 80 75 80 C68 41 56 15 44 15 C44 15 40 15 40 15 C40 15 39 12 39 8 C38 3 37 0 37 0 C37 0 61 0 61 0 C61 0 144 0 144 0 C144 0 227 0 227 0 C227 0 445 0 445 0 C445 0 522 0 522 0 C522 0 525 0 525 0 C527 6 530 14 532 21 C539 41 548 67 555 87 C555 87 552 87 552 87 C543 88 537 89 537 89 C537 89 529 82 529 82 C502 58 448 42 394 41 C394 41 234 41 234 41 C234 41 283 320 283 320 C283 320 438 361 438 361 C438 361 445 399 445 399 C445 399 290 358 290 358 C290 358 329 580 329 580 C329 580 329 580 329 580 C336 619 349 645 361 645 C361 645 364 645 364 645 C364 645 367 659 367 660 C367 660 343 660 343 660 C343 660 260 660 260 660 C260 660 178 660 178 660 C178 660 154 660 154 660 C154 660 153 657 153 653 C151 648 151 645 151 645 C151 645 155 645 155 645 C166 645 170 621 165 586 C165 586 116 313 116 313 C116 313 64 299 64 299 C64 299 57 261 57 261 L57 261 Z " />
<glyph glyph-name="lslash" unicode="&#x142;" horiz-adv-x="266" d="M27 291 C27 291 133 323 133 323 C133 323 90 80 90 80 C90 80 90 80 90 80 C83 41 70 15 58 15 C58 15 55 15 55 15 C55 13 52 6 52 0 C52 0 76 0 76 0 C76 0 133 0 133 0 C133 0 191 0 191 0 C191 0 215 0 215 0 C215 1 217 12 217 15 C217 15 214 15 214 15 C202 15 198 39 204 75 C204 75 254 359 254 359 C254 359 360 391 360 391 C360 391 366 429 366 429 C366 429 261 397 261 397 C261 397 298 610 298 610 C298 610 298 610 298 610 C298 610 318 720 318 720 C318 720 295 720 295 720 C295 720 172 683 172 683 C172 683 172 682 172 682 C171 677 171 674 171 674 C183 654 187 644 183 610 C183 610 139 361 139 361 C139 361 34 329 34 329 C34 329 27 291 27 291 L27 291 Z " />
<glyph glyph-name="Nacute" unicode="&#x143;" horiz-adv-x="639" d="M412 690 C412 690 550 814 550 814 C576 837 593 855 594 861 C597 875 557 909 537 909 C533 909 518 889 500 859 C500 859 401 699 401 699 C401 699 412 690 412 690 L412 690 Z M716 660 C716 660 692 660 692 660 C692 660 667 660 667 660 C667 660 642 660 642 660 C642 660 618 660 618 660 C617 657 616 646 616 645 C616 645 619 645 619 645 C631 645 635 621 629 585 C629 585 561 200 561 200 C561 200 343 660 343 660 C343 660 231 660 231 660 C231 660 222 606 222 606 C222 606 221 605 221 605 C221 605 231 660 231 660 C231 660 207 660 207 660 C207 660 182 660 182 660 C182 660 158 660 158 660 C158 659 156 645 155 645 C155 645 159 645 159 645 C170 645 174 621 169 586 C169 586 79 80 79 80 C79 80 79 80 79 80 C72 41 60 15 48 15 C48 15 44 15 44 15 C43 12 42 1 42 0 C42 0 65 0 65 0 C65 0 90 0 90 0 C90 0 115 0 115 0 C115 0 139 0 139 0 C139 1 138 3 142 15 C142 15 138 15 138 15 C127 15 122 38 128 73 C128 73 208 531 208 531 C208 531 454 23 454 23 C454 23 475 -20 475 -20 C475 -20 572 -20 572 -20 C572 -20 590 84 590 84 C590 84 678 580 678 580 C678 580 678 580 678 580 C685 619 698 645 709 645 C709 645 713 645 713 645 C713 645 715 660 716 660 C716 660 716 660 716 660 L716 660 Z " />
<glyph glyph-name="nacute" unicode="&#x144;" horiz-adv-x="547" d="M294 530 C294 530 432 654 432 654 C457 677 475 695 476 701 C478 715 438 749 419 749 C414 749 400 729 381 699 C381 699 283 539 283 539 C283 539 294 530 294 530 L294 530 Z M503 15 C503 15 500 15 500 15 C489 15 485 36 489 69 C489 69 537 338 537 338 C554 438 535 505 455 505 C370 505 302 478 267 434 C267 434 278 500 278 500 C278 500 255 500 255 500 C255 500 133 463 133 463 C133 463 133 462 133 462 C132 457 131 454 131 454 C146 429 149 419 138 359 C138 359 139 359 139 359 C139 359 89 80 89 80 C89 80 89 80 89 80 C82 41 70 15 58 15 C58 15 54 15 54 15 C54 15 53 12 53 8 C52 3 51 0 51 0 C51 0 75 0 75 0 C75 0 133 0 133 0 C133 0 190 0 190 0 C190 0 214 0 214 0 C214 0 215 3 215 8 C216 12 217 15 217 15 C217 15 213 15 213 15 C202 15 198 37 202 71 C202 71 259 390 259 390 C259 390 260 396 260 396 C278 416 311 428 352 428 C414 428 430 387 419 326 C419 326 376 78 376 78 C369 40 356 15 344 15 C344 15 341 15 341 15 C341 15 340 12 339 8 C339 3 338 0 338 0 C338 0 362 0 362 0 C362 0 419 0 419 0 C419 0 477 0 477 0 C477 0 501 0 501 0 C502 3 503 14 503 15 L503 15 Z " />
<glyph glyph-name="Ncaron" unicode="&#x147;" horiz-adv-x="639" d="M716 660 C716 660 692 660 692 660 C692 660 667 660 667 660 C667 660 642 660 642 660 C642 660 618 660 618 660 C617 657 616 646 616 645 C616 645 619 645 619 645 C631 645 635 621 629 585 C629 585 561 200 561 200 C561 200 343 660 343 660 C343 660 231 660 231 660 C231 660 222 606 222 606 C222 606 221 605 221 605 C221 605 231 660 231 660 C231 660 207 660 207 660 C207 660 182 660 182 660 C182 660 158 660 158 660 C158 659 156 645 155 645 C155 645 159 645 159 645 C170 645 174 621 169 586 C169 586 79 80 79 80 C79 80 79 80 79 80 C72 41 60 15 48 15 C48 15 44 15 44 15 C43 12 42 1 42 0 C42 0 65 0 65 0 C65 0 90 0 90 0 C90 0 115 0 115 0 C115 0 139 0 139 0 C139 1 138 3 142 15 C142 15 138 15 138 15 C127 15 122 38 128 73 C128 73 208 531 208 531 C208 531 454 23 454 23 C454 23 475 -20 475 -20 C475 -20 572 -20 572 -20 C572 -20 590 84 590 84 C590 84 678 580 678 580 C678 580 678 580 678 580 C685 619 698 645 709 645 C709 645 713 645 713 645 C713 645 715 660 716 660 C716 660 716 660 716 660 L716 660 Z M465 820 C465 820 594 929 594 929 C594 929 604 919 604 919 C604 919 489 748 489 748 C483 739 465 716 447 716 C428 716 419 738 416 748 C416 748 360 919 360 919 C360 919 374 929 374 929 C374 929 465 820 465 820 L465 820 Z " />
<glyph glyph-name="ncaron" unicode="&#x148;" horiz-adv-x="547" d="M503 15 C503 15 500 15 500 15 C489 15 485 36 489 69 C489 69 537 338 537 338 C554 438 535 505 455 505 C370 505 302 478 267 434 C267 434 278 500 278 500 C278 500 255 500 255 500 C255 500 133 463 133 463 C133 463 133 462 133 462 C132 457 131 454 131 454 C146 429 149 419 138 359 C138 359 139 359 139 359 C139 359 89 80 89 80 C89 80 89 80 89 80 C82 41 70 15 58 15 C58 15 54 15 54 15 C54 15 53 12 53 8 C52 3 51 0 51 0 C51 0 75 0 75 0 C75 0 133 0 133 0 C133 0 190 0 190 0 C190 0 214 0 214 0 C214 0 215 3 215 8 C216 12 217 15 217 15 C217 15 213 15 213 15 C202 15 198 37 202 71 C202 71 259 390 259 390 C259 390 260 396 260 396 C278 416 311 428 352 428 C414 428 430 387 419 326 C419 326 376 78 376 78 C369 40 356 15 344 15 C344 15 341 15 341 15 C341 15 340 12 339 8 C339 3 338 0 338 0 C338 0 362 0 362 0 C362 0 419 0 419 0 C419 0 477 0 477 0 C477 0 501 0 501 0 C502 3 503 14 503 15 L503 15 Z M393 661 C393 661 522 769 522 769 C522 769 532 759 532 759 C532 759 416 588 416 588 C410 579 392 556 374 556 C356 556 346 578 343 588 C343 588 288 759 288 759 C288 759 301 769 301 769 C301 769 393 661 393 661 L393 661 Z " />
<glyph glyph-name="Omacron" unicode="&#x14c;" horiz-adv-x="772" d="M361 761 C361 761 661 761 661 761 C661 761 673 825 673 825 C673 825 373 825 373 825 C373 825 361 761 361 761 L361 761 Z M384 36 C280 36 250 171 279 330 C306 489 383 624 487 624 C591 624 620 489 592 330 C564 171 487 36 384 36 L384 36 Z M97 330 C64 149 152 -5 376 -5 C600 -5 742 149 774 330 C806 511 718 665 494 665 C271 665 128 511 97 330 L97 330 Z " />
<glyph glyph-name="omacron" unicode="&#x14d;" horiz-adv-x="620" d="M266 601 C266 601 566 601 566 601 C566 601 578 665 578 665 C578 665 278 665 278 665 C278 665 266 601 266 601 L266 601 Z M314 21 C239 21 205 113 229 250 C253 387 320 479 395 479 C470 479 504 387 480 250 C456 113 389 21 314 21 L314 21 Z M101 250 C74 97 157 -5 310 -5 C462 -5 581 97 608 250 C635 403 552 505 399 505 C247 505 128 403 101 250 L101 250 Z " />
<glyph glyph-name="Obreve" unicode="&#x14e;" horiz-adv-x="772" d="M398 870 C418 790 462 736 507 736 C552 736 614 790 663 870 C663 870 645 878 645 878 C622 838 572 812 520 812 C469 812 429 838 419 878 C419 878 398 870 398 870 L398 870 Z M384 36 C280 36 250 171 279 330 C306 489 383 624 487 624 C591 624 620 489 592 330 C564 171 487 36 384 36 L384 36 Z M97 330 C64 149 152 -5 376 -5 C600 -5 742 149 774 330 C806 511 718 665 494 665 C271 665 128 511 97 330 L97 330 Z " />
<glyph glyph-name="obreve" unicode="&#x14f;" horiz-adv-x="620" d="M303 710 C323 630 367 576 412 576 C457 576 520 630 568 710 C568 710 550 718 550 718 C527 678 477 652 425 652 C374 652 333 678 324 718 C324 718 303 710 303 710 L303 710 Z M314 21 C239 21 205 113 229 250 C253 387 320 479 395 479 C470 479 504 387 480 250 C456 113 389 21 314 21 L314 21 Z M101 250 C74 97 157 -5 310 -5 C462 -5 581 97 608 250 C635 403 552 505 399 505 C247 505 128 403 101 250 L101 250 Z " />
<glyph glyph-name="Racute" unicode="&#x154;" horiz-adv-x="692" d="M144 645 C144 645 148 645 148 645 C159 645 163 621 158 586 C158 586 68 80 68 80 C68 80 68 80 68 80 C61 41 49 15 37 15 C37 15 33 15 33 15 C32 12 31 1 31 0 C31 0 54 0 54 0 C54 0 137 0 137 0 C137 0 220 0 220 0 C220 0 244 0 244 0 C244 1 246 12 246 15 C246 15 243 15 243 15 C232 15 227 38 233 73 C233 73 336 660 336 660 C336 660 331 628 331 628 C331 628 442 628 442 628 C508 628 543 573 529 490 C513 402 449 344 370 344 C370 344 321 344 321 344 C321 344 281 344 281 344 C281 344 275 312 275 312 C275 312 337 312 337 312 C337 312 442 106 442 106 C494 4 502 0 642 0 C642 0 686 0 686 0 C686 0 690 25 690 25 C690 25 685 25 685 25 C643 25 640 27 612 81 C612 81 486 323 486 323 C606 348 688 408 703 489 C720 592 618 660 448 660 C448 660 336 660 336 660 C336 660 254 660 254 660 C254 660 171 660 171 660 C171 660 147 660 147 660 C147 659 145 645 144 645 C144 645 144 645 144 645 L144 645 Z M381 690 C381 690 519 814 519 814 C545 837 562 855 563 861 C566 875 526 909 506 909 C502 909 488 889 469 859 C469 859 370 699 370 699 C370 699 381 690 381 690 L381 690 Z " />
<glyph glyph-name="Rcaron" unicode="&#x158;" horiz-adv-x="658" d="M144 645 C144 645 148 645 148 645 C159 645 163 621 158 586 C158 586 68 80 68 80 C68 80 68 80 68 80 C61 41 49 15 37 15 C37 15 33 15 33 15 C32 12 31 1 31 0 C31 0 54 0 54 0 C54 0 137 0 137 0 C137 0 220 0 220 0 C220 0 244 0 244 0 C244 1 246 12 246 15 C246 15 243 15 243 15 C232 15 227 38 233 73 C233 73 336 660 336 660 C336 660 331 628 331 628 C331 628 442 628 442 628 C508 628 543 573 529 490 C513 402 449 344 370 344 C370 344 281 344 281 344 C281 344 275 312 275 312 C275 312 364 312 364 312 C384 206 495 63 643 -46 C643 -46 658 -27 658 -27 C603 13 544 156 512 329 C512 329 509 329 509 329 C616 356 689 413 703 489 C720 592 618 660 448 660 C448 660 336 660 336 660 C336 660 254 660 254 660 C254 660 171 660 171 660 C171 660 147 660 147 660 C147 659 145 645 144 645 C144 645 144 645 144 645 L144 645 Z M480 820 C480 820 609 929 609 929 C609 929 619 919 619 919 C619 919 504 748 504 748 C497 739 480 716 462 716 C443 716 434 738 431 748 C431 748 375 919 375 919 C375 919 389 929 389 929 C389 929 480 820 480 820 L480 820 Z " />
<glyph glyph-name="rcaron" unicode="&#x159;" horiz-adv-x="400" d="M138 359 C138 359 139 359 139 359 C139 359 89 80 89 80 C89 80 89 80 89 80 C82 41 70 15 58 15 C58 15 54 15 54 15 C54 15 53 12 53 8 C52 3 51 0 51 0 C51 0 75 0 75 0 C75 0 133 0 133 0 C133 0 190 0 190 0 C190 0 214 0 214 0 C214 0 215 3 215 8 C216 12 217 15 217 15 C217 15 213 15 213 15 C202 15 198 37 202 71 C202 71 259 390 259 390 C259 390 259 401 259 401 C269 413 281 420 294 420 C332 420 357 376 395 376 C427 376 453 398 460 431 C467 476 452 505 401 505 C339 505 287 472 260 419 C260 419 262 500 262 500 C262 500 239 500 239 500 C239 500 133 463 133 463 C133 463 133 462 133 462 C132 457 131 454 131 454 C146 429 149 419 138 359 C138 359 138 359 138 359 L138 359 Z M310 660 C310 660 439 769 439 769 C439 769 449 759 449 759 C449 759 334 588 334 588 C327 579 310 556 292 556 C273 556 264 578 261 588 C261 588 205 759 205 759 C205 759 219 769 219 769 C219 769 310 660 310 660 L310 660 Z " />
<glyph glyph-name="Sacute" unicode="&#x15a;" horiz-adv-x="528" d="M333 690 C333 690 472 814 472 814 C497 837 514 855 515 861 C518 875 478 909 458 909 C454 909 439 889 421 859 C421 859 322 699 322 699 C322 699 333 690 333 690 L333 690 Z M66 146 C66 146 53 74 53 74 C76 27 154 -5 247 -5 C384 -5 490 77 511 200 C526 284 477 362 388 394 C295 428 238 477 245 515 C256 580 305 624 367 624 C386 624 405 620 422 611 C437 604 459 583 480 556 C480 555 481 555 481 554 C481 554 481 554 481 554 C487 547 493 538 499 530 C502 525 506 519 510 514 C510 514 523 514 523 514 C523 514 535 586 535 586 C512 633 451 665 381 665 C246 665 141 579 118 449 C104 370 152 297 237 266 C332 230 390 177 382 132 C372 74 321 36 254 36 C241 36 229 37 217 39 C217 39 217 39 217 39 C174 46 122 82 89 131 C86 135 81 141 79 146 C79 146 66 146 66 146 L66 146 Z " />
<glyph glyph-name="sacute" unicode="&#x15b;" horiz-adv-x="431" d="M252 530 C252 530 391 654 391 654 C416 677 433 695 434 701 C437 715 397 749 377 749 C373 749 359 729 340 699 C340 699 241 539 241 539 C241 539 252 530 252 530 L252 530 Z M68 108 C68 108 59 59 59 59 C78 21 130 -5 189 -5 C299 -5 384 58 401 153 C410 207 379 261 323 291 C252 328 208 372 213 402 C221 448 264 479 319 479 C329 479 339 475 349 469 C358 461 375 442 394 416 C394 416 395 415 395 414 C395 414 395 414 395 414 C399 409 403 404 407 398 C409 396 411 392 413 390 C413 390 425 390 425 390 C425 390 433 436 433 436 C413 477 369 505 324 505 C215 505 132 448 117 362 C108 310 152 249 227 209 C275 184 304 145 298 111 C288 57 249 21 200 21 C196 21 192 21 188 22 C188 22 188 22 188 22 C156 25 116 54 87 96 C87 96 79 108 79 108 C79 108 68 108 68 108 L68 108 Z " />
<glyph glyph-name="Scircumflex" unicode="&#x15c;" horiz-adv-x="528" d="M66 146 C66 146 53 74 53 74 C76 27 154 -5 247 -5 C384 -5 490 77 511 200 C526 284 477 362 388 394 C295 428 238 477 245 515 C256 580 305 624 367 624 C386 624 405 620 422 611 C437 604 459 583 480 556 C480 555 481 555 481 554 C481 554 481 554 481 554 C487 547 493 538 499 530 C502 525 506 519 510 514 C510 514 523 514 523 514 C523 514 535 586 535 586 C512 633 451 665 381 665 C246 665 141 579 118 449 C104 370 152 297 237 266 C332 230 390 177 382 132 C372 74 321 36 254 36 C241 36 229 37 217 39 C217 39 217 39 217 39 C174 46 122 82 89 131 C86 135 81 141 79 146 C79 146 66 146 66 146 L66 146 Z M399 799 C399 799 489 691 489 691 C489 691 503 701 503 701 C503 701 447 872 447 872 C444 881 434 904 416 904 C398 904 381 882 374 872 C374 872 259 701 259 701 C259 701 269 691 269 691 C269 691 399 799 399 799 L399 799 Z " />
<glyph glyph-name="Scedilla" unicode="&#x15e;" horiz-adv-x="528" d="M66 146 C66 146 53 74 53 74 C76 27 154 -5 247 -5 C384 -5 490 77 511 200 C526 284 477 362 388 394 C295 428 238 477 245 515 C256 580 305 624 367 624 C386 624 405 620 422 611 C437 604 459 583 480 556 C480 555 481 555 481 554 C481 554 481 554 481 554 C487 547 493 538 499 530 C502 525 506 519 510 514 C510 514 523 514 523 514 C523 514 535 586 535 586 C512 633 451 665 381 665 C246 665 141 579 118 449 C104 370 152 297 237 266 C332 230 390 177 382 132 C372 74 321 36 254 36 C241 36 229 37 217 39 C217 39 217 39 217 39 C174 46 122 82 89 131 C86 135 81 141 79 146 C79 146 66 146 66 146 L66 146 Z " />
<glyph glyph-name="scedilla" unicode="&#x15f;" horiz-adv-x="431" d="M68 108 C68 108 59 59 59 59 C78 21 130 -5 189 -5 C299 -5 384 58 401 153 C410 207 379 261 323 291 C252 328 208 372 213 402 C221 448 264 479 319 479 C329 479 339 475 349 469 C358 461 375 442 394 416 C394 416 395 415 395 414 C395 414 395 414 395 414 C399 409 403 404 407 398 C409 396 411 392 413 390 C413 390 425 390 425 390 C425 390 433 436 433 436 C413 477 369 505 324 505 C215 505 132 448 117 362 C108 310 152 249 227 209 C275 184 304 145 298 111 C288 57 249 21 200 21 C196 21 192 21 188 22 C188 22 188 22 188 22 C156 25 116 54 87 96 C87 96 79 108 79 108 C79 108 68 108 68 108 L68 108 Z " />
<glyph glyph-name="Scaron" unicode="&#x160;" horiz-adv-x="528" d="M66 146 C66 146 53 74 53 74 C76 27 154 -5 247 -5 C384 -5 490 77 511 200 C526 284 477 362 388 394 C295 428 238 477 245 515 C256 580 305 624 367 624 C386 624 405 620 422 611 C437 604 459 583 480 556 C480 555 481 555 481 554 C481 554 481 554 481 554 C487 547 493 538 499 530 C502 525 506 519 510 514 C510 514 523 514 523 514 C523 514 535 586 535 586 C512 633 451 665 381 665 C246 665 141 579 118 449 C104 370 152 297 237 266 C332 230 390 177 382 132 C372 74 321 36 254 36 C241 36 229 37 217 39 C217 39 217 39 217 39 C174 46 122 82 89 131 C86 135 81 141 79 146 C79 146 66 146 66 146 L66 146 Z M402 820 C402 820 531 929 531 929 C531 929 541 919 541 919 C541 919 426 748 426 748 C419 739 401 716 383 716 C365 716 356 738 352 748 C352 748 297 919 297 919 C297 919 311 929 311 929 C311 929 402 820 402 820 L402 820 Z " />
<glyph glyph-name="scaron" unicode="&#x161;" horiz-adv-x="431" d="M68 108 C68 108 59 59 59 59 C78 21 130 -5 189 -5 C299 -5 384 58 401 153 C410 207 379 261 323 291 C252 328 208 372 213 402 C221 448 264 479 319 479 C329 479 339 475 349 469 C358 461 375 442 394 416 C394 416 395 415 395 414 C395 414 395 414 395 414 C399 409 403 404 407 398 C409 396 411 392 413 390 C413 390 425 390 425 390 C425 390 433 436 433 436 C413 477 369 505 324 505 C215 505 132 448 117 362 C108 310 152 249 227 209 C275 184 304 145 298 111 C288 57 249 21 200 21 C196 21 192 21 188 22 C188 22 188 22 188 22 C156 25 116 54 87 96 C87 96 79 108 79 108 C79 108 68 108 68 108 L68 108 Z M351 660 C351 660 481 769 481 769 C481 769 491 759 491 759 C491 759 375 588 375 588 C369 579 351 556 333 556 C314 556 305 578 302 588 C302 588 246 759 246 759 C246 759 260 769 260 769 C260 769 351 660 351 660 L351 660 Z " />
<glyph glyph-name="Tcaron" unicode="&#x164;" horiz-adv-x="633" d="M426 15 C426 15 423 15 423 15 C411 15 407 37 413 72 C413 72 509 619 509 619 C509 619 590 619 590 619 C645 619 689 600 714 571 C714 571 726 571 726 571 C728 591 730 619 732 639 C733 646 734 654 734 660 C734 660 703 660 703 660 C703 660 654 660 654 660 C654 660 212 660 212 660 C212 660 163 660 163 660 C163 660 132 660 132 660 C131 654 129 646 127 639 C122 619 114 591 109 571 C109 571 121 571 121 571 C121 571 130 578 130 578 C161 603 214 619 262 619 C262 619 343 619 343 619 C343 619 248 80 248 80 C248 80 248 80 248 80 C241 41 229 15 217 15 C217 15 213 15 213 15 C213 15 212 12 212 8 C211 3 210 0 210 0 C210 0 234 0 234 0 C234 0 317 0 317 0 C317 0 400 0 400 0 C400 0 424 0 424 0 C423 0 426 14 426 15 L426 15 Z M462 821 C462 821 591 929 591 929 C591 929 601 919 601 919 C601 919 486 748 486 748 C479 739 461 716 443 716 C424 716 415 738 412 748 C412 748 357 919 357 919 C357 919 370 929 370 929 C370 929 462 821 462 821 L462 821 Z " />
<glyph glyph-name="tcaron" unicode="&#x165;" horiz-adv-x="384" d="M433 500 C433 500 298 500 298 500 C306 547 315 593 323 640 C323 640 304 640 304 640 C303 639 303 638 302 638 C237 544 162 476 114 468 C114 468 112 455 112 455 C112 455 175 455 175 455 C175 455 117 125 117 125 C99 24 118 -5 203 -5 C262 -5 320 51 382 135 C382 135 372 141 372 141 C330 84 295 46 269 46 C229 46 220 59 228 105 C249 222 269 338 290 455 C290 455 425 455 425 455 C425 455 433 500 433 500 L433 500 Z M593 586 C629 633 657 686 658 695 C662 714 612 721 591 721 C567 721 540 658 525 613 C525 613 470 447 470 447 C470 447 484 442 484 442 C484 442 593 586 593 586 L593 586 Z " />
<glyph glyph-name="Utilde" unicode="&#x168;" horiz-adv-x="635" d="M307 755 C313 789 332 811 356 811 C413 811 456 748 514 748 C567 748 613 803 627 885 C627 885 608 885 608 885 C602 849 579 825 552 825 C495 825 452 887 394 887 C344 887 302 834 288 755 C288 755 307 755 307 755 L307 755 Z M725 660 C725 660 698 660 698 660 C698 660 679 660 679 660 C679 660 660 660 660 660 C660 660 631 660 631 660 C631 659 629 645 628 645 C628 645 633 645 633 645 C646 645 651 618 645 578 C645 578 578 202 578 202 C563 113 496 53 352 53 C257 53 229 107 243 187 C243 187 312 580 312 580 C312 580 312 580 312 580 C319 619 332 645 344 645 C344 645 347 645 347 645 C348 645 350 659 350 660 C350 660 326 660 326 660 C326 660 244 660 244 660 C244 660 161 660 161 660 C161 660 137 660 137 660 C137 659 135 645 134 645 C134 645 138 645 138 645 C149 645 153 621 148 585 C148 585 83 219 83 219 C59 85 120 -5 317 -5 C507 -5 594 73 615 189 C615 189 684 579 684 579 C692 619 706 645 718 645 C718 645 722 645 722 645 C723 645 725 659 725 660 C725 660 725 660 725 660 L725 660 Z " />
<glyph glyph-name="utilde" unicode="&#x169;" horiz-adv-x="512" d="M212 595 C218 629 237 651 261 651 C318 651 361 588 419 588 C472 588 517 643 532 725 C532 725 513 725 513 725 C507 689 484 665 457 665 C400 665 357 727 299 727 C249 727 207 674 193 595 C193 595 212 595 212 595 L212 595 Z M472 141 C472 141 472 141 472 141 C472 141 535 500 535 500 C535 500 478 500 478 500 C478 500 420 500 420 500 C420 500 396 500 396 500 C395 497 394 486 394 485 C394 485 397 485 397 485 C408 485 412 463 407 429 C407 429 352 112 352 112 C335 87 310 71 278 71 C209 71 179 109 189 166 C189 166 248 500 248 500 C248 500 191 500 191 500 C191 500 133 500 133 500 C133 500 109 500 109 500 C108 497 107 486 107 485 C107 485 110 485 110 485 C121 485 125 463 120 428 C120 428 72 154 72 154 C55 59 89 -5 175 -5 C250 -5 306 29 346 84 C346 84 345 77 345 77 C345 77 337 30 337 30 C337 30 337 30 337 30 C337 30 332 0 332 0 C332 0 355 0 355 0 C355 0 477 37 477 37 C477 37 477 38 477 38 C478 43 479 46 479 46 C464 71 461 81 472 141 C472 141 472 141 472 141 L472 141 Z " />
<glyph glyph-name="Umacron" unicode="&#x16a;" horiz-adv-x="635" d="M297 761 C297 761 597 761 597 761 C597 761 608 825 608 825 C608 825 308 825 308 825 C308 825 297 761 297 761 L297 761 Z M725 660 C725 660 698 660 698 660 C698 660 679 660 679 660 C679 660 660 660 660 660 C660 660 631 660 631 660 C631 659 629 645 628 645 C628 645 633 645 633 645 C646 645 651 618 645 578 C645 578 578 202 578 202 C563 113 496 53 352 53 C257 53 229 107 243 187 C243 187 312 580 312 580 C312 580 312 580 312 580 C319 619 332 645 344 645 C344 645 347 645 347 645 C348 645 350 659 350 660 C350 660 326 660 326 660 C326 660 244 660 244 660 C244 660 161 660 161 660 C161 660 137 660 137 660 C137 659 135 645 134 645 C134 645 138 645 138 645 C149 645 153 621 148 585 C148 585 83 219 83 219 C59 85 120 -5 317 -5 C507 -5 594 73 615 189 C615 189 684 579 684 579 C692 619 706 645 718 645 C718 645 722 645 722 645 C723 645 725 659 725 660 C725 660 725 660 725 660 L725 660 Z " />
<glyph glyph-name="umacron" unicode="&#x16b;" horiz-adv-x="512" d="M202 601 C202 601 502 601 502 601 C502 601 513 665 513 665 C513 665 213 665 213 665 C213 665 202 601 202 601 L202 601 Z M472 141 C472 141 472 141 472 141 C472 141 535 500 535 500 C535 500 478 500 478 500 C478 500 420 500 420 500 C420 500 396 500 396 500 C395 497 394 486 394 485 C394 485 397 485 397 485 C408 485 412 463 407 429 C407 429 352 112 352 112 C335 87 310 71 278 71 C209 71 179 109 189 166 C189 166 248 500 248 500 C248 500 191 500 191 500 C191 500 133 500 133 500 C133 500 109 500 109 500 C108 497 107 486 107 485 C107 485 110 485 110 485 C121 485 125 463 120 428 C120 428 72 154 72 154 C55 59 89 -5 175 -5 C250 -5 306 29 346 84 C346 84 345 77 345 77 C345 77 337 30 337 30 C337 30 337 30 337 30 C337 30 332 0 332 0 C332 0 355 0 355 0 C355 0 477 37 477 37 C477 37 477 38 477 38 C478 43 479 46 479 46 C464 71 461 81 472 141 C472 141 472 141 472 141 L472 141 Z " />
<glyph glyph-name="Ubreve" unicode="&#x16c;" horiz-adv-x="635" d="M334 870 C354 790 398 736 443 736 C488 736 550 790 599 870 C599 870 581 878 581 878 C557 838 507 812 456 812 C405 812 364 838 354 878 C354 878 334 870 334 870 L334 870 Z M725 660 C725 660 698 660 698 660 C698 660 679 660 679 660 C679 660 660 660 660 660 C660 660 631 660 631 660 C631 659 629 645 628 645 C628 645 633 645 633 645 C646 645 651 618 645 578 C645 578 578 202 578 202 C563 113 496 53 352 53 C257 53 229 107 243 187 C243 187 312 580 312 580 C312 580 312 580 312 580 C319 619 332 645 344 645 C344 645 347 645 347 645 C348 645 350 659 350 660 C350 660 326 660 326 660 C326 660 244 660 244 660 C244 660 161 660 161 660 C161 660 137 660 137 660 C137 659 135 645 134 645 C134 645 138 645 138 645 C149 645 153 621 148 585 C148 585 83 219 83 219 C59 85 120 -5 317 -5 C507 -5 594 73 615 189 C615 189 684 579 684 579 C692 619 706 645 718 645 C718 645 722 645 722 645 C723 645 725 659 725 660 C725 660 725 660 725 660 L725 660 Z " />
<glyph glyph-name="ubreve" unicode="&#x16d;" horiz-adv-x="512" d="M239 710 C259 630 303 576 347 576 C393 576 455 630 503 710 C503 710 486 718 486 718 C463 678 413 652 361 652 C310 652 269 678 259 718 C259 718 239 710 239 710 L239 710 Z M472 141 C472 141 472 141 472 141 C472 141 535 500 535 500 C535 500 478 500 478 500 C478 500 420 500 420 500 C420 500 396 500 396 500 C395 497 394 486 394 485 C394 485 397 485 397 485 C408 485 412 463 407 429 C407 429 352 112 352 112 C335 87 310 71 278 71 C209 71 179 109 189 166 C189 166 248 500 248 500 C248 500 191 500 191 500 C191 500 133 500 133 500 C133 500 109 500 109 500 C108 497 107 486 107 485 C107 485 110 485 110 485 C121 485 125 463 120 428 C120 428 72 154 72 154 C55 59 89 -5 175 -5 C250 -5 306 29 346 84 C346 84 345 77 345 77 C345 77 337 30 337 30 C337 30 337 30 337 30 C337 30 332 0 332 0 C332 0 355 0 355 0 C355 0 477 37 477 37 C477 37 477 38 477 38 C478 43 479 46 479 46 C464 71 461 81 472 141 C472 141 472 141 472 141 L472 141 Z " />
<glyph glyph-name="Uring" unicode="&#x16e;" horiz-adv-x="635" d="M440 721 C406 721 381 752 388 788 C395 827 425 854 464 854 C502 854 523 827 516 788 C510 752 475 721 440 721 L440 721 Z M356 788 C347 738 384 695 435 695 C487 695 539 738 548 788 C558 843 526 880 468 880 C411 880 366 843 356 788 L356 788 Z M725 660 C725 660 698 660 698 660 C698 660 679 660 679 660 C679 660 660 660 660 660 C660 660 631 660 631 660 C631 659 629 645 628 645 C628 645 633 645 633 645 C646 645 651 618 645 578 C645 578 578 202 578 202 C563 113 496 53 352 53 C257 53 229 107 243 187 C243 187 312 580 312 580 C312 580 312 580 312 580 C319 619 332 645 344 645 C344 645 347 645 347 645 C348 645 350 659 350 660 C350 660 326 660 326 660 C326 660 244 660 244 660 C244 660 161 660 161 660 C161 660 137 660 137 660 C137 659 135 645 134 645 C134 645 138 645 138 645 C149 645 153 621 148 585 C148 585 83 219 83 219 C59 85 120 -5 317 -5 C507 -5 594 73 615 189 C615 189 684 579 684 579 C692 619 706 645 718 645 C718 645 722 645 722 645 C723 645 725 659 725 660 C725 660 725 660 725 660 L725 660 Z " />
<glyph glyph-name="uring" unicode="&#x16f;" horiz-adv-x="512" d="M345 561 C310 561 286 592 293 628 C300 667 330 694 368 694 C407 694 428 667 421 628 C414 592 379 561 345 561 L345 561 Z M261 628 C252 578 288 535 340 535 C392 535 444 578 453 628 C462 683 431 720 373 720 C315 720 270 683 261 628 L261 628 Z M472 141 C472 141 472 141 472 141 C472 141 535 500 535 500 C535 500 478 500 478 500 C478 500 420 500 420 500 C420 500 396 500 396 500 C395 497 394 486 394 485 C394 485 397 485 397 485 C408 485 412 463 407 429 C407 429 352 112 352 112 C335 87 310 71 278 71 C209 71 179 109 189 166 C189 166 248 500 248 500 C248 500 191 500 191 500 C191 500 133 500 133 500 C133 500 109 500 109 500 C108 497 107 486 107 485 C107 485 110 485 110 485 C121 485 125 463 120 428 C120 428 72 154 72 154 C55 59 89 -5 175 -5 C250 -5 306 29 346 84 C346 84 345 77 345 77 C345 77 337 30 337 30 C337 30 337 30 337 30 C337 30 332 0 332 0 C332 0 355 0 355 0 C355 0 477 37 477 37 C477 37 477 38 477 38 C478 43 479 46 479 46 C464 71 461 81 472 141 C472 141 472 141 472 141 L472 141 Z " />
<glyph glyph-name="Wcircumflex" unicode="&#x174;" horiz-adv-x="976" d="M1078 660 C1078 660 1059 660 1059 660 C1059 660 1040 660 1040 660 C1040 660 1020 660 1020 660 C1020 660 987 660 987 660 C987 659 985 645 984 645 C984 645 989 645 989 645 C1003 645 1001 619 982 580 C982 580 700 -15 700 -15 C700 -15 732 -15 732 -15 C732 -15 1025 591 1025 591 C1043 624 1061 645 1072 645 C1072 645 1075 645 1075 645 C1075 645 1078 659 1078 660 L1078 660 Z M683 670 C683 670 651 670 651 670 C651 670 292 -15 292 -15 C292 -15 324 -15 324 -15 C324 -15 577 468 577 468 C577 468 683 670 683 670 L683 670 Z M325 589 C322 623 327 645 338 645 C338 645 341 645 341 645 C341 645 342 648 343 653 C343 657 344 660 344 660 C344 660 315 660 315 660 C315 660 224 660 224 660 C224 660 133 660 133 660 C133 660 120 660 120 660 C120 659 118 645 118 645 C118 645 120 645 120 645 C129 645 140 624 149 591 C149 591 325 589 325 589 L325 589 Z M690 800 C690 800 781 691 781 691 C781 691 795 701 795 701 C795 701 739 872 739 872 C736 881 726 904 708 904 C689 904 673 882 666 872 C666 872 550 701 550 701 C550 701 560 691 560 691 C560 691 690 800 690 800 L690 800 Z " />
<glyph glyph-name="Ycircumflex" unicode="&#x176;" horiz-adv-x="654" d="M428 15 C428 15 425 15 425 15 C414 15 410 37 415 71 C431 165 450 273 465 359 C465 359 680 591 680 591 C711 624 737 645 747 645 C747 645 750 645 750 645 C750 645 751 648 751 653 C752 657 753 660 753 660 C753 660 743 660 743 660 C743 660 724 660 724 660 C724 660 705 660 705 660 C705 660 670 660 670 660 C670 659 667 645 667 645 C667 645 671 645 671 645 C683 645 661 611 614 560 C614 560 614 560 614 560 C614 560 432 359 432 359 C432 359 422 359 422 359 C422 359 347 598 347 598 C339 627 340 645 349 645 C349 645 353 645 353 645 C352 645 353 648 354 653 C354 657 355 660 355 660 C355 660 327 660 327 660 C327 660 227 660 227 660 C227 660 128 660 128 660 C128 660 120 660 120 660 C120 660 119 657 119 653 C118 648 117 645 117 645 C117 645 120 645 120 645 C128 645 143 624 159 591 C159 591 289 301 289 301 C276 225 261 140 247 64 C240 34 229 15 219 15 C219 15 215 15 215 15 C214 12 213 1 213 0 C213 0 236 0 236 0 C236 0 319 0 319 0 C319 0 402 0 402 0 C402 0 426 0 426 0 C426 1 428 12 428 15 C428 15 428 15 428 15 L428 15 Z M461 799 C461 799 551 691 551 691 C551 691 565 701 565 701 C565 701 510 872 510 872 C507 881 497 904 479 904 C460 904 443 882 437 872 C437 872 321 701 321 701 C321 701 331 691 331 691 C331 691 461 799 461 799 L461 799 Z " />
<glyph glyph-name="Ydieresis" unicode="&#x178;" horiz-adv-x="654" d="M548 730 C591 730 624 758 631 800 C638 843 615 871 573 871 C531 871 498 843 490 800 C483 758 506 730 548 730 L548 730 Z M348 730 C390 730 423 758 430 800 C438 843 415 871 372 871 C331 871 297 843 290 800 C283 758 306 730 348 730 L348 730 Z M428 15 C428 15 425 15 425 15 C414 15 410 37 415 71 C431 165 450 273 465 359 C465 359 680 591 680 591 C711 624 737 645 747 645 C747 645 750 645 750 645 C750 645 751 648 751 653 C752 657 753 660 753 660 C753 660 743 660 743 660 C743 660 724 660 724 660 C724 660 705 660 705 660 C705 660 670 660 670 660 C670 659 667 645 667 645 C667 645 671 645 671 645 C683 645 661 611 614 560 C614 560 614 560 614 560 C614 560 432 359 432 359 C432 359 422 359 422 359 C422 359 347 598 347 598 C339 627 340 645 349 645 C349 645 353 645 353 645 C352 645 353 648 354 653 C354 657 355 660 355 660 C355 660 327 660 327 660 C327 660 227 660 227 660 C227 660 128 660 128 660 C128 660 120 660 120 660 C120 660 119 657 119 653 C118 648 117 645 117 645 C117 645 120 645 120 645 C128 645 143 624 159 591 C159 591 289 301 289 301 C276 225 261 140 247 64 C240 34 229 15 219 15 C219 15 215 15 215 15 C214 12 213 1 213 0 C213 0 236 0 236 0 C236 0 319 0 319 0 C319 0 402 0 402 0 C402 0 426 0 426 0 C426 1 428 12 428 15 C428 15 428 15 428 15 L428 15 Z " />
<glyph glyph-name="Zacute" unicode="&#x179;" horiz-adv-x="590" d="M444 690 C444 690 583 814 583 814 C608 837 626 855 627 861 C629 875 589 909 569 909 C565 909 551 889 532 859 C532 859 433 699 433 699 C433 699 444 690 444 690 L444 690 Z M505 91 C505 91 497 84 497 84 C470 59 417 43 362 43 C362 43 243 43 243 43 C243 43 653 660 653 660 C653 660 559 660 559 660 C559 660 464 660 464 660 C464 660 274 660 274 660 C274 660 225 660 225 660 C225 660 194 660 194 660 C191 654 188 646 185 639 C177 622 166 598 159 580 C159 580 171 580 171 580 C171 580 181 586 181 586 C214 606 268 619 316 619 C316 619 437 619 437 619 C437 619 29 0 29 0 C29 0 121 0 121 0 C121 0 214 0 214 0 C214 0 412 0 412 0 C412 0 490 0 490 0 C490 0 492 0 492 0 C495 7 498 15 500 22 C507 42 516 68 523 88 C517 89 505 91 505 91 L505 91 Z " />
<glyph glyph-name="zacute" unicode="&#x17a;" horiz-adv-x="497" d="M292 530 C292 530 430 654 430 654 C455 677 473 695 474 701 C476 715 436 749 417 749 C413 749 398 729 379 699 C379 699 281 539 281 539 C281 539 292 530 292 530 L292 530 Z M293 473 C293 473 293 473 293 473 C293 473 377 474 377 474 C377 474 44 0 44 0 C44 0 112 0 112 0 C112 0 180 0 180 0 C180 0 333 0 333 0 C333 0 407 0 407 0 C407 0 413 0 413 0 C414 4 416 9 417 13 C423 30 432 54 438 71 C433 72 419 74 419 74 C419 74 411 66 411 66 C385 42 331 26 277 26 C277 26 198 26 198 26 C198 26 528 500 528 500 C528 500 462 500 462 500 C462 500 396 500 396 500 C396 500 245 500 245 500 C245 500 196 500 196 500 C196 500 165 500 165 500 C163 496 161 490 159 487 C154 474 146 457 141 445 C141 445 153 445 153 445 C188 460 239 473 293 473 C293 473 293 473 293 473 L293 473 Z " />
<glyph glyph-name="Zdotaccent" unicode="&#x17b;" horiz-adv-x="590" d="M451 730 C494 730 527 758 534 800 C542 843 518 871 476 871 C434 871 401 843 393 800 C386 758 409 730 451 730 L451 730 Z M505 91 C505 91 497 84 497 84 C470 59 417 43 362 43 C362 43 243 43 243 43 C243 43 653 660 653 660 C653 660 559 660 559 660 C559 660 464 660 464 660 C464 660 274 660 274 660 C274 660 225 660 225 660 C225 660 194 660 194 660 C191 654 188 646 185 639 C177 622 166 598 159 580 C159 580 171 580 171 580 C171 580 181 586 181 586 C214 606 268 619 316 619 C316 619 437 619 437 619 C437 619 29 0 29 0 C29 0 121 0 121 0 C121 0 214 0 214 0 C214 0 412 0 412 0 C412 0 490 0 490 0 C490 0 492 0 492 0 C495 7 498 15 500 22 C507 42 516 68 523 88 C517 89 505 91 505 91 L505 91 Z " />
<glyph glyph-name="zdotaccent" unicode="&#x17c;" horiz-adv-x="497" d="M375 570 C417 570 450 598 457 640 C465 683 441 711 399 711 C357 711 324 683 317 640 C309 598 333 570 375 570 L375 570 Z M293 473 C293 473 293 473 293 473 C293 473 377 474 377 474 C377 474 44 0 44 0 C44 0 112 0 112 0 C112 0 180 0 180 0 C180 0 333 0 333 0 C333 0 407 0 407 0 C407 0 413 0 413 0 C414 4 416 9 417 13 C423 30 432 54 438 71 C433 72 419 74 419 74 C419 74 411 66 411 66 C385 42 331 26 277 26 C277 26 198 26 198 26 C198 26 528 500 528 500 C528 500 462 500 462 500 C462 500 396 500 396 500 C396 500 245 500 245 500 C245 500 196 500 196 500 C196 500 165 500 165 500 C163 496 161 490 159 487 C154 474 146 457 141 445 C141 445 153 445 153 445 C188 460 239 473 293 473 C293 473 293 473 293 473 L293 473 Z " />
<glyph glyph-name="Zcaron" unicode="&#x17d;" horiz-adv-x="590" d="M505 91 C505 91 497 84 497 84 C470 59 417 43 362 43 C362 43 243 43 243 43 C243 43 653 660 653 660 C653 660 559 660 559 660 C559 660 464 660 464 660 C464 660 274 660 274 660 C274 660 225 660 225 660 C225 660 194 660 194 660 C191 654 188 646 185 639 C177 622 166 598 159 580 C159 580 171 580 171 580 C171 580 181 586 181 586 C214 606 268 619 316 619 C316 619 437 619 437 619 C437 619 29 0 29 0 C29 0 121 0 121 0 C121 0 214 0 214 0 C214 0 412 0 412 0 C412 0 490 0 490 0 C490 0 492 0 492 0 C495 7 498 15 500 22 C507 42 516 68 523 88 C517 89 505 91 505 91 L505 91 Z M467 820 C467 820 597 929 597 929 C597 929 607 919 607 919 C607 919 491 748 491 748 C485 739 467 716 449 716 C430 716 421 738 418 748 C418 748 363 919 363 919 C363 919 376 929 376 929 C376 929 467 820 467 820 L467 820 Z " />
<glyph glyph-name="zcaron" unicode="&#x17e;" horiz-adv-x="497" d="M293 473 C293 473 293 473 293 473 C293 473 377 474 377 474 C377 474 44 0 44 0 C44 0 112 0 112 0 C112 0 180 0 180 0 C180 0 333 0 333 0 C333 0 407 0 407 0 C407 0 413 0 413 0 C414 4 416 9 417 13 C423 30 432 54 438 71 C433 72 419 74 419 74 C419 74 411 66 411 66 C385 42 331 26 277 26 C277 26 198 26 198 26 C198 26 528 500 528 500 C528 500 462 500 462 500 C462 500 396 500 396 500 C396 500 245 500 245 500 C245 500 196 500 196 500 C196 500 165 500 165 500 C163 496 161 490 159 487 C154 474 146 457 141 445 C141 445 153 445 153 445 C188 460 239 473 293 473 C293 473 293 473 293 473 L293 473 Z M391 661 C391 661 520 769 520 769 C520 769 530 759 530 759 C530 759 415 588 415 588 C408 579 391 556 372 556 C354 556 345 578 341 588 C341 588 286 759 286 759 C286 759 299 769 299 769 C299 769 391 661 391 661 L391 661 Z " />
<glyph glyph-name="SmallLetterOwithogon" unicode="&#x1eb;" horiz-adv-x="712" d="M715 -39 C715 -39 705 -31 705 -31 C688 -50 631 -63 562 -63 C469 -63 406 -40 366 -5 C558 2 679 129 705 277 C732 429 650 558 448 558 C246 558 119 429 92 277 C66 132 139 6 323 -4 C394 -85 467 -138 536 -138 C591 -138 663 -98 715 -39 L715 -39 Z M355 32 C261 32 232 145 256 277 C279 409 347 521 441 521 C535 521 564 409 541 277 C518 145 449 32 355 32 L355 32 Z " />
<glyph glyph-name="CapitalLetterAwithdo" unicode="&#x226;" horiz-adv-x="684" d="M434 730 C477 730 510 758 517 800 C525 843 501 871 459 871 C417 871 384 843 376 800 C369 758 392 730 434 730 L434 730 Z M668 15 C668 15 664 15 664 15 C652 15 637 36 626 70 C626 70 445 675 445 675 C445 675 404 675 404 675 C404 675 72 80 72 80 C72 80 71 80 71 80 C49 41 27 15 15 15 C15 15 11 15 11 15 C10 12 9 1 9 0 C9 0 27 0 27 0 C27 0 54 0 54 0 C54 0 81 0 81 0 C81 0 116 0 116 0 C116 0 117 3 118 8 C118 12 119 15 119 15 C119 15 114 15 114 15 C101 15 106 44 128 87 C128 87 205 230 205 230 C205 230 400 230 400 230 C400 230 445 74 445 74 C454 38 454 15 444 15 C444 15 441 15 441 15 C441 15 440 12 439 8 C439 3 438 0 438 0 C438 0 466 0 466 0 C466 0 556 0 556 0 C556 0 647 0 647 0 C647 0 666 0 666 0 C667 3 668 14 668 15 C668 15 668 15 668 15 L668 15 Z M388 270 C388 270 227 271 227 271 C227 271 332 465 332 465 C332 465 388 270 388 270 L388 270 Z " />
<glyph glyph-name="LETTERSMALLCAPITALG" unicode="&#x262;" horiz-adv-x="744" d="M691 406 C691 406 702 467 702 467 C702 467 684 456 684 456 C684 456 684 456 684 456 C684 456 702 467 702 467 C675 522 593 558 496 558 C283 558 122 445 92 277 C62 108 184 -5 396 -5 C472 -5 566 18 632 52 C632 52 632 52 632 52 C632 54 640 103 654 180 C654 180 654 180 654 180 C661 219 674 245 686 245 C686 245 689 245 689 245 C689 245 690 248 691 252 C691 257 692 260 692 260 C692 260 668 260 668 260 C668 260 601 260 601 260 C601 260 534 260 534 260 C534 260 510 260 510 260 C510 260 509 257 509 252 C508 248 507 245 508 245 C508 245 511 245 511 245 C522 245 526 224 522 193 C510 124 500 71 495 42 C464 36 432 32 403 32 C289 32 230 130 256 277 C282 423 375 521 489 521 C506 521 523 520 539 517 C539 517 539 517 539 517 C590 509 642 472 669 424 C671 419 675 411 678 406 C678 406 691 406 691 406 L691 406 Z " />
<glyph glyph-name="LETTERSMALLCAPITALI" unicode="&#x26a;" horiz-adv-x="279" d="M135 0 C135 0 209 0 209 0 C209 0 233 0 233 0 C233 0 234 3 234 8 C235 12 236 15 236 15 C236 15 232 15 232 15 C221 15 217 37 221 70 C221 70 293 473 293 473 C293 473 293 473 293 473 C300 513 312 539 324 538 C324 538 328 538 328 538 C328 539 329 542 329 546 C330 551 331 553 331 553 C301 554 262 554 232 553 C202 552 163 554 134 553 C134 553 133 551 133 546 C132 542 131 539 131 538 C131 538 135 538 135 538 C146 539 150 515 145 478 C145 478 74 80 74 80 C74 80 74 80 74 80 C67 41 55 15 43 15 C43 15 39 15 39 15 C39 15 38 12 38 8 C37 3 36 0 36 0 C36 0 60 0 60 0 C60 0 135 0 135 0 L135 0 Z " />
<glyph glyph-name="LETTERSMALLCAPITALN" unicode="&#x274;" horiz-adv-x="574" d="M537 538 C537 538 540 538 540 538 C552 539 556 515 550 479 C550 479 497 179 497 179 C497 179 309 553 309 553 C309 553 209 553 209 553 C209 553 187 553 187 553 C173 554 154 554 140 553 C140 553 138 539 138 538 C138 538 141 538 141 538 C154 539 157 515 151 477 C151 477 81 80 81 80 C81 80 81 80 81 80 C74 41 61 15 49 15 C49 15 45 15 45 15 C46 15 43 0 43 0 C43 0 67 0 67 0 C67 0 89 0 89 0 C89 0 111 0 111 0 C111 0 135 0 135 0 C135 0 136 3 136 8 C137 12 138 15 138 15 C138 15 134 15 134 15 C123 15 119 37 123 70 C123 70 189 439 189 439 C189 439 401 21 401 21 C401 21 422 -20 422 -20 C422 -20 507 -20 507 -20 C507 -20 524 75 524 75 C524 75 594 473 594 473 C594 473 594 473 594 473 C601 513 614 539 626 538 C626 538 629 538 629 538 C629 539 630 542 631 546 C631 551 632 553 632 553 C618 554 599 554 586 553 C572 554 553 554 539 553 C539 553 537 539 537 538 C537 538 537 538 537 538 L537 538 Z " />
<glyph glyph-name="LETTERSMALLCAPITALR" unicode="&#x280;" horiz-adv-x="613" d="M130 538 C130 538 133 538 133 538 C146 539 149 515 143 477 C143 477 73 80 73 80 C73 80 73 80 73 80 C66 41 53 15 41 15 C41 15 37 15 37 15 C38 15 35 0 35 0 C35 0 59 0 59 0 C59 0 133 0 133 0 C133 0 207 0 207 0 C207 0 231 0 231 0 C231 0 232 3 233 8 C233 12 234 15 234 15 C234 15 230 15 230 15 C219 15 215 41 222 80 C222 80 221 80 221 80 C221 80 300 525 300 525 C300 525 370 525 370 525 C428 525 459 480 447 412 C434 339 381 290 314 290 C314 290 270 290 270 290 C270 290 259 290 259 290 C259 290 254 261 254 261 C254 261 287 261 287 261 C287 261 376 106 376 106 C435 4 442 0 567 0 C567 0 607 0 607 0 C607 0 611 23 611 23 C611 23 606 23 606 23 C567 23 564 25 529 84 C529 84 419 272 419 272 C522 293 592 344 604 412 C619 497 527 553 375 553 C375 553 305 553 305 553 C305 553 231 553 231 553 C201 554 162 554 132 553 C132 553 130 539 130 538 C130 538 130 538 130 538 L130 538 Z " />
<glyph glyph-name="LETTERSMALLCAPITALY" unicode="&#x28f;" horiz-adv-x="578" d="M658 553 C650 554 639 554 631 553 C616 554 595 554 579 553 C579 552 577 539 576 538 C576 538 580 538 580 538 C591 539 572 510 532 466 C532 466 381 304 381 304 C381 304 366 304 366 304 C366 304 313 485 313 485 C305 518 306 539 316 538 C316 538 319 538 319 538 C319 539 321 553 321 553 C286 554 239 554 203 553 C174 554 135 554 106 553 C106 553 104 539 104 538 C104 538 106 538 106 538 C114 539 128 520 144 490 C144 490 254 254 254 254 C244 199 233 137 223 80 C223 80 223 80 223 80 C216 41 204 15 192 15 C192 15 188 15 188 15 C188 15 187 12 187 8 C186 3 185 0 185 0 C185 0 209 0 209 0 C209 0 284 0 284 0 C284 0 358 0 358 0 C358 0 382 0 382 0 C382 0 383 3 383 8 C384 12 385 15 385 15 C385 15 381 15 381 15 C370 15 366 39 371 75 C385 151 400 236 412 304 C412 304 412 304 412 304 C412 304 587 488 587 488 C617 519 642 539 652 538 C652 538 655 538 655 538 C655 540 658 553 658 553 C658 553 658 553 658 553 L658 553 Z " />
<glyph glyph-name="LETTERSMALLCAPITALB" unicode="&#x299;" horiz-adv-x="607" d="M130 538 C130 538 133 538 133 538 C146 539 149 515 143 477 C143 477 73 80 73 80 C73 80 73 80 73 80 C66 41 53 15 41 15 C41 15 37 15 37 15 C38 15 35 0 35 0 C35 0 59 0 59 0 C59 0 133 0 133 0 C133 0 207 0 207 0 C207 0 258 289 258 289 C258 289 258 289 258 289 C258 289 257 281 257 281 C257 281 312 281 312 281 C409 281 465 231 452 155 C438 79 374 29 292 29 C292 29 213 29 213 29 C213 29 207 0 207 0 C207 0 298 0 298 0 C468 0 592 62 608 155 C621 229 551 284 428 299 C524 318 588 362 598 420 C612 500 523 553 375 553 C375 553 305 553 305 553 C305 553 231 553 231 553 C201 554 162 554 132 553 C132 553 130 539 130 538 C130 538 130 538 130 538 L130 538 Z M260 296 C260 296 259 293 259 293 C259 293 300 525 300 525 C300 525 370 525 370 525 C429 525 460 483 449 420 C437 351 384 306 318 306 C318 306 262 306 262 306 C262 306 260 298 260 298 C260 298 260 298 260 298 C260 298 260 296 260 296 L260 296 Z " />
<glyph glyph-name="LETTERSMALLCAPITALH" unicode="&#x29c;" horiz-adv-x="638" d="M689 553 C660 554 620 554 591 553 C561 554 522 554 492 553 C492 553 490 539 490 538 C490 538 493 538 493 538 C506 539 509 515 503 477 C503 477 474 311 474 311 C474 311 269 311 269 311 C269 311 298 473 298 473 C298 473 298 473 298 473 C305 513 318 539 330 538 C330 538 333 538 333 538 C333 539 334 542 335 546 C335 551 336 553 336 553 C306 554 267 554 238 553 C208 554 169 554 139 553 C139 553 137 539 137 538 C137 538 140 538 140 538 C151 539 155 517 150 482 C150 482 76 64 76 64 C69 34 58 15 48 15 C48 15 44 15 44 15 C43 12 42 1 42 0 C42 0 65 0 65 0 C65 0 140 0 140 0 C140 0 214 0 214 0 C214 0 238 0 238 0 C238 0 239 3 240 8 C240 12 241 15 241 15 C241 15 237 15 237 15 C225 15 222 41 229 80 C229 80 228 80 228 80 C228 80 263 274 263 274 C263 274 467 274 467 274 C467 274 433 80 433 80 C433 80 433 80 433 80 C426 41 413 15 401 15 C401 15 398 15 398 15 C398 13 395 6 395 0 C395 0 419 0 419 0 C419 0 493 0 493 0 C493 0 568 0 568 0 C568 0 592 0 592 0 C591 0 594 14 594 15 C594 15 591 15 591 15 C579 15 575 38 581 74 C581 74 651 473 651 473 C651 473 651 473 651 473 C658 513 671 539 683 538 C683 538 686 538 686 538 C686 538 689 553 689 553 C689 553 689 553 689 553 L689 553 Z " />
<glyph glyph-name="LETTERSMALLCAPITALL" unicode="&#x29f;" horiz-adv-x="535" d="M137 538 C137 538 140 538 140 538 C151 539 155 517 150 482 C150 482 76 64 76 64 C69 34 58 15 48 15 C48 15 44 15 44 15 C43 12 42 1 42 0 C42 0 65 0 65 0 C65 0 140 0 140 0 C140 0 214 0 214 0 C214 0 387 0 387 0 C387 0 464 0 464 0 C464 0 467 0 467 0 C469 5 471 13 474 19 C480 38 489 63 496 83 C496 83 493 83 493 83 C484 84 478 85 478 85 C478 85 470 78 470 78 C443 54 389 37 335 37 C335 37 221 37 221 37 C221 37 214 0 214 0 C214 0 298 473 298 473 C298 473 298 473 298 473 C305 513 318 539 330 538 C330 538 333 538 333 538 C333 539 334 542 335 546 C335 551 336 553 336 553 C306 554 267 554 238 553 C208 554 169 554 139 553 C139 553 137 539 137 538 C137 538 137 538 137 538 L137 538 Z " />
<glyph glyph-name="LETTERSMALLCAPITALA" unicode="&#x1d00;" horiz-adv-x="606" d="M346 192 C346 192 382 80 382 80 C382 80 381 80 381 80 C393 41 395 15 385 15 C385 15 382 15 382 15 C382 15 381 12 380 8 C380 3 379 0 379 0 C379 0 407 0 407 0 C407 0 488 0 488 0 C488 0 569 0 569 0 C569 0 588 0 588 0 C588 0 589 3 589 7 C590 12 591 15 591 15 C591 15 587 15 587 15 C575 15 560 35 548 67 C548 67 389 566 389 566 C389 566 352 566 352 566 C352 566 70 73 70 73 C48 38 28 15 16 15 C16 15 13 15 13 15 C13 15 12 12 11 8 C11 3 10 0 10 0 C10 0 28 0 28 0 C28 0 53 0 53 0 C53 0 77 0 77 0 C77 0 112 0 112 0 C112 0 113 3 113 8 C114 12 115 15 115 15 C115 15 110 15 110 15 C97 15 102 41 122 82 C122 82 183 192 183 192 C183 192 346 192 346 192 L346 192 Z M335 228 C335 228 203 229 203 229 C203 229 287 380 287 380 C287 380 335 228 335 228 L335 228 Z " />
<glyph glyph-name="LETTERSMALLCAPITALC" unicode="&#x1d04;" horiz-adv-x="706" d="M711 406 C711 406 722 467 722 467 C722 467 704 456 704 456 C704 456 704 456 704 456 C704 456 722 467 722 467 C695 522 609 558 506 558 C287 558 122 445 92 277 C62 108 188 -5 406 -5 C509 -5 609 32 655 86 C655 86 666 148 666 148 C666 148 653 148 653 148 C648 142 641 135 637 130 C587 75 505 36 431 33 C431 33 431 32 431 32 C425 32 419 32 413 32 C293 32 230 130 256 277 C282 423 379 521 499 521 C520 521 541 519 560 516 C560 516 560 516 560 516 C611 508 663 471 689 424 C691 418 695 411 698 406 C698 406 711 406 711 406 L711 406 Z " />
<glyph glyph-name="LETTERSMALLCAPITALD" unicode="&#x1d05;" horiz-adv-x="701" d="M130 538 C130 538 133 538 133 538 C146 539 149 515 143 477 C143 477 73 80 73 80 C73 80 73 80 73 80 C66 41 53 15 41 15 C41 15 37 15 37 15 C38 15 35 0 35 0 C35 0 59 0 59 0 C59 0 133 0 133 0 C133 0 207 0 207 0 C207 0 300 525 300 525 C300 525 372 525 372 525 C501 525 570 426 544 277 C518 128 424 29 309 29 C309 29 213 29 213 29 C213 29 207 0 207 0 C207 0 304 0 304 0 C508 0 664 111 693 277 C722 442 596 553 377 553 C377 553 305 553 305 553 C305 553 231 553 231 553 C201 554 162 554 132 553 C132 553 130 539 130 538 C130 538 130 538 130 538 L130 538 Z " />
<glyph glyph-name="LETTERSMALLCAPITALE" unicode="&#x1d07;" horiz-adv-x="535" d="M443 249 C445 258 447 269 449 279 C449 279 455 314 455 314 C455 314 454 314 454 314 C456 322 457 331 459 338 C459 338 447 338 447 338 C431 322 390 314 335 314 C335 314 270 314 270 314 C270 314 263 276 263 276 C263 276 328 276 328 276 C379 276 419 267 428 254 C428 254 431 249 431 249 C431 249 443 249 443 249 L443 249 Z M552 473 C555 492 559 516 563 535 C563 540 565 548 566 553 C566 554 563 554 558 553 C556 554 553 554 551 553 C531 554 505 554 486 553 C486 553 312 553 312 553 C312 553 238 553 238 553 C208 554 169 554 139 553 C139 553 137 539 137 538 C137 538 140 538 140 538 C151 539 155 517 150 482 C150 482 76 64 76 64 C69 34 58 15 48 15 C48 15 44 15 44 15 C43 12 42 1 42 0 C42 0 65 0 65 0 C65 0 140 0 140 0 C140 0 214 0 214 0 C214 0 387 0 387 0 C387 0 464 0 464 0 C464 0 467 0 467 0 C469 5 471 13 474 19 C480 37 489 62 495 80 C495 80 484 80 484 80 C484 80 475 74 475 74 C445 52 385 37 325 37 C325 37 221 37 221 37 C221 37 214 0 214 0 C214 0 305 516 305 516 C305 516 404 516 404 516 C464 516 516 501 535 480 C535 480 541 473 541 473 C541 473 552 473 552 473 L552 473 Z " />
<glyph glyph-name="LETTERSMALLCAPITALJ" unicode="&#x1d0a;" horiz-adv-x="381" d="M247 477 C247 477 192 168 192 168 C172 56 162 13 156 13 C133 13 116 31 115 57 C113 85 95 104 71 104 C36 104 15 85 17 58 C19 17 62 -10 123 -10 C258 -10 325 75 363 293 C363 293 395 473 395 473 C395 473 395 473 395 473 C402 513 414 539 426 538 C426 538 430 538 430 538 C430 539 431 542 431 546 C432 551 433 553 433 553 C403 554 364 554 334 553 C304 552 265 554 236 553 C236 553 235 551 235 546 C234 542 233 539 233 538 C233 538 237 538 237 538 C249 539 252 515 247 477 L247 477 Z " />
<glyph glyph-name="LETTERSMALLCAPITALK" unicode="&#x1d0b;" horiz-adv-x="585" d="M475 538 C475 538 477 538 477 538 C483 539 463 513 426 473 C426 473 426 473 426 473 C426 473 346 389 346 389 C346 389 346 389 346 389 C346 389 260 298 260 298 C260 298 337 118 337 118 C375 30 429 -5 528 -5 C528 -5 568 -5 568 -5 C568 -5 572 18 572 18 C572 18 567 18 567 18 C522 18 482 72 423 210 C423 210 361 355 361 355 C361 355 472 473 472 473 C472 473 472 473 472 473 C508 513 541 539 553 538 C553 538 557 538 557 538 C556 539 557 542 558 546 C558 551 559 553 559 553 C549 554 535 554 524 553 C510 554 492 554 478 553 C478 553 475 538 475 538 L475 538 Z M130 538 C130 538 133 538 133 538 C146 539 149 515 143 477 C143 477 73 80 73 80 C73 80 73 80 73 80 C66 41 53 15 41 15 C41 15 37 15 37 15 C38 15 35 0 35 0 C35 0 59 0 59 0 C59 0 133 0 133 0 C133 0 207 0 207 0 C207 0 231 0 231 0 C231 0 232 3 233 8 C233 12 234 15 234 15 C234 15 230 15 230 15 C219 15 215 41 222 80 C222 80 221 80 221 80 C221 80 291 473 291 473 C291 473 291 473 291 473 C298 513 311 539 323 538 C323 538 326 538 326 538 C326 539 327 542 328 546 C328 551 329 553 329 553 C299 554 260 554 231 553 C201 554 162 554 132 553 C132 553 130 539 130 538 C130 538 130 538 130 538 L130 538 Z " />
<glyph glyph-name="LETTERSMALLCAPITALM" unicode="&#x1d0d;" horiz-adv-x="758" d="M552 0 C552 0 576 0 576 0 C576 0 650 0 650 0 C650 0 725 0 725 0 C725 0 748 0 748 0 C748 0 750 15 750 15 C750 15 747 15 747 15 C737 15 731 34 733 65 C733 65 784 485 784 485 C789 518 799 539 809 538 C809 538 813 538 813 538 C813 538 813 542 814 546 C814 551 815 553 815 553 C788 554 752 554 725 553 C725 553 698 553 698 553 C698 553 658 553 658 553 C658 553 411 163 411 163 C411 163 323 553 323 553 C323 553 225 553 225 553 C225 553 203 553 203 553 C189 554 171 554 157 553 C157 553 156 551 156 546 C155 542 154 538 154 538 C154 538 158 538 158 538 C170 539 172 513 163 473 C163 473 74 71 74 71 C65 37 52 15 41 15 C41 15 38 15 38 15 C38 15 37 12 36 8 C36 3 35 0 35 0 C35 0 58 0 58 0 C58 0 81 0 81 0 C81 0 103 0 103 0 C103 0 138 0 138 0 C138 0 140 15 140 15 C140 15 135 15 135 15 C118 15 114 47 124 95 C124 95 191 399 191 399 C191 399 297 21 297 21 C297 21 305 -5 305 -5 C305 -5 342 -5 342 -5 C342 -5 646 471 646 471 C646 471 587 73 587 73 C580 38 569 15 558 15 C558 15 554 15 554 15 C554 15 552 0 552 0 L552 0 Z " />
<glyph glyph-name="LETTERSMALLCAPITALO" unicode="&#x1d0f;" horiz-adv-x="712" d="M355 32 C261 32 232 145 256 277 C279 409 347 521 441 521 C535 521 564 409 541 277 C518 145 449 32 355 32 L355 32 Z M92 277 C65 125 146 -5 349 -5 C551 -5 678 125 705 277 C732 429 650 558 448 558 C246 558 119 429 92 277 L92 277 Z " />
<glyph glyph-name="LETTERSMALLCAPITALP" unicode="&#x1d18;" horiz-adv-x="522" d="M130 538 C130 538 133 538 133 538 C146 539 149 515 143 477 C143 477 73 80 73 80 C73 80 73 80 73 80 C66 41 53 15 41 15 C41 15 37 15 37 15 C38 15 35 0 35 0 C35 0 59 0 59 0 C59 0 133 0 133 0 C133 0 207 0 207 0 C207 0 231 0 231 0 C231 0 232 3 233 8 C233 12 234 15 234 15 C234 15 230 15 230 15 C219 15 215 41 222 80 C222 80 221 80 221 80 C221 80 300 525 300 525 C300 525 355 525 355 525 C401 525 423 475 410 400 C396 325 353 275 300 275 C300 275 256 275 256 275 C256 275 251 246 251 246 C251 246 295 246 295 246 C442 246 550 308 566 400 C583 492 500 553 360 553 C360 553 305 553 305 553 C305 553 231 553 231 553 C201 554 162 554 132 553 C132 553 130 539 130 538 C130 538 130 538 130 538 L130 538 Z " />
<glyph glyph-name="LETTERSMALLCAPITALT" unicode="&#x1d1b;" horiz-adv-x="573" d="M645 468 C647 489 649 515 651 535 C651 540 652 548 652 553 C652 554 649 554 645 553 C643 554 640 554 637 553 C617 554 591 554 572 553 C572 553 197 553 197 553 C178 554 152 554 132 553 C129 554 126 554 124 553 C120 554 117 554 117 553 C115 548 113 540 112 535 C107 515 100 489 94 468 C94 468 106 468 106 468 C106 468 115 476 115 476 C146 500 199 516 247 516 C247 516 303 516 303 516 C303 516 223 64 223 64 C215 34 205 15 195 15 C195 15 191 15 191 15 C190 12 189 1 189 0 C189 0 212 0 212 0 C212 0 287 0 287 0 C287 0 361 0 361 0 C361 0 385 0 385 0 C385 0 386 3 387 8 C387 12 388 15 388 15 C388 15 384 15 384 15 C372 15 369 41 376 80 C376 80 375 80 375 80 C375 80 452 516 452 516 C452 516 509 516 509 516 C557 516 604 500 626 476 C626 476 633 468 633 468 C633 468 645 468 645 468 L645 468 Z " />
</font>
</svg>
