<?xml version="1.0" encoding="UTF-8"?>
<svg xmlns="http://www.w3.org/2000/svg" xmlns:xlink="http://www.w3.org/1999/xlink" version="1.2" >
<font id="Thomas Mag Light">
<font-face  font-family="Thomas Mag" units-per-em="1024" ascent="936" descent="-280" font-style="normal" font-weight="300" font-stretch="normal" cap-height="660" x-height="500" underline-position="0" underline-thickness="0" />
<missing-glyph  horiz-adv-x="472" d="M0 700 C0 700 432 700 432 700 C432 700 432 0 432 0 C432 0 0 0 0 0 C0 0 0 700 0 700 L0 700 Z M50 50 C50 50 382 50 382 50 C382 50 382 650 382 650 C382 650 50 650 50 650 C50 650 50 50 50 50 L50 50 Z " />
<glyph glyph-name="NULL" d="" />
<glyph glyph-name="CR" unicode="&#xd;" horiz-adv-x="256" d="" />
<glyph glyph-name="space" unicode="&#x20;" horiz-adv-x="250" d="" />
<glyph glyph-name="exclam" unicode="&#x21;" horiz-adv-x="197" d="M103 -5 C125 -5 139 9 139 31 C139 53 125 67 103 67 C81 67 67 53 67 31 C67 9 81 -5 103 -5 L103 -5 Z M130 620 C132 647 120 665 100 665 C79 665 67 647 69 620 C69 620 100 142 100 142 C100 142 106 142 106 142 C106 142 130 620 130 620 L130 620 Z " />
<glyph glyph-name="quotedbl" unicode="&#x22;" horiz-adv-x="251" d="M141 660 C141 660 168 471 168 471 C168 471 177 471 177 471 C177 471 204 660 204 660 C204 660 141 660 141 660 L141 660 Z M47 660 C47 660 74 471 74 471 C74 471 83 471 83 471 C83 471 111 660 111 660 C111 660 47 660 47 660 L47 660 Z " />
<glyph glyph-name="numbersign" unicode="&#x23;" horiz-adv-x="548" d="M397 681 C397 681 368 479 368 479 C368 479 222 479 222 479 C222 479 251 681 251 681 C251 681 231 681 231 681 C231 681 202 479 202 479 C202 479 71 479 71 479 C71 479 65 441 65 441 C65 441 197 441 197 441 C197 441 165 219 165 219 C165 219 32 219 32 219 C32 219 26 181 26 181 C26 181 160 181 160 181 C160 181 134 0 134 0 C134 0 154 0 154 0 C154 0 180 181 180 181 C180 181 326 181 326 181 C326 181 300 0 300 0 C300 0 320 0 320 0 C320 0 346 181 346 181 C346 181 471 181 471 181 C471 181 476 219 476 219 C476 219 351 219 351 219 C351 219 383 441 383 441 C383 441 516 441 516 441 C516 441 521 479 521 479 C521 479 388 479 388 479 C388 479 417 681 417 681 C417 681 397 681 397 681 L397 681 Z M217 441 C217 441 363 441 363 441 C363 441 331 219 331 219 C331 219 185 219 185 219 C185 219 217 441 217 441 L217 441 Z " />
<glyph glyph-name="dollar" unicode="&#x24;" horiz-adv-x="518" d="M274 735 C274 735 274 664 274 664 C265 665 255 665 246 665 C234 665 222 664 211 663 C211 663 211 735 211 735 C211 735 194 735 194 735 C194 735 194 659 194 659 C109 640 55 572 55 476 C55 413 109 351 194 315 C194 315 194 23 194 23 C146 37 100 71 73 112 C69 118 63 126 60 132 C60 132 47 132 47 132 C47 132 47 78 47 78 C47 78 57 85 57 85 C57 85 57 85 57 85 C57 85 47 78 47 78 C71 42 126 14 194 2 C194 2 194 -75 194 -75 C194 -75 211 -75 211 -75 C211 -75 211 -1 211 -1 C231 -3 252 -5 274 -5 C274 -5 274 -75 274 -75 C274 -75 291 -75 291 -75 C291 -75 291 -5 291 -5 C397 2 466 71 466 173 C466 250 396 323 291 356 C291 356 291 642 291 642 C298 640 305 639 311 637 C341 627 377 595 402 556 C407 547 414 536 419 528 C419 528 432 528 432 528 C432 528 432 582 432 582 C405 622 352 652 291 661 C291 661 291 735 291 735 C291 735 274 735 274 735 L274 735 Z M211 19 C211 19 211 308 211 308 C217 306 224 304 230 302 C245 297 260 292 274 286 C274 286 274 13 274 13 C256 13 238 14 221 17 C221 17 221 17 221 17 C218 17 214 18 211 19 C211 19 211 19 211 19 L211 19 Z M211 388 C211 388 211 644 211 644 C221 646 232 647 243 647 C253 647 264 646 274 645 C274 645 274 362 274 362 C251 369 230 378 211 388 L211 388 Z M194 397 C138 428 105 468 105 505 C105 572 139 621 194 640 C194 640 194 397 194 397 L194 397 Z M291 279 C367 243 415 192 415 143 C415 70 366 20 291 14 C291 14 291 279 291 279 L291 279 Z " />
<glyph glyph-name="ampersand" unicode="&#x26;" horiz-adv-x="718" d="M591 380 C591 380 520 380 520 380 C520 380 520 365 520 365 C520 365 525 365 525 365 C539 365 549 350 549 270 C549 270 549 240 549 240 C549 185 532 138 501 101 C469 132 432 172 389 223 C343 278 304 329 275 376 C387 404 460 470 460 547 C460 618 403 665 317 665 C231 665 174 601 174 504 C174 469 192 423 224 369 C123 330 57 250 57 161 C57 61 141 -5 266 -5 C354 -5 428 20 480 63 C573 -11 638 -13 711 0 C711 0 711 8 711 8 C657 -1 605 5 510 93 C542 133 560 183 560 240 C560 240 560 270 560 270 C560 350 571 365 587 365 C587 365 591 365 591 365 C591 365 591 380 591 380 L591 380 Z M270 383 C234 441 213 490 213 527 C213 603 253 654 314 654 C378 654 421 610 421 545 C421 471 362 409 270 383 C270 383 270 383 270 383 L270 383 Z M470 71 C426 37 365 17 293 17 C180 17 104 82 104 180 C104 259 153 329 229 361 C260 310 303 253 353 192 C397 140 435 100 470 71 C470 71 470 71 470 71 L470 71 Z " />
<glyph glyph-name="quotesingle" unicode="&#x27;" horiz-adv-x="157" d="M47 660 C47 660 74 471 74 471 C74 471 83 471 83 471 C83 471 111 660 111 660 C111 660 47 660 47 660 L47 660 Z " />
<glyph glyph-name="parenleft" unicode="&#x28;" horiz-adv-x="215" d="M192 690 C117 600 67 481 67 270 C67 59 117 -60 192 -150 C192 -150 199 -145 199 -145 C143 -78 106 33 106 270 C106 507 143 618 199 685 C199 685 192 690 192 690 L192 690 Z " />
<glyph glyph-name="parenright" unicode="&#x29;" horiz-adv-x="215" d="M17 -150 C92 -60 142 59 142 270 C142 481 92 600 17 690 C17 690 11 685 11 685 C66 618 103 507 104 270 C103 33 66 -78 11 -145 C11 -145 17 -150 17 -150 L17 -150 Z " />
<glyph glyph-name="asterisk" unicode="&#x2a;" horiz-adv-x="275" d="M154 540 C154 540 45 493 45 493 C22 482 41 451 61 467 C61 467 156 537 156 537 C156 537 142 420 142 420 C140 409 146 401 157 401 C167 401 173 409 172 420 C172 420 158 537 158 537 C158 537 253 467 253 467 C273 451 292 482 268 493 C268 493 160 540 160 540 C160 540 268 587 268 587 C292 596 275 628 253 613 C253 613 158 543 158 543 C158 543 172 660 172 660 C173 671 167 679 157 679 C146 679 140 671 142 660 C142 660 156 543 156 543 C156 543 61 613 61 613 C39 628 23 596 45 587 C45 587 154 540 154 540 L154 540 Z " />
<glyph glyph-name="plus" unicode="&#x2b;" horiz-adv-x="561" d="M270 450 C270 450 270 261 270 261 C270 261 82 261 82 261 C82 261 82 239 82 239 C82 239 270 239 270 239 C270 239 270 50 270 50 C270 50 294 50 294 50 C294 50 294 239 294 239 C294 239 482 239 482 239 C482 239 482 261 482 261 C482 261 294 261 294 261 C294 261 294 450 294 450 C294 450 270 450 270 450 L270 450 Z " />
<glyph glyph-name="comma" unicode="&#x2c;" horiz-adv-x="202" d="M126 2 C134 8 139 18 139 31 C139 53 125 67 103 67 C81 67 67 53 67 31 C67 20 70 12 76 6 C76 6 71 1 71 1 C98 -27 116 -40 116 -32 C116 -56 100 -79 77 -90 C77 -90 80 -98 80 -98 C119 -79 145 -42 145 -7 C145 -12 138 -9 126 2 C126 2 126 2 126 2 L126 2 Z " />
<glyph glyph-name="hyphen" unicode="&#x2d;" horiz-adv-x="286" d="M27 216 C27 216 260 216 260 216 C260 216 260 254 260 254 C260 254 27 254 27 254 C27 254 27 216 27 216 L27 216 Z " />
<glyph glyph-name="period" unicode="&#x2e;" horiz-adv-x="228" d="M125 -5 C147 -5 161 9 161 31 C161 53 147 67 125 67 C103 67 89 53 89 31 C89 9 103 -5 125 -5 L125 -5 Z " />
<glyph glyph-name="slash" unicode="&#x2f;" horiz-adv-x="339" d="M7 -145 C7 -145 29 -145 29 -145 C29 -145 339 710 339 710 C339 710 317 710 317 710 C317 710 7 -145 7 -145 L7 -145 Z " />
<glyph glyph-name="zero" unicode="0" horiz-adv-x="564" d="M282 6 C166 6 88 104 88 250 C88 396 166 494 282 494 C399 494 476 396 476 250 C476 104 399 6 282 6 L282 6 Z M33 250 C33 97 133 -5 282 -5 C432 -5 532 97 532 250 C532 403 432 505 282 505 C133 505 33 403 33 250 L33 250 Z " />
<glyph glyph-name="one" unicode="1" horiz-adv-x="215" d="M154 500 C154 500 130 500 130 500 C130 500 105 500 105 500 C105 500 80 500 80 500 C80 500 56 500 56 500 C56 500 56 485 56 485 C56 485 60 485 60 485 C72 485 80 459 80 420 C80 420 80 80 80 80 C80 41 72 15 60 15 C60 15 56 15 56 15 C56 15 56 0 56 0 C56 0 80 0 80 0 C80 0 105 0 105 0 C105 0 130 0 130 0 C130 0 154 0 154 0 C154 0 154 15 154 15 C154 15 150 15 150 15 C138 15 130 41 130 80 C130 80 130 420 130 420 C130 459 138 485 150 485 C150 485 154 485 154 485 C154 485 154 500 154 500 L154 500 Z " />
<glyph glyph-name="two" unicode="2" horiz-adv-x="495" d="M443 74 C443 74 443 70 443 70 C442 58 415 50 376 50 C376 50 110 50 110 50 C305 173 431 244 431 349 C431 443 368 505 272 505 C192 505 114 446 78 358 C78 358 85 354 85 354 C112 422 178 468 247 468 C324 468 375 414 375 332 C375 203 238 145 32 11 C32 11 32 0 32 0 C32 0 452 0 452 0 C452 0 454 25 454 25 C454 25 455 39 455 39 C456 50 457 63 458 74 C458 74 443 74 443 74 L443 74 Z " />
<glyph glyph-name="three" unicode="3" horiz-adv-x="452" d="M32 -215 C261 -203 413 -101 413 41 C413 139 333 206 212 210 C309 257 368 318 368 376 C368 453 312 505 228 505 C153 505 69 453 17 376 C17 376 23 372 23 372 C63 430 134 469 202 469 C272 469 318 425 318 359 C318 299 257 237 161 197 C147 192 130 187 112 180 C112 180 112 171 112 171 C115 172 118 173 121 174 C141 179 167 183 191 183 C292 183 360 125 360 38 C360 -98 229 -196 32 -207 C32 -207 32 -215 32 -215 L32 -215 Z " />
<glyph glyph-name="four" unicode="4" horiz-adv-x="504" d="M54 22 C54 22 328 419 328 419 C328 419 327 417 327 417 C327 417 327 22 327 22 C327 22 54 22 54 22 L54 22 Z M327 0 C327 0 327 -150 327 -150 C327 -150 377 -150 377 -150 C377 -150 377 0 377 0 C377 0 487 0 487 0 C487 0 487 22 487 22 C487 22 377 22 377 22 C377 22 377 490 377 490 C377 490 377 505 377 505 C377 505 369 505 369 505 C369 505 27 9 27 9 C27 9 27 0 27 0 C27 0 37 0 37 0 C37 0 39 0 39 0 C39 0 327 0 327 0 L327 0 Z " />
<glyph glyph-name="five" unicode="5" horiz-adv-x="454" d="M392 500 C392 500 392 500 392 500 C395 508 398 517 400 524 C400 524 385 524 385 524 C381 507 355 500 312 500 C312 500 110 500 110 500 C110 500 95 500 95 500 C95 500 75 221 75 221 C75 221 88 221 88 221 C88 221 139 221 139 221 C264 221 347 154 347 55 C347 -75 223 -166 38 -173 C38 -173 38 -182 38 -182 C253 -174 397 -73 397 71 C397 190 304 270 164 270 C164 270 92 270 92 270 C92 270 110 500 110 500 C110 500 106 447 106 447 C106 447 375 447 375 447 C375 447 392 500 392 500 L392 500 Z " />
<glyph glyph-name="six" unicode="6" horiz-adv-x="530" d="M478 715 C217 706 42 540 42 299 C42 117 131 -5 265 -5 C408 -5 498 83 492 216 C492 342 412 427 293 427 C206 427 135 369 99 275 C100 289 101 304 101 316 C101 542 252 698 479 707 C479 707 478 715 478 715 L478 715 Z M98 238 C127 346 197 414 284 414 C377 414 439 334 439 213 C446 91 378 9 271 9 C170 9 103 100 98 238 C98 238 98 238 98 238 L98 238 Z " />
<glyph glyph-name="seven" unicode="7" horiz-adv-x="452" d="M33 449 C32 441 31 432 30 425 C30 425 45 425 45 425 C45 425 46 429 46 429 C47 441 74 449 112 449 C112 449 410 449 410 449 C410 449 138 -140 138 -140 C138 -140 194 -140 194 -140 C275 72 355 284 436 495 C436 495 432 500 432 500 C432 500 37 500 37 500 C37 500 32 449 32 449 C32 449 33 449 33 449 L33 449 Z " />
<glyph glyph-name="eight" unicode="8" horiz-adv-x="505" d="M288 350 C274 354 260 357 246 360 C160 377 103 439 103 515 C103 598 159 654 243 654 C330 654 388 596 388 509 C388 431 349 371 288 350 C288 350 288 350 288 350 L288 350 Z M297 347 C378 370 430 434 430 517 C430 606 356 665 246 665 C135 665 61 597 61 495 C61 420 109 356 185 325 C94 310 35 249 35 163 C35 62 120 -5 248 -5 C376 -5 461 67 461 174 C461 249 397 314 297 347 C297 347 297 347 297 347 L297 347 Z M192 322 C206 316 220 312 236 309 C343 288 414 227 414 157 C414 66 349 6 251 6 C149 6 82 72 82 171 C82 250 125 306 192 322 C192 322 192 322 192 322 L192 322 Z " />
<glyph glyph-name="nine" unicode="9" horiz-adv-x="566" d="M70 -215 C332 -206 506 -40 506 201 C506 383 417 505 283 505 C141 505 50 417 57 284 C57 158 136 73 256 73 C343 73 413 131 449 226 C449 212 448 196 448 184 C448 -42 296 -198 70 -207 C70 -207 70 -215 70 -215 L70 -215 Z M450 261 C421 153 352 86 264 86 C171 86 110 166 110 287 C103 409 170 491 278 491 C378 491 446 400 450 261 C450 261 450 261 450 261 L450 261 Z " />
<glyph glyph-name="colon" unicode="&#x3a;" horiz-adv-x="228" d="M125 364 C147 364 161 378 161 400 C161 422 147 436 125 436 C103 436 89 422 89 400 C89 378 103 364 125 364 L125 364 Z M125 -5 C147 -5 161 9 161 31 C161 53 147 67 125 67 C103 67 89 53 89 31 C89 9 103 -5 125 -5 L125 -5 Z " />
<glyph glyph-name="semicolon" unicode="&#x3b;" horiz-adv-x="202" d="M103 364 C125 364 139 378 139 400 C139 422 125 436 103 436 C81 436 67 422 67 400 C67 378 81 364 103 364 L103 364 Z M126 2 C134 8 139 18 139 31 C139 53 125 67 103 67 C81 67 67 53 67 31 C67 20 70 12 76 6 C76 6 71 1 71 1 C98 -27 116 -40 116 -32 C116 -56 100 -79 77 -90 C77 -90 80 -98 80 -98 C119 -79 145 -42 145 -7 C145 -12 138 -9 126 2 C126 2 126 2 126 2 L126 2 Z " />
<glyph glyph-name="less" unicode="&#x3c;" horiz-adv-x="549" d="M467 500 C467 500 52 290 52 290 C52 290 47 287 47 287 C47 287 47 263 47 263 C47 263 52 260 52 260 C52 260 467 50 467 50 C467 50 467 75 467 75 C467 75 68 275 68 275 C68 275 467 475 467 475 C467 475 467 500 467 500 L467 500 Z " />
<glyph glyph-name="equal" unicode="&#x3d;" horiz-adv-x="541" d="M85 211 C85 211 85 189 85 189 C85 189 465 189 465 189 C465 189 465 211 465 211 C465 211 85 211 85 211 L85 211 Z M85 311 C85 311 85 289 85 289 C85 289 465 289 465 289 C465 289 465 311 465 311 C465 311 85 311 85 311 L85 311 Z " />
<glyph glyph-name="greater" unicode="&#x3e;" horiz-adv-x="543" d="M471 275 C471 275 82 75 82 75 C82 75 82 50 82 50 C82 50 487 260 487 260 C487 260 497 266 497 266 C497 266 497 284 497 284 C497 284 487 290 487 290 C487 290 82 500 82 500 C82 500 82 475 82 475 C82 475 471 275 471 275 L471 275 Z " />
<glyph glyph-name="question" unicode="&#x3f;" horiz-adv-x="380" d="M147 -5 C169 -5 183 9 183 31 C183 53 169 67 147 67 C125 67 111 53 111 31 C111 9 125 -5 147 -5 L147 -5 Z M132 360 C132 360 144 147 144 147 C144 147 150 147 150 147 C150 147 161 360 161 360 C161 360 160 329 160 329 C160 329 195 329 195 329 C316 329 339 403 339 445 C339 577 256 665 132 665 C81 665 48 638 48 598 C48 590 59 585 76 585 C104 585 119 626 148 626 C255 626 327 556 327 450 C327 421 303 368 178 368 C178 368 143 368 143 368 C136 368 132 365 132 360 L132 360 Z " />
<glyph glyph-name="at" unicode="&#x40;" horiz-adv-x="1153" d="M1051 0 C984 -143 798 -239 584 -239 C294 -239 101 -40 101 259 C101 558 291 757 577 757 C862 757 1052 591 1052 343 C1052 140 975 4 859 4 C740 4 680 82 709 200 C709 200 779 480 779 480 C779 480 732 480 732 480 C732 480 709 386 709 386 C698 449 649 490 582 490 C416 490 305 373 305 197 C305 87 374 13 477 13 C552 13 619 60 655 136 C658 44 731 -13 850 -13 C995 -13 1091 129 1091 343 C1091 599 885 770 577 770 C268 770 62 566 62 259 C62 -48 271 -252 584 -252 C804 -252 997 -151 1068 0 C1068 0 1051 0 1051 0 L1051 0 Z M701 355 C701 355 662 200 662 200 C638 105 574 41 502 41 C416 41 359 107 359 207 C359 368 448 476 581 476 C652 476 700 428 700 355 C700 355 701 355 701 355 L701 355 Z " />
<glyph glyph-name="A" unicode="A" horiz-adv-x="584" d="M566 15 C566 15 562 15 562 15 C551 15 533 38 518 74 C518 74 286 675 286 675 C286 675 268 675 268 675 C268 675 56 65 56 65 C44 34 30 15 19 15 C19 15 16 15 16 15 C16 15 16 0 16 0 C16 0 34 0 34 0 C34 0 46 0 46 0 C46 0 58 0 58 0 C58 0 93 0 93 0 C93 0 93 15 93 15 C93 15 89 15 89 15 C74 15 74 44 88 89 C88 89 121 188 121 188 C121 188 354 306 354 306 C354 306 445 63 445 63 C453 34 453 15 443 15 C443 15 439 15 439 15 C439 15 439 0 439 0 C439 0 468 0 468 0 C468 0 508 0 508 0 C508 0 547 0 547 0 C547 0 566 0 566 0 C566 0 566 15 566 15 L566 15 Z M341 342 C341 342 134 226 134 226 C134 226 253 578 253 578 C253 578 341 342 341 342 L341 342 Z " />
<glyph glyph-name="B" unicode="B" horiz-adv-x="563" d="M54 645 C54 645 58 645 58 645 C70 645 78 619 78 580 C78 580 78 80 78 80 C78 41 70 15 58 15 C58 15 54 15 54 15 C54 15 54 0 54 0 C54 0 78 0 78 0 C78 0 114 0 114 0 C114 0 150 0 150 0 C150 0 305 0 305 0 C444 0 537 72 537 180 C537 273 454 338 324 354 C421 373 483 431 483 511 C483 600 402 660 280 660 C280 660 150 660 150 660 C150 660 114 660 114 660 C114 660 78 660 78 660 C78 660 54 660 54 660 C54 660 54 645 54 645 L54 645 Z M280 358 C273 358 267 358 260 358 C260 358 187 356 187 356 C187 356 150 356 150 356 C150 356 150 646 150 646 C150 646 280 646 280 646 C359 646 411 592 411 511 C411 427 359 368 280 358 C280 358 280 358 280 358 L280 358 Z M150 347 C150 347 243 347 243 347 C374 347 461 280 461 180 C461 81 396 14 300 14 C300 14 150 14 150 14 C150 14 150 347 150 347 L150 347 Z " />
<glyph glyph-name="C" unicode="C" horiz-adv-x="715" d="M648 521 C648 521 648 571 648 571 C611 627 506 665 387 665 C184 665 49 531 49 330 C49 129 184 -5 387 -5 C506 -5 611 33 648 89 C648 89 648 139 648 139 C648 139 635 139 635 139 C631 133 626 125 622 119 C589 67 521 27 448 17 C428 14 408 13 387 13 C231 13 128 140 128 330 C128 520 231 647 387 647 C419 647 450 644 478 639 C478 639 478 639 478 639 C534 629 591 590 622 541 C626 535 631 527 635 521 C635 521 648 521 648 521 L648 521 Z " />
<glyph glyph-name="D" unicode="D" horiz-adv-x="659" d="M54 645 C54 645 58 645 58 645 C70 645 78 619 78 580 C78 580 78 80 78 80 C78 41 70 15 58 15 C58 15 54 15 54 15 C54 15 54 0 54 0 C54 0 78 0 78 0 C78 0 114 0 114 0 C114 0 150 0 150 0 C150 0 302 0 302 0 C483 0 603 132 603 330 C603 528 467 660 264 660 C264 660 150 660 150 660 C150 660 114 660 114 660 C114 660 78 660 78 660 C78 660 54 660 54 660 C54 660 54 645 54 645 L54 645 Z M150 14 C150 14 150 646 150 646 C150 646 264 646 264 646 C424 646 531 520 531 330 C531 140 439 14 302 14 C302 14 150 14 150 14 L150 14 Z " />
<glyph glyph-name="E" unicode="E" horiz-adv-x="504" d="M356 385 C344 369 305 361 249 361 C249 361 139 361 139 361 C139 361 139 642 139 642 C139 642 275 642 275 642 C343 642 396 626 419 599 C419 599 430 599 430 599 C431 615 431 635 430 651 C431 654 431 658 430 660 C430 660 424 660 424 660 C424 660 350 660 350 660 C350 660 139 660 139 660 C139 660 103 660 103 660 C103 660 67 660 67 660 C67 660 43 660 43 660 C43 660 43 645 43 645 C43 645 46 645 46 645 C59 645 67 619 67 580 C67 580 67 80 67 80 C67 41 59 15 46 15 C46 15 43 15 43 15 C43 15 43 0 43 0 C43 0 67 0 67 0 C67 0 103 0 103 0 C103 0 139 0 139 0 C139 0 355 0 355 0 C355 0 434 0 434 0 C434 0 435 0 435 0 C436 2 436 6 436 9 C439 25 443 45 446 61 C446 61 435 61 435 61 C435 61 427 54 427 54 C401 33 343 18 283 18 C283 18 139 18 139 18 C139 18 139 343 139 343 C139 343 249 343 249 343 C305 343 343 334 356 316 C356 316 369 316 369 316 C369 316 369 343 369 343 C369 343 369 352 369 352 C369 352 369 361 369 361 C369 361 369 385 369 385 C369 385 356 385 356 385 L356 385 Z " />
<glyph glyph-name="F" unicode="F" horiz-adv-x="470" d="M346 380 C334 364 295 356 239 356 C239 356 139 356 139 356 C139 356 139 642 139 642 C139 642 305 642 305 642 C373 642 426 626 449 599 C449 599 460 599 460 599 C461 615 461 635 460 651 C461 654 461 658 460 660 C460 660 454 660 454 660 C454 660 380 660 380 660 C380 660 139 660 139 660 C139 660 103 660 103 660 C103 660 67 660 67 660 C67 660 43 660 43 660 C43 660 43 645 43 645 C43 645 46 645 46 645 C59 645 67 619 67 580 C67 580 67 80 67 80 C67 41 59 15 46 15 C46 15 43 15 43 15 C43 15 43 0 43 0 C43 0 67 0 67 0 C67 0 103 0 103 0 C103 0 139 0 139 0 C139 0 172 0 172 0 C172 0 172 15 172 15 C172 15 167 15 167 15 C151 15 140 37 139 71 C139 71 139 80 139 80 C139 80 139 338 139 338 C139 338 239 338 239 338 C295 338 333 329 346 311 C346 311 359 311 359 311 C359 311 359 338 359 338 C359 338 359 347 359 347 C359 347 359 356 359 356 C359 356 359 380 359 380 C359 380 346 380 346 380 L346 380 Z " />
<glyph glyph-name="G" unicode="G" horiz-adv-x="697" d="M641 310 C641 310 617 310 617 310 C617 310 584 310 584 310 C584 310 552 310 552 310 C552 310 528 310 528 310 C528 310 528 295 528 295 C528 295 532 295 532 295 C544 295 552 269 552 230 C552 230 552 47 552 47 C495 26 424 13 360 13 C212 13 113 140 113 330 C113 520 212 647 360 647 C389 647 416 645 442 640 C442 640 442 640 442 640 C498 630 556 591 587 541 C591 535 596 527 600 521 C600 521 613 521 613 521 C613 521 613 571 613 571 C576 627 475 665 360 665 C165 665 34 531 34 330 C34 129 165 -5 360 -5 C451 -5 553 19 617 56 C617 56 617 230 617 230 C617 269 625 295 637 295 C637 295 641 295 641 295 C641 295 641 310 641 310 L641 310 Z " />
<glyph glyph-name="H" unicode="H" horiz-adv-x="680" d="M514 645 C514 645 517 645 517 645 C530 645 538 619 538 580 C538 580 538 356 538 356 C538 356 139 356 139 356 C139 356 139 580 139 580 C139 580 139 592 139 592 C140 624 148 645 159 645 C159 645 162 645 162 645 C162 645 162 660 162 660 C162 660 139 660 139 660 C139 660 103 660 103 660 C103 660 67 660 67 660 C67 660 43 660 43 660 C43 660 43 645 43 645 C43 645 46 645 46 645 C59 645 67 619 67 580 C67 580 67 80 67 80 C67 41 59 15 46 15 C46 15 43 15 43 15 C43 15 43 0 43 0 C43 0 67 0 67 0 C67 0 103 0 103 0 C103 0 139 0 139 0 C139 0 162 0 162 0 C162 0 162 15 162 15 C162 15 159 15 159 15 C148 15 140 36 139 68 C139 68 139 80 139 80 C139 80 139 338 139 338 C139 338 538 338 538 338 C538 338 538 80 538 80 C538 41 530 15 517 15 C517 15 514 15 514 15 C514 15 514 0 514 0 C514 0 538 0 538 0 C538 0 574 0 574 0 C574 0 610 0 610 0 C610 0 634 0 634 0 C633 0 633 3 634 8 C633 12 633 15 634 15 C634 15 630 15 630 15 C619 15 611 36 610 68 C610 68 610 80 610 80 C610 80 610 580 610 580 C610 580 610 592 610 592 C611 624 619 645 630 645 C630 645 634 645 634 645 C633 645 633 648 634 653 C633 657 633 660 634 660 C634 660 610 660 610 660 C610 660 574 660 574 660 C574 660 538 660 538 660 C538 660 514 660 514 660 C514 660 514 645 514 645 L514 645 Z " />
<glyph glyph-name="I" unicode="I" horiz-adv-x="205" d="M158 660 C158 660 135 660 135 660 C135 660 99 660 99 660 C99 660 63 660 63 660 C63 660 39 660 39 660 C39 660 39 645 39 645 C39 645 42 645 42 645 C55 645 63 619 63 580 C63 580 63 80 63 80 C63 41 55 15 42 15 C42 15 39 15 39 15 C39 15 39 0 39 0 C39 0 63 0 63 0 C63 0 99 0 99 0 C99 0 135 0 135 0 C135 0 158 0 158 0 C158 0 158 15 158 15 C158 15 155 15 155 15 C143 15 136 35 135 67 C135 67 135 80 135 80 C135 80 135 580 135 580 C135 580 135 593 135 593 C136 625 143 645 155 645 C155 645 158 645 158 645 C158 645 158 660 158 660 L158 660 Z " />
<glyph glyph-name="J" unicode="J" horiz-adv-x="334" d="M288 660 C288 660 264 660 264 660 C264 660 228 660 228 660 C228 660 192 660 192 660 C192 660 168 660 168 660 C168 660 168 645 168 645 C168 645 172 645 172 645 C184 645 192 619 192 580 C192 580 192 200 192 200 C192 57 172 1 120 1 C87 1 61 21 54 50 C50 63 40 72 29 72 C12 72 3 63 7 50 C16 14 56 -10 106 -10 C220 -10 264 66 264 261 C264 261 264 580 264 580 C264 619 272 645 284 645 C284 645 288 645 288 645 C288 645 288 660 288 660 L288 660 Z " />
<glyph glyph-name="K" unicode="K" horiz-adv-x="604" d="M437 645 C437 645 438 645 438 645 C442 645 423 625 393 594 C393 594 189 394 189 394 C189 394 189 394 189 394 C189 394 150 355 150 355 C150 355 150 580 150 580 C150 619 158 645 170 645 C170 645 174 645 174 645 C174 645 174 660 174 660 C174 660 150 660 150 660 C150 660 114 660 114 660 C114 660 78 660 78 660 C78 660 54 660 54 660 C54 660 54 645 54 645 C54 645 58 645 58 645 C70 645 78 619 78 580 C78 580 78 80 78 80 C78 41 70 15 58 15 C58 15 54 15 54 15 C54 15 54 0 54 0 C54 0 78 0 78 0 C78 0 114 0 114 0 C114 0 150 0 150 0 C150 0 174 0 174 0 C174 0 174 15 174 15 C174 15 170 15 170 15 C158 15 150 41 150 80 C150 80 150 355 150 355 C150 355 161 340 161 340 C161 340 162 341 162 341 C162 341 318 171 318 171 C433 44 503 -5 566 -5 C566 -5 588 -5 588 -5 C588 -5 588 6 588 6 C588 6 583 6 583 6 C554 6 491 63 357 210 C357 210 202 380 202 380 C202 380 405 580 405 580 C405 580 405 580 405 580 C444 619 479 645 491 645 C491 645 495 645 495 645 C495 645 495 660 495 660 C495 660 486 660 486 660 C486 660 473 660 473 660 C473 660 460 660 460 660 C460 660 437 660 437 660 C437 660 437 645 437 645 L437 645 Z " />
<glyph glyph-name="L" unicode="L" horiz-adv-x="489" d="M427 66 C427 66 421 59 421 59 C398 34 347 18 293 18 C293 18 139 18 139 18 C139 18 139 580 139 580 C139 580 139 592 139 592 C140 624 148 645 159 645 C159 645 162 645 162 645 C162 645 162 660 162 660 C162 660 139 660 139 660 C139 660 103 660 103 660 C103 660 67 660 67 660 C67 660 43 660 43 660 C43 660 43 645 43 645 C43 645 46 645 46 645 C59 645 67 619 67 580 C67 580 67 80 67 80 C67 41 59 15 46 15 C46 15 43 15 43 15 C43 15 43 0 43 0 C43 0 67 0 67 0 C67 0 103 0 103 0 C103 0 139 0 139 0 C139 0 355 0 355 0 C355 0 434 0 434 0 C434 0 435 0 435 0 C436 2 436 6 436 9 C440 25 443 47 446 63 C439 64 427 66 427 66 C427 66 427 66 427 66 L427 66 Z " />
<glyph glyph-name="M" unicode="M" horiz-adv-x="728" d="M688 660 C688 660 665 660 665 660 C665 660 632 660 632 660 C632 660 619 660 619 660 C619 660 600 660 600 660 C600 660 366 83 366 83 C366 83 143 660 143 660 C143 660 96 660 96 660 C96 660 85 660 85 660 C85 660 74 660 74 660 C74 660 50 660 50 660 C50 660 50 645 50 645 C50 645 54 645 54 645 C65 645 72 620 71 582 C71 582 52 80 52 80 C51 41 42 15 29 15 C29 15 26 15 26 15 C26 15 26 0 26 0 C26 0 49 0 49 0 C49 0 60 0 60 0 C60 0 71 0 71 0 C71 0 106 0 106 0 C106 0 106 15 106 15 C106 15 100 15 100 15 C85 15 75 39 74 76 C74 76 93 579 93 579 C93 579 324 10 324 10 C324 10 331 -5 331 -5 C331 -5 349 -5 349 -5 C349 -5 602 617 602 617 C602 617 620 80 620 80 C621 41 614 15 602 15 C602 15 599 15 599 15 C599 15 599 0 599 0 C599 0 623 0 623 0 C623 0 659 0 659 0 C659 0 695 0 695 0 C695 0 718 0 718 0 C718 0 718 15 718 15 C718 15 714 15 714 15 C703 15 695 35 692 67 C692 67 668 599 668 599 C669 627 675 645 684 645 C684 645 688 645 688 645 C688 645 688 660 688 660 L688 660 Z " />
<glyph glyph-name="N" unicode="N" horiz-adv-x="611" d="M571 660 C571 660 547 660 547 660 C547 660 537 660 537 660 C537 660 526 660 526 660 C526 660 502 660 502 660 C502 660 502 645 502 645 C502 645 506 645 506 645 C518 645 526 619 526 580 C526 580 526 87 526 87 C526 87 142 660 142 660 C142 660 94 660 94 660 C94 660 83 660 83 660 C83 660 72 660 72 660 C72 660 49 660 49 660 C49 660 49 645 49 645 C49 645 52 645 52 645 C64 645 72 619 72 580 C72 580 72 80 72 80 C72 41 64 15 52 15 C52 15 49 15 49 15 C49 15 49 0 49 0 C49 0 72 0 72 0 C72 0 83 0 83 0 C83 0 94 0 94 0 C94 0 118 0 118 0 C118 0 118 15 118 15 C118 15 114 15 114 15 C102 15 94 41 94 80 C94 80 94 604 94 604 C94 604 493 10 493 10 C493 10 507 -11 507 -11 C507 -11 547 -11 547 -11 C547 -11 547 36 547 36 C547 36 547 580 547 580 C548 619 556 645 568 645 C568 645 571 645 571 645 C571 645 571 660 571 660 L571 660 Z " />
<glyph glyph-name="O" unicode="O" horiz-adv-x="772" d="M390 13 C227 13 143 159 143 330 C143 501 227 647 390 647 C553 647 637 501 637 330 C637 159 553 13 390 13 L390 13 Z M64 330 C64 149 175 -5 390 -5 C605 -5 716 149 716 330 C716 511 605 665 390 665 C175 665 64 511 64 330 L64 330 Z " />
<glyph glyph-name="P" unicode="P" horiz-adv-x="541" d="M54 645 C54 645 58 645 58 645 C70 645 78 619 78 580 C78 580 78 80 78 80 C78 41 70 15 58 15 C58 15 54 15 54 15 C54 15 54 0 54 0 C54 0 78 0 78 0 C78 0 114 0 114 0 C114 0 150 0 150 0 C150 0 174 0 174 0 C174 0 174 15 174 15 C174 15 170 15 170 15 C158 15 150 41 150 80 C150 80 150 298 150 298 C150 298 265 298 265 298 C415 298 514 370 514 478 C514 587 426 660 294 660 C294 660 150 660 150 660 C150 660 114 660 114 660 C114 660 78 660 78 660 C78 660 54 660 54 660 C54 660 54 645 54 645 L54 645 Z M150 311 C150 311 150 646 150 646 C150 646 294 646 294 646 C381 646 439 579 439 478 C439 378 370 311 265 311 C265 311 150 311 150 311 L150 311 Z " />
<glyph glyph-name="Q" unicode="Q" horiz-adv-x="772" d="M808 -51 C808 -51 803 -47 803 -47 C780 -74 717 -92 645 -92 C535 -92 455 -58 397 -5 C608 -1 716 151 716 330 C716 511 605 665 390 665 C175 665 64 511 64 330 C64 152 171 1 378 -5 C455 -79 544 -128 640 -128 C702 -128 770 -97 808 -51 L808 -51 Z M390 13 C227 13 143 159 143 330 C143 501 227 647 390 647 C553 647 637 501 637 330 C637 159 553 13 390 13 L390 13 Z " />
<glyph glyph-name="R" unicode="R" horiz-adv-x="576" d="M54 645 C54 645 58 645 58 645 C70 645 78 619 78 580 C78 580 78 80 78 80 C78 41 70 15 58 15 C58 15 54 15 54 15 C54 15 54 0 54 0 C54 0 78 0 78 0 C78 0 114 0 114 0 C114 0 150 0 150 0 C150 0 174 0 174 0 C174 0 174 15 174 15 C174 15 170 15 170 15 C158 15 150 41 150 80 C150 80 150 317 150 317 C150 317 238 317 238 317 C238 317 403 106 403 106 C482 4 488 0 548 0 C548 0 570 0 570 0 C570 0 570 11 570 11 C570 11 565 11 565 11 C546 11 542 14 479 95 C479 95 302 320 302 320 C415 334 487 398 487 490 C487 592 404 660 280 660 C280 660 150 660 150 660 C150 660 114 660 114 660 C114 660 78 660 78 660 C78 660 54 660 54 660 C54 660 54 645 54 645 L54 645 Z M254 330 C254 330 228 330 228 330 C228 330 150 330 150 330 C150 330 150 646 150 646 C150 646 280 646 280 646 C359 646 411 583 411 490 C411 394 348 330 254 330 L254 330 Z " />
<glyph glyph-name="S" unicode="S" horiz-adv-x="518" d="M47 132 C47 132 47 78 47 78 C47 78 57 85 57 85 C57 85 57 85 57 85 C57 85 47 78 47 78 C80 28 171 -5 275 -5 C390 -5 466 66 466 173 C466 251 394 325 286 358 C177 391 105 450 105 505 C105 590 160 647 243 647 C266 647 289 643 311 637 C341 627 377 595 402 556 C407 547 414 536 419 528 C419 528 432 528 432 528 C432 528 432 582 432 582 C399 632 325 665 246 665 C131 665 55 590 55 476 C55 404 125 334 230 302 C341 268 415 204 415 143 C415 65 359 13 275 13 C256 13 238 14 221 17 C221 17 221 17 221 17 C164 25 105 63 73 112 C69 118 63 126 60 132 C60 132 47 132 47 132 L47 132 Z " />
<glyph glyph-name="T" unicode="T" horiz-adv-x="633" d="M377 15 C377 15 373 15 373 15 C361 15 353 41 353 80 C353 80 353 642 353 642 C353 642 462 642 462 642 C510 642 560 626 586 601 C586 601 594 594 594 594 C594 594 606 594 606 594 C605 612 603 634 601 651 C601 654 601 658 600 660 C600 660 587 660 587 660 C587 660 520 660 520 660 C520 660 114 660 114 660 C114 660 47 660 47 660 C47 660 34 660 34 660 C33 658 33 654 33 651 C31 634 29 612 28 594 C28 594 40 594 40 594 C40 594 48 601 48 601 C74 626 124 642 172 642 C172 642 281 642 281 642 C281 642 281 80 281 80 C281 41 273 15 261 15 C261 15 257 15 257 15 C257 15 257 0 257 0 C257 0 281 0 281 0 C281 0 317 0 317 0 C317 0 353 0 353 0 C353 0 377 0 377 0 C377 0 377 15 377 15 L377 15 Z " />
<glyph glyph-name="U" unicode="U" horiz-adv-x="587" d="M561 660 C561 660 534 660 534 660 C534 660 526 660 526 660 C526 660 517 660 517 660 C517 660 489 660 489 660 C489 660 489 645 489 645 C489 645 493 645 493 645 C507 645 517 615 517 570 C517 570 517 184 517 184 C517 86 461 20 316 20 C189 20 140 90 140 194 C140 194 140 580 140 580 C140 619 148 645 160 645 C160 645 164 645 164 645 C164 645 164 660 164 660 C164 660 140 660 140 660 C140 660 104 660 104 660 C104 660 68 660 68 660 C68 660 44 660 44 660 C44 660 44 645 44 645 C44 645 48 645 48 645 C60 645 68 619 68 580 C68 580 68 208 68 208 C68 80 135 -5 306 -5 C470 -5 534 68 534 178 C534 178 534 570 534 570 C534 615 543 645 557 645 C557 645 561 645 561 645 C561 645 561 660 561 660 L561 660 Z " />
<glyph glyph-name="V" unicode="V" horiz-adv-x="609" d="M566 660 C566 660 547 660 547 660 C547 660 539 660 539 660 C539 660 531 660 531 660 C531 660 493 660 493 660 C492 660 492 657 493 653 C492 648 492 645 493 645 C493 645 498 645 498 645 C514 645 513 607 494 550 C494 550 495 550 495 550 C495 550 334 62 334 62 C334 62 143 580 143 580 C143 580 144 580 144 580 C129 619 128 645 142 645 C142 645 146 645 146 645 C146 645 146 660 146 660 C146 660 114 660 114 660 C114 660 75 660 75 660 C75 660 35 660 35 660 C35 660 22 660 22 660 C22 660 22 645 22 645 C22 645 25 645 25 645 C35 645 52 619 67 580 C67 580 67 580 67 580 C67 580 308 -15 308 -15 C308 -15 322 -15 322 -15 C322 -15 520 580 520 580 C520 580 521 580 521 580 C534 619 551 645 563 645 C563 645 566 645 566 645 C566 645 566 660 566 660 L566 660 Z " />
<glyph glyph-name="W" unicode="W" horiz-adv-x="900" d="M801 645 C801 645 805 645 805 645 C820 645 823 619 811 580 C811 580 811 580 811 580 C811 580 643 -15 643 -15 C643 -15 667 73 667 73 C667 73 479 670 479 670 C479 670 465 670 465 670 C465 670 290 67 290 67 C290 67 137 591 137 591 C129 624 131 645 142 645 C142 645 146 645 146 645 C146 645 146 660 146 660 C146 660 117 660 117 660 C117 660 78 660 78 660 C78 660 38 660 38 660 C38 660 24 660 24 660 C24 660 24 645 24 645 C24 645 27 645 27 645 C37 645 52 619 65 580 C65 580 65 580 65 580 C65 580 266 -15 266 -15 C266 -15 279 -15 279 -15 C279 -15 479 670 479 670 C479 670 452 577 452 577 C452 577 643 -15 643 -15 C643 -15 656 -15 656 -15 C656 -15 828 580 828 580 C828 580 828 580 828 580 C839 619 855 645 867 645 C867 645 870 645 870 645 C871 645 871 648 870 653 C871 657 871 660 870 660 C870 660 851 660 851 660 C851 660 842 660 842 660 C842 660 834 660 834 660 C834 660 801 660 801 660 C801 660 801 645 801 645 L801 645 Z " />
<glyph glyph-name="X" unicode="X" horiz-adv-x="640" d="M492 645 C492 645 496 645 496 645 C507 645 500 622 478 587 C478 587 335 372 335 372 C335 372 197 580 197 580 C197 580 197 580 197 580 C171 619 162 645 173 645 C173 645 176 645 176 645 C176 645 176 660 176 660 C176 660 144 660 144 660 C144 660 103 660 103 660 C103 660 62 660 62 660 C62 660 55 660 55 660 C54 660 54 657 55 653 C54 648 54 645 55 645 C55 645 57 645 57 645 C66 645 88 621 113 583 C113 583 286 322 286 322 C286 322 124 65 124 65 C103 34 83 15 73 15 C73 15 69 15 69 15 C69 15 69 0 69 0 C69 0 83 0 83 0 C83 0 97 0 97 0 C97 0 110 0 110 0 C110 0 145 0 145 0 C145 0 145 15 145 15 C145 15 141 15 141 15 C129 15 137 41 160 81 C160 81 297 305 297 305 C297 305 446 80 446 80 C446 80 446 80 446 80 C472 41 482 15 470 15 C470 15 467 15 467 15 C467 15 467 0 467 0 C467 0 499 0 499 0 C499 0 540 0 540 0 C540 0 581 0 581 0 C581 0 589 0 589 0 C589 0 589 15 589 15 C589 15 586 15 586 15 C577 15 555 39 530 77 C530 77 346 355 346 355 C346 355 346 355 346 355 C346 355 506 588 506 588 C531 623 554 645 565 645 C565 645 568 645 568 645 C569 645 569 648 568 653 C569 657 569 660 568 660 C568 660 555 660 555 660 C555 660 541 660 541 660 C541 660 527 660 527 660 C527 660 492 660 492 660 C492 660 492 645 492 645 L492 645 Z " />
<glyph glyph-name="Y" unicode="Y" horiz-adv-x="564" d="M348 15 C348 15 345 15 345 15 C333 15 325 41 324 80 C324 80 324 302 324 302 C324 302 324 302 324 302 C324 302 489 580 489 580 C489 580 490 580 490 580 C513 619 535 645 546 645 C546 645 549 645 549 645 C549 645 549 660 549 660 C549 660 537 660 537 660 C537 660 529 660 529 660 C529 660 521 660 521 660 C521 660 486 660 486 660 C486 660 486 645 486 645 C486 645 489 645 489 645 C502 645 493 614 466 566 C466 566 310 302 310 302 C310 302 299 302 299 302 C299 302 165 580 165 580 C165 580 165 580 165 580 C146 619 140 645 151 645 C151 645 155 645 155 645 C155 645 155 660 155 660 C155 660 126 660 126 660 C126 660 83 660 83 660 C83 660 40 660 40 660 C40 660 30 660 30 660 C30 660 30 645 30 645 C30 645 33 645 33 645 C42 645 62 619 83 580 C83 580 83 580 83 580 C83 580 252 268 252 268 C252 268 252 80 252 80 C252 41 244 15 232 15 C232 15 229 15 229 15 C229 15 229 0 229 0 C229 0 252 0 252 0 C252 0 288 0 288 0 C288 0 324 0 324 0 C324 0 348 0 348 0 C348 0 348 15 348 15 L348 15 Z " />
<glyph glyph-name="Z" unicode="Z" horiz-adv-x="590" d="M519 9 C522 26 525 47 528 64 C528 64 525 64 525 64 C516 66 510 66 509 66 C484 37 435 19 375 19 C375 19 147 19 147 19 C147 19 536 660 536 660 C536 660 495 660 495 660 C495 660 454 660 454 660 C454 660 201 660 201 660 C201 660 135 660 135 660 C135 660 121 660 121 660 C121 658 120 654 119 651 C115 637 110 618 106 604 C106 604 118 604 118 604 C118 604 127 610 127 610 C157 629 208 642 257 642 C257 642 443 642 443 642 C443 642 55 0 55 0 C55 0 95 0 95 0 C95 0 135 0 135 0 C135 0 437 0 437 0 C437 0 516 0 516 0 C516 0 517 0 517 0 C518 3 518 7 519 9 L519 9 Z " />
<glyph glyph-name="bracketleft" unicode="&#x5b;" horiz-adv-x="245" d="M123 649 C123 649 228 649 228 649 C228 649 228 660 228 660 C228 660 123 660 123 660 C123 660 84 660 84 660 C84 660 84 -120 84 -120 C84 -120 123 -120 123 -120 C123 -120 228 -120 228 -120 C228 -120 228 -109 228 -109 C228 -109 123 -109 123 -109 C123 -109 123 649 123 649 L123 649 Z " />
<glyph glyph-name="backslash" unicode="&#x5c;" horiz-adv-x="238" d="M214 -145 C214 -145 232 -145 232 -145 C232 -145 -36 710 -36 710 C-36 710 -53 710 -53 710 C-53 710 214 -145 214 -145 L214 -145 Z " />
<glyph glyph-name="bracketright" unicode="&#x5d;" horiz-adv-x="225" d="M110 649 C110 649 110 -109 110 -109 C110 -109 5 -109 5 -109 C5 -109 5 -120 5 -120 C5 -120 110 -120 110 -120 C110 -120 149 -120 149 -120 C149 -120 149 660 149 660 C149 660 110 660 110 660 C110 660 5 660 5 660 C5 660 5 649 5 649 C5 649 110 649 110 649 L110 649 Z " />
<glyph glyph-name="underscore" unicode="&#x5f;" horiz-adv-x="461" d="M12 -50 C12 -50 12 -78 12 -78 C12 -78 450 -78 450 -78 C450 -78 450 -50 450 -50 C450 -50 12 -50 12 -50 L12 -50 Z " />
<glyph glyph-name="a" unicode="a" horiz-adv-x="496" d="M468 37 C453 23 438 14 416 14 C385 14 377 37 377 73 C377 73 377 359 377 359 C377 447 329 505 257 505 C117 505 45 446 77 356 C77 356 127 356 127 356 C98 437 145 491 246 491 C293 491 324 443 324 371 C324 371 324 250 324 250 C324 250 208 234 208 234 C108 220 42 167 42 102 C42 38 88 -5 157 -5 C214 -5 278 23 324 66 C324 21 337 -10 381 -10 C422 -10 449 6 473 30 C473 30 468 37 468 37 L468 37 Z M324 238 C324 238 324 77 324 77 C287 47 234 28 182 28 C128 28 92 63 92 116 C92 165 138 206 208 218 C208 218 324 238 324 238 L324 238 Z " />
<glyph glyph-name="b" unicode="b" horiz-adv-x="527" d="M25 691 C46 670 49 654 49 597 C49 597 49 0 49 0 C49 0 55 0 55 0 C60 14 73 24 88 24 C130 24 168 4 218 -3 C229 -4 240 -5 251 -5 C394 -5 489 96 489 248 C489 402 403 505 273 505 C193 505 125 468 99 412 C99 412 99 610 99 610 C99 610 99 707 99 707 C99 707 99 720 99 720 C99 720 89 720 89 720 C89 720 25 700 25 700 C25 700 25 691 25 691 L25 691 Z M99 397 C119 449 173 483 234 483 C356 483 437 380 437 225 C437 96 363 9 251 9 C160 9 99 59 99 133 C99 133 99 397 99 397 L99 397 Z " />
<glyph glyph-name="c" unicode="c" horiz-adv-x="454" d="M408 121 C408 121 402 124 402 124 C373 65 318 25 263 25 C157 25 87 117 87 254 C87 396 162 491 274 491 C323 491 358 456 362 404 C363 389 373 379 387 379 C400 379 409 388 409 401 C404 463 352 505 280 505 C132 505 34 397 34 235 C34 91 109 -5 221 -5 C297 -5 372 45 408 121 L408 121 Z " />
<glyph glyph-name="d" unicode="d" horiz-adv-x="537" d="M480 29 C460 49 456 67 456 123 C456 123 456 610 456 610 C456 610 456 707 456 707 C456 707 456 720 456 720 C456 720 446 720 446 720 C446 720 382 700 382 700 C382 700 382 691 382 691 C403 670 406 654 406 597 C406 597 406 423 406 423 C377 473 320 505 245 505 C114 505 26 393 26 225 C26 87 106 -5 226 -5 C308 -5 377 27 406 75 C406 75 406 13 406 13 C406 13 406 0 406 0 C406 0 416 0 416 0 C416 0 480 20 480 20 C480 20 480 29 480 29 L480 29 Z M406 110 C406 110 406 87 406 87 C386 50 327 26 253 26 C148 26 78 113 78 244 C78 392 144 491 243 491 C326 491 387 449 406 388 C406 388 406 110 406 110 L406 110 Z " />
<glyph glyph-name="e" unicode="e" horiz-adv-x="471" d="M414 121 C414 121 407 124 407 124 C379 65 322 25 265 25 C158 25 86 117 86 254 C86 279 88 302 92 324 C92 324 415 324 415 324 C415 433 348 505 247 505 C119 505 33 397 33 235 C33 91 109 -5 223 -5 C302 -5 378 45 414 121 L414 121 Z M93 333 C113 430 168 491 244 491 C318 491 368 441 368 366 C368 352 359 342 344 342 C344 342 368 342 368 342 C368 342 93 333 93 333 L93 333 Z " />
<glyph glyph-name="f" unicode="f" horiz-adv-x="307" d="M159 15 C159 15 156 15 156 15 C144 15 135 41 135 80 C135 80 135 481 135 481 C135 481 270 481 270 481 C270 481 270 500 270 500 C270 500 135 500 135 500 C135 500 135 533 135 533 C135 638 178 709 242 709 C274 709 297 690 299 660 C300 647 310 638 324 638 C338 638 347 647 347 660 C343 696 307 720 256 720 C162 720 95 650 88 544 C88 544 85 500 85 500 C85 500 1 500 1 500 C1 500 1 481 1 481 C1 481 85 481 85 481 C85 481 85 80 85 80 C85 41 77 15 65 15 C65 15 61 15 61 15 C61 15 61 0 61 0 C61 0 85 0 85 0 C85 0 110 0 110 0 C110 0 135 0 135 0 C135 0 159 0 159 0 C159 0 159 15 159 15 L159 15 Z " />
<glyph glyph-name="g" unicode="g" horiz-adv-x="480" d="M474 500 C474 500 337 490 337 490 C337 490 337 490 337 490 C313 500 284 505 253 505 C147 505 76 443 76 350 C76 277 120 222 191 203 C112 201 59 165 59 112 C59 69 89 37 137 25 C73 -6 34 -57 34 -111 C34 -187 93 -238 182 -238 C345 -238 454 -162 454 -49 C454 22 383 70 276 70 C276 70 198 67 198 67 C134 63 92 89 92 131 C92 170 134 195 198 195 C198 195 253 195 253 195 C359 195 430 257 430 350 C430 401 408 443 371 470 C371 470 474 472 474 472 C474 472 474 500 474 500 L474 500 Z M123 350 C123 436 175 494 253 494 C331 494 383 436 383 350 C383 264 331 206 253 206 C175 206 123 264 123 350 L123 350 Z M150 22 C166 20 182 19 200 20 C200 20 262 22 262 22 C356 22 418 -17 418 -74 C418 -165 326 -225 187 -225 C115 -225 67 -177 67 -105 C67 -53 99 -6 150 22 C150 22 150 22 150 22 L150 22 Z " />
<glyph glyph-name="h" unicode="h" horiz-adv-x="531" d="M485 15 C485 15 481 15 481 15 C469 15 461 41 461 80 C461 80 461 336 461 336 C461 438 426 505 335 505 C239 505 158 461 125 394 C125 394 125 610 125 610 C125 610 125 707 125 707 C125 707 125 720 125 720 C125 720 115 720 115 720 C115 720 52 700 52 700 C52 700 52 691 52 691 C70 666 75 655 75 597 C75 597 75 80 75 80 C75 41 67 15 55 15 C55 15 52 15 52 15 C52 15 52 0 52 0 C52 0 75 0 75 0 C75 0 100 0 100 0 C100 0 125 0 125 0 C125 0 149 0 149 0 C149 0 149 15 149 15 C149 15 146 15 146 15 C134 15 126 41 125 80 C125 80 125 382 125 382 C150 436 216 471 296 471 C379 471 411 415 411 331 C411 331 411 80 411 80 C411 41 403 15 391 15 C391 15 387 15 387 15 C387 15 387 0 387 0 C387 0 411 0 411 0 C411 0 436 0 436 0 C436 0 461 0 461 0 C461 0 485 0 485 0 C485 0 485 15 485 15 L485 15 Z " />
<glyph glyph-name="i" unicode="i" horiz-adv-x="201" d="M52 471 C73 450 76 434 76 377 C76 377 76 80 76 80 C76 41 68 15 56 15 C56 15 52 15 52 15 C52 15 52 0 52 0 C52 0 76 0 76 0 C76 0 101 0 101 0 C101 0 126 0 126 0 C126 0 150 0 150 0 C150 0 150 15 150 15 C150 15 146 15 146 15 C134 15 126 41 126 80 C126 80 126 390 126 390 C126 390 126 487 126 487 C126 487 126 500 126 500 C126 500 116 500 116 500 C116 500 52 480 52 480 C52 480 52 471 52 471 L52 471 Z M98 570 C118 570 131 583 131 603 C131 624 118 637 98 637 C78 637 65 624 65 603 C65 583 78 570 98 570 L98 570 Z " />
<glyph glyph-name="j" unicode="j" horiz-adv-x="201" d="M52 471 C70 453 75 438 76 397 C76 397 75 8 75 8 C75 -131 48 -174 -33 -225 C-33 -225 -29 -232 -29 -232 C87 -159 126 -110 126 22 C126 22 126 390 126 390 C126 390 126 487 126 487 C126 487 126 500 126 500 C126 500 116 500 116 500 C116 500 52 480 52 480 C52 480 52 471 52 471 L52 471 Z M98 570 C118 570 131 583 131 603 C131 624 118 637 98 637 C78 637 65 624 65 603 C65 583 78 570 98 570 L98 570 Z " />
<glyph glyph-name="k" unicode="k" horiz-adv-x="447" d="M467 15 C467 15 463 15 463 15 C451 15 419 41 383 80 C383 80 383 80 383 80 C383 80 178 301 178 301 C178 301 334 435 334 435 C372 465 402 485 412 485 C412 485 416 485 416 485 C416 485 416 500 416 500 C416 500 410 500 410 500 C410 500 398 500 398 500 C398 500 387 500 387 500 C387 500 363 500 363 500 C364 500 364 497 363 493 C364 488 364 485 363 485 C363 485 364 485 364 485 C368 485 341 459 297 420 C297 420 297 420 297 420 C297 420 134 275 134 275 C134 275 134 610 134 610 C134 610 134 707 134 707 C134 707 134 720 134 720 C134 720 124 720 124 720 C124 720 60 700 60 700 C60 700 60 691 60 691 C81 670 84 654 84 597 C84 597 84 80 84 80 C84 41 76 15 64 15 C64 15 60 15 60 15 C60 15 60 0 60 0 C60 0 84 0 84 0 C84 0 109 0 109 0 C109 0 134 0 134 0 C134 0 158 0 158 0 C158 0 158 15 158 15 C158 15 155 15 155 15 C143 15 134 41 134 80 C134 80 134 275 134 275 C134 275 139 268 139 268 C139 268 140 269 140 269 C140 269 319 80 319 80 C319 80 319 80 319 80 C356 41 378 15 372 15 C372 15 371 15 371 15 C371 15 371 0 371 0 C371 0 395 0 395 0 C395 0 426 0 426 0 C426 0 457 0 457 0 C457 0 467 0 467 0 C467 0 467 15 467 15 L467 15 Z " />
<glyph glyph-name="l" unicode="l" horiz-adv-x="201" d="M52 691 C73 670 76 654 76 597 C76 597 76 80 76 80 C76 41 68 15 56 15 C56 15 52 15 52 15 C52 15 52 0 52 0 C52 0 76 0 76 0 C76 0 101 0 101 0 C101 0 126 0 126 0 C126 0 150 0 150 0 C150 0 150 15 150 15 C150 15 146 15 146 15 C134 15 126 41 126 80 C126 80 126 610 126 610 C126 610 126 707 126 707 C126 707 126 720 126 720 C126 720 116 720 116 720 C116 720 52 700 52 700 C52 700 52 691 52 691 L52 691 Z " />
<glyph glyph-name="m" unicode="m" horiz-adv-x="887" d="M840 15 C840 15 837 15 837 15 C825 15 817 41 816 80 C816 80 816 336 816 336 C816 438 758 505 682 505 C572 505 496 465 462 402 C443 466 397 505 341 505 C232 505 157 461 125 394 C125 394 125 407 125 407 C125 407 125 500 125 500 C125 500 115 500 115 500 C115 500 52 480 52 480 C52 480 52 471 52 471 C70 446 75 435 75 377 C75 377 75 80 75 80 C75 41 67 15 55 15 C55 15 52 15 52 15 C52 15 52 0 52 0 C52 0 75 0 75 0 C75 0 100 0 100 0 C100 0 125 0 125 0 C125 0 149 0 149 0 C149 0 149 15 149 15 C149 15 146 15 146 15 C134 15 126 41 125 80 C125 80 125 382 125 382 C149 438 212 475 302 475 C370 475 421 417 421 331 C421 331 421 80 421 80 C421 41 413 15 401 15 C401 15 397 15 397 15 C397 15 397 0 397 0 C397 0 421 0 421 0 C421 0 446 0 446 0 C446 0 471 0 471 0 C471 0 495 0 495 0 C495 0 495 15 495 15 C495 15 491 15 491 15 C479 15 471 41 471 80 C471 80 471 336 471 336 C471 356 469 374 465 391 C492 440 554 471 643 471 C713 471 766 415 766 331 C766 331 766 80 766 80 C766 41 758 15 746 15 C746 15 743 15 743 15 C743 15 743 0 743 0 C743 0 766 0 766 0 C766 0 791 0 791 0 C791 0 816 0 816 0 C816 0 840 0 840 0 C840 0 840 15 840 15 L840 15 Z " />
<glyph glyph-name="n" unicode="n" horiz-adv-x="531" d="M485 15 C485 15 481 15 481 15 C469 15 461 41 461 80 C461 80 461 336 461 336 C461 438 426 505 335 505 C239 505 158 461 125 394 C125 394 125 407 125 407 C125 407 125 500 125 500 C125 500 115 500 115 500 C115 500 52 480 52 480 C52 480 52 471 52 471 C70 446 75 435 75 377 C75 377 75 80 75 80 C75 41 67 15 55 15 C55 15 52 15 52 15 C52 15 52 0 52 0 C52 0 75 0 75 0 C75 0 100 0 100 0 C100 0 125 0 125 0 C125 0 149 0 149 0 C149 0 149 15 149 15 C149 15 146 15 146 15 C134 15 126 41 125 80 C125 80 125 382 125 382 C150 436 216 471 296 471 C379 471 411 415 411 331 C411 331 411 80 411 80 C411 41 403 15 391 15 C391 15 387 15 387 15 C387 15 387 0 387 0 C387 0 411 0 411 0 C411 0 436 0 436 0 C436 0 461 0 461 0 C461 0 485 0 485 0 C485 0 485 15 485 15 L485 15 Z " />
<glyph glyph-name="o" unicode="o" horiz-adv-x="578" d="M289 6 C176 6 100 104 100 250 C100 396 176 494 289 494 C403 494 478 396 478 250 C478 104 403 6 289 6 L289 6 Z M45 250 C45 97 143 -5 289 -5 C436 -5 534 97 534 250 C534 403 436 505 289 505 C143 505 45 403 45 250 L45 250 Z " />
<glyph glyph-name="p" unicode="p" horiz-adv-x="572" d="M41 471 C59 446 64 435 64 377 C64 377 64 -150 64 -150 C64 -189 56 -215 44 -215 C44 -215 41 -215 41 -215 C41 -215 41 -230 41 -230 C41 -230 64 -230 64 -230 C64 -230 89 -230 89 -230 C89 -230 114 -230 114 -230 C114 -230 138 -230 138 -230 C138 -230 138 -215 138 -215 C138 -215 135 -215 135 -215 C123 -215 115 -189 114 -150 C114 -150 114 69 114 69 C145 22 202 -5 275 -5 C424 -5 523 100 523 258 C523 406 440 505 315 505 C211 505 135 464 114 399 C114 399 114 407 114 407 C114 407 113 407 113 407 C113 407 108 500 108 500 C108 500 98 500 98 500 C98 500 41 480 41 480 C41 480 41 471 41 471 L41 471 Z M114 156 C114 156 114 374 114 374 C126 433 188 471 277 471 C395 471 473 370 473 219 C473 93 394 9 275 9 C178 9 114 68 114 156 C114 156 114 156 114 156 L114 156 Z " />
<glyph glyph-name="q" unicode="q" horiz-adv-x="553" d="M501 -215 C501 -215 498 -215 498 -215 C486 -215 478 -189 477 -150 C477 -150 477 500 477 500 C477 500 472 500 472 500 C467 483 453 471 436 471 C392 471 354 496 300 503 C292 504 283 505 274 505 C138 505 48 393 48 225 C48 87 126 -5 242 -5 C325 -5 397 31 427 87 C427 87 427 -150 427 -150 C427 -189 419 -215 407 -215 C407 -215 404 -215 404 -215 C404 -215 404 -230 404 -230 C404 -230 427 -230 427 -230 C427 -230 452 -230 452 -230 C452 -230 477 -230 477 -230 C477 -230 501 -230 501 -230 C501 -230 501 -215 501 -215 L501 -215 Z M427 102 C408 56 346 26 269 26 C168 26 100 113 100 244 C100 392 169 491 274 491 C366 491 427 431 427 340 C427 340 427 102 427 102 L427 102 Z " />
<glyph glyph-name="r" unicode="r" horiz-adv-x="377" d="M52 471 C70 446 75 435 75 377 C75 377 75 80 75 80 C75 41 67 15 55 15 C55 15 52 15 52 15 C52 15 52 0 52 0 C52 0 75 0 75 0 C75 0 100 0 100 0 C100 0 125 0 125 0 C125 0 149 0 149 0 C149 0 149 15 149 15 C149 15 146 15 146 15 C134 15 126 41 125 80 C125 80 125 376 125 376 C142 432 184 468 234 468 C266 468 304 446 337 446 C351 446 360 455 360 470 C360 491 336 505 274 505 C204 505 146 457 125 384 C125 384 125 390 125 390 C125 390 125 407 125 407 C125 407 124 407 124 407 C124 407 119 500 119 500 C119 500 109 500 109 500 C109 500 52 480 52 480 C52 480 52 471 52 471 L52 471 Z " />
<glyph glyph-name="s" unicode="s" horiz-adv-x="434" d="M53 99 C53 99 53 62 53 62 C80 22 149 -5 225 -5 C317 -5 378 51 378 136 C378 185 328 237 252 268 C166 302 109 353 109 395 C109 454 153 494 219 494 C232 494 246 492 259 487 C259 487 259 487 259 487 C287 477 318 448 337 413 C337 413 344 399 344 399 C344 399 356 399 356 399 C356 399 356 433 356 433 C356 433 349 428 349 428 C349 428 349 428 349 428 C349 428 356 433 356 433 C327 476 272 505 219 505 C130 505 71 454 71 378 C71 326 129 268 216 232 C288 203 336 157 336 117 C336 51 293 6 227 6 C215 6 203 7 191 8 C191 8 191 9 191 9 C148 14 102 44 75 83 C72 88 68 94 64 99 C64 99 53 99 53 99 L53 99 Z " />
<glyph glyph-name="t" unicode="t" horiz-adv-x="358" d="M320 500 C320 500 161 500 161 500 C161 500 161 640 161 640 C161 640 153 640 153 640 C153 640 115 495 115 495 C115 495 115 495 115 495 C115 495 135 572 135 572 C123 527 83 492 34 486 C34 486 32 486 32 486 C32 486 32 481 32 481 C32 481 111 481 111 481 C111 481 111 111 111 111 C111 21 130 -5 198 -5 C253 -5 294 40 331 107 C331 107 326 110 326 110 C296 54 264 17 223 17 C175 17 161 36 161 102 C161 102 161 481 161 481 C161 481 320 481 320 481 C320 481 320 500 320 500 L320 500 Z " />
<glyph glyph-name="u" unicode="u" horiz-adv-x="496" d="M455 29 C434 50 431 66 431 123 C431 123 431 500 431 500 C431 500 406 500 406 500 C406 500 381 500 381 500 C381 500 357 500 357 500 C357 500 357 485 357 485 C357 485 361 485 361 485 C373 485 381 459 381 420 C381 420 381 110 381 110 C381 110 381 99 381 99 C362 56 317 28 236 28 C143 28 95 81 95 161 C95 161 95 500 95 500 C95 500 70 500 70 500 C70 500 45 500 45 500 C45 500 22 500 22 500 C22 500 22 485 22 485 C22 485 25 485 25 485 C37 485 45 459 45 420 C45 420 45 420 45 420 C45 420 46 156 46 156 C46 59 97 -5 197 -5 C295 -5 353 31 381 86 C381 86 381 13 381 13 C381 13 381 0 381 0 C381 0 391 0 391 0 C391 0 455 20 455 20 C455 20 455 29 455 29 L455 29 Z " />
<glyph glyph-name="v" unicode="v" horiz-adv-x="470" d="M436 500 C436 500 418 500 418 500 C418 500 410 500 410 500 C410 500 401 500 401 500 C401 500 377 500 377 500 C377 500 377 485 377 485 C377 485 380 485 380 485 C389 485 386 459 372 420 C372 420 372 420 372 420 C372 420 241 53 241 53 C241 53 113 420 113 420 C113 420 113 420 113 420 C99 459 97 485 106 485 C106 485 109 485 109 485 C108 485 108 488 109 493 C108 497 108 500 109 500 C109 500 85 500 85 500 C85 500 56 500 56 500 C56 500 27 500 27 500 C27 500 9 500 9 500 C9 500 9 485 9 485 C9 485 13 485 13 485 C24 485 40 463 53 430 C53 430 218 -10 218 -10 C218 -10 226 -10 226 -10 C226 -10 388 420 388 420 C388 420 388 420 388 420 C403 459 421 485 432 485 C432 485 436 485 436 485 C436 485 436 500 436 500 L436 500 Z " />
<glyph glyph-name="w" unicode="w" horiz-adv-x="723" d="M709 500 C709 500 695 500 695 500 C695 500 678 500 678 500 C678 500 645 500 645 500 C645 500 645 485 645 485 C645 485 651 485 651 485 C663 485 667 474 649 419 C649 419 518 53 518 53 C518 53 393 411 393 411 C393 411 393 411 393 411 C393 411 393 411 393 411 C393 411 381 445 381 445 C372 478 377 485 386 485 C386 485 392 485 392 485 C392 485 392 500 392 500 C392 500 362 500 362 500 C362 500 305 500 305 500 C305 500 293 500 293 500 C293 500 293 485 293 485 C293 485 298 485 298 485 C305 485 315 473 339 408 C339 408 339 408 339 408 C339 408 367 333 367 333 C367 333 367 333 367 333 C367 333 265 53 265 53 C265 53 140 411 140 411 C140 411 140 411 140 411 C140 411 140 411 140 411 C140 411 127 448 127 448 C118 478 123 485 131 485 C131 485 136 485 136 485 C136 485 136 500 136 500 C136 500 109 500 109 500 C109 500 51 500 51 500 C51 500 38 500 38 500 C38 500 38 485 38 485 C38 485 43 485 43 485 C49 485 58 477 73 440 C73 440 242 -10 242 -10 C242 -10 250 -10 250 -10 C250 -10 373 319 373 319 C373 319 495 -10 495 -10 C495 -10 503 -10 503 -10 C503 -10 659 404 659 404 C659 404 659 404 659 404 C660 406 661 409 662 411 C662 411 671 436 671 436 C687 476 696 485 703 485 C703 485 709 485 709 485 C709 485 709 500 709 500 L709 500 Z " />
<glyph glyph-name="x" unicode="x" horiz-adv-x="520" d="M380 485 C380 485 383 485 383 485 C395 485 384 459 356 420 C356 420 356 420 356 420 C356 420 269 294 269 294 C269 294 162 441 162 441 C144 468 137 485 145 485 C145 485 147 485 147 485 C147 485 147 500 147 500 C147 500 119 500 119 500 C119 500 88 500 88 500 C88 500 57 500 57 500 C57 500 49 500 49 500 C49 500 49 485 49 485 C49 485 52 485 52 485 C61 485 81 465 105 434 C105 434 238 253 238 253 C238 253 113 68 113 68 C90 36 67 15 55 15 C55 15 51 15 51 15 C51 15 51 0 51 0 C51 0 68 0 68 0 C68 0 77 0 77 0 C77 0 85 0 85 0 C85 0 123 0 123 0 C123 0 123 15 123 15 C123 15 119 15 119 15 C107 15 111 36 129 67 C129 67 245 243 245 243 C245 243 378 62 378 62 C397 33 407 15 401 15 C401 15 399 15 399 15 C399 15 399 0 399 0 C399 0 423 0 423 0 C423 0 454 0 454 0 C454 0 484 0 484 0 C484 0 489 0 489 0 C489 0 489 15 489 15 C489 15 487 15 487 15 C478 15 454 41 426 80 C426 80 426 80 426 80 C426 80 275 286 275 286 C275 286 381 433 381 433 C405 465 427 485 438 485 C438 485 442 485 442 485 C441 485 441 488 442 493 C441 497 441 500 442 500 C442 500 429 500 429 500 C429 500 420 500 420 500 C420 500 412 500 412 500 C412 500 380 500 380 500 C380 500 380 485 380 485 L380 485 Z " />
<glyph glyph-name="y" unicode="y" horiz-adv-x="446" d="M448 500 C448 500 430 500 430 500 C430 500 422 500 422 500 C422 500 413 500 413 500 C413 500 389 500 389 500 C389 500 389 485 389 485 C389 485 392 485 392 485 C401 485 398 459 384 420 C384 420 384 420 384 420 C384 420 253 53 253 53 C253 53 125 420 125 420 C125 420 125 420 125 420 C111 459 109 485 118 485 C118 485 121 485 121 485 C120 485 120 488 121 493 C120 497 120 500 121 500 C121 500 97 500 97 500 C97 500 68 500 68 500 C68 500 39 500 39 500 C39 500 21 500 21 500 C21 500 21 485 21 485 C21 485 25 485 25 485 C36 485 52 463 65 430 C65 430 227 -3 227 -3 C227 -3 202 -67 202 -67 C167 -161 140 -197 105 -197 C83 -197 61 -173 39 -173 C24 -173 14 -181 14 -194 C14 -216 38 -230 74 -230 C132 -230 172 -186 215 -72 C215 -72 238 -10 238 -10 C238 -10 400 420 400 420 C400 420 400 420 400 420 C415 459 433 485 444 485 C444 485 448 485 448 485 C448 485 448 500 448 500 L448 500 Z " />
<glyph glyph-name="z" unicode="z" horiz-adv-x="497" d="M214 488 C214 488 214 488 214 488 C214 488 376 489 376 489 C376 489 63 0 63 0 C63 0 93 0 93 0 C93 0 122 0 122 0 C122 0 349 0 349 0 C349 0 426 0 426 0 C426 0 429 0 429 0 C429 2 429 4 430 6 C432 21 436 42 439 57 C439 57 435 57 435 57 C426 58 420 59 420 59 C420 59 413 52 413 52 C391 28 340 11 286 11 C286 11 129 11 129 11 C129 11 441 500 441 500 C441 500 412 500 412 500 C412 500 383 500 383 500 C383 500 158 500 158 500 C158 500 91 500 91 500 C91 500 78 500 78 500 C77 498 76 496 76 494 C73 484 70 470 67 460 C67 460 79 460 79 460 C110 476 160 488 214 488 C214 488 214 488 214 488 L214 488 Z " />
<glyph glyph-name="braceleft" unicode="&#x7b;" horiz-adv-x="255" d="M234 -120 C234 -120 234 -112 234 -112 C234 -112 205 -112 205 -112 C145 -112 106 -65 106 5 C106 5 106 175 106 175 C106 228 81 264 41 270 C81 276 106 313 106 366 C106 366 106 535 106 535 C106 605 145 652 205 652 C205 652 234 652 234 652 C234 652 234 660 234 660 C234 660 194 660 194 660 C117 660 67 610 67 535 C67 535 67 338 67 338 C67 300 47 274 17 274 C17 274 12 274 12 274 C12 274 12 266 12 266 C12 266 17 266 17 266 C47 266 67 241 67 203 C67 203 67 5 67 5 C67 -70 117 -120 194 -120 C194 -120 234 -120 234 -120 L234 -120 Z " />
<glyph glyph-name="bar" unicode="&#x7c;" horiz-adv-x="172" d="M67 770 C67 770 67 -234 67 -234 C67 -234 106 -234 106 -234 C106 -234 106 770 106 770 C106 770 67 770 67 770 L67 770 Z " />
<glyph glyph-name="braceright" unicode="&#x7d;" horiz-adv-x="255" d="M12 660 C12 660 12 652 12 652 C12 652 41 652 41 652 C100 652 140 605 140 535 C140 535 140 365 140 365 C140 312 165 276 205 270 C165 264 140 227 140 174 C140 174 140 5 140 5 C140 -65 100 -112 41 -112 C41 -112 12 -112 12 -112 C12 -112 12 -120 12 -120 C12 -120 52 -120 52 -120 C128 -120 179 -70 179 5 C179 5 179 202 179 202 C179 240 199 266 229 266 C229 266 234 266 234 266 C234 266 234 274 234 274 C234 274 229 274 229 274 C199 274 179 299 179 337 C179 337 179 535 179 535 C179 610 128 660 52 660 C52 660 12 660 12 660 L12 660 Z " />
<glyph glyph-name="[namenotfound]" unicode="&#xa0;" horiz-adv-x="220" d="" />
<glyph glyph-name="exclamdown" unicode="&#xa1;" horiz-adv-x="197" d="M94 505 C73 505 58 491 58 469 C58 447 73 433 94 433 C116 433 130 447 130 469 C130 491 116 505 94 505 L94 505 Z M67 -120 C65 -147 77 -165 97 -165 C118 -165 130 -147 128 -120 C128 -120 97 358 97 358 C97 358 91 358 91 358 C91 358 67 -120 67 -120 L67 -120 Z " />
<glyph glyph-name="cent" unicode="&#xa2;" horiz-adv-x="489" d="M279 575 C279 575 279 504 279 504 C144 493 57 388 57 235 C57 91 132 -5 244 -5 C256 -5 267 -4 279 -2 C279 -2 279 -75 279 -75 C279 -75 296 -75 296 -75 C296 -75 296 3 296 3 C353 19 403 63 431 121 C431 121 425 124 425 124 C398 69 348 30 296 25 C296 25 296 491 296 491 C296 491 297 491 297 491 C346 491 381 456 385 404 C386 389 396 379 410 379 C423 379 432 388 432 401 C427 463 375 505 303 505 C301 505 298 505 296 505 C296 505 296 575 296 575 C296 575 279 575 279 575 L279 575 Z M279 25 C177 29 110 120 110 254 C110 388 177 480 279 490 C279 490 279 25 279 25 L279 25 Z " />
<glyph glyph-name="guillemotleft" unicode="&#xab;" horiz-adv-x="464" d="M239 250 C239 250 411 459 411 459 C411 459 406 464 406 464 C406 464 186 253 186 253 C186 253 186 247 186 247 C186 247 407 36 407 36 C407 36 412 41 412 41 C412 41 239 250 239 250 L239 250 Z M79 250 C79 250 245 459 245 459 C245 459 239 464 239 464 C239 464 27 253 27 253 C27 253 27 247 27 247 C27 247 241 36 241 36 C241 36 246 41 246 41 C246 41 79 250 79 250 L79 250 Z " />
<glyph glyph-name="guillemotright" unicode="&#xbb;" horiz-adv-x="464" d="M225 250 C225 250 53 459 53 459 C53 459 59 464 59 464 C59 464 278 253 278 253 C278 253 278 247 278 247 C278 247 57 36 57 36 C57 36 52 41 52 41 C52 41 225 250 225 250 L225 250 Z M385 250 C385 250 220 459 220 459 C220 459 225 464 225 464 C225 464 437 253 437 253 C437 253 437 247 437 247 C437 247 224 36 224 36 C224 36 218 41 218 41 C218 41 385 250 385 250 L385 250 Z " />
<glyph glyph-name="questiondown" unicode="&#xbf;" horiz-adv-x="380" d="M234 505 C212 505 198 491 197 469 C198 447 212 433 234 433 C255 433 270 447 270 469 C270 491 255 505 234 505 L234 505 Z M248 140 C248 140 237 353 237 353 C237 353 230 353 230 353 C230 353 221 171 221 171 C221 171 186 171 186 171 C65 171 42 97 42 55 C42 -77 124 -165 249 -165 C299 -165 333 -138 333 -98 C333 -90 321 -85 305 -85 C276 -85 262 -126 233 -126 C125 -126 53 -56 53 50 C53 79 77 132 203 132 C203 132 238 132 238 132 C244 132 248 135 248 140 L248 140 Z " />
<glyph glyph-name="Agrave" unicode="&#xc0;" horiz-adv-x="584" d="M566 15 C566 15 562 15 562 15 C551 15 533 38 518 74 C518 74 286 675 286 675 C286 675 268 675 268 675 C268 675 56 65 56 65 C44 34 30 15 19 15 C19 15 16 15 16 15 C16 15 16 0 16 0 C16 0 34 0 34 0 C34 0 46 0 46 0 C46 0 58 0 58 0 C58 0 93 0 93 0 C93 0 93 15 93 15 C93 15 89 15 89 15 C74 15 74 44 88 89 C88 89 137 235 137 235 C137 235 381 235 381 235 C381 235 445 63 445 63 C453 34 453 15 443 15 C443 15 439 15 439 15 C439 15 439 0 439 0 C439 0 468 0 468 0 C468 0 508 0 508 0 C508 0 547 0 547 0 C547 0 566 0 566 0 C566 0 566 15 566 15 L566 15 Z M263 840 C242 873 227 895 223 895 C215 895 195 881 195 875 C195 870 212 849 238 820 C238 820 351 691 351 691 C351 691 356 695 356 695 C356 695 263 840 263 840 L263 840 Z M374 254 C374 254 144 254 144 254 C144 254 253 578 253 578 C253 578 374 254 374 254 L374 254 Z " />
<glyph glyph-name="Aacute" unicode="&#xc1;" horiz-adv-x="584" d="M215 691 C215 691 325 820 325 820 C350 850 366 871 367 875 C366 881 346 895 338 895 C335 895 320 873 299 840 C299 840 209 695 209 695 C209 695 215 691 215 691 L215 691 Z M566 15 C566 15 562 15 562 15 C551 15 533 38 518 74 C518 74 286 675 286 675 C286 675 268 675 268 675 C268 675 56 65 56 65 C44 34 30 15 19 15 C19 15 16 15 16 15 C16 15 16 0 16 0 C16 0 34 0 34 0 C34 0 46 0 46 0 C46 0 58 0 58 0 C58 0 93 0 93 0 C93 0 93 15 93 15 C93 15 89 15 89 15 C74 15 74 44 88 89 C88 89 137 235 137 235 C137 235 381 235 381 235 C381 235 445 63 445 63 C453 34 453 15 443 15 C443 15 439 15 439 15 C439 15 439 0 439 0 C439 0 468 0 468 0 C468 0 508 0 508 0 C508 0 547 0 547 0 C547 0 566 0 566 0 C566 0 566 15 566 15 L566 15 Z M374 254 C374 254 144 254 144 254 C144 254 253 578 253 578 C253 578 374 254 374 254 L374 254 Z " />
<glyph glyph-name="Acircumflex" unicode="&#xc2;" horiz-adv-x="584" d="M566 15 C566 15 562 15 562 15 C551 15 533 38 518 74 C518 74 286 675 286 675 C286 675 268 675 268 675 C268 675 56 65 56 65 C44 34 30 15 19 15 C19 15 16 15 16 15 C16 15 16 0 16 0 C16 0 34 0 34 0 C34 0 46 0 46 0 C46 0 58 0 58 0 C58 0 93 0 93 0 C93 0 93 15 93 15 C93 15 89 15 89 15 C74 15 74 44 88 89 C88 89 137 235 137 235 C137 235 381 235 381 235 C381 235 445 63 445 63 C453 34 453 15 443 15 C443 15 439 15 439 15 C439 15 439 0 439 0 C439 0 468 0 468 0 C468 0 508 0 508 0 C508 0 547 0 547 0 C547 0 566 0 566 0 C566 0 566 15 566 15 L566 15 Z M277 852 C277 852 390 693 390 693 C390 693 395 698 395 698 C395 698 293 891 293 891 C291 895 285 905 277 905 C270 905 264 895 261 891 C261 891 159 698 159 698 C159 698 164 693 164 693 C164 693 277 852 277 852 L277 852 Z M374 254 C374 254 144 254 144 254 C144 254 253 578 253 578 C253 578 374 254 374 254 L374 254 Z " />
<glyph glyph-name="Atilde" unicode="&#xc3;" horiz-adv-x="584" d="M135 755 C135 795 153 822 180 822 C241 822 300 759 360 759 C400 759 427 796 427 852 C427 852 419 852 419 852 C419 816 400 792 371 792 C310 792 252 855 191 855 C153 855 127 815 127 755 C127 755 135 755 135 755 L135 755 Z M566 15 C566 15 562 15 562 15 C551 15 533 38 518 74 C518 74 286 675 286 675 C286 675 268 675 268 675 C268 675 56 65 56 65 C44 34 30 15 19 15 C19 15 16 15 16 15 C16 15 16 0 16 0 C16 0 34 0 34 0 C34 0 46 0 46 0 C46 0 58 0 58 0 C58 0 93 0 93 0 C93 0 93 15 93 15 C93 15 89 15 89 15 C74 15 74 44 88 89 C88 89 137 235 137 235 C137 235 381 235 381 235 C381 235 445 63 445 63 C453 34 453 15 443 15 C443 15 439 15 439 15 C439 15 439 0 439 0 C439 0 468 0 468 0 C468 0 508 0 508 0 C508 0 547 0 547 0 C547 0 566 0 566 0 C566 0 566 15 566 15 L566 15 Z M374 254 C374 254 144 254 144 254 C144 254 253 578 253 578 C253 578 374 254 374 254 L374 254 Z " />
<glyph glyph-name="Adieresis" unicode="&#xc4;" horiz-adv-x="584" d="M366 730 C385 730 397 742 397 761 C397 779 385 791 366 791 C347 791 335 779 335 761 C335 742 347 730 366 730 L366 730 Z M188 730 C207 730 219 742 219 761 C219 779 207 791 188 791 C170 791 158 779 158 761 C158 742 170 730 188 730 L188 730 Z M566 15 C566 15 562 15 562 15 C551 15 533 38 518 74 C518 74 286 675 286 675 C286 675 268 675 268 675 C268 675 56 65 56 65 C44 34 30 15 19 15 C19 15 16 15 16 15 C16 15 16 0 16 0 C16 0 34 0 34 0 C34 0 46 0 46 0 C46 0 58 0 58 0 C58 0 93 0 93 0 C93 0 93 15 93 15 C93 15 89 15 89 15 C74 15 74 44 88 89 C88 89 137 235 137 235 C137 235 381 235 381 235 C381 235 445 63 445 63 C453 34 453 15 443 15 C443 15 439 15 439 15 C439 15 439 0 439 0 C439 0 468 0 468 0 C468 0 508 0 508 0 C508 0 547 0 547 0 C547 0 566 0 566 0 C566 0 566 15 566 15 L566 15 Z M374 254 C374 254 144 254 144 254 C144 254 253 578 253 578 C253 578 374 254 374 254 L374 254 Z " />
<glyph glyph-name="Aring" unicode="&#xc5;" horiz-adv-x="584" d="M277 706 C234 706 197 743 197 788 C197 836 229 869 277 869 C325 869 357 836 357 788 C357 743 320 706 277 706 L277 706 Z M183 788 C183 738 226 695 277 695 C328 695 371 738 371 788 C371 843 333 880 277 880 C221 880 183 843 183 788 L183 788 Z M566 15 C566 15 562 15 562 15 C551 15 533 38 518 74 C518 74 286 675 286 675 C286 675 268 675 268 675 C268 675 56 65 56 65 C44 34 30 15 19 15 C19 15 16 15 16 15 C16 15 16 0 16 0 C16 0 34 0 34 0 C34 0 46 0 46 0 C46 0 58 0 58 0 C58 0 93 0 93 0 C93 0 93 15 93 15 C93 15 89 15 89 15 C74 15 74 44 88 89 C88 89 137 235 137 235 C137 235 381 235 381 235 C381 235 445 63 445 63 C453 34 453 15 443 15 C443 15 439 15 439 15 C439 15 439 0 439 0 C439 0 468 0 468 0 C468 0 508 0 508 0 C508 0 547 0 547 0 C547 0 566 0 566 0 C566 0 566 15 566 15 L566 15 Z M374 254 C374 254 144 254 144 254 C144 254 253 578 253 578 C253 578 374 254 374 254 L374 254 Z " />
<glyph glyph-name="Ccedilla" unicode="&#xc7;" horiz-adv-x="730" d="M663 521 C663 521 663 571 663 571 C626 627 521 665 402 665 C199 665 64 531 64 330 C64 129 199 -5 402 -5 C521 -5 626 33 663 89 C663 89 663 139 663 139 C663 139 650 139 650 139 C646 133 641 125 637 119 C604 67 536 27 463 17 C443 14 423 13 402 13 C246 13 143 140 143 330 C143 520 246 647 402 647 C434 647 465 644 493 639 C493 639 493 639 493 639 C549 629 606 590 637 541 C641 535 646 527 650 521 C650 521 663 521 663 521 L663 521 Z " />
<glyph glyph-name="Egrave" unicode="&#xc8;" horiz-adv-x="504" d="M356 385 C344 369 305 361 249 361 C249 361 139 361 139 361 C139 361 139 642 139 642 C139 642 275 642 275 642 C343 642 396 626 419 599 C419 599 430 599 430 599 C431 615 431 635 430 651 C431 654 431 658 430 660 C430 660 424 660 424 660 C424 660 350 660 350 660 C350 660 139 660 139 660 C139 660 103 660 103 660 C103 660 67 660 67 660 C67 660 43 660 43 660 C43 660 43 645 43 645 C43 645 46 645 46 645 C59 645 67 619 67 580 C67 580 67 80 67 80 C67 41 59 15 46 15 C46 15 43 15 43 15 C43 15 43 0 43 0 C43 0 67 0 67 0 C67 0 103 0 103 0 C103 0 139 0 139 0 C139 0 355 0 355 0 C355 0 434 0 434 0 C434 0 435 0 435 0 C436 2 436 6 436 9 C439 25 443 45 446 61 C446 61 435 61 435 61 C435 61 427 54 427 54 C401 33 343 18 283 18 C283 18 139 18 139 18 C139 18 139 343 139 343 C139 343 249 343 249 343 C305 343 343 334 356 316 C356 316 369 316 369 316 C369 316 369 343 369 343 C369 343 369 352 369 352 C369 352 369 361 369 361 C369 361 369 385 369 385 C369 385 356 385 356 385 L356 385 Z M216 840 C194 873 179 895 176 895 C167 895 147 881 147 875 C147 870 164 849 190 820 C190 820 303 691 303 691 C303 691 309 695 309 695 C309 695 216 840 216 840 L216 840 Z " />
<glyph glyph-name="Eacute" unicode="&#xc9;" horiz-adv-x="504" d="M213 691 C213 691 323 820 323 820 C348 850 365 871 365 875 C365 881 345 895 336 895 C334 895 319 873 298 840 C298 840 208 695 208 695 C208 695 213 691 213 691 L213 691 Z M356 385 C344 369 305 361 249 361 C249 361 139 361 139 361 C139 361 139 642 139 642 C139 642 275 642 275 642 C343 642 396 626 419 599 C419 599 430 599 430 599 C431 615 431 635 430 651 C431 654 431 658 430 660 C430 660 424 660 424 660 C424 660 350 660 350 660 C350 660 139 660 139 660 C139 660 103 660 103 660 C103 660 67 660 67 660 C67 660 43 660 43 660 C43 660 43 645 43 645 C43 645 46 645 46 645 C59 645 67 619 67 580 C67 580 67 80 67 80 C67 41 59 15 46 15 C46 15 43 15 43 15 C43 15 43 0 43 0 C43 0 67 0 67 0 C67 0 103 0 103 0 C103 0 139 0 139 0 C139 0 355 0 355 0 C355 0 434 0 434 0 C434 0 435 0 435 0 C436 2 436 6 436 9 C439 25 443 45 446 61 C446 61 435 61 435 61 C435 61 427 54 427 54 C401 33 343 18 283 18 C283 18 139 18 139 18 C139 18 139 343 139 343 C139 343 249 343 249 343 C305 343 343 334 356 316 C356 316 369 316 369 316 C369 316 369 343 369 343 C369 343 369 352 369 352 C369 352 369 361 369 361 C369 361 369 385 369 385 C369 385 356 385 356 385 L356 385 Z " />
<glyph glyph-name="Ecircumflex" unicode="&#xca;" horiz-adv-x="504" d="M356 385 C344 369 305 361 249 361 C249 361 139 361 139 361 C139 361 139 642 139 642 C139 642 275 642 275 642 C343 642 396 626 419 599 C419 599 430 599 430 599 C431 615 431 635 430 651 C431 654 431 658 430 660 C430 660 424 660 424 660 C424 660 350 660 350 660 C350 660 139 660 139 660 C139 660 103 660 103 660 C103 660 67 660 67 660 C67 660 43 660 43 660 C43 660 43 645 43 645 C43 645 46 645 46 645 C59 645 67 619 67 580 C67 580 67 80 67 80 C67 41 59 15 46 15 C46 15 43 15 43 15 C43 15 43 0 43 0 C43 0 67 0 67 0 C67 0 103 0 103 0 C103 0 139 0 139 0 C139 0 355 0 355 0 C355 0 434 0 434 0 C434 0 435 0 435 0 C436 2 436 6 436 9 C439 25 443 45 446 61 C446 61 435 61 435 61 C435 61 427 54 427 54 C401 33 343 18 283 18 C283 18 139 18 139 18 C139 18 139 343 139 343 C139 343 249 343 249 343 C305 343 343 334 356 316 C356 316 369 316 369 316 C369 316 369 343 369 343 C369 343 369 352 369 352 C369 352 369 361 369 361 C369 361 369 385 369 385 C369 385 356 385 356 385 L356 385 Z M245 852 C245 852 358 693 358 693 C358 693 363 698 363 698 C363 698 261 891 261 891 C259 895 253 905 245 905 C238 905 232 895 229 891 C229 891 127 698 127 698 C127 698 132 693 132 693 C132 693 245 852 245 852 L245 852 Z " />
<glyph glyph-name="Edieresis" unicode="&#xcb;" horiz-adv-x="504" d="M334 730 C353 730 365 742 365 761 C365 779 353 791 334 791 C315 791 303 779 303 761 C303 742 315 730 334 730 L334 730 Z M156 730 C175 730 187 742 187 761 C187 779 175 791 156 791 C138 791 126 779 126 761 C126 742 138 730 156 730 L156 730 Z M356 385 C344 369 305 361 249 361 C249 361 139 361 139 361 C139 361 139 642 139 642 C139 642 275 642 275 642 C343 642 396 626 419 599 C419 599 430 599 430 599 C431 615 431 635 430 651 C431 654 431 658 430 660 C430 660 424 660 424 660 C424 660 350 660 350 660 C350 660 139 660 139 660 C139 660 103 660 103 660 C103 660 67 660 67 660 C67 660 43 660 43 660 C43 660 43 645 43 645 C43 645 46 645 46 645 C59 645 67 619 67 580 C67 580 67 80 67 80 C67 41 59 15 46 15 C46 15 43 15 43 15 C43 15 43 0 43 0 C43 0 67 0 67 0 C67 0 103 0 103 0 C103 0 139 0 139 0 C139 0 355 0 355 0 C355 0 434 0 434 0 C434 0 435 0 435 0 C436 2 436 6 436 9 C439 25 443 45 446 61 C446 61 435 61 435 61 C435 61 427 54 427 54 C401 33 343 18 283 18 C283 18 139 18 139 18 C139 18 139 343 139 343 C139 343 249 343 249 343 C305 343 343 334 356 316 C356 316 369 316 369 316 C369 316 369 343 369 343 C369 343 369 352 369 352 C369 352 369 361 369 361 C369 361 369 385 369 385 C369 385 356 385 356 385 L356 385 Z " />
<glyph glyph-name="Igrave" unicode="&#xcc;" horiz-adv-x="205" d="M158 660 C158 660 135 660 135 660 C135 660 99 660 99 660 C99 660 63 660 63 660 C63 660 39 660 39 660 C39 660 39 645 39 645 C39 645 42 645 42 645 C55 645 63 619 63 580 C63 580 63 80 63 80 C63 41 55 15 42 15 C42 15 39 15 39 15 C39 15 39 0 39 0 C39 0 63 0 63 0 C63 0 99 0 99 0 C99 0 135 0 135 0 C135 0 158 0 158 0 C158 0 158 15 158 15 C158 15 155 15 155 15 C143 15 136 35 135 67 C135 67 135 80 135 80 C135 80 135 580 135 580 C135 580 135 593 135 593 C136 625 143 645 155 645 C155 645 158 645 158 645 C158 645 158 660 158 660 L158 660 Z M85 840 C64 873 49 895 45 895 C36 895 16 881 16 875 C16 870 33 849 59 820 C59 820 172 691 172 691 C172 691 178 695 178 695 C178 695 85 840 85 840 L85 840 Z " />
<glyph glyph-name="Iacute" unicode="&#xcd;" horiz-adv-x="205" d="M36 691 C36 691 146 820 146 820 C171 850 188 871 188 875 C188 881 168 895 159 895 C157 895 142 873 121 840 C121 840 31 695 31 695 C31 695 36 691 36 691 L36 691 Z M158 660 C158 660 135 660 135 660 C135 660 99 660 99 660 C99 660 63 660 63 660 C63 660 39 660 39 660 C39 660 39 645 39 645 C39 645 42 645 42 645 C55 645 63 619 63 580 C63 580 63 80 63 80 C63 41 55 15 42 15 C42 15 39 15 39 15 C39 15 39 0 39 0 C39 0 63 0 63 0 C63 0 99 0 99 0 C99 0 135 0 135 0 C135 0 158 0 158 0 C158 0 158 15 158 15 C158 15 155 15 155 15 C143 15 136 35 135 67 C135 67 135 80 135 80 C135 80 135 580 135 580 C135 580 135 593 135 593 C136 625 143 645 155 645 C155 645 158 645 158 645 C158 645 158 660 158 660 L158 660 Z " />
<glyph glyph-name="Icircumflex" unicode="&#xce;" horiz-adv-x="205" d="M158 660 C158 660 135 660 135 660 C135 660 99 660 99 660 C99 660 63 660 63 660 C63 660 39 660 39 660 C39 660 39 645 39 645 C39 645 42 645 42 645 C55 645 63 619 63 580 C63 580 63 80 63 80 C63 41 55 15 42 15 C42 15 39 15 39 15 C39 15 39 0 39 0 C39 0 63 0 63 0 C63 0 99 0 99 0 C99 0 135 0 135 0 C135 0 158 0 158 0 C158 0 158 15 158 15 C158 15 155 15 155 15 C143 15 136 35 135 67 C135 67 135 80 135 80 C135 80 135 580 135 580 C135 580 135 593 135 593 C136 625 143 645 155 645 C155 645 158 645 158 645 C158 645 158 660 158 660 L158 660 Z M99 853 C99 853 212 693 212 693 C212 693 217 698 217 698 C217 698 115 891 115 891 C112 895 106 905 99 905 C91 905 85 895 83 891 C83 891 -20 698 -20 698 C-20 698 -14 693 -14 693 C-14 693 99 853 99 853 L99 853 Z " />
<glyph glyph-name="Idieresis" unicode="&#xcf;" horiz-adv-x="205" d="M187 730 C206 730 218 742 218 761 C218 779 206 791 187 791 C169 791 157 779 157 761 C157 742 169 730 187 730 L187 730 Z M10 730 C28 730 40 742 40 761 C40 779 28 791 10 791 C-9 791 -21 779 -21 761 C-21 742 -9 730 10 730 L10 730 Z M158 660 C158 660 135 660 135 660 C135 660 99 660 99 660 C99 660 63 660 63 660 C63 660 39 660 39 660 C39 660 39 645 39 645 C39 645 42 645 42 645 C55 645 63 619 63 580 C63 580 63 80 63 80 C63 41 55 15 42 15 C42 15 39 15 39 15 C39 15 39 0 39 0 C39 0 63 0 63 0 C63 0 99 0 99 0 C99 0 135 0 135 0 C135 0 158 0 158 0 C158 0 158 15 158 15 C158 15 155 15 155 15 C143 15 136 35 135 67 C135 67 135 80 135 80 C135 80 135 580 135 580 C135 580 135 593 135 593 C136 625 143 645 155 645 C155 645 158 645 158 645 C158 645 158 660 158 660 L158 660 Z " />
<glyph glyph-name="Ntilde" unicode="&#xd1;" horiz-adv-x="611" d="M168 755 C168 795 186 822 213 822 C274 822 332 759 393 759 C433 759 460 796 460 852 C460 852 452 852 452 852 C452 816 433 792 404 792 C343 792 285 855 224 855 C186 855 160 815 160 755 C160 755 168 755 168 755 L168 755 Z M571 660 C571 660 547 660 547 660 C547 660 537 660 537 660 C537 660 526 660 526 660 C526 660 502 660 502 660 C502 660 502 645 502 645 C502 645 506 645 506 645 C518 645 526 619 526 580 C526 580 526 87 526 87 C526 87 142 660 142 660 C142 660 94 660 94 660 C94 660 83 660 83 660 C83 660 72 660 72 660 C72 660 49 660 49 660 C49 660 49 645 49 645 C49 645 52 645 52 645 C64 645 72 619 72 580 C72 580 72 80 72 80 C72 41 64 15 52 15 C52 15 49 15 49 15 C49 15 49 0 49 0 C49 0 72 0 72 0 C72 0 83 0 83 0 C83 0 94 0 94 0 C94 0 118 0 118 0 C118 0 118 15 118 15 C118 15 114 15 114 15 C102 15 94 41 94 80 C94 80 94 604 94 604 C94 604 493 10 493 10 C493 10 507 -11 507 -11 C507 -11 547 -11 547 -11 C547 -11 547 36 547 36 C547 36 547 580 547 580 C548 619 556 645 568 645 C568 645 571 645 571 645 C571 645 571 660 571 660 L571 660 Z " />
<glyph glyph-name="Ograve" unicode="&#xd2;" horiz-adv-x="772" d="M390 13 C227 13 143 159 143 330 C143 501 227 647 390 647 C553 647 637 501 637 330 C637 159 553 13 390 13 L390 13 Z M64 330 C64 149 175 -5 390 -5 C605 -5 716 149 716 330 C716 511 605 665 390 665 C175 665 64 511 64 330 L64 330 Z M376 840 C355 873 340 895 336 895 C328 895 308 881 308 875 C308 870 325 849 351 820 C351 820 464 691 464 691 C464 691 469 695 469 695 C469 695 376 840 376 840 L376 840 Z " />
<glyph glyph-name="Oacute" unicode="&#xd3;" horiz-adv-x="772" d="M366 691 C366 691 476 820 476 820 C501 850 517 871 517 875 C517 881 497 895 489 895 C486 895 471 873 450 840 C450 840 360 695 360 695 C360 695 366 691 366 691 L366 691 Z M390 13 C227 13 143 159 143 330 C143 501 227 647 390 647 C553 647 637 501 637 330 C637 159 553 13 390 13 L390 13 Z M64 330 C64 149 175 -5 390 -5 C605 -5 716 149 716 330 C716 511 605 665 390 665 C175 665 64 511 64 330 L64 330 Z " />
<glyph glyph-name="Ocircumflex" unicode="&#xd4;" horiz-adv-x="772" d="M390 13 C227 13 143 159 143 330 C143 501 227 647 390 647 C553 647 637 501 637 330 C637 159 553 13 390 13 L390 13 Z M64 330 C64 149 175 -5 390 -5 C605 -5 716 149 716 330 C716 511 605 665 390 665 C175 665 64 511 64 330 L64 330 Z M390 852 C390 852 503 693 503 693 C503 693 508 698 508 698 C508 698 406 891 406 891 C404 895 398 905 390 905 C383 905 377 895 374 891 C374 891 272 698 272 698 C272 698 277 693 277 693 C277 693 390 852 390 852 L390 852 Z " />
<glyph glyph-name="Otilde" unicode="&#xd5;" horiz-adv-x="772" d="M248 755 C248 795 266 822 293 822 C354 822 412 759 473 759 C513 759 540 796 540 852 C540 852 532 852 532 852 C532 816 513 792 484 792 C423 792 365 855 304 855 C266 855 240 815 240 755 C240 755 248 755 248 755 L248 755 Z M390 13 C227 13 143 159 143 330 C143 501 227 647 390 647 C553 647 637 501 637 330 C637 159 553 13 390 13 L390 13 Z M64 330 C64 149 175 -5 390 -5 C605 -5 716 149 716 330 C716 511 605 665 390 665 C175 665 64 511 64 330 L64 330 Z " />
<glyph glyph-name="Odieresis" unicode="&#xd6;" horiz-adv-x="772" d="M479 730 C497 730 509 742 509 761 C509 779 497 791 479 791 C460 791 448 779 448 761 C448 742 460 730 479 730 L479 730 Z M301 730 C320 730 332 742 332 761 C332 779 320 791 301 791 C283 791 271 779 271 761 C271 742 283 730 301 730 L301 730 Z M390 13 C227 13 143 159 143 330 C143 501 227 647 390 647 C553 647 637 501 637 330 C637 159 553 13 390 13 L390 13 Z M64 330 C64 149 175 -5 390 -5 C605 -5 716 149 716 330 C716 511 605 665 390 665 C175 665 64 511 64 330 L64 330 Z " />
<glyph glyph-name="Oslash" unicode="&#xd8;" horiz-adv-x="772" d="M76 -16 C76 -16 165 76 165 76 C219 26 294 -5 390 -5 C605 -5 716 149 716 330 C716 418 690 500 637 561 C637 561 728 654 728 654 C728 654 704 676 704 676 C704 676 615 584 615 584 C561 634 486 665 390 665 C175 665 64 511 64 330 C64 241 91 159 143 99 C143 99 53 6 53 6 C53 6 76 -16 76 -16 L76 -16 Z M390 13 C306 13 243 52 201 113 C201 113 596 518 596 518 C623 465 637 400 637 330 C637 159 553 13 390 13 C390 13 390 13 390 13 L390 13 Z M185 141 C157 195 143 260 143 330 C143 501 227 647 390 647 C474 647 537 608 579 547 C579 547 185 141 185 141 L185 141 Z " />
<glyph glyph-name="Ugrave" unicode="&#xd9;" horiz-adv-x="587" d="M561 660 C561 660 534 660 534 660 C534 660 526 660 526 660 C526 660 517 660 517 660 C517 660 489 660 489 660 C489 660 489 645 489 645 C489 645 493 645 493 645 C507 645 517 615 517 570 C517 570 517 184 517 184 C517 86 461 20 316 20 C189 20 140 90 140 194 C140 194 140 580 140 580 C140 619 148 645 160 645 C160 645 164 645 164 645 C164 645 164 660 164 660 C164 660 140 660 140 660 C140 660 104 660 104 660 C104 660 68 660 68 660 C68 660 44 660 44 660 C44 660 44 645 44 645 C44 645 48 645 48 645 C60 645 68 619 68 580 C68 580 68 208 68 208 C68 80 135 -5 306 -5 C470 -5 534 68 534 178 C534 178 534 570 534 570 C534 615 543 645 557 645 C557 645 561 645 561 645 C561 645 561 660 561 660 L561 660 Z M287 840 C266 873 251 895 247 895 C239 895 219 881 219 875 C219 870 236 849 261 820 C261 820 374 691 374 691 C374 691 380 695 380 695 C380 695 287 840 287 840 L287 840 Z " />
<glyph glyph-name="Uacute" unicode="&#xda;" horiz-adv-x="587" d="M299 691 C299 691 409 820 409 820 C434 850 451 871 451 875 C451 881 431 895 422 895 C420 895 405 873 384 840 C384 840 294 695 294 695 C294 695 299 691 299 691 L299 691 Z M561 660 C561 660 534 660 534 660 C534 660 526 660 526 660 C526 660 517 660 517 660 C517 660 489 660 489 660 C489 660 489 645 489 645 C489 645 493 645 493 645 C507 645 517 615 517 570 C517 570 517 184 517 184 C517 86 461 20 316 20 C189 20 140 90 140 194 C140 194 140 580 140 580 C140 619 148 645 160 645 C160 645 164 645 164 645 C164 645 164 660 164 660 C164 660 140 660 140 660 C140 660 104 660 104 660 C104 660 68 660 68 660 C68 660 44 660 44 660 C44 660 44 645 44 645 C44 645 48 645 48 645 C60 645 68 619 68 580 C68 580 68 208 68 208 C68 80 135 -5 306 -5 C470 -5 534 68 534 178 C534 178 534 570 534 570 C534 615 543 645 557 645 C557 645 561 645 561 645 C561 645 561 660 561 660 L561 660 Z " />
<glyph glyph-name="Ucircumflex" unicode="&#xdb;" horiz-adv-x="587" d="M561 660 C561 660 534 660 534 660 C534 660 526 660 526 660 C526 660 517 660 517 660 C517 660 489 660 489 660 C489 660 489 645 489 645 C489 645 493 645 493 645 C507 645 517 615 517 570 C517 570 517 184 517 184 C517 86 461 20 316 20 C189 20 140 90 140 194 C140 194 140 580 140 580 C140 619 148 645 160 645 C160 645 164 645 164 645 C164 645 164 660 164 660 C164 660 140 660 140 660 C140 660 104 660 104 660 C104 660 68 660 68 660 C68 660 44 660 44 660 C44 660 44 645 44 645 C44 645 48 645 48 645 C60 645 68 619 68 580 C68 580 68 208 68 208 C68 80 135 -5 306 -5 C470 -5 534 68 534 178 C534 178 534 570 534 570 C534 615 543 645 557 645 C557 645 561 645 561 645 C561 645 561 660 561 660 L561 660 Z M301 852 C301 852 414 693 414 693 C414 693 419 698 419 698 C419 698 317 891 317 891 C314 895 308 905 301 905 C293 905 287 895 285 891 C285 891 183 698 183 698 C183 698 188 693 188 693 C188 693 301 852 301 852 L301 852 Z " />
<glyph glyph-name="Udieresis" unicode="&#xdc;" horiz-adv-x="587" d="M390 730 C408 730 420 742 420 761 C420 779 408 791 390 791 C371 791 359 779 359 761 C359 742 371 730 390 730 L390 730 Z M212 730 C231 730 243 742 243 761 C243 779 231 791 212 791 C193 791 181 779 181 761 C181 742 193 730 212 730 L212 730 Z M561 660 C561 660 534 660 534 660 C534 660 526 660 526 660 C526 660 517 660 517 660 C517 660 489 660 489 660 C489 660 489 645 489 645 C489 645 493 645 493 645 C507 645 517 615 517 570 C517 570 517 184 517 184 C517 86 461 20 316 20 C189 20 140 90 140 194 C140 194 140 580 140 580 C140 619 148 645 160 645 C160 645 164 645 164 645 C164 645 164 660 164 660 C164 660 140 660 140 660 C140 660 104 660 104 660 C104 660 68 660 68 660 C68 660 44 660 44 660 C44 660 44 645 44 645 C44 645 48 645 48 645 C60 645 68 619 68 580 C68 580 68 208 68 208 C68 80 135 -5 306 -5 C470 -5 534 68 534 178 C534 178 534 570 534 570 C534 615 543 645 557 645 C557 645 561 645 561 645 C561 645 561 660 561 660 L561 660 Z " />
<glyph glyph-name="Yacute" unicode="&#xdd;" horiz-adv-x="564" d="M287 691 C287 691 397 820 397 820 C422 850 439 871 439 875 C439 881 419 895 410 895 C408 895 393 873 371 840 C371 840 281 695 281 695 C281 695 287 691 287 691 L287 691 Z M348 15 C348 15 345 15 345 15 C333 15 325 41 324 80 C324 80 324 302 324 302 C324 302 324 302 324 302 C324 302 489 580 489 580 C489 580 490 580 490 580 C513 619 535 645 546 645 C546 645 549 645 549 645 C549 645 549 660 549 660 C549 660 537 660 537 660 C537 660 529 660 529 660 C529 660 521 660 521 660 C521 660 486 660 486 660 C486 660 486 645 486 645 C486 645 489 645 489 645 C502 645 493 614 466 566 C466 566 310 302 310 302 C310 302 299 302 299 302 C299 302 165 580 165 580 C165 580 165 580 165 580 C146 619 140 645 151 645 C151 645 155 645 155 645 C155 645 155 660 155 660 C155 660 126 660 126 660 C126 660 83 660 83 660 C83 660 40 660 40 660 C40 660 30 660 30 660 C30 660 30 645 30 645 C30 645 33 645 33 645 C42 645 62 619 83 580 C83 580 83 580 83 580 C83 580 252 268 252 268 C252 268 252 80 252 80 C252 41 244 15 232 15 C232 15 229 15 229 15 C229 15 229 0 229 0 C229 0 252 0 252 0 C252 0 288 0 288 0 C288 0 324 0 324 0 C324 0 348 0 348 0 C348 0 348 15 348 15 L348 15 Z " />
<glyph glyph-name="agrave" unicode="&#xe0;" horiz-adv-x="587" d="M494 29 C474 49 470 67 470 123 C470 123 470 500 470 500 C470 500 456 500 456 500 C456 500 429 387 429 387 C413 456 352 505 267 505 C144 505 62 393 62 225 C62 87 136 -5 248 -5 C335 -5 398 37 420 105 C420 105 420 0 420 0 C420 0 420 -5 420 -5 C420 -5 428 -5 428 -5 C428 -5 466 11 466 11 C466 11 494 20 494 20 C494 20 494 29 494 29 L494 29 Z M234 680 C213 713 198 735 194 735 C186 735 166 721 165 715 C166 710 183 689 208 660 C208 660 321 531 321 531 C321 531 327 535 327 535 C327 535 234 680 234 680 L234 680 Z M420 128 C407 66 352 26 275 26 C179 26 114 113 114 244 C114 392 174 491 265 491 C358 491 420 429 420 347 C420 347 420 128 420 128 L420 128 Z " />
<glyph glyph-name="aacute" unicode="&#xe1;" horiz-adv-x="496" d="M195 531 C195 531 305 660 305 660 C330 690 347 711 347 715 C347 721 327 735 318 735 C316 735 301 713 280 680 C280 680 189 535 189 535 C189 535 195 531 195 531 L195 531 Z M468 37 C453 23 438 14 416 14 C385 14 377 37 377 73 C377 73 377 359 377 359 C377 447 329 505 257 505 C117 505 45 446 77 356 C77 356 127 356 127 356 C98 437 145 491 246 491 C293 491 324 443 324 371 C324 371 324 250 324 250 C324 250 208 234 208 234 C108 220 42 167 42 102 C42 38 88 -5 157 -5 C214 -5 278 23 324 66 C324 21 337 -10 381 -10 C422 -10 449 6 473 30 C473 30 468 37 468 37 L468 37 Z M324 238 C324 238 324 77 324 77 C287 47 234 28 182 28 C128 28 92 63 92 116 C92 165 138 206 208 218 C208 218 324 238 324 238 L324 238 Z " />
<glyph glyph-name="acircumflex" unicode="&#xe2;" horiz-adv-x="587" d="M494 29 C474 49 470 67 470 123 C470 123 470 500 470 500 C470 500 456 500 456 500 C456 500 429 387 429 387 C413 456 352 505 267 505 C144 505 62 393 62 225 C62 87 136 -5 248 -5 C335 -5 398 37 420 105 C420 105 420 0 420 0 C420 0 420 -5 420 -5 C420 -5 428 -5 428 -5 C428 -5 466 11 466 11 C466 11 494 20 494 20 C494 20 494 29 494 29 L494 29 Z M248 692 C248 692 361 533 361 533 C361 533 366 538 366 538 C366 538 264 731 264 731 C261 735 255 745 248 745 C240 745 234 735 232 731 C232 731 130 538 130 538 C130 538 135 533 135 533 C135 533 248 692 248 692 L248 692 Z M420 128 C407 66 352 26 275 26 C179 26 114 113 114 244 C114 392 174 491 265 491 C358 491 420 429 420 347 C420 347 420 128 420 128 L420 128 Z " />
<glyph glyph-name="atilde" unicode="&#xe3;" horiz-adv-x="587" d="M106 595 C106 635 124 662 151 662 C212 662 270 599 331 599 C371 599 398 636 398 692 C398 692 390 692 390 692 C390 656 371 632 342 632 C281 632 223 695 162 695 C124 695 98 655 98 595 C98 595 106 595 106 595 L106 595 Z M494 29 C474 49 470 67 470 123 C470 123 470 500 470 500 C470 500 456 500 456 500 C456 500 429 387 429 387 C413 456 352 505 267 505 C144 505 62 393 62 225 C62 87 136 -5 248 -5 C335 -5 398 37 420 105 C420 105 420 0 420 0 C420 0 420 -5 420 -5 C420 -5 428 -5 428 -5 C428 -5 466 11 466 11 C466 11 494 20 494 20 C494 20 494 29 494 29 L494 29 Z M420 128 C407 66 352 26 275 26 C179 26 114 113 114 244 C114 392 174 491 265 491 C358 491 420 429 420 347 C420 347 420 128 420 128 L420 128 Z " />
<glyph glyph-name="adieresis" unicode="&#xe4;" horiz-adv-x="587" d="M337 570 C355 570 367 582 367 601 C367 619 355 631 337 631 C318 631 306 619 306 601 C306 582 318 570 337 570 L337 570 Z M159 570 C178 570 190 582 190 601 C190 619 178 631 159 631 C140 631 128 619 128 601 C128 582 140 570 159 570 L159 570 Z M494 29 C474 49 470 67 470 123 C470 123 470 500 470 500 C470 500 456 500 456 500 C456 500 429 387 429 387 C413 456 352 505 267 505 C144 505 62 393 62 225 C62 87 136 -5 248 -5 C335 -5 398 37 420 105 C420 105 420 0 420 0 C420 0 420 -5 420 -5 C420 -5 428 -5 428 -5 C428 -5 466 11 466 11 C466 11 494 20 494 20 C494 20 494 29 494 29 L494 29 Z M420 128 C407 66 352 26 275 26 C179 26 114 113 114 244 C114 392 174 491 265 491 C358 491 420 429 420 347 C420 347 420 128 420 128 L420 128 Z " />
<glyph glyph-name="aring" unicode="&#xe5;" horiz-adv-x="587" d="M248 546 C205 546 168 583 168 628 C168 676 200 709 248 709 C296 709 328 676 328 628 C328 583 291 546 248 546 L248 546 Z M154 628 C154 578 197 535 248 535 C299 535 342 578 342 628 C342 683 304 720 248 720 C192 720 154 683 154 628 L154 628 Z M494 29 C474 49 470 67 470 123 C470 123 470 500 470 500 C470 500 456 500 456 500 C456 500 429 387 429 387 C413 456 352 505 267 505 C144 505 62 393 62 225 C62 87 136 -5 248 -5 C335 -5 398 37 420 105 C420 105 420 0 420 0 C420 0 420 -5 420 -5 C420 -5 428 -5 428 -5 C428 -5 466 11 466 11 C466 11 494 20 494 20 C494 20 494 29 494 29 L494 29 Z M420 128 C407 66 352 26 275 26 C179 26 114 113 114 244 C114 392 174 491 265 491 C358 491 420 429 420 347 C420 347 420 128 420 128 L420 128 Z " />
<glyph glyph-name="ccedilla" unicode="&#xe7;" horiz-adv-x="489" d="M431 121 C431 121 425 124 425 124 C396 65 341 25 286 25 C180 25 110 117 110 254 C110 396 185 491 297 491 C346 491 381 456 385 404 C386 389 396 379 410 379 C423 379 432 388 432 401 C427 463 375 505 303 505 C155 505 57 397 57 235 C57 91 132 -5 244 -5 C320 -5 395 45 431 121 L431 121 Z " />
<glyph glyph-name="egrave" unicode="&#xe8;" horiz-adv-x="495" d="M438 121 C438 121 431 124 431 124 C403 65 346 25 289 25 C182 25 110 117 110 254 C110 279 112 302 116 324 C116 324 439 324 439 324 C439 433 372 505 271 505 C143 505 57 397 57 235 C57 91 133 -5 247 -5 C326 -5 402 45 438 121 L438 121 Z M257 680 C236 713 221 735 217 735 C209 735 189 721 189 715 C189 710 206 689 231 660 C231 660 344 531 344 531 C344 531 350 535 350 535 C350 535 257 680 257 680 L257 680 Z M117 333 C137 430 192 491 268 491 C342 491 392 441 392 366 C392 352 383 342 368 342 C368 342 392 342 392 342 C392 342 117 333 117 333 L117 333 Z " />
<glyph glyph-name="eacute" unicode="&#xe9;" horiz-adv-x="495" d="M239 531 C239 531 349 660 349 660 C374 690 391 711 391 715 C391 721 371 735 362 735 C360 735 345 713 323 680 C323 680 233 535 233 535 C233 535 239 531 239 531 L239 531 Z M438 121 C438 121 431 124 431 124 C403 65 346 25 289 25 C182 25 110 117 110 254 C110 279 112 302 116 324 C116 324 439 324 439 324 C439 433 372 505 271 505 C143 505 57 397 57 235 C57 91 133 -5 247 -5 C326 -5 402 45 438 121 L438 121 Z M117 333 C137 430 192 491 268 491 C342 491 392 441 392 366 C392 352 383 342 368 342 C368 342 392 342 392 342 C392 342 117 333 117 333 L117 333 Z " />
<glyph glyph-name="ecircumflex" unicode="&#xea;" horiz-adv-x="495" d="M438 121 C438 121 431 124 431 124 C403 65 346 25 289 25 C182 25 110 117 110 254 C110 279 112 302 116 324 C116 324 439 324 439 324 C439 433 372 505 271 505 C143 505 57 397 57 235 C57 91 133 -5 247 -5 C326 -5 402 45 438 121 L438 121 Z M271 692 C271 692 384 533 384 533 C384 533 389 538 389 538 C389 538 287 731 287 731 C285 735 278 745 271 745 C263 745 257 735 255 731 C255 731 153 538 153 538 C153 538 158 533 158 533 C158 533 271 692 271 692 L271 692 Z M117 333 C137 430 192 491 268 491 C342 491 392 441 392 366 C392 352 383 342 368 342 C368 342 392 342 392 342 C392 342 117 333 117 333 L117 333 Z " />
<glyph glyph-name="edieresis" unicode="&#xeb;" horiz-adv-x="495" d="M360 570 C378 570 390 582 390 601 C390 619 378 631 360 631 C341 631 329 619 329 601 C329 582 341 570 360 570 L360 570 Z M182 570 C201 570 213 582 213 601 C213 619 201 631 182 631 C164 631 152 619 152 601 C152 582 164 570 182 570 L182 570 Z M438 121 C438 121 431 124 431 124 C403 65 346 25 289 25 C182 25 110 117 110 254 C110 279 112 302 116 324 C116 324 439 324 439 324 C439 433 372 505 271 505 C143 505 57 397 57 235 C57 91 133 -5 247 -5 C326 -5 402 45 438 121 L438 121 Z M117 333 C137 430 192 491 268 491 C342 491 392 441 392 366 C392 352 383 342 368 342 C368 342 392 342 392 342 C392 342 117 333 117 333 L117 333 Z " />
<glyph glyph-name="igrave" unicode="&#xec;" horiz-adv-x="201" d="M126 0 C126 0 150 0 150 0 C150 0 150 15 150 15 C150 15 145 15 145 15 C134 15 126 13 126 0 C126 0 126 420 126 420 C126 420 126 505 126 505 C126 505 123 505 123 505 C123 505 56 484 56 484 C56 484 56 475 56 475 C56 475 70 453 70 453 C74 447 76 438 76 406 C76 406 76 0 76 0 C76 13 68 15 57 15 C57 15 52 15 52 15 C52 15 52 0 52 0 C52 0 76 0 76 0 C76 0 76 406 76 406 C76 406 76 420 76 420 C76 420 126 420 126 420 C126 420 126 0 126 0 L126 0 Z M87 680 C66 713 51 735 47 735 C38 735 18 721 18 715 C18 710 35 689 61 660 C61 660 174 531 174 531 C174 531 180 535 180 535 C180 535 87 680 87 680 L87 680 Z " />
<glyph glyph-name="iacute" unicode="&#xed;" horiz-adv-x="201" d="M126 0 C126 0 150 0 150 0 C150 0 150 15 150 15 C150 15 145 15 145 15 C134 15 126 13 126 0 C126 0 126 420 126 420 C126 420 126 505 126 505 C126 505 123 505 123 505 C123 505 56 484 56 484 C56 484 56 475 56 475 C56 475 70 453 70 453 C74 447 76 438 76 406 C76 406 76 0 76 0 C76 13 68 15 57 15 C57 15 52 15 52 15 C52 15 52 0 52 0 C52 0 76 0 76 0 C76 0 76 406 76 406 C76 406 76 420 76 420 C76 420 126 420 126 420 C126 420 126 0 126 0 L126 0 Z M23 531 C23 531 133 660 133 660 C158 690 175 711 175 715 C175 721 155 735 146 735 C144 735 129 713 108 680 C108 680 18 535 18 535 C18 535 23 531 23 531 L23 531 Z " />
<glyph glyph-name="icircumflex" unicode="&#xee;" horiz-adv-x="201" d="M101 723 C101 723 85 731 85 731 C85 731 -17 538 -17 538 C-17 538 -12 533 -12 533 C-12 533 101 692 101 692 C101 692 214 533 214 533 C214 533 219 538 219 538 C219 538 117 731 117 731 C114 735 108 745 101 745 C93 745 87 735 101 723 L101 723 Z M126 0 C126 0 150 0 150 0 C150 0 150 15 150 15 C150 15 145 15 145 15 C134 15 126 13 126 0 C126 0 126 420 126 420 C126 420 126 505 126 505 C126 505 123 505 123 505 C123 505 56 484 56 484 C56 484 56 475 56 475 C56 475 70 453 70 453 C74 447 76 438 76 406 C76 406 76 0 76 0 C76 13 68 15 57 15 C57 15 52 15 52 15 C52 15 52 0 52 0 C52 0 76 0 76 0 C76 0 76 406 76 406 C76 406 76 420 76 420 C76 420 126 420 126 420 C126 420 126 0 126 0 L126 0 Z " />
<glyph glyph-name="idieresis" unicode="&#xef;" horiz-adv-x="201" d="M126 0 C126 0 150 0 150 0 C150 0 150 15 150 15 C150 15 145 15 145 15 C134 15 126 13 126 0 C126 0 126 420 126 420 C126 420 126 505 126 505 C126 505 123 505 123 505 C123 505 56 484 56 484 C56 484 56 475 56 475 C56 475 70 453 70 453 C74 447 76 438 76 406 C76 406 76 0 76 0 C76 13 68 15 57 15 C57 15 52 15 52 15 C52 15 52 0 52 0 C52 0 76 0 76 0 C76 0 76 406 76 406 C76 406 76 420 76 420 C76 420 126 420 126 420 C126 420 126 0 126 0 L126 0 Z M190 570 C208 570 220 582 220 601 C220 619 208 631 190 631 C171 631 159 619 159 601 C159 582 171 570 190 570 L190 570 Z M12 570 C31 570 43 582 43 601 C43 619 31 631 12 631 C-7 631 -19 619 -19 601 C-19 582 -7 570 12 570 L12 570 Z " />
<glyph glyph-name="ntilde" unicode="&#xf1;" horiz-adv-x="531" d="M126 595 C126 635 144 662 172 662 C232 662 291 599 351 599 C391 599 418 636 418 692 C418 692 410 692 410 692 C410 656 391 632 362 632 C301 632 243 695 182 695 C144 695 118 655 118 595 C118 595 126 595 126 595 L126 595 Z M485 15 C485 15 481 15 481 15 C469 15 461 41 461 80 C461 80 461 336 461 336 C461 438 426 505 335 505 C239 505 158 461 125 394 C125 394 125 407 125 407 C125 407 125 500 125 500 C125 500 115 500 115 500 C115 500 52 480 52 480 C52 480 52 471 52 471 C70 446 75 435 75 377 C75 377 75 80 75 80 C75 41 67 15 55 15 C55 15 52 15 52 15 C52 15 52 0 52 0 C52 0 75 0 75 0 C75 0 100 0 100 0 C100 0 125 0 125 0 C125 0 149 0 149 0 C149 0 149 15 149 15 C149 15 146 15 146 15 C134 15 126 41 125 80 C125 80 125 382 125 382 C150 436 216 471 296 471 C379 471 411 415 411 331 C411 331 411 80 411 80 C411 41 403 15 391 15 C391 15 387 15 387 15 C387 15 387 0 387 0 C387 0 411 0 411 0 C411 0 436 0 436 0 C436 0 461 0 461 0 C461 0 485 0 485 0 C485 0 485 15 485 15 L485 15 Z " />
<glyph glyph-name="ograve" unicode="&#xf2;" horiz-adv-x="602" d="M301 6 C188 6 112 104 112 250 C112 396 188 494 301 494 C415 494 490 396 490 250 C490 104 415 6 301 6 L301 6 Z M57 250 C57 97 155 -5 301 -5 C448 -5 546 97 546 250 C546 403 448 505 301 505 C155 505 57 403 57 250 L57 250 Z M287 680 C267 713 251 735 248 735 C239 735 219 721 219 715 C219 710 236 689 262 660 C262 660 375 531 375 531 C375 531 380 535 380 535 C380 535 287 680 287 680 L287 680 Z " />
<glyph glyph-name="oacute" unicode="&#xf3;" horiz-adv-x="602" d="M269 531 C269 531 379 660 379 660 C404 690 421 711 421 715 C421 721 401 735 393 735 C390 735 375 713 354 680 C354 680 264 535 264 535 C264 535 269 531 269 531 L269 531 Z M301 6 C188 6 112 104 112 250 C112 396 188 494 301 494 C415 494 490 396 490 250 C490 104 415 6 301 6 L301 6 Z M57 250 C57 97 155 -5 301 -5 C448 -5 546 97 546 250 C546 403 448 505 301 505 C155 505 57 403 57 250 L57 250 Z " />
<glyph glyph-name="ocircumflex" unicode="&#xf4;" horiz-adv-x="602" d="M301 6 C188 6 112 104 112 250 C112 396 188 494 301 494 C415 494 490 396 490 250 C490 104 415 6 301 6 L301 6 Z M57 250 C57 97 155 -5 301 -5 C448 -5 546 97 546 250 C546 403 448 505 301 505 C155 505 57 403 57 250 L57 250 Z M301 692 C301 692 414 533 414 533 C414 533 419 538 419 538 C419 538 317 731 317 731 C315 735 309 745 301 745 C294 745 288 735 286 731 C286 731 183 538 183 538 C183 538 188 533 188 533 C188 533 301 692 301 692 L301 692 Z " />
<glyph glyph-name="otilde" unicode="&#xf5;" horiz-adv-x="602" d="M159 595 C159 635 177 662 205 662 C265 662 324 599 385 599 C425 599 452 636 452 692 C452 692 443 692 443 692 C443 656 424 632 395 632 C335 632 276 695 215 695 C177 695 151 655 151 595 C151 595 159 595 159 595 L159 595 Z M301 6 C188 6 112 104 112 250 C112 396 188 494 301 494 C415 494 490 396 490 250 C490 104 415 6 301 6 L301 6 Z M57 250 C57 97 155 -5 301 -5 C448 -5 546 97 546 250 C546 403 448 505 301 505 C155 505 57 403 57 250 L57 250 Z " />
<glyph glyph-name="odieresis" unicode="&#xf6;" horiz-adv-x="602" d="M390 570 C409 570 421 582 421 601 C421 619 409 631 390 631 C372 631 360 619 360 601 C360 582 372 570 390 570 L390 570 Z M213 570 C231 570 243 582 243 601 C243 619 231 631 213 631 C194 631 182 619 182 601 C182 582 194 570 213 570 L213 570 Z M301 6 C188 6 112 104 112 250 C112 396 188 494 301 494 C415 494 490 396 490 250 C490 104 415 6 301 6 L301 6 Z M57 250 C57 97 155 -5 301 -5 C448 -5 546 97 546 250 C546 403 448 505 301 505 C155 505 57 403 57 250 L57 250 Z " />
<glyph glyph-name="oslash" unicode="&#xf8;" horiz-adv-x="602" d="M63 -11 C63 -11 130 59 130 59 C173 18 231 -5 301 -5 C448 -5 546 97 546 250 C546 323 524 384 484 429 C484 429 552 499 552 499 C552 499 540 511 540 511 C540 511 473 441 473 441 C430 482 371 505 301 505 C155 505 57 403 57 250 C57 177 79 116 118 71 C118 71 51 1 51 1 C51 1 63 -11 63 -11 L63 -11 Z M301 6 C239 6 189 35 155 85 C155 85 456 399 456 399 C478 359 490 308 490 250 C490 104 415 6 301 6 L301 6 Z M146 100 C124 140 112 191 112 250 C112 396 188 494 301 494 C363 494 414 465 447 414 C447 414 146 100 146 100 L146 100 Z " />
<glyph glyph-name="ugrave" unicode="&#xf9;" horiz-adv-x="496" d="M455 29 C434 50 431 66 431 123 C431 123 431 500 431 500 C431 500 406 500 406 500 C406 500 381 500 381 500 C381 500 357 500 357 500 C357 500 357 485 357 485 C357 485 361 485 361 485 C373 485 381 459 381 420 C381 420 381 110 381 110 C381 110 381 99 381 99 C362 56 317 28 236 28 C143 28 95 81 95 161 C95 161 95 500 95 500 C95 500 70 500 70 500 C70 500 45 500 45 500 C45 500 22 500 22 500 C22 500 22 485 22 485 C22 485 25 485 25 485 C37 485 45 459 45 420 C45 420 45 420 45 420 C45 420 46 156 46 156 C46 59 97 -5 197 -5 C295 -5 353 31 381 86 C381 86 381 13 381 13 C381 13 381 0 381 0 C381 0 391 0 391 0 C391 0 455 20 455 20 C455 20 455 29 455 29 L455 29 Z M224 680 C203 713 188 735 184 735 C176 735 156 721 156 715 C156 710 173 689 199 660 C199 660 312 531 312 531 C312 531 317 535 317 535 C317 535 224 680 224 680 L224 680 Z " />
<glyph glyph-name="uacute" unicode="&#xfa;" horiz-adv-x="496" d="M206 531 C206 531 316 660 316 660 C341 690 358 711 358 715 C358 721 338 735 329 735 C327 735 312 713 291 680 C291 680 201 535 201 535 C201 535 206 531 206 531 L206 531 Z M455 29 C434 50 431 66 431 123 C431 123 431 500 431 500 C431 500 406 500 406 500 C406 500 381 500 381 500 C381 500 357 500 357 500 C357 500 357 485 357 485 C357 485 361 485 361 485 C373 485 381 459 381 420 C381 420 381 110 381 110 C381 110 381 99 381 99 C362 56 317 28 236 28 C143 28 95 81 95 161 C95 161 95 500 95 500 C95 500 70 500 70 500 C70 500 45 500 45 500 C45 500 22 500 22 500 C22 500 22 485 22 485 C22 485 25 485 25 485 C37 485 45 459 45 420 C45 420 45 420 45 420 C45 420 46 156 46 156 C46 59 97 -5 197 -5 C295 -5 353 31 381 86 C381 86 381 13 381 13 C381 13 381 0 381 0 C381 0 391 0 391 0 C391 0 455 20 455 20 C455 20 455 29 455 29 L455 29 Z " />
<glyph glyph-name="ucircumflex" unicode="&#xfb;" horiz-adv-x="496" d="M455 29 C434 50 431 66 431 123 C431 123 431 500 431 500 C431 500 406 500 406 500 C406 500 381 500 381 500 C381 500 357 500 357 500 C357 500 357 485 357 485 C357 485 361 485 361 485 C373 485 381 459 381 420 C381 420 381 110 381 110 C381 110 381 99 381 99 C362 56 317 28 236 28 C143 28 95 81 95 161 C95 161 95 500 95 500 C95 500 70 500 70 500 C70 500 45 500 45 500 C45 500 22 500 22 500 C22 500 22 485 22 485 C22 485 25 485 25 485 C37 485 45 459 45 420 C45 420 45 420 45 420 C45 420 46 156 46 156 C46 59 97 -5 197 -5 C295 -5 353 31 381 86 C381 86 381 13 381 13 C381 13 381 0 381 0 C381 0 391 0 391 0 C391 0 455 20 455 20 C455 20 455 29 455 29 L455 29 Z M238 692 C238 692 351 533 351 533 C351 533 356 538 356 538 C356 538 254 731 254 731 C252 735 246 745 238 745 C231 745 225 735 222 731 C222 731 120 538 120 538 C120 538 125 533 125 533 C125 533 238 692 238 692 L238 692 Z " />
<glyph glyph-name="udieresis" unicode="&#xfc;" horiz-adv-x="496" d="M327 570 C346 570 358 582 358 601 C358 619 346 631 327 631 C309 631 297 619 297 601 C297 582 309 570 327 570 L327 570 Z M149 570 C168 570 180 582 180 601 C180 619 168 631 149 631 C131 631 119 619 119 601 C119 582 131 570 149 570 L149 570 Z M455 29 C434 50 431 66 431 123 C431 123 431 500 431 500 C431 500 406 500 406 500 C406 500 381 500 381 500 C381 500 357 500 357 500 C357 500 357 485 357 485 C357 485 361 485 361 485 C373 485 381 459 381 420 C381 420 381 110 381 110 C381 110 381 99 381 99 C362 56 317 28 236 28 C143 28 95 81 95 161 C95 161 95 500 95 500 C95 500 70 500 70 500 C70 500 45 500 45 500 C45 500 22 500 22 500 C22 500 22 485 22 485 C22 485 25 485 25 485 C37 485 45 459 45 420 C45 420 45 420 45 420 C45 420 46 156 46 156 C46 59 97 -5 197 -5 C295 -5 353 31 381 86 C381 86 381 13 381 13 C381 13 381 0 381 0 C381 0 391 0 391 0 C391 0 455 20 455 20 C455 20 455 29 455 29 L455 29 Z " />
<glyph glyph-name="ydieresis" unicode="&#xff;" horiz-adv-x="386" d="M311 570 C330 570 342 582 342 601 C342 619 330 631 311 631 C293 631 281 619 281 601 C281 582 293 570 311 570 L311 570 Z M134 570 C152 570 164 582 164 601 C164 619 152 631 134 631 C115 631 103 619 103 601 C103 582 115 570 134 570 L134 570 Z M436 500 C436 500 418 500 418 500 C418 500 410 500 410 500 C410 500 401 500 401 500 C401 500 377 500 377 500 C377 500 377 485 377 485 C377 485 380 485 380 485 C389 485 386 459 372 420 C372 420 372 420 372 420 C372 420 241 53 241 53 C241 53 113 420 113 420 C113 420 113 420 113 420 C99 459 97 485 106 485 C106 485 109 485 109 485 C108 485 108 488 109 493 C108 497 108 500 109 500 C109 500 85 500 85 500 C85 500 56 500 56 500 C56 500 27 500 27 500 C27 500 9 500 9 500 C9 500 9 485 9 485 C9 485 13 485 13 485 C24 485 40 463 53 430 C53 430 215 -3 215 -3 C215 -3 190 -67 190 -67 C155 -161 128 -197 93 -197 C71 -197 49 -173 27 -173 C12 -173 2 -181 2 -194 C2 -216 26 -230 62 -230 C120 -230 160 -186 203 -72 C203 -72 226 -10 226 -10 C226 -10 388 420 388 420 C388 420 388 420 388 420 C403 459 421 485 432 485 C432 485 436 485 436 485 C436 485 436 500 436 500 L436 500 Z " />
<glyph glyph-name="Amacron" unicode="&#x100;" horiz-adv-x="584" d="M127 770 C127 770 427 770 427 770 C427 770 427 798 427 798 C427 798 127 798 127 798 C127 798 127 770 127 770 L127 770 Z M566 15 C566 15 562 15 562 15 C551 15 533 38 518 74 C518 74 286 675 286 675 C286 675 268 675 268 675 C268 675 56 65 56 65 C44 34 30 15 19 15 C19 15 16 15 16 15 C16 15 16 0 16 0 C16 0 34 0 34 0 C34 0 46 0 46 0 C46 0 58 0 58 0 C58 0 93 0 93 0 C93 0 93 15 93 15 C93 15 89 15 89 15 C74 15 74 44 88 89 C88 89 137 235 137 235 C137 235 381 235 381 235 C381 235 445 63 445 63 C453 34 453 15 443 15 C443 15 439 15 439 15 C439 15 439 0 439 0 C439 0 468 0 468 0 C468 0 508 0 508 0 C508 0 547 0 547 0 C547 0 566 0 566 0 C566 0 566 15 566 15 L566 15 Z M374 254 C374 254 144 254 144 254 C144 254 253 578 253 578 C253 578 374 254 374 254 L374 254 Z " />
<glyph glyph-name="amacron" unicode="&#x101;" horiz-adv-x="587" d="M98 610 C98 610 398 610 398 610 C398 610 398 638 398 638 C398 638 98 638 98 638 C98 638 98 610 98 610 L98 610 Z M494 29 C474 49 470 67 470 123 C470 123 470 500 470 500 C470 500 456 500 456 500 C456 500 429 387 429 387 C413 456 352 505 267 505 C144 505 62 393 62 225 C62 87 136 -5 248 -5 C335 -5 398 37 420 105 C420 105 420 0 420 0 C420 0 420 -5 420 -5 C420 -5 428 -5 428 -5 C428 -5 466 11 466 11 C466 11 494 20 494 20 C494 20 494 29 494 29 L494 29 Z M420 128 C407 66 352 26 275 26 C179 26 114 113 114 244 C114 392 174 491 265 491 C358 491 420 429 420 347 C420 347 420 128 420 128 L420 128 Z " />
<glyph glyph-name="Abreve" unicode="&#x102;" horiz-adv-x="584" d="M162 872 C173 809 219 768 277 768 C335 768 381 809 392 872 C392 872 384 873 384 873 C376 830 333 801 277 801 C221 801 178 830 171 873 C171 873 162 872 162 872 L162 872 Z M566 15 C566 15 562 15 562 15 C551 15 533 38 518 74 C518 74 286 675 286 675 C286 675 268 675 268 675 C268 675 56 65 56 65 C44 34 30 15 19 15 C19 15 16 15 16 15 C16 15 16 0 16 0 C16 0 34 0 34 0 C34 0 46 0 46 0 C46 0 58 0 58 0 C58 0 93 0 93 0 C93 0 93 15 93 15 C93 15 89 15 89 15 C74 15 74 44 88 89 C88 89 137 235 137 235 C137 235 381 235 381 235 C381 235 445 63 445 63 C453 34 453 15 443 15 C443 15 439 15 439 15 C439 15 439 0 439 0 C439 0 468 0 468 0 C468 0 508 0 508 0 C508 0 547 0 547 0 C547 0 566 0 566 0 C566 0 566 15 566 15 L566 15 Z M374 254 C374 254 144 254 144 254 C144 254 253 578 253 578 C253 578 374 254 374 254 L374 254 Z " />
<glyph glyph-name="abreve" unicode="&#x103;" horiz-adv-x="587" d="M133 682 C144 619 190 578 248 578 C306 578 352 619 363 682 C363 682 354 683 354 683 C347 640 304 611 248 611 C192 611 149 640 141 683 C141 683 133 682 133 682 L133 682 Z M494 29 C474 49 470 67 470 123 C470 123 470 500 470 500 C470 500 456 500 456 500 C456 500 429 387 429 387 C413 456 352 505 267 505 C144 505 62 393 62 225 C62 87 136 -5 248 -5 C335 -5 398 37 420 105 C420 105 420 0 420 0 C420 0 420 -5 420 -5 C420 -5 428 -5 428 -5 C428 -5 466 11 466 11 C466 11 494 20 494 20 C494 20 494 29 494 29 L494 29 Z M420 128 C407 66 352 26 275 26 C179 26 114 113 114 244 C114 392 174 491 265 491 C358 491 420 429 420 347 C420 347 420 128 420 128 L420 128 Z " />
<glyph glyph-name="Aogonek" unicode="&#x104;" horiz-adv-x="584" d="M566 15 C566 15 562 15 562 15 C551 15 533 38 518 74 C518 74 286 675 286 675 C286 675 268 675 268 675 C268 675 56 65 56 65 C44 34 30 15 19 15 C19 15 16 15 16 15 C16 15 16 0 16 0 C16 0 34 0 34 0 C34 0 46 0 46 0 C46 0 58 0 58 0 C58 0 93 0 93 0 C93 0 93 15 93 15 C93 15 89 15 89 15 C74 15 74 44 88 89 C88 89 137 235 137 235 C137 235 381 235 381 235 C381 235 445 63 445 63 C453 34 453 15 443 15 C443 15 439 15 439 15 C439 15 439 0 439 0 C439 0 446 0 446 0 C398 -29 325 -96 325 -155 C325 -202 366 -233 429 -233 C459 -233 491 -219 509 -197 C509 -197 505 -193 505 -193 C493 -209 466 -219 440 -219 C389 -219 356 -191 356 -149 C356 -84 435 -12 468 0 C468 0 508 0 508 0 C508 0 547 0 547 0 C547 0 566 0 566 0 C566 0 566 15 566 15 L566 15 Z M374 254 C374 254 144 254 144 254 C144 254 253 578 253 578 C253 578 374 254 374 254 L374 254 Z " />
<glyph glyph-name="aogonek" unicode="&#x105;" horiz-adv-x="496" d="M468 37 C456 26 445 18 430 15 C440 23 449 28 456 31 C456 31 456 42 456 42 C444 38 427 28 410 14 C384 17 377 40 377 73 C377 73 377 359 377 359 C377 447 329 505 257 505 C117 505 45 446 77 356 C77 356 127 356 127 356 C98 437 145 491 246 491 C293 491 324 443 324 371 C324 371 324 250 324 250 C324 250 208 234 208 234 C108 220 42 167 42 102 C42 38 88 -5 157 -5 C214 -5 278 23 324 66 C324 21 337 -10 381 -10 C381 -10 381 -10 382 -10 C346 -45 313 -91 313 -133 C313 -193 354 -233 416 -233 C447 -233 479 -219 497 -197 C497 -197 493 -193 493 -193 C480 -209 454 -219 427 -219 C377 -219 344 -182 344 -128 C344 -85 373 -40 404 -8 C433 -3 454 11 473 30 C473 30 468 37 468 37 L468 37 Z M324 238 C324 238 324 77 324 77 C287 47 234 28 182 28 C128 28 92 63 92 116 C92 165 138 206 208 218 C208 218 324 238 324 238 L324 238 Z " />
<glyph glyph-name="Cacute" unicode="&#x106;" horiz-adv-x="730" d="M354 691 C354 691 464 820 464 820 C490 850 506 871 506 875 C506 881 486 895 478 895 C475 895 460 873 439 840 C439 840 349 695 349 695 C349 695 354 691 354 691 L354 691 Z M663 521 C663 521 663 571 663 571 C626 627 521 665 402 665 C199 665 64 531 64 330 C64 129 199 -5 402 -5 C521 -5 626 33 663 89 C663 89 663 139 663 139 C663 139 650 139 650 139 C646 133 641 125 637 119 C604 67 536 27 463 17 C443 14 423 13 402 13 C246 13 143 140 143 330 C143 520 246 647 402 647 C434 647 465 644 493 639 C493 639 493 639 493 639 C549 629 606 590 637 541 C641 535 646 527 650 521 C650 521 663 521 663 521 L663 521 Z " />
<glyph glyph-name="cacute" unicode="&#x107;" horiz-adv-x="489" d="M225 531 C225 531 335 660 335 660 C360 690 377 711 377 715 C377 721 357 735 348 735 C346 735 331 713 310 680 C310 680 220 535 220 535 C220 535 225 531 225 531 L225 531 Z M431 121 C431 121 425 124 425 124 C396 65 341 25 286 25 C180 25 110 117 110 254 C110 396 185 491 297 491 C346 491 381 456 385 404 C386 389 396 379 410 379 C423 379 432 388 432 401 C427 463 375 505 303 505 C155 505 57 397 57 235 C57 91 132 -5 244 -5 C320 -5 395 45 431 121 L431 121 Z " />
<glyph glyph-name="Ccircumflex" unicode="&#x108;" horiz-adv-x="730" d="M663 521 C663 521 663 571 663 571 C626 627 521 665 402 665 C199 665 64 531 64 330 C64 129 199 -5 402 -5 C521 -5 626 33 663 89 C663 89 663 139 663 139 C663 139 650 139 650 139 C646 133 641 125 637 119 C604 67 536 27 463 17 C443 14 423 13 402 13 C246 13 143 140 143 330 C143 520 246 647 402 647 C434 647 465 644 493 639 C493 639 493 639 493 639 C549 629 606 590 637 541 C641 535 646 527 650 521 C650 521 663 521 663 521 L663 521 Z M402 853 C402 853 515 693 515 693 C515 693 520 698 520 698 C520 698 418 891 418 891 C415 895 409 905 402 905 C394 905 388 895 386 891 C386 891 283 698 283 698 C283 698 289 693 289 693 C289 693 402 853 402 853 L402 853 Z " />
<glyph glyph-name="Cdotaccent" unicode="&#x10a;" horiz-adv-x="730" d="M402 730 C420 730 432 742 432 761 C432 779 420 791 402 791 C383 791 371 779 371 761 C371 742 383 730 402 730 L402 730 Z M663 521 C663 521 663 571 663 571 C626 627 521 665 402 665 C199 665 64 531 64 330 C64 129 199 -5 402 -5 C521 -5 626 33 663 89 C663 89 663 139 663 139 C663 139 650 139 650 139 C646 133 641 125 637 119 C604 67 536 27 463 17 C443 14 423 13 402 13 C246 13 143 140 143 330 C143 520 246 647 402 647 C434 647 465 644 493 639 C493 639 493 639 493 639 C549 629 606 590 637 541 C641 535 646 527 650 521 C650 521 663 521 663 521 L663 521 Z " />
<glyph glyph-name="cdotaccent" unicode="&#x10b;" horiz-adv-x="489" d="M303 570 C321 570 333 582 333 601 C333 619 321 631 303 631 C284 631 272 619 272 601 C272 582 284 570 303 570 L303 570 Z M431 121 C431 121 425 124 425 124 C396 65 341 25 286 25 C180 25 110 117 110 254 C110 396 185 491 297 491 C346 491 381 456 385 404 C386 389 396 379 410 379 C423 379 432 388 432 401 C427 463 375 505 303 505 C155 505 57 397 57 235 C57 91 132 -5 244 -5 C320 -5 395 45 431 121 L431 121 Z " />
<glyph glyph-name="Ccaron" unicode="&#x10c;" horiz-adv-x="730" d="M663 521 C663 521 663 571 663 571 C626 627 521 665 402 665 C199 665 64 531 64 330 C64 129 199 -5 402 -5 C521 -5 626 33 663 89 C663 89 663 139 663 139 C663 139 650 139 650 139 C646 133 641 125 637 119 C604 67 536 27 463 17 C443 14 423 13 402 13 C246 13 143 140 143 330 C143 520 246 647 402 647 C434 647 465 644 493 639 C493 639 493 639 493 639 C549 629 606 590 637 541 C641 535 646 527 650 521 C650 521 663 521 663 521 L663 521 Z M402 767 C402 767 515 927 515 927 C515 927 520 922 520 922 C520 922 418 729 418 729 C415 725 409 715 402 715 C394 715 388 725 386 729 C386 729 283 922 283 922 C283 922 289 927 289 927 C289 927 402 767 402 767 L402 767 Z " />
<glyph glyph-name="ccaron" unicode="&#x10d;" horiz-adv-x="489" d="M431 121 C431 121 425 124 425 124 C396 65 341 25 286 25 C180 25 110 117 110 254 C110 396 185 491 297 491 C346 491 381 456 385 404 C386 389 396 379 410 379 C423 379 432 388 432 401 C427 463 375 505 303 505 C155 505 57 397 57 235 C57 91 132 -5 244 -5 C320 -5 395 45 431 121 L431 121 Z M303 607 C303 607 416 767 416 767 C416 767 421 762 421 762 C421 762 319 569 319 569 C316 565 310 555 303 555 C295 555 289 565 287 569 C287 569 185 762 185 762 C185 762 190 767 190 767 C190 767 303 607 303 607 L303 607 Z " />
<glyph glyph-name="Dcaron" unicode="&#x10e;" horiz-adv-x="659" d="M54 645 C54 645 58 645 58 645 C70 645 78 619 78 580 C78 580 78 80 78 80 C78 41 70 15 58 15 C58 15 54 15 54 15 C54 15 54 0 54 0 C54 0 78 0 78 0 C78 0 114 0 114 0 C114 0 150 0 150 0 C150 0 302 0 302 0 C483 0 603 132 603 330 C603 528 467 660 264 660 C264 660 150 660 150 660 C150 660 114 660 114 660 C114 660 78 660 78 660 C78 660 54 660 54 660 C54 660 54 645 54 645 L54 645 Z M304 768 C304 768 417 927 417 927 C417 927 422 922 422 922 C422 922 320 729 320 729 C318 725 312 715 304 715 C297 715 291 725 288 729 C288 729 186 922 186 922 C186 922 191 927 191 927 C191 927 304 768 304 768 L304 768 Z M150 14 C150 14 150 646 150 646 C150 646 264 646 264 646 C424 646 531 520 531 330 C531 140 439 14 302 14 C302 14 150 14 150 14 L150 14 Z " />
<glyph glyph-name="dcaron" unicode="&#x10f;" horiz-adv-x="609" d="M516 29 C496 49 492 67 492 123 C492 123 492 610 492 610 C492 610 492 707 492 707 C492 707 492 720 492 720 C492 720 482 720 482 720 C482 720 418 700 418 700 C418 700 418 691 418 691 C439 670 442 654 442 597 C442 597 442 423 442 423 C413 473 356 505 281 505 C150 505 62 393 62 225 C62 87 142 -5 262 -5 C344 -5 413 27 442 75 C442 75 442 13 442 13 C442 13 442 0 442 0 C442 0 452 0 452 0 C452 0 516 20 516 20 C516 20 516 29 516 29 L516 29 Z M606 635 C626 688 640 736 640 742 C640 751 618 754 609 753 C598 754 583 692 574 647 C574 647 541 484 541 484 C541 484 547 482 547 482 C547 482 606 635 606 635 L606 635 Z M442 110 C442 110 442 87 442 87 C422 50 363 26 289 26 C184 26 114 113 114 244 C114 392 180 491 279 491 C362 491 423 449 442 388 C442 388 442 110 442 110 L442 110 Z " />
<glyph glyph-name="Emacron" unicode="&#x112;" horiz-adv-x="504" d="M95 770 C95 770 395 770 395 770 C395 770 395 798 395 798 C395 798 95 798 95 798 C95 798 95 770 95 770 L95 770 Z M356 385 C344 369 305 361 249 361 C249 361 139 361 139 361 C139 361 139 642 139 642 C139 642 275 642 275 642 C343 642 396 626 419 599 C419 599 430 599 430 599 C431 615 431 635 430 651 C431 654 431 658 430 660 C430 660 424 660 424 660 C424 660 350 660 350 660 C350 660 139 660 139 660 C139 660 103 660 103 660 C103 660 67 660 67 660 C67 660 43 660 43 660 C43 660 43 645 43 645 C43 645 46 645 46 645 C59 645 67 619 67 580 C67 580 67 80 67 80 C67 41 59 15 46 15 C46 15 43 15 43 15 C43 15 43 0 43 0 C43 0 67 0 67 0 C67 0 103 0 103 0 C103 0 139 0 139 0 C139 0 355 0 355 0 C355 0 434 0 434 0 C434 0 435 0 435 0 C436 2 436 6 436 9 C439 25 443 45 446 61 C446 61 435 61 435 61 C435 61 427 54 427 54 C401 33 343 18 283 18 C283 18 139 18 139 18 C139 18 139 343 139 343 C139 343 249 343 249 343 C305 343 343 334 356 316 C356 316 369 316 369 316 C369 316 369 343 369 343 C369 343 369 352 369 352 C369 352 369 361 369 361 C369 361 369 385 369 385 C369 385 356 385 356 385 L356 385 Z " />
<glyph glyph-name="emacron" unicode="&#x113;" horiz-adv-x="495" d="M121 610 C121 610 421 610 421 610 C421 610 421 638 421 638 C421 638 121 638 121 638 C121 638 121 610 121 610 L121 610 Z M438 121 C438 121 431 124 431 124 C403 65 346 25 289 25 C182 25 110 117 110 254 C110 279 112 302 116 324 C116 324 439 324 439 324 C439 433 372 505 271 505 C143 505 57 397 57 235 C57 91 133 -5 247 -5 C326 -5 402 45 438 121 L438 121 Z M117 333 C137 430 192 491 268 491 C342 491 392 441 392 366 C392 352 383 342 368 342 C368 342 392 342 392 342 C392 342 117 333 117 333 L117 333 Z " />
<glyph glyph-name="Ebreve" unicode="&#x114;" horiz-adv-x="504" d="M130 872 C141 809 187 768 245 768 C303 768 349 809 360 872 C360 872 352 873 352 873 C344 830 301 801 245 801 C189 801 146 830 139 873 C139 873 130 872 130 872 L130 872 Z M356 385 C344 369 305 361 249 361 C249 361 139 361 139 361 C139 361 139 642 139 642 C139 642 275 642 275 642 C343 642 396 626 419 599 C419 599 430 599 430 599 C431 615 431 635 430 651 C431 654 431 658 430 660 C430 660 424 660 424 660 C424 660 350 660 350 660 C350 660 139 660 139 660 C139 660 103 660 103 660 C103 660 67 660 67 660 C67 660 43 660 43 660 C43 660 43 645 43 645 C43 645 46 645 46 645 C59 645 67 619 67 580 C67 580 67 80 67 80 C67 41 59 15 46 15 C46 15 43 15 43 15 C43 15 43 0 43 0 C43 0 67 0 67 0 C67 0 103 0 103 0 C103 0 139 0 139 0 C139 0 355 0 355 0 C355 0 434 0 434 0 C434 0 435 0 435 0 C436 2 436 6 436 9 C439 25 443 45 446 61 C446 61 435 61 435 61 C435 61 427 54 427 54 C401 33 343 18 283 18 C283 18 139 18 139 18 C139 18 139 343 139 343 C139 343 249 343 249 343 C305 343 343 334 356 316 C356 316 369 316 369 316 C369 316 369 343 369 343 C369 343 369 352 369 352 C369 352 369 361 369 361 C369 361 369 385 369 385 C369 385 356 385 356 385 L356 385 Z " />
<glyph glyph-name="ebreve" unicode="&#x115;" horiz-adv-x="495" d="M156 712 C167 649 213 608 271 608 C329 608 375 649 386 712 C386 712 377 713 377 713 C370 670 327 641 271 641 C215 641 172 670 164 713 C164 713 156 712 156 712 L156 712 Z M438 121 C438 121 431 124 431 124 C403 65 346 25 289 25 C182 25 110 117 110 254 C110 279 112 302 116 324 C116 324 439 324 439 324 C439 433 372 505 271 505 C143 505 57 397 57 235 C57 91 133 -5 247 -5 C326 -5 402 45 438 121 L438 121 Z M117 333 C137 430 192 491 268 491 C342 491 392 441 392 366 C392 352 383 342 368 342 C368 342 392 342 392 342 C392 342 117 333 117 333 L117 333 Z " />
<glyph glyph-name="Edotaccent" unicode="&#x116;" horiz-adv-x="504" d="M245 730 C264 730 276 742 276 761 C276 779 264 791 245 791 C227 791 215 779 215 761 C215 742 227 730 245 730 L245 730 Z M356 385 C344 369 305 361 249 361 C249 361 139 361 139 361 C139 361 139 642 139 642 C139 642 275 642 275 642 C343 642 396 626 419 599 C419 599 430 599 430 599 C431 615 431 635 430 651 C431 654 431 658 430 660 C430 660 424 660 424 660 C424 660 350 660 350 660 C350 660 139 660 139 660 C139 660 103 660 103 660 C103 660 67 660 67 660 C67 660 43 660 43 660 C43 660 43 645 43 645 C43 645 46 645 46 645 C59 645 67 619 67 580 C67 580 67 80 67 80 C67 41 59 15 46 15 C46 15 43 15 43 15 C43 15 43 0 43 0 C43 0 67 0 67 0 C67 0 103 0 103 0 C103 0 139 0 139 0 C139 0 355 0 355 0 C355 0 434 0 434 0 C434 0 435 0 435 0 C436 2 436 6 436 9 C439 25 443 45 446 61 C446 61 435 61 435 61 C435 61 427 54 427 54 C401 33 343 18 283 18 C283 18 139 18 139 18 C139 18 139 343 139 343 C139 343 249 343 249 343 C305 343 343 334 356 316 C356 316 369 316 369 316 C369 316 369 343 369 343 C369 343 369 352 369 352 C369 352 369 361 369 361 C369 361 369 385 369 385 C369 385 356 385 356 385 L356 385 Z " />
<glyph glyph-name="edotaccent" unicode="&#x117;" horiz-adv-x="495" d="M271 570 C289 570 301 582 301 601 C301 619 289 631 271 631 C252 631 240 619 240 601 C240 582 252 570 271 570 L271 570 Z M438 121 C438 121 431 124 431 124 C403 65 346 25 289 25 C182 25 110 117 110 254 C110 279 112 302 116 324 C116 324 439 324 439 324 C439 433 372 505 271 505 C143 505 57 397 57 235 C57 91 133 -5 247 -5 C326 -5 402 45 438 121 L438 121 Z M117 333 C137 430 192 491 268 491 C342 491 392 441 392 366 C392 352 383 342 368 342 C368 342 392 342 392 342 C392 342 117 333 117 333 L117 333 Z " />
<glyph glyph-name="Eogonek" unicode="&#x118;" horiz-adv-x="504" d="M356 385 C344 369 305 361 249 361 C249 361 139 361 139 361 C139 361 139 642 139 642 C139 642 275 642 275 642 C343 642 396 626 419 599 C419 599 430 599 430 599 C431 615 431 635 430 651 C431 654 431 658 430 660 C430 660 424 660 424 660 C424 660 350 660 350 660 C350 660 139 660 139 660 C139 660 103 660 103 660 C103 660 67 660 67 660 C67 660 43 660 43 660 C43 660 43 645 43 645 C43 645 46 645 46 645 C59 645 67 619 67 580 C67 580 67 80 67 80 C67 41 59 15 46 15 C46 15 43 15 43 15 C43 15 43 0 43 0 C43 0 67 0 67 0 C67 0 103 0 103 0 C103 0 139 0 139 0 C139 0 355 0 355 0 C355 0 412 0 412 0 C364 -29 291 -96 291 -155 C291 -202 332 -233 394 -233 C425 -233 457 -219 474 -197 C474 -197 471 -193 471 -193 C458 -209 431 -219 405 -219 C354 -219 321 -191 321 -149 C321 -84 400 -12 434 0 C434 0 435 0 435 0 C436 2 436 6 436 9 C439 25 443 45 446 61 C446 61 435 61 435 61 C435 61 427 54 427 54 C401 33 343 18 283 18 C283 18 139 18 139 18 C139 18 139 343 139 343 C139 343 249 343 249 343 C305 343 343 334 356 316 C356 316 369 316 369 316 C369 316 369 343 369 343 C369 343 369 352 369 352 C369 352 369 361 369 361 C369 361 369 385 369 385 C369 385 356 385 356 385 L356 385 Z " />
<glyph glyph-name="eogonek" unicode="&#x119;" horiz-adv-x="495" d="M117 333 C137 430 192 491 268 491 C342 491 392 441 392 366 C392 352 383 342 368 342 C368 342 392 342 392 342 C392 342 117 333 117 333 L117 333 Z M116 324 C116 324 439 324 439 324 C439 433 372 505 271 505 C143 505 57 397 57 235 C57 91 133 -5 247 -5 C252 -5 256 -5 261 -4 C214 -37 153 -98 153 -152 C153 -201 194 -233 256 -233 C286 -233 319 -219 336 -197 C336 -197 333 -193 333 -193 C320 -209 293 -219 267 -219 C216 -219 183 -190 183 -147 C183 -87 247 -22 285 -1 C350 12 408 57 438 121 C438 121 431 124 431 124 C403 65 346 25 289 25 C182 25 110 117 110 254 C110 279 112 302 116 324 L116 324 Z " />
<glyph glyph-name="Ecaron" unicode="&#x11a;" horiz-adv-x="504" d="M356 385 C344 369 305 361 249 361 C249 361 139 361 139 361 C139 361 139 642 139 642 C139 642 275 642 275 642 C343 642 396 626 419 599 C419 599 430 599 430 599 C431 615 431 635 430 651 C431 654 431 658 430 660 C430 660 424 660 424 660 C424 660 350 660 350 660 C350 660 139 660 139 660 C139 660 103 660 103 660 C103 660 67 660 67 660 C67 660 43 660 43 660 C43 660 43 645 43 645 C43 645 46 645 46 645 C59 645 67 619 67 580 C67 580 67 80 67 80 C67 41 59 15 46 15 C46 15 43 15 43 15 C43 15 43 0 43 0 C43 0 67 0 67 0 C67 0 103 0 103 0 C103 0 139 0 139 0 C139 0 355 0 355 0 C355 0 434 0 434 0 C434 0 435 0 435 0 C436 2 436 6 436 9 C439 25 443 45 446 61 C446 61 435 61 435 61 C435 61 427 54 427 54 C401 33 343 18 283 18 C283 18 139 18 139 18 C139 18 139 343 139 343 C139 343 249 343 249 343 C305 343 343 334 356 316 C356 316 369 316 369 316 C369 316 369 343 369 343 C369 343 369 352 369 352 C369 352 369 361 369 361 C369 361 369 385 369 385 C369 385 356 385 356 385 L356 385 Z M245 768 C245 768 358 927 358 927 C358 927 363 922 363 922 C363 922 261 729 261 729 C259 725 253 715 245 715 C238 715 232 725 229 729 C229 729 127 922 127 922 C127 922 132 927 132 927 C132 927 245 768 245 768 L245 768 Z " />
<glyph glyph-name="ecaron" unicode="&#x11b;" horiz-adv-x="495" d="M438 121 C438 121 431 124 431 124 C403 65 346 25 289 25 C182 25 110 117 110 254 C110 279 112 302 116 324 C116 324 439 324 439 324 C439 433 372 505 271 505 C143 505 57 397 57 235 C57 91 133 -5 247 -5 C326 -5 402 45 438 121 L438 121 Z M271 608 C271 608 384 767 384 767 C384 767 389 762 389 762 C389 762 287 569 287 569 C285 565 278 555 271 555 C263 555 257 565 255 569 C255 569 153 762 153 762 C153 762 158 767 158 767 C158 767 271 608 271 608 L271 608 Z M117 333 C137 430 192 491 268 491 C342 491 392 441 392 366 C392 352 383 342 368 342 C368 342 392 342 392 342 C392 342 117 333 117 333 L117 333 Z " />
<glyph glyph-name="Gcircumflex" unicode="&#x11c;" horiz-adv-x="769" d="M671 310 C671 310 647 310 647 310 C647 310 614 310 614 310 C614 310 582 310 582 310 C582 310 558 310 558 310 C558 310 558 295 558 295 C558 295 562 295 562 295 C574 295 582 269 582 230 C582 230 582 47 582 47 C525 26 454 13 390 13 C242 13 143 140 143 330 C143 520 242 647 390 647 C419 647 446 645 472 640 C472 640 472 640 472 640 C528 630 586 591 617 541 C621 535 626 527 630 521 C630 521 643 521 643 521 C643 521 643 571 643 571 C606 627 505 665 390 665 C195 665 64 531 64 330 C64 129 195 -5 390 -5 C481 -5 583 19 647 56 C647 56 647 230 647 230 C647 269 655 295 667 295 C667 295 671 295 671 295 C671 295 671 310 671 310 L671 310 Z M390 852 C390 852 503 693 503 693 C503 693 508 698 508 698 C508 698 406 891 406 891 C404 895 398 905 390 905 C383 905 377 895 375 891 C375 891 272 698 272 698 C272 698 277 693 277 693 C277 693 390 852 390 852 L390 852 Z " />
<glyph glyph-name="Gbreve" unicode="&#x11e;" horiz-adv-x="769" d="M275 872 C286 809 332 768 390 768 C448 768 494 809 506 872 C506 872 497 873 497 873 C489 830 447 801 390 801 C334 801 291 830 284 873 C284 873 275 872 275 872 L275 872 Z M671 310 C671 310 647 310 647 310 C647 310 614 310 614 310 C614 310 582 310 582 310 C582 310 558 310 558 310 C558 310 558 295 558 295 C558 295 562 295 562 295 C574 295 582 269 582 230 C582 230 582 47 582 47 C525 26 454 13 390 13 C242 13 143 140 143 330 C143 520 242 647 390 647 C419 647 446 645 472 640 C472 640 472 640 472 640 C528 630 586 591 617 541 C621 535 626 527 630 521 C630 521 643 521 643 521 C643 521 643 571 643 571 C606 627 505 665 390 665 C195 665 64 531 64 330 C64 129 195 -5 390 -5 C481 -5 583 19 647 56 C647 56 647 230 647 230 C647 269 655 295 667 295 C667 295 671 295 671 295 C671 295 671 310 671 310 L671 310 Z " />
<glyph glyph-name="gbreve" unicode="&#x11f;" horiz-adv-x="480" d="M138 712 C149 649 195 608 253 608 C311 608 357 649 368 712 C368 712 359 713 359 713 C352 670 309 641 253 641 C197 641 154 670 146 713 C146 713 138 712 138 712 L138 712 Z M474 500 C474 500 337 490 337 490 C337 490 337 490 337 490 C313 500 284 505 253 505 C147 505 76 443 76 350 C76 277 120 222 191 203 C112 201 59 165 59 112 C59 69 89 37 137 25 C73 -6 34 -57 34 -111 C34 -187 93 -238 182 -238 C345 -238 454 -162 454 -49 C454 22 383 70 276 70 C276 70 198 67 198 67 C134 63 92 89 92 131 C92 170 134 195 198 195 C198 195 253 195 253 195 C359 195 430 257 430 350 C430 401 408 443 371 470 C371 470 474 472 474 472 C474 472 474 500 474 500 L474 500 Z M123 350 C123 436 175 494 253 494 C331 494 383 436 383 350 C383 264 331 206 253 206 C175 206 123 264 123 350 L123 350 Z M150 22 C166 20 182 19 200 20 C200 20 262 22 262 22 C356 22 418 -17 418 -74 C418 -165 326 -225 187 -225 C115 -225 67 -177 67 -105 C67 -53 99 -6 150 22 C150 22 150 22 150 22 L150 22 Z " />
<glyph glyph-name="Gdotaccent" unicode="&#x120;" horiz-adv-x="769" d="M390 730 C409 730 421 742 421 761 C421 779 409 791 390 791 C372 791 360 779 360 761 C360 742 372 730 390 730 L390 730 Z M671 310 C671 310 647 310 647 310 C647 310 614 310 614 310 C614 310 582 310 582 310 C582 310 558 310 558 310 C558 310 558 295 558 295 C558 295 562 295 562 295 C574 295 582 269 582 230 C582 230 582 47 582 47 C525 26 454 13 390 13 C242 13 143 140 143 330 C143 520 242 647 390 647 C419 647 446 645 472 640 C472 640 472 640 472 640 C528 630 586 591 617 541 C621 535 626 527 630 521 C630 521 643 521 643 521 C643 521 643 571 643 571 C606 627 505 665 390 665 C195 665 64 531 64 330 C64 129 195 -5 390 -5 C481 -5 583 19 647 56 C647 56 647 230 647 230 C647 269 655 295 667 295 C667 295 671 295 671 295 C671 295 671 310 671 310 L671 310 Z " />
<glyph glyph-name="gdotaccent" unicode="&#x121;" horiz-adv-x="480" d="M253 570 C271 570 283 582 283 601 C283 619 271 631 253 631 C234 631 222 619 222 601 C222 582 234 570 253 570 L253 570 Z M474 500 C474 500 337 490 337 490 C337 490 337 490 337 490 C313 500 284 505 253 505 C147 505 76 443 76 350 C76 277 120 222 191 203 C112 201 59 165 59 112 C59 69 89 37 137 25 C73 -6 34 -57 34 -111 C34 -187 93 -238 182 -238 C345 -238 454 -162 454 -49 C454 22 383 70 276 70 C276 70 198 67 198 67 C134 63 92 89 92 131 C92 170 134 195 198 195 C198 195 253 195 253 195 C359 195 430 257 430 350 C430 401 408 443 371 470 C371 470 474 472 474 472 C474 472 474 500 474 500 L474 500 Z M123 350 C123 436 175 494 253 494 C331 494 383 436 383 350 C383 264 331 206 253 206 C175 206 123 264 123 350 L123 350 Z M150 22 C166 20 182 19 200 20 C200 20 262 22 262 22 C356 22 418 -17 418 -74 C418 -165 326 -225 187 -225 C115 -225 67 -177 67 -105 C67 -53 99 -6 150 22 C150 22 150 22 150 22 L150 22 Z " />
<glyph glyph-name="Hcircumflex" unicode="&#x124;" horiz-adv-x="680" d="M514 645 C514 645 517 645 517 645 C530 645 538 619 538 580 C538 580 538 356 538 356 C538 356 139 356 139 356 C139 356 139 580 139 580 C139 580 139 592 139 592 C140 624 148 645 159 645 C159 645 162 645 162 645 C162 645 162 660 162 660 C162 660 139 660 139 660 C139 660 103 660 103 660 C103 660 67 660 67 660 C67 660 43 660 43 660 C43 660 43 645 43 645 C43 645 46 645 46 645 C59 645 67 619 67 580 C67 580 67 80 67 80 C67 41 59 15 46 15 C46 15 43 15 43 15 C43 15 43 0 43 0 C43 0 67 0 67 0 C67 0 103 0 103 0 C103 0 139 0 139 0 C139 0 162 0 162 0 C162 0 162 15 162 15 C162 15 159 15 159 15 C148 15 140 36 139 68 C139 68 139 80 139 80 C139 80 139 338 139 338 C139 338 538 338 538 338 C538 338 538 80 538 80 C538 41 530 15 517 15 C517 15 514 15 514 15 C514 15 514 0 514 0 C514 0 538 0 538 0 C538 0 574 0 574 0 C574 0 610 0 610 0 C610 0 634 0 634 0 C633 0 633 3 634 8 C633 12 633 15 634 15 C634 15 630 15 630 15 C619 15 611 36 610 68 C610 68 610 80 610 80 C610 80 610 580 610 580 C610 580 610 592 610 592 C611 624 619 645 630 645 C630 645 634 645 634 645 C633 645 633 648 634 653 C633 657 633 660 634 660 C634 660 610 660 610 660 C610 660 574 660 574 660 C574 660 538 660 538 660 C538 660 514 660 514 660 C514 660 514 645 514 645 L514 645 Z M338 852 C338 852 451 693 451 693 C451 693 456 698 456 698 C456 698 354 891 354 891 C352 895 346 905 338 905 C331 905 325 895 322 891 C322 891 220 698 220 698 C220 698 225 693 225 693 C225 693 338 852 338 852 L338 852 Z " />
<glyph glyph-name="Itilde" unicode="&#x128;" horiz-adv-x="205" d="M-43 755 C-43 795 -25 822 2 822 C63 822 121 759 182 759 C222 759 249 796 249 852 C249 852 240 852 240 852 C240 816 221 792 193 792 C132 792 73 855 13 855 C-26 855 -52 815 -52 755 C-52 755 -43 755 -43 755 L-43 755 Z M158 660 C158 660 135 660 135 660 C135 660 99 660 99 660 C99 660 63 660 63 660 C63 660 39 660 39 660 C39 660 39 645 39 645 C39 645 42 645 42 645 C55 645 63 619 63 580 C63 580 63 80 63 80 C63 41 55 15 42 15 C42 15 39 15 39 15 C39 15 39 0 39 0 C39 0 63 0 63 0 C63 0 99 0 99 0 C99 0 135 0 135 0 C135 0 158 0 158 0 C158 0 158 15 158 15 C158 15 155 15 155 15 C143 15 136 35 135 67 C135 67 135 80 135 80 C135 80 135 580 135 580 C135 580 135 593 135 593 C136 625 143 645 155 645 C155 645 158 645 158 645 C158 645 158 660 158 660 L158 660 Z " />
<glyph glyph-name="itilde" unicode="&#x129;" horiz-adv-x="201" d="M126 0 C126 0 150 0 150 0 C150 0 150 15 150 15 C150 15 145 15 145 15 C134 15 126 13 126 0 C126 0 126 420 126 420 C126 420 126 505 126 505 C126 505 123 505 123 505 C123 505 56 484 56 484 C56 484 56 475 56 475 C56 475 70 453 70 453 C74 447 76 438 76 406 C76 406 76 0 76 0 C76 13 68 15 57 15 C57 15 52 15 52 15 C52 15 52 0 52 0 C52 0 76 0 76 0 C76 0 76 406 76 406 C76 406 76 420 76 420 C76 420 126 420 126 420 C126 420 126 0 126 0 L126 0 Z M-41 595 C-41 635 -23 662 4 662 C65 662 123 599 184 599 C224 599 251 636 251 692 C251 692 243 692 243 692 C243 656 224 632 195 632 C134 632 76 695 15 695 C-23 695 -49 655 -49 595 C-49 595 -41 595 -41 595 L-41 595 Z " />
<glyph glyph-name="Imacron" unicode="&#x12a;" horiz-adv-x="205" d="M-51 770 C-51 770 249 770 249 770 C249 770 249 798 249 798 C249 798 -51 798 -51 798 C-51 798 -51 770 -51 770 L-51 770 Z M158 660 C158 660 135 660 135 660 C135 660 99 660 99 660 C99 660 63 660 63 660 C63 660 39 660 39 660 C39 660 39 645 39 645 C39 645 42 645 42 645 C55 645 63 619 63 580 C63 580 63 80 63 80 C63 41 55 15 42 15 C42 15 39 15 39 15 C39 15 39 0 39 0 C39 0 63 0 63 0 C63 0 99 0 99 0 C99 0 135 0 135 0 C135 0 158 0 158 0 C158 0 158 15 158 15 C158 15 155 15 155 15 C143 15 136 35 135 67 C135 67 135 80 135 80 C135 80 135 580 135 580 C135 580 135 593 135 593 C136 625 143 645 155 645 C155 645 158 645 158 645 C158 645 158 660 158 660 L158 660 Z " />
<glyph glyph-name="imacron" unicode="&#x12b;" horiz-adv-x="201" d="M126 0 C126 0 150 0 150 0 C150 0 150 15 150 15 C150 15 145 15 145 15 C134 15 126 13 126 0 C126 0 126 420 126 420 C126 420 126 505 126 505 C126 505 123 505 123 505 C123 505 56 484 56 484 C56 484 56 475 56 475 C56 475 70 453 70 453 C74 447 76 438 76 406 C76 406 76 0 76 0 C76 13 68 15 57 15 C57 15 52 15 52 15 C52 15 52 0 52 0 C52 0 76 0 76 0 C76 0 76 406 76 406 C76 406 76 420 76 420 C76 420 126 420 126 420 C126 420 126 0 126 0 L126 0 Z M-49 610 C-49 610 251 610 251 610 C251 610 251 638 251 638 C251 638 -49 638 -49 638 C-49 638 -49 610 -49 610 L-49 610 Z " />
<glyph glyph-name="Ibreve" unicode="&#x12c;" horiz-adv-x="205" d="M-17 872 C-6 809 41 768 99 768 C157 768 203 809 214 872 C214 872 205 873 205 873 C197 830 155 801 99 801 C42 801 0 830 -8 873 C-8 873 -17 872 -17 872 L-17 872 Z M158 660 C158 660 135 660 135 660 C135 660 99 660 99 660 C99 660 63 660 63 660 C63 660 39 660 39 660 C39 660 39 645 39 645 C39 645 42 645 42 645 C55 645 63 619 63 580 C63 580 63 80 63 80 C63 41 55 15 42 15 C42 15 39 15 39 15 C39 15 39 0 39 0 C39 0 63 0 63 0 C63 0 99 0 99 0 C99 0 135 0 135 0 C135 0 158 0 158 0 C158 0 158 15 158 15 C158 15 155 15 155 15 C143 15 136 35 135 67 C135 67 135 80 135 80 C135 80 135 580 135 580 C135 580 135 593 135 593 C136 625 143 645 155 645 C155 645 158 645 158 645 C158 645 158 660 158 660 L158 660 Z " />
<glyph glyph-name="ibreve" unicode="&#x12d;" horiz-adv-x="201" d="M126 0 C126 0 150 0 150 0 C150 0 150 15 150 15 C150 15 145 15 145 15 C134 15 126 13 126 0 C126 0 126 420 126 420 C126 420 126 505 126 505 C126 505 123 505 123 505 C123 505 56 484 56 484 C56 484 56 475 56 475 C56 475 70 453 70 453 C74 447 76 438 76 406 C76 406 76 0 76 0 C76 13 68 15 57 15 C57 15 52 15 52 15 C52 15 52 0 52 0 C52 0 76 0 76 0 C76 0 76 406 76 406 C76 406 76 420 76 420 C76 420 126 420 126 420 C126 420 126 0 126 0 L126 0 Z M-15 712 C-3 649 43 608 101 608 C159 608 205 649 216 712 C216 712 207 713 207 713 C200 670 157 641 101 641 C45 641 2 670 -6 713 C-6 713 -15 712 -15 712 L-15 712 Z " />
<glyph glyph-name="Idotaccent" unicode="&#x130;" horiz-adv-x="205" d="M99 730 C117 730 129 742 129 761 C129 779 117 791 99 791 C80 791 68 779 68 761 C68 742 80 730 99 730 L99 730 Z M158 660 C158 660 135 660 135 660 C135 660 99 660 99 660 C99 660 63 660 63 660 C63 660 39 660 39 660 C39 660 39 645 39 645 C39 645 42 645 42 645 C55 645 63 619 63 580 C63 580 63 80 63 80 C63 41 55 15 42 15 C42 15 39 15 39 15 C39 15 39 0 39 0 C39 0 63 0 63 0 C63 0 99 0 99 0 C99 0 135 0 135 0 C135 0 158 0 158 0 C158 0 158 15 158 15 C158 15 155 15 155 15 C143 15 136 35 135 67 C135 67 135 80 135 80 C135 80 135 580 135 580 C135 580 135 593 135 593 C136 625 143 645 155 645 C155 645 158 645 158 645 C158 645 158 660 158 660 L158 660 Z " />
<glyph glyph-name="dotlessi" unicode="&#x131;" horiz-adv-x="201" d="M126 0 C126 0 150 0 150 0 C150 0 150 15 150 15 C150 15 145 15 145 15 C134 15 126 13 126 0 C126 0 126 420 126 420 C126 420 126 505 126 505 C126 505 123 505 123 505 C123 505 56 484 56 484 C56 484 56 475 56 475 C56 475 70 453 70 453 C74 447 76 438 76 406 C76 406 76 0 76 0 C76 13 68 15 57 15 C57 15 52 15 52 15 C52 15 52 0 52 0 C52 0 76 0 76 0 C76 0 76 406 76 406 C76 406 76 420 76 420 C76 420 126 420 126 420 C126 420 126 0 126 0 L126 0 Z " />
<glyph glyph-name="Jcircumflex" unicode="&#x134;" horiz-adv-x="334" d="M288 660 C288 660 264 660 264 660 C264 660 228 660 228 660 C228 660 192 660 192 660 C192 660 168 660 168 660 C168 660 168 645 168 645 C168 645 172 645 172 645 C184 645 192 619 192 580 C192 580 192 200 192 200 C192 57 172 1 120 1 C87 1 61 21 54 50 C50 63 40 72 29 72 C12 72 3 63 7 50 C16 14 56 -10 106 -10 C220 -10 264 66 264 261 C264 261 264 580 264 580 C264 619 272 645 284 645 C284 645 288 645 288 645 C288 645 288 660 288 660 L288 660 Z M228 852 C228 852 341 693 341 693 C341 693 346 698 346 698 C346 698 244 891 244 891 C242 895 235 905 228 905 C220 905 214 895 212 891 C212 891 110 698 110 698 C110 698 115 693 115 693 C115 693 228 852 228 852 L228 852 Z " />
<glyph glyph-name="Lacute" unicode="&#x139;" horiz-adv-x="504" d="M78 691 C78 691 188 820 188 820 C213 850 230 871 230 875 C230 881 210 895 201 895 C199 895 184 873 163 840 C163 840 73 695 73 695 C73 695 78 691 78 691 L78 691 Z M427 66 C427 66 421 59 421 59 C398 34 347 18 293 18 C293 18 139 18 139 18 C139 18 139 580 139 580 C139 580 139 592 139 592 C140 624 148 645 159 645 C159 645 162 645 162 645 C162 645 162 660 162 660 C162 660 139 660 139 660 C139 660 103 660 103 660 C103 660 67 660 67 660 C67 660 43 660 43 660 C43 660 43 645 43 645 C43 645 46 645 46 645 C59 645 67 619 67 580 C67 580 67 80 67 80 C67 41 59 15 46 15 C46 15 43 15 43 15 C43 15 43 0 43 0 C43 0 67 0 67 0 C67 0 103 0 103 0 C103 0 139 0 139 0 C139 0 355 0 355 0 C355 0 434 0 434 0 C434 0 435 0 435 0 C436 2 436 6 436 9 C440 25 443 47 446 63 C439 64 427 66 427 66 C427 66 427 66 427 66 L427 66 Z " />
<glyph glyph-name="Lcaron" unicode="&#x13d;" horiz-adv-x="504" d="M427 66 C427 66 421 59 421 59 C398 34 347 18 293 18 C293 18 139 18 139 18 C139 18 139 580 139 580 C139 580 139 592 139 592 C140 624 148 645 159 645 C159 645 162 645 162 645 C162 645 162 660 162 660 C162 660 139 660 139 660 C139 660 103 660 103 660 C103 660 67 660 67 660 C67 660 43 660 43 660 C43 660 43 645 43 645 C43 645 46 645 46 645 C59 645 67 619 67 580 C67 580 67 80 67 80 C67 41 59 15 46 15 C46 15 43 15 43 15 C43 15 43 0 43 0 C43 0 67 0 67 0 C67 0 103 0 103 0 C103 0 139 0 139 0 C139 0 355 0 355 0 C355 0 434 0 434 0 C434 0 435 0 435 0 C436 2 436 6 436 9 C440 25 443 47 446 63 C439 64 427 66 427 66 C427 66 427 66 427 66 L427 66 Z M276 575 C297 628 311 676 311 682 C311 691 289 694 279 693 C269 692 254 632 245 587 C245 587 211 424 211 424 C211 424 217 422 217 422 C217 422 276 575 276 575 L276 575 Z " />
<glyph glyph-name="lcaron" unicode="&#x13e;" horiz-adv-x="201" d="M52 691 C73 670 76 654 76 597 C76 597 76 80 76 80 C76 41 68 15 56 15 C56 15 52 15 52 15 C52 15 52 0 52 0 C52 0 76 0 76 0 C76 0 101 0 101 0 C101 0 126 0 126 0 C126 0 150 0 150 0 C150 0 150 15 150 15 C150 15 146 15 146 15 C134 15 126 41 126 80 C126 80 126 610 126 610 C126 610 126 707 126 707 C126 707 126 720 126 720 C126 720 116 720 116 720 C116 720 52 700 52 700 C52 700 52 691 52 691 L52 691 Z M239 605 C260 658 274 706 274 712 C274 721 252 724 243 723 C232 724 217 662 208 617 C208 617 174 454 174 454 C174 454 181 452 181 452 C181 452 239 605 239 605 L239 605 Z " />
<glyph glyph-name="Lslash" unicode="&#x141;" horiz-adv-x="504" d="M17 272 C17 272 67 291 67 291 C67 291 67 80 67 80 C67 41 59 15 46 15 C46 15 43 15 43 15 C43 15 43 0 43 0 C43 0 67 0 67 0 C67 0 103 0 103 0 C103 0 139 0 139 0 C139 0 355 0 355 0 C355 0 434 0 434 0 C434 0 435 0 435 0 C436 2 436 6 436 9 C440 25 443 47 446 63 C439 64 427 66 427 66 C427 66 421 59 421 59 C398 34 347 18 293 18 C293 18 139 18 139 18 C139 18 139 317 139 317 C139 317 286 372 286 372 C286 372 286 388 286 388 C286 388 139 333 139 333 C139 333 139 580 139 580 C139 580 139 592 139 592 C140 624 148 645 159 645 C159 645 162 645 162 645 C162 645 162 660 162 660 C162 660 139 660 139 660 C139 660 103 660 103 660 C103 660 67 660 67 660 C67 660 43 660 43 660 C43 660 43 645 43 645 C43 645 46 645 46 645 C59 645 67 619 67 580 C67 580 67 307 67 307 C67 307 17 288 17 288 C17 288 17 272 17 272 L17 272 Z " />
<glyph glyph-name="lslash" unicode="&#x142;" horiz-adv-x="201" d="M-24 302 C-24 302 76 342 76 342 C76 342 76 80 76 80 C76 41 68 15 56 15 C56 15 52 15 52 15 C52 15 52 0 52 0 C52 0 76 0 76 0 C76 0 101 0 101 0 C101 0 126 0 126 0 C126 0 150 0 150 0 C150 0 150 15 150 15 C150 15 146 15 146 15 C134 15 126 41 126 80 C126 80 126 362 126 362 C126 362 226 402 226 402 C226 402 226 418 226 418 C226 418 126 378 126 378 C126 378 126 610 126 610 C126 610 126 707 126 707 C126 707 126 720 126 720 C126 720 116 720 116 720 C116 720 52 700 52 700 C52 700 52 691 52 691 C73 670 76 654 76 597 C76 597 76 358 76 358 C76 358 -24 318 -24 318 C-24 318 -24 302 -24 302 L-24 302 Z " />
<glyph glyph-name="Nacute" unicode="&#x143;" horiz-adv-x="611" d="M278 691 C278 691 388 820 388 820 C413 850 430 871 430 875 C430 881 410 895 401 895 C399 895 384 873 362 840 C362 840 272 695 272 695 C272 695 278 691 278 691 L278 691 Z M571 660 C571 660 547 660 547 660 C547 660 537 660 537 660 C537 660 526 660 526 660 C526 660 502 660 502 660 C502 660 502 645 502 645 C502 645 506 645 506 645 C518 645 526 619 526 580 C526 580 526 87 526 87 C526 87 142 660 142 660 C142 660 94 660 94 660 C94 660 83 660 83 660 C83 660 72 660 72 660 C72 660 49 660 49 660 C49 660 49 645 49 645 C49 645 52 645 52 645 C64 645 72 619 72 580 C72 580 72 80 72 80 C72 41 64 15 52 15 C52 15 49 15 49 15 C49 15 49 0 49 0 C49 0 72 0 72 0 C72 0 83 0 83 0 C83 0 94 0 94 0 C94 0 118 0 118 0 C118 0 118 15 118 15 C118 15 114 15 114 15 C102 15 94 41 94 80 C94 80 94 604 94 604 C94 604 493 10 493 10 C493 10 507 -11 507 -11 C507 -11 547 -11 547 -11 C547 -11 547 36 547 36 C547 36 547 580 547 580 C548 619 556 645 568 645 C568 645 571 645 571 645 C571 645 571 660 571 660 L571 660 Z " />
<glyph glyph-name="nacute" unicode="&#x144;" horiz-adv-x="531" d="M191 531 C191 531 301 660 301 660 C326 690 342 711 342 715 C342 721 322 735 314 735 C311 735 296 713 275 680 C275 680 185 535 185 535 C185 535 191 531 191 531 L191 531 Z M485 15 C485 15 481 15 481 15 C469 15 461 41 461 80 C461 80 461 336 461 336 C461 438 426 505 335 505 C239 505 158 461 125 394 C125 394 125 407 125 407 C125 407 125 500 125 500 C125 500 115 500 115 500 C115 500 52 480 52 480 C52 480 52 471 52 471 C70 446 75 435 75 377 C75 377 75 80 75 80 C75 41 67 15 55 15 C55 15 52 15 52 15 C52 15 52 0 52 0 C52 0 75 0 75 0 C75 0 100 0 100 0 C100 0 125 0 125 0 C125 0 149 0 149 0 C149 0 149 15 149 15 C149 15 146 15 146 15 C134 15 126 41 125 80 C125 80 125 382 125 382 C150 436 216 471 296 471 C379 471 411 415 411 331 C411 331 411 80 411 80 C411 41 403 15 391 15 C391 15 387 15 387 15 C387 15 387 0 387 0 C387 0 411 0 411 0 C411 0 436 0 436 0 C436 0 461 0 461 0 C461 0 485 0 485 0 C485 0 485 15 485 15 L485 15 Z " />
<glyph glyph-name="Ncaron" unicode="&#x147;" horiz-adv-x="611" d="M571 660 C571 660 547 660 547 660 C547 660 537 660 537 660 C537 660 526 660 526 660 C526 660 502 660 502 660 C502 660 502 645 502 645 C502 645 506 645 506 645 C518 645 526 619 526 580 C526 580 526 87 526 87 C526 87 142 660 142 660 C142 660 94 660 94 660 C94 660 83 660 83 660 C83 660 72 660 72 660 C72 660 49 660 49 660 C49 660 49 645 49 645 C49 645 52 645 52 645 C64 645 72 619 72 580 C72 580 72 80 72 80 C72 41 64 15 52 15 C52 15 49 15 49 15 C49 15 49 0 49 0 C49 0 72 0 72 0 C72 0 83 0 83 0 C83 0 94 0 94 0 C94 0 118 0 118 0 C118 0 118 15 118 15 C118 15 114 15 114 15 C102 15 94 41 94 80 C94 80 94 604 94 604 C94 604 493 10 493 10 C493 10 507 -11 507 -11 C507 -11 547 -11 547 -11 C547 -11 547 36 547 36 C547 36 547 580 547 580 C548 619 556 645 568 645 C568 645 571 645 571 645 C571 645 571 660 571 660 L571 660 Z M310 768 C310 768 423 927 423 927 C423 927 428 922 428 922 C428 922 326 729 326 729 C323 725 317 715 310 715 C302 715 296 725 294 729 C294 729 192 922 192 922 C192 922 197 927 197 927 C197 927 310 768 310 768 L310 768 Z " />
<glyph glyph-name="ncaron" unicode="&#x148;" horiz-adv-x="531" d="M485 15 C485 15 481 15 481 15 C469 15 461 41 461 80 C461 80 461 336 461 336 C461 438 426 505 335 505 C239 505 158 461 125 394 C125 394 125 407 125 407 C125 407 125 500 125 500 C125 500 115 500 115 500 C115 500 52 480 52 480 C52 480 52 471 52 471 C70 446 75 435 75 377 C75 377 75 80 75 80 C75 41 67 15 55 15 C55 15 52 15 52 15 C52 15 52 0 52 0 C52 0 75 0 75 0 C75 0 100 0 100 0 C100 0 125 0 125 0 C125 0 149 0 149 0 C149 0 149 15 149 15 C149 15 146 15 146 15 C134 15 126 41 125 80 C125 80 125 382 125 382 C150 436 216 471 296 471 C379 471 411 415 411 331 C411 331 411 80 411 80 C411 41 403 15 391 15 C391 15 387 15 387 15 C387 15 387 0 387 0 C387 0 411 0 411 0 C411 0 436 0 436 0 C436 0 461 0 461 0 C461 0 485 0 485 0 C485 0 485 15 485 15 L485 15 Z M268 608 C268 608 381 767 381 767 C381 767 386 762 386 762 C386 762 284 569 284 569 C282 565 276 555 268 555 C261 555 255 565 252 569 C252 569 150 762 150 762 C150 762 155 767 155 767 C155 767 268 608 268 608 L268 608 Z " />
<glyph glyph-name="Omacron" unicode="&#x14c;" horiz-adv-x="772" d="M240 770 C240 770 540 770 540 770 C540 770 540 798 540 798 C540 798 240 798 240 798 C240 798 240 770 240 770 L240 770 Z M390 13 C227 13 143 159 143 330 C143 501 227 647 390 647 C553 647 637 501 637 330 C637 159 553 13 390 13 L390 13 Z M64 330 C64 149 175 -5 390 -5 C605 -5 716 149 716 330 C716 511 605 665 390 665 C175 665 64 511 64 330 L64 330 Z " />
<glyph glyph-name="omacron" unicode="&#x14d;" horiz-adv-x="602" d="M151 610 C151 610 451 610 451 610 C451 610 451 638 451 638 C451 638 151 638 151 638 C151 638 151 610 151 610 L151 610 Z M301 6 C188 6 112 104 112 250 C112 396 188 494 301 494 C415 494 490 396 490 250 C490 104 415 6 301 6 L301 6 Z M57 250 C57 97 155 -5 301 -5 C448 -5 546 97 546 250 C546 403 448 505 301 505 C155 505 57 403 57 250 L57 250 Z " />
<glyph glyph-name="Obreve" unicode="&#x14e;" horiz-adv-x="772" d="M275 872 C286 809 332 768 390 768 C448 768 494 809 505 872 C505 872 497 873 497 873 C489 830 446 801 390 801 C334 801 291 830 283 873 C283 873 275 872 275 872 L275 872 Z M390 13 C227 13 143 159 143 330 C143 501 227 647 390 647 C553 647 637 501 637 330 C637 159 553 13 390 13 L390 13 Z M64 330 C64 149 175 -5 390 -5 C605 -5 716 149 716 330 C716 511 605 665 390 665 C175 665 64 511 64 330 L64 330 Z " />
<glyph glyph-name="obreve" unicode="&#x14f;" horiz-adv-x="602" d="M186 712 C197 649 243 608 301 608 C359 608 405 649 417 712 C417 712 408 713 408 713 C400 670 358 641 301 641 C245 641 202 670 195 713 C195 713 186 712 186 712 L186 712 Z M301 6 C188 6 112 104 112 250 C112 396 188 494 301 494 C415 494 490 396 490 250 C490 104 415 6 301 6 L301 6 Z M57 250 C57 97 155 -5 301 -5 C448 -5 546 97 546 250 C546 403 448 505 301 505 C155 505 57 403 57 250 L57 250 Z " />
<glyph glyph-name="Racute" unicode="&#x154;" horiz-adv-x="576" d="M205 691 C205 691 315 820 315 820 C340 850 356 871 356 875 C356 881 336 895 328 895 C325 895 310 873 289 840 C289 840 199 695 199 695 C199 695 205 691 205 691 L205 691 Z M54 645 C54 645 58 645 58 645 C70 645 78 619 78 580 C78 580 78 80 78 80 C78 41 70 15 58 15 C58 15 54 15 54 15 C54 15 54 0 54 0 C54 0 78 0 78 0 C78 0 114 0 114 0 C114 0 150 0 150 0 C150 0 174 0 174 0 C174 0 174 15 174 15 C174 15 170 15 170 15 C158 15 150 41 150 80 C150 80 150 317 150 317 C150 317 238 317 238 317 C238 317 403 106 403 106 C482 4 488 0 548 0 C548 0 570 0 570 0 C570 0 570 11 570 11 C570 11 565 11 565 11 C546 11 542 14 479 95 C479 95 302 320 302 320 C415 334 487 398 487 490 C487 592 404 660 280 660 C280 660 150 660 150 660 C150 660 114 660 114 660 C114 660 78 660 78 660 C78 660 54 660 54 660 C54 660 54 645 54 645 L54 645 Z M254 330 C254 330 228 330 228 330 C228 330 150 330 150 330 C150 330 150 646 150 646 C150 646 280 646 280 646 C359 646 411 583 411 490 C411 394 348 330 254 330 L254 330 Z " />
<glyph glyph-name="Rcaron" unicode="&#x158;" horiz-adv-x="530" d="M54 645 C54 645 58 645 58 645 C70 645 78 619 78 580 C78 580 78 80 78 80 C78 41 70 15 58 15 C58 15 54 15 54 15 C54 15 54 0 54 0 C54 0 78 0 78 0 C78 0 114 0 114 0 C114 0 150 0 150 0 C150 0 174 0 174 0 C174 0 174 15 174 15 C174 15 170 15 170 15 C158 15 150 41 150 80 C150 80 150 317 150 317 C150 317 254 317 254 317 C307 172 414 28 523 -43 C523 -43 528 -35 528 -35 C463 8 378 150 315 321 C315 321 306 320 306 320 C417 335 487 399 487 490 C487 592 404 660 280 660 C280 660 150 660 150 660 C150 660 114 660 114 660 C114 660 78 660 78 660 C78 660 54 660 54 660 C54 660 54 645 54 645 L54 645 Z M282 768 C282 768 395 927 395 927 C395 927 400 922 400 922 C400 922 298 729 298 729 C296 725 290 715 282 715 C275 715 269 725 266 729 C266 729 164 922 164 922 C164 922 169 927 169 927 C169 927 282 768 282 768 L282 768 Z M150 330 C150 330 150 646 150 646 C150 646 280 646 280 646 C359 646 411 583 411 490 C411 394 348 330 254 330 C254 330 150 330 150 330 L150 330 Z " />
<glyph glyph-name="rcaron" unicode="&#x159;" horiz-adv-x="377" d="M52 471 C70 446 75 435 75 377 C75 377 75 80 75 80 C75 41 67 15 55 15 C55 15 52 15 52 15 C52 15 52 0 52 0 C52 0 75 0 75 0 C75 0 100 0 100 0 C100 0 125 0 125 0 C125 0 149 0 149 0 C149 0 149 15 149 15 C149 15 146 15 146 15 C134 15 126 41 125 80 C125 80 125 376 125 376 C142 432 184 468 234 468 C266 468 304 446 337 446 C351 446 360 455 360 470 C360 491 336 505 274 505 C204 505 146 457 125 384 C125 384 125 390 125 390 C125 390 125 407 125 407 C125 407 124 407 124 407 C124 407 119 500 119 500 C119 500 109 500 109 500 C109 500 52 480 52 480 C52 480 52 471 52 471 L52 471 Z M175 607 C175 607 287 767 287 767 C287 767 293 762 293 762 C293 762 190 569 190 569 C188 565 182 555 175 555 C167 555 161 565 159 569 C159 569 56 762 56 762 C56 762 62 767 62 767 C62 767 175 607 175 607 L175 607 Z " />
<glyph glyph-name="Sacute" unicode="&#x15a;" horiz-adv-x="518" d="M196 691 C196 691 306 820 306 820 C331 850 347 871 347 875 C347 881 327 895 319 895 C316 895 301 873 280 840 C280 840 190 695 190 695 C190 695 196 691 196 691 L196 691 Z M47 132 C47 132 47 78 47 78 C47 78 57 85 57 85 C57 85 57 85 57 85 C57 85 47 78 47 78 C80 28 171 -5 275 -5 C390 -5 466 66 466 173 C466 251 394 325 286 358 C177 391 105 450 105 505 C105 590 160 647 243 647 C266 647 289 643 311 637 C341 627 377 595 402 556 C407 547 414 536 419 528 C419 528 432 528 432 528 C432 528 432 582 432 582 C399 632 325 665 246 665 C131 665 55 590 55 476 C55 404 125 334 230 302 C341 268 415 204 415 143 C415 65 359 13 275 13 C256 13 238 14 221 17 C221 17 221 17 221 17 C164 25 105 63 73 112 C69 118 63 126 60 132 C60 132 47 132 47 132 L47 132 Z " />
<glyph glyph-name="sacute" unicode="&#x15b;" horiz-adv-x="434" d="M141 531 C141 531 251 660 251 660 C276 690 293 711 293 715 C293 721 273 735 264 735 C262 735 247 713 226 680 C226 680 136 535 136 535 C136 535 141 531 141 531 L141 531 Z M53 99 C53 99 53 62 53 62 C80 22 149 -5 225 -5 C317 -5 378 51 378 136 C378 185 328 237 252 268 C166 302 109 353 109 395 C109 454 153 494 219 494 C232 494 246 492 259 487 C259 487 259 487 259 487 C287 477 318 448 337 413 C337 413 344 399 344 399 C344 399 356 399 356 399 C356 399 356 433 356 433 C356 433 349 428 349 428 C349 428 349 428 349 428 C349 428 356 433 356 433 C327 476 272 505 219 505 C130 505 71 454 71 378 C71 326 129 268 216 232 C288 203 336 157 336 117 C336 51 293 6 227 6 C215 6 203 7 191 8 C191 8 191 9 191 9 C148 14 102 44 75 83 C72 88 68 94 64 99 C64 99 53 99 53 99 L53 99 Z " />
<glyph glyph-name="Scircumflex" unicode="&#x15c;" horiz-adv-x="518" d="M47 132 C47 132 47 78 47 78 C47 78 57 85 57 85 C57 85 57 85 57 85 C57 85 47 78 47 78 C80 28 171 -5 275 -5 C390 -5 466 66 466 173 C466 251 394 325 286 358 C177 391 105 450 105 505 C105 590 160 647 243 647 C266 647 289 643 311 637 C341 627 377 595 402 556 C407 547 414 536 419 528 C419 528 432 528 432 528 C432 528 432 582 432 582 C399 632 325 665 246 665 C131 665 55 590 55 476 C55 404 125 334 230 302 C341 268 415 204 415 143 C415 65 359 13 275 13 C256 13 238 14 221 17 C221 17 221 17 221 17 C164 25 105 63 73 112 C69 118 63 126 60 132 C60 132 47 132 47 132 L47 132 Z M243 852 C243 852 356 693 356 693 C356 693 361 698 361 698 C361 698 259 891 259 891 C256 895 250 905 243 905 C235 905 229 895 227 891 C227 891 125 698 125 698 C125 698 130 693 130 693 C130 693 243 852 243 852 L243 852 Z " />
<glyph glyph-name="Scedilla" unicode="&#x15e;" horiz-adv-x="518" d="M47 132 C47 132 47 78 47 78 C47 78 57 85 57 85 C57 85 57 85 57 85 C57 85 47 78 47 78 C80 28 171 -5 275 -5 C390 -5 466 66 466 173 C466 251 394 325 286 358 C177 391 105 450 105 505 C105 590 160 647 243 647 C266 647 289 643 311 637 C341 627 377 595 402 556 C407 547 414 536 419 528 C419 528 432 528 432 528 C432 528 432 582 432 582 C399 632 325 665 246 665 C131 665 55 590 55 476 C55 404 125 334 230 302 C341 268 415 204 415 143 C415 65 359 13 275 13 C256 13 238 14 221 17 C221 17 221 17 221 17 C164 25 105 63 73 112 C69 118 63 126 60 132 C60 132 47 132 47 132 L47 132 Z " />
<glyph glyph-name="scedilla" unicode="&#x15f;" horiz-adv-x="434" d="M53 99 C53 99 53 62 53 62 C80 22 149 -5 225 -5 C317 -5 378 51 378 136 C378 185 328 237 252 268 C166 302 109 353 109 395 C109 454 153 494 219 494 C232 494 246 492 259 487 C259 487 259 487 259 487 C287 477 318 448 337 413 C337 413 344 399 344 399 C344 399 356 399 356 399 C356 399 356 433 356 433 C356 433 349 428 349 428 C349 428 349 428 349 428 C349 428 356 433 356 433 C327 476 272 505 219 505 C130 505 71 454 71 378 C71 326 129 268 216 232 C288 203 336 157 336 117 C336 51 293 6 227 6 C215 6 203 7 191 8 C191 8 191 9 191 9 C148 14 102 44 75 83 C72 88 68 94 64 99 C64 99 53 99 53 99 L53 99 Z " />
<glyph glyph-name="Scaron" unicode="&#x160;" horiz-adv-x="518" d="M47 132 C47 132 47 78 47 78 C47 78 57 85 57 85 C57 85 57 85 57 85 C57 85 47 78 47 78 C80 28 171 -5 275 -5 C390 -5 466 66 466 173 C466 251 394 325 286 358 C177 391 105 450 105 505 C105 590 160 647 243 647 C266 647 289 643 311 637 C341 627 377 595 402 556 C407 547 414 536 419 528 C419 528 432 528 432 528 C432 528 432 582 432 582 C399 632 325 665 246 665 C131 665 55 590 55 476 C55 404 125 334 230 302 C341 268 415 204 415 143 C415 65 359 13 275 13 C256 13 238 14 221 17 C221 17 221 17 221 17 C164 25 105 63 73 112 C69 118 63 126 60 132 C60 132 47 132 47 132 L47 132 Z M243 768 C243 768 356 927 356 927 C356 927 361 922 361 922 C361 922 259 729 259 729 C256 725 250 715 243 715 C235 715 229 725 227 729 C227 729 125 922 125 922 C125 922 130 927 130 927 C130 927 243 768 243 768 L243 768 Z " />
<glyph glyph-name="scaron" unicode="&#x161;" horiz-adv-x="434" d="M53 99 C53 99 53 62 53 62 C80 22 149 -5 225 -5 C317 -5 378 51 378 136 C378 185 328 237 252 268 C166 302 109 353 109 395 C109 454 153 494 219 494 C232 494 246 492 259 487 C259 487 259 487 259 487 C287 477 318 448 337 413 C337 413 344 399 344 399 C344 399 356 399 356 399 C356 399 356 433 356 433 C356 433 349 428 349 428 C349 428 349 428 349 428 C349 428 356 433 356 433 C327 476 272 505 219 505 C130 505 71 454 71 378 C71 326 129 268 216 232 C288 203 336 157 336 117 C336 51 293 6 227 6 C215 6 203 7 191 8 C191 8 191 9 191 9 C148 14 102 44 75 83 C72 88 68 94 64 99 C64 99 53 99 53 99 L53 99 Z M219 607 C219 607 332 767 332 767 C332 767 337 762 337 762 C337 762 235 569 235 569 C232 565 226 555 219 555 C211 555 205 565 203 569 C203 569 101 762 101 762 C101 762 106 767 106 767 C106 767 219 607 219 607 L219 607 Z " />
<glyph glyph-name="Tcaron" unicode="&#x164;" horiz-adv-x="633" d="M377 15 C377 15 373 15 373 15 C361 15 353 41 353 80 C353 80 353 642 353 642 C353 642 462 642 462 642 C510 642 560 626 586 601 C586 601 594 594 594 594 C594 594 606 594 606 594 C605 612 603 634 601 651 C601 654 601 658 600 660 C600 660 587 660 587 660 C587 660 520 660 520 660 C520 660 114 660 114 660 C114 660 47 660 47 660 C47 660 34 660 34 660 C33 658 33 654 33 651 C31 634 29 612 28 594 C28 594 40 594 40 594 C40 594 48 601 48 601 C74 626 124 642 172 642 C172 642 281 642 281 642 C281 642 281 80 281 80 C281 41 273 15 261 15 C261 15 257 15 257 15 C257 15 257 0 257 0 C257 0 281 0 281 0 C281 0 317 0 317 0 C317 0 353 0 353 0 C353 0 377 0 377 0 C377 0 377 15 377 15 L377 15 Z M317 768 C317 768 430 927 430 927 C430 927 435 922 435 922 C435 922 333 729 333 729 C331 725 324 715 317 715 C309 715 303 725 301 729 C301 729 199 922 199 922 C199 922 204 927 204 927 C204 927 317 768 317 768 L317 768 Z " />
<glyph glyph-name="tcaron" unicode="&#x165;" horiz-adv-x="358" d="M320 500 C320 500 161 500 161 500 C161 500 161 640 161 640 C161 640 153 640 153 640 C153 640 115 495 115 495 C115 495 115 495 115 495 C115 495 135 572 135 572 C123 527 83 492 34 486 C34 486 32 486 32 486 C32 486 32 481 32 481 C32 481 111 481 111 481 C111 481 111 111 111 111 C111 21 130 -5 198 -5 C253 -5 294 40 331 107 C331 107 326 110 326 110 C296 54 264 17 223 17 C175 17 161 36 161 102 C161 102 161 481 161 481 C161 481 320 481 320 481 C320 481 320 500 320 500 L320 500 Z M433 605 C454 658 468 706 468 712 C468 721 446 724 437 723 C426 724 411 662 402 617 C402 617 368 454 368 454 C368 454 375 452 375 452 C375 452 433 605 433 605 L433 605 Z " />
<glyph glyph-name="Utilde" unicode="&#x168;" horiz-adv-x="587" d="M159 755 C159 795 177 822 204 822 C265 822 323 759 384 759 C424 759 451 796 451 852 C451 852 443 852 443 852 C443 816 424 792 395 792 C334 792 276 855 215 855 C177 855 151 815 151 755 C151 755 159 755 159 755 L159 755 Z M561 660 C561 660 534 660 534 660 C534 660 526 660 526 660 C526 660 517 660 517 660 C517 660 489 660 489 660 C489 660 489 645 489 645 C489 645 493 645 493 645 C507 645 517 615 517 570 C517 570 517 184 517 184 C517 86 461 20 316 20 C189 20 140 90 140 194 C140 194 140 580 140 580 C140 619 148 645 160 645 C160 645 164 645 164 645 C164 645 164 660 164 660 C164 660 140 660 140 660 C140 660 104 660 104 660 C104 660 68 660 68 660 C68 660 44 660 44 660 C44 660 44 645 44 645 C44 645 48 645 48 645 C60 645 68 619 68 580 C68 580 68 208 68 208 C68 80 135 -5 306 -5 C470 -5 534 68 534 178 C534 178 534 570 534 570 C534 615 543 645 557 645 C557 645 561 645 561 645 C561 645 561 660 561 660 L561 660 Z " />
<glyph glyph-name="utilde" unicode="&#x169;" horiz-adv-x="496" d="M96 595 C96 635 114 662 142 662 C202 662 261 599 321 599 C361 599 388 636 388 692 C388 692 380 692 380 692 C380 656 361 632 332 632 C271 632 213 695 152 695 C114 695 88 655 88 595 C88 595 96 595 96 595 L96 595 Z M455 29 C434 50 431 66 431 123 C431 123 431 500 431 500 C431 500 406 500 406 500 C406 500 381 500 381 500 C381 500 357 500 357 500 C357 500 357 485 357 485 C357 485 361 485 361 485 C373 485 381 459 381 420 C381 420 381 110 381 110 C381 110 381 99 381 99 C362 56 317 28 236 28 C143 28 95 81 95 161 C95 161 95 500 95 500 C95 500 70 500 70 500 C70 500 45 500 45 500 C45 500 22 500 22 500 C22 500 22 485 22 485 C22 485 25 485 25 485 C37 485 45 459 45 420 C45 420 45 420 45 420 C45 420 46 156 46 156 C46 59 97 -5 197 -5 C295 -5 353 31 381 86 C381 86 381 13 381 13 C381 13 381 0 381 0 C381 0 391 0 391 0 C391 0 455 20 455 20 C455 20 455 29 455 29 L455 29 Z " />
<glyph glyph-name="Umacron" unicode="&#x16a;" horiz-adv-x="587" d="M151 770 C151 770 451 770 451 770 C451 770 451 798 451 798 C451 798 151 798 151 798 C151 798 151 770 151 770 L151 770 Z M561 660 C561 660 534 660 534 660 C534 660 526 660 526 660 C526 660 517 660 517 660 C517 660 489 660 489 660 C489 660 489 645 489 645 C489 645 493 645 493 645 C507 645 517 615 517 570 C517 570 517 184 517 184 C517 86 461 20 316 20 C189 20 140 90 140 194 C140 194 140 580 140 580 C140 619 148 645 160 645 C160 645 164 645 164 645 C164 645 164 660 164 660 C164 660 140 660 140 660 C140 660 104 660 104 660 C104 660 68 660 68 660 C68 660 44 660 44 660 C44 660 44 645 44 645 C44 645 48 645 48 645 C60 645 68 619 68 580 C68 580 68 208 68 208 C68 80 135 -5 306 -5 C470 -5 534 68 534 178 C534 178 534 570 534 570 C534 615 543 645 557 645 C557 645 561 645 561 645 C561 645 561 660 561 660 L561 660 Z " />
<glyph glyph-name="umacron" unicode="&#x16b;" horiz-adv-x="496" d="M88 610 C88 610 388 610 388 610 C388 610 388 638 388 638 C388 638 88 638 88 638 C88 638 88 610 88 610 L88 610 Z M455 29 C434 50 431 66 431 123 C431 123 431 500 431 500 C431 500 406 500 406 500 C406 500 381 500 381 500 C381 500 357 500 357 500 C357 500 357 485 357 485 C357 485 361 485 361 485 C373 485 381 459 381 420 C381 420 381 110 381 110 C381 110 381 99 381 99 C362 56 317 28 236 28 C143 28 95 81 95 161 C95 161 95 500 95 500 C95 500 70 500 70 500 C70 500 45 500 45 500 C45 500 22 500 22 500 C22 500 22 485 22 485 C22 485 25 485 25 485 C37 485 45 459 45 420 C45 420 45 420 45 420 C45 420 46 156 46 156 C46 59 97 -5 197 -5 C295 -5 353 31 381 86 C381 86 381 13 381 13 C381 13 381 0 381 0 C381 0 391 0 391 0 C391 0 455 20 455 20 C455 20 455 29 455 29 L455 29 Z " />
<glyph glyph-name="Ubreve" unicode="&#x16c;" horiz-adv-x="587" d="M186 872 C197 809 243 768 301 768 C359 768 405 809 416 872 C416 872 407 873 407 873 C400 830 357 801 301 801 C245 801 202 830 194 873 C194 873 186 872 186 872 L186 872 Z M561 660 C561 660 534 660 534 660 C534 660 526 660 526 660 C526 660 517 660 517 660 C517 660 489 660 489 660 C489 660 489 645 489 645 C489 645 493 645 493 645 C507 645 517 615 517 570 C517 570 517 184 517 184 C517 86 461 20 316 20 C189 20 140 90 140 194 C140 194 140 580 140 580 C140 619 148 645 160 645 C160 645 164 645 164 645 C164 645 164 660 164 660 C164 660 140 660 140 660 C140 660 104 660 104 660 C104 660 68 660 68 660 C68 660 44 660 44 660 C44 660 44 645 44 645 C44 645 48 645 48 645 C60 645 68 619 68 580 C68 580 68 208 68 208 C68 80 135 -5 306 -5 C470 -5 534 68 534 178 C534 178 534 570 534 570 C534 615 543 645 557 645 C557 645 561 645 561 645 C561 645 561 660 561 660 L561 660 Z " />
<glyph glyph-name="ubreve" unicode="&#x16d;" horiz-adv-x="496" d="M123 712 C134 649 180 608 238 608 C296 608 342 649 354 712 C354 712 345 713 345 713 C337 670 294 641 238 641 C182 641 139 670 132 713 C132 713 123 712 123 712 L123 712 Z M455 29 C434 50 431 66 431 123 C431 123 431 500 431 500 C431 500 406 500 406 500 C406 500 381 500 381 500 C381 500 357 500 357 500 C357 500 357 485 357 485 C357 485 361 485 361 485 C373 485 381 459 381 420 C381 420 381 110 381 110 C381 110 381 99 381 99 C362 56 317 28 236 28 C143 28 95 81 95 161 C95 161 95 500 95 500 C95 500 70 500 70 500 C70 500 45 500 45 500 C45 500 22 500 22 500 C22 500 22 485 22 485 C22 485 25 485 25 485 C37 485 45 459 45 420 C45 420 45 420 45 420 C45 420 46 156 46 156 C46 59 97 -5 197 -5 C295 -5 353 31 381 86 C381 86 381 13 381 13 C381 13 381 0 381 0 C381 0 391 0 391 0 C391 0 455 20 455 20 C455 20 455 29 455 29 L455 29 Z " />
<glyph glyph-name="Uring" unicode="&#x16e;" horiz-adv-x="587" d="M301 706 C258 706 221 743 221 788 C221 836 253 869 301 869 C349 869 381 836 381 788 C381 743 344 706 301 706 L301 706 Z M207 788 C207 738 250 695 301 695 C352 695 395 738 395 788 C395 843 357 880 301 880 C245 880 207 843 207 788 L207 788 Z M561 660 C561 660 534 660 534 660 C534 660 526 660 526 660 C526 660 517 660 517 660 C517 660 489 660 489 660 C489 660 489 645 489 645 C489 645 493 645 493 645 C507 645 517 615 517 570 C517 570 517 184 517 184 C517 86 461 20 316 20 C189 20 140 90 140 194 C140 194 140 580 140 580 C140 619 148 645 160 645 C160 645 164 645 164 645 C164 645 164 660 164 660 C164 660 140 660 140 660 C140 660 104 660 104 660 C104 660 68 660 68 660 C68 660 44 660 44 660 C44 660 44 645 44 645 C44 645 48 645 48 645 C60 645 68 619 68 580 C68 580 68 208 68 208 C68 80 135 -5 306 -5 C470 -5 534 68 534 178 C534 178 534 570 534 570 C534 615 543 645 557 645 C557 645 561 645 561 645 C561 645 561 660 561 660 L561 660 Z " />
<glyph glyph-name="uring" unicode="&#x16f;" horiz-adv-x="496" d="M238 546 C195 546 158 583 158 628 C158 676 190 709 238 709 C286 709 318 676 318 628 C318 583 281 546 238 546 L238 546 Z M144 628 C144 578 187 535 238 535 C289 535 332 578 332 628 C332 683 294 720 238 720 C182 720 144 683 144 628 L144 628 Z M455 29 C434 50 431 66 431 123 C431 123 431 500 431 500 C431 500 406 500 406 500 C406 500 381 500 381 500 C381 500 357 500 357 500 C357 500 357 485 357 485 C357 485 361 485 361 485 C373 485 381 459 381 420 C381 420 381 110 381 110 C381 110 381 99 381 99 C362 56 317 28 236 28 C143 28 95 81 95 161 C95 161 95 500 95 500 C95 500 70 500 70 500 C70 500 45 500 45 500 C45 500 22 500 22 500 C22 500 22 485 22 485 C22 485 25 485 25 485 C37 485 45 459 45 420 C45 420 45 420 45 420 C45 420 46 156 46 156 C46 59 97 -5 197 -5 C295 -5 353 31 381 86 C381 86 381 13 381 13 C381 13 381 0 381 0 C381 0 391 0 391 0 C391 0 455 20 455 20 C455 20 455 29 455 29 L455 29 Z " />
<glyph glyph-name="Wcircumflex" unicode="&#x174;" horiz-adv-x="870" d="M786 645 C786 645 790 645 790 645 C805 645 808 619 796 580 C796 580 796 580 796 580 C796 580 628 -15 628 -15 C628 -15 652 73 652 73 C652 73 464 670 464 670 C464 670 450 670 450 670 C450 670 275 67 275 67 C275 67 122 591 122 591 C114 624 116 645 127 645 C127 645 131 645 131 645 C131 645 131 660 131 660 C131 660 102 660 102 660 C102 660 63 660 63 660 C63 660 23 660 23 660 C23 660 9 660 9 660 C9 660 9 645 9 645 C9 645 12 645 12 645 C22 645 37 619 50 580 C50 580 50 580 50 580 C50 580 251 -15 251 -15 C251 -15 264 -15 264 -15 C264 -15 464 670 464 670 C464 670 437 577 437 577 C437 577 628 -15 628 -15 C628 -15 641 -15 641 -15 C641 -15 813 580 813 580 C813 580 813 580 813 580 C824 619 840 645 852 645 C852 645 855 645 855 645 C856 645 856 648 855 653 C856 657 856 660 855 660 C855 660 836 660 836 660 C836 660 827 660 827 660 C827 660 819 660 819 660 C819 660 786 660 786 660 C786 660 786 645 786 645 L786 645 Z M457 852 C457 852 570 693 570 693 C570 693 575 698 575 698 C575 698 473 891 473 891 C470 895 464 905 457 905 C449 905 443 895 441 891 C441 891 339 698 339 698 C339 698 344 693 344 693 C344 693 457 852 457 852 L457 852 Z " />
<glyph glyph-name="Ycircumflex" unicode="&#x176;" horiz-adv-x="564" d="M348 15 C348 15 345 15 345 15 C333 15 325 41 324 80 C324 80 324 302 324 302 C324 302 324 302 324 302 C324 302 489 580 489 580 C489 580 490 580 490 580 C513 619 535 645 546 645 C546 645 549 645 549 645 C549 645 549 660 549 660 C549 660 537 660 537 660 C537 660 529 660 529 660 C529 660 521 660 521 660 C521 660 486 660 486 660 C486 660 486 645 486 645 C486 645 489 645 489 645 C502 645 493 614 466 566 C466 566 310 302 310 302 C310 302 299 302 299 302 C299 302 165 580 165 580 C165 580 165 580 165 580 C146 619 140 645 151 645 C151 645 155 645 155 645 C155 645 155 660 155 660 C155 660 126 660 126 660 C126 660 83 660 83 660 C83 660 40 660 40 660 C40 660 30 660 30 660 C30 660 30 645 30 645 C30 645 33 645 33 645 C42 645 62 619 83 580 C83 580 83 580 83 580 C83 580 252 268 252 268 C252 268 252 80 252 80 C252 41 244 15 232 15 C232 15 229 15 229 15 C229 15 229 0 229 0 C229 0 252 0 252 0 C252 0 288 0 288 0 C288 0 324 0 324 0 C324 0 348 0 348 0 C348 0 348 15 348 15 L348 15 Z M288 852 C288 852 401 693 401 693 C401 693 406 698 406 698 C406 698 304 891 304 891 C302 895 296 905 288 905 C281 905 275 895 273 891 C273 891 170 698 170 698 C170 698 175 693 175 693 C175 693 288 852 288 852 L288 852 Z " />
<glyph glyph-name="Ydieresis" unicode="&#x178;" horiz-adv-x="564" d="M377 730 C396 730 408 742 408 761 C408 779 396 791 377 791 C359 791 347 779 347 761 C347 742 359 730 377 730 L377 730 Z M200 730 C218 730 230 742 230 761 C230 779 218 791 200 791 C181 791 169 779 169 761 C169 742 181 730 200 730 L200 730 Z M348 15 C348 15 345 15 345 15 C333 15 325 41 324 80 C324 80 324 302 324 302 C324 302 324 302 324 302 C324 302 489 580 489 580 C489 580 490 580 490 580 C513 619 535 645 546 645 C546 645 549 645 549 645 C549 645 549 660 549 660 C549 660 537 660 537 660 C537 660 529 660 529 660 C529 660 521 660 521 660 C521 660 486 660 486 660 C486 660 486 645 486 645 C486 645 489 645 489 645 C502 645 493 614 466 566 C466 566 310 302 310 302 C310 302 299 302 299 302 C299 302 165 580 165 580 C165 580 165 580 165 580 C146 619 140 645 151 645 C151 645 155 645 155 645 C155 645 155 660 155 660 C155 660 126 660 126 660 C126 660 83 660 83 660 C83 660 40 660 40 660 C40 660 30 660 30 660 C30 660 30 645 30 645 C30 645 33 645 33 645 C42 645 62 619 83 580 C83 580 83 580 83 580 C83 580 252 268 252 268 C252 268 252 80 252 80 C252 41 244 15 232 15 C232 15 229 15 229 15 C229 15 229 0 229 0 C229 0 252 0 252 0 C252 0 288 0 288 0 C288 0 324 0 324 0 C324 0 348 0 348 0 C348 0 348 15 348 15 L348 15 Z " />
<glyph glyph-name="Zacute" unicode="&#x179;" horiz-adv-x="590" d="M334 691 C334 691 444 820 444 820 C469 850 486 871 486 875 C486 881 466 895 457 895 C455 895 440 873 418 840 C418 840 328 695 328 695 C328 695 334 691 334 691 L334 691 Z M519 9 C522 26 525 47 528 64 C528 64 525 64 525 64 C516 66 510 66 509 66 C484 37 435 19 375 19 C375 19 147 19 147 19 C147 19 536 660 536 660 C536 660 495 660 495 660 C495 660 454 660 454 660 C454 660 201 660 201 660 C201 660 135 660 135 660 C135 660 121 660 121 660 C121 658 120 654 119 651 C115 637 110 618 106 604 C106 604 118 604 118 604 C118 604 127 610 127 610 C157 629 208 642 257 642 C257 642 443 642 443 642 C443 642 55 0 55 0 C55 0 95 0 95 0 C95 0 135 0 135 0 C135 0 437 0 437 0 C437 0 516 0 516 0 C516 0 517 0 517 0 C518 3 518 7 519 9 L519 9 Z " />
<glyph glyph-name="zacute" unicode="&#x17a;" horiz-adv-x="497" d="M188 531 C188 531 298 660 298 660 C323 690 340 711 340 715 C340 721 320 735 312 735 C309 735 294 713 273 680 C273 680 183 535 183 535 C183 535 188 531 188 531 L188 531 Z M214 488 C214 488 214 488 214 488 C214 488 376 489 376 489 C376 489 63 0 63 0 C63 0 93 0 93 0 C93 0 122 0 122 0 C122 0 349 0 349 0 C349 0 426 0 426 0 C426 0 429 0 429 0 C429 2 429 4 430 6 C432 21 436 42 439 57 C439 57 435 57 435 57 C426 58 420 59 420 59 C420 59 413 52 413 52 C391 28 340 11 286 11 C286 11 129 11 129 11 C129 11 441 500 441 500 C441 500 412 500 412 500 C412 500 383 500 383 500 C383 500 158 500 158 500 C158 500 91 500 91 500 C91 500 78 500 78 500 C77 498 76 496 76 494 C73 484 70 470 67 460 C67 460 79 460 79 460 C110 476 160 488 214 488 C214 488 214 488 214 488 L214 488 Z " />
<glyph glyph-name="Zdotaccent" unicode="&#x17b;" horiz-adv-x="590" d="M336 730 C354 730 366 742 366 761 C366 779 354 791 336 791 C317 791 305 779 305 761 C305 742 317 730 336 730 L336 730 Z M519 9 C522 26 525 47 528 64 C528 64 525 64 525 64 C516 66 510 66 509 66 C484 37 435 19 375 19 C375 19 147 19 147 19 C147 19 536 660 536 660 C536 660 495 660 495 660 C495 660 454 660 454 660 C454 660 201 660 201 660 C201 660 135 660 135 660 C135 660 121 660 121 660 C121 658 120 654 119 651 C115 637 110 618 106 604 C106 604 118 604 118 604 C118 604 127 610 127 610 C157 629 208 642 257 642 C257 642 443 642 443 642 C443 642 55 0 55 0 C55 0 95 0 95 0 C95 0 135 0 135 0 C135 0 437 0 437 0 C437 0 516 0 516 0 C516 0 517 0 517 0 C518 3 518 7 519 9 L519 9 Z " />
<glyph glyph-name="zdotaccent" unicode="&#x17c;" horiz-adv-x="497" d="M266 570 C284 570 296 582 296 601 C296 619 284 631 266 631 C247 631 235 619 235 601 C235 582 247 570 266 570 L266 570 Z M214 488 C214 488 214 488 214 488 C214 488 376 489 376 489 C376 489 63 0 63 0 C63 0 93 0 93 0 C93 0 122 0 122 0 C122 0 349 0 349 0 C349 0 426 0 426 0 C426 0 429 0 429 0 C429 2 429 4 430 6 C432 21 436 42 439 57 C439 57 435 57 435 57 C426 58 420 59 420 59 C420 59 413 52 413 52 C391 28 340 11 286 11 C286 11 129 11 129 11 C129 11 441 500 441 500 C441 500 412 500 412 500 C412 500 383 500 383 500 C383 500 158 500 158 500 C158 500 91 500 91 500 C91 500 78 500 78 500 C77 498 76 496 76 494 C73 484 70 470 67 460 C67 460 79 460 79 460 C110 476 160 488 214 488 C214 488 214 488 214 488 L214 488 Z " />
<glyph glyph-name="Zcaron" unicode="&#x17d;" horiz-adv-x="590" d="M336 767 C336 767 448 927 448 927 C448 927 454 922 454 922 C454 922 352 729 352 729 C349 725 343 715 336 715 C328 715 322 725 320 729 C320 729 217 922 217 922 C217 922 223 927 223 927 C223 927 336 767 336 767 L336 767 Z M519 9 C522 26 525 47 528 64 C528 64 525 64 525 64 C516 66 510 66 509 66 C484 37 435 19 375 19 C375 19 147 19 147 19 C147 19 536 660 536 660 C536 660 495 660 495 660 C495 660 454 660 454 660 C454 660 201 660 201 660 C201 660 135 660 135 660 C135 660 121 660 121 660 C121 658 120 654 119 651 C115 637 110 618 106 604 C106 604 118 604 118 604 C118 604 127 610 127 610 C157 629 208 642 257 642 C257 642 443 642 443 642 C443 642 55 0 55 0 C55 0 95 0 95 0 C95 0 135 0 135 0 C135 0 437 0 437 0 C437 0 516 0 516 0 C516 0 517 0 517 0 C518 3 518 7 519 9 L519 9 Z " />
<glyph glyph-name="zcaron" unicode="&#x17e;" horiz-adv-x="497" d="M214 488 C214 488 214 488 214 488 C214 488 376 489 376 489 C376 489 63 0 63 0 C63 0 93 0 93 0 C93 0 122 0 122 0 C122 0 349 0 349 0 C349 0 426 0 426 0 C426 0 429 0 429 0 C429 2 429 4 430 6 C432 21 436 42 439 57 C439 57 435 57 435 57 C426 58 420 59 420 59 C420 59 413 52 413 52 C391 28 340 11 286 11 C286 11 129 11 129 11 C129 11 441 500 441 500 C441 500 412 500 412 500 C412 500 383 500 383 500 C383 500 158 500 158 500 C158 500 91 500 91 500 C91 500 78 500 78 500 C77 498 76 496 76 494 C73 484 70 470 67 460 C67 460 79 460 79 460 C110 476 160 488 214 488 C214 488 214 488 214 488 L214 488 Z M266 608 C266 608 379 767 379 767 C379 767 384 762 384 762 C384 762 282 569 282 569 C279 565 273 555 266 555 C258 555 252 565 250 569 C250 569 148 762 148 762 C148 762 153 767 153 767 C153 767 266 608 266 608 L266 608 Z " />
<glyph glyph-name="SmallLetterOwithogon" unicode="&#x1eb;" horiz-adv-x="712" d="M720 -51 C720 -51 716 -47 716 -47 C692 -76 638 -95 580 -95 C496 -95 425 -59 367 -5 C558 -2 656 127 656 277 C656 429 556 558 361 558 C166 558 66 429 66 277 C66 128 162 0 350 -5 C425 -78 504 -127 575 -127 C624 -127 682 -97 720 -51 L720 -51 Z M361 11 C213 11 137 133 137 277 C137 420 213 542 361 542 C509 542 585 420 585 277 C585 133 509 11 361 11 L361 11 Z " />
<glyph glyph-name="CapitalLetterAwithdo" unicode="&#x226;" horiz-adv-x="584" d="M277 730 C296 730 308 742 308 761 C308 779 296 791 277 791 C259 791 247 779 247 761 C247 742 259 730 277 730 L277 730 Z M566 15 C566 15 562 15 562 15 C551 15 533 38 518 74 C518 74 286 675 286 675 C286 675 268 675 268 675 C268 675 56 65 56 65 C44 34 30 15 19 15 C19 15 16 15 16 15 C16 15 16 0 16 0 C16 0 34 0 34 0 C34 0 46 0 46 0 C46 0 58 0 58 0 C58 0 93 0 93 0 C93 0 93 15 93 15 C93 15 89 15 89 15 C74 15 74 44 88 89 C88 89 137 235 137 235 C137 235 381 235 381 235 C381 235 445 63 445 63 C453 34 453 15 443 15 C443 15 439 15 439 15 C439 15 439 0 439 0 C439 0 468 0 468 0 C468 0 508 0 508 0 C508 0 547 0 547 0 C547 0 566 0 566 0 C566 0 566 15 566 15 L566 15 Z M374 254 C374 254 144 254 144 254 C144 254 253 578 253 578 C253 578 374 254 374 254 L374 254 Z " />
<glyph glyph-name="LETTERSMALLCAPITALG" unicode="&#x262;" horiz-adv-x="710" d="M612 260 C612 260 589 260 589 260 C589 260 559 260 559 260 C559 260 530 260 530 260 C530 260 506 260 506 260 C506 260 506 245 506 245 C506 245 510 245 510 245 C522 245 530 219 530 180 C530 180 530 47 530 47 C475 25 412 11 359 11 C226 11 137 117 137 277 C137 436 226 542 359 542 C376 542 393 541 410 538 C410 538 410 538 410 538 C467 530 526 490 559 436 C562 430 568 421 572 415 C572 415 585 415 585 415 C585 415 585 464 585 464 C585 464 578 459 578 459 C578 459 578 459 578 459 C578 459 585 464 585 464 C547 520 457 558 359 558 C183 558 66 445 66 277 C66 108 183 -5 359 -5 C433 -5 525 20 589 56 C589 56 589 180 589 180 C589 180 589 193 589 193 C590 225 597 245 609 245 C609 245 612 245 612 245 C612 245 612 260 612 260 L612 260 Z " />
<glyph glyph-name="LETTERSMALLCAPITALI" unicode="&#x26a;" horiz-adv-x="201" d="M155 553 C138 554 116 554 99 553 C81 554 59 554 42 553 C42 553 42 538 42 538 C42 538 46 538 46 538 C58 539 66 513 66 473 C66 473 66 80 66 80 C66 41 58 15 46 15 C46 15 42 15 42 15 C42 15 42 0 42 0 C42 0 66 0 66 0 C66 0 99 0 99 0 C99 0 131 0 131 0 C131 0 155 0 155 0 C155 0 155 15 155 15 C155 15 151 15 151 15 C139 15 131 41 131 80 C131 80 131 473 131 473 C131 513 139 539 151 538 C151 538 155 538 155 538 C155 538 155 553 155 553 L155 553 Z " />
<glyph glyph-name="LETTERSMALLCAPITALN" unicode="&#x274;" horiz-adv-x="549" d="M509 553 C499 554 486 554 475 553 C466 554 452 554 442 553 C442 553 442 538 442 538 C442 538 446 538 446 538 C458 539 466 513 466 473 C466 473 466 77 466 77 C466 77 136 553 136 553 C136 553 92 532 92 532 C92 532 92 532 92 532 C92 532 136 553 136 553 C136 553 92 553 92 553 C92 553 83 553 83 553 C73 554 59 554 49 553 C49 553 49 538 49 538 C49 538 53 538 53 538 C65 539 73 513 73 473 C73 473 73 80 73 80 C73 41 65 15 53 15 C53 15 49 15 49 15 C49 15 49 0 49 0 C49 0 73 0 73 0 C73 0 83 0 83 0 C83 0 92 0 92 0 C92 0 116 0 116 0 C116 0 116 15 116 15 C116 15 113 15 113 15 C100 15 92 41 92 80 C92 80 92 505 92 505 C92 505 436 9 436 9 C436 9 449 -10 449 -10 C449 -10 485 -10 485 -10 C485 -10 485 33 485 33 C485 33 485 473 485 473 C485 513 493 539 505 538 C505 538 509 538 509 538 C509 538 509 553 509 553 L509 553 Z " />
<glyph glyph-name="LETTERSMALLCAPITALR" unicode="&#x280;" horiz-adv-x="523" d="M56 538 C56 538 59 538 59 538 C72 539 80 513 80 473 C80 473 80 80 80 80 C80 41 72 15 59 15 C59 15 56 15 56 15 C56 15 56 0 56 0 C56 0 80 0 80 0 C80 0 112 0 112 0 C112 0 144 0 144 0 C144 0 168 0 168 0 C168 0 168 15 168 15 C168 15 165 15 165 15 C153 15 145 41 144 80 C144 80 144 265 144 265 C144 265 201 265 201 265 C201 265 345 106 345 106 C438 4 444 0 496 0 C496 0 516 0 516 0 C516 0 516 10 516 10 C516 10 511 10 511 10 C493 10 489 13 414 96 C414 96 258 268 258 268 C357 280 421 335 421 412 C421 497 345 553 232 553 C232 553 144 553 144 553 C144 553 112 553 112 553 C95 554 73 554 56 553 C56 553 56 538 56 538 L56 538 Z M214 278 C214 278 189 278 189 278 C189 278 144 278 144 278 C144 278 144 541 144 541 C144 541 232 541 232 541 C304 541 353 490 353 412 C353 332 297 278 214 278 L214 278 Z " />
<glyph glyph-name="LETTERSMALLCAPITALY" unicode="&#x28f;" horiz-adv-x="498" d="M312 15 C312 15 309 15 309 15 C297 15 289 41 288 80 C288 80 288 256 288 256 C288 256 426 482 426 482 C448 517 469 539 479 538 C479 538 482 538 482 538 C482 538 482 553 482 553 C476 554 469 554 463 553 C450 554 433 554 420 553 C420 553 420 538 420 538 C420 538 424 538 424 538 C437 539 428 512 404 469 C404 469 276 256 276 256 C276 256 262 256 262 256 C262 256 153 483 153 483 C138 517 135 539 145 538 C145 538 148 538 148 538 C148 538 148 553 148 553 C128 554 101 554 81 553 C66 554 47 554 33 553 C33 553 33 538 33 538 C33 538 35 538 35 538 C44 539 65 513 86 473 C86 473 86 473 86 473 C86 473 224 226 224 226 C224 226 224 80 224 80 C224 41 216 15 203 15 C203 15 200 15 200 15 C200 15 200 0 200 0 C200 0 224 0 224 0 C224 0 256 0 256 0 C256 0 288 0 288 0 C288 0 312 0 312 0 C312 0 312 15 312 15 L312 15 Z " />
<glyph glyph-name="LETTERSMALLCAPITALB" unicode="&#x299;" horiz-adv-x="497" d="M56 538 C56 538 59 538 59 538 C72 539 80 513 80 473 C80 473 80 80 80 80 C80 41 72 15 59 15 C59 15 56 15 56 15 C56 15 56 0 56 0 C56 0 80 0 80 0 C80 0 112 0 112 0 C112 0 144 0 144 0 C144 0 252 0 252 0 C384 0 471 61 471 152 C471 229 397 285 280 298 C364 314 417 362 417 427 C417 503 343 553 231 553 C231 553 144 553 144 553 C144 553 112 553 112 553 C95 554 73 554 56 553 C56 553 56 538 56 538 L56 538 Z M240 301 C235 301 229 301 224 301 C224 301 171 299 171 299 C171 299 144 299 144 299 C144 299 144 541 144 541 C144 541 231 541 231 541 C304 541 353 496 353 427 C353 358 308 310 240 301 C240 301 240 301 240 301 L240 301 Z M144 291 C144 291 209 291 209 291 C325 291 403 235 403 152 C403 68 341 13 247 13 C247 13 144 13 144 13 C144 13 144 291 144 291 L144 291 Z " />
<glyph glyph-name="LETTERSMALLCAPITALH" unicode="&#x29c;" horiz-adv-x="620" d="M461 538 C461 538 465 538 465 538 C477 539 485 513 485 473 C485 473 485 301 485 301 C485 301 133 301 133 301 C133 301 133 473 133 473 C133 513 141 539 154 538 C154 538 157 538 157 538 C157 538 157 553 157 553 C140 554 117 554 101 553 C84 554 62 554 45 553 C45 553 45 538 45 538 C45 538 48 538 48 538 C60 539 68 513 68 473 C68 473 68 80 68 80 C68 41 60 15 48 15 C48 15 45 15 45 15 C45 15 45 0 45 0 C45 0 68 0 68 0 C68 0 101 0 101 0 C101 0 133 0 133 0 C133 0 157 0 157 0 C157 0 157 15 157 15 C157 15 154 15 154 15 C141 15 133 41 133 80 C133 80 133 285 133 285 C133 285 485 285 485 285 C485 285 485 80 485 80 C485 41 477 15 465 15 C465 15 461 15 461 15 C461 15 461 0 461 0 C461 0 485 0 485 0 C485 0 517 0 517 0 C517 0 550 0 550 0 C550 0 574 0 574 0 C573 0 573 3 574 8 C573 12 573 15 574 15 C574 15 570 15 570 15 C559 15 551 36 550 68 C550 68 550 80 550 80 C550 80 550 473 550 473 C550 473 550 485 550 485 C551 518 559 539 570 538 C570 538 574 538 574 538 C573 539 573 542 574 546 C573 550 573 552 573 553 C574 553 574 553 574 553 C574 553 574 553 573 553 C573 553 573 553 573 553 C556 554 534 554 517 553 C500 554 478 554 461 553 C461 553 461 538 461 538 L461 538 Z " />
<glyph glyph-name="LETTERSMALLCAPITALL" unicode="&#x29f;" horiz-adv-x="454" d="M157 553 C140 554 117 554 101 553 C84 554 62 554 45 553 C45 553 45 538 45 538 C45 538 48 538 48 538 C60 539 68 513 68 473 C68 473 68 80 68 80 C68 41 60 15 48 15 C48 15 45 15 45 15 C45 15 45 0 45 0 C45 0 68 0 68 0 C68 0 101 0 101 0 C101 0 133 0 133 0 C133 0 304 0 304 0 C304 0 383 0 383 0 C383 0 384 0 384 0 C385 2 385 6 386 8 C388 24 392 45 395 62 C395 62 395 62 395 62 C395 62 395 62 395 62 C395 62 395 62 395 62 C395 61 394 62 392 62 C383 63 376 64 376 64 C351 35 302 16 242 16 C242 16 133 16 133 16 C133 16 133 473 133 473 C133 513 141 539 154 538 C154 538 157 538 157 538 C157 538 157 553 157 553 L157 553 Z " />
<glyph glyph-name="LETTERSMALLCAPITALA" unicode="&#x1d00;" horiz-adv-x="517" d="M498 15 C498 15 495 15 495 15 C482 15 464 40 448 77 C448 77 253 566 253 566 C253 566 237 566 237 566 C237 566 64 80 64 80 C64 80 63 80 63 80 C49 41 32 15 20 15 C20 15 16 15 16 15 C16 15 16 0 16 0 C16 0 35 0 35 0 C35 0 46 0 46 0 C46 0 56 0 56 0 C56 0 91 0 91 0 C91 0 91 15 91 15 C91 15 87 15 87 15 C72 15 73 46 88 92 C88 92 125 197 125 197 C125 197 333 197 333 197 C333 197 378 80 378 80 C378 80 378 80 378 80 C393 41 395 15 383 15 C383 15 379 15 379 15 C379 15 379 0 379 0 C379 0 409 0 409 0 C409 0 444 0 444 0 C444 0 479 0 479 0 C479 0 498 0 498 0 C498 0 498 15 498 15 L498 15 Z M327 213 C327 213 130 214 130 214 C130 214 223 480 223 480 C223 480 327 213 327 213 L327 213 Z " />
<glyph glyph-name="LETTERSMALLCAPITALC" unicode="&#x1d04;" horiz-adv-x="671" d="M605 415 C605 415 605 464 605 464 C605 464 598 459 598 459 C598 459 598 459 598 459 C598 459 605 464 605 464 C567 520 473 558 370 558 C187 558 66 445 66 277 C66 108 187 -5 370 -5 C473 -5 567 33 605 89 C605 89 598 94 598 94 C598 94 598 94 598 94 C598 94 605 89 605 89 C605 89 605 139 605 139 C605 139 592 139 592 139 C588 132 582 124 579 117 C542 57 466 15 388 12 C388 12 388 11 388 11 C382 11 376 11 370 11 C230 11 137 117 137 277 C137 436 230 542 370 542 C391 542 411 540 431 537 C431 537 431 537 431 537 C488 528 547 488 579 436 C582 429 588 421 592 415 C592 415 605 415 605 415 L605 415 Z " />
<glyph glyph-name="LETTERSMALLCAPITALD" unicode="&#x1d05;" horiz-adv-x="594" d="M56 538 C56 538 59 538 59 538 C72 539 80 513 80 473 C80 473 80 80 80 80 C80 41 72 15 59 15 C59 15 56 15 56 15 C56 15 56 0 56 0 C56 0 80 0 80 0 C80 0 112 0 112 0 C112 0 144 0 144 0 C144 0 254 0 254 0 C424 0 537 111 537 277 C537 442 413 553 227 553 C227 553 144 553 144 553 C144 553 112 553 112 553 C95 554 73 554 56 553 C56 553 56 538 56 538 L56 538 Z M144 13 C144 13 144 541 144 541 C144 541 227 541 227 541 C375 541 473 435 473 277 C473 118 385 13 254 13 C254 13 144 13 144 13 L144 13 Z " />
<glyph glyph-name="LETTERSMALLCAPITALE" unicode="&#x1d07;" horiz-adv-x="454" d="M306 327 C294 310 253 303 198 303 C198 303 133 303 133 303 C133 303 133 537 133 537 C133 537 224 537 224 537 C290 537 345 521 368 494 C368 494 379 494 379 494 C379 494 379 545 379 545 C379 545 379 553 379 553 C379 554 376 554 372 553 C370 554 367 554 364 553 C345 554 319 554 299 553 C299 553 133 553 133 553 C133 553 101 553 101 553 C84 554 62 554 45 553 C45 553 45 538 45 538 C45 538 48 538 48 538 C60 539 68 513 68 473 C68 473 68 80 68 80 C68 41 60 15 48 15 C48 15 45 15 45 15 C45 15 45 0 45 0 C45 0 68 0 68 0 C68 0 101 0 101 0 C101 0 133 0 133 0 C133 0 304 0 304 0 C304 0 383 0 383 0 C383 0 384 0 384 0 C385 2 385 6 386 8 C388 23 392 44 395 59 C395 59 384 59 384 59 C384 59 376 53 376 53 C350 31 292 16 232 16 C232 16 133 16 133 16 C133 16 133 287 133 287 C133 287 198 287 198 287 C254 287 293 278 306 260 C306 260 318 260 318 260 C318 260 318 287 318 287 C318 287 318 295 318 295 C318 295 318 303 318 303 C318 303 318 327 318 327 C318 327 306 327 306 327 L306 327 Z " />
<glyph glyph-name="LETTERSMALLCAPITALJ" unicode="&#x1d0a;" horiz-adv-x="273" d="M227 553 C210 554 188 554 171 553 C154 552 132 554 114 553 C114 553 114 538 114 538 C114 538 118 538 118 538 C130 539 138 513 138 473 C138 473 138 168 138 168 C138 47 126 0 94 0 C75 0 57 20 49 50 C46 62 37 70 27 70 C12 70 4 62 7 50 C16 14 46 -10 81 -10 C169 -10 203 55 203 222 C203 222 203 473 203 473 C203 513 211 539 223 538 C223 538 227 538 227 538 C227 538 227 553 227 553 L227 553 Z " />
<glyph glyph-name="LETTERSMALLCAPITALK" unicode="&#x1d0b;" horiz-adv-x="538" d="M378 538 C378 538 379 538 379 538 C384 539 361 513 321 473 C321 473 321 473 321 473 C321 473 144 298 144 298 C144 298 144 473 144 473 C145 513 153 539 165 538 C165 538 168 538 168 538 C168 538 168 553 168 553 C151 554 129 554 112 553 C95 552 73 554 56 553 C56 553 56 538 56 538 C56 538 59 538 59 538 C72 539 80 513 80 473 C80 473 80 80 80 80 C80 41 72 15 59 15 C59 15 56 15 56 15 C56 15 56 0 56 0 C56 0 80 0 80 0 C80 0 112 0 112 0 C112 0 144 0 144 0 C144 0 168 0 168 0 C168 0 168 15 168 15 C168 15 165 15 165 15 C153 15 145 41 144 80 C144 80 144 298 144 298 C144 298 155 284 155 284 C155 284 156 285 156 285 C156 285 256 174 256 174 C373 45 441 -5 501 -5 C501 -5 522 -5 522 -5 C522 -5 522 5 522 5 C522 5 517 5 517 5 C487 5 424 62 291 210 C291 210 191 321 191 321 C191 321 342 473 342 473 C342 473 342 473 342 473 C381 513 415 539 427 538 C427 538 430 538 430 538 C430 538 430 553 430 553 C425 554 417 554 412 553 C402 554 388 554 378 553 C378 553 378 538 378 538 L378 538 Z " />
<glyph glyph-name="LETTERSMALLCAPITALM" unicode="&#x1d0d;" horiz-adv-x="676" d="M636 553 C620 554 599 554 583 553 C583 553 572 553 572 553 C572 553 554 553 554 553 C554 553 349 71 349 71 C349 71 152 553 152 553 C152 553 109 553 109 553 C109 553 99 553 99 553 C89 554 75 554 66 553 C66 553 66 538 66 538 C66 538 69 538 69 538 C81 539 88 513 86 473 C86 473 68 80 68 80 C66 41 57 15 45 15 C45 15 41 15 41 15 C41 15 41 0 41 0 C41 0 65 0 65 0 C65 0 74 0 74 0 C74 0 84 0 84 0 C84 0 119 0 119 0 C119 0 119 15 119 15 C119 15 114 15 114 15 C98 15 88 42 88 83 C88 83 106 484 106 484 C106 484 311 9 311 9 C311 9 317 -5 317 -5 C317 -5 333 -5 333 -5 C333 -5 556 515 556 515 C556 515 574 80 574 80 C576 41 569 15 557 15 C557 15 554 15 554 15 C554 15 554 0 554 0 C554 0 578 0 578 0 C578 0 610 0 610 0 C610 0 643 0 643 0 C643 0 666 0 666 0 C666 0 666 15 666 15 C666 15 662 15 662 15 C652 15 643 33 640 61 C640 61 617 486 617 486 C616 519 622 539 632 538 C632 538 636 538 636 538 C636 538 636 553 636 553 L636 553 Z " />
<glyph glyph-name="LETTERSMALLCAPITALO" unicode="&#x1d0f;" horiz-adv-x="712" d="M361 11 C213 11 137 133 137 277 C137 420 213 542 361 542 C509 542 585 420 585 277 C585 133 509 11 361 11 L361 11 Z M66 277 C66 125 166 -5 361 -5 C556 -5 656 125 656 277 C656 429 556 558 361 558 C166 558 66 429 66 277 L66 277 Z " />
<glyph glyph-name="LETTERSMALLCAPITALP" unicode="&#x1d18;" horiz-adv-x="477" d="M56 538 C56 538 59 538 59 538 C72 539 80 513 80 473 C80 473 80 80 80 80 C80 41 72 15 59 15 C59 15 56 15 56 15 C56 15 56 0 56 0 C56 0 80 0 80 0 C80 0 112 0 112 0 C112 0 144 0 144 0 C144 0 168 0 168 0 C168 0 168 15 168 15 C168 15 165 15 165 15 C153 15 145 41 144 80 C144 80 144 250 144 250 C144 250 224 250 224 250 C360 250 451 310 451 400 C451 492 368 553 244 553 C244 553 144 553 144 553 C144 553 112 553 112 553 C95 554 73 554 56 553 C56 553 56 538 56 538 L56 538 Z M144 263 C144 263 144 541 144 541 C144 541 244 541 244 541 C327 541 383 485 383 400 C383 318 319 263 224 263 C224 263 144 263 144 263 L144 263 Z " />
<glyph glyph-name="LETTERSMALLCAPITALT" unicode="&#x1d1b;" horiz-adv-x="573" d="M545 489 C543 506 541 528 540 545 C540 548 539 551 539 553 C539 554 536 554 531 553 C529 554 526 554 524 553 C504 554 478 554 459 553 C459 553 115 553 115 553 C96 554 70 554 50 553 C47 554 44 554 42 553 C38 554 35 554 35 553 C35 551 34 548 34 545 C33 528 31 506 29 489 C29 489 41 489 41 489 C41 489 49 497 49 497 C76 521 125 537 173 537 C173 537 255 537 255 537 C255 537 255 80 255 80 C255 41 247 15 234 15 C234 15 231 15 231 15 C231 15 231 0 231 0 C231 0 255 0 255 0 C255 0 287 0 287 0 C287 0 319 0 319 0 C319 0 343 0 343 0 C343 0 343 15 343 15 C343 15 340 15 340 15 C328 15 319 41 319 80 C319 80 319 537 319 537 C319 537 400 537 400 537 C448 537 498 521 525 497 C525 497 533 489 533 489 C533 489 545 489 545 489 L545 489 Z " />
<glyph glyph-name="LETTERSMALLCAPITALU" unicode="&#x1d1c;" horiz-adv-x="529" d="M432 538 C432 538 436 538 436 538 C450 539 460 509 460 463 C460 463 460 152 460 152 C460 72 411 18 286 18 C177 18 134 75 134 159 C134 159 134 473 134 473 C135 513 143 539 155 538 C155 538 158 538 158 538 C158 538 158 553 158 553 C141 554 119 554 102 553 C85 552 63 554 46 553 C46 553 46 538 46 538 C46 538 49 538 49 538 C62 539 70 513 70 473 C70 473 70 172 70 172 C70 66 128 -5 277 -5 C419 -5 475 56 475 147 C475 147 475 463 475 463 C476 509 485 539 498 538 C498 538 502 538 502 538 C503 539 503 542 502 546 C503 551 503 554 502 553 C492 554 478 554 468 553 C457 554 443 554 432 553 C432 553 432 538 432 538 L432 538 Z " />
<glyph glyph-name="LETTERSMALLCAPITALV" unicode="&#x1d20;" horiz-adv-x="513" d="M500 553 C492 554 482 554 474 553 C460 554 442 554 428 553 C428 553 428 538 428 538 C428 538 433 538 433 538 C450 539 448 501 429 443 C429 443 429 443 429 443 C429 443 298 48 298 48 C298 48 136 480 136 480 C123 516 124 539 136 538 C136 538 140 538 140 538 C140 538 140 553 140 553 C120 554 93 554 73 553 C58 554 39 554 24 553 C24 553 24 538 24 538 C24 538 27 538 27 538 C36 539 51 518 66 484 C66 484 277 -15 277 -15 C277 -15 289 -15 289 -15 C289 -15 454 473 454 473 C454 473 454 473 454 473 C467 513 484 539 496 538 C496 538 500 538 500 538 C500 538 500 553 500 553 L500 553 Z " />
<glyph glyph-name="LETTERSMALLCAPITALW" unicode="&#x1d21;" horiz-adv-x="741" d="M727 553 C719 554 708 554 700 553 C688 554 671 554 659 553 C659 553 659 538 659 538 C659 538 664 538 664 538 C678 539 681 513 670 473 C670 473 670 473 670 473 C670 473 532 -15 532 -15 C532 -15 552 57 552 57 C552 57 396 563 396 563 C396 563 383 563 383 563 C383 563 237 54 237 54 C237 54 114 486 114 486 C107 519 109 539 120 538 C120 538 123 538 123 538 C123 538 123 553 123 553 C104 554 79 554 59 553 C44 554 24 554 10 553 C10 553 10 538 10 538 C10 538 12 538 12 538 C22 539 38 513 51 473 C51 473 51 473 51 473 C51 473 217 -15 217 -15 C217 -15 230 -15 230 -15 C230 -15 396 563 396 563 C396 563 374 486 374 486 C374 486 532 -15 532 -15 C532 -15 544 -15 544 -15 C544 -15 685 473 685 473 C685 473 685 473 685 473 C696 513 711 539 724 538 C724 538 727 538 727 538 C727 538 727 553 727 553 L727 553 Z " />
<glyph glyph-name="LETTERSMALLCAPITALZ" unicode="&#x1d22;" horiz-adv-x="530" d="M451 65 C451 65 444 57 444 57 C422 33 371 17 317 17 C317 17 140 17 140 17 C140 17 476 553 476 553 C476 553 439 553 439 553 C439 553 402 553 402 553 C402 553 205 553 205 553 C185 554 159 554 140 553 C137 554 134 554 132 553 C128 554 125 554 125 553 C124 551 123 548 123 545 C119 531 114 513 110 499 C110 499 122 499 122 499 C122 499 131 505 131 505 C160 524 212 537 260 537 C260 537 392 537 392 537 C392 537 57 0 57 0 C57 0 93 0 93 0 C93 0 129 0 129 0 C129 0 379 0 379 0 C379 0 458 0 458 0 C458 0 459 0 459 0 C459 2 460 6 460 8 C463 25 467 46 470 62 C464 63 451 65 451 65 L451 65 Z " />
<glyph glyph-name="Wgrave" unicode="&#x1e80;" horiz-adv-x="870" d="M786 645 C786 645 790 645 790 645 C805 645 808 619 796 580 C796 580 796 580 796 580 C796 580 628 -15 628 -15 C628 -15 652 73 652 73 C652 73 464 670 464 670 C464 670 450 670 450 670 C450 670 275 67 275 67 C275 67 122 591 122 591 C114 624 116 645 127 645 C127 645 131 645 131 645 C131 645 131 660 131 660 C131 660 102 660 102 660 C102 660 63 660 63 660 C63 660 23 660 23 660 C23 660 9 660 9 660 C9 660 9 645 9 645 C9 645 12 645 12 645 C22 645 37 619 50 580 C50 580 50 580 50 580 C50 580 251 -15 251 -15 C251 -15 264 -15 264 -15 C264 -15 464 670 464 670 C464 670 437 577 437 577 C437 577 628 -15 628 -15 C628 -15 641 -15 641 -15 C641 -15 813 580 813 580 C813 580 813 580 813 580 C824 619 840 645 852 645 C852 645 855 645 855 645 C856 645 856 648 855 653 C856 657 856 660 855 660 C855 660 836 660 836 660 C836 660 827 660 827 660 C827 660 819 660 819 660 C819 660 786 660 786 660 C786 660 786 645 786 645 L786 645 Z M443 840 C422 873 407 895 403 895 C394 895 374 881 374 875 C374 870 391 849 417 820 C417 820 530 691 530 691 C530 691 536 695 536 695 C536 695 443 840 443 840 L443 840 Z " />
<glyph glyph-name="Wacute" unicode="&#x1e82;" horiz-adv-x="870" d="M786 645 C786 645 790 645 790 645 C805 645 808 619 796 580 C796 580 796 580 796 580 C796 580 628 -15 628 -15 C628 -15 652 73 652 73 C652 73 464 670 464 670 C464 670 450 670 450 670 C450 670 275 67 275 67 C275 67 122 591 122 591 C114 624 116 645 127 645 C127 645 131 645 131 645 C131 645 131 660 131 660 C131 660 102 660 102 660 C102 660 63 660 63 660 C63 660 23 660 23 660 C23 660 9 660 9 660 C9 660 9 645 9 645 C9 645 12 645 12 645 C22 645 37 619 50 580 C50 580 50 580 50 580 C50 580 251 -15 251 -15 C251 -15 264 -15 264 -15 C264 -15 464 670 464 670 C464 670 437 577 437 577 C437 577 628 -15 628 -15 C628 -15 641 -15 641 -15 C641 -15 813 580 813 580 C813 580 813 580 813 580 C824 619 840 645 852 645 C852 645 855 645 855 645 C856 645 856 648 855 653 C856 657 856 660 855 660 C855 660 836 660 836 660 C836 660 827 660 827 660 C827 660 819 660 819 660 C819 660 786 660 786 660 C786 660 786 645 786 645 L786 645 Z M394 691 C394 691 504 820 504 820 C530 850 546 871 546 875 C546 881 526 895 518 895 C515 895 500 873 479 840 C479 840 389 695 389 695 C389 695 394 691 394 691 L394 691 Z " />
<glyph glyph-name="Wdieresis" unicode="&#x1e84;" horiz-adv-x="870" d="M786 645 C786 645 790 645 790 645 C805 645 808 619 796 580 C796 580 796 580 796 580 C796 580 628 -15 628 -15 C628 -15 652 73 652 73 C652 73 464 670 464 670 C464 670 450 670 450 670 C450 670 275 67 275 67 C275 67 122 591 122 591 C114 624 116 645 127 645 C127 645 131 645 131 645 C131 645 131 660 131 660 C131 660 102 660 102 660 C102 660 63 660 63 660 C63 660 23 660 23 660 C23 660 9 660 9 660 C9 660 9 645 9 645 C9 645 12 645 12 645 C22 645 37 619 50 580 C50 580 50 580 50 580 C50 580 251 -15 251 -15 C251 -15 264 -15 264 -15 C264 -15 464 670 464 670 C464 670 437 577 437 577 C437 577 628 -15 628 -15 C628 -15 641 -15 641 -15 C641 -15 813 580 813 580 C813 580 813 580 813 580 C824 619 840 645 852 645 C852 645 855 645 855 645 C856 645 856 648 855 653 C856 657 856 660 855 660 C855 660 836 660 836 660 C836 660 827 660 827 660 C827 660 819 660 819 660 C819 660 786 660 786 660 C786 660 786 645 786 645 L786 645 Z M546 730 C564 730 576 742 576 761 C576 779 564 791 546 791 C527 791 515 779 515 761 C515 742 527 730 546 730 L546 730 Z M368 730 C386 730 398 742 398 761 C398 779 386 791 368 791 C349 791 337 779 337 761 C337 742 349 730 368 730 L368 730 Z " />
<glyph glyph-name="CapitalLetterEWITHTI" unicode="&#x1ebc;" horiz-adv-x="504" d="M103 755 C103 795 121 822 148 822 C209 822 268 759 328 759 C368 759 395 796 395 852 C395 852 387 852 387 852 C387 816 368 792 339 792 C278 792 220 855 159 855 C121 855 95 815 95 755 C95 755 103 755 103 755 L103 755 Z M356 385 C344 369 305 361 249 361 C249 361 139 361 139 361 C139 361 139 642 139 642 C139 642 275 642 275 642 C343 642 396 626 419 599 C419 599 430 599 430 599 C431 615 431 635 430 651 C431 654 431 658 430 660 C430 660 424 660 424 660 C424 660 350 660 350 660 C350 660 139 660 139 660 C139 660 103 660 103 660 C103 660 67 660 67 660 C67 660 43 660 43 660 C43 660 43 645 43 645 C43 645 46 645 46 645 C59 645 67 619 67 580 C67 580 67 80 67 80 C67 41 59 15 46 15 C46 15 43 15 43 15 C43 15 43 0 43 0 C43 0 67 0 67 0 C67 0 103 0 103 0 C103 0 139 0 139 0 C139 0 355 0 355 0 C355 0 434 0 434 0 C434 0 435 0 435 0 C436 2 436 6 436 9 C439 25 443 45 446 61 C446 61 435 61 435 61 C435 61 427 54 427 54 C401 33 343 18 283 18 C283 18 139 18 139 18 C139 18 139 343 139 343 C139 343 249 343 249 343 C305 343 343 334 356 316 C356 316 369 316 369 316 C369 316 369 343 369 343 C369 343 369 352 369 352 C369 352 369 361 369 361 C369 361 369 385 369 385 C369 385 356 385 356 385 L356 385 Z " />
<glyph glyph-name="Ygrave" unicode="&#x1ef2;" horiz-adv-x="564" d="M348 15 C348 15 345 15 345 15 C333 15 325 41 324 80 C324 80 324 302 324 302 C324 302 324 302 324 302 C324 302 489 580 489 580 C489 580 490 580 490 580 C513 619 535 645 546 645 C546 645 549 645 549 645 C549 645 549 660 549 660 C549 660 537 660 537 660 C537 660 529 660 529 660 C529 660 521 660 521 660 C521 660 486 660 486 660 C486 660 486 645 486 645 C486 645 489 645 489 645 C502 645 493 614 466 566 C466 566 310 302 310 302 C310 302 299 302 299 302 C299 302 165 580 165 580 C165 580 165 580 165 580 C146 619 140 645 151 645 C151 645 155 645 155 645 C155 645 155 660 155 660 C155 660 126 660 126 660 C126 660 83 660 83 660 C83 660 40 660 40 660 C40 660 30 660 30 660 C30 660 30 645 30 645 C30 645 33 645 33 645 C42 645 62 619 83 580 C83 580 83 580 83 580 C83 580 252 268 252 268 C252 268 252 80 252 80 C252 41 244 15 232 15 C232 15 229 15 229 15 C229 15 229 0 229 0 C229 0 252 0 252 0 C252 0 288 0 288 0 C288 0 324 0 324 0 C324 0 348 0 348 0 C348 0 348 15 348 15 L348 15 Z M274 840 C254 873 238 895 235 895 C226 895 206 881 206 875 C206 870 223 849 249 820 C249 820 362 691 362 691 C362 691 368 695 368 695 C368 695 274 840 274 840 L274 840 Z " />
<glyph glyph-name="quoteleft" unicode="&#x2018;" horiz-adv-x="202" d="M103 574 C101 574 99 574 98 574 C93 579 90 583 90 583 C90 618 106 648 129 659 C129 659 126 667 126 667 C87 648 61 605 61 558 C61 558 64 554 68 549 C67 545 67 542 67 538 C67 516 81 502 103 502 C125 502 139 516 139 538 C139 559 125 574 103 574 L103 574 Z " />
<glyph glyph-name="quoteright" unicode="&#x2019;" horiz-adv-x="202" d="M103 593 C105 593 106 593 108 593 C113 587 116 584 116 583 C116 549 100 519 77 507 C77 507 80 500 80 500 C119 519 145 562 145 608 C145 609 142 612 138 618 C139 621 139 625 139 629 C139 651 125 665 103 665 C81 665 67 651 67 629 C67 607 81 593 103 593 L103 593 Z " />
<glyph glyph-name="quotedblleft" unicode="&#x201c;" horiz-adv-x="308" d="M103 574 C101 574 99 574 98 574 C93 579 90 583 90 583 C90 618 106 648 129 659 C129 659 126 667 126 667 C87 648 61 605 61 558 C61 558 64 554 68 549 C67 545 67 542 67 538 C67 516 81 502 103 502 C125 502 139 516 139 538 C139 559 125 574 103 574 L103 574 Z M190 569 C180 563 174 552 173 538 C174 516 188 502 209 502 C227 502 240 511 244 527 C250 521 257 514 264 507 C264 507 292 534 292 534 C235 594 197 614 197 583 C197 618 212 648 236 659 C236 659 232 667 232 667 C193 648 167 605 167 558 C167 572 175 576 190 569 L190 569 Z " />
<glyph glyph-name="quotedblright" unicode="&#x201d;" horiz-adv-x="308" d="M103 593 C105 593 106 593 108 593 C113 587 116 584 116 583 C116 549 100 519 77 507 C77 507 80 500 80 500 C119 519 145 562 145 608 C145 609 142 612 138 618 C138 619 138 620 138 621 C189 571 222 555 222 583 C222 549 206 519 183 507 C183 507 187 500 187 500 C226 519 252 562 252 608 C252 594 244 591 229 598 C239 604 245 615 245 629 C245 651 231 665 209 665 C192 665 178 655 174 640 C168 646 162 652 155 659 C155 659 137 642 137 642 C132 656 120 665 103 665 C81 665 67 651 67 629 C67 607 81 593 103 593 C103 593 103 593 103 593 L103 593 Z " />
<glyph glyph-name="ellipsis" unicode="&#x2026;" horiz-adv-x="463" d="M382 0 C404 0 418 14 418 36 C418 58 404 72 382 72 C360 72 346 58 346 36 C346 14 360 0 382 0 L382 0 Z M232 0 C254 0 268 14 268 36 C268 58 254 72 232 72 C210 72 196 58 196 36 C196 14 210 0 232 0 L232 0 Z M82 0 C104 0 118 14 118 36 C118 58 104 72 82 72 C60 72 46 58 46 36 C46 14 60 0 82 0 L82 0 Z " />
<glyph glyph-name="guilsinglleft" unicode="&#x2039;" horiz-adv-x="299" d="M79 251 C79 251 246 459 246 459 C246 459 241 464 241 464 C241 464 27 253 27 253 C27 253 27 248 27 248 C27 248 242 37 242 37 C242 37 247 42 247 42 C247 42 79 251 79 251 L79 251 Z " />
<glyph glyph-name="guilsinglright" unicode="&#x203a;" horiz-adv-x="299" d="M220 251 C220 251 53 459 53 459 C53 459 59 464 59 464 C59 464 272 253 272 253 C272 253 272 248 272 248 C272 248 57 37 57 37 C57 37 52 42 52 42 C52 42 220 251 220 251 L220 251 Z " />
<glyph glyph-name="Euro" unicode="&#x20ac;" horiz-adv-x="666" d="M600 542 C600 542 600 597 600 597 C529 638 443 665 385 665 C233 665 126 558 106 393 C106 393 62 393 62 393 C62 393 57 358 57 358 C57 358 103 358 103 358 C102 350 102 341 102 333 C102 325 102 316 103 308 C103 308 57 308 57 308 C57 308 52 272 52 272 C52 272 106 272 106 272 C126 103 233 -5 385 -5 C438 -5 524 24 600 68 C600 68 600 123 600 123 C600 123 587 123 587 123 C583 118 578 112 574 106 C548 72 509 45 467 29 C436 19 407 13 385 13 C276 13 200 114 184 272 C184 272 423 272 423 272 C423 272 428 308 428 308 C428 308 181 308 181 308 C181 316 181 325 181 333 C181 341 181 350 181 358 C181 358 428 358 428 358 C428 358 433 393 433 393 C433 393 184 393 184 393 C200 547 276 647 385 647 C402 647 421 645 442 640 C494 627 545 596 574 558 C578 553 583 547 587 542 C587 542 600 542 600 542 L600 542 Z " />
<glyph glyph-name="LETTERSMALLCAPITALF" unicode="&#xa730;" horiz-adv-x="420" d="M296 323 C284 306 243 299 188 299 C188 299 133 299 133 299 C133 299 133 537 133 537 C133 537 254 537 254 537 C320 537 375 521 398 494 C398 494 409 494 409 494 C409 494 409 545 409 545 C409 545 409 553 409 553 C409 554 406 554 402 553 C400 554 397 554 394 553 C375 554 349 554 329 553 C329 553 133 553 133 553 C133 553 101 553 101 553 C84 554 62 554 45 553 C45 553 45 538 45 538 C45 538 48 538 48 538 C60 539 68 513 68 473 C68 473 68 80 68 80 C68 41 60 15 48 15 C48 15 45 15 45 15 C45 15 45 0 45 0 C45 0 68 0 68 0 C68 0 101 0 101 0 C101 0 133 0 133 0 C133 0 167 0 167 0 C167 0 167 15 167 15 C167 15 162 15 162 15 C145 15 133 41 133 80 C133 80 133 283 133 283 C133 283 188 283 188 283 C244 283 283 274 296 256 C296 256 308 256 308 256 C308 256 308 283 308 283 C308 283 308 291 308 291 C308 291 308 299 308 299 C308 299 308 323 308 323 C308 323 296 323 296 323 L296 323 Z " />
<glyph glyph-name="LETTERSMALLCAPITALS" unicode="&#xa731;" horiz-adv-x="457" d="M47 131 C47 131 47 79 47 79 C81 28 158 -5 241 -5 C340 -5 406 55 406 145 C406 209 343 271 249 300 C161 328 102 378 102 425 C102 495 147 542 215 542 C226 542 236 541 247 538 C247 538 247 538 247 538 C278 530 315 497 340 454 C346 444 354 432 359 422 C359 422 372 422 372 422 C372 422 372 475 372 475 C372 475 362 468 362 468 C362 468 362 468 362 468 C362 468 372 475 372 475 C338 525 277 558 217 558 C121 558 57 494 57 399 C57 338 115 279 202 253 C297 224 360 170 360 119 C360 54 313 11 241 11 C236 11 230 11 225 12 C225 12 225 12 225 12 C168 15 107 55 73 110 C69 116 64 124 60 131 C60 131 47 131 47 131 L47 131 Z " />
</font>
</svg>
