<?xml version="1.0" encoding="UTF-8"?>
<svg xmlns="http://www.w3.org/2000/svg" xmlns:xlink="http://www.w3.org/1999/xlink" version="1.2" >
<font id="Thomas Mag Light Italic">
<font-face  font-family="Thomas Mag" units-per-em="1024" ascent="936" descent="-280" font-style="italic" font-weight="300" font-stretch="normal" cap-height="660" x-height="500" underline-position="0" underline-thickness="0" />
<missing-glyph  horiz-adv-x="472" d="M0 700 C0 700 432 700 432 700 C432 700 432 0 432 0 C432 0 0 0 0 0 C0 0 0 700 0 700 L0 700 Z M50 50 C50 50 382 50 382 50 C382 50 382 650 382 650 C382 650 50 650 50 650 C50 650 50 50 50 50 L50 50 Z " />
<glyph glyph-name="NULL" d="" />
<glyph glyph-name="CR" unicode="&#xd;" horiz-adv-x="256" d="" />
<glyph glyph-name="space" unicode="&#x20;" horiz-adv-x="250" d="" />
<glyph glyph-name="exclam" unicode="&#x21;" horiz-adv-x="197" d="M102 -5 C124 -5 141 9 145 31 C148 53 136 67 115 67 C93 67 76 53 72 31 C69 9 81 -5 102 -5 L102 -5 Z M240 620 C246 647 237 665 217 665 C197 665 181 647 178 620 C178 620 125 142 125 142 C125 142 131 142 131 142 C131 142 240 620 240 620 L240 620 Z " />
<glyph glyph-name="quotedbl" unicode="&#x22;" horiz-adv-x="251" d="M257 660 C257 660 251 471 251 471 C251 471 260 471 260 471 C260 471 321 660 321 660 C321 660 257 660 257 660 L257 660 Z M163 660 C163 660 157 471 157 471 C157 471 166 471 166 471 C166 471 227 660 227 660 C227 660 163 660 163 660 L163 660 Z " />
<glyph glyph-name="numbersign" unicode="&#x23;" horiz-adv-x="548" d="M517 681 C517 681 453 479 453 479 C453 479 307 479 307 479 C307 479 371 681 371 681 C371 681 351 681 351 681 C351 681 287 479 287 479 C287 479 155 479 155 479 C155 479 143 441 143 441 C143 441 275 441 275 441 C275 441 204 219 204 219 C204 219 70 219 70 219 C70 219 58 181 58 181 C58 181 192 181 192 181 C192 181 134 0 134 0 C134 0 154 0 154 0 C154 0 212 181 212 181 C212 181 358 181 358 181 C358 181 300 0 300 0 C300 0 320 0 320 0 C320 0 378 181 378 181 C378 181 503 181 503 181 C503 181 515 219 515 219 C515 219 390 219 390 219 C390 219 461 441 461 441 C461 441 594 441 594 441 C594 441 606 479 606 479 C606 479 473 479 473 479 C473 479 537 681 537 681 C537 681 517 681 517 681 L517 681 Z M295 441 C295 441 441 441 441 441 C441 441 370 219 370 219 C370 219 224 219 224 219 C224 219 295 441 295 441 L295 441 Z " />
<glyph glyph-name="dollar" unicode="&#x24;" horiz-adv-x="518" d="M404 735 C404 735 391 664 391 664 C382 665 373 665 363 665 C351 665 340 664 328 663 C328 663 341 735 341 735 C341 735 324 735 324 735 C324 735 311 659 311 659 C222 640 156 572 139 476 C128 412 171 350 250 315 C250 315 198 23 198 23 C153 37 112 70 92 112 C89 118 86 126 83 132 C83 132 70 132 70 132 C70 132 60 78 60 78 C78 42 128 14 195 2 C195 2 181 -75 181 -75 C181 -75 198 -75 198 -75 C198 -75 211 -1 211 -1 C231 -4 252 -5 273 -5 C273 -5 261 -75 261 -75 C261 -75 278 -75 278 -75 C278 -75 290 -5 290 -5 C397 2 479 71 497 173 C510 250 453 322 354 356 C354 356 405 642 405 642 C411 640 416 639 422 637 C422 637 422 637 422 637 C451 628 482 595 500 556 C503 547 508 536 512 528 C512 528 525 528 525 528 C525 528 534 582 534 582 C534 582 523 575 523 575 C523 575 523 575 523 575 C523 575 534 582 534 582 C515 622 467 651 408 661 C408 661 421 735 421 735 C421 735 404 735 404 735 L404 735 Z M215 18 C215 18 266 308 266 308 C271 306 277 304 283 302 C298 297 312 292 325 286 C325 286 277 13 277 13 C258 13 240 14 223 17 C223 17 223 17 223 17 C220 17 217 18 215 18 C215 18 215 18 215 18 L215 18 Z M280 387 C280 387 325 644 325 644 C335 646 346 647 357 647 C368 647 378 646 388 645 C388 645 338 362 338 362 C317 369 297 378 280 387 C280 387 280 387 280 387 L280 387 Z M264 396 C214 428 187 467 194 505 C206 572 249 622 307 640 C307 640 264 396 264 396 L264 396 Z M340 278 C410 243 449 192 441 143 C428 70 369 20 294 14 C294 14 340 278 340 278 L340 278 Z " />
<glyph glyph-name="ampersand" unicode="&#x26;" horiz-adv-x="718" d="M659 380 C659 380 587 380 587 380 C587 380 586 377 586 373 C585 368 584 365 584 365 C584 365 589 365 589 365 C604 365 611 350 596 270 C596 270 591 240 591 240 C582 185 556 138 519 101 C493 132 463 172 429 223 C392 279 361 331 340 378 C458 405 543 472 556 549 C569 619 520 665 434 665 C348 665 280 601 263 504 C257 469 267 423 289 369 C181 330 101 250 85 161 C68 61 140 -5 265 -5 C354 -5 432 20 491 63 C570 -11 635 -13 711 0 C711 0 713 8 713 8 C657 -1 606 5 526 94 C565 133 592 183 602 240 C602 240 607 270 607 270 C622 350 635 365 651 365 C651 365 656 365 656 365 C656 365 658 380 659 380 L659 380 Z M336 385 C311 442 300 491 306 527 C319 603 369 654 429 654 C493 654 529 611 517 546 C504 471 433 409 336 385 C336 385 336 385 336 385 L336 385 Z M483 71 C432 37 368 17 296 17 C183 17 119 82 136 180 C150 260 211 329 292 361 C314 310 347 253 387 192 C422 140 453 100 483 71 C483 71 483 71 483 71 L483 71 Z " />
<glyph glyph-name="quotesingle" unicode="&#x27;" horiz-adv-x="157" d="M47 660 C47 660 74 471 74 471 C74 471 83 471 83 471 C83 471 111 660 111 660 C111 660 47 660 47 660 L47 660 Z " />
<glyph glyph-name="parenleft" unicode="&#x28;" horiz-adv-x="215" d="M314 690 C223 600 152 481 114 270 C77 59 107 -60 166 -150 C166 -150 173 -145 173 -145 C129 -78 112 33 153 270 C195 507 252 618 319 685 C319 685 314 690 314 690 L314 690 Z " />
<glyph glyph-name="parenright" unicode="&#x29;" horiz-adv-x="215" d="M-10 -150 C81 -60 153 59 190 270 C227 481 198 600 139 690 C139 690 131 685 131 685 C175 618 193 507 151 270 C109 33 52 -78 -15 -145 C-15 -145 -10 -150 -10 -150 L-10 -150 Z " />
<glyph glyph-name="asterisk" unicode="&#x2a;" horiz-adv-x="275" d="M154 540 C154 540 45 493 45 493 C22 482 41 451 61 467 C61 467 156 537 156 537 C156 537 142 420 142 420 C140 409 146 401 157 401 C167 401 173 409 172 420 C172 420 158 537 158 537 C158 537 253 467 253 467 C273 451 292 482 268 493 C268 493 160 540 160 540 C160 540 268 587 268 587 C292 596 275 628 253 613 C253 613 158 543 158 543 C158 543 172 660 172 660 C173 671 167 679 157 679 C146 679 140 671 142 660 C142 660 156 543 156 543 C156 543 61 613 61 613 C39 628 23 596 45 587 C45 587 154 540 154 540 L154 540 Z " />
<glyph glyph-name="plus" unicode="&#x2b;" horiz-adv-x="561" d="M349 450 C349 450 316 261 316 261 C316 261 128 261 128 261 C128 261 124 239 124 239 C124 239 312 239 312 239 C312 239 279 50 279 50 C279 50 303 50 303 50 C303 50 336 239 336 239 C336 239 524 239 524 239 C524 239 528 261 528 261 C528 261 340 261 340 261 C340 261 373 450 373 450 C373 450 349 450 349 450 L349 450 Z " />
<glyph glyph-name="comma" unicode="&#x2c;" horiz-adv-x="202" d="M140 57 C140 57 140 57 140 57 C134 63 126 67 115 67 C93 67 76 53 72 31 C69 9 81 -5 102 -5 C106 -5 110 -4 114 -3 C114 -8 114 -12 113 -17 C107 -50 86 -79 61 -90 C61 -90 63 -98 63 -98 C105 -79 139 -36 147 8 C150 27 147 47 140 57 C140 57 140 57 140 57 L140 57 Z " />
<glyph glyph-name="hyphen" unicode="&#x2d;" horiz-adv-x="286" d="M65 216 C65 216 298 216 298 216 C298 216 305 254 305 254 C305 254 72 254 72 254 C72 254 65 216 65 216 L65 216 Z " />
<glyph glyph-name="period" unicode="&#x2e;" horiz-adv-x="228" d="M124 -5 C146 -5 163 9 167 31 C170 53 158 67 137 67 C115 67 98 53 94 31 C91 9 103 -5 124 -5 L124 -5 Z " />
<glyph glyph-name="slash" unicode="&#x2f;" horiz-adv-x="339" d="M-19 -145 C-19 -145 4 -145 4 -145 C4 -145 464 710 464 710 C464 710 442 710 442 710 C442 710 -19 -145 -19 -145 L-19 -145 Z " />
<glyph glyph-name="zero" unicode="0" horiz-adv-x="564" d="M283 6 C167 6 106 104 133 250 C158 396 253 494 369 494 C486 494 546 396 520 250 C494 104 400 6 283 6 L283 6 Z M77 250 C50 97 132 -5 281 -5 C431 -5 549 97 576 250 C603 403 521 505 371 505 C222 505 104 403 77 250 L77 250 Z " />
<glyph glyph-name="one" unicode="1" horiz-adv-x="215" d="M141 485 C141 485 145 485 145 485 C156 485 160 462 155 427 C155 427 94 80 94 80 C94 80 94 80 94 80 C87 41 74 15 62 15 C62 15 59 15 59 15 C59 13 56 6 56 0 C56 0 80 0 80 0 C80 0 105 0 105 0 C105 0 130 0 130 0 C130 0 154 0 154 0 C154 1 156 12 156 15 C156 15 153 15 153 15 C141 15 137 38 143 72 C143 72 204 420 204 420 C204 420 204 420 204 420 C211 459 223 485 236 485 C236 485 239 485 239 485 C239 485 240 488 240 493 C241 497 242 500 242 500 C242 500 218 500 218 500 C218 500 193 500 193 500 C193 500 168 500 168 500 C168 500 144 500 144 500 C144 499 141 485 141 485 L141 485 Z " />
<glyph glyph-name="two" unicode="2" horiz-adv-x="495" d="M463 41 C463 41 465 50 465 50 C465 50 465 50 465 50 C467 58 469 67 471 74 C471 74 456 74 456 74 C456 74 455 70 455 70 C452 58 424 50 385 50 C385 50 119 50 119 50 C336 173 474 244 492 349 C509 443 457 505 361 505 C281 505 193 446 142 358 C142 358 147 354 147 354 C187 422 260 468 330 468 C406 468 448 414 434 332 C411 203 263 145 34 11 C34 11 32 0 32 0 C32 0 452 0 452 0 C452 0 458 25 458 25 C458 25 459 25 459 25 C460 30 461 35 463 41 C463 41 463 41 463 41 L463 41 Z " />
<glyph glyph-name="three" unicode="3" horiz-adv-x="452" d="M-5 -215 C225 -203 395 -101 420 41 C438 139 370 206 249 210 C354 257 424 318 434 376 C448 453 401 505 317 505 C242 505 149 453 84 376 C84 376 89 372 89 372 C139 430 217 469 285 469 C354 469 393 425 381 359 C371 299 299 237 195 197 C181 192 164 187 144 180 C144 180 142 171 142 171 C145 172 149 173 152 174 C172 179 200 183 223 183 C325 183 382 125 367 38 C343 -98 194 -196 -4 -207 C-4 -207 -5 -215 -5 -215 L-5 -215 Z " />
<glyph glyph-name="four" unicode="4" horiz-adv-x="504" d="M58 22 C58 22 402 418 402 418 C402 418 401 417 401 417 C401 417 331 22 331 22 C331 22 58 22 58 22 L58 22 Z M327 0 C327 0 301 -150 301 -150 C301 -150 351 -150 351 -150 C360 -100 369 -50 377 0 C377 0 487 0 487 0 C487 0 491 22 491 22 C491 22 381 22 381 22 C409 178 436 333 463 489 C463 489 464 490 464 490 C464 490 464 491 464 491 C464 496 465 500 466 505 C466 505 458 505 458 505 C458 505 28 9 28 9 C28 9 27 0 27 0 C27 0 37 0 37 0 C37 0 39 0 39 0 C39 0 327 0 327 0 L327 0 Z " />
<glyph glyph-name="five" unicode="5" horiz-adv-x="454" d="M114 221 C114 221 126 221 126 221 C126 221 178 221 178 221 C303 221 374 154 357 55 C334 -75 194 -166 7 -173 C7 -173 6 -182 6 -182 C223 -174 384 -73 410 71 C431 190 352 270 212 270 C212 270 139 270 139 270 C139 270 126 221 126 221 C126 221 184 447 184 447 C184 447 454 447 454 447 C454 447 471 481 471 481 C478 495 486 511 492 524 C492 524 477 524 477 524 C477 524 475 520 475 520 C469 508 439 500 400 500 C400 500 198 500 198 500 C198 500 183 500 183 500 C183 500 114 221 114 221 L114 221 Z " />
<glyph glyph-name="six" unicode="6" horiz-adv-x="530" d="M604 715 C341 706 137 540 95 299 C63 117 130 -5 264 -5 C407 -5 513 83 530 216 C552 342 488 427 368 427 C266 427 182 361 143 257 C147 275 153 299 156 316 C196 542 375 698 603 707 C603 707 604 715 604 715 L604 715 Z M136 186 C136 186 136 186 136 186 C158 323 246 414 357 414 C450 414 498 334 476 213 C462 91 380 9 272 9 C185 9 135 77 136 186 L136 186 Z " />
<glyph glyph-name="seven" unicode="7" horiz-adv-x="452" d="M115 459 C115 459 112 449 112 449 C112 449 112 449 112 449 C110 441 107 432 105 425 C105 425 120 425 120 425 C124 442 149 449 192 449 C192 449 488 449 488 449 C364 251 238 57 113 -140 C113 -140 169 -140 169 -140 C287 72 405 284 523 495 C523 495 520 500 520 500 C520 500 125 500 125 500 C125 500 118 474 118 474 C118 474 118 474 118 474 C117 470 116 465 115 459 L115 459 Z " />
<glyph glyph-name="eight" unicode="8" horiz-adv-x="505" d="M343 352 C333 355 322 358 310 360 C227 377 180 439 194 515 C209 598 274 654 358 654 C445 654 493 596 478 509 C463 427 410 366 343 352 L343 352 Z M351 349 C440 367 506 432 521 517 C537 606 474 665 363 665 C252 665 166 597 149 495 C135 417 174 352 249 322 C153 316 80 253 64 163 C46 62 119 -5 247 -5 C375 -5 473 67 492 174 C505 251 450 318 351 349 C351 349 351 349 351 349 L351 349 Z M254 320 C266 315 278 312 291 309 C394 288 454 227 442 157 C426 66 350 6 252 6 C151 6 95 72 112 171 C127 256 183 314 254 320 C254 320 254 320 254 320 L254 320 Z " />
<glyph glyph-name="nine" unicode="9" horiz-adv-x="566" d="M32 -215 C296 -206 499 -40 542 201 C574 383 506 505 372 505 C230 505 124 417 107 284 C84 158 149 73 269 73 C370 73 453 138 493 241 C489 223 484 201 480 184 C440 -42 261 -198 33 -207 C33 -207 32 -215 32 -215 L32 -215 Z M501 311 C478 176 390 86 279 86 C187 86 139 166 160 287 C175 409 257 491 364 491 C452 491 503 421 501 311 C501 311 501 311 501 311 L501 311 Z " />
<glyph glyph-name="colon" unicode="&#x3a;" horiz-adv-x="228" d="M189 364 C211 364 228 378 232 400 C235 422 223 436 202 436 C180 436 163 422 159 400 C156 378 168 364 189 364 L189 364 Z M124 -5 C146 -5 163 9 167 31 C170 53 158 67 137 67 C115 67 98 53 94 31 C91 9 103 -5 124 -5 L124 -5 Z " />
<glyph glyph-name="semicolon" unicode="&#x3b;" horiz-adv-x="202" d="M167 364 C189 364 206 378 210 400 C213 422 202 436 180 436 C158 436 141 422 137 400 C134 378 146 364 167 364 L167 364 Z M140 57 C140 57 140 57 140 57 C134 63 126 67 115 67 C93 67 76 53 72 31 C69 9 81 -5 102 -5 C106 -5 110 -4 114 -3 C114 -8 114 -12 113 -17 C107 -50 86 -79 61 -90 C61 -90 63 -98 63 -98 C105 -79 139 -36 147 8 C150 27 147 47 140 57 C140 57 140 57 140 57 L140 57 Z " />
<glyph glyph-name="less" unicode="&#x3c;" horiz-adv-x="549" d="M556 500 C556 500 104 290 104 290 C104 290 103 283 103 283 C103 283 103 283 103 283 C103 283 104 290 104 290 C104 290 98 287 98 287 C98 287 93 263 93 263 C93 263 98 260 98 260 C98 260 476 50 476 50 C476 50 481 75 481 75 C481 75 117 275 117 275 C117 275 551 475 551 475 C551 475 556 500 556 500 L556 500 Z " />
<glyph glyph-name="equal" unicode="&#x3d;" horiz-adv-x="541" d="M122 211 C122 211 118 189 118 189 C118 189 498 189 498 189 C498 189 502 211 502 211 C502 211 122 211 122 211 L122 211 Z M140 311 C140 311 136 289 136 289 C136 289 516 289 516 289 C516 289 520 311 520 311 C520 311 140 311 140 311 L140 311 Z " />
<glyph glyph-name="greater" unicode="&#x3e;" horiz-adv-x="543" d="M520 275 C520 275 95 75 95 75 C95 75 91 50 91 50 C91 50 533 260 533 260 C533 260 544 266 544 266 C544 266 547 284 547 284 C547 284 538 290 538 290 C538 290 537 283 537 283 C537 283 537 283 537 283 C537 283 538 290 538 290 C538 290 170 500 170 500 C170 500 166 475 166 475 C166 475 520 275 520 275 L520 275 Z " />
<glyph glyph-name="question" unicode="&#x3f;" horiz-adv-x="380" d="M146 -5 C168 -5 185 9 189 31 C192 53 180 67 159 67 C137 67 120 53 116 31 C113 9 124 -5 146 -5 L146 -5 Z M196 360 C196 360 170 147 170 147 C170 147 176 147 176 147 C176 147 218 329 218 329 C218 329 253 329 253 329 C374 329 410 403 417 445 C441 577 373 665 249 665 C199 665 161 638 153 598 C152 590 162 585 179 585 C207 585 229 626 258 626 C366 626 425 556 407 450 C401 421 368 368 243 368 C243 368 208 368 208 368 C201 368 197 365 196 360 L196 360 Z " />
<glyph glyph-name="at" unicode="&#x40;" horiz-adv-x="1153" d="M1051 0 C959 -143 756 -239 542 -239 C252 -239 94 -40 147 259 C199 558 425 757 710 757 C995 757 1156 591 1113 343 C1077 140 976 4 860 4 C740 4 694 82 744 200 C744 200 864 480 864 480 C864 480 816 480 816 480 C816 480 777 387 777 387 C776 450 736 490 668 490 C502 490 371 373 339 197 C320 87 376 13 479 13 C554 13 629 61 679 137 C666 45 729 -13 848 -13 C992 -13 1114 129 1152 343 C1197 599 1021 770 713 770 C404 770 162 566 108 259 C54 -48 226 -252 540 -252 C759 -252 970 -151 1068 0 C1068 0 1051 0 1051 0 L1051 0 Z M763 356 C763 356 697 200 697 200 C656 105 581 41 510 41 C424 41 378 107 396 207 C424 368 532 476 665 476 C736 476 776 428 763 356 L763 356 Z " />
<glyph glyph-name="A" unicode="A" horiz-adv-x="584" d="M107 95 C107 95 107 95 107 95 C107 95 154 188 154 188 C154 188 408 306 408 306 C408 306 456 60 456 60 C460 32 456 15 445 15 C445 15 442 15 442 15 C442 15 441 12 440 8 C440 3 439 0 439 0 C439 0 468 0 468 0 C468 0 508 0 508 0 C508 0 547 0 547 0 C547 0 566 0 566 0 C566 0 567 3 567 7 C568 12 569 15 569 15 C569 15 565 15 565 15 C553 15 541 36 532 69 C532 69 405 675 405 675 C405 675 387 675 387 675 C387 675 70 68 70 68 C51 36 33 15 22 15 C22 15 18 15 18 15 C19 15 16 0 16 0 C16 0 34 0 34 0 C34 0 46 0 46 0 C46 0 58 0 58 0 C58 0 93 0 93 0 C93 0 94 3 94 8 C95 12 96 15 96 15 C96 15 91 15 91 15 C76 15 82 47 107 95 L107 95 Z M401 342 C401 342 174 226 174 226 C174 226 355 578 355 578 C355 578 401 342 401 342 L401 342 Z " />
<glyph glyph-name="B" unicode="B" horiz-adv-x="563" d="M168 645 C168 645 171 645 171 645 C183 645 187 622 181 587 C181 587 92 80 92 80 C92 80 92 80 92 80 C85 41 72 15 60 15 C60 15 57 15 57 15 C57 15 56 12 55 8 C55 3 54 0 54 0 C54 0 78 0 78 0 C78 0 114 0 114 0 C114 0 150 0 150 0 C150 0 305 0 305 0 C444 0 550 72 568 180 C584 273 513 338 387 354 C487 373 559 431 573 511 C589 600 518 660 397 660 C397 660 266 660 266 660 C266 660 264 646 264 646 C264 646 394 646 394 646 C473 646 515 592 501 511 C487 427 424 368 343 358 C337 358 330 358 323 358 C323 358 249 356 249 356 C249 356 213 356 213 356 C213 356 213 355 213 355 C213 355 213 355 212 355 C212 355 266 660 266 660 C266 660 230 660 230 660 C230 660 194 660 194 660 C194 660 170 660 170 660 C169 657 168 646 168 645 C168 645 168 645 168 645 L168 645 Z M152 14 C152 14 211 347 211 347 C211 347 211 347 211 347 C211 347 304 347 304 347 C435 347 510 280 493 180 C475 81 399 14 302 14 C302 14 152 14 152 14 L152 14 Z " />
<glyph glyph-name="C" unicode="C" horiz-adv-x="715" d="M740 521 C740 521 749 571 749 571 C721 627 623 665 504 665 C301 665 143 531 107 330 C72 129 183 -5 386 -5 C505 -5 617 33 664 89 C664 89 673 139 673 139 C673 139 660 139 660 139 C655 133 648 125 643 119 C601 68 527 28 453 17 C432 14 411 13 389 13 C234 13 153 140 186 330 C220 520 346 647 501 647 C533 647 563 644 590 639 C590 639 590 639 590 639 C645 629 695 590 718 541 C721 535 724 527 727 521 C727 521 740 521 740 521 L740 521 Z " />
<glyph glyph-name="D" unicode="D" horiz-adv-x="659" d="M168 645 C168 645 171 645 171 645 C183 645 187 622 181 587 C181 587 92 80 92 80 C92 80 92 80 92 80 C85 41 72 15 60 15 C60 15 57 15 57 15 C57 15 56 12 55 8 C55 3 54 0 54 0 C54 0 78 0 78 0 C78 0 114 0 114 0 C114 0 150 0 150 0 C150 0 302 0 302 0 C483 0 626 132 661 330 C696 528 584 660 380 660 C380 660 266 660 266 660 C266 660 264 646 264 646 C264 646 378 646 378 646 C538 646 623 520 589 330 C556 140 442 14 305 14 C305 14 152 14 152 14 C152 14 266 660 266 660 C266 660 230 660 230 660 C230 660 194 660 194 660 C194 660 170 660 170 660 C169 657 168 646 168 645 L168 645 Z " />
<glyph glyph-name="E" unicode="E" horiz-adv-x="504" d="M424 316 C426 327 429 341 431 352 C433 362 435 375 436 385 C436 385 424 385 424 385 C408 369 370 361 312 361 C312 361 202 361 202 361 C202 361 255 660 255 660 C255 660 252 642 252 642 C252 642 389 642 389 642 C455 642 505 626 525 599 C525 599 536 599 536 599 C539 615 543 635 545 651 C546 654 547 658 547 660 C547 660 540 660 540 660 C540 660 467 660 467 660 C467 660 255 660 255 660 C255 660 219 660 219 660 C219 660 183 660 183 660 C183 660 159 660 159 660 C158 657 157 646 157 645 C157 645 160 645 160 645 C171 645 176 622 170 587 C170 587 81 80 81 80 C81 80 81 80 81 80 C74 41 61 15 49 15 C49 15 45 15 45 15 C46 15 43 0 43 0 C43 0 67 0 67 0 C67 0 103 0 103 0 C103 0 139 0 139 0 C139 0 355 0 355 0 C355 0 434 0 434 0 C434 0 435 0 435 0 C436 2 437 6 438 9 C444 25 451 45 456 61 C456 61 445 61 445 61 C445 61 436 54 436 54 C407 33 346 18 286 18 C286 18 142 18 142 18 C142 18 199 343 199 343 C199 343 309 343 309 343 C360 343 400 334 409 320 C409 320 412 316 412 316 C412 316 424 316 424 316 L424 316 Z " />
<glyph glyph-name="F" unicode="F" horiz-adv-x="470" d="M157 645 C157 645 160 645 160 645 C171 645 176 622 170 587 C170 587 81 80 81 80 C81 80 81 80 81 80 C74 41 61 15 49 15 C49 15 45 15 45 15 C46 15 43 0 43 0 C43 0 67 0 67 0 C67 0 103 0 103 0 C103 0 139 0 139 0 C139 0 172 0 172 0 C172 0 173 3 174 8 C174 12 175 15 175 15 C175 15 170 15 170 15 C154 15 147 39 152 74 C152 74 198 338 198 338 C198 338 298 338 298 338 C353 338 392 330 401 311 C401 311 413 311 413 311 C416 322 418 336 420 347 C422 357 424 370 426 380 C426 380 413 380 413 380 C397 364 359 356 301 356 C301 356 202 356 202 356 C202 356 255 660 255 660 C255 660 252 642 252 642 C252 642 419 642 419 642 C485 642 535 626 555 599 C555 599 566 599 566 599 C569 615 573 635 575 651 C576 654 577 658 577 660 C577 660 570 660 570 660 C570 660 497 660 497 660 C497 660 255 660 255 660 C255 660 219 660 219 660 C219 660 183 660 183 660 C183 660 159 660 159 660 C158 657 157 646 157 645 C157 645 157 645 157 645 L157 645 Z " />
<glyph glyph-name="G" unicode="G" horiz-adv-x="697" d="M695 310 C695 310 672 310 672 310 C672 310 639 310 639 310 C639 310 607 310 607 310 C607 310 583 310 583 310 C583 310 582 307 582 303 C581 298 580 295 580 295 C580 295 584 295 584 295 C595 295 598 273 594 239 C576 137 564 67 560 47 C499 26 427 13 363 13 C214 13 138 140 171 330 C205 520 326 647 474 647 C504 647 532 644 559 639 C611 628 661 590 683 541 C686 535 689 527 692 521 C692 521 705 521 705 521 C705 521 714 571 714 571 C686 627 592 665 478 665 C282 665 128 531 92 330 C57 129 164 -5 359 -5 C450 -5 557 19 627 56 C627 56 640 132 661 249 C669 277 679 295 689 295 C689 295 693 295 693 295 C693 296 695 307 695 310 L695 310 Z " />
<glyph glyph-name="H" unicode="H" horiz-adv-x="680" d="M628 645 C628 645 631 645 631 645 C643 645 647 622 641 587 C641 587 601 356 601 356 C601 356 202 356 202 356 C202 356 241 580 241 580 C241 580 241 580 241 580 C248 619 260 645 273 645 C273 645 276 645 276 645 C276 645 277 648 278 653 C278 657 279 660 279 660 C279 660 255 660 255 660 C255 660 219 660 219 660 C219 660 183 660 183 660 C183 660 159 660 159 660 C158 657 157 646 157 645 C157 645 160 645 160 645 C171 645 176 622 170 587 C170 587 81 80 81 80 C81 80 81 80 81 80 C74 41 61 15 49 15 C49 15 45 15 45 15 C46 15 43 0 43 0 C43 0 67 0 67 0 C67 0 103 0 103 0 C103 0 139 0 139 0 C139 0 162 0 162 0 C162 0 163 3 164 8 C164 12 165 15 165 15 C165 15 162 15 162 15 C150 15 146 38 152 73 C152 73 198 338 198 338 C198 338 597 338 597 338 C597 338 552 80 552 80 C552 80 552 80 552 80 C545 41 532 15 520 15 C520 15 516 15 516 15 C517 15 514 0 514 0 C514 0 538 0 538 0 C538 0 574 0 574 0 C574 0 610 0 610 0 C610 0 634 0 634 0 C633 0 636 14 636 15 C636 15 633 15 633 15 C621 15 617 38 623 73 C623 73 712 580 712 580 C712 580 712 580 712 580 C719 619 731 645 744 645 C744 645 747 645 747 645 C747 645 748 648 749 653 C749 657 750 660 750 660 C750 660 726 660 726 660 C726 660 690 660 690 660 C690 660 654 660 654 660 C654 660 630 660 630 660 C629 657 628 646 628 645 C628 645 628 645 628 645 L628 645 Z " />
<glyph glyph-name="I" unicode="I" horiz-adv-x="205" d="M275 660 C275 660 251 660 251 660 C251 660 215 660 215 660 C215 660 179 660 179 660 C179 660 155 660 155 660 C155 659 153 645 152 645 C152 645 156 645 156 645 C167 645 172 622 166 587 C166 587 77 80 77 80 C77 80 77 80 77 80 C70 41 57 15 45 15 C45 15 41 15 41 15 C42 15 39 0 39 0 C39 0 63 0 63 0 C63 0 99 0 99 0 C99 0 135 0 135 0 C135 0 158 0 158 0 C158 0 159 3 160 8 C160 12 161 15 161 15 C161 15 157 15 157 15 C147 15 142 34 146 65 C146 65 237 580 237 580 C237 580 237 580 237 580 C243 619 256 645 269 645 C269 645 272 645 272 645 C272 646 271 648 275 660 C275 660 275 660 275 660 L275 660 Z " />
<glyph glyph-name="J" unicode="J" horiz-adv-x="334" d="M404 660 C404 660 380 660 380 660 C380 660 344 660 344 660 C344 660 308 660 308 660 C308 660 285 660 285 660 C284 660 282 645 282 645 C282 645 285 645 285 645 C297 645 301 623 295 588 C295 588 227 200 227 200 C202 57 172 1 120 1 C88 1 65 21 63 50 C62 63 53 72 42 72 C25 72 14 63 16 50 C18 14 54 -10 104 -10 C218 -10 276 66 310 261 C310 261 366 580 366 580 C366 580 366 580 366 580 C373 619 386 645 398 645 C398 645 402 645 402 645 C402 646 404 657 404 660 L404 660 Z " />
<glyph glyph-name="K" unicode="K" horiz-adv-x="604" d="M550 645 C550 645 552 645 552 645 C556 645 528 619 481 580 C481 580 481 580 481 580 C481 580 212 355 212 355 C212 355 252 580 252 580 C252 580 252 580 252 580 C259 619 271 645 284 645 C284 645 287 645 287 645 C287 645 288 648 289 653 C289 657 290 660 290 660 C290 660 266 660 266 660 C266 660 230 660 230 660 C230 660 194 660 194 660 C194 660 170 660 170 660 C169 657 168 646 168 645 C168 645 171 645 171 645 C183 645 187 622 181 587 C181 587 92 80 92 80 C92 80 92 80 92 80 C85 41 72 15 60 15 C60 15 57 15 57 15 C57 15 56 12 55 8 C55 3 54 0 54 0 C54 0 78 0 78 0 C78 0 114 0 114 0 C114 0 150 0 150 0 C150 0 174 0 174 0 C174 1 176 12 176 15 C176 15 173 15 173 15 C161 15 157 38 163 73 C163 73 212 354 212 354 C212 354 221 340 221 340 C221 340 222 341 222 341 C222 341 348 171 348 171 C441 44 502 -5 565 -5 C565 -5 587 -5 587 -5 C587 -5 589 6 589 6 C589 6 584 6 584 6 C555 6 502 63 394 210 C394 210 269 380 269 380 C269 380 530 599 530 599 C566 627 595 645 605 645 C605 645 609 645 609 645 C608 645 611 659 611 660 C611 660 603 660 603 660 C603 660 590 660 590 660 C590 660 577 660 577 660 C577 660 553 660 553 660 C553 659 550 645 550 645 C550 645 550 645 550 645 L550 645 Z " />
<glyph glyph-name="L" unicode="L" horiz-adv-x="489" d="M439 66 C439 66 431 59 431 59 C404 34 350 18 296 18 C296 18 142 18 142 18 C142 18 241 580 241 580 C241 580 241 580 241 580 C248 619 260 645 273 645 C273 645 276 645 276 645 C276 645 277 648 278 653 C278 657 279 660 279 660 C279 660 255 660 255 660 C255 660 219 660 219 660 C219 660 183 660 183 660 C183 660 159 660 159 660 C158 657 157 646 157 645 C157 645 160 645 160 645 C171 645 176 622 170 587 C170 587 81 80 81 80 C81 80 81 80 81 80 C74 41 61 15 49 15 C49 15 45 15 45 15 C46 15 43 0 43 0 C43 0 67 0 67 0 C67 0 103 0 103 0 C103 0 139 0 139 0 C139 0 355 0 355 0 C355 0 434 0 434 0 C434 0 435 0 435 0 C436 2 437 6 438 9 C444 25 452 47 457 63 C451 64 439 66 439 66 C439 66 439 66 439 66 L439 66 Z " />
<glyph glyph-name="M" unicode="M" horiz-adv-x="728" d="M804 660 C804 660 781 660 781 660 C781 660 749 660 749 660 C749 660 736 660 736 660 C736 660 716 660 716 660 C716 660 381 83 381 83 C381 83 259 660 259 660 C259 660 212 660 212 660 C212 660 201 660 201 660 C201 660 190 660 190 660 C190 660 166 660 166 660 C165 657 164 646 164 645 C164 645 167 645 167 645 C178 645 181 621 174 585 C174 585 66 80 66 80 C58 41 44 15 32 15 C32 15 28 15 28 15 C28 15 26 0 26 0 C26 0 49 0 49 0 C49 0 60 0 60 0 C60 0 71 0 71 0 C71 0 106 0 106 0 C106 1 108 12 108 15 C108 15 103 15 103 15 C87 15 82 42 89 83 C89 83 195 579 195 579 C195 579 326 10 326 10 C326 10 330 -5 330 -5 C330 -5 348 -5 348 -5 C348 -5 710 615 710 615 C710 615 634 80 634 80 C628 41 617 15 605 15 C605 15 601 15 601 15 C601 15 599 0 599 0 C599 0 623 0 623 0 C623 0 659 0 659 0 C659 0 695 0 695 0 C695 0 718 0 718 0 C718 0 720 15 720 15 C720 15 717 15 717 15 C707 15 701 35 704 66 C704 66 773 598 773 598 C779 627 788 645 798 645 C798 645 801 645 801 645 C801 645 804 659 804 660 L804 660 Z " />
<glyph glyph-name="N" unicode="N" horiz-adv-x="611" d="M688 660 C688 660 664 660 664 660 C664 660 653 660 653 660 C653 660 642 660 642 660 C642 660 618 660 618 660 C617 657 616 646 616 645 C616 645 619 645 619 645 C631 645 634 623 629 589 C629 589 541 87 541 87 C541 87 259 660 259 660 C259 660 210 660 210 660 C210 660 206 636 206 636 C206 636 259 660 259 660 C259 660 206 636 206 636 C206 636 210 660 210 660 C210 660 200 660 200 660 C200 660 189 660 189 660 C189 660 165 660 165 660 C165 659 163 645 162 645 C162 645 166 645 166 645 C177 645 181 621 176 586 C176 586 86 80 86 80 C86 80 86 80 86 80 C79 41 67 15 55 15 C55 15 51 15 51 15 C50 12 49 1 49 0 C49 0 72 0 72 0 C72 0 83 0 83 0 C83 0 94 0 94 0 C94 0 118 0 118 0 C118 0 121 15 120 15 C120 15 117 15 117 15 C106 15 101 38 107 73 C107 73 200 605 200 605 C200 605 495 10 495 10 C495 10 505 -11 505 -11 C505 -11 545 -11 545 -11 C545 -11 554 36 554 36 C554 36 650 580 650 580 C650 580 650 580 650 580 C657 619 669 645 681 645 C681 645 685 645 685 645 C685 645 687 660 688 660 C688 660 688 660 688 660 L688 660 Z " />
<glyph glyph-name="O" unicode="O" horiz-adv-x="772" d="M392 13 C229 13 171 159 201 330 C232 501 341 647 504 647 C667 647 725 501 695 330 C665 159 555 13 392 13 L392 13 Z M122 330 C90 149 174 -5 389 -5 C604 -5 742 149 774 330 C806 511 722 665 507 665 C292 665 154 511 122 330 L122 330 Z " />
<glyph glyph-name="P" unicode="P" horiz-adv-x="541" d="M168 645 C168 645 171 645 171 645 C183 645 187 622 181 587 C181 587 92 80 92 80 C92 80 92 80 92 80 C85 41 72 15 60 15 C60 15 57 15 57 15 C57 15 56 12 55 8 C55 3 54 0 54 0 C54 0 78 0 78 0 C78 0 114 0 114 0 C114 0 150 0 150 0 C150 0 174 0 174 0 C174 1 176 12 176 15 C176 15 173 15 173 15 C161 15 157 38 163 73 C163 73 202 298 202 298 C202 298 318 298 318 298 C467 298 579 370 599 478 C618 587 543 660 411 660 C411 660 266 660 266 660 C266 660 264 646 264 646 C264 646 408 646 408 646 C495 646 541 579 523 478 C506 378 424 311 320 311 C320 311 205 311 205 311 C205 311 204 305 204 305 C204 305 266 660 266 660 C266 660 230 660 230 660 C230 660 194 660 194 660 C194 660 170 660 170 660 C169 657 168 646 168 645 C168 645 168 645 168 645 L168 645 Z " />
<glyph glyph-name="Q" unicode="Q" horiz-adv-x="772" d="M799 -51 C799 -51 795 -47 795 -47 C767 -74 701 -92 629 -92 C519 -92 444 -58 397 -5 C607 -1 742 151 774 330 C806 511 722 665 507 665 C292 665 154 511 122 330 C91 153 171 1 377 -5 C441 -79 521 -128 617 -128 C680 -128 753 -97 799 -51 L799 -51 Z M392 13 C229 13 171 159 201 330 C232 501 341 647 504 647 C667 647 725 501 695 330 C665 159 555 13 392 13 L392 13 Z " />
<glyph glyph-name="R" unicode="R" horiz-adv-x="576" d="M168 645 C168 645 171 645 171 645 C183 645 187 622 181 587 C181 587 92 80 92 80 C92 80 92 80 92 80 C85 41 72 15 60 15 C60 15 57 15 57 15 C57 15 56 12 55 8 C55 3 54 0 54 0 C54 0 78 0 78 0 C78 0 114 0 114 0 C114 0 150 0 150 0 C150 0 174 0 174 0 C174 1 176 12 176 15 C176 15 173 15 173 15 C161 15 157 38 163 73 C163 73 208 330 208 330 C208 330 206 317 206 317 C206 317 294 317 294 317 C294 317 421 106 421 106 C482 4 488 0 548 0 C548 0 570 0 570 0 C570 0 571 11 571 11 C571 11 566 11 566 11 C548 11 545 14 495 95 C495 95 358 320 358 320 C474 334 557 398 573 490 C591 592 521 660 397 660 C397 660 266 660 266 660 C266 660 264 646 264 646 C264 646 394 646 394 646 C473 646 514 583 497 490 C480 394 407 330 312 330 C312 330 286 330 286 330 C286 330 208 330 208 330 C208 330 266 660 266 660 C266 660 230 660 230 660 C230 660 194 660 194 660 C194 660 170 660 170 660 C169 657 168 646 168 645 L168 645 Z " />
<glyph glyph-name="S" unicode="S" horiz-adv-x="518" d="M70 132 C70 132 60 78 60 78 C85 28 170 -5 274 -5 C389 -5 478 66 497 173 C510 251 451 325 349 358 C246 391 184 450 194 505 C209 590 274 647 357 647 C380 647 402 643 422 637 C422 637 422 637 422 637 C451 628 482 595 500 556 C503 547 508 536 512 528 C512 528 525 528 525 528 C525 528 534 582 534 582 C534 582 523 575 523 575 C523 575 523 575 523 575 C523 575 534 582 534 582 C510 632 442 665 363 665 C249 665 159 590 139 476 C126 404 184 334 283 302 C388 268 451 204 441 143 C427 65 361 13 278 13 C259 13 240 14 223 17 C223 17 223 17 223 17 C168 25 116 63 92 112 C89 118 86 126 83 132 C83 132 70 132 70 132 L70 132 Z " />
<glyph glyph-name="T" unicode="T" horiz-adv-x="633" d="M379 15 C379 15 376 15 376 15 C365 15 361 38 366 73 C366 73 466 642 466 642 C466 642 575 642 575 642 C623 642 670 626 692 601 C692 601 699 594 699 594 C699 594 711 594 711 594 C712 612 714 634 716 651 C716 654 717 658 717 660 C717 660 703 660 703 660 C703 660 637 660 637 660 C637 660 230 660 230 660 C230 660 163 660 163 660 C163 660 150 660 150 660 C149 658 148 654 148 651 C143 634 137 612 133 594 C133 594 145 594 145 594 C145 594 154 601 154 601 C185 626 237 642 285 642 C285 642 394 642 394 642 C394 642 295 80 295 80 C295 80 295 80 295 80 C288 41 276 15 263 15 C263 15 260 15 260 15 C260 15 259 12 258 8 C258 3 257 0 257 0 C257 0 281 0 281 0 C281 0 317 0 317 0 C317 0 353 0 353 0 C353 0 377 0 377 0 C377 1 379 12 379 15 L379 15 Z " />
<glyph glyph-name="U" unicode="U" horiz-adv-x="587" d="M677 660 C677 660 650 660 650 660 C650 660 642 660 642 660 C642 660 634 660 634 660 C634 660 605 660 605 660 C605 659 603 645 602 645 C602 645 607 645 607 645 C620 645 626 618 619 576 C619 576 549 184 549 184 C532 86 464 20 320 20 C193 20 156 90 174 194 C174 194 242 580 242 580 C242 580 242 580 242 580 C249 619 261 645 274 645 C274 645 277 645 277 645 C277 645 278 648 279 653 C279 657 280 660 280 660 C280 660 256 660 256 660 C256 660 220 660 220 660 C220 660 184 660 184 660 C184 660 160 660 160 660 C159 657 158 646 158 645 C158 645 161 645 161 645 C174 645 177 619 170 580 C170 580 170 580 170 580 C170 580 105 208 105 208 C82 80 134 -5 305 -5 C469 -5 546 68 565 178 C565 178 636 578 636 578 C644 619 658 645 671 645 C671 645 675 645 675 645 C675 646 677 657 677 660 C677 660 677 660 677 660 L677 660 Z " />
<glyph glyph-name="V" unicode="V" horiz-adv-x="609" d="M683 660 C683 660 664 660 664 660 C664 660 655 660 655 660 C655 660 647 660 647 660 C647 660 609 660 609 660 C609 660 608 657 608 653 C607 648 606 645 606 645 C606 645 611 645 611 645 C628 645 620 607 591 550 C591 550 591 550 591 550 C591 550 345 62 345 62 C345 62 244 594 244 594 C239 625 244 645 256 645 C256 645 260 645 260 645 C260 645 263 660 262 660 C262 660 231 660 231 660 C231 660 191 660 191 660 C191 660 151 660 151 660 C151 660 138 660 138 660 C137 657 136 646 136 645 C136 645 139 645 139 645 C146 645 157 627 165 599 C165 599 306 -15 306 -15 C306 -15 320 -15 320 -15 C320 -15 629 591 629 591 C647 624 665 645 676 645 C676 645 680 645 680 645 C680 645 682 660 683 660 C683 660 683 660 683 660 L683 660 Z " />
<glyph glyph-name="W" unicode="W" horiz-adv-x="900" d="M914 580 C914 580 914 580 914 580 C914 580 640 -15 640 -15 C640 -15 680 73 680 73 C680 73 597 670 597 670 C597 670 583 670 583 670 C583 670 263 -15 263 -15 C263 -15 301 67 301 67 C301 67 242 590 242 590 C239 623 244 645 256 645 C256 645 260 645 260 645 C259 645 260 648 261 653 C261 657 262 660 262 660 C262 660 234 660 234 660 C234 660 194 660 194 660 C194 660 154 660 154 660 C154 660 140 660 140 660 C139 657 138 646 138 645 C138 645 138 645 138 645 C138 645 141 645 141 645 C149 645 159 623 165 590 C165 590 263 -15 263 -15 C263 -15 277 -15 277 -15 C277 -15 553 576 553 576 C553 576 640 -15 640 -15 C640 -15 654 -15 654 -15 C654 -15 930 580 930 580 C930 580 930 580 930 580 C948 619 968 645 981 645 C981 645 984 645 984 645 C984 645 985 648 985 653 C986 657 987 660 987 660 C987 660 967 660 967 660 C967 660 959 660 959 660 C959 660 951 660 951 660 C951 660 917 660 917 660 C917 660 916 657 916 653 C915 648 914 645 915 645 C915 645 919 645 919 645 C934 645 932 619 914 580 L914 580 Z " />
<glyph glyph-name="X" unicode="X" horiz-adv-x="640" d="M185 95 C185 95 185 95 185 95 C185 95 351 305 351 305 C351 305 460 80 460 80 C460 80 460 80 460 80 C479 41 484 15 473 15 C473 15 470 15 470 15 C470 15 469 12 469 8 C468 3 467 0 467 0 C467 0 499 0 499 0 C499 0 540 0 540 0 C540 0 581 0 581 0 C581 0 589 0 589 0 C589 1 591 12 591 15 C591 15 589 15 589 15 C581 15 565 36 548 69 C548 69 409 355 409 355 C409 355 409 355 409 355 C409 355 611 590 611 590 C641 623 667 645 679 645 C679 645 682 645 682 645 C682 645 683 648 683 653 C684 657 685 660 685 660 C685 660 671 660 671 660 C671 660 657 660 657 660 C657 660 643 660 643 660 C643 660 608 660 608 660 C608 659 605 645 606 645 C606 645 609 645 609 645 C621 645 611 623 584 590 C584 590 401 372 401 372 C401 372 292 597 292 597 C280 626 277 645 286 645 C286 645 290 645 290 645 C290 645 293 660 292 660 C292 660 261 660 261 660 C261 660 220 660 220 660 C220 660 179 660 179 660 C179 660 171 660 171 660 C171 660 170 657 170 653 C169 648 168 645 168 645 C168 645 171 645 171 645 C180 645 199 619 217 580 C217 580 218 580 218 580 C218 580 343 322 343 322 C343 322 133 62 133 62 C108 33 86 15 75 15 C75 15 72 15 72 15 C72 15 71 12 70 8 C70 3 69 0 69 0 C69 0 83 0 83 0 C83 0 97 0 97 0 C97 0 110 0 110 0 C110 0 145 0 145 0 C145 0 146 3 146 8 C147 12 148 15 148 15 C148 15 144 15 144 15 C131 15 147 47 185 95 C185 95 185 95 185 95 L185 95 Z " />
<glyph glyph-name="Y" unicode="Y" horiz-adv-x="564" d="M229 0 C229 0 252 0 252 0 C252 0 288 0 288 0 C288 0 324 0 324 0 C324 0 348 0 348 0 C348 0 348 3 350 8 C350 12 351 15 351 15 C351 15 347 15 347 15 C335 15 332 40 338 78 C351 154 366 236 378 302 C378 302 378 302 378 302 C378 302 603 593 603 593 C628 625 650 645 660 645 C660 645 663 645 663 645 C663 645 666 660 665 660 C665 660 654 660 654 660 C654 660 645 660 645 660 C645 660 637 660 637 660 C637 660 602 660 602 660 C602 659 600 645 599 645 C599 645 603 645 603 645 C617 645 600 611 560 560 C560 560 561 560 561 560 C561 560 363 302 363 302 C363 302 353 302 353 302 C353 302 267 580 267 580 C267 580 267 580 267 580 C255 619 254 645 265 645 C265 645 268 645 268 645 C269 645 271 659 271 660 C271 660 242 660 242 660 C242 660 199 660 199 660 C199 660 156 660 156 660 C156 660 147 660 147 660 C147 660 146 657 145 653 C145 648 144 645 144 645 C144 645 147 645 147 645 C156 645 171 619 185 580 C185 580 185 580 185 580 C185 580 300 268 300 268 C288 204 275 130 263 63 C255 34 245 15 235 15 C235 15 231 15 231 15 C230 12 229 1 229 0 C229 0 229 0 229 0 L229 0 Z " />
<glyph glyph-name="Z" unicode="Z" horiz-adv-x="590" d="M520 9 C526 26 534 47 539 64 C539 64 536 64 536 64 C527 66 521 66 521 66 C521 66 513 59 513 59 C486 35 433 19 378 19 C378 19 150 19 150 19 C150 19 653 660 653 660 C653 660 612 660 612 660 C612 660 571 660 571 660 C571 660 318 660 318 660 C318 660 251 660 251 660 C251 660 238 660 238 660 C237 658 235 654 234 651 C227 637 219 618 213 604 C213 604 225 604 225 604 C225 604 235 610 235 610 C268 629 322 642 370 642 C370 642 557 642 557 642 C557 642 55 0 55 0 C55 0 95 0 95 0 C95 0 135 0 135 0 C135 0 437 0 437 0 C437 0 516 0 516 0 C516 0 517 0 517 0 C518 3 519 7 520 9 L520 9 Z " />
<glyph glyph-name="bracketleft" unicode="&#x5b;" horiz-adv-x="245" d="M104 -109 C104 -109 102 -120 102 -120 C102 -120 239 660 239 660 C239 660 238 649 238 649 C238 649 343 649 343 649 C343 649 344 660 344 660 C344 660 239 660 239 660 C239 660 201 660 201 660 C201 660 63 -120 63 -120 C63 -120 102 -120 102 -120 C102 -120 207 -120 207 -120 C207 -120 209 -109 209 -109 C209 -109 104 -109 104 -109 L104 -109 Z " />
<glyph glyph-name="backslash" unicode="&#x5c;" horiz-adv-x="238" d="M189 -145 C189 -145 206 -145 206 -145 C206 -145 90 710 90 710 C90 710 72 710 72 710 C72 710 189 -145 189 -145 L189 -145 Z " />
<glyph glyph-name="bracketright" unicode="&#x5d;" horiz-adv-x="225" d="M91 -109 C91 -109 -14 -109 -14 -109 C-14 -109 -16 -120 -16 -120 C-16 -120 89 -120 89 -120 C89 -120 127 -120 127 -120 C127 -120 265 660 265 660 C265 660 226 660 226 660 C226 660 121 660 121 660 C121 660 119 649 119 649 C119 649 224 649 224 649 C224 649 226 660 226 660 C226 660 91 -109 91 -109 L91 -109 Z " />
<glyph glyph-name="underscore" unicode="&#x5f;" horiz-adv-x="461" d="M3 -50 C3 -50 -2 -78 -2 -78 C-2 -78 436 -78 436 -78 C436 -78 441 -50 441 -50 C441 -50 3 -50 3 -50 L3 -50 Z " />
<glyph glyph-name="a" unicode="a" horiz-adv-x="496" d="M474 37 C458 23 440 14 418 14 C388 14 384 37 390 73 C390 73 440 359 440 359 C456 447 418 505 346 505 C206 505 123 446 140 356 C140 356 190 356 190 356 C175 437 232 491 332 491 C379 491 402 443 389 371 C389 371 368 250 368 250 C368 250 249 234 249 234 C147 220 72 167 60 102 C49 38 87 -5 156 -5 C214 -5 282 23 336 66 C328 21 335 -10 380 -10 C420 -10 450 6 479 30 C479 30 474 37 474 37 L474 37 Z M366 238 C366 238 338 76 338 76 C295 47 239 28 187 28 C133 28 103 63 113 116 C121 165 175 206 247 218 C247 218 366 238 366 238 L366 238 Z " />
<glyph glyph-name="b" unicode="b" horiz-adv-x="527" d="M154 597 C154 597 155 597 155 597 C120 398 85 198 49 0 C49 0 55 0 55 0 C55 0 55 0 55 1 C62 14 77 24 92 24 C134 24 168 4 218 -3 C228 -4 239 -5 250 -5 C393 -5 506 96 533 248 C560 402 492 505 362 505 C283 505 209 469 172 414 C172 414 207 610 207 610 C207 610 207 610 207 610 C207 610 211 631 211 631 C211 631 224 707 224 707 C224 707 224 707 224 707 C224 707 226 720 226 720 C226 720 216 720 216 720 C216 720 149 700 149 700 C149 700 149 699 149 699 C148 694 147 691 147 691 C163 669 165 654 154 597 C154 597 154 597 154 597 L154 597 Z M170 398 C199 450 258 483 319 483 C441 483 504 380 477 225 C454 96 364 9 253 9 C171 9 121 49 121 110 C121 117 121 125 123 133 C123 133 170 398 170 398 L170 398 Z " />
<glyph glyph-name="c" unicode="c" horiz-adv-x="454" d="M429 121 C429 121 423 124 423 124 C384 65 322 25 267 25 C162 25 108 117 132 254 C157 396 248 491 361 491 C409 491 438 456 433 404 C432 389 440 379 454 379 C467 379 478 388 480 401 C485 463 441 505 369 505 C221 505 104 397 76 235 C50 91 108 -5 220 -5 C296 -5 380 45 429 121 L429 121 Z " />
<glyph glyph-name="d" unicode="d" horiz-adv-x="537" d="M478 123 C478 123 477 123 477 123 C477 123 564 610 564 610 C564 610 564 610 564 610 C564 610 571 653 571 653 C571 653 581 707 581 707 C581 707 581 707 581 707 C581 707 583 720 583 720 C583 720 573 720 573 720 C573 720 506 700 506 700 C506 700 506 699 506 699 C505 694 504 691 504 691 C520 669 522 654 511 597 C511 597 512 597 512 597 C512 597 481 423 481 423 C461 473 409 505 334 505 C203 505 95 393 65 225 C41 87 105 -5 225 -5 C307 -5 381 27 419 74 C419 74 408 13 408 13 C408 13 408 13 408 13 C408 13 406 0 406 0 C406 0 416 0 416 0 C416 0 483 20 483 20 C484 20 484 20 484 21 C485 26 485 29 485 29 C469 51 467 66 478 123 C478 123 478 123 478 123 L478 123 Z M421 87 C396 50 332 26 258 26 C153 26 98 113 121 244 C147 392 230 491 329 491 C412 491 466 450 475 390 C475 390 421 87 421 87 L421 87 Z " />
<glyph glyph-name="e" unicode="e" horiz-adv-x="471" d="M435 121 C435 121 429 124 429 124 C390 65 327 25 270 25 C162 25 107 117 131 254 C135 279 141 302 149 324 C149 324 425 324 425 324 C425 324 472 324 472 324 C491 433 437 505 336 505 C208 505 103 397 75 235 C49 91 108 -5 223 -5 C301 -5 386 45 435 121 L435 121 Z M428 342 C428 342 152 333 152 333 C189 430 255 491 331 491 C405 491 446 441 433 366 C430 352 419 342 405 342 C405 342 428 342 428 342 C428 342 428 342 428 342 C428 342 428 342 428 342 L428 342 Z " />
<glyph glyph-name="f" unicode="f" horiz-adv-x="307" d="M110 0 C110 0 135 0 135 0 C135 0 159 0 159 0 C159 0 160 3 160 8 C161 12 162 15 162 15 C162 15 158 15 158 15 C146 15 143 39 148 76 C172 211 196 346 220 481 C220 481 355 481 355 481 C355 481 358 500 358 500 C358 500 223 500 223 500 C225 511 227 522 229 533 C248 638 303 709 367 709 C399 709 418 690 416 660 C414 647 423 638 437 638 C450 638 461 647 463 660 C466 696 434 720 383 720 C289 720 209 650 184 544 C184 544 173 500 173 500 C173 500 89 500 89 500 C89 500 86 481 86 481 C86 481 170 481 170 481 C170 481 99 80 99 80 C99 80 99 80 99 80 C92 41 80 15 68 15 C68 15 64 15 64 15 C64 15 63 12 63 8 C62 3 61 0 61 0 C61 0 85 0 85 0 C85 0 110 0 110 0 L110 0 Z " />
<glyph glyph-name="g" unicode="g" horiz-adv-x="480" d="M562 500 C562 500 423 490 423 490 C423 490 423 490 423 490 C400 500 373 505 342 505 C236 505 154 443 138 350 C125 277 159 222 227 203 C146 201 88 165 78 112 C70 61 104 27 167 21 C84 -6 24 -57 14 -111 C1 -187 51 -238 140 -238 C303 -238 425 -162 445 -49 C458 22 395 70 288 70 C288 70 210 67 210 67 C146 63 108 89 115 131 C122 170 169 195 232 195 C232 195 287 195 287 195 C394 195 475 257 491 350 C500 401 486 443 454 470 C454 470 557 472 557 472 C557 472 562 500 562 500 L562 500 Z M185 350 C200 436 262 494 340 494 C418 494 460 436 444 350 C429 264 367 206 289 206 C211 206 170 264 185 350 L185 350 Z M184 20 C191 19 197 20 204 20 C204 20 266 22 266 22 C360 22 415 -17 405 -74 C389 -165 286 -225 148 -225 C75 -225 36 -177 48 -105 C58 -51 112 -2 184 20 C184 20 184 20 184 20 L184 20 Z " />
<glyph glyph-name="h" unicode="h" horiz-adv-x="531" d="M140 80 C140 80 139 80 139 80 C139 80 193 383 193 383 C227 436 300 471 379 471 C462 471 484 415 469 331 C469 331 425 80 425 80 C425 80 425 80 425 80 C418 41 406 15 393 15 C393 15 390 15 390 15 C390 15 389 12 388 8 C388 3 387 0 387 0 C387 0 411 0 411 0 C411 0 436 0 436 0 C436 0 461 0 461 0 C461 0 485 0 485 0 C485 1 488 15 487 15 C487 15 484 15 484 15 C473 15 468 38 474 74 C474 74 520 336 520 336 C538 438 515 505 424 505 C329 505 240 461 195 394 C195 394 233 610 233 610 C233 610 233 610 233 610 C233 610 239 647 239 647 C239 647 250 707 250 707 C250 707 250 707 250 707 C250 707 252 720 252 720 C252 720 242 720 242 720 C242 720 175 700 175 700 C175 700 175 699 175 699 C174 695 174 691 174 691 C185 668 190 658 184 616 C184 616 86 64 86 64 C79 34 68 15 58 15 C58 15 54 15 54 15 C55 15 52 0 52 0 C52 0 75 0 75 0 C75 0 100 0 100 0 C100 0 125 0 125 0 C125 0 149 0 149 0 C149 0 150 3 151 8 C151 12 152 15 152 15 C152 15 148 15 148 15 C137 15 133 41 140 80 C140 80 140 80 140 80 L140 80 Z " />
<glyph glyph-name="i" unicode="i" horiz-adv-x="201" d="M142 377 C142 377 143 377 143 377 C143 377 90 80 90 80 C90 80 90 80 90 80 C83 41 70 15 58 15 C58 15 55 15 55 15 C55 13 52 6 52 0 C52 0 76 0 76 0 C76 0 101 0 101 0 C101 0 126 0 126 0 C126 0 150 0 150 0 C150 1 152 12 152 15 C152 15 149 15 149 15 C137 15 134 37 138 71 C138 71 195 390 195 390 C195 390 195 390 195 390 C195 390 201 423 201 423 C201 423 212 487 212 487 C212 487 212 487 212 487 C212 487 214 500 214 500 C214 500 204 500 204 500 C204 500 137 480 137 480 C137 480 136 479 136 479 C136 475 135 471 135 471 C151 449 153 434 142 377 C142 377 142 377 142 377 L142 377 Z M198 570 C218 570 234 583 238 603 C241 624 230 637 210 637 C190 637 175 624 171 603 C168 583 179 570 198 570 L198 570 Z " />
<glyph glyph-name="j" unicode="j" horiz-adv-x="201" d="M142 377 C142 377 143 377 143 377 C143 377 77 8 77 8 C52 -131 17 -174 -73 -225 C-73 -225 -70 -232 -70 -232 C59 -159 107 -110 130 22 C130 22 195 390 195 390 C195 390 195 390 195 390 C195 390 200 419 200 419 C200 419 212 487 212 487 C212 487 212 487 212 487 C212 487 214 500 214 500 C214 500 204 500 204 500 C204 500 137 480 137 480 C137 480 136 479 136 479 C136 475 135 471 135 471 C151 449 153 434 142 377 L142 377 Z M198 570 C218 570 234 583 238 603 C241 624 230 637 210 637 C190 637 175 624 171 603 C168 583 179 570 198 570 L198 570 Z " />
<glyph glyph-name="k" unicode="k" horiz-adv-x="447" d="M470 15 C470 15 466 15 466 15 C454 15 428 40 399 77 C399 77 397 80 397 80 C397 80 231 301 231 301 C231 301 412 436 412 436 C455 466 488 485 498 485 C498 485 501 485 501 485 C501 485 504 499 504 500 C504 500 498 500 498 500 C498 500 487 500 487 500 C487 500 475 500 475 500 C475 500 452 500 452 500 C452 500 451 497 450 493 C450 488 449 485 449 485 C449 485 450 485 450 485 C454 485 422 459 371 420 C371 420 371 420 371 420 C371 420 183 275 183 275 C183 275 187 268 187 268 C187 268 188 269 188 269 C188 269 333 80 333 80 C333 80 333 80 333 80 C363 41 380 15 375 15 C375 15 374 15 374 15 C374 13 371 6 371 0 C371 0 395 0 395 0 C395 0 426 0 426 0 C426 0 457 0 457 0 C457 0 467 0 467 0 C467 1 466 3 470 15 L470 15 Z M189 597 C189 597 190 597 190 597 C190 597 98 80 98 80 C98 80 98 80 98 80 C91 41 79 15 67 15 C67 15 63 15 63 15 C63 15 62 12 62 8 C61 3 60 0 60 0 C60 0 84 0 84 0 C84 0 109 0 109 0 C109 0 134 0 134 0 C134 0 158 0 158 0 C158 0 159 3 159 8 C160 12 161 15 161 15 C161 15 157 15 157 15 C145 15 142 39 147 75 C147 75 242 610 242 610 C242 610 242 610 242 610 C242 610 248 647 248 647 C248 647 259 707 259 707 C259 707 259 707 259 707 C259 707 261 720 261 720 C261 720 251 720 251 720 C251 720 184 700 184 700 C184 700 184 699 184 699 C183 694 182 691 182 691 C198 669 200 654 189 597 C189 597 189 597 189 597 L189 597 Z " />
<glyph glyph-name="l" unicode="l" horiz-adv-x="201" d="M152 15 C152 15 149 15 149 15 C137 15 133 39 139 74 C139 74 233 610 233 610 C233 610 233 610 233 610 C233 610 253 720 253 720 C253 720 243 720 243 720 C243 720 175 700 175 700 C175 700 175 699 175 699 C174 695 174 691 174 691 C187 673 190 660 186 627 C186 627 90 80 90 80 C90 80 90 80 90 80 C83 41 70 15 58 15 C58 15 55 15 55 15 C55 13 52 6 52 0 C52 0 76 0 76 0 C76 0 101 0 101 0 C101 0 126 0 126 0 C126 0 150 0 150 0 C150 1 152 12 152 15 C152 15 152 15 152 15 L152 15 Z " />
<glyph glyph-name="m" unicode="m" horiz-adv-x="887" d="M831 80 C831 80 830 80 830 80 C830 80 876 336 876 336 C893 438 847 505 771 505 C661 505 578 465 533 402 C525 466 486 505 430 505 C323 505 239 461 195 394 C195 394 214 500 214 500 C214 500 204 500 204 500 C204 500 136 480 136 480 C137 480 136 480 136 479 C136 475 135 471 135 471 C149 452 151 437 145 394 C145 394 86 64 86 64 C79 34 68 15 58 15 C58 15 54 15 54 15 C55 15 52 0 52 0 C52 0 75 0 75 0 C75 0 100 0 100 0 C100 0 125 0 125 0 C125 0 149 0 149 0 C149 0 150 3 151 8 C151 12 152 15 152 15 C152 15 148 15 148 15 C137 15 133 41 140 80 C140 80 139 80 139 80 C139 80 193 383 193 383 C227 439 295 475 386 475 C454 475 495 417 479 331 C479 331 435 80 435 80 C435 80 435 80 435 80 C428 41 416 15 403 15 C403 15 400 15 400 15 C400 15 399 12 398 8 C398 3 397 0 397 0 C397 0 421 0 421 0 C421 0 446 0 446 0 C446 0 471 0 471 0 C471 0 495 0 495 0 C495 1 498 15 497 15 C497 15 494 15 494 15 C483 15 478 38 484 74 C484 74 530 336 530 336 C533 355 535 373 534 390 C568 439 636 471 726 471 C796 471 839 415 825 331 C825 331 778 65 778 65 C770 35 759 15 749 15 C749 15 745 15 745 15 C744 12 743 1 743 0 C743 0 766 0 766 0 C766 0 791 0 791 0 C791 0 816 0 816 0 C816 0 840 0 840 0 C840 0 841 3 842 7 C842 12 843 15 843 15 C843 15 839 15 839 15 C827 15 824 41 831 80 C831 80 831 80 831 80 L831 80 Z " />
<glyph glyph-name="n" unicode="n" horiz-adv-x="531" d="M140 80 C140 80 139 80 139 80 C139 80 193 383 193 383 C227 436 300 471 379 471 C462 471 484 415 469 331 C469 331 425 80 425 80 C425 80 425 80 425 80 C418 41 406 15 393 15 C393 15 390 15 390 15 C390 15 389 12 388 8 C388 3 387 0 387 0 C387 0 411 0 411 0 C411 0 436 0 436 0 C436 0 461 0 461 0 C461 0 485 0 485 0 C485 1 488 15 487 15 C487 15 484 15 484 15 C473 15 468 38 474 74 C474 74 520 336 520 336 C538 438 515 505 424 505 C329 505 240 461 195 394 C195 394 214 500 214 500 C214 500 204 500 204 500 C204 500 136 480 136 480 C137 480 136 480 136 479 C136 475 135 471 135 471 C149 452 151 437 145 394 C145 394 86 64 86 64 C79 34 68 15 58 15 C58 15 54 15 54 15 C55 15 52 0 52 0 C52 0 75 0 75 0 C75 0 100 0 100 0 C100 0 125 0 125 0 C125 0 149 0 149 0 C149 0 150 3 151 8 C151 12 152 15 152 15 C152 15 148 15 148 15 C137 15 133 41 140 80 C140 80 140 80 140 80 L140 80 Z " />
<glyph glyph-name="o" unicode="o" horiz-adv-x="578" d="M290 6 C177 6 118 104 145 250 C170 396 263 494 376 494 C490 494 548 396 522 250 C496 104 404 6 290 6 L290 6 Z M89 250 C62 97 142 -5 288 -5 C435 -5 551 97 578 250 C605 403 525 505 378 505 C232 505 116 403 89 250 L89 250 Z " />
<glyph glyph-name="p" unicode="p" horiz-adv-x="572" d="M100 -215 C100 -215 97 -215 97 -215 C86 -215 82 -192 87 -157 C87 -157 126 69 126 69 C149 22 201 -5 274 -5 C423 -5 541 100 568 258 C595 406 529 505 404 505 C299 505 217 464 185 399 C185 399 186 407 186 407 C186 407 185 407 185 407 C185 407 196 500 196 500 C196 500 186 500 186 500 C186 500 125 480 125 480 C126 480 125 480 125 479 C125 475 124 471 124 471 C138 452 140 437 134 394 C134 394 38 -150 38 -150 C38 -150 38 -150 38 -150 C31 -189 18 -215 6 -215 C6 -215 3 -215 3 -215 C3 -215 2 -218 1 -222 C1 -227 0 -230 0 -230 C0 -230 24 -230 24 -230 C24 -230 49 -230 49 -230 C49 -230 74 -230 74 -230 C74 -230 98 -230 98 -230 C98 -229 100 -218 100 -215 L100 -215 Z M142 156 C142 156 180 376 180 376 C204 434 272 471 360 471 C478 471 538 370 512 219 C490 93 395 9 276 9 C180 9 126 68 142 156 C142 156 142 156 142 156 L142 156 Z " />
<glyph glyph-name="q" unicode="q" horiz-adv-x="553" d="M412 -230 C412 -230 437 -230 437 -230 C437 -230 461 -230 461 -230 C460 -230 461 -227 462 -222 C462 -218 463 -215 463 -215 C463 -215 460 -215 460 -215 C449 -215 445 -193 450 -158 C488 62 526 282 566 500 C566 500 560 500 560 500 C552 483 536 471 519 471 C475 471 441 497 389 503 C380 504 372 505 363 505 C227 505 117 393 88 225 C63 87 125 -5 241 -5 C325 -5 403 32 443 87 C443 87 401 -150 401 -150 C401 -150 401 -150 401 -150 C394 -189 381 -215 369 -215 C369 -215 366 -215 366 -215 C366 -215 365 -218 364 -222 C364 -227 363 -230 363 -230 C363 -230 387 -230 387 -230 C387 -230 412 -230 412 -230 L412 -230 Z M445 101 C417 56 349 26 274 26 C172 26 120 113 143 244 C169 392 256 491 360 491 C452 491 503 431 487 340 C487 340 445 101 445 101 L445 101 Z " />
<glyph glyph-name="r" unicode="r" horiz-adv-x="377" d="M140 80 C140 80 139 80 139 80 C139 80 192 377 192 377 C218 432 267 468 316 468 C348 468 383 446 415 446 C429 446 440 455 443 470 C447 491 425 505 363 505 C293 505 227 458 193 385 C193 385 194 390 194 390 C194 390 194 390 194 390 C194 390 194 390 194 390 C194 390 197 407 197 407 C197 407 196 407 196 407 C196 407 207 500 207 500 C207 500 197 500 197 500 C197 500 136 480 136 480 C137 480 136 480 136 479 C136 475 135 471 135 471 C149 452 151 437 145 394 C145 394 86 64 86 64 C79 34 68 15 58 15 C58 15 54 15 54 15 C55 15 52 0 52 0 C52 0 75 0 75 0 C75 0 100 0 100 0 C100 0 125 0 125 0 C125 0 149 0 149 0 C149 0 150 3 151 8 C151 12 152 15 152 15 C152 15 148 15 148 15 C137 15 133 41 140 80 L140 80 Z " />
<glyph glyph-name="s" unicode="s" horiz-adv-x="434" d="M82 99 C82 99 71 99 71 99 C71 99 64 62 64 62 C64 62 72 67 72 67 C72 67 72 67 72 67 C72 67 64 62 64 62 C84 22 148 -5 224 -5 C316 -5 387 51 402 136 C411 185 369 237 299 268 C219 302 171 353 179 395 C189 454 240 494 306 494 C319 494 332 492 345 487 C345 487 345 487 345 487 C375 476 404 440 414 399 C414 399 426 399 426 399 C426 399 432 433 432 433 C411 476 361 505 308 505 C219 505 151 454 137 378 C128 326 176 268 257 232 C324 203 364 157 357 117 C345 51 294 6 229 6 C216 6 204 7 192 9 C192 9 192 9 192 9 C145 15 100 53 82 99 L82 99 Z " />
<glyph glyph-name="t" unicode="t" horiz-adv-x="358" d="M408 500 C408 500 249 500 249 500 C258 547 266 593 274 640 C274 640 266 640 266 640 C266 640 236 571 236 571 C216 526 169 492 120 486 C120 486 118 486 118 486 C118 486 117 481 117 481 C117 481 196 481 196 481 C196 481 131 111 131 111 C115 21 129 -5 197 -5 C253 -5 301 40 350 107 C350 107 346 110 346 110 C305 54 267 17 226 17 C178 17 167 36 179 102 C201 228 224 355 246 481 C246 481 405 481 405 481 C405 481 408 500 408 500 L408 500 Z " />
<glyph glyph-name="u" unicode="u" horiz-adv-x="496" d="M453 123 C453 123 452 123 452 123 C452 123 519 500 519 500 C519 500 494 500 494 500 C494 500 469 500 469 500 C469 500 445 500 445 500 C444 497 443 486 443 485 C443 485 446 485 446 485 C457 485 461 463 456 429 C456 429 400 110 400 110 C400 110 400 110 400 110 C400 110 398 99 398 99 C371 56 322 28 241 28 C148 28 109 81 124 161 C124 161 184 500 184 500 C184 500 159 500 159 500 C159 500 134 500 134 500 C134 500 110 500 110 500 C110 500 109 497 108 493 C108 488 107 485 107 485 C107 485 111 485 111 485 C122 485 126 462 121 426 C121 426 73 156 73 156 C56 59 97 -5 196 -5 C294 -5 357 31 396 86 C396 86 394 77 394 77 C394 77 383 13 383 13 C383 13 383 13 383 13 C383 13 381 0 381 0 C381 0 391 0 391 0 C391 0 458 20 458 20 C458 20 458 21 458 21 C459 26 460 29 460 29 C444 51 442 66 453 123 C453 123 453 123 453 123 L453 123 Z " />
<glyph glyph-name="v" unicode="v" horiz-adv-x="470" d="M463 485 C463 485 466 485 466 485 C475 485 467 459 446 420 C446 420 446 420 446 420 C446 420 250 53 250 53 C250 53 187 420 187 420 C187 420 187 420 187 420 C180 459 182 485 191 485 C191 485 194 485 194 485 C194 486 193 488 197 500 C197 500 173 500 173 500 C173 500 144 500 144 500 C144 500 116 500 116 500 C116 500 97 500 97 500 C96 497 95 486 95 485 C95 485 98 485 98 485 C110 485 124 459 131 420 C131 420 132 420 132 420 C132 420 216 -10 216 -10 C216 -10 224 -10 224 -10 C224 -10 462 420 462 420 C462 420 462 420 462 420 C484 459 506 485 518 485 C518 485 522 485 522 485 C521 485 522 488 523 493 C523 497 524 500 524 500 C524 500 506 500 506 500 C506 500 498 500 498 500 C498 500 489 500 489 500 C489 500 466 500 466 500 C466 498 463 491 463 485 L463 485 Z " />
<glyph glyph-name="w" unicode="w" horiz-adv-x="723" d="M731 485 C731 485 737 485 737 485 C750 485 751 471 711 396 C711 396 711 396 711 396 C711 396 528 54 528 54 C528 54 466 411 466 411 C466 411 466 411 466 411 C453 473 459 485 472 485 C472 485 478 485 478 485 C478 486 480 497 480 500 C480 500 450 500 450 500 C450 500 393 500 393 500 C393 500 381 500 381 500 C381 499 378 485 378 485 C378 485 383 485 383 485 C391 485 398 473 411 408 C411 408 411 408 411 408 C411 408 426 333 426 333 C426 333 274 53 274 53 C274 53 206 445 206 445 C203 478 208 485 217 485 C217 485 222 485 222 485 C222 485 224 500 225 500 C225 500 197 500 197 500 C197 500 140 500 140 500 C140 500 126 500 126 500 C126 499 124 485 123 485 C123 485 129 485 129 485 C137 485 145 473 158 408 C158 408 158 408 158 408 C158 408 240 -10 240 -10 C240 -10 248 -10 248 -10 C248 -10 429 318 429 318 C429 318 493 -10 493 -10 C493 -10 501 -10 501 -10 C501 -10 730 404 730 404 C730 404 730 404 730 404 C767 472 780 485 789 485 C789 485 794 485 794 485 C794 485 795 488 795 493 C796 497 797 500 797 500 C797 500 783 500 783 500 C783 500 767 500 767 500 C767 500 733 500 733 500 C732 497 731 486 731 485 C731 485 731 485 731 485 L731 485 Z " />
<glyph glyph-name="x" unicode="x" horiz-adv-x="520" d="M466 485 C466 485 469 485 469 485 C480 485 465 459 430 420 C430 420 430 420 430 420 C430 420 321 294 321 294 C321 294 241 438 241 438 C227 467 222 485 230 485 C230 485 233 485 233 485 C233 486 235 497 235 500 C235 500 207 500 207 500 C207 500 176 500 176 500 C176 500 146 500 146 500 C146 500 138 500 138 500 C137 500 135 485 135 485 C135 485 138 485 138 485 C147 485 168 459 190 420 C190 420 190 420 190 420 C190 420 283 253 283 253 C283 253 126 69 126 69 C97 36 71 15 58 15 C58 15 54 15 54 15 C54 15 53 12 53 8 C52 3 51 0 51 0 C51 0 68 0 68 0 C68 0 77 0 77 0 C77 0 85 0 85 0 C85 0 123 0 123 0 C123 0 124 3 124 8 C125 12 126 15 126 15 C126 15 122 15 122 15 C107 15 119 41 152 80 C152 80 152 80 152 80 C152 80 288 244 288 244 C288 244 385 68 385 68 C402 36 409 15 404 15 C404 15 402 15 402 15 C402 15 401 12 401 8 C400 3 399 0 399 0 C399 0 423 0 423 0 C423 0 454 0 454 0 C454 0 484 0 484 0 C484 0 489 0 489 0 C489 0 490 3 490 8 C491 12 492 15 492 15 C492 15 489 15 489 15 C481 15 461 41 440 80 C440 80 440 80 440 80 C440 80 326 286 326 286 C326 286 459 435 459 435 C488 465 514 485 524 485 C524 485 527 485 527 485 C527 485 528 488 529 493 C529 497 530 500 530 500 C530 500 517 500 517 500 C517 500 508 500 508 500 C508 500 500 500 500 500 C500 500 468 500 468 500 C467 497 466 486 466 485 C466 485 466 485 466 485 L466 485 Z " />
<glyph glyph-name="y" unicode="y" horiz-adv-x="446" d="M475 485 C475 485 478 485 478 485 C487 485 479 459 458 420 C458 420 458 420 458 420 C458 420 262 53 262 53 C262 53 199 420 199 420 C199 420 199 420 199 420 C192 459 194 485 203 485 C203 485 206 485 206 485 C206 486 205 488 209 500 C209 500 185 500 185 500 C185 500 156 500 156 500 C156 500 128 500 128 500 C128 500 109 500 109 500 C108 497 107 486 107 485 C107 485 110 485 110 485 C122 485 136 459 143 420 C143 420 144 420 144 420 C144 420 226 -2 226 -2 C226 -2 190 -67 190 -67 C138 -161 105 -197 70 -197 C48 -197 31 -173 8 -173 C-7 -173 -18 -181 -20 -194 C-24 -216 -3 -230 34 -230 C92 -230 139 -186 202 -72 C202 -72 236 -10 236 -10 C236 -10 474 420 474 420 C474 420 474 420 474 420 C496 459 518 485 530 485 C530 485 534 485 534 485 C533 485 534 488 535 493 C535 497 536 500 536 500 C536 500 518 500 518 500 C518 500 510 500 510 500 C510 500 501 500 501 500 C501 500 478 500 478 500 C478 498 475 491 475 485 C475 485 475 485 475 485 L475 485 Z " />
<glyph glyph-name="z" unicode="z" horiz-adv-x="497" d="M301 488 C301 488 301 488 301 488 C301 488 462 489 462 489 C462 489 63 0 63 0 C63 0 93 0 93 0 C93 0 122 0 122 0 C122 0 349 0 349 0 C349 0 426 0 426 0 C426 0 429 0 429 0 C429 2 430 4 431 6 C436 21 443 42 449 57 C449 57 445 57 445 57 C436 58 430 59 430 59 C430 59 422 52 422 52 C395 28 342 11 288 11 C288 11 131 11 131 11 C131 11 529 500 529 500 C529 500 500 500 500 500 C500 500 471 500 471 500 C471 500 246 500 246 500 C246 500 179 500 179 500 C179 500 166 500 166 500 C166 500 163 494 163 494 C159 484 152 470 148 460 C148 460 160 460 160 460 C195 475 246 488 301 488 L301 488 Z " />
<glyph glyph-name="braceleft" unicode="&#x7b;" horiz-adv-x="255" d="M212 -120 C212 -120 214 -112 214 -112 C214 -112 185 -112 185 -112 C126 -112 94 -65 107 5 C107 5 137 175 137 175 C146 228 126 264 88 270 C129 277 161 314 170 366 C170 366 200 535 200 535 C212 605 260 652 320 652 C320 652 349 652 349 652 C349 652 350 660 350 660 C350 660 310 660 310 660 C234 660 174 610 161 535 C161 535 127 338 127 338 C120 300 95 274 65 274 C65 274 60 274 60 274 C60 274 59 266 59 266 C59 266 64 266 64 266 C94 266 109 241 103 203 C103 203 68 5 68 5 C54 -70 96 -120 172 -120 C172 -120 212 -120 212 -120 L212 -120 Z " />
<glyph glyph-name="bar" unicode="&#x7c;" horiz-adv-x="172" d="M203 770 C203 770 26 -234 26 -234 C26 -234 65 -234 65 -234 C65 -234 242 770 242 770 C242 770 203 770 203 770 L203 770 Z " />
<glyph glyph-name="braceright" unicode="&#x7d;" horiz-adv-x="255" d="M128 660 C128 660 127 652 127 652 C127 652 156 652 156 652 C215 652 247 605 234 535 C234 535 204 365 204 365 C195 312 214 276 252 270 C212 264 180 227 170 174 C170 174 141 5 141 5 C128 -65 81 -112 21 -112 C21 -112 -8 -112 -8 -112 C-8 -112 -9 -120 -9 -120 C-9 -120 31 -120 31 -120 C107 -120 167 -70 180 5 C180 5 214 202 214 202 C221 240 246 266 276 266 C276 266 281 266 281 266 C281 266 282 274 282 274 C282 274 277 274 277 274 C247 274 232 299 238 337 C238 337 273 535 273 535 C286 610 245 660 168 660 C168 660 128 660 128 660 L128 660 Z " />
<glyph glyph-name="[namenotfound]" unicode="&#xa0;" horiz-adv-x="220" d="" />
<glyph glyph-name="exclamdown" unicode="&#xa1;" horiz-adv-x="197" d="M183 505 C162 505 145 491 141 469 C137 447 149 433 170 433 C192 433 209 447 213 469 C217 491 205 505 183 505 L183 505 Z M46 -120 C39 -147 48 -165 68 -165 C89 -165 104 -147 107 -120 C107 -120 161 358 161 358 C161 358 154 358 154 358 C154 358 46 -120 46 -120 L46 -120 Z " />
<glyph glyph-name="cent" unicode="&#xa2;" horiz-adv-x="489" d="M381 575 C381 575 368 504 368 504 C232 493 125 388 99 235 C73 91 131 -5 243 -5 C255 -5 267 -4 279 -1 C279 -1 266 -75 266 -75 C266 -75 283 -75 283 -75 C283 -75 297 3 297 3 C356 20 414 63 452 121 C452 121 446 124 446 124 C409 69 353 30 301 25 C301 25 382 491 382 491 C383 491 383 491 384 491 C432 491 461 456 456 404 C455 389 463 379 477 379 C490 379 501 388 503 401 C508 463 464 505 392 505 C390 505 387 505 385 505 C385 505 397 575 397 575 C397 575 381 575 381 575 L381 575 Z M284 25 C183 29 131 120 155 254 C179 388 261 481 366 490 C366 490 284 25 284 25 L284 25 Z " />
<glyph glyph-name="guillemotleft" unicode="&#xab;" horiz-adv-x="464" d="M283 250 C283 250 492 459 492 459 C492 459 487 464 487 464 C487 464 231 253 231 253 C231 253 230 247 230 247 C230 247 413 36 413 36 C413 36 420 41 420 41 C420 41 283 250 283 250 L283 250 Z M124 250 C124 250 326 459 326 459 C326 459 321 464 321 464 C321 464 71 253 71 253 C71 253 71 247 71 247 C71 247 247 36 247 36 C247 36 253 41 253 41 C253 41 124 250 124 250 L124 250 Z " />
<glyph glyph-name="guillemotright" unicode="&#xbb;" horiz-adv-x="464" d="M269 250 C269 250 134 459 134 459 C134 459 141 464 141 464 C141 464 323 253 323 253 C323 253 322 247 322 247 C322 247 64 36 64 36 C64 36 59 41 59 41 C59 41 269 250 269 250 L269 250 Z M429 250 C429 250 300 459 300 459 C300 459 307 464 307 464 C307 464 482 253 482 253 C482 253 481 247 481 247 C481 247 230 36 230 36 C230 36 225 41 225 41 C225 41 429 250 429 250 L429 250 Z " />
<glyph glyph-name="questiondown" unicode="&#xbf;" horiz-adv-x="380" d="M323 505 C301 505 284 491 280 469 C276 447 288 433 310 433 C331 433 348 447 352 469 C356 491 344 505 323 505 L323 505 Z M273 140 C273 140 299 353 299 353 C299 353 292 353 292 353 C292 353 251 171 251 171 C251 171 216 171 216 171 C95 171 59 97 52 55 C28 -77 95 -165 220 -165 C270 -165 308 -138 315 -98 C317 -90 306 -85 290 -85 C261 -85 239 -126 211 -126 C103 -126 44 -56 62 50 C67 79 101 132 226 132 C226 132 261 132 261 132 C268 132 272 135 273 140 L273 140 Z " />
<glyph glyph-name="Agrave" unicode="&#xc0;" horiz-adv-x="584" d="M107 95 C107 95 107 95 107 95 C107 95 179 235 179 235 C179 235 422 235 422 235 C422 235 456 60 456 60 C460 32 456 15 445 15 C445 15 442 15 442 15 C442 15 441 12 440 8 C440 3 439 0 439 0 C439 0 468 0 468 0 C468 0 508 0 508 0 C508 0 547 0 547 0 C547 0 566 0 566 0 C566 0 567 3 567 7 C568 12 569 15 569 15 C569 15 565 15 565 15 C553 15 541 36 532 69 C532 69 405 675 405 675 C405 675 387 675 387 675 C387 675 70 68 70 68 C51 36 33 15 22 15 C22 15 18 15 18 15 C19 15 16 0 16 0 C16 0 34 0 34 0 C34 0 46 0 46 0 C46 0 58 0 58 0 C58 0 93 0 93 0 C93 0 94 3 94 8 C95 12 96 15 96 15 C96 15 91 15 91 15 C76 15 82 47 107 95 L107 95 Z M411 840 C396 873 384 895 381 895 C373 895 350 881 349 875 C348 870 362 849 382 820 C382 820 473 691 473 691 C473 691 479 695 479 695 C479 695 411 840 411 840 L411 840 Z M418 254 C418 254 189 254 189 254 C189 254 355 578 355 578 C355 578 418 254 418 254 L418 254 Z " />
<glyph glyph-name="Aacute" unicode="&#xc1;" horiz-adv-x="584" d="M337 691 C337 691 469 820 469 820 C500 850 520 871 521 875 C522 881 504 895 496 895 C493 895 474 873 447 840 C447 840 332 695 332 695 C332 695 337 691 337 691 L337 691 Z M107 95 C107 95 107 95 107 95 C107 95 179 235 179 235 C179 235 422 235 422 235 C422 235 456 60 456 60 C460 32 456 15 445 15 C445 15 442 15 442 15 C442 15 441 12 440 8 C440 3 439 0 439 0 C439 0 468 0 468 0 C468 0 508 0 508 0 C508 0 547 0 547 0 C547 0 566 0 566 0 C566 0 567 3 567 7 C568 12 569 15 569 15 C569 15 565 15 565 15 C553 15 541 36 532 69 C532 69 405 675 405 675 C405 675 387 675 387 675 C387 675 70 68 70 68 C51 36 33 15 22 15 C22 15 18 15 18 15 C19 15 16 0 16 0 C16 0 34 0 34 0 C34 0 46 0 46 0 C46 0 58 0 58 0 C58 0 93 0 93 0 C93 0 94 3 94 8 C95 12 96 15 96 15 C96 15 91 15 91 15 C76 15 82 47 107 95 L107 95 Z M418 254 C418 254 189 254 189 254 C189 254 355 578 355 578 C355 578 418 254 418 254 L418 254 Z " />
<glyph glyph-name="Acircumflex" unicode="&#xc2;" horiz-adv-x="584" d="M107 95 C107 95 107 95 107 95 C107 95 179 235 179 235 C179 235 422 235 422 235 C422 235 456 60 456 60 C460 32 456 15 445 15 C445 15 442 15 442 15 C442 15 441 12 440 8 C440 3 439 0 439 0 C439 0 468 0 468 0 C468 0 508 0 508 0 C508 0 547 0 547 0 C547 0 566 0 566 0 C566 0 567 3 567 7 C568 12 569 15 569 15 C569 15 565 15 565 15 C553 15 541 36 532 69 C532 69 405 675 405 675 C405 675 387 675 387 675 C387 675 70 68 70 68 C51 36 33 15 22 15 C22 15 18 15 18 15 C19 15 16 0 16 0 C16 0 34 0 34 0 C34 0 46 0 46 0 C46 0 58 0 58 0 C58 0 93 0 93 0 C93 0 94 3 94 8 C95 12 96 15 96 15 C96 15 91 15 91 15 C76 15 82 47 107 95 L107 95 Z M427 852 C427 852 512 693 512 693 C512 693 518 698 518 698 C518 698 450 891 450 891 C449 895 445 905 437 905 C429 905 421 895 418 891 C418 891 282 698 282 698 C282 698 286 693 286 693 C286 693 427 852 427 852 L427 852 Z M418 254 C418 254 189 254 189 254 C189 254 355 578 355 578 C355 578 418 254 418 254 L418 254 Z " />
<glyph glyph-name="Atilde" unicode="&#xc3;" horiz-adv-x="584" d="M268 755 C275 795 298 822 325 822 C386 822 434 759 494 759 C534 759 568 796 578 852 C578 852 569 852 569 852 C563 816 540 792 511 792 C450 792 402 855 342 855 C303 855 271 815 260 755 C260 755 268 755 268 755 L268 755 Z M107 95 C107 95 107 95 107 95 C107 95 179 235 179 235 C179 235 422 235 422 235 C422 235 456 60 456 60 C460 32 456 15 445 15 C445 15 442 15 442 15 C442 15 441 12 440 8 C440 3 439 0 439 0 C439 0 468 0 468 0 C468 0 508 0 508 0 C508 0 547 0 547 0 C547 0 566 0 566 0 C566 0 567 3 567 7 C568 12 569 15 569 15 C569 15 565 15 565 15 C553 15 541 36 532 69 C532 69 405 675 405 675 C405 675 387 675 387 675 C387 675 70 68 70 68 C51 36 33 15 22 15 C22 15 18 15 18 15 C19 15 16 0 16 0 C16 0 34 0 34 0 C34 0 46 0 46 0 C46 0 58 0 58 0 C58 0 93 0 93 0 C93 0 94 3 94 8 C95 12 96 15 96 15 C96 15 91 15 91 15 C76 15 82 47 107 95 L107 95 Z M418 254 C418 254 189 254 189 254 C189 254 355 578 355 578 C355 578 418 254 418 254 L418 254 Z " />
<glyph glyph-name="Adieresis" unicode="&#xc4;" horiz-adv-x="584" d="M495 730 C513 730 528 742 531 761 C534 779 524 791 505 791 C487 791 472 779 470 761 C466 742 476 730 495 730 L495 730 Z M317 730 C335 730 350 742 353 761 C356 779 346 791 328 791 C310 791 295 779 292 761 C289 742 299 730 317 730 L317 730 Z M107 95 C107 95 107 95 107 95 C107 95 179 235 179 235 C179 235 422 235 422 235 C422 235 456 60 456 60 C460 32 456 15 445 15 C445 15 442 15 442 15 C442 15 441 12 440 8 C440 3 439 0 439 0 C439 0 468 0 468 0 C468 0 508 0 508 0 C508 0 547 0 547 0 C547 0 566 0 566 0 C566 0 567 3 567 7 C568 12 569 15 569 15 C569 15 565 15 565 15 C553 15 541 36 532 69 C532 69 405 675 405 675 C405 675 387 675 387 675 C387 675 70 68 70 68 C51 36 33 15 22 15 C22 15 18 15 18 15 C19 15 16 0 16 0 C16 0 34 0 34 0 C34 0 46 0 46 0 C46 0 58 0 58 0 C58 0 93 0 93 0 C93 0 94 3 94 8 C95 12 96 15 96 15 C96 15 91 15 91 15 C76 15 82 47 107 95 L107 95 Z M418 254 C418 254 189 254 189 254 C189 254 355 578 355 578 C355 578 418 254 418 254 L418 254 Z " />
<glyph glyph-name="Aring" unicode="&#xc5;" horiz-adv-x="584" d="M402 706 C358 706 328 743 336 788 C344 836 382 869 430 869 C478 869 505 836 496 788 C488 743 445 706 402 706 L402 706 Z M322 788 C313 738 349 695 400 695 C450 695 501 738 510 788 C520 843 489 880 432 880 C376 880 332 843 322 788 L322 788 Z M107 95 C107 95 107 95 107 95 C107 95 179 235 179 235 C179 235 422 235 422 235 C422 235 456 60 456 60 C460 32 456 15 445 15 C445 15 442 15 442 15 C442 15 441 12 440 8 C440 3 439 0 439 0 C439 0 468 0 468 0 C468 0 508 0 508 0 C508 0 547 0 547 0 C547 0 566 0 566 0 C566 0 567 3 567 7 C568 12 569 15 569 15 C569 15 565 15 565 15 C553 15 541 36 532 69 C532 69 405 675 405 675 C405 675 387 675 387 675 C387 675 70 68 70 68 C51 36 33 15 22 15 C22 15 18 15 18 15 C19 15 16 0 16 0 C16 0 34 0 34 0 C34 0 46 0 46 0 C46 0 58 0 58 0 C58 0 93 0 93 0 C93 0 94 3 94 8 C95 12 96 15 96 15 C96 15 91 15 91 15 C76 15 82 47 107 95 L107 95 Z M418 254 C418 254 189 254 189 254 C189 254 355 578 355 578 C355 578 418 254 418 254 L418 254 Z " />
<glyph glyph-name="Ccedilla" unicode="&#xc7;" horiz-adv-x="730" d="M755 521 C755 521 764 571 764 571 C736 627 638 665 519 665 C316 665 158 531 122 330 C87 129 198 -5 401 -5 C520 -5 632 33 679 89 C679 89 688 139 688 139 C688 139 675 139 675 139 C670 133 663 125 658 119 C616 68 542 28 468 17 C447 14 426 13 404 13 C249 13 168 140 201 330 C235 520 361 647 516 647 C548 647 578 644 605 639 C605 639 605 639 605 639 C660 629 710 590 733 541 C736 535 739 527 742 521 C742 521 755 521 755 521 L755 521 Z " />
<glyph glyph-name="Egrave" unicode="&#xc8;" horiz-adv-x="504" d="M424 316 C426 327 429 341 431 352 C433 362 435 375 436 385 C436 385 424 385 424 385 C408 369 370 361 312 361 C312 361 202 361 202 361 C202 361 255 660 255 660 C255 660 252 642 252 642 C252 642 389 642 389 642 C455 642 505 626 525 599 C525 599 536 599 536 599 C539 615 543 635 545 651 C546 654 547 658 547 660 C547 660 540 660 540 660 C540 660 467 660 467 660 C467 660 255 660 255 660 C255 660 219 660 219 660 C219 660 183 660 183 660 C183 660 159 660 159 660 C158 657 157 646 157 645 C157 645 160 645 160 645 C171 645 176 622 170 587 C170 587 81 80 81 80 C81 80 81 80 81 80 C74 41 61 15 49 15 C49 15 45 15 45 15 C46 15 43 0 43 0 C43 0 67 0 67 0 C67 0 103 0 103 0 C103 0 139 0 139 0 C139 0 355 0 355 0 C355 0 434 0 434 0 C434 0 435 0 435 0 C436 2 437 6 438 9 C444 25 451 45 456 61 C456 61 445 61 445 61 C445 61 436 54 436 54 C407 33 346 18 286 18 C286 18 142 18 142 18 C142 18 199 343 199 343 C199 343 309 343 309 343 C360 343 400 334 409 320 C409 320 412 316 412 316 C412 316 424 316 424 316 L424 316 Z M364 840 C348 873 337 895 334 895 C325 895 303 881 301 875 C301 870 314 849 335 820 C335 820 425 691 425 691 C425 691 431 695 431 695 C431 695 364 840 364 840 L364 840 Z " />
<glyph glyph-name="Eacute" unicode="&#xc9;" horiz-adv-x="504" d="M424 316 C426 327 429 341 431 352 C433 362 435 375 436 385 C436 385 424 385 424 385 C408 369 370 361 312 361 C312 361 202 361 202 361 C202 361 255 660 255 660 C255 660 252 642 252 642 C252 642 389 642 389 642 C455 642 505 626 525 599 C525 599 536 599 536 599 C539 615 543 635 545 651 C546 654 547 658 547 660 C547 660 540 660 540 660 C540 660 467 660 467 660 C467 660 255 660 255 660 C255 660 219 660 219 660 C219 660 183 660 183 660 C183 660 159 660 159 660 C158 657 157 646 157 645 C157 645 160 645 160 645 C171 645 176 622 170 587 C170 587 81 80 81 80 C81 80 81 80 81 80 C74 41 61 15 49 15 C49 15 45 15 45 15 C46 15 43 0 43 0 C43 0 67 0 67 0 C67 0 103 0 103 0 C103 0 139 0 139 0 C139 0 355 0 355 0 C355 0 434 0 434 0 C434 0 435 0 435 0 C436 2 437 6 438 9 C444 25 451 45 456 61 C456 61 445 61 445 61 C445 61 436 54 436 54 C407 33 346 18 286 18 C286 18 142 18 142 18 C142 18 199 343 199 343 C199 343 309 343 309 343 C360 343 400 334 409 320 C409 320 412 316 412 316 C412 316 424 316 424 316 L424 316 Z M335 691 C335 691 468 820 468 820 C498 850 518 871 519 875 C520 881 503 895 494 895 C492 895 473 873 446 840 C446 840 330 695 330 695 C330 695 335 691 335 691 L335 691 Z " />
<glyph glyph-name="Ecircumflex" unicode="&#xca;" horiz-adv-x="504" d="M424 316 C426 327 429 341 431 352 C433 362 435 375 436 385 C436 385 424 385 424 385 C408 369 370 361 312 361 C312 361 202 361 202 361 C202 361 255 660 255 660 C255 660 252 642 252 642 C252 642 389 642 389 642 C455 642 505 626 525 599 C525 599 536 599 536 599 C539 615 543 635 545 651 C546 654 547 658 547 660 C547 660 540 660 540 660 C540 660 467 660 467 660 C467 660 255 660 255 660 C255 660 219 660 219 660 C219 660 183 660 183 660 C183 660 159 660 159 660 C158 657 157 646 157 645 C157 645 160 645 160 645 C171 645 176 622 170 587 C170 587 81 80 81 80 C81 80 81 80 81 80 C74 41 61 15 49 15 C49 15 45 15 45 15 C46 15 43 0 43 0 C43 0 67 0 67 0 C67 0 103 0 103 0 C103 0 139 0 139 0 C139 0 355 0 355 0 C355 0 434 0 434 0 C434 0 435 0 435 0 C436 2 437 6 438 9 C444 25 451 45 456 61 C456 61 445 61 445 61 C445 61 436 54 436 54 C407 33 346 18 286 18 C286 18 142 18 142 18 C142 18 199 343 199 343 C199 343 309 343 309 343 C360 343 400 334 409 320 C409 320 412 316 412 316 C412 316 424 316 424 316 L424 316 Z M395 852 C395 852 480 693 480 693 C480 693 486 698 486 698 C486 698 418 891 418 891 C417 895 413 905 405 905 C397 905 389 895 386 891 C386 891 250 698 250 698 C250 698 254 693 254 693 C254 693 395 852 395 852 L395 852 Z " />
<glyph glyph-name="Edieresis" unicode="&#xcb;" horiz-adv-x="504" d="M424 316 C426 327 429 341 431 352 C433 362 435 375 436 385 C436 385 424 385 424 385 C408 369 370 361 312 361 C312 361 202 361 202 361 C202 361 255 660 255 660 C255 660 252 642 252 642 C252 642 389 642 389 642 C455 642 505 626 525 599 C525 599 536 599 536 599 C539 615 543 635 545 651 C546 654 547 658 547 660 C547 660 540 660 540 660 C540 660 467 660 467 660 C467 660 255 660 255 660 C255 660 219 660 219 660 C219 660 183 660 183 660 C183 660 159 660 159 660 C158 657 157 646 157 645 C157 645 160 645 160 645 C171 645 176 622 170 587 C170 587 81 80 81 80 C81 80 81 80 81 80 C74 41 61 15 49 15 C49 15 45 15 45 15 C46 15 43 0 43 0 C43 0 67 0 67 0 C67 0 103 0 103 0 C103 0 139 0 139 0 C139 0 355 0 355 0 C355 0 434 0 434 0 C434 0 435 0 435 0 C436 2 437 6 438 9 C444 25 451 45 456 61 C456 61 445 61 445 61 C445 61 436 54 436 54 C407 33 346 18 286 18 C286 18 142 18 142 18 C142 18 199 343 199 343 C199 343 309 343 309 343 C360 343 400 334 409 320 C409 320 412 316 412 316 C412 316 424 316 424 316 L424 316 Z M463 730 C481 730 496 742 499 761 C502 779 492 791 473 791 C455 791 440 779 438 761 C434 742 444 730 463 730 L463 730 Z M285 730 C303 730 318 742 321 761 C324 779 314 791 296 791 C278 791 263 779 260 761 C257 742 267 730 285 730 L285 730 Z " />
<glyph glyph-name="Igrave" unicode="&#xcc;" horiz-adv-x="205" d="M275 660 C275 660 251 660 251 660 C251 660 215 660 215 660 C215 660 179 660 179 660 C179 660 155 660 155 660 C155 659 153 645 152 645 C152 645 156 645 156 645 C167 645 172 622 166 587 C166 587 77 80 77 80 C77 80 77 80 77 80 C70 41 57 15 45 15 C45 15 41 15 41 15 C42 15 39 0 39 0 C39 0 63 0 63 0 C63 0 99 0 99 0 C99 0 135 0 135 0 C135 0 158 0 158 0 C158 0 159 3 160 8 C160 12 161 15 161 15 C161 15 157 15 157 15 C147 15 142 34 146 65 C146 65 237 580 237 580 C237 580 237 580 237 580 C243 619 256 645 269 645 C269 645 272 645 272 645 C272 646 271 648 275 660 C275 660 275 660 275 660 L275 660 Z M233 840 C218 873 206 895 203 895 C194 895 171 881 170 875 C169 870 183 849 204 820 C204 820 294 691 294 691 C294 691 300 695 300 695 C300 695 233 840 233 840 L233 840 Z " />
<glyph glyph-name="Iacute" unicode="&#xcd;" horiz-adv-x="205" d="M158 691 C158 691 291 820 291 820 C321 850 342 871 342 875 C343 881 326 895 317 895 C315 895 296 873 269 840 C269 840 153 695 153 695 C153 695 158 691 158 691 L158 691 Z M275 660 C275 660 251 660 251 660 C251 660 215 660 215 660 C215 660 179 660 179 660 C179 660 155 660 155 660 C155 659 153 645 152 645 C152 645 156 645 156 645 C167 645 172 622 166 587 C166 587 77 80 77 80 C77 80 77 80 77 80 C70 41 57 15 45 15 C45 15 41 15 41 15 C42 15 39 0 39 0 C39 0 63 0 63 0 C63 0 99 0 99 0 C99 0 135 0 135 0 C135 0 158 0 158 0 C158 0 159 3 160 8 C160 12 161 15 161 15 C161 15 157 15 157 15 C147 15 142 34 146 65 C146 65 237 580 237 580 C237 580 237 580 237 580 C243 619 256 645 269 645 C269 645 272 645 272 645 C272 646 271 648 275 660 C275 660 275 660 275 660 L275 660 Z " />
<glyph glyph-name="Icircumflex" unicode="&#xce;" horiz-adv-x="205" d="M275 660 C275 660 251 660 251 660 C251 660 215 660 215 660 C215 660 179 660 179 660 C179 660 155 660 155 660 C155 659 153 645 152 645 C152 645 156 645 156 645 C167 645 172 622 166 587 C166 587 77 80 77 80 C77 80 77 80 77 80 C70 41 57 15 45 15 C45 15 41 15 41 15 C42 15 39 0 39 0 C39 0 63 0 63 0 C63 0 99 0 99 0 C99 0 135 0 135 0 C135 0 158 0 158 0 C158 0 159 3 160 8 C160 12 161 15 161 15 C161 15 157 15 157 15 C147 15 142 34 146 65 C146 65 237 580 237 580 C237 580 237 580 237 580 C243 619 256 645 269 645 C269 645 272 645 272 645 C272 646 271 648 275 660 C275 660 275 660 275 660 L275 660 Z M249 852 C249 852 334 693 334 693 C334 693 340 698 340 698 C340 698 272 891 272 891 C270 895 266 905 258 905 C250 905 243 895 240 891 C240 891 103 698 103 698 C103 698 108 693 108 693 C108 693 249 852 249 852 L249 852 Z " />
<glyph glyph-name="Idieresis" unicode="&#xcf;" horiz-adv-x="205" d="M316 730 C334 730 349 742 352 761 C355 779 345 791 327 791 C309 791 294 779 291 761 C288 742 298 730 316 730 L316 730 Z M138 730 C157 730 171 742 174 761 C177 779 167 791 149 791 C131 791 116 779 113 761 C110 742 120 730 138 730 L138 730 Z M275 660 C275 660 251 660 251 660 C251 660 215 660 215 660 C215 660 179 660 179 660 C179 660 155 660 155 660 C155 659 153 645 152 645 C152 645 156 645 156 645 C167 645 172 622 166 587 C166 587 77 80 77 80 C77 80 77 80 77 80 C70 41 57 15 45 15 C45 15 41 15 41 15 C42 15 39 0 39 0 C39 0 63 0 63 0 C63 0 99 0 99 0 C99 0 135 0 135 0 C135 0 158 0 158 0 C158 0 159 3 160 8 C160 12 161 15 161 15 C161 15 157 15 157 15 C147 15 142 34 146 65 C146 65 237 580 237 580 C237 580 237 580 237 580 C243 619 256 645 269 645 C269 645 272 645 272 645 C272 646 271 648 275 660 C275 660 275 660 275 660 L275 660 Z " />
<glyph glyph-name="Ntilde" unicode="&#xd1;" horiz-adv-x="611" d="M301 755 C308 795 331 822 358 822 C419 822 466 759 527 759 C567 759 600 796 610 852 C610 852 602 852 602 852 C596 816 572 792 544 792 C483 792 435 855 375 855 C336 855 304 815 293 755 C293 755 301 755 301 755 L301 755 Z M688 660 C688 660 664 660 664 660 C664 660 653 660 653 660 C653 660 642 660 642 660 C642 660 618 660 618 660 C617 657 616 646 616 645 C616 645 619 645 619 645 C631 645 634 623 629 589 C629 589 541 87 541 87 C541 87 259 660 259 660 C259 660 210 660 210 660 C210 660 206 636 206 636 C206 636 259 660 259 660 C259 660 206 636 206 636 C206 636 210 660 210 660 C210 660 200 660 200 660 C200 660 189 660 189 660 C189 660 165 660 165 660 C165 659 163 645 162 645 C162 645 166 645 166 645 C177 645 181 621 176 586 C176 586 86 80 86 80 C86 80 86 80 86 80 C79 41 67 15 55 15 C55 15 51 15 51 15 C50 12 49 1 49 0 C49 0 72 0 72 0 C72 0 83 0 83 0 C83 0 94 0 94 0 C94 0 118 0 118 0 C118 0 121 15 120 15 C120 15 117 15 117 15 C106 15 101 38 107 73 C107 73 200 605 200 605 C200 605 495 10 495 10 C495 10 505 -11 505 -11 C505 -11 545 -11 545 -11 C545 -11 554 36 554 36 C554 36 650 580 650 580 C650 580 650 580 650 580 C657 619 669 645 681 645 C681 645 685 645 685 645 C685 645 687 660 688 660 C688 660 688 660 688 660 L688 660 Z " />
<glyph glyph-name="Ograve" unicode="&#xd2;" horiz-adv-x="772" d="M392 13 C229 13 171 159 201 330 C232 501 341 647 504 647 C667 647 725 501 695 330 C665 159 555 13 392 13 L392 13 Z M122 330 C90 149 174 -5 389 -5 C604 -5 742 149 774 330 C806 511 722 665 507 665 C292 665 154 511 122 330 L122 330 Z M524 840 C509 873 497 895 494 895 C486 895 463 881 462 875 C461 870 475 849 495 820 C495 820 585 691 585 691 C585 691 592 695 592 695 C592 695 524 840 524 840 L524 840 Z " />
<glyph glyph-name="Oacute" unicode="&#xd3;" horiz-adv-x="772" d="M487 691 C487 691 620 820 620 820 C650 850 671 871 672 875 C673 881 655 895 647 895 C644 895 625 873 598 840 C598 840 483 695 483 695 C483 695 487 691 487 691 L487 691 Z M392 13 C229 13 171 159 201 330 C232 501 341 647 504 647 C667 647 725 501 695 330 C665 159 555 13 392 13 L392 13 Z M122 330 C90 149 174 -5 389 -5 C604 -5 742 149 774 330 C806 511 722 665 507 665 C292 665 154 511 122 330 L122 330 Z " />
<glyph glyph-name="Ocircumflex" unicode="&#xd4;" horiz-adv-x="772" d="M392 13 C229 13 171 159 201 330 C232 501 341 647 504 647 C667 647 725 501 695 330 C665 159 555 13 392 13 L392 13 Z M122 330 C90 149 174 -5 389 -5 C604 -5 742 149 774 330 C806 511 722 665 507 665 C292 665 154 511 122 330 L122 330 Z M540 852 C540 852 625 693 625 693 C625 693 631 698 631 698 C631 698 563 891 563 891 C562 895 558 905 550 905 C542 905 534 895 531 891 C531 891 395 698 395 698 C395 698 399 693 399 693 C399 693 540 852 540 852 L540 852 Z " />
<glyph glyph-name="Otilde" unicode="&#xd5;" horiz-adv-x="772" d="M381 755 C388 795 411 822 438 822 C499 822 546 759 607 759 C647 759 681 796 691 852 C691 852 682 852 682 852 C676 816 652 792 624 792 C563 792 515 855 455 855 C416 855 384 815 373 755 C373 755 381 755 381 755 L381 755 Z M392 13 C229 13 171 159 201 330 C232 501 341 647 504 647 C667 647 725 501 695 330 C665 159 555 13 392 13 L392 13 Z M122 330 C90 149 174 -5 389 -5 C604 -5 742 149 774 330 C806 511 722 665 507 665 C292 665 154 511 122 330 L122 330 Z " />
<glyph glyph-name="Odieresis" unicode="&#xd6;" horiz-adv-x="772" d="M608 730 C626 730 640 742 644 761 C646 779 636 791 618 791 C600 791 585 779 582 761 C579 742 589 730 608 730 L608 730 Z M430 730 C448 730 463 742 466 761 C469 779 459 791 441 791 C423 791 408 779 405 761 C402 742 412 730 430 730 L430 730 Z M392 13 C229 13 171 159 201 330 C232 501 341 647 504 647 C667 647 725 501 695 330 C665 159 555 13 392 13 L392 13 Z M122 330 C90 149 174 -5 389 -5 C604 -5 742 149 774 330 C806 511 722 665 507 665 C292 665 154 511 122 330 L122 330 Z " />
<glyph glyph-name="Oslash" unicode="&#xd8;" horiz-adv-x="772" d="M73 -16 C73 -16 178 76 178 76 C223 26 293 -5 389 -5 C604 -5 742 149 774 330 C790 418 778 500 736 561 C736 561 843 654 843 654 C843 654 824 676 824 676 C824 676 718 584 718 584 C673 634 603 665 507 665 C292 665 154 511 122 330 C106 241 118 159 160 98 C160 98 54 6 54 6 C54 6 73 -16 73 -16 L73 -16 Z M392 13 C308 13 252 52 221 113 C221 113 687 518 687 518 C705 465 707 400 695 330 C665 159 555 13 392 13 C392 13 392 13 392 13 L392 13 Z M209 141 C191 195 189 260 201 330 C232 501 341 647 504 647 C588 647 645 608 675 546 C675 546 209 141 209 141 L209 141 Z " />
<glyph glyph-name="Ugrave" unicode="&#xd9;" horiz-adv-x="587" d="M677 660 C677 660 650 660 650 660 C650 660 642 660 642 660 C642 660 634 660 634 660 C634 660 605 660 605 660 C605 659 603 645 602 645 C602 645 607 645 607 645 C620 645 626 618 619 576 C619 576 549 184 549 184 C532 86 464 20 320 20 C193 20 156 90 174 194 C174 194 242 580 242 580 C242 580 242 580 242 580 C249 619 261 645 274 645 C274 645 277 645 277 645 C277 645 278 648 279 653 C279 657 280 660 280 660 C280 660 256 660 256 660 C256 660 220 660 220 660 C220 660 184 660 184 660 C184 660 160 660 160 660 C159 657 158 646 158 645 C158 645 161 645 161 645 C174 645 177 619 170 580 C170 580 170 580 170 580 C170 580 105 208 105 208 C82 80 134 -5 305 -5 C469 -5 546 68 565 178 C565 178 636 578 636 578 C644 619 658 645 671 645 C671 645 675 645 675 645 C675 646 677 657 677 660 C677 660 677 660 677 660 L677 660 Z M435 840 C420 873 408 895 405 895 C396 895 374 881 373 875 C372 870 386 849 406 820 C406 820 496 691 496 691 C496 691 503 695 503 695 C503 695 435 840 435 840 L435 840 Z " />
<glyph glyph-name="Uacute" unicode="&#xda;" horiz-adv-x="587" d="M421 691 C421 691 554 820 554 820 C584 850 605 871 605 875 C606 881 589 895 580 895 C578 895 559 873 532 840 C532 840 416 695 416 695 C416 695 421 691 421 691 L421 691 Z M677 660 C677 660 650 660 650 660 C650 660 642 660 642 660 C642 660 634 660 634 660 C634 660 605 660 605 660 C605 659 603 645 602 645 C602 645 607 645 607 645 C620 645 626 618 619 576 C619 576 549 184 549 184 C532 86 464 20 320 20 C193 20 156 90 174 194 C174 194 242 580 242 580 C242 580 242 580 242 580 C249 619 261 645 274 645 C274 645 277 645 277 645 C277 645 278 648 279 653 C279 657 280 660 280 660 C280 660 256 660 256 660 C256 660 220 660 220 660 C220 660 184 660 184 660 C184 660 160 660 160 660 C159 657 158 646 158 645 C158 645 161 645 161 645 C174 645 177 619 170 580 C170 580 170 580 170 580 C170 580 105 208 105 208 C82 80 134 -5 305 -5 C469 -5 546 68 565 178 C565 178 636 578 636 578 C644 619 658 645 671 645 C671 645 675 645 675 645 C675 646 677 657 677 660 C677 660 677 660 677 660 L677 660 Z " />
<glyph glyph-name="Ucircumflex" unicode="&#xdb;" horiz-adv-x="587" d="M677 660 C677 660 650 660 650 660 C650 660 642 660 642 660 C642 660 634 660 634 660 C634 660 605 660 605 660 C605 659 603 645 602 645 C602 645 607 645 607 645 C620 645 626 618 619 576 C619 576 549 184 549 184 C532 86 464 20 320 20 C193 20 156 90 174 194 C174 194 242 580 242 580 C242 580 242 580 242 580 C249 619 261 645 274 645 C274 645 277 645 277 645 C277 645 278 648 279 653 C279 657 280 660 280 660 C280 660 256 660 256 660 C256 660 220 660 220 660 C220 660 184 660 184 660 C184 660 160 660 160 660 C159 657 158 646 158 645 C158 645 161 645 161 645 C174 645 177 619 170 580 C170 580 170 580 170 580 C170 580 105 208 105 208 C82 80 134 -5 305 -5 C469 -5 546 68 565 178 C565 178 636 578 636 578 C644 619 658 645 671 645 C671 645 675 645 675 645 C675 646 677 657 677 660 C677 660 677 660 677 660 L677 660 Z M451 852 C451 852 536 693 536 693 C536 693 542 698 542 698 C542 698 474 891 474 891 C472 895 468 905 460 905 C452 905 445 895 442 891 C442 891 306 698 306 698 C306 698 310 693 310 693 C310 693 451 852 451 852 L451 852 Z " />
<glyph glyph-name="Udieresis" unicode="&#xdc;" horiz-adv-x="587" d="M518 730 C537 730 551 742 554 761 C557 779 547 791 529 791 C511 791 496 779 493 761 C490 742 500 730 518 730 L518 730 Z M341 730 C359 730 374 742 377 761 C380 779 370 791 352 791 C333 791 319 779 316 761 C312 742 322 730 341 730 L341 730 Z M677 660 C677 660 650 660 650 660 C650 660 642 660 642 660 C642 660 634 660 634 660 C634 660 605 660 605 660 C605 659 603 645 602 645 C602 645 607 645 607 645 C620 645 626 618 619 576 C619 576 549 184 549 184 C532 86 464 20 320 20 C193 20 156 90 174 194 C174 194 242 580 242 580 C242 580 242 580 242 580 C249 619 261 645 274 645 C274 645 277 645 277 645 C277 645 278 648 279 653 C279 657 280 660 280 660 C280 660 256 660 256 660 C256 660 220 660 220 660 C220 660 184 660 184 660 C184 660 160 660 160 660 C159 657 158 646 158 645 C158 645 161 645 161 645 C174 645 177 619 170 580 C170 580 170 580 170 580 C170 580 105 208 105 208 C82 80 134 -5 305 -5 C469 -5 546 68 565 178 C565 178 636 578 636 578 C644 619 658 645 671 645 C671 645 675 645 675 645 C675 646 677 657 677 660 C677 660 677 660 677 660 L677 660 Z " />
<glyph glyph-name="Yacute" unicode="&#xdd;" horiz-adv-x="564" d="M409 691 C409 691 541 820 541 820 C572 850 592 871 593 875 C594 881 577 895 568 895 C566 895 547 873 519 840 C519 840 404 695 404 695 C404 695 409 691 409 691 L409 691 Z M229 0 C229 0 252 0 252 0 C252 0 288 0 288 0 C288 0 324 0 324 0 C324 0 348 0 348 0 C348 0 348 3 350 8 C350 12 351 15 351 15 C351 15 347 15 347 15 C335 15 332 40 338 78 C351 154 366 236 378 302 C378 302 378 302 378 302 C378 302 603 593 603 593 C628 625 650 645 660 645 C660 645 663 645 663 645 C663 645 666 660 665 660 C665 660 654 660 654 660 C654 660 645 660 645 660 C645 660 637 660 637 660 C637 660 602 660 602 660 C602 659 600 645 599 645 C599 645 603 645 603 645 C617 645 600 611 560 560 C560 560 561 560 561 560 C561 560 363 302 363 302 C363 302 353 302 353 302 C353 302 267 580 267 580 C267 580 267 580 267 580 C255 619 254 645 265 645 C265 645 268 645 268 645 C269 645 271 659 271 660 C271 660 242 660 242 660 C242 660 199 660 199 660 C199 660 156 660 156 660 C156 660 147 660 147 660 C147 660 146 657 145 653 C145 648 144 645 144 645 C144 645 147 645 147 645 C156 645 171 619 185 580 C185 580 185 580 185 580 C185 580 300 268 300 268 C288 204 275 130 263 63 C255 34 245 15 235 15 C235 15 231 15 231 15 C230 12 229 1 229 0 C229 0 229 0 229 0 L229 0 Z " />
<glyph glyph-name="agrave" unicode="&#xe0;" horiz-adv-x="587" d="M492 123 C492 123 491 123 491 123 C514 249 536 374 558 500 C558 500 544 500 544 500 C544 500 497 387 497 387 C493 456 441 505 356 505 C233 505 131 393 101 225 C77 87 135 -5 247 -5 C333 -5 404 36 438 103 C432 67 425 31 419 -5 C419 -5 428 -5 428 -5 C428 -5 468 11 468 11 C468 11 497 20 497 20 C498 20 498 20 498 21 C499 26 499 29 499 29 C483 51 481 66 492 123 C492 123 492 123 492 123 L492 123 Z M354 680 C339 713 327 735 324 735 C315 735 293 721 292 715 C291 710 304 689 325 660 C325 660 415 531 415 531 C415 531 421 535 421 535 C421 535 354 680 354 680 L354 680 Z M442 127 C417 65 356 26 280 26 C183 26 134 113 157 244 C183 392 261 491 351 491 C444 491 496 429 481 347 C468 273 455 200 442 127 C442 127 442 127 442 127 L442 127 Z " />
<glyph glyph-name="aacute" unicode="&#xe1;" horiz-adv-x="496" d="M289 531 C289 531 421 660 421 660 C452 690 472 711 473 715 C474 721 456 735 448 735 C445 735 426 713 399 680 C399 680 284 535 284 535 C284 535 289 531 289 531 L289 531 Z M474 37 C458 23 440 14 418 14 C388 14 384 37 390 73 C390 73 440 359 440 359 C456 447 418 505 346 505 C206 505 123 446 140 356 C140 356 190 356 190 356 C175 437 232 491 332 491 C379 491 402 443 389 371 C389 371 368 250 368 250 C368 250 249 234 249 234 C147 220 72 167 60 102 C49 38 87 -5 156 -5 C214 -5 282 23 336 66 C328 21 335 -10 380 -10 C420 -10 450 6 479 30 C479 30 474 37 474 37 L474 37 Z M366 238 C366 238 338 76 338 76 C295 47 239 28 187 28 C133 28 103 63 113 116 C121 165 175 206 247 218 C247 218 366 238 366 238 L366 238 Z " />
<glyph glyph-name="acircumflex" unicode="&#xe2;" horiz-adv-x="587" d="M492 123 C492 123 491 123 491 123 C514 249 536 374 558 500 C558 500 544 500 544 500 C544 500 497 387 497 387 C493 456 441 505 356 505 C233 505 131 393 101 225 C77 87 135 -5 247 -5 C333 -5 404 36 438 103 C432 67 425 31 419 -5 C419 -5 428 -5 428 -5 C428 -5 468 11 468 11 C468 11 497 20 497 20 C498 20 498 20 498 21 C499 26 499 29 499 29 C483 51 481 66 492 123 C492 123 492 123 492 123 L492 123 Z M370 692 C370 692 455 533 455 533 C455 533 461 538 461 538 C461 538 393 731 393 731 C391 735 387 745 379 745 C371 745 364 735 361 731 C361 731 225 538 225 538 C225 538 229 533 229 533 C229 533 370 692 370 692 L370 692 Z M442 127 C417 65 356 26 280 26 C183 26 134 113 157 244 C183 392 261 491 351 491 C444 491 496 429 481 347 C468 273 455 200 442 127 C442 127 442 127 442 127 L442 127 Z " />
<glyph glyph-name="atilde" unicode="&#xe3;" horiz-adv-x="587" d="M211 595 C218 635 241 662 268 662 C328 662 376 599 437 599 C477 599 510 636 520 692 C520 692 512 692 512 692 C506 656 482 632 453 632 C393 632 345 695 284 695 C246 695 213 655 203 595 C203 595 211 595 211 595 L211 595 Z M492 123 C492 123 491 123 491 123 C514 249 536 374 558 500 C558 500 544 500 544 500 C544 500 497 387 497 387 C493 456 441 505 356 505 C233 505 131 393 101 225 C77 87 135 -5 247 -5 C333 -5 404 36 438 103 C432 67 425 31 419 -5 C419 -5 428 -5 428 -5 C428 -5 468 11 468 11 C468 11 497 20 497 20 C498 20 498 20 498 21 C499 26 499 29 499 29 C483 51 481 66 492 123 C492 123 492 123 492 123 L492 123 Z M442 127 C417 65 356 26 280 26 C183 26 134 113 157 244 C183 392 261 491 351 491 C444 491 496 429 481 347 C468 273 455 200 442 127 C442 127 442 127 442 127 L442 127 Z " />
<glyph glyph-name="adieresis" unicode="&#xe4;" horiz-adv-x="587" d="M437 570 C455 570 470 582 473 601 C476 619 466 631 448 631 C430 631 415 619 412 601 C409 582 419 570 437 570 L437 570 Z M260 570 C278 570 292 582 295 601 C299 619 289 631 270 631 C252 631 237 619 234 601 C231 582 241 570 260 570 L260 570 Z M492 123 C492 123 491 123 491 123 C514 249 536 374 558 500 C558 500 544 500 544 500 C544 500 497 387 497 387 C493 456 441 505 356 505 C233 505 131 393 101 225 C77 87 135 -5 247 -5 C333 -5 404 36 438 103 C432 67 425 31 419 -5 C419 -5 428 -5 428 -5 C428 -5 468 11 468 11 C468 11 497 20 497 20 C498 20 498 20 498 21 C499 26 499 29 499 29 C483 51 481 66 492 123 C492 123 492 123 492 123 L492 123 Z M442 127 C417 65 356 26 280 26 C183 26 134 113 157 244 C183 392 261 491 351 491 C444 491 496 429 481 347 C468 273 455 200 442 127 C442 127 442 127 442 127 L442 127 Z " />
<glyph glyph-name="aring" unicode="&#xe5;" horiz-adv-x="587" d="M344 546 C301 546 271 583 278 628 C287 676 325 709 373 709 C421 709 447 676 439 628 C431 583 387 546 344 546 L344 546 Z M264 628 C256 578 292 535 342 535 C393 535 444 578 453 628 C462 683 431 720 375 720 C318 720 274 683 264 628 L264 628 Z M492 123 C492 123 491 123 491 123 C514 249 536 374 558 500 C558 500 544 500 544 500 C544 500 497 387 497 387 C493 456 441 505 356 505 C233 505 131 393 101 225 C77 87 135 -5 247 -5 C333 -5 404 36 438 103 C432 67 425 31 419 -5 C419 -5 428 -5 428 -5 C428 -5 468 11 468 11 C468 11 497 20 497 20 C498 20 498 20 498 21 C499 26 499 29 499 29 C483 51 481 66 492 123 C492 123 492 123 492 123 L492 123 Z M442 127 C417 65 356 26 280 26 C183 26 134 113 157 244 C183 392 261 491 351 491 C444 491 496 429 481 347 C468 273 455 200 442 127 C442 127 442 127 442 127 L442 127 Z " />
<glyph glyph-name="ccedilla" unicode="&#xe7;" horiz-adv-x="489" d="M452 121 C452 121 446 124 446 124 C407 65 345 25 290 25 C185 25 131 117 155 254 C180 396 271 491 384 491 C432 491 461 456 456 404 C455 389 463 379 477 379 C490 379 501 388 503 401 C508 463 464 505 392 505 C244 505 127 397 99 235 C73 91 131 -5 243 -5 C319 -5 403 45 452 121 L452 121 Z " />
<glyph glyph-name="egrave" unicode="&#xe8;" horiz-adv-x="495" d="M459 121 C459 121 453 124 453 124 C414 65 351 25 294 25 C186 25 131 117 155 254 C159 279 165 302 173 324 C173 324 449 324 449 324 C449 324 496 324 496 324 C515 433 461 505 360 505 C232 505 127 397 99 235 C73 91 132 -5 247 -5 C325 -5 410 45 459 121 L459 121 Z M377 680 C362 713 350 735 347 735 C338 735 316 721 315 715 C314 710 327 689 348 660 C348 660 438 531 438 531 C438 531 444 535 444 535 C444 535 377 680 377 680 L377 680 Z M452 342 C452 342 176 333 176 333 C213 430 279 491 355 491 C429 491 470 441 457 366 C454 352 443 342 429 342 C429 342 452 342 452 342 C452 342 452 342 452 342 C452 342 452 342 452 342 L452 342 Z " />
<glyph glyph-name="eacute" unicode="&#xe9;" horiz-adv-x="495" d="M333 531 C333 531 465 660 465 660 C496 690 516 711 517 715 C518 721 500 735 492 735 C489 735 470 713 443 680 C443 680 328 535 328 535 C328 535 333 531 333 531 L333 531 Z M459 121 C459 121 453 124 453 124 C414 65 351 25 294 25 C186 25 131 117 155 254 C159 279 165 302 173 324 C173 324 449 324 449 324 C449 324 496 324 496 324 C515 433 461 505 360 505 C232 505 127 397 99 235 C73 91 132 -5 247 -5 C325 -5 410 45 459 121 L459 121 Z M452 342 C452 342 176 333 176 333 C213 430 279 491 355 491 C429 491 470 441 457 366 C454 352 443 342 429 342 C429 342 452 342 452 342 C452 342 452 342 452 342 C452 342 452 342 452 342 L452 342 Z " />
<glyph glyph-name="ecircumflex" unicode="&#xea;" horiz-adv-x="495" d="M459 121 C459 121 453 124 453 124 C414 65 351 25 294 25 C186 25 131 117 155 254 C159 279 165 302 173 324 C173 324 449 324 449 324 C449 324 496 324 496 324 C515 433 461 505 360 505 C232 505 127 397 99 235 C73 91 132 -5 247 -5 C325 -5 410 45 459 121 L459 121 Z M393 692 C393 692 478 533 478 533 C478 533 484 538 484 538 C484 538 416 731 416 731 C414 735 410 745 402 745 C394 745 387 735 384 731 C384 731 248 538 248 538 C248 538 252 533 252 533 C252 533 393 692 393 692 L393 692 Z M452 342 C452 342 176 333 176 333 C213 430 279 491 355 491 C429 491 470 441 457 366 C454 352 443 342 429 342 C429 342 452 342 452 342 C452 342 452 342 452 342 C452 342 452 342 452 342 L452 342 Z " />
<glyph glyph-name="edieresis" unicode="&#xeb;" horiz-adv-x="495" d="M460 570 C478 570 493 582 496 601 C499 619 489 631 471 631 C453 631 438 619 435 601 C432 582 442 570 460 570 L460 570 Z M283 570 C301 570 316 582 319 601 C322 619 312 631 293 631 C275 631 261 619 257 601 C254 582 265 570 283 570 L283 570 Z M459 121 C459 121 453 124 453 124 C414 65 351 25 294 25 C186 25 131 117 155 254 C159 279 165 302 173 324 C173 324 449 324 449 324 C449 324 496 324 496 324 C515 433 461 505 360 505 C232 505 127 397 99 235 C73 91 132 -5 247 -5 C325 -5 410 45 459 121 L459 121 Z M452 342 C452 342 176 333 176 333 C213 430 279 491 355 491 C429 491 470 441 457 366 C454 352 443 342 429 342 C429 342 452 342 452 342 C452 342 452 342 452 342 C452 342 452 342 452 342 L452 342 Z " />
<glyph glyph-name="igrave" unicode="&#xec;" horiz-adv-x="201" d="M126 0 C126 0 150 0 150 0 C150 1 152 12 152 15 C152 15 147 15 147 15 C136 15 129 13 126 1 C126 1 200 420 200 420 C213 491 215 505 215 505 C215 505 212 505 212 505 C212 505 141 484 141 484 C141 484 141 483 140 480 C140 477 140 475 139 475 C139 475 150 453 150 453 C152 447 153 438 147 406 C147 406 148 406 148 406 C148 406 76 0 76 0 C78 13 71 15 59 15 C59 15 55 15 55 15 C55 13 52 6 52 0 C52 0 76 0 76 0 C76 0 126 0 126 0 L126 0 Z M207 680 C192 713 180 735 177 735 C168 735 145 721 144 715 C143 710 157 689 178 660 C178 660 268 531 268 531 C268 531 274 535 274 535 C274 535 207 680 207 680 L207 680 Z " />
<glyph glyph-name="iacute" unicode="&#xed;" horiz-adv-x="201" d="M117 531 C117 531 250 660 250 660 C280 690 301 711 301 715 C302 721 285 735 276 735 C274 735 255 713 228 680 C228 680 112 535 112 535 C112 535 117 531 117 531 L117 531 Z M126 0 C126 0 150 0 150 0 C150 1 152 12 152 15 C152 15 147 15 147 15 C136 15 129 13 126 1 C126 1 200 420 200 420 C213 491 215 505 215 505 C215 505 212 505 212 505 C212 505 141 484 141 484 C141 484 141 483 140 480 C140 477 140 475 139 475 C139 475 150 453 150 453 C152 447 153 438 147 406 C147 406 148 406 148 406 C148 406 76 0 76 0 C78 13 71 15 59 15 C59 15 55 15 55 15 C55 13 52 6 52 0 C52 0 76 0 76 0 C76 0 126 0 126 0 L126 0 Z " />
<glyph glyph-name="icircumflex" unicode="&#xee;" horiz-adv-x="201" d="M126 0 C126 0 150 0 150 0 C150 1 152 12 152 15 C152 15 147 15 147 15 C136 15 129 13 126 1 C126 1 200 420 200 420 C213 491 215 505 215 505 C215 505 212 505 212 505 C212 505 141 484 141 484 C141 484 141 483 140 480 C140 477 140 475 139 475 C139 475 150 453 150 453 C152 447 153 438 147 406 C147 406 148 406 148 406 C148 406 76 0 76 0 C78 13 71 15 59 15 C59 15 55 15 55 15 C55 13 52 6 52 0 C52 0 76 0 76 0 C76 0 126 0 126 0 L126 0 Z M223 692 C223 692 308 533 308 533 C308 533 314 538 314 538 C314 538 246 731 246 731 C244 735 240 745 232 745 C224 745 217 735 214 731 C214 731 77 538 77 538 C77 538 82 533 82 533 C82 533 223 692 223 692 L223 692 Z " />
<glyph glyph-name="idieresis" unicode="&#xef;" horiz-adv-x="201" d="M290 570 C308 570 323 582 326 601 C329 619 319 631 301 631 C283 631 268 619 265 601 C262 582 272 570 290 570 L290 570 Z M112 570 C131 570 145 582 148 601 C152 619 142 631 123 631 C105 631 90 619 87 601 C84 582 94 570 112 570 L112 570 Z M126 0 C126 0 150 0 150 0 C150 1 152 12 152 15 C152 15 147 15 147 15 C136 15 129 13 126 1 C126 1 200 420 200 420 C213 491 215 505 215 505 C215 505 212 505 212 505 C212 505 141 484 141 484 C141 484 141 483 140 480 C140 477 140 475 139 475 C139 475 150 453 150 453 C152 447 153 438 147 406 C147 406 148 406 148 406 C148 406 76 0 76 0 C78 13 71 15 59 15 C59 15 55 15 55 15 C55 13 52 6 52 0 C52 0 76 0 76 0 C76 0 126 0 126 0 L126 0 Z " />
<glyph glyph-name="ntilde" unicode="&#xf1;" horiz-adv-x="531" d="M231 595 C238 635 261 662 288 662 C349 662 397 599 457 599 C497 599 530 636 541 692 C541 692 532 692 532 692 C526 656 502 632 474 632 C413 632 365 695 305 695 C266 695 233 655 223 595 C223 595 231 595 231 595 L231 595 Z M140 80 C140 80 139 80 139 80 C139 80 193 383 193 383 C227 436 300 471 379 471 C462 471 484 415 469 331 C469 331 425 80 425 80 C425 80 425 80 425 80 C418 41 406 15 393 15 C393 15 390 15 390 15 C390 15 389 12 388 8 C388 3 387 0 387 0 C387 0 411 0 411 0 C411 0 436 0 436 0 C436 0 461 0 461 0 C461 0 485 0 485 0 C485 1 488 15 487 15 C487 15 484 15 484 15 C473 15 468 38 474 74 C474 74 520 336 520 336 C538 438 515 505 424 505 C329 505 240 461 195 394 C195 394 214 500 214 500 C214 500 204 500 204 500 C204 500 136 480 136 480 C137 480 136 480 136 479 C136 475 135 471 135 471 C149 452 151 437 145 394 C145 394 86 64 86 64 C79 34 68 15 58 15 C58 15 54 15 54 15 C55 15 52 0 52 0 C52 0 75 0 75 0 C75 0 100 0 100 0 C100 0 125 0 125 0 C125 0 149 0 149 0 C149 0 150 3 151 8 C151 12 152 15 152 15 C152 15 148 15 148 15 C137 15 133 41 140 80 C140 80 140 80 140 80 L140 80 Z " />
<glyph glyph-name="ograve" unicode="&#xf2;" horiz-adv-x="602" d="M302 6 C189 6 130 104 157 250 C182 396 275 494 388 494 C502 494 560 396 534 250 C508 104 416 6 302 6 L302 6 Z M101 250 C74 97 154 -5 300 -5 C447 -5 563 97 590 250 C617 403 537 505 390 505 C244 505 128 403 101 250 L101 250 Z M407 680 C392 713 381 735 377 735 C369 735 346 721 345 715 C344 710 358 689 378 660 C378 660 469 531 469 531 C469 531 475 535 475 535 C475 535 407 680 407 680 L407 680 Z " />
<glyph glyph-name="oacute" unicode="&#xf3;" horiz-adv-x="602" d="M363 531 C363 531 496 660 496 660 C526 690 546 711 547 715 C548 721 531 735 522 735 C520 735 501 713 474 680 C474 680 358 535 358 535 C358 535 363 531 363 531 L363 531 Z M302 6 C189 6 130 104 157 250 C182 396 275 494 388 494 C502 494 560 396 534 250 C508 104 416 6 302 6 L302 6 Z M101 250 C74 97 154 -5 300 -5 C447 -5 563 97 590 250 C617 403 537 505 390 505 C244 505 128 403 101 250 L101 250 Z " />
<glyph glyph-name="ocircumflex" unicode="&#xf4;" horiz-adv-x="602" d="M302 6 C189 6 130 104 157 250 C182 396 275 494 388 494 C502 494 560 396 534 250 C508 104 416 6 302 6 L302 6 Z M101 250 C74 97 154 -5 300 -5 C447 -5 563 97 590 250 C617 403 537 505 390 505 C244 505 128 403 101 250 L101 250 Z M423 692 C423 692 508 533 508 533 C508 533 514 538 514 538 C514 538 446 731 446 731 C445 735 440 745 433 745 C425 745 417 735 414 731 C414 731 278 538 278 538 C278 538 282 533 282 533 C282 533 423 692 423 692 L423 692 Z " />
<glyph glyph-name="otilde" unicode="&#xf5;" horiz-adv-x="602" d="M264 595 C271 635 294 662 321 662 C382 662 430 599 490 599 C531 599 564 636 574 692 C574 692 565 692 565 692 C559 656 535 632 507 632 C447 632 398 695 338 695 C299 695 267 655 256 595 C256 595 264 595 264 595 L264 595 Z M302 6 C189 6 130 104 157 250 C182 396 275 494 388 494 C502 494 560 396 534 250 C508 104 416 6 302 6 L302 6 Z M101 250 C74 97 154 -5 300 -5 C447 -5 563 97 590 250 C617 403 537 505 390 505 C244 505 128 403 101 250 L101 250 Z " />
<glyph glyph-name="odieresis" unicode="&#xf6;" horiz-adv-x="602" d="M491 570 C509 570 524 582 527 601 C530 619 520 631 501 631 C483 631 469 619 466 601 C463 582 473 570 491 570 L491 570 Z M313 570 C331 570 346 582 349 601 C352 619 342 631 324 631 C305 631 291 619 288 601 C285 582 295 570 313 570 L313 570 Z M302 6 C189 6 130 104 157 250 C182 396 275 494 388 494 C502 494 560 396 534 250 C508 104 416 6 302 6 L302 6 Z M101 250 C74 97 154 -5 300 -5 C447 -5 563 97 590 250 C617 403 537 505 390 505 C244 505 128 403 101 250 L101 250 Z " />
<glyph glyph-name="oslash" unicode="&#xf8;" horiz-adv-x="602" d="M61 -11 C61 -11 141 59 141 59 C176 18 230 -5 300 -5 C447 -5 563 97 590 250 C603 323 591 384 560 429 C560 429 640 499 640 499 C640 499 630 511 630 511 C630 511 550 441 550 441 C515 482 460 505 390 505 C244 505 128 403 101 250 C88 177 100 116 131 71 C131 71 51 1 51 1 C51 1 61 -11 61 -11 L61 -11 Z M302 6 C240 6 195 35 170 85 C170 85 527 399 527 399 C541 359 544 308 534 250 C508 104 416 6 302 6 L302 6 Z M164 101 C149 140 146 191 157 250 C182 396 275 494 388 494 C450 494 496 465 520 414 C520 414 164 101 164 101 L164 101 Z " />
<glyph glyph-name="ugrave" unicode="&#xf9;" horiz-adv-x="496" d="M453 123 C453 123 452 123 452 123 C452 123 519 500 519 500 C519 500 494 500 494 500 C494 500 469 500 469 500 C469 500 445 500 445 500 C444 497 443 486 443 485 C443 485 446 485 446 485 C457 485 461 463 456 429 C456 429 400 110 400 110 C400 110 400 110 400 110 C400 110 398 99 398 99 C371 56 322 28 241 28 C148 28 109 81 124 161 C124 161 184 500 184 500 C184 500 159 500 159 500 C159 500 134 500 134 500 C134 500 110 500 110 500 C110 500 109 497 108 493 C108 488 107 485 107 485 C107 485 111 485 111 485 C122 485 126 462 121 426 C121 426 73 156 73 156 C56 59 97 -5 196 -5 C294 -5 357 31 396 86 C396 86 394 77 394 77 C394 77 383 13 383 13 C383 13 383 13 383 13 C383 13 381 0 381 0 C381 0 391 0 391 0 C391 0 458 20 458 20 C458 20 458 21 458 21 C459 26 460 29 460 29 C444 51 442 66 453 123 C453 123 453 123 453 123 L453 123 Z M344 680 C329 713 317 735 314 735 C306 735 283 721 282 715 C281 710 295 689 315 660 C315 660 405 531 405 531 C405 531 412 535 412 535 C412 535 344 680 344 680 L344 680 Z " />
<glyph glyph-name="uacute" unicode="&#xfa;" horiz-adv-x="496" d="M300 531 C300 531 433 660 433 660 C463 690 483 711 484 715 C485 721 468 735 459 735 C456 735 437 713 411 680 C411 680 295 535 295 535 C295 535 300 531 300 531 L300 531 Z M453 123 C453 123 452 123 452 123 C452 123 519 500 519 500 C519 500 494 500 494 500 C494 500 469 500 469 500 C469 500 445 500 445 500 C444 497 443 486 443 485 C443 485 446 485 446 485 C457 485 461 463 456 429 C456 429 400 110 400 110 C400 110 400 110 400 110 C400 110 398 99 398 99 C371 56 322 28 241 28 C148 28 109 81 124 161 C124 161 184 500 184 500 C184 500 159 500 159 500 C159 500 134 500 134 500 C134 500 110 500 110 500 C110 500 109 497 108 493 C108 488 107 485 107 485 C107 485 111 485 111 485 C122 485 126 462 121 426 C121 426 73 156 73 156 C56 59 97 -5 196 -5 C294 -5 357 31 396 86 C396 86 394 77 394 77 C394 77 383 13 383 13 C383 13 383 13 383 13 C383 13 381 0 381 0 C381 0 391 0 391 0 C391 0 458 20 458 20 C458 20 458 21 458 21 C459 26 460 29 460 29 C444 51 442 66 453 123 C453 123 453 123 453 123 L453 123 Z " />
<glyph glyph-name="ucircumflex" unicode="&#xfb;" horiz-adv-x="496" d="M453 123 C453 123 452 123 452 123 C452 123 519 500 519 500 C519 500 494 500 494 500 C494 500 469 500 469 500 C469 500 445 500 445 500 C444 497 443 486 443 485 C443 485 446 485 446 485 C457 485 461 463 456 429 C456 429 400 110 400 110 C400 110 400 110 400 110 C400 110 398 99 398 99 C371 56 322 28 241 28 C148 28 109 81 124 161 C124 161 184 500 184 500 C184 500 159 500 159 500 C159 500 134 500 134 500 C134 500 110 500 110 500 C110 500 109 497 108 493 C108 488 107 485 107 485 C107 485 111 485 111 485 C122 485 126 462 121 426 C121 426 73 156 73 156 C56 59 97 -5 196 -5 C294 -5 357 31 396 86 C396 86 394 77 394 77 C394 77 383 13 383 13 C383 13 383 13 383 13 C383 13 381 0 381 0 C381 0 391 0 391 0 C391 0 458 20 458 20 C458 20 458 21 458 21 C459 26 460 29 460 29 C444 51 442 66 453 123 C453 123 453 123 453 123 L453 123 Z M360 692 C360 692 445 533 445 533 C445 533 451 538 451 538 C451 538 383 731 383 731 C382 735 377 745 370 745 C362 745 354 735 351 731 C351 731 215 538 215 538 C215 538 219 533 219 533 C219 533 360 692 360 692 L360 692 Z " />
<glyph glyph-name="udieresis" unicode="&#xfc;" horiz-adv-x="496" d="M428 570 C446 570 461 582 464 601 C467 619 457 631 438 631 C420 631 406 619 402 601 C399 582 410 570 428 570 L428 570 Z M250 570 C268 570 283 582 286 601 C289 619 279 631 261 631 C242 631 228 619 225 601 C222 582 232 570 250 570 L250 570 Z M453 123 C453 123 452 123 452 123 C452 123 519 500 519 500 C519 500 494 500 494 500 C494 500 469 500 469 500 C469 500 445 500 445 500 C444 497 443 486 443 485 C443 485 446 485 446 485 C457 485 461 463 456 429 C456 429 400 110 400 110 C400 110 400 110 400 110 C400 110 398 99 398 99 C371 56 322 28 241 28 C148 28 109 81 124 161 C124 161 184 500 184 500 C184 500 159 500 159 500 C159 500 134 500 134 500 C134 500 110 500 110 500 C110 500 109 497 108 493 C108 488 107 485 107 485 C107 485 111 485 111 485 C122 485 126 462 121 426 C121 426 73 156 73 156 C56 59 97 -5 196 -5 C294 -5 357 31 396 86 C396 86 394 77 394 77 C394 77 383 13 383 13 C383 13 383 13 383 13 C383 13 381 0 381 0 C381 0 391 0 391 0 C391 0 458 20 458 20 C458 20 458 21 458 21 C459 26 460 29 460 29 C444 51 442 66 453 123 C453 123 453 123 453 123 L453 123 Z " />
<glyph glyph-name="ydieresis" unicode="&#xff;" horiz-adv-x="386" d="M412 570 C430 570 445 582 448 601 C451 619 441 631 423 631 C404 631 390 619 387 601 C384 582 394 570 412 570 L412 570 Z M234 570 C252 570 267 582 270 601 C273 619 263 631 245 631 C227 631 212 619 209 601 C206 582 216 570 234 570 L234 570 Z M463 485 C463 485 466 485 466 485 C475 485 467 459 446 420 C446 420 446 420 446 420 C446 420 250 53 250 53 C250 53 187 420 187 420 C187 420 187 420 187 420 C180 459 182 485 191 485 C191 485 194 485 194 485 C194 486 193 488 197 500 C197 500 173 500 173 500 C173 500 144 500 144 500 C144 500 116 500 116 500 C116 500 97 500 97 500 C96 497 95 486 95 485 C95 485 98 485 98 485 C110 485 124 459 131 420 C131 420 132 420 132 420 C132 420 214 -2 214 -2 C214 -2 178 -67 178 -67 C126 -161 93 -197 58 -197 C36 -197 19 -173 -4 -173 C-19 -173 -30 -181 -32 -194 C-36 -216 -15 -230 22 -230 C80 -230 127 -186 190 -72 C190 -72 224 -10 224 -10 C224 -10 462 420 462 420 C462 420 462 420 462 420 C484 459 506 485 518 485 C518 485 522 485 522 485 C521 485 522 488 523 493 C523 497 524 500 524 500 C524 500 506 500 506 500 C506 500 498 500 498 500 C498 500 489 500 489 500 C489 500 466 500 466 500 C466 498 463 491 463 485 C463 485 463 485 463 485 L463 485 Z " />
<glyph glyph-name="Amacron" unicode="&#x100;" horiz-adv-x="584" d="M263 770 C263 770 563 770 563 770 C563 770 568 798 568 798 C568 798 268 798 268 798 C268 798 263 770 263 770 L263 770 Z M107 95 C107 95 107 95 107 95 C107 95 179 235 179 235 C179 235 422 235 422 235 C422 235 456 60 456 60 C460 32 456 15 445 15 C445 15 442 15 442 15 C442 15 441 12 440 8 C440 3 439 0 439 0 C439 0 468 0 468 0 C468 0 508 0 508 0 C508 0 547 0 547 0 C547 0 566 0 566 0 C566 0 567 3 567 7 C568 12 569 15 569 15 C569 15 565 15 565 15 C553 15 541 36 532 69 C532 69 405 675 405 675 C405 675 387 675 387 675 C387 675 70 68 70 68 C51 36 33 15 22 15 C22 15 18 15 18 15 C19 15 16 0 16 0 C16 0 34 0 34 0 C34 0 46 0 46 0 C46 0 58 0 58 0 C58 0 93 0 93 0 C93 0 94 3 94 8 C95 12 96 15 96 15 C96 15 91 15 91 15 C76 15 82 47 107 95 L107 95 Z M418 254 C418 254 189 254 189 254 C189 254 355 578 355 578 C355 578 418 254 418 254 L418 254 Z " />
<glyph glyph-name="amacron" unicode="&#x101;" horiz-adv-x="587" d="M205 610 C205 610 505 610 505 610 C505 610 510 638 510 638 C510 638 210 638 210 638 C210 638 205 610 205 610 L205 610 Z M492 123 C492 123 491 123 491 123 C514 249 536 374 558 500 C558 500 544 500 544 500 C544 500 497 387 497 387 C493 456 441 505 356 505 C233 505 131 393 101 225 C77 87 135 -5 247 -5 C333 -5 404 36 438 103 C432 67 425 31 419 -5 C419 -5 428 -5 428 -5 C428 -5 468 11 468 11 C468 11 497 20 497 20 C498 20 498 20 498 21 C499 26 499 29 499 29 C483 51 481 66 492 123 C492 123 492 123 492 123 L492 123 Z M442 127 C417 65 356 26 280 26 C183 26 134 113 157 244 C183 392 261 491 351 491 C444 491 496 429 481 347 C468 273 455 200 442 127 C442 127 442 127 442 127 L442 127 Z " />
<glyph glyph-name="Abreve" unicode="&#x102;" horiz-adv-x="584" d="M316 872 C315 809 354 768 413 768 C471 768 524 809 546 872 C546 872 538 873 538 873 C522 830 475 801 418 801 C362 801 324 830 325 873 C325 873 316 872 316 872 L316 872 Z M107 95 C107 95 107 95 107 95 C107 95 179 235 179 235 C179 235 422 235 422 235 C422 235 456 60 456 60 C460 32 456 15 445 15 C445 15 442 15 442 15 C442 15 441 12 440 8 C440 3 439 0 439 0 C439 0 468 0 468 0 C468 0 508 0 508 0 C508 0 547 0 547 0 C547 0 566 0 566 0 C566 0 567 3 567 7 C568 12 569 15 569 15 C569 15 565 15 565 15 C553 15 541 36 532 69 C532 69 405 675 405 675 C405 675 387 675 387 675 C387 675 70 68 70 68 C51 36 33 15 22 15 C22 15 18 15 18 15 C19 15 16 0 16 0 C16 0 34 0 34 0 C34 0 46 0 46 0 C46 0 58 0 58 0 C58 0 93 0 93 0 C93 0 94 3 94 8 C95 12 96 15 96 15 C96 15 91 15 91 15 C76 15 82 47 107 95 L107 95 Z M418 254 C418 254 189 254 189 254 C189 254 355 578 355 578 C355 578 418 254 418 254 L418 254 Z " />
<glyph glyph-name="abreve" unicode="&#x103;" horiz-adv-x="587" d="M253 682 C253 619 292 578 350 578 C408 578 461 619 483 682 C483 682 475 683 475 683 C460 640 412 611 356 611 C299 611 262 640 262 683 C262 683 253 682 253 682 L253 682 Z M492 123 C492 123 491 123 491 123 C514 249 536 374 558 500 C558 500 544 500 544 500 C544 500 497 387 497 387 C493 456 441 505 356 505 C233 505 131 393 101 225 C77 87 135 -5 247 -5 C333 -5 404 36 438 103 C432 67 425 31 419 -5 C419 -5 428 -5 428 -5 C428 -5 468 11 468 11 C468 11 497 20 497 20 C498 20 498 20 498 21 C499 26 499 29 499 29 C483 51 481 66 492 123 C492 123 492 123 492 123 L492 123 Z M442 127 C417 65 356 26 280 26 C183 26 134 113 157 244 C183 392 261 491 351 491 C444 491 496 429 481 347 C468 273 455 200 442 127 C442 127 442 127 442 127 L442 127 Z " />
<glyph glyph-name="Aogonek" unicode="&#x104;" horiz-adv-x="584" d="M107 95 C107 95 107 95 107 95 C107 95 179 235 179 235 C179 235 422 235 422 235 C422 235 456 60 456 60 C460 32 456 15 445 15 C445 15 442 15 442 15 C442 15 441 12 440 8 C440 3 439 0 439 0 C439 0 446 0 446 0 C394 -29 308 -97 298 -156 C290 -202 325 -233 388 -233 C419 -233 453 -220 474 -200 C474 -200 471 -195 471 -195 C457 -210 429 -219 401 -219 C351 -219 322 -192 330 -151 C341 -85 433 -12 468 0 C468 0 508 0 508 0 C508 0 547 0 547 0 C547 0 566 0 566 0 C566 0 567 3 567 7 C568 12 569 15 569 15 C569 15 565 15 565 15 C553 15 541 36 532 69 C532 69 405 675 405 675 C405 675 387 675 387 675 C387 675 70 68 70 68 C51 36 33 15 22 15 C22 15 18 15 18 15 C19 15 16 0 16 0 C16 0 34 0 34 0 C34 0 46 0 46 0 C46 0 58 0 58 0 C58 0 93 0 93 0 C93 0 94 3 94 8 C95 12 96 15 96 15 C96 15 91 15 91 15 C76 15 82 47 107 95 L107 95 Z M418 254 C418 254 189 254 189 254 C189 254 355 578 355 578 C355 578 418 254 418 254 L418 254 Z " />
<glyph glyph-name="aogonek" unicode="&#x105;" horiz-adv-x="496" d="M433 15 C428 14 423 14 418 14 C388 14 384 37 390 73 C390 73 440 359 440 359 C456 447 418 505 346 505 C206 505 123 446 140 356 C140 356 190 356 190 356 C175 437 232 491 332 491 C379 491 402 443 389 371 C389 371 368 250 368 250 C368 250 249 234 249 234 C147 220 72 167 60 102 C49 38 87 -5 156 -5 C214 -5 282 23 336 66 C328 21 335 -10 380 -10 C387 -10 394 -10 400 -9 C357 -44 314 -92 306 -135 C296 -194 330 -233 392 -233 C424 -233 458 -220 479 -200 C479 -200 476 -195 476 -195 C462 -210 434 -219 406 -219 C356 -219 329 -183 338 -130 C347 -82 391 -32 430 -1 C448 7 463 17 479 30 C479 30 481 41 481 41 C469 37 452 28 433 15 C433 15 433 15 433 15 L433 15 Z M366 238 C366 238 338 76 338 76 C295 47 239 28 187 28 C133 28 103 63 113 116 C121 165 175 206 247 218 C247 218 366 238 366 238 L366 238 Z " />
<glyph glyph-name="Cacute" unicode="&#x106;" horiz-adv-x="730" d="M476 691 C476 691 609 820 609 820 C640 850 660 871 660 875 C662 881 644 895 635 895 C633 895 614 873 587 840 C587 840 471 695 471 695 C471 695 476 691 476 691 L476 691 Z M755 521 C755 521 764 571 764 571 C736 627 638 665 519 665 C316 665 158 531 122 330 C87 129 198 -5 401 -5 C520 -5 632 33 679 89 C679 89 688 139 688 139 C688 139 675 139 675 139 C670 133 663 125 658 119 C616 68 542 28 468 17 C447 14 426 13 404 13 C249 13 168 140 201 330 C235 520 361 647 516 647 C548 647 578 644 605 639 C605 639 605 639 605 639 C660 629 710 590 733 541 C736 535 739 527 742 521 C742 521 755 521 755 521 L755 521 Z " />
<glyph glyph-name="cacute" unicode="&#x107;" horiz-adv-x="489" d="M319 531 C319 531 452 660 452 660 C482 690 502 711 503 715 C504 721 487 735 478 735 C476 735 457 713 430 680 C430 680 314 535 314 535 C314 535 319 531 319 531 L319 531 Z M452 121 C452 121 446 124 446 124 C407 65 345 25 290 25 C185 25 131 117 155 254 C180 396 271 491 384 491 C432 491 461 456 456 404 C455 389 463 379 477 379 C490 379 501 388 503 401 C508 463 464 505 392 505 C244 505 127 397 99 235 C73 91 131 -5 243 -5 C319 -5 403 45 452 121 L452 121 Z " />
<glyph glyph-name="Ccircumflex" unicode="&#x108;" horiz-adv-x="730" d="M755 521 C755 521 764 571 764 571 C736 627 638 665 519 665 C316 665 158 531 122 330 C87 129 198 -5 401 -5 C520 -5 632 33 679 89 C679 89 688 139 688 139 C688 139 675 139 675 139 C670 133 663 125 658 119 C616 68 542 28 468 17 C447 14 426 13 404 13 C249 13 168 140 201 330 C235 520 361 647 516 647 C548 647 578 644 605 639 C605 639 605 639 605 639 C660 629 710 590 733 541 C736 535 739 527 742 521 C742 521 755 521 755 521 L755 521 Z M552 852 C552 852 637 693 637 693 C637 693 643 698 643 698 C643 698 575 891 575 891 C573 895 569 905 561 905 C553 905 546 895 543 891 C543 891 406 698 406 698 C406 698 411 693 411 693 C411 693 552 852 552 852 L552 852 Z " />
<glyph glyph-name="Cdotaccent" unicode="&#x10a;" horiz-adv-x="730" d="M530 730 C549 730 563 742 566 761 C569 779 559 791 541 791 C523 791 508 779 505 761 C502 742 512 730 530 730 L530 730 Z M755 521 C755 521 764 571 764 571 C736 627 638 665 519 665 C316 665 158 531 122 330 C87 129 198 -5 401 -5 C520 -5 632 33 679 89 C679 89 688 139 688 139 C688 139 675 139 675 139 C670 133 663 125 658 119 C616 68 542 28 468 17 C447 14 426 13 404 13 C249 13 168 140 201 330 C235 520 361 647 516 647 C548 647 578 644 605 639 C605 639 605 639 605 639 C660 629 710 590 733 541 C736 535 739 527 742 521 C742 521 755 521 755 521 L755 521 Z " />
<glyph glyph-name="cdotaccent" unicode="&#x10b;" horiz-adv-x="489" d="M403 570 C421 570 436 582 439 601 C442 619 432 631 414 631 C396 631 381 619 378 601 C375 582 385 570 403 570 L403 570 Z M452 121 C452 121 446 124 446 124 C407 65 345 25 290 25 C185 25 131 117 155 254 C180 396 271 491 384 491 C432 491 461 456 456 404 C455 389 463 379 477 379 C490 379 501 388 503 401 C508 463 464 505 392 505 C244 505 127 397 99 235 C73 91 131 -5 243 -5 C319 -5 403 45 452 121 L452 121 Z " />
<glyph glyph-name="Ccaron" unicode="&#x10c;" horiz-adv-x="730" d="M755 521 C755 521 764 571 764 571 C736 627 638 665 519 665 C316 665 158 531 122 330 C87 129 198 -5 401 -5 C520 -5 632 33 679 89 C679 89 688 139 688 139 C688 139 675 139 675 139 C670 133 663 125 658 119 C616 68 542 28 468 17 C447 14 426 13 404 13 C249 13 168 140 201 330 C235 520 361 647 516 647 C548 647 578 644 605 639 C605 639 605 639 605 639 C660 629 710 590 733 541 C736 535 739 527 742 521 C742 521 755 521 755 521 L755 521 Z M537 768 C537 768 678 927 678 927 C678 927 682 922 682 922 C682 922 546 729 546 729 C543 725 535 715 528 715 C520 715 516 725 514 729 C514 729 446 922 446 922 C446 922 452 927 452 927 C452 927 537 768 537 768 L537 768 Z " />
<glyph glyph-name="ccaron" unicode="&#x10d;" horiz-adv-x="489" d="M452 121 C452 121 446 124 446 124 C407 65 345 25 290 25 C185 25 131 117 155 254 C180 396 271 491 384 491 C432 491 461 456 456 404 C455 389 463 379 477 379 C490 379 501 388 503 401 C508 463 464 505 392 505 C244 505 127 397 99 235 C73 91 131 -5 243 -5 C319 -5 403 45 452 121 L452 121 Z M410 608 C410 608 551 767 551 767 C551 767 555 762 555 762 C555 762 419 569 419 569 C416 565 408 555 401 555 C393 555 389 565 387 569 C387 569 319 762 319 762 C319 762 325 767 325 767 C325 767 410 608 410 608 L410 608 Z " />
<glyph glyph-name="Dcaron" unicode="&#x10e;" horiz-adv-x="659" d="M168 645 C168 645 171 645 171 645 C183 645 187 622 181 587 C181 587 92 80 92 80 C92 80 92 80 92 80 C85 41 72 15 60 15 C60 15 57 15 57 15 C57 15 56 12 55 8 C55 3 54 0 54 0 C54 0 78 0 78 0 C78 0 114 0 114 0 C114 0 150 0 150 0 C150 0 302 0 302 0 C483 0 626 132 661 330 C696 528 584 660 380 660 C380 660 266 660 266 660 C266 660 264 646 264 646 C264 646 378 646 378 646 C538 646 623 520 589 330 C556 140 442 14 305 14 C305 14 152 14 152 14 C152 14 266 660 266 660 C266 660 230 660 230 660 C230 660 194 660 194 660 C194 660 170 660 170 660 C169 657 168 646 168 645 L168 645 Z M440 768 C440 768 581 927 581 927 C581 927 585 922 585 922 C585 922 449 729 449 729 C446 725 438 715 430 715 C423 715 419 725 417 729 C417 729 349 922 349 922 C349 922 355 927 355 927 C355 927 440 768 440 768 L440 768 Z " />
<glyph glyph-name="dcaron" unicode="&#x10f;" horiz-adv-x="609" d="M514 123 C514 123 513 123 513 123 C513 123 600 610 600 610 C600 610 600 610 600 610 C600 610 607 653 607 653 C607 653 617 707 617 707 C617 707 617 707 617 707 C617 707 619 720 619 720 C619 720 609 720 609 720 C609 720 542 700 542 700 C542 700 542 699 542 699 C541 694 540 691 540 691 C556 669 558 654 547 597 C547 597 548 597 548 597 C548 597 517 423 517 423 C497 473 445 505 370 505 C239 505 131 393 101 225 C77 87 141 -5 261 -5 C343 -5 417 27 455 74 C455 74 444 13 444 13 C444 13 444 13 444 13 C444 13 442 0 442 0 C442 0 452 0 452 0 C452 0 519 20 519 20 C520 20 520 20 520 21 C521 26 521 29 521 29 C505 51 503 66 514 123 C514 123 514 123 514 123 L514 123 Z M718 635 C748 688 770 736 771 742 C772 751 751 754 742 753 C731 754 705 692 688 647 C688 647 626 484 626 484 C626 484 632 482 632 482 C632 482 718 635 718 635 L718 635 Z M457 87 C432 50 368 26 294 26 C189 26 134 113 157 244 C183 392 266 491 365 491 C448 491 502 450 511 390 C511 390 457 87 457 87 L457 87 Z " />
<glyph glyph-name="Emacron" unicode="&#x112;" horiz-adv-x="504" d="M424 316 C426 327 429 341 431 352 C433 362 435 375 436 385 C436 385 424 385 424 385 C408 369 370 361 312 361 C312 361 202 361 202 361 C202 361 255 660 255 660 C255 660 252 642 252 642 C252 642 389 642 389 642 C455 642 505 626 525 599 C525 599 536 599 536 599 C539 615 543 635 545 651 C546 654 547 658 547 660 C547 660 540 660 540 660 C540 660 467 660 467 660 C467 660 255 660 255 660 C255 660 219 660 219 660 C219 660 183 660 183 660 C183 660 159 660 159 660 C158 657 157 646 157 645 C157 645 160 645 160 645 C171 645 176 622 170 587 C170 587 81 80 81 80 C81 80 81 80 81 80 C74 41 61 15 49 15 C49 15 45 15 45 15 C46 15 43 0 43 0 C43 0 67 0 67 0 C67 0 103 0 103 0 C103 0 139 0 139 0 C139 0 355 0 355 0 C355 0 434 0 434 0 C434 0 435 0 435 0 C436 2 437 6 438 9 C444 25 451 45 456 61 C456 61 445 61 445 61 C445 61 436 54 436 54 C407 33 346 18 286 18 C286 18 142 18 142 18 C142 18 199 343 199 343 C199 343 309 343 309 343 C360 343 400 334 409 320 C409 320 412 316 412 316 C412 316 424 316 424 316 L424 316 Z M231 770 C231 770 531 770 531 770 C531 770 536 798 536 798 C536 798 236 798 236 798 C236 798 231 770 231 770 L231 770 Z " />
<glyph glyph-name="emacron" unicode="&#x113;" horiz-adv-x="495" d="M228 610 C228 610 528 610 528 610 C528 610 533 638 533 638 C533 638 233 638 233 638 C233 638 228 610 228 610 L228 610 Z M459 121 C459 121 453 124 453 124 C414 65 351 25 294 25 C186 25 131 117 155 254 C159 279 165 302 173 324 C173 324 449 324 449 324 C449 324 496 324 496 324 C515 433 461 505 360 505 C232 505 127 397 99 235 C73 91 132 -5 247 -5 C325 -5 410 45 459 121 L459 121 Z M452 342 C452 342 176 333 176 333 C213 430 279 491 355 491 C429 491 470 441 457 366 C454 352 443 342 429 342 C429 342 452 342 452 342 C452 342 452 342 452 342 C452 342 452 342 452 342 L452 342 Z " />
<glyph glyph-name="Ebreve" unicode="&#x114;" horiz-adv-x="504" d="M424 316 C426 327 429 341 431 352 C433 362 435 375 436 385 C436 385 424 385 424 385 C408 369 370 361 312 361 C312 361 202 361 202 361 C202 361 255 660 255 660 C255 660 252 642 252 642 C252 642 389 642 389 642 C455 642 505 626 525 599 C525 599 536 599 536 599 C539 615 543 635 545 651 C546 654 547 658 547 660 C547 660 540 660 540 660 C540 660 467 660 467 660 C467 660 255 660 255 660 C255 660 219 660 219 660 C219 660 183 660 183 660 C183 660 159 660 159 660 C158 657 157 646 157 645 C157 645 160 645 160 645 C171 645 176 622 170 587 C170 587 81 80 81 80 C81 80 81 80 81 80 C74 41 61 15 49 15 C49 15 45 15 45 15 C46 15 43 0 43 0 C43 0 67 0 67 0 C67 0 103 0 103 0 C103 0 139 0 139 0 C139 0 355 0 355 0 C355 0 434 0 434 0 C434 0 435 0 435 0 C436 2 437 6 438 9 C444 25 451 45 456 61 C456 61 445 61 445 61 C445 61 436 54 436 54 C407 33 346 18 286 18 C286 18 142 18 142 18 C142 18 199 343 199 343 C199 343 309 343 309 343 C360 343 400 334 409 320 C409 320 412 316 412 316 C412 316 424 316 424 316 L424 316 Z M284 872 C283 809 322 768 381 768 C439 768 492 809 514 872 C514 872 506 873 506 873 C490 830 443 801 386 801 C330 801 292 830 293 873 C293 873 284 872 284 872 L284 872 Z " />
<glyph glyph-name="ebreve" unicode="&#x115;" horiz-adv-x="495" d="M281 712 C281 649 320 608 378 608 C436 608 490 649 512 712 C512 712 503 713 503 713 C488 670 440 641 384 641 C328 641 290 670 290 713 C290 713 281 712 281 712 L281 712 Z M459 121 C459 121 453 124 453 124 C414 65 351 25 294 25 C186 25 131 117 155 254 C159 279 165 302 173 324 C173 324 449 324 449 324 C449 324 496 324 496 324 C515 433 461 505 360 505 C232 505 127 397 99 235 C73 91 132 -5 247 -5 C325 -5 410 45 459 121 L459 121 Z M452 342 C452 342 176 333 176 333 C213 430 279 491 355 491 C429 491 470 441 457 366 C454 352 443 342 429 342 C429 342 452 342 452 342 C452 342 452 342 452 342 C452 342 452 342 452 342 L452 342 Z " />
<glyph glyph-name="Edotaccent" unicode="&#x116;" horiz-adv-x="504" d="M424 316 C426 327 429 341 431 352 C433 362 435 375 436 385 C436 385 424 385 424 385 C408 369 370 361 312 361 C312 361 202 361 202 361 C202 361 255 660 255 660 C255 660 252 642 252 642 C252 642 389 642 389 642 C455 642 505 626 525 599 C525 599 536 599 536 599 C539 615 543 635 545 651 C546 654 547 658 547 660 C547 660 540 660 540 660 C540 660 467 660 467 660 C467 660 255 660 255 660 C255 660 219 660 219 660 C219 660 183 660 183 660 C183 660 159 660 159 660 C158 657 157 646 157 645 C157 645 160 645 160 645 C171 645 176 622 170 587 C170 587 81 80 81 80 C81 80 81 80 81 80 C74 41 61 15 49 15 C49 15 45 15 45 15 C46 15 43 0 43 0 C43 0 67 0 67 0 C67 0 103 0 103 0 C103 0 139 0 139 0 C139 0 355 0 355 0 C355 0 434 0 434 0 C434 0 435 0 435 0 C436 2 437 6 438 9 C444 25 451 45 456 61 C456 61 445 61 445 61 C445 61 436 54 436 54 C407 33 346 18 286 18 C286 18 142 18 142 18 C142 18 199 343 199 343 C199 343 309 343 309 343 C360 343 400 334 409 320 C409 320 412 316 412 316 C412 316 424 316 424 316 L424 316 Z M374 730 C392 730 407 742 410 761 C413 779 403 791 385 791 C367 791 352 779 349 761 C346 742 356 730 374 730 L374 730 Z " />
<glyph glyph-name="edotaccent" unicode="&#x117;" horiz-adv-x="495" d="M371 570 C389 570 404 582 407 601 C410 619 400 631 382 631 C364 631 349 619 346 601 C343 582 353 570 371 570 L371 570 Z M459 121 C459 121 453 124 453 124 C414 65 351 25 294 25 C186 25 131 117 155 254 C159 279 165 302 173 324 C173 324 449 324 449 324 C449 324 496 324 496 324 C515 433 461 505 360 505 C232 505 127 397 99 235 C73 91 132 -5 247 -5 C325 -5 410 45 459 121 L459 121 Z M452 342 C452 342 176 333 176 333 C213 430 279 491 355 491 C429 491 470 441 457 366 C454 352 443 342 429 342 C429 342 452 342 452 342 C452 342 452 342 452 342 C452 342 452 342 452 342 L452 342 Z " />
<glyph glyph-name="Eogonek" unicode="&#x118;" horiz-adv-x="504" d="M424 316 C426 327 429 341 431 352 C433 362 435 375 436 385 C436 385 424 385 424 385 C408 369 370 361 312 361 C312 361 202 361 202 361 C202 361 255 660 255 660 C255 660 252 642 252 642 C252 642 389 642 389 642 C455 642 505 626 525 599 C525 599 536 599 536 599 C539 615 543 635 545 651 C546 654 547 658 547 660 C547 660 540 660 540 660 C540 660 467 660 467 660 C467 660 255 660 255 660 C255 660 219 660 219 660 C219 660 183 660 183 660 C183 660 159 660 159 660 C158 657 157 646 157 645 C157 645 160 645 160 645 C171 645 176 622 170 587 C170 587 81 80 81 80 C81 80 81 80 81 80 C74 41 61 15 49 15 C49 15 45 15 45 15 C46 15 43 0 43 0 C43 0 67 0 67 0 C67 0 103 0 103 0 C103 0 139 0 139 0 C139 0 355 0 355 0 C355 0 412 0 412 0 C359 -29 274 -97 263 -156 C255 -202 291 -233 353 -233 C384 -233 419 -220 439 -200 C439 -200 436 -195 436 -195 C422 -210 394 -219 366 -219 C316 -219 287 -192 295 -151 C306 -85 398 -12 434 0 C434 0 435 0 435 0 C436 2 437 6 438 9 C444 25 451 45 456 61 C456 61 445 61 445 61 C445 61 436 54 436 54 C407 33 346 18 286 18 C286 18 142 18 142 18 C142 18 199 343 199 343 C199 343 309 343 309 343 C360 343 400 334 409 320 C409 320 412 316 412 316 C412 316 424 316 424 316 L424 316 Z " />
<glyph glyph-name="eogonek" unicode="&#x119;" horiz-adv-x="495" d="M452 342 C452 342 176 333 176 333 C213 430 279 491 355 491 C429 491 470 441 457 366 C454 352 443 342 429 342 C429 342 452 342 452 342 C452 342 452 342 452 342 C452 342 452 342 452 342 L452 342 Z M449 324 C449 324 496 324 496 324 C515 433 461 505 360 505 C232 505 127 397 99 235 C73 91 132 -5 247 -5 C262 -5 277 -3 292 0 C241 -34 180 -92 171 -143 C161 -197 196 -233 259 -233 C290 -233 324 -220 345 -200 C345 -200 342 -195 342 -195 C328 -210 300 -219 272 -219 C222 -219 194 -187 203 -138 C214 -75 292 -6 333 14 C335 15 338 16 340 17 C341 17 342 18 343 18 C343 18 343 18 343 18 C388 40 430 76 459 121 C459 121 453 124 453 124 C414 65 351 25 294 25 C186 25 131 117 155 254 C159 279 165 302 173 324 C173 324 449 324 449 324 L449 324 Z " />
<glyph glyph-name="Ecaron" unicode="&#x11a;" horiz-adv-x="504" d="M424 316 C426 327 429 341 431 352 C433 362 435 375 436 385 C436 385 424 385 424 385 C408 369 370 361 312 361 C312 361 202 361 202 361 C202 361 255 660 255 660 C255 660 252 642 252 642 C252 642 389 642 389 642 C455 642 505 626 525 599 C525 599 536 599 536 599 C539 615 543 635 545 651 C546 654 547 658 547 660 C547 660 540 660 540 660 C540 660 467 660 467 660 C467 660 255 660 255 660 C255 660 219 660 219 660 C219 660 183 660 183 660 C183 660 159 660 159 660 C158 657 157 646 157 645 C157 645 160 645 160 645 C171 645 176 622 170 587 C170 587 81 80 81 80 C81 80 81 80 81 80 C74 41 61 15 49 15 C49 15 45 15 45 15 C46 15 43 0 43 0 C43 0 67 0 67 0 C67 0 103 0 103 0 C103 0 139 0 139 0 C139 0 355 0 355 0 C355 0 434 0 434 0 C434 0 435 0 435 0 C436 2 437 6 438 9 C444 25 451 45 456 61 C456 61 445 61 445 61 C445 61 436 54 436 54 C407 33 346 18 286 18 C286 18 142 18 142 18 C142 18 199 343 199 343 C199 343 309 343 309 343 C360 343 400 334 409 320 C409 320 412 316 412 316 C412 316 424 316 424 316 L424 316 Z M380 767 C380 767 522 927 522 927 C522 927 526 922 526 922 C526 922 390 729 390 729 C387 725 379 715 371 715 C364 715 359 725 358 729 C358 729 290 922 290 922 C290 922 296 927 296 927 C296 927 380 767 380 767 L380 767 Z " />
<glyph glyph-name="ecaron" unicode="&#x11b;" horiz-adv-x="495" d="M459 121 C459 121 453 124 453 124 C414 65 351 25 294 25 C186 25 131 117 155 254 C159 279 165 302 173 324 C173 324 449 324 449 324 C449 324 496 324 496 324 C515 433 461 505 360 505 C232 505 127 397 99 235 C73 91 132 -5 247 -5 C325 -5 410 45 459 121 L459 121 Z M378 608 C378 608 519 767 519 767 C519 767 523 762 523 762 C523 762 387 569 387 569 C384 565 376 555 369 555 C361 555 357 565 355 569 C355 569 287 762 287 762 C287 762 293 767 293 767 C293 767 378 608 378 608 L378 608 Z M452 342 C452 342 176 333 176 333 C213 430 279 491 355 491 C429 491 470 441 457 366 C454 352 443 342 429 342 C429 342 452 342 452 342 C452 342 452 342 452 342 C452 342 452 342 452 342 L452 342 Z " />
<glyph glyph-name="Gcircumflex" unicode="&#x11c;" horiz-adv-x="769" d="M725 310 C725 310 702 310 702 310 C702 310 669 310 669 310 C669 310 637 310 637 310 C637 310 613 310 613 310 C613 310 612 307 612 303 C611 298 610 295 610 295 C610 295 614 295 614 295 C625 295 628 273 624 239 C606 137 594 67 590 47 C529 26 457 13 393 13 C244 13 168 140 201 330 C235 520 356 647 504 647 C534 647 562 644 589 639 C641 628 691 590 713 541 C716 535 719 527 722 521 C722 521 735 521 735 521 C735 521 744 571 744 571 C716 627 622 665 508 665 C312 665 158 531 122 330 C87 129 194 -5 389 -5 C480 -5 587 19 657 56 C657 56 670 132 691 249 C699 277 709 295 719 295 C719 295 723 295 723 295 C723 296 725 307 725 310 L725 310 Z M541 853 C541 853 626 693 626 693 C626 693 631 698 631 698 C631 698 563 891 563 891 C562 895 558 905 550 905 C542 905 535 895 532 891 C532 891 395 698 395 698 C395 698 400 693 400 693 C400 693 541 853 541 853 L541 853 Z " />
<glyph glyph-name="Gbreve" unicode="&#x11e;" horiz-adv-x="769" d="M429 872 C429 809 467 768 526 768 C584 768 637 809 659 872 C659 872 651 873 651 873 C635 830 588 801 532 801 C475 801 437 830 438 873 C438 873 429 872 429 872 L429 872 Z M725 310 C725 310 702 310 702 310 C702 310 669 310 669 310 C669 310 637 310 637 310 C637 310 613 310 613 310 C613 310 612 307 612 303 C611 298 610 295 610 295 C610 295 614 295 614 295 C625 295 628 273 624 239 C606 137 594 67 590 47 C529 26 457 13 393 13 C244 13 168 140 201 330 C235 520 356 647 504 647 C534 647 562 644 589 639 C641 628 691 590 713 541 C716 535 719 527 722 521 C722 521 735 521 735 521 C735 521 744 571 744 571 C716 627 622 665 508 665 C312 665 158 531 122 330 C87 129 194 -5 389 -5 C480 -5 587 19 657 56 C657 56 670 132 691 249 C699 277 709 295 719 295 C719 295 723 295 723 295 C723 296 725 307 725 310 L725 310 Z " />
<glyph glyph-name="gbreve" unicode="&#x11f;" horiz-adv-x="480" d="M263 712 C263 649 302 608 360 608 C418 608 472 649 494 712 C494 712 485 713 485 713 C470 670 422 641 366 641 C310 641 272 670 272 713 C272 713 263 712 263 712 L263 712 Z M562 500 C562 500 423 490 423 490 C423 490 423 490 423 490 C400 500 373 505 342 505 C236 505 154 443 138 350 C125 277 159 222 227 203 C146 201 88 165 78 112 C70 61 104 27 167 21 C84 -6 24 -57 14 -111 C1 -187 51 -238 140 -238 C303 -238 425 -162 445 -49 C458 22 395 70 288 70 C288 70 210 67 210 67 C146 63 108 89 115 131 C122 170 169 195 232 195 C232 195 287 195 287 195 C394 195 475 257 491 350 C500 401 486 443 454 470 C454 470 557 472 557 472 C557 472 562 500 562 500 L562 500 Z M185 350 C200 436 262 494 340 494 C418 494 460 436 444 350 C429 264 367 206 289 206 C211 206 170 264 185 350 L185 350 Z M184 20 C191 19 197 20 204 20 C204 20 266 22 266 22 C360 22 415 -17 405 -74 C389 -165 286 -225 148 -225 C75 -225 36 -177 48 -105 C58 -51 112 -2 184 20 C184 20 184 20 184 20 L184 20 Z " />
<glyph glyph-name="Gdotaccent" unicode="&#x120;" horiz-adv-x="769" d="M519 730 C537 730 552 742 555 761 C558 779 548 791 530 791 C512 791 497 779 494 761 C491 742 501 730 519 730 L519 730 Z M725 310 C725 310 702 310 702 310 C702 310 669 310 669 310 C669 310 637 310 637 310 C637 310 613 310 613 310 C613 310 612 307 612 303 C611 298 610 295 610 295 C610 295 614 295 614 295 C625 295 628 273 624 239 C606 137 594 67 590 47 C529 26 457 13 393 13 C244 13 168 140 201 330 C235 520 356 647 504 647 C534 647 562 644 589 639 C641 628 691 590 713 541 C716 535 719 527 722 521 C722 521 735 521 735 521 C735 521 744 571 744 571 C716 627 622 665 508 665 C312 665 158 531 122 330 C87 129 194 -5 389 -5 C480 -5 587 19 657 56 C657 56 670 132 691 249 C699 277 709 295 719 295 C719 295 723 295 723 295 C723 296 725 307 725 310 L725 310 Z " />
<glyph glyph-name="gdotaccent" unicode="&#x121;" horiz-adv-x="480" d="M353 570 C371 570 386 582 389 601 C392 619 382 631 364 631 C346 631 331 619 328 601 C325 582 335 570 353 570 L353 570 Z M562 500 C562 500 423 490 423 490 C423 490 423 490 423 490 C400 500 373 505 342 505 C236 505 154 443 138 350 C125 277 159 222 227 203 C146 201 88 165 78 112 C70 61 104 27 167 21 C84 -6 24 -57 14 -111 C1 -187 51 -238 140 -238 C303 -238 425 -162 445 -49 C458 22 395 70 288 70 C288 70 210 67 210 67 C146 63 108 89 115 131 C122 170 169 195 232 195 C232 195 287 195 287 195 C394 195 475 257 491 350 C500 401 486 443 454 470 C454 470 557 472 557 472 C557 472 562 500 562 500 L562 500 Z M185 350 C200 436 262 494 340 494 C418 494 460 436 444 350 C429 264 367 206 289 206 C211 206 170 264 185 350 L185 350 Z M184 20 C191 19 197 20 204 20 C204 20 266 22 266 22 C360 22 415 -17 405 -74 C389 -165 286 -225 148 -225 C75 -225 36 -177 48 -105 C58 -51 112 -2 184 20 C184 20 184 20 184 20 L184 20 Z " />
<glyph glyph-name="Hcircumflex" unicode="&#x124;" horiz-adv-x="680" d="M628 645 C628 645 631 645 631 645 C643 645 647 622 641 587 C641 587 601 356 601 356 C601 356 202 356 202 356 C202 356 241 580 241 580 C241 580 241 580 241 580 C248 619 260 645 273 645 C273 645 276 645 276 645 C276 645 277 648 278 653 C278 657 279 660 279 660 C279 660 255 660 255 660 C255 660 219 660 219 660 C219 660 183 660 183 660 C183 660 159 660 159 660 C158 657 157 646 157 645 C157 645 160 645 160 645 C171 645 176 622 170 587 C170 587 81 80 81 80 C81 80 81 80 81 80 C74 41 61 15 49 15 C49 15 45 15 45 15 C46 15 43 0 43 0 C43 0 67 0 67 0 C67 0 103 0 103 0 C103 0 139 0 139 0 C139 0 162 0 162 0 C162 0 163 3 164 8 C164 12 165 15 165 15 C165 15 162 15 162 15 C150 15 146 38 152 73 C152 73 198 338 198 338 C198 338 597 338 597 338 C597 338 552 80 552 80 C552 80 552 80 552 80 C545 41 532 15 520 15 C520 15 516 15 516 15 C517 15 514 0 514 0 C514 0 538 0 538 0 C538 0 574 0 574 0 C574 0 610 0 610 0 C610 0 634 0 634 0 C633 0 636 14 636 15 C636 15 633 15 633 15 C621 15 617 38 623 73 C623 73 712 580 712 580 C712 580 712 580 712 580 C719 619 731 645 744 645 C744 645 747 645 747 645 C747 645 748 648 749 653 C749 657 750 660 750 660 C750 660 726 660 726 660 C726 660 690 660 690 660 C690 660 654 660 654 660 C654 660 630 660 630 660 C629 657 628 646 628 645 C628 645 628 645 628 645 L628 645 Z M488 852 C488 852 573 693 573 693 C573 693 579 698 579 698 C579 698 511 891 511 891 C510 895 506 905 498 905 C490 905 482 895 479 891 C479 891 343 698 343 698 C343 698 347 693 347 693 C347 693 488 852 488 852 L488 852 Z " />
<glyph glyph-name="Itilde" unicode="&#x128;" horiz-adv-x="205" d="M90 755 C97 795 120 822 147 822 C207 822 255 759 316 759 C356 759 389 796 399 852 C399 852 391 852 391 852 C384 816 361 792 332 792 C272 792 224 855 163 855 C125 855 92 815 81 755 C81 755 90 755 90 755 L90 755 Z M275 660 C275 660 251 660 251 660 C251 660 215 660 215 660 C215 660 179 660 179 660 C179 660 155 660 155 660 C155 659 153 645 152 645 C152 645 156 645 156 645 C167 645 172 622 166 587 C166 587 77 80 77 80 C77 80 77 80 77 80 C70 41 57 15 45 15 C45 15 41 15 41 15 C42 15 39 0 39 0 C39 0 63 0 63 0 C63 0 99 0 99 0 C99 0 135 0 135 0 C135 0 158 0 158 0 C158 0 159 3 160 8 C160 12 161 15 161 15 C161 15 157 15 157 15 C147 15 142 34 146 65 C146 65 237 580 237 580 C237 580 237 580 237 580 C243 619 256 645 269 645 C269 645 272 645 272 645 C272 646 271 648 275 660 C275 660 275 660 275 660 L275 660 Z " />
<glyph glyph-name="itilde" unicode="&#x129;" horiz-adv-x="201" d="M64 595 C71 635 94 662 121 662 C181 662 229 599 290 599 C330 599 363 636 373 692 C373 692 365 692 365 692 C359 656 335 632 306 632 C246 632 198 695 137 695 C99 695 66 655 55 595 C55 595 64 595 64 595 L64 595 Z M126 0 C126 0 150 0 150 0 C150 1 152 12 152 15 C152 15 147 15 147 15 C136 15 129 13 126 1 C126 1 200 420 200 420 C213 491 215 505 215 505 C215 505 212 505 212 505 C212 505 141 484 141 484 C141 484 141 483 140 480 C140 477 140 475 139 475 C139 475 150 453 150 453 C152 447 153 438 147 406 C147 406 148 406 148 406 C148 406 76 0 76 0 C78 13 71 15 59 15 C59 15 55 15 55 15 C55 13 52 6 52 0 C52 0 76 0 76 0 C76 0 126 0 126 0 L126 0 Z " />
<glyph glyph-name="Imacron" unicode="&#x12a;" horiz-adv-x="205" d="M84 770 C84 770 384 770 384 770 C384 770 389 798 389 798 C389 798 89 798 89 798 C89 798 84 770 84 770 L84 770 Z M275 660 C275 660 251 660 251 660 C251 660 215 660 215 660 C215 660 179 660 179 660 C179 660 155 660 155 660 C155 659 153 645 152 645 C152 645 156 645 156 645 C167 645 172 622 166 587 C166 587 77 80 77 80 C77 80 77 80 77 80 C70 41 57 15 45 15 C45 15 41 15 41 15 C42 15 39 0 39 0 C39 0 63 0 63 0 C63 0 99 0 99 0 C99 0 135 0 135 0 C135 0 158 0 158 0 C158 0 159 3 160 8 C160 12 161 15 161 15 C161 15 157 15 157 15 C147 15 142 34 146 65 C146 65 237 580 237 580 C237 580 237 580 237 580 C243 619 256 645 269 645 C269 645 272 645 272 645 C272 646 271 648 275 660 C275 660 275 660 275 660 L275 660 Z " />
<glyph glyph-name="imacron" unicode="&#x12b;" horiz-adv-x="201" d="M58 610 C58 610 358 610 358 610 C358 610 363 638 363 638 C363 638 63 638 63 638 C63 638 58 610 58 610 L58 610 Z M126 0 C126 0 150 0 150 0 C150 1 152 12 152 15 C152 15 147 15 147 15 C136 15 129 13 126 1 C126 1 200 420 200 420 C213 491 215 505 215 505 C215 505 212 505 212 505 C212 505 141 484 141 484 C141 484 141 483 140 480 C140 477 140 475 139 475 C139 475 150 453 150 453 C152 447 153 438 147 406 C147 406 148 406 148 406 C148 406 76 0 76 0 C78 13 71 15 59 15 C59 15 55 15 55 15 C55 13 52 6 52 0 C52 0 76 0 76 0 C76 0 126 0 126 0 L126 0 Z " />
<glyph glyph-name="Ibreve" unicode="&#x12c;" horiz-adv-x="205" d="M137 872 C137 809 176 768 234 768 C292 768 346 809 368 872 C368 872 359 873 359 873 C344 830 296 801 240 801 C184 801 146 830 146 873 C146 873 137 872 137 872 L137 872 Z M275 660 C275 660 251 660 251 660 C251 660 215 660 215 660 C215 660 179 660 179 660 C179 660 155 660 155 660 C155 659 153 645 152 645 C152 645 156 645 156 645 C167 645 172 622 166 587 C166 587 77 80 77 80 C77 80 77 80 77 80 C70 41 57 15 45 15 C45 15 41 15 41 15 C42 15 39 0 39 0 C39 0 63 0 63 0 C63 0 99 0 99 0 C99 0 135 0 135 0 C135 0 158 0 158 0 C158 0 159 3 160 8 C160 12 161 15 161 15 C161 15 157 15 157 15 C147 15 142 34 146 65 C146 65 237 580 237 580 C237 580 237 580 237 580 C243 619 256 645 269 645 C269 645 272 645 272 645 C272 646 271 648 275 660 C275 660 275 660 275 660 L275 660 Z " />
<glyph glyph-name="ibreve" unicode="&#x12d;" horiz-adv-x="201" d="M111 712 C111 649 150 608 208 608 C266 608 320 649 342 712 C342 712 333 713 333 713 C318 670 270 641 214 641 C158 641 120 670 120 713 C120 713 111 712 111 712 L111 712 Z M126 0 C126 0 150 0 150 0 C150 1 152 12 152 15 C152 15 147 15 147 15 C136 15 129 13 126 1 C126 1 200 420 200 420 C213 491 215 505 215 505 C215 505 212 505 212 505 C212 505 141 484 141 484 C141 484 141 483 140 480 C140 477 140 475 139 475 C139 475 150 453 150 453 C152 447 153 438 147 406 C147 406 148 406 148 406 C148 406 76 0 76 0 C78 13 71 15 59 15 C59 15 55 15 55 15 C55 13 52 6 52 0 C52 0 76 0 76 0 C76 0 126 0 126 0 L126 0 Z " />
<glyph glyph-name="Idotaccent" unicode="&#x130;" horiz-adv-x="205" d="M227 730 C246 730 260 742 263 761 C266 779 256 791 238 791 C220 791 205 779 202 761 C199 742 209 730 227 730 L227 730 Z M275 660 C275 660 251 660 251 660 C251 660 215 660 215 660 C215 660 179 660 179 660 C179 660 155 660 155 660 C155 659 153 645 152 645 C152 645 156 645 156 645 C167 645 172 622 166 587 C166 587 77 80 77 80 C77 80 77 80 77 80 C70 41 57 15 45 15 C45 15 41 15 41 15 C42 15 39 0 39 0 C39 0 63 0 63 0 C63 0 99 0 99 0 C99 0 135 0 135 0 C135 0 158 0 158 0 C158 0 159 3 160 8 C160 12 161 15 161 15 C161 15 157 15 157 15 C147 15 142 34 146 65 C146 65 237 580 237 580 C237 580 237 580 237 580 C243 619 256 645 269 645 C269 645 272 645 272 645 C272 646 271 648 275 660 C275 660 275 660 275 660 L275 660 Z " />
<glyph glyph-name="dotlessi" unicode="&#x131;" horiz-adv-x="201" d="M126 0 C126 0 150 0 150 0 C150 1 152 12 152 15 C152 15 147 15 147 15 C136 15 129 13 126 1 C126 1 200 420 200 420 C213 491 215 505 215 505 C215 505 212 505 212 505 C212 505 141 484 141 484 C141 484 141 483 140 480 C140 477 140 475 139 475 C139 475 150 453 150 453 C152 447 153 438 147 406 C147 406 148 406 148 406 C148 406 76 0 76 0 C78 13 71 15 59 15 C59 15 55 15 55 15 C55 13 52 6 52 0 C52 0 76 0 76 0 C76 0 126 0 126 0 L126 0 Z " />
<glyph glyph-name="Jcircumflex" unicode="&#x134;" horiz-adv-x="334" d="M404 660 C404 660 380 660 380 660 C380 660 344 660 344 660 C344 660 308 660 308 660 C308 660 285 660 285 660 C284 660 282 645 282 645 C282 645 285 645 285 645 C297 645 301 623 295 588 C295 588 227 200 227 200 C202 57 172 1 120 1 C88 1 65 21 63 50 C62 63 53 72 42 72 C25 72 14 63 16 50 C18 14 54 -10 104 -10 C218 -10 276 66 310 261 C310 261 366 580 366 580 C366 580 366 580 366 580 C373 619 386 645 398 645 C398 645 402 645 402 645 C402 646 404 657 404 660 L404 660 Z M378 852 C378 852 463 693 463 693 C463 693 469 698 469 698 C469 698 401 891 401 891 C399 895 395 905 388 905 C379 905 372 895 369 891 C369 891 233 698 233 698 C233 698 237 693 237 693 C237 693 378 852 378 852 L378 852 Z " />
<glyph glyph-name="Lacute" unicode="&#x139;" horiz-adv-x="504" d="M200 691 C200 691 333 820 333 820 C363 850 384 871 384 875 C385 881 368 895 359 895 C357 895 338 873 311 840 C311 840 195 695 195 695 C195 695 200 691 200 691 L200 691 Z M439 66 C439 66 431 59 431 59 C404 34 350 18 296 18 C296 18 142 18 142 18 C142 18 241 580 241 580 C241 580 241 580 241 580 C248 619 260 645 273 645 C273 645 276 645 276 645 C276 645 277 648 278 653 C278 657 279 660 279 660 C279 660 255 660 255 660 C255 660 219 660 219 660 C219 660 183 660 183 660 C183 660 159 660 159 660 C158 657 157 646 157 645 C157 645 160 645 160 645 C171 645 176 622 170 587 C170 587 81 80 81 80 C81 80 81 80 81 80 C74 41 61 15 49 15 C49 15 45 15 45 15 C46 15 43 0 43 0 C43 0 67 0 67 0 C67 0 103 0 103 0 C103 0 139 0 139 0 C139 0 355 0 355 0 C355 0 434 0 434 0 C434 0 435 0 435 0 C436 2 437 6 438 9 C444 25 452 47 457 63 C451 64 439 66 439 66 C439 66 439 66 439 66 L439 66 Z " />
<glyph glyph-name="Lcaron" unicode="&#x13d;" horiz-adv-x="504" d="M439 66 C439 66 431 59 431 59 C404 34 350 18 296 18 C296 18 142 18 142 18 C142 18 241 580 241 580 C241 580 241 580 241 580 C248 619 260 645 273 645 C273 645 276 645 276 645 C276 645 277 648 278 653 C278 657 279 660 279 660 C279 660 255 660 255 660 C255 660 219 660 219 660 C219 660 183 660 183 660 C183 660 159 660 159 660 C158 657 157 646 157 645 C157 645 160 645 160 645 C171 645 176 622 170 587 C170 587 81 80 81 80 C81 80 81 80 81 80 C74 41 61 15 49 15 C49 15 45 15 45 15 C46 15 43 0 43 0 C43 0 67 0 67 0 C67 0 103 0 103 0 C103 0 139 0 139 0 C139 0 355 0 355 0 C355 0 434 0 434 0 C434 0 435 0 435 0 C436 2 437 6 438 9 C444 25 452 47 457 63 C451 64 439 66 439 66 C439 66 439 66 439 66 L439 66 Z M377 575 C408 628 430 676 431 682 C433 691 411 694 402 693 C391 694 365 632 348 587 C348 587 286 424 286 424 C286 424 292 422 292 422 C292 422 377 575 377 575 L377 575 Z " />
<glyph glyph-name="lcaron" unicode="&#x13e;" horiz-adv-x="201" d="M152 15 C152 15 149 15 149 15 C137 15 133 39 139 74 C139 74 233 610 233 610 C233 610 233 610 233 610 C233 610 253 720 253 720 C253 720 243 720 243 720 C243 720 175 700 175 700 C175 700 175 699 175 699 C174 695 174 691 174 691 C187 673 190 660 186 627 C186 627 90 80 90 80 C90 80 90 80 90 80 C83 41 70 15 58 15 C58 15 55 15 55 15 C55 13 52 6 52 0 C52 0 76 0 76 0 C76 0 101 0 101 0 C101 0 126 0 126 0 C126 0 150 0 150 0 C150 1 152 12 152 15 C152 15 152 15 152 15 L152 15 Z M346 605 C376 658 399 706 400 712 C401 721 380 724 370 723 C360 722 333 662 317 617 C317 617 254 454 254 454 C254 454 260 452 260 452 C260 452 346 605 346 605 L346 605 Z " />
<glyph glyph-name="Lslash" unicode="&#x141;" horiz-adv-x="504" d="M65 272 C65 272 118 290 118 290 C118 290 81 80 81 80 C81 80 81 80 81 80 C74 41 61 15 49 15 C49 15 45 15 45 15 C46 15 43 0 43 0 C43 0 67 0 67 0 C67 0 103 0 103 0 C103 0 139 0 139 0 C139 0 355 0 355 0 C355 0 434 0 434 0 C434 0 435 0 435 0 C436 2 437 6 438 9 C444 25 452 47 457 63 C451 64 439 66 439 66 C439 66 431 59 431 59 C404 34 350 18 296 18 C296 18 142 18 142 18 C142 18 195 317 195 317 C195 317 352 372 352 372 C352 372 355 388 355 388 C355 388 198 333 198 333 C198 333 241 580 241 580 C241 580 241 580 241 580 C248 619 260 645 273 645 C273 645 276 645 276 645 C276 645 277 648 278 653 C278 657 279 660 279 660 C279 660 255 660 255 660 C255 660 219 660 219 660 C219 660 183 660 183 660 C183 660 159 660 159 660 C158 657 157 646 157 645 C157 645 160 645 160 645 C171 645 176 622 170 587 C170 587 121 306 121 306 C121 306 68 288 68 288 C68 288 65 272 65 272 L65 272 Z " />
<glyph glyph-name="lslash" unicode="&#x142;" horiz-adv-x="201" d="M29 302 C29 302 136 342 136 342 C136 342 90 80 90 80 C90 80 90 80 90 80 C83 41 70 15 58 15 C58 15 55 15 55 15 C55 13 52 6 52 0 C52 0 76 0 76 0 C76 0 101 0 101 0 C101 0 126 0 126 0 C126 0 150 0 150 0 C150 1 152 12 152 15 C152 15 149 15 149 15 C137 15 133 39 139 74 C139 74 189 362 189 362 C189 362 297 402 297 402 C297 402 300 418 300 418 C300 418 192 378 192 378 C192 378 233 610 233 610 C233 610 233 610 233 610 C233 610 253 720 253 720 C253 720 243 720 243 720 C243 720 175 700 175 700 C175 700 175 699 175 699 C174 695 174 691 174 691 C187 673 190 660 186 627 C186 627 139 358 139 358 C139 358 32 318 32 318 C32 318 29 302 29 302 L29 302 Z " />
<glyph glyph-name="Nacute" unicode="&#x143;" horiz-adv-x="611" d="M400 691 C400 691 532 820 532 820 C563 850 583 871 584 875 C585 881 568 895 559 895 C556 895 537 873 511 840 C511 840 395 695 395 695 C395 695 400 691 400 691 L400 691 Z M688 660 C688 660 664 660 664 660 C664 660 653 660 653 660 C653 660 642 660 642 660 C642 660 618 660 618 660 C617 657 616 646 616 645 C616 645 619 645 619 645 C631 645 634 623 629 589 C629 589 541 87 541 87 C541 87 259 660 259 660 C259 660 210 660 210 660 C210 660 206 636 206 636 C206 636 259 660 259 660 C259 660 206 636 206 636 C206 636 210 660 210 660 C210 660 200 660 200 660 C200 660 189 660 189 660 C189 660 165 660 165 660 C165 659 163 645 162 645 C162 645 166 645 166 645 C177 645 181 621 176 586 C176 586 86 80 86 80 C86 80 86 80 86 80 C79 41 67 15 55 15 C55 15 51 15 51 15 C50 12 49 1 49 0 C49 0 72 0 72 0 C72 0 83 0 83 0 C83 0 94 0 94 0 C94 0 118 0 118 0 C118 0 121 15 120 15 C120 15 117 15 117 15 C106 15 101 38 107 73 C107 73 200 605 200 605 C200 605 495 10 495 10 C495 10 505 -11 505 -11 C505 -11 545 -11 545 -11 C545 -11 554 36 554 36 C554 36 650 580 650 580 C650 580 650 580 650 580 C657 619 669 645 681 645 C681 645 685 645 685 645 C685 645 687 660 688 660 C688 660 688 660 688 660 L688 660 Z " />
<glyph glyph-name="nacute" unicode="&#x144;" horiz-adv-x="531" d="M284 531 C284 531 417 660 417 660 C447 690 468 711 468 715 C469 721 452 735 444 735 C441 735 422 713 395 680 C395 680 280 535 280 535 C280 535 284 531 284 531 L284 531 Z M140 80 C140 80 139 80 139 80 C139 80 193 383 193 383 C227 436 300 471 379 471 C462 471 484 415 469 331 C469 331 425 80 425 80 C425 80 425 80 425 80 C418 41 406 15 393 15 C393 15 390 15 390 15 C390 15 389 12 388 8 C388 3 387 0 387 0 C387 0 411 0 411 0 C411 0 436 0 436 0 C436 0 461 0 461 0 C461 0 485 0 485 0 C485 1 488 15 487 15 C487 15 484 15 484 15 C473 15 468 38 474 74 C474 74 520 336 520 336 C538 438 515 505 424 505 C329 505 240 461 195 394 C195 394 214 500 214 500 C214 500 204 500 204 500 C204 500 136 480 136 480 C137 480 136 480 136 479 C136 475 135 471 135 471 C149 452 151 437 145 394 C145 394 86 64 86 64 C79 34 68 15 58 15 C58 15 54 15 54 15 C55 15 52 0 52 0 C52 0 75 0 75 0 C75 0 100 0 100 0 C100 0 125 0 125 0 C125 0 149 0 149 0 C149 0 150 3 151 8 C151 12 152 15 152 15 C152 15 148 15 148 15 C137 15 133 41 140 80 C140 80 140 80 140 80 L140 80 Z " />
<glyph glyph-name="Ncaron" unicode="&#x147;" horiz-adv-x="611" d="M688 660 C688 660 664 660 664 660 C664 660 653 660 653 660 C653 660 642 660 642 660 C642 660 618 660 618 660 C617 657 616 646 616 645 C616 645 619 645 619 645 C631 645 634 623 629 589 C629 589 541 87 541 87 C541 87 259 660 259 660 C259 660 210 660 210 660 C210 660 206 636 206 636 C206 636 259 660 259 660 C259 660 206 636 206 636 C206 636 210 660 210 660 C210 660 200 660 200 660 C200 660 189 660 189 660 C189 660 165 660 165 660 C165 659 163 645 162 645 C162 645 166 645 166 645 C177 645 181 621 176 586 C176 586 86 80 86 80 C86 80 86 80 86 80 C79 41 67 15 55 15 C55 15 51 15 51 15 C50 12 49 1 49 0 C49 0 72 0 72 0 C72 0 83 0 83 0 C83 0 94 0 94 0 C94 0 118 0 118 0 C118 0 121 15 120 15 C120 15 117 15 117 15 C106 15 101 38 107 73 C107 73 200 605 200 605 C200 605 495 10 495 10 C495 10 505 -11 505 -11 C505 -11 545 -11 545 -11 C545 -11 554 36 554 36 C554 36 650 580 650 580 C650 580 650 580 650 580 C657 619 669 645 681 645 C681 645 685 645 685 645 C685 645 687 660 688 660 C688 660 688 660 688 660 L688 660 Z M445 768 C445 768 586 927 586 927 C586 927 591 922 591 922 C591 922 454 729 454 729 C451 725 443 715 436 715 C428 715 424 725 423 729 C423 729 354 922 354 922 C354 922 360 927 360 927 C360 927 445 768 445 768 L445 768 Z " />
<glyph glyph-name="ncaron" unicode="&#x148;" horiz-adv-x="531" d="M140 80 C140 80 139 80 139 80 C139 80 193 383 193 383 C227 436 300 471 379 471 C462 471 484 415 469 331 C469 331 425 80 425 80 C425 80 425 80 425 80 C418 41 406 15 393 15 C393 15 390 15 390 15 C390 15 389 12 388 8 C388 3 387 0 387 0 C387 0 411 0 411 0 C411 0 436 0 436 0 C436 0 461 0 461 0 C461 0 485 0 485 0 C485 1 488 15 487 15 C487 15 484 15 484 15 C473 15 468 38 474 74 C474 74 520 336 520 336 C538 438 515 505 424 505 C329 505 240 461 195 394 C195 394 214 500 214 500 C214 500 204 500 204 500 C204 500 136 480 136 480 C137 480 136 480 136 479 C136 475 135 471 135 471 C149 452 151 437 145 394 C145 394 86 64 86 64 C79 34 68 15 58 15 C58 15 54 15 54 15 C55 15 52 0 52 0 C52 0 75 0 75 0 C75 0 100 0 100 0 C100 0 125 0 125 0 C125 0 149 0 149 0 C149 0 150 3 151 8 C151 12 152 15 152 15 C152 15 148 15 148 15 C137 15 133 41 140 80 C140 80 140 80 140 80 L140 80 Z M375 608 C375 608 516 767 516 767 C516 767 521 762 521 762 C521 762 385 569 385 569 C382 565 374 555 366 555 C359 555 354 565 353 569 C353 569 285 762 285 762 C285 762 290 767 290 767 C290 767 375 608 375 608 L375 608 Z " />
<glyph glyph-name="Omacron" unicode="&#x14c;" horiz-adv-x="772" d="M376 770 C376 770 676 770 676 770 C676 770 681 798 681 798 C681 798 381 798 381 798 C381 798 376 770 376 770 L376 770 Z M392 13 C229 13 171 159 201 330 C232 501 341 647 504 647 C667 647 725 501 695 330 C665 159 555 13 392 13 L392 13 Z M122 330 C90 149 174 -5 389 -5 C604 -5 742 149 774 330 C806 511 722 665 507 665 C292 665 154 511 122 330 L122 330 Z " />
<glyph glyph-name="omacron" unicode="&#x14d;" horiz-adv-x="602" d="M259 610 C259 610 559 610 559 610 C559 610 564 638 564 638 C564 638 264 638 264 638 C264 638 259 610 259 610 L259 610 Z M302 6 C189 6 130 104 157 250 C182 396 275 494 388 494 C502 494 560 396 534 250 C508 104 416 6 302 6 L302 6 Z M101 250 C74 97 154 -5 300 -5 C447 -5 563 97 590 250 C617 403 537 505 390 505 C244 505 128 403 101 250 L101 250 Z " />
<glyph glyph-name="Obreve" unicode="&#x14e;" horiz-adv-x="772" d="M428 872 C428 809 467 768 525 768 C584 768 637 809 659 872 C659 872 651 873 651 873 C635 830 588 801 531 801 C475 801 437 830 437 873 C437 873 428 872 428 872 L428 872 Z M392 13 C229 13 171 159 201 330 C232 501 341 647 504 647 C667 647 725 501 695 330 C665 159 555 13 392 13 L392 13 Z M122 330 C90 149 174 -5 389 -5 C604 -5 742 149 774 330 C806 511 722 665 507 665 C292 665 154 511 122 330 L122 330 Z " />
<glyph glyph-name="obreve" unicode="&#x14f;" horiz-adv-x="602" d="M312 712 C311 649 350 608 409 608 C467 608 520 649 542 712 C542 712 534 713 534 713 C518 670 471 641 414 641 C358 641 320 670 321 713 C321 713 312 712 312 712 L312 712 Z M302 6 C189 6 130 104 157 250 C182 396 275 494 388 494 C502 494 560 396 534 250 C508 104 416 6 302 6 L302 6 Z M101 250 C74 97 154 -5 300 -5 C447 -5 563 97 590 250 C617 403 537 505 390 505 C244 505 128 403 101 250 L101 250 Z " />
<glyph glyph-name="Racute" unicode="&#x154;" horiz-adv-x="576" d="M327 691 C327 691 459 820 459 820 C489 850 510 871 511 875 C512 881 494 895 486 895 C483 895 464 873 437 840 C437 840 322 695 322 695 C322 695 327 691 327 691 L327 691 Z M168 645 C168 645 171 645 171 645 C183 645 187 622 181 587 C181 587 92 80 92 80 C92 80 92 80 92 80 C85 41 72 15 60 15 C60 15 57 15 57 15 C57 15 56 12 55 8 C55 3 54 0 54 0 C54 0 78 0 78 0 C78 0 114 0 114 0 C114 0 150 0 150 0 C150 0 174 0 174 0 C174 1 176 12 176 15 C176 15 173 15 173 15 C161 15 157 38 163 73 C163 73 208 330 208 330 C208 330 206 317 206 317 C206 317 294 317 294 317 C294 317 421 106 421 106 C482 4 488 0 548 0 C548 0 570 0 570 0 C570 0 571 11 571 11 C571 11 566 11 566 11 C548 11 545 14 495 95 C495 95 358 320 358 320 C474 334 557 398 573 490 C591 592 521 660 397 660 C397 660 266 660 266 660 C266 660 264 646 264 646 C264 646 394 646 394 646 C473 646 514 583 497 490 C480 394 407 330 312 330 C312 330 286 330 286 330 C286 330 208 330 208 330 C208 330 266 660 266 660 C266 660 230 660 230 660 C230 660 194 660 194 660 C194 660 170 660 170 660 C169 657 168 646 168 645 L168 645 Z " />
<glyph glyph-name="Rcaron" unicode="&#x158;" horiz-adv-x="530" d="M168 645 C168 645 171 645 171 645 C183 645 187 622 181 587 C181 587 92 80 92 80 C92 80 92 80 92 80 C85 41 72 15 60 15 C60 15 57 15 57 15 C57 15 56 12 55 8 C55 3 54 0 54 0 C54 0 78 0 78 0 C78 0 114 0 114 0 C114 0 150 0 150 0 C150 0 174 0 174 0 C174 1 176 12 176 15 C176 15 173 15 173 15 C161 15 157 38 163 73 C163 73 208 330 208 330 C208 330 206 317 206 317 C206 317 310 317 310 317 C337 172 419 28 516 -43 C516 -43 522 -35 522 -35 C464 8 404 150 372 321 C372 321 362 320 362 320 C476 335 557 399 573 490 C591 592 521 660 397 660 C397 660 266 660 266 660 C266 660 264 646 264 646 C264 646 394 646 394 646 C473 646 514 583 497 490 C480 394 407 330 312 330 C312 330 208 330 208 330 C208 330 266 660 266 660 C266 660 230 660 230 660 C230 660 194 660 194 660 C194 660 170 660 170 660 C169 657 168 646 168 645 C168 645 168 645 168 645 L168 645 Z M417 767 C417 767 559 927 559 927 C559 927 563 922 563 922 C563 922 427 729 427 729 C424 725 416 715 408 715 C401 715 396 725 395 729 C395 729 327 922 327 922 C327 922 333 927 333 927 C333 927 417 767 417 767 L417 767 Z " />
<glyph glyph-name="rcaron" unicode="&#x159;" horiz-adv-x="377" d="M140 80 C140 80 139 80 139 80 C139 80 192 377 192 377 C218 432 267 468 316 468 C348 468 383 446 415 446 C429 446 440 455 443 470 C447 491 425 505 363 505 C293 505 227 458 193 385 C193 385 194 390 194 390 C194 390 194 390 194 390 C194 390 194 390 194 390 C194 390 197 407 197 407 C197 407 196 407 196 407 C196 407 207 500 207 500 C207 500 197 500 197 500 C197 500 136 480 136 480 C137 480 136 480 136 479 C136 475 135 471 135 471 C149 452 151 437 145 394 C145 394 86 64 86 64 C79 34 68 15 58 15 C58 15 54 15 54 15 C55 15 52 0 52 0 C52 0 75 0 75 0 C75 0 100 0 100 0 C100 0 125 0 125 0 C125 0 149 0 149 0 C149 0 150 3 151 8 C151 12 152 15 152 15 C152 15 148 15 148 15 C137 15 133 41 140 80 L140 80 Z M282 608 C282 608 423 767 423 767 C423 767 427 762 427 762 C427 762 291 569 291 569 C288 565 280 555 272 555 C265 555 260 565 259 569 C259 569 191 762 191 762 C191 762 197 767 197 767 C197 767 282 608 282 608 L282 608 Z " />
<glyph glyph-name="Sacute" unicode="&#x15a;" horiz-adv-x="518" d="M317 691 C317 691 450 820 450 820 C481 850 501 871 502 875 C503 881 485 895 477 895 C474 895 455 873 428 840 C428 840 313 695 313 695 C313 695 317 691 317 691 L317 691 Z M70 132 C70 132 60 78 60 78 C85 28 170 -5 274 -5 C389 -5 478 66 497 173 C510 251 451 325 349 358 C246 391 184 450 194 505 C209 590 274 647 357 647 C380 647 402 643 422 637 C422 637 422 637 422 637 C451 628 482 595 500 556 C503 547 508 536 512 528 C512 528 525 528 525 528 C525 528 534 582 534 582 C534 582 523 575 523 575 C523 575 523 575 523 575 C523 575 534 582 534 582 C510 632 442 665 363 665 C249 665 159 590 139 476 C126 404 184 334 283 302 C388 268 451 204 441 143 C427 65 361 13 278 13 C259 13 240 14 223 17 C223 17 223 17 223 17 C168 25 116 63 92 112 C89 118 86 126 83 132 C83 132 70 132 70 132 L70 132 Z " />
<glyph glyph-name="sacute" unicode="&#x15b;" horiz-adv-x="434" d="M235 531 C235 531 368 660 368 660 C398 690 418 711 419 715 C420 721 403 735 394 735 C392 735 373 713 346 680 C346 680 230 535 230 535 C230 535 235 531 235 531 L235 531 Z M82 99 C82 99 71 99 71 99 C71 99 64 62 64 62 C64 62 72 67 72 67 C72 67 72 67 72 67 C72 67 64 62 64 62 C84 22 148 -5 224 -5 C316 -5 387 51 402 136 C411 185 369 237 299 268 C219 302 171 353 179 395 C189 454 240 494 306 494 C319 494 332 492 345 487 C345 487 345 487 345 487 C375 476 404 440 414 399 C414 399 426 399 426 399 C426 399 432 433 432 433 C411 476 361 505 308 505 C219 505 151 454 137 378 C128 326 176 268 257 232 C324 203 364 157 357 117 C345 51 294 6 229 6 C216 6 204 7 192 9 C192 9 192 9 192 9 C145 15 100 53 82 99 L82 99 Z " />
<glyph glyph-name="Scircumflex" unicode="&#x15c;" horiz-adv-x="518" d="M70 132 C70 132 60 78 60 78 C85 28 170 -5 274 -5 C389 -5 478 66 497 173 C510 251 451 325 349 358 C246 391 184 450 194 505 C209 590 274 647 357 647 C380 647 402 643 422 637 C422 637 422 637 422 637 C451 628 482 595 500 556 C503 547 508 536 512 528 C512 528 525 528 525 528 C525 528 534 582 534 582 C534 582 523 575 523 575 C523 575 523 575 523 575 C523 575 534 582 534 582 C510 632 442 665 363 665 C249 665 159 590 139 476 C126 404 184 334 283 302 C388 268 451 204 441 143 C427 65 361 13 278 13 C259 13 240 14 223 17 C223 17 223 17 223 17 C168 25 116 63 92 112 C89 118 86 126 83 132 C83 132 70 132 70 132 L70 132 Z M393 852 C393 852 478 693 478 693 C478 693 484 698 484 698 C484 698 416 891 416 891 C414 895 410 905 402 905 C394 905 387 895 384 891 C384 891 248 698 248 698 C248 698 252 693 252 693 C252 693 393 852 393 852 L393 852 Z " />
<glyph glyph-name="Scedilla" unicode="&#x15e;" horiz-adv-x="518" d="M70 132 C70 132 60 78 60 78 C85 28 170 -5 274 -5 C389 -5 478 66 497 173 C510 251 451 325 349 358 C246 391 184 450 194 505 C209 590 274 647 357 647 C380 647 402 643 422 637 C422 637 422 637 422 637 C451 628 482 595 500 556 C503 547 508 536 512 528 C512 528 525 528 525 528 C525 528 534 582 534 582 C534 582 523 575 523 575 C523 575 523 575 523 575 C523 575 534 582 534 582 C510 632 442 665 363 665 C249 665 159 590 139 476 C126 404 184 334 283 302 C388 268 451 204 441 143 C427 65 361 13 278 13 C259 13 240 14 223 17 C223 17 223 17 223 17 C168 25 116 63 92 112 C89 118 86 126 83 132 C83 132 70 132 70 132 L70 132 Z " />
<glyph glyph-name="scedilla" unicode="&#x15f;" horiz-adv-x="434" d="M82 99 C82 99 71 99 71 99 C71 99 64 62 64 62 C64 62 72 67 72 67 C72 67 72 67 72 67 C72 67 64 62 64 62 C84 22 148 -5 224 -5 C316 -5 387 51 402 136 C411 185 369 237 299 268 C219 302 171 353 179 395 C189 454 240 494 306 494 C319 494 332 492 345 487 C345 487 345 487 345 487 C375 476 404 440 414 399 C414 399 426 399 426 399 C426 399 432 433 432 433 C411 476 361 505 308 505 C219 505 151 454 137 378 C128 326 176 268 257 232 C324 203 364 157 357 117 C345 51 294 6 229 6 C216 6 204 7 192 9 C192 9 192 9 192 9 C145 15 100 53 82 99 L82 99 Z " />
<glyph glyph-name="Scaron" unicode="&#x160;" horiz-adv-x="518" d="M70 132 C70 132 60 78 60 78 C85 28 170 -5 274 -5 C389 -5 478 66 497 173 C510 251 451 325 349 358 C246 391 184 450 194 505 C209 590 274 647 357 647 C380 647 402 643 422 637 C422 637 422 637 422 637 C451 628 482 595 500 556 C503 547 508 536 512 528 C512 528 525 528 525 528 C525 528 534 582 534 582 C534 582 523 575 523 575 C523 575 523 575 523 575 C523 575 534 582 534 582 C510 632 442 665 363 665 C249 665 159 590 139 476 C126 404 184 334 283 302 C388 268 451 204 441 143 C427 65 361 13 278 13 C259 13 240 14 223 17 C223 17 223 17 223 17 C168 25 116 63 92 112 C89 118 86 126 83 132 C83 132 70 132 70 132 L70 132 Z M378 768 C378 768 519 927 519 927 C519 927 523 922 523 922 C523 922 387 729 387 729 C384 725 376 715 369 715 C361 715 357 725 355 729 C355 729 287 922 287 922 C287 922 293 927 293 927 C293 927 378 768 378 768 L378 768 Z " />
<glyph glyph-name="scaron" unicode="&#x161;" horiz-adv-x="434" d="M82 99 C82 99 71 99 71 99 C71 99 64 62 64 62 C64 62 72 67 72 67 C72 67 72 67 72 67 C72 67 64 62 64 62 C84 22 148 -5 224 -5 C316 -5 387 51 402 136 C411 185 369 237 299 268 C219 302 171 353 179 395 C189 454 240 494 306 494 C319 494 332 492 345 487 C345 487 345 487 345 487 C375 476 404 440 414 399 C414 399 426 399 426 399 C426 399 432 433 432 433 C411 476 361 505 308 505 C219 505 151 454 137 378 C128 326 176 268 257 232 C324 203 364 157 357 117 C345 51 294 6 229 6 C216 6 204 7 192 9 C192 9 192 9 192 9 C145 15 100 53 82 99 L82 99 Z M326 608 C326 608 467 767 467 767 C467 767 471 762 471 762 C471 762 335 569 335 569 C332 565 324 555 317 555 C309 555 305 565 303 569 C303 569 235 762 235 762 C235 762 241 767 241 767 C241 767 326 608 326 608 L326 608 Z " />
<glyph glyph-name="Tcaron" unicode="&#x164;" horiz-adv-x="633" d="M379 15 C379 15 376 15 376 15 C365 15 361 38 366 73 C366 73 466 642 466 642 C466 642 575 642 575 642 C623 642 670 626 692 601 C692 601 699 594 699 594 C699 594 711 594 711 594 C712 612 714 634 716 651 C716 654 717 658 717 660 C717 660 703 660 703 660 C703 660 637 660 637 660 C637 660 230 660 230 660 C230 660 163 660 163 660 C163 660 150 660 150 660 C149 658 148 654 148 651 C143 634 137 612 133 594 C133 594 145 594 145 594 C145 594 154 601 154 601 C185 626 237 642 285 642 C285 642 394 642 394 642 C394 642 295 80 295 80 C295 80 295 80 295 80 C288 41 276 15 263 15 C263 15 260 15 260 15 C260 15 259 12 258 8 C258 3 257 0 257 0 C257 0 281 0 281 0 C281 0 317 0 317 0 C317 0 353 0 353 0 C353 0 377 0 377 0 C377 1 379 12 379 15 L379 15 Z M452 768 C452 768 593 927 593 927 C593 927 598 922 598 922 C598 922 462 729 462 729 C458 725 450 715 443 715 C435 715 431 725 430 729 C430 729 362 922 362 922 C362 922 367 927 367 927 C367 927 452 768 452 768 L452 768 Z " />
<glyph glyph-name="tcaron" unicode="&#x165;" horiz-adv-x="358" d="M236 571 C216 526 169 492 120 486 C120 486 118 486 118 486 C118 486 117 481 117 481 C117 481 196 481 196 481 C196 481 131 111 131 111 C115 21 129 -5 197 -5 C253 -5 301 40 350 107 C350 107 346 110 346 110 C305 54 267 17 226 17 C178 17 167 36 179 102 C201 228 224 355 246 481 C246 481 405 481 405 481 C405 481 408 500 408 500 C408 500 249 500 249 500 C258 547 266 593 274 640 C274 640 266 640 266 640 C266 640 236 571 236 571 L236 571 Z M540 605 C570 658 593 706 594 712 C595 721 574 724 565 723 C554 724 528 662 511 617 C511 617 449 454 449 454 C449 454 455 452 455 452 C455 452 540 605 540 605 L540 605 Z " />
<glyph glyph-name="Utilde" unicode="&#x168;" horiz-adv-x="587" d="M292 755 C299 795 322 822 349 822 C410 822 457 759 518 759 C558 759 591 796 601 852 C601 852 593 852 593 852 C587 816 563 792 535 792 C474 792 426 855 366 855 C327 855 295 815 284 755 C284 755 292 755 292 755 L292 755 Z M677 660 C677 660 650 660 650 660 C650 660 642 660 642 660 C642 660 634 660 634 660 C634 660 605 660 605 660 C605 659 603 645 602 645 C602 645 607 645 607 645 C620 645 626 618 619 576 C619 576 549 184 549 184 C532 86 464 20 320 20 C193 20 156 90 174 194 C174 194 242 580 242 580 C242 580 242 580 242 580 C249 619 261 645 274 645 C274 645 277 645 277 645 C277 645 278 648 279 653 C279 657 280 660 280 660 C280 660 256 660 256 660 C256 660 220 660 220 660 C220 660 184 660 184 660 C184 660 160 660 160 660 C159 657 158 646 158 645 C158 645 161 645 161 645 C174 645 177 619 170 580 C170 580 170 580 170 580 C170 580 105 208 105 208 C82 80 134 -5 305 -5 C469 -5 546 68 565 178 C565 178 636 578 636 578 C644 619 658 645 671 645 C671 645 675 645 675 645 C675 646 677 657 677 660 C677 660 677 660 677 660 L677 660 Z " />
<glyph glyph-name="utilde" unicode="&#x169;" horiz-adv-x="496" d="M201 595 C208 635 231 662 258 662 C319 662 367 599 427 599 C467 599 500 636 511 692 C511 692 502 692 502 692 C496 656 472 632 444 632 C383 632 335 695 275 695 C236 695 203 655 193 595 C193 595 201 595 201 595 L201 595 Z M453 123 C453 123 452 123 452 123 C452 123 519 500 519 500 C519 500 494 500 494 500 C494 500 469 500 469 500 C469 500 445 500 445 500 C444 497 443 486 443 485 C443 485 446 485 446 485 C457 485 461 463 456 429 C456 429 400 110 400 110 C400 110 400 110 400 110 C400 110 398 99 398 99 C371 56 322 28 241 28 C148 28 109 81 124 161 C124 161 184 500 184 500 C184 500 159 500 159 500 C159 500 134 500 134 500 C134 500 110 500 110 500 C110 500 109 497 108 493 C108 488 107 485 107 485 C107 485 111 485 111 485 C122 485 126 462 121 426 C121 426 73 156 73 156 C56 59 97 -5 196 -5 C294 -5 357 31 396 86 C396 86 394 77 394 77 C394 77 383 13 383 13 C383 13 383 13 383 13 C383 13 381 0 381 0 C381 0 391 0 391 0 C391 0 458 20 458 20 C458 20 458 21 458 21 C459 26 460 29 460 29 C444 51 442 66 453 123 C453 123 453 123 453 123 L453 123 Z " />
<glyph glyph-name="Umacron" unicode="&#x16a;" horiz-adv-x="587" d="M287 770 C287 770 587 770 587 770 C587 770 592 798 592 798 C592 798 292 798 292 798 C292 798 287 770 287 770 L287 770 Z M677 660 C677 660 650 660 650 660 C650 660 642 660 642 660 C642 660 634 660 634 660 C634 660 605 660 605 660 C605 659 603 645 602 645 C602 645 607 645 607 645 C620 645 626 618 619 576 C619 576 549 184 549 184 C532 86 464 20 320 20 C193 20 156 90 174 194 C174 194 242 580 242 580 C242 580 242 580 242 580 C249 619 261 645 274 645 C274 645 277 645 277 645 C277 645 278 648 279 653 C279 657 280 660 280 660 C280 660 256 660 256 660 C256 660 220 660 220 660 C220 660 184 660 184 660 C184 660 160 660 160 660 C159 657 158 646 158 645 C158 645 161 645 161 645 C174 645 177 619 170 580 C170 580 170 580 170 580 C170 580 105 208 105 208 C82 80 134 -5 305 -5 C469 -5 546 68 565 178 C565 178 636 578 636 578 C644 619 658 645 671 645 C671 645 675 645 675 645 C675 646 677 657 677 660 C677 660 677 660 677 660 L677 660 Z " />
<glyph glyph-name="umacron" unicode="&#x16b;" horiz-adv-x="496" d="M196 610 C196 610 496 610 496 610 C496 610 501 638 501 638 C501 638 201 638 201 638 C201 638 196 610 196 610 L196 610 Z M453 123 C453 123 452 123 452 123 C452 123 519 500 519 500 C519 500 494 500 494 500 C494 500 469 500 469 500 C469 500 445 500 445 500 C444 497 443 486 443 485 C443 485 446 485 446 485 C457 485 461 463 456 429 C456 429 400 110 400 110 C400 110 400 110 400 110 C400 110 398 99 398 99 C371 56 322 28 241 28 C148 28 109 81 124 161 C124 161 184 500 184 500 C184 500 159 500 159 500 C159 500 134 500 134 500 C134 500 110 500 110 500 C110 500 109 497 108 493 C108 488 107 485 107 485 C107 485 111 485 111 485 C122 485 126 462 121 426 C121 426 73 156 73 156 C56 59 97 -5 196 -5 C294 -5 357 31 396 86 C396 86 394 77 394 77 C394 77 383 13 383 13 C383 13 383 13 383 13 C383 13 381 0 381 0 C381 0 391 0 391 0 C391 0 458 20 458 20 C458 20 458 21 458 21 C459 26 460 29 460 29 C444 51 442 66 453 123 C453 123 453 123 453 123 L453 123 Z " />
<glyph glyph-name="Ubreve" unicode="&#x16c;" horiz-adv-x="587" d="M339 872 C339 809 378 768 436 768 C495 768 548 809 570 872 C570 872 561 873 561 873 C546 830 499 801 442 801 C386 801 348 830 348 873 C348 873 339 872 339 872 L339 872 Z M677 660 C677 660 650 660 650 660 C650 660 642 660 642 660 C642 660 634 660 634 660 C634 660 605 660 605 660 C605 659 603 645 602 645 C602 645 607 645 607 645 C620 645 626 618 619 576 C619 576 549 184 549 184 C532 86 464 20 320 20 C193 20 156 90 174 194 C174 194 242 580 242 580 C242 580 242 580 242 580 C249 619 261 645 274 645 C274 645 277 645 277 645 C277 645 278 648 279 653 C279 657 280 660 280 660 C280 660 256 660 256 660 C256 660 220 660 220 660 C220 660 184 660 184 660 C184 660 160 660 160 660 C159 657 158 646 158 645 C158 645 161 645 161 645 C174 645 177 619 170 580 C170 580 170 580 170 580 C170 580 105 208 105 208 C82 80 134 -5 305 -5 C469 -5 546 68 565 178 C565 178 636 578 636 578 C644 619 658 645 671 645 C671 645 675 645 675 645 C675 646 677 657 677 660 C677 660 677 660 677 660 L677 660 Z " />
<glyph glyph-name="ubreve" unicode="&#x16d;" horiz-adv-x="496" d="M248 712 C248 649 287 608 345 608 C404 608 457 649 479 712 C479 712 471 713 471 713 C455 670 408 641 351 641 C295 641 257 670 257 713 C257 713 248 712 248 712 L248 712 Z M453 123 C453 123 452 123 452 123 C452 123 519 500 519 500 C519 500 494 500 494 500 C494 500 469 500 469 500 C469 500 445 500 445 500 C444 497 443 486 443 485 C443 485 446 485 446 485 C457 485 461 463 456 429 C456 429 400 110 400 110 C400 110 400 110 400 110 C400 110 398 99 398 99 C371 56 322 28 241 28 C148 28 109 81 124 161 C124 161 184 500 184 500 C184 500 159 500 159 500 C159 500 134 500 134 500 C134 500 110 500 110 500 C110 500 109 497 108 493 C108 488 107 485 107 485 C107 485 111 485 111 485 C122 485 126 462 121 426 C121 426 73 156 73 156 C56 59 97 -5 196 -5 C294 -5 357 31 396 86 C396 86 394 77 394 77 C394 77 383 13 383 13 C383 13 383 13 383 13 C383 13 381 0 381 0 C381 0 391 0 391 0 C391 0 458 20 458 20 C458 20 458 21 458 21 C459 26 460 29 460 29 C444 51 442 66 453 123 C453 123 453 123 453 123 L453 123 Z " />
<glyph glyph-name="Uring" unicode="&#x16e;" horiz-adv-x="587" d="M425 706 C382 706 352 743 360 788 C368 836 406 869 454 869 C502 869 528 836 520 788 C512 743 469 706 425 706 L425 706 Z M346 788 C337 738 373 695 423 695 C474 695 525 738 534 788 C544 843 513 880 456 880 C400 880 356 843 346 788 L346 788 Z M677 660 C677 660 650 660 650 660 C650 660 642 660 642 660 C642 660 634 660 634 660 C634 660 605 660 605 660 C605 659 603 645 602 645 C602 645 607 645 607 645 C620 645 626 618 619 576 C619 576 549 184 549 184 C532 86 464 20 320 20 C193 20 156 90 174 194 C174 194 242 580 242 580 C242 580 242 580 242 580 C249 619 261 645 274 645 C274 645 277 645 277 645 C277 645 278 648 279 653 C279 657 280 660 280 660 C280 660 256 660 256 660 C256 660 220 660 220 660 C220 660 184 660 184 660 C184 660 160 660 160 660 C159 657 158 646 158 645 C158 645 161 645 161 645 C174 645 177 619 170 580 C170 580 170 580 170 580 C170 580 105 208 105 208 C82 80 134 -5 305 -5 C469 -5 546 68 565 178 C565 178 636 578 636 578 C644 619 658 645 671 645 C671 645 675 645 675 645 C675 646 677 657 677 660 C677 660 677 660 677 660 L677 660 Z " />
<glyph glyph-name="uring" unicode="&#x16f;" horiz-adv-x="496" d="M335 546 C291 546 261 583 269 628 C277 676 315 709 363 709 C411 709 437 676 429 628 C421 583 378 546 335 546 L335 546 Z M255 628 C246 578 282 535 333 535 C383 535 434 578 443 628 C453 683 421 720 365 720 C309 720 265 683 255 628 L255 628 Z M453 123 C453 123 452 123 452 123 C452 123 519 500 519 500 C519 500 494 500 494 500 C494 500 469 500 469 500 C469 500 445 500 445 500 C444 497 443 486 443 485 C443 485 446 485 446 485 C457 485 461 463 456 429 C456 429 400 110 400 110 C400 110 400 110 400 110 C400 110 398 99 398 99 C371 56 322 28 241 28 C148 28 109 81 124 161 C124 161 184 500 184 500 C184 500 159 500 159 500 C159 500 134 500 134 500 C134 500 110 500 110 500 C110 500 109 497 108 493 C108 488 107 485 107 485 C107 485 111 485 111 485 C122 485 126 462 121 426 C121 426 73 156 73 156 C56 59 97 -5 196 -5 C294 -5 357 31 396 86 C396 86 394 77 394 77 C394 77 383 13 383 13 C383 13 383 13 383 13 C383 13 381 0 381 0 C381 0 391 0 391 0 C391 0 458 20 458 20 C458 20 458 21 458 21 C459 26 460 29 460 29 C444 51 442 66 453 123 C453 123 453 123 453 123 L453 123 Z " />
<glyph glyph-name="Wcircumflex" unicode="&#x174;" horiz-adv-x="870" d="M123 645 C123 645 126 645 126 645 C134 645 144 623 150 590 C150 590 248 -15 248 -15 C248 -15 262 -15 262 -15 C262 -15 538 576 538 576 C538 576 625 -15 625 -15 C625 -15 639 -15 639 -15 C639 -15 915 580 915 580 C915 580 915 580 915 580 C933 619 953 645 966 645 C966 645 969 645 969 645 C969 645 970 648 970 653 C971 657 972 660 972 660 C972 660 952 660 952 660 C952 660 944 660 944 660 C944 660 936 660 936 660 C936 660 902 660 902 660 C902 660 901 657 901 653 C900 648 899 645 900 645 C900 645 904 645 904 645 C919 645 917 619 899 580 C899 580 899 580 899 580 C899 580 625 -15 625 -15 C625 -15 665 73 665 73 C665 73 582 670 582 670 C582 670 568 670 568 670 C568 670 248 -15 248 -15 C248 -15 286 67 286 67 C286 67 227 590 227 590 C224 623 229 645 241 645 C241 645 245 645 245 645 C244 645 245 648 246 653 C246 657 247 660 247 660 C247 660 219 660 219 660 C219 660 179 660 179 660 C179 660 139 660 139 660 C139 660 125 660 125 660 C124 657 123 646 123 645 C123 645 123 645 123 645 L123 645 Z M607 852 C607 852 692 693 692 693 C692 693 698 698 698 698 C698 698 630 891 630 891 C628 895 624 905 616 905 C608 905 601 895 598 891 C598 891 462 698 462 698 C462 698 466 693 466 693 C466 693 607 852 607 852 L607 852 Z " />
<glyph glyph-name="Ycircumflex" unicode="&#x176;" horiz-adv-x="564" d="M229 0 C229 0 252 0 252 0 C252 0 288 0 288 0 C288 0 324 0 324 0 C324 0 348 0 348 0 C348 0 348 3 350 8 C350 12 351 15 351 15 C351 15 347 15 347 15 C335 15 332 40 338 78 C351 154 366 236 378 302 C378 302 378 302 378 302 C378 302 603 593 603 593 C628 625 650 645 660 645 C660 645 663 645 663 645 C663 645 666 660 665 660 C665 660 654 660 654 660 C654 660 645 660 645 660 C645 660 637 660 637 660 C637 660 602 660 602 660 C602 659 600 645 599 645 C599 645 603 645 603 645 C617 645 600 611 560 560 C560 560 561 560 561 560 C561 560 363 302 363 302 C363 302 353 302 353 302 C353 302 267 580 267 580 C267 580 267 580 267 580 C255 619 254 645 265 645 C265 645 268 645 268 645 C269 645 271 659 271 660 C271 660 242 660 242 660 C242 660 199 660 199 660 C199 660 156 660 156 660 C156 660 147 660 147 660 C147 660 146 657 145 653 C145 648 144 645 144 645 C144 645 147 645 147 645 C156 645 171 619 185 580 C185 580 185 580 185 580 C185 580 300 268 300 268 C288 204 275 130 263 63 C255 34 245 15 235 15 C235 15 231 15 231 15 C230 12 229 1 229 0 C229 0 229 0 229 0 L229 0 Z M439 853 C439 853 524 693 524 693 C524 693 529 698 529 698 C529 698 461 891 461 891 C460 895 456 905 448 905 C440 905 433 895 430 891 C430 891 293 698 293 698 C293 698 298 693 298 693 C298 693 439 853 439 853 L439 853 Z " />
<glyph glyph-name="Ydieresis" unicode="&#x178;" horiz-adv-x="564" d="M506 730 C524 730 539 742 542 761 C545 779 535 791 517 791 C499 791 484 779 481 761 C478 742 488 730 506 730 L506 730 Z M328 730 C347 730 361 742 364 761 C367 779 357 791 339 791 C321 791 306 779 303 761 C300 742 310 730 328 730 L328 730 Z M229 0 C229 0 252 0 252 0 C252 0 288 0 288 0 C288 0 324 0 324 0 C324 0 348 0 348 0 C348 0 348 3 350 8 C350 12 351 15 351 15 C351 15 347 15 347 15 C335 15 332 40 338 78 C351 154 366 236 378 302 C378 302 378 302 378 302 C378 302 603 593 603 593 C628 625 650 645 660 645 C660 645 663 645 663 645 C663 645 666 660 665 660 C665 660 654 660 654 660 C654 660 645 660 645 660 C645 660 637 660 637 660 C637 660 602 660 602 660 C602 659 600 645 599 645 C599 645 603 645 603 645 C617 645 600 611 560 560 C560 560 561 560 561 560 C561 560 363 302 363 302 C363 302 353 302 353 302 C353 302 267 580 267 580 C267 580 267 580 267 580 C255 619 254 645 265 645 C265 645 268 645 268 645 C269 645 271 659 271 660 C271 660 242 660 242 660 C242 660 199 660 199 660 C199 660 156 660 156 660 C156 660 147 660 147 660 C147 660 146 657 145 653 C145 648 144 645 144 645 C144 645 147 645 147 645 C156 645 171 619 185 580 C185 580 185 580 185 580 C185 580 300 268 300 268 C288 204 275 130 263 63 C255 34 245 15 235 15 C235 15 231 15 231 15 C230 12 229 1 229 0 C229 0 229 0 229 0 L229 0 Z " />
<glyph glyph-name="Zacute" unicode="&#x179;" horiz-adv-x="590" d="M456 691 C456 691 588 820 588 820 C619 850 640 871 640 875 C641 881 624 895 615 895 C613 895 594 873 567 840 C567 840 451 695 451 695 C451 695 456 691 456 691 L456 691 Z M520 9 C526 26 534 47 539 64 C539 64 536 64 536 64 C527 66 521 66 521 66 C521 66 513 59 513 59 C486 35 433 19 378 19 C378 19 150 19 150 19 C150 19 653 660 653 660 C653 660 612 660 612 660 C612 660 571 660 571 660 C571 660 318 660 318 660 C318 660 251 660 251 660 C251 660 238 660 238 660 C237 658 235 654 234 651 C227 637 219 618 213 604 C213 604 225 604 225 604 C225 604 235 610 235 610 C268 629 322 642 370 642 C370 642 557 642 557 642 C557 642 55 0 55 0 C55 0 95 0 95 0 C95 0 135 0 135 0 C135 0 437 0 437 0 C437 0 516 0 516 0 C516 0 517 0 517 0 C518 3 519 7 520 9 L520 9 Z " />
<glyph glyph-name="zacute" unicode="&#x17a;" horiz-adv-x="497" d="M282 531 C282 531 415 660 415 660 C445 690 466 711 466 715 C467 721 450 735 441 735 C439 735 420 713 393 680 C393 680 277 535 277 535 C277 535 282 531 282 531 L282 531 Z M301 488 C301 488 301 488 301 488 C301 488 462 489 462 489 C462 489 63 0 63 0 C63 0 93 0 93 0 C93 0 122 0 122 0 C122 0 349 0 349 0 C349 0 426 0 426 0 C426 0 429 0 429 0 C429 2 430 4 431 6 C436 21 443 42 449 57 C449 57 445 57 445 57 C436 58 430 59 430 59 C430 59 422 52 422 52 C395 28 342 11 288 11 C288 11 131 11 131 11 C131 11 529 500 529 500 C529 500 500 500 500 500 C500 500 471 500 471 500 C471 500 246 500 246 500 C246 500 179 500 179 500 C179 500 166 500 166 500 C166 500 163 494 163 494 C159 484 152 470 148 460 C148 460 160 460 160 460 C195 475 246 488 301 488 L301 488 Z " />
<glyph glyph-name="Zdotaccent" unicode="&#x17b;" horiz-adv-x="590" d="M464 730 C483 730 497 742 500 761 C503 779 493 791 475 791 C457 791 442 779 439 761 C436 742 446 730 464 730 L464 730 Z M520 9 C526 26 534 47 539 64 C539 64 536 64 536 64 C527 66 521 66 521 66 C521 66 513 59 513 59 C486 35 433 19 378 19 C378 19 150 19 150 19 C150 19 653 660 653 660 C653 660 612 660 612 660 C612 660 571 660 571 660 C571 660 318 660 318 660 C318 660 251 660 251 660 C251 660 238 660 238 660 C237 658 235 654 234 651 C227 637 219 618 213 604 C213 604 225 604 225 604 C225 604 235 610 235 610 C268 629 322 642 370 642 C370 642 557 642 557 642 C557 642 55 0 55 0 C55 0 95 0 95 0 C95 0 135 0 135 0 C135 0 437 0 437 0 C437 0 516 0 516 0 C516 0 517 0 517 0 C518 3 519 7 520 9 L520 9 Z " />
<glyph glyph-name="zdotaccent" unicode="&#x17c;" horiz-adv-x="497" d="M366 570 C384 570 399 582 402 601 C405 619 395 631 377 631 C359 631 344 619 341 601 C338 582 348 570 366 570 L366 570 Z M301 488 C301 488 301 488 301 488 C301 488 462 489 462 489 C462 489 63 0 63 0 C63 0 93 0 93 0 C93 0 122 0 122 0 C122 0 349 0 349 0 C349 0 426 0 426 0 C426 0 429 0 429 0 C429 2 430 4 431 6 C436 21 443 42 449 57 C449 57 445 57 445 57 C436 58 430 59 430 59 C430 59 422 52 422 52 C395 28 342 11 288 11 C288 11 131 11 131 11 C131 11 529 500 529 500 C529 500 500 500 500 500 C500 500 471 500 471 500 C471 500 246 500 246 500 C246 500 179 500 179 500 C179 500 166 500 166 500 C166 500 163 494 163 494 C159 484 152 470 148 460 C148 460 160 460 160 460 C195 475 246 488 301 488 L301 488 Z " />
<glyph glyph-name="Zcaron" unicode="&#x17d;" horiz-adv-x="590" d="M471 768 C471 768 612 927 612 927 C612 927 616 922 616 922 C616 922 480 729 480 729 C477 725 469 715 462 715 C454 715 450 725 448 729 C448 729 380 922 380 922 C380 922 386 927 386 927 C386 927 471 768 471 768 L471 768 Z M520 9 C526 26 534 47 539 64 C539 64 536 64 536 64 C527 66 521 66 521 66 C521 66 513 59 513 59 C486 35 433 19 378 19 C378 19 150 19 150 19 C150 19 653 660 653 660 C653 660 612 660 612 660 C612 660 571 660 571 660 C571 660 318 660 318 660 C318 660 251 660 251 660 C251 660 238 660 238 660 C237 658 235 654 234 651 C227 637 219 618 213 604 C213 604 225 604 225 604 C225 604 235 610 235 610 C268 629 322 642 370 642 C370 642 557 642 557 642 C557 642 55 0 55 0 C55 0 95 0 95 0 C95 0 135 0 135 0 C135 0 437 0 437 0 C437 0 516 0 516 0 C516 0 517 0 517 0 C518 3 519 7 520 9 L520 9 Z " />
<glyph glyph-name="zcaron" unicode="&#x17e;" horiz-adv-x="497" d="M301 488 C301 488 301 488 301 488 C301 488 462 489 462 489 C462 489 63 0 63 0 C63 0 93 0 93 0 C93 0 122 0 122 0 C122 0 349 0 349 0 C349 0 426 0 426 0 C426 0 429 0 429 0 C429 2 430 4 431 6 C436 21 443 42 449 57 C449 57 445 57 445 57 C436 58 430 59 430 59 C430 59 422 52 422 52 C395 28 342 11 288 11 C288 11 131 11 131 11 C131 11 529 500 529 500 C529 500 500 500 500 500 C500 500 471 500 471 500 C471 500 246 500 246 500 C246 500 179 500 179 500 C179 500 166 500 166 500 C166 500 163 494 163 494 C159 484 152 470 148 460 C148 460 160 460 160 460 C195 475 246 488 301 488 L301 488 Z M373 608 C373 608 514 767 514 767 C514 767 518 762 518 762 C518 762 382 569 382 569 C379 565 371 555 364 555 C356 555 352 565 350 569 C350 569 282 762 282 762 C282 762 288 767 288 767 C288 767 373 608 373 608 L373 608 Z " />
<glyph glyph-name="SmallLetterOwithogon" unicode="&#x1eb;" horiz-adv-x="712" d="M711 -51 C711 -51 708 -47 708 -47 C679 -76 621 -95 564 -95 C479 -95 414 -59 367 -5 C558 -2 678 127 705 277 C732 429 654 558 459 558 C265 558 142 429 115 277 C89 128 162 0 349 -5 C412 -78 482 -127 553 -127 C602 -127 665 -97 711 -51 L711 -51 Z M363 11 C215 11 161 133 186 277 C211 420 309 542 457 542 C604 542 659 420 633 277 C608 133 511 11 363 11 L363 11 Z " />
<glyph glyph-name="CapitalLetterAwithdo" unicode="&#x226;" horiz-adv-x="584" d="M406 730 C424 730 439 742 442 761 C445 779 435 791 417 791 C399 791 384 779 381 761 C378 742 388 730 406 730 L406 730 Z M107 95 C107 95 107 95 107 95 C107 95 179 235 179 235 C179 235 422 235 422 235 C422 235 456 60 456 60 C460 32 456 15 445 15 C445 15 442 15 442 15 C442 15 441 12 440 8 C440 3 439 0 439 0 C439 0 468 0 468 0 C468 0 508 0 508 0 C508 0 547 0 547 0 C547 0 566 0 566 0 C566 0 567 3 567 7 C568 12 569 15 569 15 C569 15 565 15 565 15 C553 15 541 36 532 69 C532 69 405 675 405 675 C405 675 387 675 387 675 C387 675 70 68 70 68 C51 36 33 15 22 15 C22 15 18 15 18 15 C19 15 16 0 16 0 C16 0 34 0 34 0 C34 0 46 0 46 0 C46 0 58 0 58 0 C58 0 93 0 93 0 C93 0 94 3 94 8 C95 12 96 15 96 15 C96 15 91 15 91 15 C76 15 82 47 107 95 L107 95 Z M418 254 C418 254 189 254 189 254 C189 254 355 578 355 578 C355 578 418 254 418 254 L418 254 Z " />
<glyph glyph-name="LETTERSMALLCAPITALG" unicode="&#x262;" horiz-adv-x="710" d="M658 260 C658 260 634 260 634 260 C634 260 605 260 605 260 C605 260 576 260 576 260 C576 260 552 260 552 260 C552 260 551 257 551 252 C550 248 549 245 550 245 C550 245 553 245 553 245 C564 245 568 223 563 188 C550 115 541 64 538 47 C480 25 414 11 360 11 C228 11 158 117 186 277 C214 436 321 542 454 542 C472 542 489 541 505 538 C505 538 505 538 505 538 C561 530 613 490 636 436 C638 430 642 421 645 415 C645 415 658 415 658 415 C658 415 666 464 666 464 C666 464 659 459 659 459 C659 459 659 459 659 459 C659 459 666 464 666 464 C639 520 555 558 457 558 C281 558 145 445 115 277 C85 108 182 -5 358 -5 C432 -5 528 20 599 56 C599 56 608 107 622 190 C629 223 641 245 652 245 C652 245 656 245 656 245 C655 245 658 260 658 260 L658 260 Z " />
<glyph glyph-name="LETTERSMALLCAPITALI" unicode="&#x26a;" horiz-adv-x="201" d="M252 553 C236 554 213 554 196 553 C179 552 157 554 140 553 C140 553 139 551 139 546 C138 542 137 539 137 538 C137 538 141 538 141 538 C152 539 156 515 151 478 C151 478 80 80 80 80 C80 80 80 80 80 80 C73 41 61 15 49 15 C49 15 45 15 45 15 C45 15 44 12 44 8 C43 3 42 0 42 0 C42 0 66 0 66 0 C66 0 99 0 99 0 C99 0 131 0 131 0 C131 0 155 0 155 0 C155 1 157 12 157 15 C157 15 154 15 154 15 C143 15 139 37 143 70 C143 70 219 494 219 494 C226 522 236 539 246 538 C246 538 250 538 250 538 C250 539 252 553 252 553 C252 553 252 553 252 553 L252 553 Z " />
<glyph glyph-name="LETTERSMALLCAPITALN" unicode="&#x274;" horiz-adv-x="549" d="M537 538 C537 538 540 538 540 538 C553 539 556 513 549 473 C549 473 480 77 480 77 C480 77 233 553 233 553 C233 553 190 553 190 553 C190 553 180 553 180 553 C170 554 157 554 147 553 C147 553 146 551 145 546 C145 542 144 539 144 538 C144 538 148 538 148 538 C160 539 163 515 157 477 C157 477 87 80 87 80 C87 80 87 80 87 80 C80 41 68 15 55 15 C55 15 52 15 52 15 C52 15 51 12 50 8 C50 3 49 0 49 0 C49 0 73 0 73 0 C73 0 83 0 83 0 C83 0 92 0 92 0 C92 0 116 0 116 0 C116 0 117 3 118 8 C118 12 119 15 119 15 C119 15 115 15 115 15 C104 15 100 37 104 70 C104 70 181 503 181 503 C181 503 438 9 438 9 C438 9 448 -10 448 -10 C448 -10 483 -10 483 -10 C483 -10 491 33 491 33 C491 33 569 473 569 473 C569 473 569 473 569 473 C576 513 588 539 600 538 C600 538 604 538 604 538 C604 539 605 542 605 546 C606 551 607 553 607 553 C597 554 583 554 573 553 C563 552 550 554 539 553 C539 553 537 539 537 538 L537 538 Z " />
<glyph glyph-name="LETTERSMALLCAPITALR" unicode="&#x280;" horiz-adv-x="523" d="M151 538 C151 538 154 538 154 538 C167 539 170 515 164 477 C164 477 94 80 94 80 C94 80 94 80 94 80 C87 41 74 15 62 15 C62 15 58 15 58 15 C59 15 56 0 56 0 C56 0 80 0 80 0 C80 0 112 0 112 0 C112 0 144 0 144 0 C144 0 168 0 168 0 C168 0 168 3 170 8 C170 12 171 15 171 15 C171 15 167 15 167 15 C156 15 152 39 157 74 C157 74 191 267 191 267 C191 267 191 265 191 265 C191 265 248 265 248 265 C248 265 364 106 364 106 C439 4 444 0 496 0 C496 0 516 0 516 0 C516 0 518 10 518 10 C518 10 513 10 513 10 C495 10 491 13 431 96 C431 96 306 268 306 268 C407 280 480 335 494 412 C509 497 443 553 329 553 C329 553 242 553 242 553 C242 553 240 541 240 541 C240 541 327 541 327 541 C400 541 439 490 426 412 C411 332 346 278 263 278 C263 278 238 278 238 278 C238 278 193 278 193 278 C193 278 242 553 242 553 C242 553 210 553 210 553 C193 554 170 554 153 553 C153 553 151 539 151 538 C151 538 151 538 151 538 L151 538 Z " />
<glyph glyph-name="LETTERSMALLCAPITALY" unicode="&#x28f;" horiz-adv-x="498" d="M303 80 C303 80 302 80 302 80 C313 140 324 204 334 256 C334 256 334 256 334 256 C334 256 505 473 505 473 C505 473 505 473 505 473 C536 513 563 539 574 538 C574 538 577 538 577 538 C577 539 579 553 579 553 C574 554 566 554 560 553 C548 554 531 554 518 553 C518 553 515 538 515 538 C515 538 519 538 519 538 C533 539 516 507 479 458 C479 458 321 256 321 256 C321 256 307 256 307 256 C307 256 239 480 239 480 C230 516 230 539 240 538 C240 538 243 538 243 538 C243 539 244 542 244 546 C245 551 246 553 246 553 C225 554 198 554 178 553 C164 554 145 554 130 553 C130 553 128 539 128 538 C128 538 130 538 130 538 C137 539 150 521 162 493 C162 493 264 227 264 227 C255 177 245 122 236 70 C229 36 217 15 206 15 C206 15 202 15 202 15 C203 15 200 0 200 0 C200 0 224 0 224 0 C224 0 256 0 256 0 C256 0 288 0 288 0 C288 0 312 0 312 0 C312 0 313 3 314 8 C314 12 315 15 315 15 C315 15 311 15 311 15 C299 15 296 41 303 80 C303 80 303 80 303 80 L303 80 Z " />
<glyph glyph-name="LETTERSMALLCAPITALB" unicode="&#x299;" horiz-adv-x="497" d="M151 538 C151 538 154 538 154 538 C167 539 170 515 164 477 C164 477 94 80 94 80 C94 80 94 80 94 80 C87 41 74 15 62 15 C62 15 58 15 58 15 C59 15 56 0 56 0 C56 0 80 0 80 0 C80 0 112 0 112 0 C112 0 144 0 144 0 C144 0 252 0 252 0 C384 0 482 61 498 152 C511 229 446 285 332 298 C420 314 481 362 493 427 C506 503 440 553 329 553 C329 553 242 553 242 553 C242 553 240 541 240 541 C240 541 327 541 327 541 C400 541 440 496 428 427 C416 358 363 310 293 301 C288 301 282 301 277 301 C277 301 224 299 224 299 C224 299 197 299 197 299 C197 299 196 292 196 292 C196 292 196 292 196 292 C196 292 196 291 196 291 C196 291 261 291 261 291 C377 291 444 235 430 152 C415 68 343 13 250 13 C250 13 147 13 147 13 C147 13 144 0 144 0 C144 0 242 553 242 553 C242 553 210 553 210 553 C193 554 170 554 153 553 C153 553 151 539 151 538 C151 538 151 538 151 538 L151 538 Z " />
<glyph glyph-name="LETTERSMALLCAPITALH" unicode="&#x29c;" horiz-adv-x="620" d="M576 15 C576 15 573 15 573 15 C561 15 557 38 563 74 C563 74 633 473 633 473 C633 473 633 473 633 473 C640 513 653 539 665 538 C665 538 668 538 668 538 C668 539 669 542 670 546 C670 551 671 553 671 553 C654 554 632 554 615 553 C598 552 575 554 559 553 C559 553 558 551 557 546 C557 542 556 539 556 538 C556 538 560 538 560 538 C572 539 575 515 569 477 C569 477 538 301 538 301 C538 301 186 301 186 301 C186 301 217 473 217 473 C217 473 217 473 217 473 C224 513 236 539 248 538 C248 538 252 538 252 538 C252 539 253 542 253 546 C254 551 255 553 255 553 C238 554 215 554 198 553 C182 554 159 554 142 553 C142 553 140 539 140 538 C140 538 143 538 143 538 C154 539 158 517 153 482 C153 482 79 64 79 64 C72 34 61 15 51 15 C51 15 47 15 47 15 C46 12 45 1 45 0 C45 0 68 0 68 0 C68 0 101 0 101 0 C101 0 133 0 133 0 C133 0 157 0 157 0 C157 0 158 3 158 8 C159 12 160 15 160 15 C160 15 156 15 156 15 C145 15 141 39 146 74 C146 74 184 285 184 285 C184 285 535 285 535 285 C535 285 499 80 499 80 C499 80 499 80 499 80 C492 41 479 15 467 15 C467 15 464 15 464 15 C464 15 463 12 462 8 C462 3 461 0 461 0 C461 0 485 0 485 0 C485 0 517 0 517 0 C517 0 550 0 550 0 C550 0 574 0 574 0 C573 0 576 14 576 15 C576 15 576 15 576 15 L576 15 Z " />
<glyph glyph-name="LETTERSMALLCAPITALL" unicode="&#x29f;" horiz-adv-x="454" d="M140 538 C140 538 143 538 143 538 C154 539 158 517 153 482 C153 482 79 64 79 64 C72 34 61 15 51 15 C51 15 47 15 47 15 C46 12 45 1 45 0 C45 0 68 0 68 0 C68 0 101 0 101 0 C101 0 133 0 133 0 C133 0 304 0 304 0 C304 0 383 0 383 0 C383 0 384 0 384 0 C385 2 386 6 387 8 C393 24 400 45 406 62 C406 62 406 62 406 62 C406 62 406 62 406 62 C406 62 406 62 406 62 C406 61 405 62 403 62 C394 63 388 64 388 64 C388 64 380 57 380 57 C353 33 299 16 245 16 C245 16 136 16 136 16 C136 16 133 0 133 0 C133 0 217 473 217 473 C217 473 217 473 217 473 C224 513 236 539 248 538 C248 538 252 538 252 538 C252 539 253 542 253 546 C254 551 255 553 255 553 C238 554 215 554 198 553 C182 554 159 554 142 553 C142 553 140 539 140 538 C140 538 140 538 140 538 L140 538 Z " />
<glyph glyph-name="LETTERSMALLCAPITALA" unicode="&#x1d00;" horiz-adv-x="517" d="M106 95 C106 95 106 95 106 95 C106 95 159 197 159 197 C159 197 368 197 368 197 C368 197 392 80 392 80 C392 80 392 80 392 80 C400 41 398 15 386 15 C386 15 382 15 382 15 C382 15 381 12 381 8 C380 3 379 0 379 0 C379 0 409 0 409 0 C409 0 444 0 444 0 C444 0 479 0 479 0 C479 0 498 0 498 0 C498 0 499 3 500 7 C500 12 501 15 501 15 C501 15 497 15 497 15 C485 15 472 37 463 72 C463 72 353 566 353 566 C353 566 337 566 337 566 C337 566 71 68 71 68 C53 36 34 15 23 15 C23 15 19 15 19 15 C19 15 18 12 18 8 C17 3 16 0 16 0 C16 0 35 0 35 0 C35 0 46 0 46 0 C46 0 56 0 56 0 C56 0 91 0 91 0 C91 0 92 3 93 8 C93 12 94 15 94 15 C94 15 89 15 89 15 C75 15 81 47 106 95 C106 95 106 95 106 95 L106 95 Z M364 213 C364 213 168 214 168 214 C168 214 308 480 308 480 C308 480 364 213 364 213 L364 213 Z " />
<glyph glyph-name="LETTERSMALLCAPITALC" unicode="&#x1d04;" horiz-adv-x="671" d="M678 415 C678 415 686 464 686 464 C686 464 679 459 679 459 C679 459 679 459 679 459 C679 459 686 464 686 464 C659 520 571 558 468 558 C286 558 145 445 115 277 C85 108 187 -5 369 -5 C472 -5 573 33 620 89 C620 89 629 139 629 139 C629 139 616 139 616 139 C611 132 604 124 599 117 C552 57 469 15 390 12 C390 12 390 11 390 11 C384 11 378 11 372 11 C232 11 158 117 186 277 C214 436 326 542 465 542 C486 542 507 540 526 537 C526 537 526 537 526 537 C581 528 633 488 656 436 C658 429 662 421 665 415 C665 415 678 415 678 415 L678 415 Z " />
<glyph glyph-name="LETTERSMALLCAPITALD" unicode="&#x1d05;" horiz-adv-x="594" d="M151 538 C151 538 154 538 154 538 C167 539 170 515 164 477 C164 477 94 80 94 80 C94 80 94 80 94 80 C87 41 74 15 62 15 C62 15 58 15 58 15 C59 15 56 0 56 0 C56 0 80 0 80 0 C80 0 112 0 112 0 C112 0 144 0 144 0 C144 0 254 0 254 0 C424 0 557 111 586 277 C615 442 510 553 324 553 C324 553 242 553 242 553 C242 553 240 541 240 541 C240 541 322 541 322 541 C470 541 550 435 521 277 C494 118 388 13 256 13 C256 13 147 13 147 13 C147 13 144 0 144 0 C144 0 242 553 242 553 C242 553 210 553 210 553 C193 554 170 554 153 553 C153 553 151 539 151 538 C151 538 151 538 151 538 L151 538 Z " />
<glyph glyph-name="LETTERSMALLCAPITALE" unicode="&#x1d07;" horiz-adv-x="454" d="M364 260 C366 268 367 278 369 287 C369 287 369 287 369 287 C369 287 372 303 372 303 C372 303 372 303 372 303 C373 311 375 320 376 327 C376 327 364 327 364 327 C348 311 308 303 252 303 C252 303 187 303 187 303 C187 303 184 287 184 287 C184 287 249 287 249 287 C300 287 340 278 349 264 C349 264 352 260 352 260 C352 260 364 260 364 260 L364 260 Z M140 538 C140 538 143 538 143 538 C154 539 158 517 153 482 C153 482 79 64 79 64 C72 34 61 15 51 15 C51 15 47 15 47 15 C46 12 45 1 45 0 C45 0 68 0 68 0 C68 0 101 0 101 0 C101 0 133 0 133 0 C133 0 304 0 304 0 C304 0 383 0 383 0 C383 0 384 0 384 0 C385 2 386 6 387 8 C392 23 400 44 405 59 C405 59 394 59 394 59 C394 59 385 53 385 53 C355 31 295 16 235 16 C235 16 136 16 136 16 C136 16 133 0 133 0 C133 0 228 537 228 537 C228 537 319 537 319 537 C385 537 435 521 455 494 C455 494 466 494 466 494 C469 510 473 530 475 545 C476 548 476 551 477 553 C477 554 474 554 469 553 C467 554 464 554 462 553 C443 554 417 554 397 553 C397 553 231 553 231 553 C231 553 198 553 198 553 C182 554 159 554 142 553 C142 553 140 539 140 538 C140 538 140 538 140 538 L140 538 Z " />
<glyph glyph-name="LETTERSMALLCAPITALJ" unicode="&#x1d0a;" horiz-adv-x="273" d="M223 477 C223 477 168 168 168 168 C146 47 126 0 94 0 C75 0 60 20 58 50 C57 62 49 70 39 70 C24 70 15 62 16 50 C18 14 44 -10 80 -10 C167 -10 213 55 242 222 C242 222 287 473 287 473 C287 473 287 473 287 473 C293 513 306 539 318 538 C318 538 322 538 322 538 C322 539 323 542 323 546 C324 551 325 554 324 553 C308 554 285 554 268 553 C252 554 229 554 212 553 C212 553 211 551 211 546 C210 542 209 539 209 538 C209 538 213 538 213 538 C225 539 228 515 223 477 L223 477 Z " />
<glyph glyph-name="LETTERSMALLCAPITALK" unicode="&#x1d0b;" horiz-adv-x="538" d="M266 553 C249 554 226 554 210 553 C193 554 170 554 153 553 C153 553 151 539 151 538 C151 538 151 538 151 538 C151 538 154 538 154 538 C167 539 170 515 164 477 C164 477 94 80 94 80 C94 80 94 80 94 80 C87 41 74 15 62 15 C62 15 58 15 58 15 C59 15 56 0 56 0 C56 0 80 0 80 0 C80 0 112 0 112 0 C112 0 144 0 144 0 C144 0 168 0 168 0 C168 0 168 3 170 8 C170 12 171 15 171 15 C171 15 167 15 167 15 C156 15 152 39 157 74 C157 74 228 473 228 473 C228 473 228 473 228 473 C235 513 248 539 260 538 C260 538 263 538 263 538 C263 539 264 552 266 553 C266 553 266 553 266 553 C266 553 266 553 266 553 C266 553 266 553 266 553 L266 553 Z M521 -5 C521 -5 522 5 522 5 C522 5 517 5 517 5 C488 5 435 62 328 210 C328 210 247 320 247 320 C247 320 426 473 426 473 C426 473 426 473 426 473 C471 513 510 539 522 538 C522 538 525 538 525 538 C525 539 526 542 527 546 C527 551 528 553 528 553 C522 554 515 554 509 553 C499 554 486 554 476 553 C476 553 475 551 474 546 C474 542 473 539 473 538 C473 538 474 538 474 538 C479 539 452 514 407 475 C407 475 238 333 238 333 C238 333 238 333 238 333 C238 333 197 298 197 298 C197 298 205 284 205 284 C205 284 206 285 206 285 C206 285 286 174 286 174 C381 45 440 -5 501 -5 C501 -5 521 -5 521 -5 L521 -5 Z " />
<glyph glyph-name="LETTERSMALLCAPITALM" unicode="&#x1d0d;" horiz-adv-x="676" d="M733 553 C717 554 696 554 681 553 C681 553 669 553 669 553 C669 553 652 553 652 553 C652 553 362 71 362 71 C362 71 249 553 249 553 C249 553 207 553 207 553 C207 553 197 553 197 553 C186 554 173 554 163 553 C163 553 161 538 161 538 C161 538 164 538 164 538 C176 539 178 513 169 473 C169 473 82 80 82 80 C73 41 60 15 48 15 C48 15 44 15 44 15 C44 15 43 12 43 8 C42 3 41 0 41 0 C41 0 65 0 65 0 C65 0 74 0 74 0 C74 0 84 0 84 0 C84 0 119 0 119 0 C119 1 118 3 122 15 C122 15 116 15 116 15 C100 15 95 45 104 89 C104 89 191 483 191 483 C191 483 313 9 313 9 C313 9 316 -5 316 -5 C316 -5 332 -5 332 -5 C332 -5 647 517 647 517 C647 517 588 80 588 80 C583 41 572 15 560 15 C560 15 557 15 557 15 C557 13 554 6 554 0 C554 0 578 0 578 0 C578 0 610 0 610 0 C610 0 643 0 643 0 C643 0 666 0 666 0 C666 1 668 12 668 15 C668 15 665 15 665 15 C655 15 649 34 651 65 C651 65 702 485 702 485 C707 518 717 539 727 538 C727 538 730 538 730 538 C730 538 733 553 733 553 L733 553 Z " />
<glyph glyph-name="LETTERSMALLCAPITALO" unicode="&#x1d0f;" horiz-adv-x="712" d="M363 11 C215 11 161 133 186 277 C211 420 309 542 457 542 C604 542 659 420 633 277 C608 133 511 11 363 11 L363 11 Z M115 277 C88 125 165 -5 360 -5 C555 -5 678 125 705 277 C732 429 654 558 459 558 C265 558 142 429 115 277 L115 277 Z " />
<glyph glyph-name="LETTERSMALLCAPITALP" unicode="&#x1d18;" horiz-adv-x="477" d="M151 538 C151 538 154 538 154 538 C167 539 170 515 164 477 C164 477 94 80 94 80 C94 80 94 80 94 80 C87 41 74 15 62 15 C62 15 58 15 58 15 C59 15 56 0 56 0 C56 0 80 0 80 0 C80 0 112 0 112 0 C112 0 144 0 144 0 C144 0 168 0 168 0 C168 0 168 3 170 8 C170 12 171 15 171 15 C171 15 167 15 167 15 C156 15 152 39 157 74 C157 74 188 250 188 250 C188 250 268 250 268 250 C404 250 506 310 521 400 C538 492 466 553 342 553 C342 553 242 553 242 553 C242 553 240 541 240 541 C240 541 339 541 339 541 C423 541 468 485 453 400 C439 318 366 263 270 263 C270 263 191 263 191 263 C191 263 189 256 189 256 C189 256 242 553 242 553 C242 553 210 553 210 553 C193 554 170 554 153 553 C153 553 151 539 151 538 C151 538 151 538 151 538 L151 538 Z " />
<glyph glyph-name="LETTERSMALLCAPITALT" unicode="&#x1d1b;" horiz-adv-x="573" d="M231 0 C231 0 255 0 255 0 C255 0 287 0 287 0 C287 0 319 0 319 0 C319 0 343 0 343 0 C343 0 344 3 344 8 C346 12 346 15 346 15 C346 15 342 15 342 15 C331 15 327 39 332 75 C332 75 414 537 414 537 C414 537 495 537 495 537 C543 537 590 521 612 497 C612 497 619 489 619 489 C619 489 631 489 631 489 C632 506 634 528 636 545 C636 548 636 551 637 553 C637 554 634 554 629 553 C627 554 624 554 622 553 C602 554 576 554 557 553 C557 553 212 553 212 553 C193 554 167 554 147 553 C145 554 142 554 140 553 C135 554 132 554 132 553 C132 551 131 548 130 545 C126 528 120 506 116 489 C116 489 128 489 128 489 C128 489 137 497 137 497 C167 521 220 537 268 537 C268 537 349 537 349 537 C349 537 269 80 269 80 C269 80 269 80 269 80 C262 41 249 15 237 15 C237 15 233 15 233 15 C234 15 231 0 231 0 L231 0 Z " />
</font>
</svg>
